  0
SECTION
  2
HEADER
  9
$ACADVER
  1
AC1015
  9
$DWGCODEPAGE
  3
ANSI_1252
  9
$EXTMAX
 10
297.0
 20
210.0
 30
0.0
  9
$EXTMIN
 10
0.0
 20
0.0
 30
0.0
  9
$LIMMIN
 10
0.0
 20
0.0
  9
$LIMMAX
 10
297.0
 20
210.0
  9
$VIEWCTR
 10
148.5
 20
105.0
  9
$VIEWSIZE
 40
210.0
  9
$CLAYER
  8
0
  9
$LTSCALE
 40
16.335
  9
$CELTYPE
  6
BYLAYER
  9
$DIMSCALE
 40
1.0
  9
$DIMASZ
 40
3.0
  9
$DIMEXO
 40
0.5
  9
$DIMDLI
 40
11.286
  9
$DIMEXE
 40
1.5
  9
$DIMCEN
 40
2.673
  9
$DIMLFAC
 40
1.0
  9
$DIMBLK
  1
_FILLED
  9
$DIMTXT
 40
3.0
  9
$DIMTOL
 70
1
  9
$DIMLIM
 70
0
  9
$DIMTFAC
 40
1.0
  9
$DIMTP
 40
0.01
  9
$DIMTM
 40
0.01
  9
$DIMGAP
 40
0.625
  9
$DIMDSEP
 70
44
  9
$PDMODE
 70
3
  9
$PDSIZE
 40
3.0
  9
$HANDSEED
  5
569
  9
$TILEMODE
 70
1
  9
$MEASUREMENT
 70
1
  9
$INSUNITS
 70
4
  0
ENDSEC
  0
SECTION
  2
CLASSES
  0
CLASS
  1
ACDBDICTIONARYWDFLT
  2
AcDbDictionaryWithDefault
  3
AutoCAD 2000
 90
0
280
0
281
0
  0
CLASS
  1
ACDBPLACEHOLDER
  2
AcDbPlaceHolder
  3
AutoCAD 2000
 90
0
280
0
281
0
  0
CLASS
  1
LAYOUT
  2
AcDbLayout
  3
AutoCAD 2000
 90
0
280
0
281
0
  0
ENDSEC
  0
SECTION
  2
TABLES
  0
TABLE
  2
VPORT
  5
8
100
AcDbSymbolTable
 70
2
  0
VPORT
  5
1F4
100
AcDbSymbolTableRecord
100
AcDbViewportTableRecord
  2
*ACTIVE
 70
0
 10
0.0
 20
0.0
 11
1.0
 21
1.0
 12
148.5
 22
105.0
 13
0.0
 23
0.0
 14
1.0
 24
1.0
 15
0.0
 25
0.0
 16
0.0
 26
0.0
 36
1.0
 17
0.0
 27
0.0
 37
0.0
 40
210.0
 41
1.4142857143
 42
50.0
 43
0.0
 44
0.0
 50
0.0
 51
0.0
 71
0
 72
100
 73
1
 74
1
 75
0
 76
0
 77
0
 78
0
  0
ENDTAB
  0
TABLE
  2
LTYPE
  5
5
100
AcDbSymbolTable
 70
6
  0
LTYPE
  5
14
100
AcDbSymbolTableRecord
100
AcDbLinetypeTableRecord
  2
BYBLOCK
 70
0
  3

 72
65
 73
0
 40
0.0
  0
LTYPE
  5
15
100
AcDbSymbolTableRecord
100
AcDbLinetypeTableRecord
  2
BYLAYER
 70
0
  3

 72
65
 73
0
 40
0.0
  0
LTYPE
  5
16
100
AcDbSymbolTableRecord
100
AcDbLinetypeTableRecord
  2
CONTINUOUS
 70
64
  3
Solid line
 72
65
 73
0
 40
0.0
  0
LTYPE
  5
1F5
100
AcDbSymbolTableRecord
100
AcDbLinetypeTableRecord
  2
CENTER
 70
64
  3
____ _ ____ _ ____ _ ____ _ ____ _ ____ _ ____
 72
65
 73
4
 40
0.6
 49
0.375
 74
0
 49
-0.075
 74
0
 49
0.075
 74
0
 49
-0.075
 74
0
  0
LTYPE
  5
1F6
100
AcDbSymbolTableRecord
100
AcDbLinetypeTableRecord
  2
HIDDEN
 70
64
  3
- - - - - - - - - - - - - - - - - - - -
 72
65
 73
2
 40
0.2
 49
0.1
 74
0
 49
-0.1
 74
0
  0
LTYPE
  5
1F7
100
AcDbSymbolTableRecord
100
AcDbLinetypeTableRecord
  2
PHANTOM
 70
64
  3
_____ _ _ _____ _ _ _____ _ _ _____
 72
65
 73
6
 40
0.8
 49
0.45
 74
0
 49
-0.05
 74
0
 49
0.1
 74
0
 49
-0.05
 74
0
 49
0.1
 74
0
 49
-0.05
 74
0
  0
LTYPE
  5
1F8
100
AcDbSymbolTableRecord
100
AcDbLinetypeTableRecord
  2
DOT
 70
64
  3
. . . . . . . . . . . . . . . . . . . .
 72
65
 73
2
 40
0.2
 49
0.1
 74
0
 49
-0.1
 74
0
  0
LTYPE
  5
1F9
100
AcDbSymbolTableRecord
100
AcDbLinetypeTableRecord
  2
DASHED
 70
64
  3
- - - - - - - - - - - - - - - - - - - -
 72
65
 73
2
 40
0.2
 49
0.1
 74
0
 49
-0.1
 74
0
  0
ENDTAB
  0
TABLE
  2
LAYER
  5
2
100
AcDbSymbolTable
 70
36
  0
LAYER
  5
10
100
AcDbSymbolTableRecord
100
AcDbLayerTableRecord
  2
0
 70
0
 62
7
  6
CONTINUOUS
370
-3
390
F
  0
LAYER
  5
1FA
100
AcDbSymbolTableRecord
100
AcDbLayerTableRecord
  2
DEFAULT_1
 70
0
 62
7
  6
CENTER
370
-3
390
F
  0
LAYER
  5
1FB
100
AcDbSymbolTableRecord
100
AcDbLayerTableRecord
  2
DEFAULT_2
 70
0
 62
7
  6
HIDDEN
370
-3
390
F
  0
LAYER
  5
1FC
100
AcDbSymbolTableRecord
100
AcDbLayerTableRecord
  2
DEFAULT_3
 70
0
 62
7
  6
PHANTOM
370
-3
390
F
  0
LAYER
  5
1FD
100
AcDbSymbolTableRecord
100
AcDbLayerTableRecord
  2
ASSI
 70
0
 62
7
  6
CONTINUOUS
370
-3
390
F
  0
LAYER
  5
1FE
100
AcDbSymbolTableRecord
100
AcDbLayerTableRecord
  2
COORDINATE
 70
0
 62
7
  6
CONTINUOUS
370
-3
390
F
  0
LAYER
  5
1FF
100
AcDbSymbolTableRecord
100
AcDbLayerTableRecord
  2
COPY_PUBLISH
 70
0
 62
7
  6
CONTINUOUS
370
-3
390
F
  0
LAYER
  5
200
100
AcDbSymbolTableRecord
100
AcDbLayerTableRecord
  2
COSMETIC
 70
0
 62
7
  6
CONTINUOUS
370
-3
390
F
  0
LAYER
  5
201
100
AcDbSymbolTableRecord
100
AcDbLayerTableRecord
  2
CRV_ROUND_OLD
 70
0
 62
7
  6
CONTINUOUS
370
-3
390
F
  0
LAYER
  5
202
100
AcDbSymbolTableRecord
100
AcDbLayerTableRecord
  2
CURVE
 70
0
 62
7
  6
CONTINUOUS
370
-3
390
F
  0
LAYER
  5
203
100
AcDbSymbolTableRecord
100
AcDbLayerTableRecord
  2
DRAFT
 70
0
 62
7
  6
CONTINUOUS
370
-3
390
F
  0
LAYER
  5
204
100
AcDbSymbolTableRecord
100
AcDbLayerTableRecord
  2
IMPORT_IGES
 70
0
 62
7
  6
CONTINUOUS
370
-3
390
F
  0
LAYER
  5
205
100
AcDbSymbolTableRecord
100
AcDbLayerTableRecord
  2
INTF_1
 70
0
 62
7
  6
CONTINUOUS
370
-3
390
F
  0
LAYER
  5
206
100
AcDbSymbolTableRecord
100
AcDbLayerTableRecord
  2
INTF_CYAN
 70
0
 62
7
  6
CONTINUOUS
370
-3
390
F
  0
LAYER
  5
207
100
AcDbSymbolTableRecord
100
AcDbLayerTableRecord
  2
NONE
 70
0
 62
7
  6
CONTINUOUS
370
-3
390
F
  0
LAYER
  5
208
100
AcDbSymbolTableRecord
100
AcDbLayerTableRecord
  2
NOTE
 70
0
 62
7
  6
CONTINUOUS
370
-3
390
F
  0
LAYER
  5
209
100
AcDbSymbolTableRecord
100
AcDbLayerTableRecord
  2
PELLE_ESTERNA
 70
0
 62
7
  6
CONTINUOUS
370
-3
390
F
  0
LAYER
  5
20A
100
AcDbSymbolTableRecord
100
AcDbLayerTableRecord
  2
PELLE_INTERNA
 70
0
 62
7
  6
CONTINUOUS
370
-3
390
F
  0
LAYER
  5
20B
100
AcDbSymbolTableRecord
100
AcDbLayerTableRecord
  2
PIANI
 70
0
 62
7
  6
CONTINUOUS
370
-3
390
F
  0
LAYER
  5
20C
100
AcDbSymbolTableRecord
100
AcDbLayerTableRecord
  2
PUNTI
 70
0
 62
7
  6
CONTINUOUS
370
-3
390
F
  0
LAYER
  5
20D
100
AcDbSymbolTableRecord
100
AcDbLayerTableRecord
  2
RACCORDO
 70
0
 62
7
  6
CONTINUOUS
370
-3
390
F
  0
LAYER
  5
20E
100
AcDbSymbolTableRecord
100
AcDbLayerTableRecord
  2
SHELL
 70
0
 62
7
  6
CONTINUOUS
370
-3
390
F
  0
LAYER
  5
20F
100
AcDbSymbolTableRecord
100
AcDbLayerTableRecord
  2
SNAPLINE
 70
0
 62
7
  6
CONTINUOUS
370
-3
390
F
  0
LAYER
  5
210
100
AcDbSymbolTableRecord
100
AcDbLayerTableRecord
  2
SOLIDI
 70
0
 62
7
  6
CONTINUOUS
370
-3
390
F
  0
LAYER
  5
211
100
AcDbSymbolTableRecord
100
AcDbLayerTableRecord
  2
SRF_COSTRUZIONE
 70
0
 62
7
  6
CONTINUOUS
370
-3
390
F
  0
LAYER
  5
212
100
AcDbSymbolTableRecord
100
AcDbLayerTableRecord
  2
SUPERFICI
 70
0
 62
7
  6
CONTINUOUS
370
-3
390
F
  0
LAYER
  5
213
100
AcDbSymbolTableRecord
100
AcDbLayerTableRecord
  2
TRASH
 70
0
 62
7
  6
CONTINUOUS
370
-3
390
F
  0
LAYER
  5
214
100
AcDbSymbolTableRecord
100
AcDbLayerTableRecord
  2
XSEC_DATUMS
 70
0
 62
7
  6
CONTINUOUS
370
-3
390
F
  0
LAYER
  5
215
100
AcDbSymbolTableRecord
100
AcDbLayerTableRecord
  2
_42435
 70
0
 62
7
  6
CONTINUOUS
370
-3
390
F
  0
ENDTAB
  0
TABLE
  2
STYLE
  5
3
100
AcDbSymbolTable
 70
1
  0
STYLE
  5
11
100
AcDbSymbolTableRecord
100
AcDbTextStyleTableRecord
  2
STANDARD
 70
0
 40
0.0
 41
0.8
 50
0.0
 71
0
 42
0.2
  3
txt
  4

  0
STYLE
  5
216
100
AcDbSymbolTableRecord
100
AcDbTextStyleTableRecord
  2
TEXTSTYLE_1
 70
0
 40
0.0
 41
0.8
 50
0.0
 71
0
 42
0.2
  3
gdt
  4

  0
ENDTAB
  0
TABLE
  2
VIEW
  5
6
100
AcDbSymbolTable
 70
0
  0
ENDTAB
  0
TABLE
  2
UCS
  5
7
100
AcDbSymbolTable
 70
0
  0
ENDTAB
  0
TABLE
  2
APPID
  5
9
100
AcDbSymbolTable
 70
1
  0
APPID
  5
217
100
AcDbSymbolTableRecord
100
AcDbRegAppTableRecord
  2
ACAD
 70
0
  0
ENDTAB
  0
TABLE
  2
BLOCK_RECORD
  5
1
100
AcDbSymbolTable
 70
0
  0
BLOCK_RECORD
  5
218
100
AcDbSymbolTableRecord
100
AcDbBlockTableRecord
  2
*Model_Space
  0
BLOCK_RECORD
  5
219
100
AcDbSymbolTableRecord
100
AcDbBlockTableRecord
  2
*Paper_Space
  0
BLOCK_RECORD
  5
21A
100
AcDbSymbolTableRecord
100
AcDbBlockTableRecord
  2
_FILLED
  0
BLOCK_RECORD
  5
21B
100
AcDbSymbolTableRecord
100
AcDbBlockTableRecord
  2
*D0
  0
BLOCK_RECORD
  5
21C
100
AcDbSymbolTableRecord
100
AcDbBlockTableRecord
  2
*D1
  0
BLOCK_RECORD
  5
21D
100
AcDbSymbolTableRecord
100
AcDbBlockTableRecord
  2
*D2
  0
ENDTAB
  0
TABLE
  2
DIMSTYLE
  5
A
100
AcDbSymbolTable
 70
1
100
AcDbDimStyleTable
 71
0
  0
DIMSTYLE
105
21E
100
AcDbSymbolTableRecord
100
AcDbDimStyleTableRecord
  2
STANDARD
 70
0
  3

  4

 40
1.0
 41
3.0
 42
0.5
 43
0.38
 44
1.5
 45
0.0
 46
0.0
 47
0.01
 48
0.01
140
3.0
141
0.09
142
0.0
143
25.4
144
1.0
145
0.0
146
1.0
147
0.625
 71
1.0
 72
0.0
 73
0
 74
0
 75
0
 76
0
 77
1
 78
8
170
0
171
2
172
0
173
0
174
0
175
0
176
0
177
0
178
0
270
2
271
2
272
2
273
2
274
2
275
0
280
0
281
0
282
0
283
1
284
8
285
0
286
0
287
3
288
0
340
11
278
44
341
21A
342
21A
343
21A
344
21A
  0
DIMSTYLE
105
21F
100
AcDbSymbolTableRecord
100
AcDbDimStyleTableRecord
  2
DIMSTYLE_1
 70
0
  3

  4

 40
1.0
 41
3.0
 42
0.5
 43
0.38
 44
1.5
 45
0.0
 46
0.0
 47
0.0
 48
0.0
140
3.0
141
0.09
142
0.0
143
25.4
144
1.0
145
0.0
146
1.0
147
0.75
 71
0.0
 72
0.0
 73
0
 74
0
 75
0
 76
0
 77
1
 78
8
170
0
171
2
172
0
173
0
174
0
175
0
176
0
177
0
178
0
270
2
271
2
272
2
273
2
274
2
275
0
280
0
281
0
282
0
283
1
284
8
285
0
286
0
287
3
288
0
340
11
278
44
341
21A
342
21A
343
21A
344
21A
  0
DIMSTYLE
105
220
100
AcDbSymbolTableRecord
100
AcDbDimStyleTableRecord
  2
DIMSTYLE_2
 70
0
  3

  4

 40
1.0
 41
3.0
 42
0.5
 43
0.38
 44
1.5
 45
0.0
 46
0.0
 47
0.0
 48
0.0
140
3.0
141
0.09
142
0.0
143
25.4
144
1.0
145
0.0
146
1.0
147
0.75
 71
0.0
 72
0.0
 73
0
 74
0
 75
0
 76
0
 77
1
 78
8
170
0
171
2
172
0
173
0
174
0
175
0
176
0
177
0
178
0
270
2
271
0
272
0
273
2
274
2
275
0
280
0
281
0
282
0
283
1
284
8
285
0
286
0
287
3
288
0
340
11
278
44
341
21A
342
21A
343
21A
344
21A
  0
ENDTAB
  0
ENDSEC
  0
SECTION
  2
BLOCKS
  0
BLOCK
  5
20
100
AcDbEntity
  8
0
100
AcDbBlockBegin
  2
*Model_Space
 70
0
 10
0.0
 20
0.0
 30
0.0
  3
*Model_Space
  1

  0
ENDBLK
  5
21
100
AcDbEntity
  8
0
100
AcDbBlockEnd
  0
BLOCK
  5
1C
100
AcDbEntity
  8
0
100
AcDbBlockBegin
  2
*Paper_Space
 70
0
 10
0.0
 20
0.0
 30
0.0
  3
*Paper_Space
  1

  0
ENDBLK
  5
1D
100
AcDbEntity
  8
0
100
AcDbBlockEnd
  0
BLOCK
  5
221
100
AcDbEntity
  8
0
100
AcDbBlockBegin
  2
_FILLED
 70
64
 10
0.0
 20
0.0
  3
_FILLED
  1

  0
SOLID
  5
222
100
AcDbEntity
  8
0
  6
BYBLOCK
 62
0
100
AcDbTrace
 10
0.0
 20
0.0
 11
-1.0
 21
0.3166666667
 12
-1.0
 22
-0.3166666667
 13
-1.0
 23
-0.3166666667
  0
ENDBLK
  5
223
100
AcDbEntity
  8
0
  6
BYBLOCK
 62
0
100
AcDbBlockEnd
  0
BLOCK
  5
224
100
AcDbEntity
  8
0
100
AcDbBlockBegin
 62
7
  6
CONTINUOUS
  2
*D0
 70
65
 10
0.0
 20
0.0
  3
*D0
  1

  0
MTEXT
  5
225
100
AcDbEntity
  8
0
100
AcDbMText
 62
7
  6
CONTINUOUS
  7
STANDARD
 71
2
 72
1
 10
9.9566008316
 20
59.5689319127
 30
0.0
 11
1.0
 21
0.0
 31
0.0
 44
0.9
  1
95
 40
3.0
 41
4.5
  0
LINE
  5
226
100
AcDbEntity
  8
0
100
AcDbLine
 62
7
  6
CONTINUOUS
 10
57.456600835
 20
0.3189319147
 11
57.456600835
 21
57.3189319127
  0
LINE
  5
227
100
AcDbEntity
  8
0
100
AcDbLine
 62
7
  6
CONTINUOUS
 10
-37.5433991718
 20
0.3189319147
 11
-37.5433991718
 21
57.3189319127
  0
LINE
  5
228
100
AcDbEntity
  8
0
100
AcDbLine
 62
7
  6
CONTINUOUS
 10
57.456600835
 20
55.8189319127
 11
9.9566008316
 21
55.8189319127
  0
LINE
  5
229
100
AcDbEntity
  8
0
100
AcDbLine
 62
7
  6
CONTINUOUS
 10
-37.5433991718
 20
55.8189319127
 11
9.9566008316
 21
55.8189319127
  0
INSERT
  5
22A
100
AcDbEntity
  8
0
100
AcDbBlockReference
 62
7
  6
CONTINUOUS
  2
_FILLED
 10
57.456600835
 20
55.8189319127
 41
3.0
 42
3.0
 43
3.0
  0
INSERT
  5
22B
100
AcDbEntity
  8
0
100
AcDbBlockReference
 62
7
  6
CONTINUOUS
  2
_FILLED
 10
-37.5433991718
 20
55.8189319127
 41
3.0
 42
3.0
 43
3.0
 50
180.0
  0
ENDBLK
  5
22C
100
AcDbEntity
  8
0
  6
BYBLOCK
 62
0
100
AcDbBlockEnd
  0
BLOCK
  5
22D
100
AcDbEntity
  8
0
100
AcDbBlockBegin
 62
7
  6
CONTINUOUS
  2
*D1
 70
65
 10
0.0
 20
0.0
  3
*D1
  1

  0
MTEXT
  5
22E
100
AcDbEntity
  8
0
100
AcDbMText
 62
7
  6
CONTINUOUS
  7
STANDARD
 71
2
 72
1
 10
62.2066008316
 20
-0.1810680873
 30
0.0
 11
0.0
 21
1.0
 31
0.0
 44
0.9
  1
95
 40
3.0
 41
4.5
  0
LINE
  5
22F
100
AcDbEntity
  8
0
100
AcDbLine
 62
7
  6
CONTINUOUS
 10
10.4566008317
 20
47.3189319126
 11
67.4566008316
 21
47.3189319126
  0
LINE
  5
230
100
AcDbEntity
  8
0
100
AcDbLine
 62
7
  6
CONTINUOUS
 10
10.4566008315
 20
-47.6810680873
 11
67.4566008316
 21
-47.6810680873
  0
LINE
  5
231
100
AcDbEntity
  8
0
100
AcDbLine
 62
7
  6
CONTINUOUS
 10
65.9566008316
 20
47.3189319126
 11
65.9566008316
 21
-0.1810680873
  0
LINE
  5
232
100
AcDbEntity
  8
0
100
AcDbLine
 62
7
  6
CONTINUOUS
 10
65.9566008316
 20
-47.6810680873
 11
65.9566008316
 21
-0.1810680873
  0
INSERT
  5
233
100
AcDbEntity
  8
0
100
AcDbBlockReference
 62
7
  6
CONTINUOUS
  2
_FILLED
 10
65.9566008316
 20
47.3189319126
 41
3.0
 42
3.0
 43
3.0
 50
90.0
  0
INSERT
  5
234
100
AcDbEntity
  8
0
100
AcDbBlockReference
 62
7
  6
CONTINUOUS
  2
_FILLED
 10
65.9566008316
 20
-47.6810680873
 41
3.0
 42
3.0
 43
3.0
 50
270.0
  0
ENDBLK
  5
235
100
AcDbEntity
  8
0
  6
BYBLOCK
 62
0
100
AcDbBlockEnd
  0
BLOCK
  5
236
100
AcDbEntity
  8
0
100
AcDbBlockBegin
 62
7
  6
CONTINUOUS
  2
*D2
 70
65
 10
0.0
 20
0.0
  3
*D2
  1

  0
MTEXT
  5
237
100
AcDbEntity
  8
0
100
AcDbMText
 62
7
  6
CONTINUOUS
  7
STANDARD
 71
2
 72
1
 10
-54.2364271309
 20
59.5689319127
 30
0.0
 11
1.0
 21
0.0
 31
0.0
 44
0.9
  1
9
 40
3.0
 41
2.3571428571
  0
LINE
  5
238
100
AcDbEntity
  8
0
100
AcDbLine
 62
7
  6
CONTINUOUS
 10
-49.7970971933
 20
48.0906102558
 11
-49.7970971933
 21
57.3189319127
  0
LINE
  5
239
100
AcDbEntity
  8
0
100
AcDbLine
 62
7
  6
CONTINUOUS
 10
-58.6757570685
 20
26.4665404013
 11
-58.6757570685
 21
57.3189319127
  0
LINE
  5
23A
100
AcDbEntity
  8
0
100
AcDbLine
 62
7
  6
CONTINUOUS
 10
-49.7970971933
 20
55.8189319127
 11
-54.2364271309
 21
55.8189319127
  0
LINE
  5
23B
100
AcDbEntity
  8
0
100
AcDbLine
 62
7
  6
CONTINUOUS
 10
-58.6757570685
 20
55.8189319127
 11
-54.2364271309
 21
55.8189319127
  0
INSERT
  5
23C
100
AcDbEntity
  8
0
100
AcDbBlockReference
 62
7
  6
CONTINUOUS
  2
_FILLED
 10
-49.7970971933
 20
55.8189319127
 41
3.0
 42
3.0
 43
3.0
  0
INSERT
  5
23D
100
AcDbEntity
  8
0
100
AcDbBlockReference
 62
7
  6
CONTINUOUS
  2
_FILLED
 10
-58.6757570685
 20
55.8189319127
 41
3.0
 42
3.0
 43
3.0
 50
180.0
  0
ENDBLK
  5
23E
100
AcDbEntity
  8
0
  6
BYBLOCK
 62
0
100
AcDbBlockEnd
  0
ENDSEC
  0
SECTION
  2
ENTITIES
  0
DIMENSION
  5
23F
100
AcDbEntity
  8
0
100
AcDbDimension
 62
7
  6
CONTINUOUS
  2
*D0
 10
-37.5433991718
 20
55.8189319127
 11
9.9566008316
 21
55.8189319127
 70
160
 71
2
 42
95.0000000068
  3
DIMSTYLE_1
100
AcDbAlignedDimension
 13
57.456600835
 23
-0.1810680853
 14
-37.5433991718
 24
-0.1810680853
 50
180.0
100
AcDbRotatedDimension
  0
DIMENSION
  5
240
100
AcDbEntity
  8
0
100
AcDbDimension
 62
7
  6
CONTINUOUS
  2
*D1
 10
65.9566008316
 20
-47.6810680873
 11
65.9566008316
 21
-0.1810680873
 70
160
 71
2
 42
94.9999999999
  3
DIMSTYLE_1
100
AcDbAlignedDimension
 13
9.9566008317
 23
47.3189319126
 14
9.9566008315
 24
-47.6810680873
 50
270.0
100
AcDbRotatedDimension
  0
DIMENSION
  5
241
100
AcDbEntity
  8
0
100
AcDbDimension
 62
7
  6
CONTINUOUS
  2
*D2
 10
-58.6757570685
 20
55.8189319127
 11
-54.2364271309
 21
55.8189319127
 70
160
 71
2
 42
8.8786598752
  3
DIMSTYLE_2
100
AcDbAlignedDimension
 13
-49.7970971933
 23
47.5906102558
 14
-58.6757570685
 24
25.9665404013
 50
180.0
100
AcDbRotatedDimension
  0
LWPOLYLINE
  5
242
100
AcDbEntity
  8
SUPERFICI
100
AcDbPolyline
 62
253
  6
CONTINUOUS
 90
10
 70
0
 10
46.851480538
 20
-46.163837973
 10
46.8021409514
 20
-46.1694655396
 10
46.7528198964
 20
-46.1748516402
 10
46.7035185757
 20
-46.1799967973
 10
46.6542281739
 20
-46.1849025111
 10
46.6049598856
 20
-46.1895682465
 10
46.5557449605
 20
-46.1939919113
 10
46.5065946411
 20
-46.19817365
 10
46.4575001169
 20
-46.2021153662
 10
46.4084625848
 20
-46.2058180426
  0
LWPOLYLINE
  5
243
100
AcDbEntity
  8
0
100
AcDbPolyline
 62
253
  6
CONTINUOUS
 90
10
 70
0
 10
-26.9379896238
 20
-46.1638716329
 10
-26.8887785044
 20
-46.1694834609
 10
-26.8395538848
 20
-46.1748584889
 10
-26.7903169103
 20
-46.1799967774
 10
-26.7410479783
 20
-46.184900407
 10
-26.6917689601
 20
-46.1895672358
 10
-26.6425432955
 20
-46.1939918914
 10
-26.5933929761
 20
-46.1981736301
 10
-26.5442984521
 20
-46.2021153462
 10
-26.49526092
 20
-46.2058180227
  0
LWPOLYLINE
  5
244
100
AcDbEntity
  8
0
100
AcDbPolyline
 62
253
  6
CONTINUOUS
 90
31
 70
0
 10
-35.0651541968
 20
-36.559579001
 10
-35.0265606649
 20
-36.9416807019
 10
-34.9755843214
 20
-37.3213077702
 10
-34.9107738175
 20
-37.698423564
 10
-34.8286961889
 20
-38.0749364169
 10
-34.7292225147
 20
-38.4489099058
 10
-34.6166316607
 20
-38.8149604571
 10
-34.491340322
 20
-39.1715789679
 10
-34.3512184863
 20
-39.5211495115
 10
-34.1979949033
 20
-39.8642094689
 10
-34.0332389993
 20
-40.1976483248
 10
-33.8543356974
 20
-40.5244999664
 10
-33.6560276679
 20
-40.8542127841
 10
-33.4316284095
 20
-41.1941161826
 10
-33.1833005563
 20
-41.5360625288
 10
-32.9200584375
 20
-41.8664742682
 10
-32.6490491825
 20
-42.1778474612
 10
-32.3643421577
 20
-42.4772536692
 10
-32.0558800567
 20
-42.7727881402
 10
-31.7140096596
 20
-43.0707558945
 10
-31.3441222763
 20
-43.36284746
 10
-30.9596175183
 20
-43.6355730086
 10
-30.5710316082
 20
-43.8836033392
 10
-30.1711483587
 20
-44.1125697432
 10
-29.7478804319
 20
-44.3256733437
 10
-29.2914828557
 20
-44.5263589211
 10
-28.809866494
 20
-44.7092254395
 10
-28.3181446116
 20
-44.8646743527
 10
-27.8238806317
 20
-44.9904132296
 10
-27.3243915312
 20
-45.0902284913
 10
-26.8219669246
 20
-45.1649576843
  0
LINE
  5
245
100
AcDbEntity
  8
0
100
AcDbLine
 62
253
  6
CONTINUOUS
 10
-35.1080632248
 20
-35.9837006122
 11
-35.0652054648
 21
-36.5598241567
  0
LINE
  5
246
100
AcDbEntity
  8
0
100
AcDbLine
 62
253
  6
CONTINUOUS
 10
-35.2682134218
 20
-33.6757684398
 11
-35.1080632248
 21
-35.9837006122
  0
LINE
  5
247
100
AcDbEntity
  8
0
100
AcDbLine
 62
253
  6
CONTINUOUS
 10
-35.4078969829
 20
-31.5218990681
 11
-35.2682134218
 21
-33.6757684398
  0
LINE
  5
248
100
AcDbEntity
  8
0
100
AcDbLine
 62
253
  6
CONTINUOUS
 10
-35.5638449613
 20
-28.9353502902
 11
-35.4078969829
 21
-31.5218990681
  0
LINE
  5
249
100
AcDbEntity
  8
0
100
AcDbLine
 62
253
  6
CONTINUOUS
 10
-35.6471971183
 20
-27.4581737728
 11
-35.5638449613
 21
-28.9353502902
  0
LINE
  5
24A
100
AcDbEntity
  8
0
100
AcDbLine
 62
253
  6
CONTINUOUS
 10
-35.7624086343
 20
-25.2618460966
 11
-35.6471971183
 21
-27.4581737728
  0
LINE
  5
24B
100
AcDbEntity
  8
0
100
AcDbLine
 62
253
  6
CONTINUOUS
 10
-35.8438541765
 20
-23.5804771061
 11
-35.7624086343
 21
-25.2618460966
  0
LWPOLYLINE
  5
24C
100
AcDbEntity
  8
0
100
AcDbPolyline
 62
253
  6
CONTINUOUS
 90
19
 70
0
 10
-36.3933994016
 20
-0.1815487758
 10
-36.3913593514
 20
-1.6294708975
 10
-36.3852959179
 20
-3.0333221165
 10
-36.3756177788
 20
-4.3933762224
 10
-36.3628337162
 20
-5.7023181999
 10
-36.3472463714
 20
-6.9678684614
 10
-36.3287523843
 20
-8.2128121957
 10
-36.3074195278
 20
-9.4424447081
 10
-36.2835047336
 20
-10.6517506498
 10
-36.2569481619
 20
-11.8480616982
 10
-36.2281863435
 20
-13.0183466665
 10
-36.1970582309
 20
-14.1756224955
 10
-36.162220023
 20
-15.3664156804
 10
-36.1232447479
 20
-16.5962372576
 10
-36.0800473785
 20
-17.8595660606
 10
-36.0312229869
 20
-19.1865332487
 10
-35.9758494439
 20
-20.587206856
 10
-35.9137458403
 20
-22.0515231257
 10
-35.8443494494
 20
-23.5794356359
  0
LWPOLYLINE
  5
24D
100
AcDbEntity
  8
0
100
AcDbPolyline
 62
253
  6
CONTINUOUS
 90
19
 70
0
 10
-36.3933991651
 20
-0.1815487758
 10
-36.3913608633
 20
1.2668008051
 10
-36.3852971572
 20
2.6709724053
 10
-36.3756177788
 20
4.0312400477
 10
-36.3628329037
 20
5.3402532204
 10
-36.347245871
 20
6.6057678963
 10
-36.3287523843
 20
7.8506760211
 10
-36.3074195278
 20
9.0803085335
 10
-36.2835047336
 20
10.2896144752
 10
-36.2569481619
 20
11.4859255236
 10
-36.2281863435
 20
12.6562104919
 10
-36.1970582309
 20
13.8134863208
 10
-36.162220023
 20
15.0042795058
 10
-36.1232447479
 20
16.234101083
 10
-36.0800473785
 20
17.4974298859
 10
-36.0312229869
 20
18.824397074
 10
-35.9758494439
 20
20.2250706813
 10
-35.9137458403
 20
21.689386951
 10
-35.8443494494
 20
23.2172994612
  0
LINE
  5
24E
100
AcDbEntity
  8
SUPERFICI
100
AcDbLine
 62
253
  6
CONTINUOUS
 10
-35.8438541765
 20
23.2183409315
 11
-35.7624086343
 21
24.8997099219
  0
LINE
  5
24F
100
AcDbEntity
  8
SUPERFICI
100
AcDbLine
 62
253
  6
CONTINUOUS
 10
-35.7624086343
 20
24.8997099219
 11
-35.6197999705
 21
27.5870567628
  0
LINE
  5
250
100
AcDbEntity
  8
SUPERFICI
100
AcDbLine
 62
253
  6
CONTINUOUS
 10
-35.6197999705
 20
27.5870567628
 11
-35.5348913235
 21
29.0665881415
  0
LINE
  5
251
100
AcDbEntity
  8
SUPERFICI
100
AcDbLine
 62
253
  6
CONTINUOUS
 10
-35.5348913235
 20
29.0665881415
 11
-35.4737005574
 21
30.0961518838
  0
LWPOLYLINE
  5
252
100
AcDbEntity
  8
SUPERFICI
100
AcDbPolyline
 62
253
  6
CONTINUOUS
 90
3
 70
0
 10
-35.4737005574
 20
30.0961518838
 10
-35.3747192957
 20
31.6832015034
 10
-35.2682134218
 20
33.3136322652
  0
LWPOLYLINE
  5
253
100
AcDbEntity
  8
SUPERFICI
100
AcDbPolyline
 62
253
  6
CONTINUOUS
 90
3
 70
0
 10
-35.2682134218
 20
33.3136322652
 10
-35.1080632248
 20
35.6215644375
 10
-35.0652054648
 20
36.1976879821
  0
LWPOLYLINE
  5
254
100
AcDbEntity
  8
SUPERFICI
100
AcDbPolyline
 62
253
  6
CONTINUOUS
 90
31
 70
0
 10
-35.0651541968
 20
36.1974428264
 10
-35.0265606649
 20
36.5795445273
 10
-34.9755843214
 20
36.9591715956
 10
-34.9107738175
 20
37.3362873893
 10
-34.8286961889
 20
37.7128002423
 10
-34.7292225147
 20
38.0867737312
 10
-34.6166316607
 20
38.4528242824
 10
-34.491340322
 20
38.8094427933
 10
-34.3512184863
 20
39.1590133369
 10
-34.1979949033
 20
39.5020732942
 10
-34.0332389993
 20
39.8355121501
 10
-33.8543356974
 20
40.1623637918
 10
-33.6560276679
 20
40.4920766095
 10
-33.4316284095
 20
40.831980008
 10
-33.1833005563
 20
41.1739263541
 10
-32.9200584375
 20
41.5043380935
 10
-32.6490491825
 20
41.8157112866
 10
-32.3643421577
 20
42.1151174946
 10
-32.0558800567
 20
42.4106519655
 10
-31.7140096596
 20
42.7086197199
 10
-31.3441222763
 20
43.0007112854
 10
-30.9596175183
 20
43.273436834
 10
-30.5710316082
 20
43.5214671646
 10
-30.1711483587
 20
43.7504335686
 10
-29.7478804319
 20
43.963537169
 10
-29.2914828557
 20
44.1642227465
 10
-28.809866494
 20
44.3470892648
 10
-28.3181446116
 20
44.5025381781
 10
-27.8238806317
 20
44.628277055
 10
-27.3243915312
 20
44.7280923167
 10
-26.8219669246
 20
44.8028215096
  0
LWPOLYLINE
  5
255
100
AcDbEntity
  8
SUPERFICI
100
AcDbPolyline
 62
253
  6
CONTINUOUS
 90
10
 70
0
 10
-26.8219669246
 20
44.8028215096
 10
-27.077313497
 20
43.802135283
 10
-27.3225550869
 20
42.7986921327
 10
-27.5576501553
 20
41.7925688443
 10
-27.7827243207
 20
40.7850965074
 10
-27.9976488838
 20
39.7762243342
 10
-28.2022465431
 20
38.7661022962
 10
-28.396478643
 20
37.7560246047
 10
-28.5803629569
 20
36.7463396102
 10
-28.7540035353
 20
35.7363073078
  0
LWPOLYLINE
  5
256
100
AcDbEntity
  8
SUPERFICI
100
AcDbPolyline
 62
253
  6
CONTINUOUS
 90
5
 70
0
 10
46.7351234018
 20
-45.1649571197
 10
46.6868785836
 20
-45.1704851271
 10
46.6385844628
 20
-45.1756755326
 10
46.5901521099
 20
-45.180575431
 10
46.5414568845
 20
-45.1852362499
  0
LINE
  5
257
100
AcDbEntity
  8
SUPERFICI
100
AcDbLine
 62
253
  6
CONTINUOUS
 10
46.5414568845
 20
-45.1852362499
 11
46.4431041186
 21
-45.1940211135
  0
LINE
  5
258
100
AcDbEntity
  8
SUPERFICI
100
AcDbLine
 62
253
  6
CONTINUOUS
 10
46.4431041186
 20
-45.1940211135
 11
46.2926205387
 21
-45.2064426561
  0
LWPOLYLINE
  5
259
100
AcDbEntity
  8
0
100
AcDbPolyline
 62
253
  6
CONTINUOUS
 90
22
 70
0
 10
46.2926205387
 20
-45.2064426561
 10
45.0885020944
 20
-45.2966433836
 10
43.6557697507
 20
-45.3944216551
 10
42.0863907307
 20
-45.4948590703
 10
40.5263517138
 20
-45.5903897934
 10
39.0685511476
 20
-45.6767476869
 10
37.655031588
 20
-45.7571363774
 10
36.2116226086
 20
-45.8350576283
 10
34.6968906101
 20
-45.9122825345
 10
33.1289637422
 20
-45.9875404937
 10
31.5279243472
 20
-46.0595223132
 10
29.8843763002
 20
-46.1282138182
 10
28.1901529503
 20
-46.1933626849
 10
26.4363738676
 20
-46.2547816398
 10
24.6344261502
 20
-46.311691811
 10
22.8102609748
 20
-46.3626961972
 10
20.9378132206
 20
-46.407981562
 10
19.04146298
 20
-46.4471386002
 10
17.1210308043
 20
-46.4791940298
 10
15.0146474099
 20
-46.504907594
 10
12.5978198339
 20
-46.5237883687
 10
9.9566008316
 20
-46.5310680901
  0
LWPOLYLINE
  5
25A
100
AcDbEntity
  8
0
100
AcDbPolyline
 62
253
  6
CONTINUOUS
 90
22
 70
0
 10
-26.3794188755
 20
-45.2064426561
 10
-25.1753004312
 20
-45.2966433836
 10
-23.7425680875
 20
-45.3944216551
 10
-22.1731890675
 20
-45.4948590703
 10
-20.6131500506
 20
-45.5903897934
 10
-19.1553494844
 20
-45.6767476869
 10
-17.7418299248
 20
-45.7571363774
 10
-16.2984209454
 20
-45.8350576283
 10
-14.7836889469
 20
-45.9122825345
 10
-13.215762079
 20
-45.9875404937
 10
-11.614722684
 20
-46.0595223132
 10
-9.971174637
 20
-46.1282138182
 10
-8.2769512871
 20
-46.1933626849
 10
-6.5231722044
 20
-46.2547816398
 10
-4.721224487
 20
-46.311691811
 10
-2.8970593116
 20
-46.3626961972
 10
-1.0246115574
 20
-46.407981562
 10
0.8717386833
 20
-46.4471386002
 10
2.7921708589
 20
-46.4791940298
 10
4.8985542533
 20
-46.504907594
 10
7.3153818293
 20
-46.5237883687
 10
9.9566008316
 20
-46.5310680901
  0
LINE
  5
25B
100
AcDbEntity
  8
0
100
AcDbLine
 62
253
  6
CONTINUOUS
 10
-26.5299024554
 20
-45.1940211135
 11
-26.3794188755
 21
-45.2064426561
  0
LWPOLYLINE
  5
25C
100
AcDbEntity
  8
0
100
AcDbPolyline
 62
253
  6
CONTINUOUS
 90
6
 70
0
 10
-26.8219217385
 20
-45.1649571197
 10
-26.7736769204
 20
-45.1704851271
 10
-26.7253827996
 20
-45.1756755326
 10
-26.6769504467
 20
-45.180575431
 10
-26.6282552213
 20
-45.1852362499
 10
-26.5299024554
 20
-45.1940211135
  0
LWPOLYLINE
  5
25D
100
AcDbEntity
  8
0
100
AcDbPolyline
 62
253
  6
CONTINUOUS
 90
10
 70
0
 10
-26.8219669246
 20
-45.1649576843
 10
-27.077313497
 20
-44.1642714577
 10
-27.3225550869
 20
-43.1608283073
 10
-27.5576501553
 20
-42.1547050189
 10
-27.7827243207
 20
-41.147232682
 10
-27.9976488838
 20
-40.1383605088
 10
-28.2022465431
 20
-39.1282384708
 10
-28.396478643
 20
-38.1181607793
 10
-28.5803629569
 20
-37.1084757848
 10
-28.7540035353
 20
-36.0984434824
  0
LWPOLYLINE
  5
25E
100
AcDbEntity
  8
RACCORDO
100
AcDbPolyline
 62
253
  6
CONTINUOUS
 90
6
 70
0
 10
-30.0542724078
 20
-23.8289292371
 10
-30.0526825979
 20
-23.8565256796
 10
-30.0512226422
 20
-23.884155355
 10
-30.0498925296
 20
-23.911818266
 10
-30.0487381159
 20
-23.9395141932
 10
-30.043399169
 20
-24.0784998623
  0
LWPOLYLINE
  5
25F
100
AcDbEntity
  8
RACCORDO
100
AcDbPolyline
 62
253
  6
CONTINUOUS
 90
10
 70
0
 10
-30.0542724078
 20
-23.8289292371
 10
-30.1814262874
 20
-21.0251742545
 10
-30.2907620383
 20
-18.2677673622
 10
-30.3830930174
 20
-15.5555897542
 10
-30.4591690684
 20
-12.8875403057
 10
-30.5197991296
 20
-10.2627120709
 10
-30.5658188037
 20
-7.6804221332
 10
-30.5979415978
 20
-5.1399569028
 10
-30.6167808188
 20
-2.6405451877
 10
-30.6229792186
 20
-0.1815353343
  0
LINE
  5
260
100
AcDbEntity
  8
RACCORDO
100
AcDbLine
 62
253
  6
CONTINUOUS
 10
-30.048738545
 20
23.5773666711
 11
-30.043399169
 21
23.7163636876
  0
LWPOLYLINE
  5
261
100
AcDbEntity
  8
RACCORDO
100
AcDbPolyline
 62
253
  6
CONTINUOUS
 90
10
 70
0
 10
-30.0542732865
 20
23.4667726661
 10
-30.1814257022
 20
20.6630505865
 10
-30.2907604131
 20
17.9056748536
 10
-30.3830907366
 20
15.1935267036
 10
-30.4591653732
 20
12.5255477907
 10
-30.5197947872
 20
9.9007883591
 10
-30.5658164958
 20
7.3184375926
 10
-30.597942415
 20
4.77773957
 10
-30.6167830375
 20
2.2779658531
 10
-30.6229792514
 20
-0.1815353343
  0
LWPOLYLINE
  5
262
100
AcDbEntity
  8
RACCORDO
100
AcDbPolyline
 62
253
  6
CONTINUOUS
 90
5
 70
0
 10
-30.0542732865
 20
23.4667726661
 10
-30.052683347
 20
23.494371372
 10
-30.0512232725
 20
23.5220033103
 10
-30.0498930519
 20
23.5496684837
 10
-30.048738545
 20
23.5773666711
  0
LWPOLYLINE
  5
263
100
AcDbEntity
  8
RACCORDO
100
AcDbPolyline
 62
253
  6
CONTINUOUS
 90
25
 70
0
 10
-28.7538222878
 20
35.7356785692
 10
-28.8432342263
 20
35.1911530239
 10
-28.9286279144
 20
34.6532077292
 10
-29.0101286293
 20
34.1216755572
 10
-29.0877036174
 20
33.5972800166
 10
-29.1616000405
 20
33.0793129628
 10
-29.2322957785
 20
32.5656067015
 10
-29.2999043969
 20
32.0559651099
 10
-29.3643412818
 20
31.5510039059
 10
-29.4258063475
 20
31.0495693763
 10
-29.4844344365
 20
30.5515232509
 10
-29.5402990761
 20
30.0568262753
 10
-29.593507155
 20
29.5644377506
 10
-29.644038763
 20
29.0746000316
 10
-29.6919746449
 20
28.5872489331
 10
-29.7374967486
 20
28.1009445866
 10
-29.7806089141
 20
27.6157195659
 10
-29.8213208931
 20
27.1315612493
 10
-29.8597445737
 20
26.647028436
 10
-29.895865236
 20
26.1621552217
 10
-29.9297520302
 20
25.6768977524
 10
-29.961553961
 20
25.1897688955
 10
-29.9912267483
 20
24.7003289301
 10
-30.0185516337
 20
24.2091860961
 10
-30.0433432067
 20
23.7164145173
  0
LWPOLYLINE
  5
264
100
AcDbEntity
  8
RACCORDO
100
AcDbPolyline
 62
253
  6
CONTINUOUS
 90
13
 70
0
 10
-24.284620699
 20
22.2391045812
 10
-24.266509514
 20
22.2747017984
 10
-24.2451439035
 20
22.3094176028
 10
-24.2205378258
 20
22.3431891553
 10
-24.1929186068
 20
22.3759912906
 10
-24.1620912175
 20
22.4077176015
 10
-24.1274356257
 20
22.4381779921
 10
-24.0889491356
 20
22.4674617213
 10
-24.046670623
 20
22.4953257609
 10
-24.0000462232
 20
22.5210858935
 10
-23.9489107704
 20
22.5444745918
 10
-23.8934846523
 20
22.5656296119
 10
-23.8337975174
 20
22.5844881135
  0
LWPOLYLINE
  5
265
100
AcDbEntity
  8
RACCORDO
100
AcDbPolyline
 62
253
  6
CONTINUOUS
 90
13
 70
0
 10
-25.3660658555
 20
23.2153366074
 10
-25.3921598143
 20
23.1749456263
 10
-25.4167440674
 20
23.1337248338
 10
-25.43979447
 20
23.0917348166
 10
-25.4612960714
 20
23.0490191293
 10
-25.4812219231
 20
23.0056565045
 10
-25.4995390151
 20
22.9617629506
 10
-25.5161892507
 20
22.9175439747
 10
-25.5312255407
 20
22.872924636
 10
-25.5447534419
 20
22.8275889668
 10
-25.5567661187
 20
22.7814615524
 10
-25.5671857414
 20
22.7347218302
 10
-25.5759768206
 20
22.6874263838
  0
LWPOLYLINE
  5
266
100
AcDbEntity
  8
RACCORDO
100
AcDbPolyline
 62
253
  6
CONTINUOUS
 90
13
 70
0
 10
-25.2820202837
 20
23.120438629
 10
-25.3048534467
 20
23.0865630476
 10
-25.3262806167
 20
23.0519113071
 10
-25.3462820668
 20
23.0165676716
 10
-25.3648356768
 20
22.980629762
 10
-25.3819287682
 20
22.9441607189
 10
-25.3975575917
 20
22.9071874283
 10
-25.4116776976
 20
22.8698984339
 10
-25.4243068581
 20
22.8322473671
 10
-25.4355307942
 20
22.7938970608
 10
-25.4453640752
 20
22.7547734538
 10
-25.4537558964
 20
22.7150724436
 10
-25.46068854
 20
22.6748568132
  0
LWPOLYLINE
  5
267
100
AcDbEntity
  8
RACCORDO
100
AcDbPolyline
 62
253
  6
CONTINUOUS
 90
31
 70
0
 10
-25.2820124497
 20
-23.4825864184
 10
-25.2456039174
 20
-23.5332003687
 10
-25.2086168827
 20
-23.5807651589
 10
-25.1710510639
 20
-23.6252692618
 10
-25.1327335283
 20
-23.666545736
 10
-25.0938366178
 20
-23.7047371961
 10
-25.0548779555
 20
-23.740295894
 10
-25.0159167621
 20
-23.7732133421
 10
-24.9768932098
 20
-23.8034723532
 10
-24.9381463822
 20
-23.831513267
 10
-24.8997000678
 20
-23.8573481116
 10
-24.8615299499
 20
-23.8809420579
 10
-24.8239030181
 20
-23.9026676418
 10
-24.7868519846
 20
-23.9225256777
 10
-24.7503437025
 20
-23.9404961569
 10
-24.7145464406
 20
-23.9569231687
 10
-24.6794914187
 20
-23.9718114415
 10
-24.6451470844
 20
-23.9851412158
 10
-24.6115876161
 20
-23.9972227008
 10
-24.5788384295
 20
-24.0080657997
 10
-24.5468738694
 20
-24.0176495172
 10
-24.5156915655
 20
-24.0262402584
 10
-24.4852957297
 20
-24.0338528732
 10
-24.4556819855
 20
-24.0404646891
 10
-24.4268351259
 20
-24.046287835
 10
-24.3988114451
 20
-24.0513300142
 10
-24.3715545385
 20
-24.0555780969
 10
-24.3448801825
 20
-24.059214482
 10
-24.3187269501
 20
-24.0622990102
 10
-24.2931561977
 20
-24.0647683185
 10
-24.2681678912
 20
-24.0666207004
  0
LWPOLYLINE
  5
268
100
AcDbEntity
  8
RACCORDO
100
AcDbPolyline
 62
253
  6
CONTINUOUS
 90
31
 70
0
 10
-25.3660657547
 20
-23.5774729334
 10
-25.3274416647
 20
-23.6321551679
 10
-25.2876122724
 20
-23.6833580605
 10
-25.2468796884
 20
-23.7311552118
 10
-25.205578832
 20
-23.7755869395
 10
-25.1639267142
 20
-23.81681185
 10
-25.1220025539
 20
-23.8550823167
 10
-25.080014691
 20
-23.8905067691
 10
-25.0381625201
 20
-23.9231959692
 10
-24.9964575635
 20
-23.9533791173
 10
-24.955031147
 20
-23.9811781044
 10
-24.9140497265
 20
-24.0066864146
 10
-24.8735405451
 20
-24.0300675297
 10
-24.8336187749
 20
-24.0514269594
 10
-24.7943910797
 20
-24.0708714635
 10
-24.7558474932
 20
-24.0885483825
 10
-24.7180777391
 20
-24.104553656
 10
-24.6811530537
 20
-24.1189885735
 10
-24.6450164917
 20
-24.1319881046
 10
-24.6097330998
 20
-24.1436369912
 10
-24.5753509384
 20
-24.1540237541
 10
-24.5417723989
 20
-24.1632661211
 10
-24.5090269304
 20
-24.171439345
 10
-24.4771620961
 20
-24.1786124703
 10
-24.446096785
 20
-24.1848732727
 10
-24.4159079397
 20
-24.1902747621
 10
-24.386571361
 20
-24.1948881914
 10
-24.357845766
 20
-24.198802337
 10
-24.3296607064
 20
-24.202067169
 10
-24.3021192896
 20
-24.20471234
 10
-24.275235452
 20
-24.206778507
  0
LWPOLYLINE
  5
269
100
AcDbEntity
  8
RACCORDO
100
AcDbPolyline
 62
253
  6
CONTINUOUS
 90
10
 70
0
 10
-24.2846211809
 20
-22.6012227289
 10
-24.3032458719
 20
-22.5552983028
 10
-24.3197012332
 20
-22.5088203835
 10
-24.3339840731
 20
-22.4617966791
 10
-24.346099657
 20
-22.4140105003
 10
-24.3560365403
 20
-22.365693262
 10
-24.3637663814
 20
-22.3175249324
 10
-24.3692776626
 20
-22.2697369385
 10
-24.3725758751
 20
-22.2221116886
 10
-24.3736582192
 20
-22.174655417
  0
LWPOLYLINE
  5
26A
100
AcDbEntity
  8
RACCORDO
100
AcDbPolyline
 62
253
  6
CONTINUOUS
 90
25
 70
0
 10
-28.7538222878
 20
-36.0978147438
 10
-28.8432342263
 20
-35.5532891986
 10
-28.9286279144
 20
-35.0153439038
 10
-29.0101286293
 20
-34.4838117318
 10
-29.0877036174
 20
-33.9594161913
 10
-29.1616000405
 20
-33.4414491374
 10
-29.2322957785
 20
-32.9277428761
 10
-29.2999043969
 20
-32.4181012845
 10
-29.3643412818
 20
-31.9131400805
 10
-29.4258063475
 20
-31.4117055509
 10
-29.4844344365
 20
-30.9136594255
 10
-29.5402990761
 20
-30.4189624499
 10
-29.593507155
 20
-29.9265739252
 10
-29.644038763
 20
-29.4367362063
 10
-29.6919746449
 20
-28.9493851077
 10
-29.7374967486
 20
-28.4630807612
 10
-29.7806089141
 20
-27.9778557405
 10
-29.8213208931
 20
-27.493697424
 10
-29.8597445737
 20
-27.0091646106
 10
-29.895865236
 20
-26.5242913963
 10
-29.9297520302
 20
-26.039033927
 10
-29.961553961
 20
-25.5519050702
 10
-29.9912267483
 20
-25.0624651047
 10
-30.0185516337
 20
-24.5713222707
 10
-30.0433432067
 20
-24.0785506919
  0
LWPOLYLINE
  5
26B
100
AcDbEntity
  8
RACCORDO
100
AcDbPolyline
 62
253
  6
CONTINUOUS
 90
7
 70
0
 10
-25.5942776912
 20
-22.8749957652
 10
-25.5927273715
 20
-22.9041220454
 10
-25.5905790645
 20
-22.9332520384
 10
-25.5878311253
 20
-22.962373481
 10
-25.5844821567
 20
-22.9914740271
 10
-25.5805310131
 20
-23.0205412522
 10
-25.5759768028
 20
-23.0495626584
  0
LWPOLYLINE
  5
26C
100
AcDbEntity
  8
RACCORDO
100
AcDbPolyline
 62
253
  6
CONTINUOUS
 90
7
 70
0
 10
-25.4777079105
 20
-22.8747080969
 10
-25.476270022
 20
-22.9018010725
 10
-25.4742718525
 20
-22.9288788648
 10
-25.4717137874
 20
-22.9559406025
 10
-25.4685962188
 20
-22.9829853682
 10
-25.4649195457
 20
-23.0100121982
 10
-25.4606841737
 20
-23.0370200824
  0
LWPOLYLINE
  5
26D
100
AcDbEntity
  8
RACCORDO
100
AcDbPolyline
 62
253
  6
CONTINUOUS
 90
13
 70
0
 10
-26.0799522176
 20
-0.1811111524
 10
-26.0751559177
 20
-2.4591129102
 10
-26.0611003399
 20
-4.6619540963
 10
-26.0387790184
 20
-6.7896040565
 10
-26.0092467879
 20
-8.8389527191
 10
-25.973358817
 20
-10.8130721818
 10
-25.9316485242
 20
-12.7212121498
 10
-25.8848512692
 20
-14.563776681
 10
-25.833712244
 20
-16.3403507874
 10
-25.7785450191
 20
-18.0589556071
 10
-25.7198080163
 20
-19.7222650696
 10
-25.6581996619
 20
-21.3276095019
 10
-25.5942776912
 20
-22.8749957652
  0
LWPOLYLINE
  5
26E
100
AcDbEntity
  8
RACCORDO
100
AcDbPolyline
 62
253
  6
CONTINUOUS
 90
13
 70
0
 10
-25.9650612683
 20
-0.1811112189
 10
-25.9600133759
 20
-2.4587087225
 10
-25.9459549179
 20
-4.6615868313
 10
-25.9237633936
 20
-6.7895116237
 10
-25.8940797919
 20
-8.8389347026
 10
-25.8578522541
 20
-10.8128921863
 10
-25.8162718993
 20
-12.7210569154
 10
-25.7695213528
 20
-14.5636924158
 10
-25.717924006
 20
-16.3401245152
 10
-25.6626505521
 20
-18.0587373966
 10
-25.6042034311
 20
-19.722251812
 10
-25.5424715662
 20
-21.3276373033
 10
-25.4777079105
 20
-22.8747080969
  0
LWPOLYLINE
  5
26F
100
AcDbEntity
  8
RACCORDO
100
AcDbPolyline
 62
253
  6
CONTINUOUS
 90
13
 70
0
 10
-25.5942775002
 20
22.5128640226
 10
-25.6582449266
 20
20.9643418335
 10
-25.7198856232
 20
19.3580261136
 10
-25.7786431078
 20
17.6939100741
 10
-25.8338212985
 20
15.974636049
 10
-25.8849620892
 20
14.1975575786
 10
-25.9317511461
 20
12.3547358314
 10
-25.9734457843
 20
10.4465970198
 10
-26.0093136876
 20
8.4727260029
 10
-26.0388232202
 20
6.4239219438
 10
-26.0611227605
 20
4.2971290587
 10
-26.0751621265
 20
2.0954411523
 10
-26.0799522176
 20
-0.1811111524
  0
LWPOLYLINE
  5
270
100
AcDbEntity
  8
RACCORDO
100
AcDbPolyline
 62
253
  6
CONTINUOUS
 90
13
 70
0
 10
-25.4777079105
 20
22.5125719223
 10
-25.5425151988
 20
20.9643691653
 10
-25.6042797963
 20
19.3580143589
 10
-25.6627489033
 20
17.6936940025
 10
-25.7180331686
 20
15.9744119564
 10
-25.7696311405
 20
14.1974753639
 10
-25.8163748574
 20
12.3545822378
 10
-25.8579404761
 20
10.4464181181
 10
-25.8941462838
 20
8.472708984
 10
-25.923807725
 20
6.4238305932
 10
-25.9459802515
 20
4.2967627185
 10
-25.9600230726
 20
2.0950375037
 10
-25.9650612658
 20
-0.1811112189
  0
LWPOLYLINE
  5
271
100
AcDbEntity
  8
RACCORDO
100
AcDbPolyline
 62
253
  6
CONTINUOUS
 90
7
 70
0
 10
-25.5759768206
 20
22.6874263838
 10
-25.5805281687
 20
22.6584244642
 10
-25.5844782029
 20
22.6293693172
 10
-25.5878273494
 20
22.6002733632
 10
-25.5905762872
 20
22.5711489685
 10
-25.5927259455
 20
22.5420084405
 10
-25.5942775018
 20
22.5128640227
  0
LWPOLYLINE
  5
272
100
AcDbEntity
  8
RACCORDO
100
AcDbPolyline
 62
253
  6
CONTINUOUS
 90
7
 70
0
 10
-25.4606878897
 20
22.6748565845
 10
-25.4649197671
 20
22.64787854
 10
-25.4685940945
 20
22.6208714398
 10
-25.4717104674
 20
22.5938362901
 10
-25.4742684877
 20
22.5667740516
 10
-25.4762677638
 20
22.5396856391
 10
-25.4777079105
 20
22.5125719223
  0
LWPOLYLINE
  5
273
100
AcDbEntity
  8
RACCORDO
100
AcDbPolyline
 62
253
  6
CONTINUOUS
 90
13
 70
0
 10
-23.9162843709
 20
22.0233425046
 10
-23.9025636191
 20
22.0526509993
 10
-23.887083918
 20
22.0817634318
 10
-23.8698107901
 20
22.1105487507
 10
-23.8507910928
 20
22.1387681804
 10
-23.8299472309
 20
22.1663867125
 10
-23.8070211131
 20
22.1935302259
 10
-23.7819369511
 20
22.2200382241
 10
-23.7546954323
 20
22.2456513331
 10
-23.7250989269
 20
22.2702596037
 10
-23.6930685141
 20
22.2936262894
 10
-23.6586774343
 20
22.3154226863
 10
-23.6219680885
 20
22.3353502326
  0
LWPOLYLINE
  5
274
100
AcDbEntity
  8
RACCORDO
100
AcDbPolyline
 62
253
  6
CONTINUOUS
 90
3
 70
0
 10
-29.8766628444
 20
23.5467171019
 10
-29.9945732213
 20
23.4925936552
 10
-30.0530980508
 20
23.4668017583
  0
LWPOLYLINE
  5
275
100
AcDbEntity
  8
RACCORDO
100
AcDbPolyline
 62
253
  6
CONTINUOUS
 90
10
 70
0
 10
-29.306612356
 20
23.7749176729
 10
-29.3707781483
 20
23.7523504371
 10
-29.434906886
 20
23.7290601298
 10
-29.4989922127
 20
23.7050354247
 10
-29.5632016803
 20
23.6802148237
 10
-29.6273177354
 20
23.6546624055
 10
-29.6907636026
 20
23.6285699286
 10
-29.7535223581
 20
23.6018001981
 10
-29.8156579259
 20
23.5743591903
 10
-29.8766628444
 20
23.5467171019
  0
LINE
  5
276
100
AcDbEntity
  8
RACCORDO
100
AcDbLine
 62
253
  6
CONTINUOUS
 10
-30.0530975266
 20
-23.8289586786
 11
-29.9945153605
 21
-23.8545859943
  0
LWPOLYLINE
  5
277
100
AcDbEntity
  8
RACCORDO
100
AcDbPolyline
 62
253
  6
CONTINUOUS
 90
11
 70
0
 10
-29.9945153605
 20
-23.8545859943
 10
-29.8767214408
 20
-23.9087140437
 10
-29.8157366988
 20
-23.9364365711
 10
-29.7536027588
 20
-23.9639541266
 10
-29.6908341443
 20
-23.9907694967
 10
-29.627365453
 20
-24.0168704448
 10
-29.563216821
 20
-24.0424131065
 10
-29.4989757916
 20
-24.0672200073
 10
-29.4348652493
 20
-24.0912327224
 10
-29.3707163443
 20
-24.1145091806
 10
-29.3065346611
 20
-24.1370618094
  0
LWPOLYLINE
  5
278
100
AcDbEntity
  8
RACCORDO
100
AcDbPolyline
 62
253
  6
CONTINUOUS
 90
13
 70
0
 10
-23.6219680738
 20
-22.6974864142
 10
-23.6587557579
 20
-22.6775128778
 10
-23.6932018753
 20
-22.6556715808
 10
-23.7252656248
 20
-22.6322655671
 10
-23.7548780373
 20
-22.6076258993
 10
-23.7821180028
 20
-22.5819941571
 10
-23.8071798418
 20
-22.555488852
 10
-23.8300536538
 20
-22.5283889522
 10
-23.8508343472
 20
-22.5008430454
 10
-23.869813148
 20
-22.4726811827
 10
-23.8870730867
 20
-22.4439194225
 10
-23.9025532399
 20
-22.4148088908
 10
-23.9162843701
 20
-22.3854786815
  0
LWPOLYLINE
  5
279
100
AcDbEntity
  8
RACCORDO
100
AcDbPolyline
 62
253
  6
CONTINUOUS
 90
10
 70
0
 10
-23.9162843701
 20
-22.3854786815
 10
-23.9264771614
 20
-22.3606341017
 10
-23.9354961309
 20
-22.335375778
 10
-23.9433280184
 20
-22.3097565951
 10
-23.9499784775
 20
-22.2837567338
 10
-23.9554160877
 20
-22.2575013343
 10
-23.9596051854
 20
-22.2312669527
 10
-23.9625652588
 20
-22.2051853208
 10
-23.9643378899
 20
-22.1792367237
 10
-23.964953579
 20
-22.1534723322
  0
LWPOLYLINE
  5
27A
100
AcDbEntity
  8
RACCORDO
100
AcDbPolyline
 62
253
  6
CONTINUOUS
 90
13
 70
0
 10
-25.5759768028
 20
-23.0495626584
 10
-25.5676676193
 20
-23.0945179121
 10
-25.5577255278
 20
-23.1396202204
 10
-25.5461182297
 20
-23.1848041865
 10
-25.532799155
 20
-23.2300637089
 10
-25.5177534475
 20
-23.2752649102
 10
-25.5010188495
 20
-23.3201522292
 10
-25.4825968405
 20
-23.3646430581
 10
-25.4624833747
 20
-23.4086811139
 10
-25.4407449709
 20
-23.4520602701
 10
-25.4174239198
 20
-23.4946716246
 10
-25.3925225861
 20
-23.5364969893
 10
-25.3660657547
 20
-23.5774729334
  0
LWPOLYLINE
  5
27B
100
AcDbEntity
  8
RACCORDO
100
AcDbPolyline
 62
253
  6
CONTINUOUS
 90
13
 70
0
 10
-25.4606831602
 20
-23.0370197284
 10
-25.4542264343
 20
-23.0752418604
 10
-25.4462183677
 20
-23.1135323293
 10
-25.4366649001
 20
-23.1518341652
 10
-25.4255846121
 20
-23.1901231517
 10
-25.4129748438
 20
-23.2282959114
 10
-25.3988128583
 20
-23.2661713706
 10
-25.3830999192
 20
-23.3036431641
 10
-25.3658618186
 20
-23.340669233
 10
-25.3471158147
 20
-23.3771613488
 10
-25.3268797168
 20
-23.4130342392
 10
-25.3051718649
 20
-23.4482054205
 10
-25.2820127855
 20
-23.4825865477
  0
LINE
  5
27C
100
AcDbEntity
  8
SUPERFICI
100
AcDbLine
 62
253
  6
CONTINUOUS
 10
-26.4589990683
 20
45.5842922893
 11
-26.3794122984
 21
44.8442238161
  0
LINE
  5
27D
100
AcDbEntity
  8
RACCORDO
100
AcDbLine
 62
253
  6
CONTINUOUS
 10
-27.2925205258
 20
23.7075115306
 11
-27.3048330036
 21
23.856502362
  0
LINE
  5
27E
100
AcDbEntity
  8
RACCORDO
100
AcDbLine
 62
253
  6
CONTINUOUS
 10
-27.3048330036
 20
23.856502362
 11
-27.3169580698
 21
24.0121145625
  0
LINE
  5
27F
100
AcDbEntity
  8
RACCORDO
100
AcDbLine
 62
253
  6
CONTINUOUS
 10
-24.2681678912
 20
23.7044845257
 11
-24.270020732
 21
23.7290868744
  0
LINE
  5
280
100
AcDbEntity
  8
0
100
AcDbLine
 62
253
  6
CONTINUOUS
 10
-26.5057882124
 20
45.9876537964
 11
-26.4952610616
 21
45.8436818582
  0
LINE
  5
281
100
AcDbEntity
  8
RACCORDO
100
AcDbLine
 62
253
  6
CONTINUOUS
 10
-27.3169580698
 20
24.0121145625
 11
-27.3285901315
 21
24.1704262213
  0
LINE
  5
282
100
AcDbEntity
  8
RACCORDO
100
AcDbLine
 62
253
  6
CONTINUOUS
 10
-24.3214741617
 20
24.5181618255
 11
-24.2752376898
 21
23.844642183
  0
LINE
  5
283
100
AcDbEntity
  8
RACCORDO
100
AcDbLine
 62
253
  6
CONTINUOUS
 10
-24.270020732
 20
23.7290868744
 11
-24.271766017
 21
23.7547433964
  0
LWPOLYLINE
  5
284
100
AcDbEntity
  8
RACCORDO
100
AcDbPolyline
 62
253
  6
CONTINUOUS
 90
11
 70
0
 10
-24.271766017
 20
23.7547433964
 10
-24.2732882296
 20
23.7797559423
 10
-24.2739334309
 20
23.7914986594
 10
-24.2744866178
 20
23.8024689862
 10
-24.2749385985
 20
23.8124846401
 10
-24.2752818629
 20
23.8213792012
 10
-24.2755107074
 20
23.8290048775
 10
-24.2756213294
 20
23.8352349611
 10
-24.2756118909
 20
23.839965933
 10
-24.2754825488
 20
23.8431191835
 10
-24.275235452
 20
23.8446423183
  0
LINE
  5
285
100
AcDbEntity
  8
RACCORDO
100
AcDbLine
 62
253
  6
CONTINUOUS
 10
-24.3736582192
 20
-22.174655417
 11
-24.3871194922
 21
-16.9013322834
  0
LINE
  5
286
100
AcDbEntity
  8
RACCORDO
100
AcDbLine
 62
253
  6
CONTINUOUS
 10
-23.964953615
 20
-22.1534723676
 11
-23.9755633915
 21
-16.8851527144
  0
LINE
  5
287
100
AcDbEntity
  8
RACCORDO
100
AcDbLine
 62
253
  6
CONTINUOUS
 10
-24.3871194922
 20
-16.9013322834
 11
-24.3958084373
 21
-12.2201253754
  0
LINE
  5
288
100
AcDbEntity
  8
RACCORDO
100
AcDbLine
 62
253
  6
CONTINUOUS
 10
-23.9755633915
 20
-16.8851527144
 11
-23.9840241847
 21
-10.9750437273
  0
LINE
  5
289
100
AcDbEntity
  8
RACCORDO
100
AcDbLine
 62
253
  6
CONTINUOUS
 10
-23.3692284184
 20
-22.8195345459
 11
-23.3693421593
 21
-22.7561887673
  0
LINE
  5
28A
100
AcDbEntity
  8
RACCORDO
100
AcDbLine
 62
253
  6
CONTINUOUS
 10
-24.3958084373
 20
-12.2201253754
 11
-24.4021106159
 21
-7.1271460627
  0
LINE
  5
28B
100
AcDbEntity
  8
RACCORDO
100
AcDbLine
 62
253
  6
CONTINUOUS
 10
-23.9840241847
 20
-10.9750437273
 11
-23.9884587944
 21
-5.784096961
  0
LINE
  5
28C
100
AcDbEntity
  8
RACCORDO
100
AcDbLine
 62
253
  6
CONTINUOUS
 10
-24.4021106159
 20
-7.1271460627
 11
-24.4051314097
 21
-1.6218999335
  0
LINE
  5
28D
100
AcDbEntity
  8
RACCORDO
100
AcDbLine
 62
253
  6
CONTINUOUS
 10
-23.3691132901
 20
-23.0533866927
 11
-23.3692284184
 21
-22.8195345459
  0
LINE
  5
28E
100
AcDbEntity
  8
RACCORDO
100
AcDbLine
 62
253
  6
CONTINUOUS
 10
-23.9884587944
 20
-5.784096961
 11
-23.9900960609
 21
-0.1810827693
  0
LINE
  5
28F
100
AcDbEntity
  8
RACCORDO
100
AcDbLine
 62
7
  6
CONTINUOUS
 10
-23.8933991684
 20
-22.0818903665
 11
-23.8933991684
 21
21.7197541918
  0
LINE
  5
290
100
AcDbEntity
  8
RACCORDO
100
AcDbLine
 62
253
  6
CONTINUOUS
 10
-24.4051314097
 20
-1.6218999335
 11
-24.4040685661
 21
4.0800544829
  0
LINE
  5
291
100
AcDbEntity
  8
RACCORDO
100
AcDbLine
 62
253
  6
CONTINUOUS
 10
-23.9900960609
 20
-0.1810827693
 11
-23.9853358229
 21
9.381301232
  0
LINE
  5
292
100
AcDbEntity
  8
RACCORDO
100
AcDbLine
 62
253
  6
CONTINUOUS
 10
-24.4040685661
 20
4.0800544829
 11
-24.3992476549
 21
9.3905560026
  0
LINE
  5
293
100
AcDbEntity
  8
RACCORDO
100
AcDbLine
 62
253
  6
CONTINUOUS
 10
-24.3992476549
 20
9.3905560026
 11
-24.3916686635
 21
14.2775838977
  0
LINE
  5
294
100
AcDbEntity
  8
RACCORDO
100
AcDbLine
 62
253
  6
CONTINUOUS
 10
-23.9853358229
 20
9.381301232
 11
-23.9714789208
 21
18.7233746032
  0
LINE
  5
295
100
AcDbEntity
  8
RACCORDO
100
AcDbLine
 62
253
  6
CONTINUOUS
 10
-23.9714789208
 20
18.7233746032
 11
-23.9649536955
 21
21.7912983339
  0
LINE
  5
296
100
AcDbEntity
  8
RACCORDO
100
AcDbLine
 62
253
  6
CONTINUOUS
 10
-24.3916686635
 20
14.2775838977
 11
-24.381993489
 21
18.7416658292
  0
LWPOLYLINE
  5
297
100
AcDbEntity
  8
RACCORDO
100
AcDbPolyline
 62
253
  6
CONTINUOUS
 90
3
 70
0
 10
-23.3691132898
 20
22.6912502152
 10
-23.3693186296
 20
22.3985580772
 10
-23.3693421593
 20
22.3940526308
  0
LINE
  5
298
100
AcDbEntity
  8
RACCORDO
100
AcDbLine
 62
253
  6
CONTINUOUS
 10
-24.381993489
 20
18.7416658292
 11
-24.3736582192
 21
21.8125192424
  0
LWPOLYLINE
  5
299
100
AcDbEntity
  8
RACCORDO
100
AcDbPolyline
 62
253
  6
CONTINUOUS
 90
10
 70
0
 10
-24.3736582192
 20
21.8125192424
 10
-24.3725832261
 20
21.8596268544
 10
-24.3693364092
 20
21.9068743129
 10
-24.3639204884
 20
21.9542555642
 10
-24.3563912227
 20
22.0018328486
 10
-24.3466986195
 20
22.0495307071
 10
-24.3346871385
 20
22.0971355192
 10
-24.320307313
 20
22.1445703955
 10
-24.3036155491
 20
22.1918956675
 10
-24.2846154771
 20
22.2391025829
  0
LWPOLYLINE
  5
29A
100
AcDbEntity
  8
RACCORDO
100
AcDbPolyline
 62
253
  6
CONTINUOUS
 90
10
 70
0
 10
-23.9649537087
 20
21.7912983472
 10
-23.9643469814
 20
21.8168998101
 10
-23.9626003143
 20
21.8426601331
 10
-23.959686832
 20
21.868529466
 10
-23.9555853663
 20
21.8944395761
 10
-23.9502711687
 20
21.9203519699
 10
-23.9437087769
 20
21.9462565104
 10
-23.9358682677
 20
21.9721074661
 10
-23.9267328218
 20
21.9978250374
 10
-23.9162843709
 20
22.0233425046
  0
LWPOLYLINE
  5
29B
100
AcDbEntity
  8
RACCORDO
100
AcDbPolyline
 62
253
  6
CONTINUOUS
 90
9
 70
0
 10
-24.2739334342
 20
-24.1536348306
 10
-24.274486621
 20
-24.1646051554
 10
-24.2749386014
 20
-24.1746208082
 10
-24.2752818656
 20
-24.1835153694
 10
-24.2755107097
 20
-24.1911410471
 10
-24.2756213314
 20
-24.1973711334
 10
-24.2756118925
 20
-24.2021021094
 10
-24.27548255
 20
-24.2052553652
 10
-24.275235453
 20
-24.2067785066
  0
LINE
  5
29C
100
AcDbEntity
  8
RACCORDO
100
AcDbLine
 62
253
  6
CONTINUOUS
 10
-24.2725617377
 20
-24.1295721295
 11
-24.2739334342
 21
-24.1536348306
  0
LINE
  5
29D
100
AcDbEntity
  8
RACCORDO
100
AcDbLine
 62
253
  6
CONTINUOUS
 10
-24.2709143014
 20
-24.1040253617
 11
-24.2725617377
 21
-24.1295721295
  0
LINE
  5
29E
100
AcDbEntity
  8
RACCORDO
100
AcDbLine
 62
253
  6
CONTINUOUS
 10
-24.3214741618
 20
-24.8802980001
 11
-24.275235452
 21
-24.206778507
  0
LINE
  5
29F
100
AcDbEntity
  8
0
100
AcDbLine
 62
253
  6
CONTINUOUS
 10
-26.5057882126
 20
-46.3497899711
 11
-26.4952610618
 21
-46.2058180329
  0
LINE
  5
2A0
100
AcDbEntity
  8
RACCORDO
100
AcDbLine
 62
253
  6
CONTINUOUS
 10
-27.3286278934
 20
-24.5325574368
 11
-27.3169955391
 21
-24.3742472873
  0
LWPOLYLINE
  5
2A1
100
AcDbEntity
  8
RACCORDO
100
AcDbPolyline
 62
253
  6
CONTINUOUS
 90
3
 70
0
 10
-24.2681678913
 20
-24.0666207245
 10
-24.2691001653
 20
-24.078685411
 10
-24.2709143014
 20
-24.1040253617
  0
LINE
  5
2A2
100
AcDbEntity
  8
RACCORDO
100
AcDbLine
 62
253
  6
CONTINUOUS
 10
-27.3169955391
 20
-24.3742472873
 11
-27.3048700415
 21
-24.2186346549
  0
LINE
  5
2A3
100
AcDbEntity
  8
RACCORDO
100
AcDbLine
 62
253
  6
CONTINUOUS
 10
-27.3048700415
 20
-24.2186346549
 11
-27.292557142
 21
-24.0696435173
  0
LINE
  5
2A4
100
AcDbEntity
  8
0
100
AcDbLine
 62
253
  6
CONTINUOUS
 10
-26.4589990683
 20
-45.9464284639
 11
-26.3794122984
 21
-45.2063599907
  0
LINE
  5
2A5
100
AcDbEntity
  8
0
100
AcDbLine
 62
253
  6
CONTINUOUS
 10
-26.8932207923
 20
-45.7872930628
 11
-26.8219217385
 21
-45.1649571197
  0
LINE
  5
2A6
100
AcDbEntity
  8
0
100
AcDbLine
 62
253
  6
CONTINUOUS
 10
-26.9382787039
 20
-46.1638379829
 11
-26.8932207923
 21
-45.7872930628
  0
LWPOLYLINE
  5
2A7
100
AcDbEntity
  8
RACCORDO
100
AcDbPolyline
 62
253
  6
CONTINUOUS
 90
10
 70
0
 10
-23.6219680885
 20
22.3353502326
 10
-23.5958385291
 20
22.347521312
 10
-23.5690699648
 20
22.3583401854
 10
-23.5417241042
 20
22.3677768273
 10
-23.5138565101
 20
22.3758068128
 10
-23.4855396459
 20
22.3824025748
 10
-23.4568636461
 20
22.3875375829
 10
-23.4279044686
 20
22.3911963704
 10
-23.3987228231
 20
22.3933704876
 10
-23.3693878331
 20
22.3940525662
  0
LWPOLYLINE
  5
2A8
100
AcDbEntity
  8
RACCORDO
100
AcDbPolyline
 62
253
  6
CONTINUOUS
 90
10
 70
0
 10
-23.8337864946
 20
22.5844838951
 10
-23.7852264452
 20
22.60655674
 10
-23.7358097955
 20
22.6261239262
 10
-23.6855362742
 20
22.6431730285
 10
-23.634286019
 20
22.6577125928
 10
-23.5821783297
 20
22.6697080663
 10
-23.5295716517
 20
22.6790809622
 10
-23.4765852522
 20
22.6857948858
 10
-23.4230992368
 20
22.6898563748
 10
-23.3691132899
 20
22.6912502431
  0
LWPOLYLINE
  5
2A9
100
AcDbEntity
  8
RACCORDO
100
AcDbPolyline
 62
253
  6
CONTINUOUS
 90
11
 70
0
 10
49.9027785651
 20
-23.8443163858
 10
49.7747478777
 20
-23.8765012221
 10
49.7091807687
 20
-23.8922227228
 10
49.6425021185
 20
-23.9073667043
 10
49.5753668636
 20
-23.9218559776
 10
49.5078407514
 20
-23.9357540361
 10
49.4399377921
 20
-23.9490796857
 10
49.3722389805
 20
-23.961723229
 10
49.3049431619
 20
-23.9736622484
 10
49.2378652551
 20
-23.9849463224
 10
49.1710108326
 20
-23.9955901996
  0
LINE
  5
2AA
100
AcDbEntity
  8
RACCORDO
100
AcDbLine
 62
253
  6
CONTINUOUS
 10
49.9662996057
 20
-23.8289423507
 11
49.9027785651
 21
-23.8443163858
  0
LINE
  5
2AB
100
AcDbEntity
  8
0
100
AcDbLine
 62
253
  6
CONTINUOUS
 10
-36.2121210624
 20
-36.6434569848
 11
-36.0681491242
 21
-36.6329298341
  0
LINE
  5
2AC
100
AcDbEntity
  8
0
100
AcDbLine
 62
253
  6
CONTINUOUS
 10
-28.7540035353
 20
-36.0984434824
 11
-35.0651541968
 21
-36.559579001
  0
LWPOLYLINE
  5
2AD
100
AcDbEntity
  8
0
100
AcDbPolyline
 62
253
  6
CONTINUOUS
 90
10
 70
0
 10
-36.0681491363
 20
-36.632929674
 10
-36.0363641814
 20
-36.6319132287
 10
-35.9835136581
 20
-36.631215331
 10
-35.9098273252
 20
-36.6297829467
 10
-35.8152728324
 20
-36.6266376798
 10
-35.700340919
 20
-36.6208921275
 10
-35.5666841858
 20
-36.6118376747
 10
-35.4157744158
 20
-36.5989173666
 10
-35.248257043
 20
-36.5816275074
 10
-35.0651830011
 20
-36.5595934924
  0
LWPOLYLINE
  5
2AE
100
AcDbEntity
  8
SUPERFICI
100
AcDbPolyline
 62
253
  6
CONTINUOUS
 90
10
 70
0
 10
55.9813507996
 20
-36.632929674
 10
55.9495658446
 20
-36.6319132287
 10
55.8967153213
 20
-36.631215331
 10
55.8230289884
 20
-36.6297829467
 10
55.7284744956
 20
-36.6266376798
 10
55.6135425822
 20
-36.6208921275
 10
55.479885849
 20
-36.6118376747
 10
55.328976079
 20
-36.5989173666
 10
55.1614587062
 20
-36.5816275074
 10
54.9783846643
 20
-36.5595934924
  0
LINE
  5
2AF
100
AcDbEntity
  8
0
100
AcDbLine
 62
253
  6
CONTINUOUS
 10
56.1253227261
 20
-36.6434569844
 11
55.9813508075
 21
-36.6329298354
  0
LINE
  5
2B0
100
AcDbEntity
  8
SUPERFICI
100
AcDbLine
 62
253
  6
CONTINUOUS
 10
48.6672051985
 20
-36.0984434824
 11
54.97835586
 21
-36.559579001
  0
LWPOLYLINE
  5
2B1
100
AcDbEntity
  8
RACCORDO
100
AcDbPolyline
 62
253
  6
CONTINUOUS
 90
3
 70
0
 10
-29.8615730648
 20
-23.8764197038
 10
-29.9895362098
 20
-23.8442018849
 10
-30.0530975266
 20
-23.8289586786
  0
LWPOLYLINE
  5
2B2
100
AcDbEntity
  8
RACCORDO
100
AcDbPolyline
 62
253
  6
CONTINUOUS
 90
13
 70
0
 10
-23.8336302942
 20
-22.9466850148
 10
-23.8935231212
 20
-22.9277412746
 10
-23.9491014172
 20
-22.9065138779
 10
-24.0003354215
 20
-22.883067932
 10
-24.0469953499
 20
-22.857265025
 10
-24.0892560701
 20
-22.8293769329
 10
-24.1277001803
 20
-22.8000968691
 10
-24.1622823268
 20
-22.7696871727
 10
-24.1930129294
 20
-22.7380406878
 10
-24.2205612118
 20
-22.7052990745
 10
-24.2451378813
 20
-22.6715518406
 10
-24.2664988583
 20
-22.6368398831
 10
-24.2846296218
 20
-22.60122596
  0
LWPOLYLINE
  5
2B3
100
AcDbEntity
  8
RACCORDO
100
AcDbPolyline
 62
253
  6
CONTINUOUS
 90
10
 70
0
 10
-29.3065364118
 20
-24.137061266
 10
-29.1120747078
 20
-24.2015657102
 10
-28.9117907371
 20
-24.2610759198
 10
-28.705662575
 20
-24.3155816227
 10
-28.4943254744
 20
-24.3652318204
 10
-28.2771271901
 20
-24.409856905
 10
-28.0521281221
 20
-24.448965573
 10
-27.818697461
 20
-24.4823826823
 10
-27.5775136732
 20
-24.510252391
 10
-27.3286181638
 20
-24.5325585054
  0
LINE
  5
2B4
100
AcDbEntity
  8
SUPERFICI
100
AcDbLine
 62
253
  6
CONTINUOUS
 10
-26.9382787039
 20
45.8017018083
 11
-26.8775227777
 21
45.2908932029
  0
LINE
  5
2B5
100
AcDbEntity
  8
SUPERFICI
100
AcDbLine
 62
253
  6
CONTINUOUS
 10
-26.8775227777
 20
45.2908932029
 11
-26.8219217385
 21
44.8028209451
  0
LWPOLYLINE
  5
2B6
100
AcDbEntity
  8
RACCORDO
100
AcDbPolyline
 62
253
  6
CONTINUOUS
 90
10
 70
0
 10
49.171010814
 20
-23.9955901008
 10
48.97060376
 20
-24.0239785928
 10
48.7659734716
 20
-24.0476567873
 10
48.5572568858
 20
-24.0664704736
 10
48.3453249317
 20
-24.0802417409
 10
48.1295434071
 20
-24.0889289151
 10
47.9078137965
 20
-24.092446916
 10
47.6795059814
 20
-24.0905497664
 10
47.4454442952
 20
-24.0830107718
 10
47.2057245827
 20
-24.0696471802
  0
LINE
  5
2B7
100
AcDbEntity
  8
RACCORDO
100
AcDbLine
 62
253
  6
CONTINUOUS
 10
55.1682076361
 20
-23.6352704157
 11
55.7570558397
 21
-23.5804771061
  0
LWPOLYLINE
  5
2B8
100
AcDbEntity
  8
RACCORDO
100
AcDbPolyline
 62
253
  6
CONTINUOUS
 90
10
 70
0
 10
47.2418405505
 20
-24.5325567363
 10
47.4908139601
 20
-24.5102411702
 10
47.732093832
 20
-24.4823529745
 10
47.9656386555
 20
-24.4489083319
 10
48.1908195775
 20
-24.4097479574
 10
48.4082175189
 20
-24.3650620746
 10
48.6196232727
 20
-24.3153874283
 10
48.8256399886
 20
-24.2609089097
 10
49.0256824116
 20
-24.201462491
 10
49.21977269
 20
-24.1370585413
  0
LINE
  5
2B9
100
AcDbEntity
  8
RACCORDO
100
AcDbLine
 62
253
  6
CONTINUOUS
 10
53.3541140931
 20
-23.7963630158
 11
55.1682076361
 21
-23.6352704157
  0
LINE
  5
2BA
100
AcDbEntity
  8
RACCORDO
100
AcDbLine
 62
253
  6
CONTINUOUS
 10
52.0724365528
 20
-23.9062874454
 11
53.3541140931
 21
-23.7963630158
  0
LWPOLYLINE
  5
2BB
100
AcDbEntity
  8
RACCORDO
100
AcDbPolyline
 62
253
  6
CONTINUOUS
 90
3
 70
0
 10
49.9565448699
 20
-24.0785506919
 10
50.685020123
 20
-24.020255541
 10
52.0724365528
 20
-23.9062874454
  0
LWPOLYLINE
  5
2BC
100
AcDbEntity
  8
RACCORDO
100
AcDbPolyline
 62
253
  6
CONTINUOUS
 90
34
 70
0
 10
44.188439353
 20
-24.2067783576
 10
44.2126125321
 20
-24.2049438053
 10
44.2373523056
 20
-24.2026397778
 10
44.2626484899
 20
-24.1998349152
 10
44.288446505
 20
-24.1965025035
 10
44.3147770965
 20
-24.1926066029
 10
44.3417552301
 20
-24.1880938782
 10
44.3693647468
 20
-24.1829230518
 10
44.3975867417
 20
-24.1770528661
 10
44.4265269527
 20
-24.1704137782
 10
44.4561625198
 20
-24.1629542239
 10
44.4864651828
 20
-24.1546231119
 10
44.5175253184
 20
-24.1453344509
 10
44.5493108979
 20
-24.1350255795
 10
44.5817804599
 20
-24.1236355173
 10
44.615000453
 20
-24.1110634332
 10
44.6489253787
 20
-24.0972359965
 10
44.6834972936
 20
-24.0820830165
 10
44.7187514483
 20
-24.0654918738
 10
44.7546236166
 20
-24.0473805733
 10
44.7910360215
 20
-24.027671454
 10
44.8279881546
 20
-24.0062438206
 10
44.865386573
 20
-23.9830138619
 10
44.9031350301
 20
-23.957896701
 10
44.9412093609
 20
-23.9307568008
 10
44.9794723975
 20
-23.9015201803
 10
45.0178124906
 20
-23.8700909026
 10
45.0562149206
 20
-23.8362834691
 10
45.094515958
 20
-23.8000126508
 10
45.1325473103
 20
-23.7611931056
 10
45.1702459582
 20
-23.7196196002
 10
45.2074390252
 20
-23.6751659171
 10
45.2438592711
 20
-23.6278031469
 10
45.2792675177
 20
-23.5774727836
  0
LWPOLYLINE
  5
2BD
100
AcDbEntity
  8
RACCORDO
100
AcDbPolyline
 62
253
  6
CONTINUOUS
 90
3
 70
0
 10
47.2051069564
 20
-24.0696944274
 10
45.9692744252
 20
-24.1615971095
 10
45.7003756971
 20
-24.1811604512
  0
LINE
  5
2BE
100
AcDbEntity
  8
RACCORDO
100
AcDbLine
 62
253
  6
CONTINUOUS
 10
47.2418405505
 20
-24.5325567363
 11
45.669676288
 21
-24.6456130125
  0
LINE
  5
2BF
100
AcDbEntity
  8
RACCORDO
100
AcDbLine
 62
253
  6
CONTINUOUS
 10
45.669676288
 20
-24.6456130125
 11
45.1635719452
 21
-24.6811501915
  0
LINE
  5
2C0
100
AcDbEntity
  8
RACCORDO
100
AcDbLine
 62
253
  6
CONTINUOUS
 10
-27.3286181638
 20
-24.5325585054
 11
-25.2503701427
 21
-24.6811502012
  0
LINE
  5
2C1
100
AcDbEntity
  8
RACCORDO
100
AcDbLine
 62
253
  6
CONTINUOUS
 10
-27.2918630042
 20
-24.0696962026
 11
-26.054101084
 21
-24.1617426544
  0
LINE
  5
2C2
100
AcDbEntity
  8
RACCORDO
100
AcDbLine
 62
253
  6
CONTINUOUS
 10
-30.0433432067
 20
-24.0785506919
 11
-31.4776653621
 21
-23.962844775
  0
LINE
  5
2C3
100
AcDbEntity
  8
RACCORDO
100
AcDbLine
 62
253
  6
CONTINUOUS
 10
-31.4776653621
 20
-23.962844775
 11
-32.8121886387
 21
-23.850876079
  0
LWPOLYLINE
  5
2C4
100
AcDbEntity
  8
RACCORDO
100
AcDbPolyline
 62
253
  6
CONTINUOUS
 90
4
 70
0
 10
-32.8121886387
 20
-23.850876079
 10
-34.6607763364
 20
-23.6888261015
 10
-35.2550059729
 20
-23.6352704157
 10
-35.8438541765
 20
-23.5804771061
  0
LWPOLYLINE
  5
2C5
100
AcDbEntity
  8
RACCORDO
100
AcDbPolyline
 62
253
  6
CONTINUOUS
 90
10
 70
0
 10
-29.2577983468
 20
-23.9955958862
 10
-29.3246739166
 20
-23.9849529758
 10
-29.3917695823
 20
-23.9736709548
 10
-29.4590774679
 20
-23.961734505
 10
-29.5267832816
 20
-23.9490927838
 10
-29.5946900742
 20
-23.9357660507
 10
-29.6622171392
 20
-23.9218620411
 10
-29.7293552035
 20
-23.9073577674
 10
-29.7960313665
 20
-23.8921851034
 10
-29.8615730648
 20
-23.8764197038
  0
LWPOLYLINE
  5
2C6
100
AcDbEntity
  8
0
100
AcDbPolyline
 62
253
  6
CONTINUOUS
 90
5
 70
0
 10
-26.4939387814
 20
-46.2059146076
 10
-26.4873436336
 20
-46.1749655683
 10
-26.4794078321
 20
-46.1205652306
 10
-26.4700073672
 20
-46.0440555665
 10
-26.4589990683
 20
-45.9464284639
  0
LWPOLYLINE
  5
2C7
100
AcDbEntity
  8
0
100
AcDbPolyline
 62
7
  6
CONTINUOUS
 90
22
 70
0
 10
11.9728074955
 20
-23.1333660051
 10
12.0142837601
 20
-23.1272314955
 10
12.0557514772
 20
-23.1214503768
 10
12.0972106659
 20
-23.1160226079
 10
12.1386296295
 20
-23.1108806889
 10
12.1800401005
 20
-23.1060920384
 10
12.2215372515
 20
-23.1018589501
 10
12.263127203
 20
-23.0981708553
 10
12.3048038928
 20
-23.0950381378
 10
12.3466442425
 20
-23.0926944277
 10
12.3887041396
 20
-23.0911267172
 10
12.4309277804
 20
-23.0903477012
 10
12.473224577
 20
-23.0906294527
 10
12.5156217663
 20
-23.0919712569
 10
12.558092227
 20
-23.0943733604
 10
12.6004638632
 20
-23.098109159
 10
12.642815016
 20
-23.1031852922
 10
12.6850674885
 20
-23.1095944938
 10
12.726814402
 20
-23.1175892088
 10
12.7679201867
 20
-23.1272533369
 10
12.808520571
 20
-23.1385022656
 10
12.84861563
 20
-23.1513356412
  0
LWPOLYLINE
  5
2C8
100
AcDbEntity
  8
RACCORDO
100
AcDbPolyline
 62
253
  6
CONTINUOUS
 90
34
 70
0
 10
44.1813695544
 20
-24.0666207004
 10
44.2038351824
 20
-24.0649679274
 10
44.2268061375
 20
-24.0628182951
 10
44.2502824439
 20
-24.0601730293
 10
44.274237578
 20
-24.0570742294
 10
44.2986981139
 20
-24.053482336
 10
44.3237437307
 20
-24.0492765108
 10
44.3493816409
 20
-24.0444702993
 10
44.3756047068
 20
-24.0390538295
 10
44.4024711015
 20
-24.0328720808
 10
44.4299915531
 20
-24.025940132
 10
44.4581554422
 20
-24.018248119
 10
44.4869889502
 20
-24.0096048994
 10
44.516507659
 20
-24.0000263481
 10
44.5466961422
 20
-23.9895038755
 10
44.5775341056
 20
-23.9778112992
 10
44.6090419141
 20
-23.9649643581
 10
44.6411994186
 20
-23.9509571932
 10
44.6739255993
 20
-23.9355331848
 10
44.7072450604
 20
-23.918706912
 10
44.7411334845
 20
-23.9004766457
 10
44.7754365186
 20
-23.8805633906
 10
44.8101783761
 20
-23.8589830515
 10
44.8453352042
 20
-23.8357355409
 10
44.8806805989
 20
-23.8105198288
 10
44.9162339781
 20
-23.7833621488
 10
44.9519763493
 20
-23.754254546
 10
44.9876237349
 20
-23.7228463609
 10
45.0232199875
 20
-23.6891515136
 10
45.0587217302
 20
-23.6531761418
 10
45.0937141626
 20
-23.6145585568
 10
45.1280591714
 20
-23.5731844721
 10
45.1618953277
 20
-23.5291870119
 10
45.1952228503
 20
-23.4825751205
  0
LWPOLYLINE
  5
2C9
100
AcDbEntity
  8
0
100
AcDbPolyline
 62
7
  6
CONTINUOUS
 90
28
 70
0
 10
12.5172229761
 20
-23.8697399188
 10
12.5331938394
 20
-23.8692325864
 10
12.5491150131
 20
-23.8681558848
 10
12.5649864855
 20
-23.8665098633
 10
12.5808240464
 20
-23.8643638162
 10
12.5966118839
 20
-23.8616485446
 10
12.6123025808
 20
-23.8581563767
 10
12.6279964913
 20
-23.8538863279
 10
12.6435932304
 20
-23.8488395191
 10
12.6587442663
 20
-23.8428114762
 10
12.6734656803
 20
-23.8357659709
 10
12.6877413606
 20
-23.8277393987
 10
12.7011744884
 20
-23.8186362371
 10
12.7136846048
 20
-23.8083217709
 10
12.7253521534
 20
-23.7969308418
 10
12.7360216817
 20
-23.7847722233
 10
12.745616325
 20
-23.7718195906
 10
12.7542129611
 20
-23.7580992647
 10
12.7618867639
 20
-23.7439989309
 10
12.7686247767
 20
-23.7295969143
 10
12.7744399837
 20
-23.7148148013
 10
12.7794464737
 20
-23.6998051488
 10
12.7836776882
 20
-23.684602071
 10
12.7871002142
 20
-23.6691713447
 10
12.7897278578
 20
-23.6535630169
 10
12.7915652313
 20
-23.6377937266
 10
12.7926077534
 20
-23.6218467046
 10
12.7928554401
 20
-23.6057218812
  0
LWPOLYLINE
  5
2CA
100
AcDbEntity
  8
RACCORDO
100
AcDbPolyline
 62
253
  6
CONTINUOUS
 90
25
 70
0
 10
9.9567208587
 20
-25.3508269427
 10
11.9495871004
 20
-25.3470404787
 10
13.8838262139
 20
-25.3359544514
 10
15.759415212
 20
-25.318249394
 10
17.5738556327
 20
-25.2946471272
 10
19.3296144935
 20
-25.2657426352
 10
21.0341216344
 20
-25.2319168389
 10
22.6880481604
 20
-25.1936686841
 10
24.2907091789
 20
-25.1515266943
 10
25.8475012355
 20
-25.1057620958
 10
27.3587907487
 20
-25.0567848932
 10
28.8242093599
 20
-25.0050262741
 10
30.248051217
 20
-24.9506805446
 10
31.6318537902
 20
-24.8940338346
 10
32.974085109
 20
-24.8354908957
 10
34.2744357142
 20
-24.7753731681
 10
35.5321357805
 20
-24.7140430962
 10
36.7479689072
 20
-24.6517843757
 10
37.9239564852
 20
-24.5887723676
 10
39.0592665962
 20
-24.5253337029
 10
40.1547488533
 20
-24.4616978531
 10
41.2149454262
 20
-24.3978355511
 10
42.2413754578
 20
-24.3338710684
 10
43.2325369647
 20
-24.2701154192
 10
44.1884393529
 20
-24.2067783565
  0
LWPOLYLINE
  5
2CB
100
AcDbEntity
  8
RACCORDO
100
AcDbPolyline
 62
253
  6
CONTINUOUS
 90
25
 70
0
 10
9.956720846
 20
-25.2087020215
 10
11.949247478
 20
-25.2048479709
 10
13.8831614116
 20
-25.193845503
 10
15.7584314964
 20
-25.176310881
 10
17.5725501433
 20
-25.1528546995
 10
19.3279829504
 20
-25.1240554331
 10
21.0321662487
 20
-25.0903880976
 10
22.6857759946
 20
-25.0523394028
 10
24.2881232166
 20
-25.0103483601
 10
25.844600693
 20
-24.9647176107
 10
27.3555808957
 20
-24.9158999899
 10
28.8206977399
 20
-24.8643043144
 10
30.244237602
 20
-24.8101006796
 10
31.6277414948
 20
-24.7535886387
 10
32.9696817917
 20
-24.6951773963
 10
34.2697426657
 20
-24.6351690994
 10
35.5271574611
 20
-24.5739463934
 10
36.7427141231
 20
-24.5117787487
 10
37.9184264808
 20
-24.4487949567
 10
39.0534667247
 20
-24.3853747169
 10
40.1486889022
 20
-24.3217672752
 10
41.208626724
 20
-24.2578883434
 10
42.2347980518
 20
-24.1938569086
 10
43.2257081694
 20
-24.1300247923
 10
44.1813695544
 20
-24.0666207004
  0
LINE
  5
2CC
100
AcDbEntity
  8
RACCORDO
100
AcDbLine
 62
253
  6
CONTINUOUS
 10
43.2823149531
 20
-23.0533864177
 11
40.9484544252
 21
-23.0550580691
  0
LINE
  5
2CD
100
AcDbEntity
  8
0
100
AcDbLine
 62
7
  6
CONTINUOUS
 10
13.2108813901
 20
-24.813368774
 11
12.8695780467
 21
-24.813368774
  0
LINE
  5
2CE
100
AcDbEntity
  8
0
100
AcDbLine
 62
7
  6
CONTINUOUS
 10
12.3262078276
 20
-24.813368774
 11
11.9728074955
 21
-24.813368774
  0
LINE
  5
2CF
100
AcDbEntity
  8
0
100
AcDbLine
 62
7
  6
CONTINUOUS
 10
11.8686128316
 20
-24.8133690873
 11
11.4946388316
 21
-24.8133690873
  0
LINE
  5
2D0
100
AcDbEntity
  8
0
100
AcDbLine
 62
7
  6
CONTINUOUS
 10
10.8215918316
 20
-24.8133690873
 11
10.4706138316
 21
-24.8133690873
  0
LINE
  5
2D1
100
AcDbEntity
  8
0
100
AcDbLine
 62
7
  6
CONTINUOUS
 10
10.4148968316
 20
-24.8133690873
 11
10.0677808316
 21
-24.8133690873
  0
LINE
  5
2D2
100
AcDbEntity
  8
0
100
AcDbLine
 62
7
  6
CONTINUOUS
 10
9.5729888316
 20
-24.8133690873
 11
9.5232248316
 21
-24.8133690873
  0
LINE
  5
2D3
100
AcDbEntity
  8
0
100
AcDbLine
 62
7
  6
CONTINUOUS
 10
9.0303968316
 20
-24.8133690873
 11
8.6909418316
 21
-24.8133690873
  0
LINE
  5
2D4
100
AcDbEntity
  8
0
100
AcDbLine
 62
7
  6
CONTINUOUS
 10
8.4999268316
 20
-24.8133690873
 11
8.1450988316
 21
-24.8133690873
  0
LINE
  5
2D5
100
AcDbEntity
  8
0
100
AcDbLine
 62
7
  6
CONTINUOUS
 10
7.4670168316
 20
-24.8133690873
 11
7.1543248316
 21
-24.8133690873
  0
LINE
  5
2D6
100
AcDbEntity
  8
0
100
AcDbLine
 62
7
  6
CONTINUOUS
 10
11.4027198316
 20
-24.4740160873
 11
10.9195028316
 21
-24.4740160873
  0
LINE
  5
2D7
100
AcDbEntity
  8
0
100
AcDbLine
 62
7
  6
CONTINUOUS
 10
10.9920848316
 20
-24.2114260873
 11
11.3318068316
 21
-24.2114260873
  0
LINE
  5
2D8
100
AcDbEntity
  8
0
100
AcDbLine
 62
7
  6
CONTINUOUS
 10
12.5164581506
 20
-24.1481363714
 11
12.3262078276
 21
-24.1481363714
  0
LINE
  5
2D9
100
AcDbEntity
  8
0
100
AcDbLine
 62
7
  6
CONTINUOUS
 10
12.3144422632
 20
-23.8697399188
 11
12.5172229761
 21
-23.8697399188
  0
LINE
  5
2DA
100
AcDbEntity
  8
0
100
AcDbLine
 62
7
  6
CONTINUOUS
 10
6.6154348316
 20
-23.1135060873
 11
7.0008878316
 21
-23.1135060873
  0
LINE
  5
2DB
100
AcDbEntity
  8
0
100
AcDbLine
 62
7
  6
CONTINUOUS
 10
7.6588348316
 20
-23.1135060873
 11
8.0134208316
 21
-23.1135060873
  0
LINE
  5
2DC
100
AcDbEntity
  8
0
100
AcDbLine
 62
7
  6
CONTINUOUS
 10
8.8444288316
 20
-23.1135060873
 11
9.1989638316
 21
-23.1135060873
  0
LINE
  5
2DD
100
AcDbEntity
  8
0
100
AcDbLine
 62
7
  6
CONTINUOUS
 10
9.9048728316
 20
-23.1135060873
 11
10.2559398316
 21
-23.1135060873
  0
LINE
  5
2DE
100
AcDbEntity
  8
0
100
AcDbLine
 62
7
  6
CONTINUOUS
 10
11.0037988316
 20
-23.1135060873
 11
11.3470528316
 21
-23.1135060873
  0
LINE
  5
2DF
100
AcDbEntity
  8
0
100
AcDbLine
 62
7
  6
CONTINUOUS
 10
8.1450988316
 20
-23.1134040873
 11
8.4999268316
 21
-23.1134040873
  0
LWPOLYLINE
  5
2E0
100
AcDbEntity
  8
RACCORDO
100
AcDbPolyline
 62
253
  6
CONTINUOUS
 90
3
 70
0
 10
-18.6405429138
 20
-23.0549254269
 10
-21.0437228589
 20
-23.0550455583
 10
-23.3691132899
 20
-23.0533864177
  0
LINE
  5
2E1
100
AcDbEntity
  8
RACCORDO
100
AcDbLine
 62
253
  6
CONTINUOUS
 10
43.282589553
 20
-22.7561887992
 11
-23.3693313481
 21
-22.7561887991
  0
LINE
  5
2E2
100
AcDbEntity
  8
RACCORDO
100
AcDbLine
 62
7
  6
CONTINUOUS
 10
43.2074231107
 20
-22.6810680873
 11
-23.2942214475
 21
-22.6810680873
  0
LWPOLYLINE
  5
2E3
100
AcDbEntity
  8
RACCORDO
100
AcDbPolyline
 62
253
  6
CONTINUOUS
 90
3
 70
0
 10
40.9484544252
 20
-23.0550580691
 10
25.3050497782
 20
-23.0491226163
 10
-18.6405429138
 20
-23.0549254269
  0
LWPOLYLINE
  5
2E4
100
AcDbEntity
  8
RACCORDO
100
AcDbPolyline
 62
253
  6
CONTINUOUS
 90
10
 70
0
 10
-23.3693313617
 20
-22.7561888125
 10
-23.3989318835
 20
-22.7554951845
 10
-23.4282608677
 20
-22.7532956568
 10
-23.4572493972
 20
-22.7496149054
 10
-23.4857705023
 20
-22.7444924602
 10
-23.5138213479
 20
-22.7379531275
 10
-23.5415169144
 20
-22.7299780301
 10
-23.5688478904
 20
-22.7205577941
 10
-23.595687267
 20
-22.7097213513
 10
-23.6219680738
 20
-22.6974864142
  0
LWPOLYLINE
  5
2E5
100
AcDbEntity
  8
RACCORDO
100
AcDbPolyline
 62
253
  6
CONTINUOUS
 90
10
 70
0
 10
-23.3691132899
 20
-23.0533864177
 10
-23.423471844
 20
-23.0519334221
 10
-23.4771494811
 20
-23.047847102
 10
-23.5301465134
 20
-23.0411424629
 10
-23.5824716585
 20
-23.0318358484
 10
-23.6341168103
 20
-23.0199399402
 10
-23.6850570393
 20
-23.0054637559
 10
-23.7352842296
 20
-22.9884192903
 10
-23.7848070782
 20
-22.9688215121
 10
-23.8336258675
 20
-22.9466833656
  0
LWPOLYLINE
  5
2E6
100
AcDbEntity
  8
RACCORDO
100
AcDbPolyline
 62
253
  6
CONTINUOUS
 90
22
 70
0
 10
-24.275235452
 20
-24.206778507
 10
-23.1767805848
 20
-24.27940233
 10
-22.0316760532
 20
-24.3525595446
 10
-20.8399076623
 20
-24.4259295381
 10
-19.603495603
 20
-24.4990537078
 10
-18.3203942146
 20
-24.5717206538
 10
-16.9844890686
 20
-24.6439138345
 10
-15.5940659617
 20
-24.7152909022
 10
-14.1508139237
 20
-24.7853214276
 10
-12.6537221258
 20
-24.8536258488
 10
-11.1032605414
 20
-24.9196961032
 10
-9.4989442355
 20
-24.9830595788
 10
-7.8383312683
 20
-25.043331644
 10
-6.123369609
 20
-25.0998833743
 10
-4.3521098191
 20
-25.1522180342
 10
-2.5162639065
 20
-25.2000090615
 10
-0.6162430846
 20
-25.242525309
 10
1.3483490684
 20
-25.2790547533
 10
3.3870114729
 20
-25.3090615441
 10
5.502897726
 20
-25.3317016323
 10
7.6928118047
 20
-25.345947571
 10
9.9567208587
 20
-25.3508269427
  0
LWPOLYLINE
  5
2E7
100
AcDbEntity
  8
RACCORDO
100
AcDbPolyline
 62
253
  6
CONTINUOUS
 90
22
 70
0
 10
-24.2681678912
 20
-24.0666207004
 10
-23.1699860475
 20
-24.1393052121
 10
-22.0251702702
 20
-24.2125431723
 10
-20.8337020196
 20
-24.2859917235
 10
-19.5975912192
 20
-24.3591312585
 10
-18.3147917495
 20
-24.4317425678
 10
-16.979198422
 20
-24.5038887289
 10
-15.5890941332
 20
-24.5752102264
 10
-14.146165133
 20
-24.6451130332
 10
-12.6494075718
 20
-24.7132731689
 10
-11.0992844425
 20
-24.7791892452
 10
-9.4953061624
 20
-24.8423763176
 10
-7.8350416916
 20
-24.902489871
 10
-6.1204343337
 20
-24.9588973677
 10
-4.3495274192
 20
-25.0110519472
 10
-2.5140405077
 20
-25.058613462
 10
-0.6143878896
 20
-25.1009574877
 10
1.3498346014
 20
-25.1373622254
 10
3.3881317091
 20
-25.1671711188
 10
5.5036558188
 20
-25.1895820347
 10
7.693200314
 20
-25.2037204859
 10
9.956720846
 20
-25.2087020215
  0
LINE
  5
2E8
100
AcDbEntity
  8
RACCORDO
100
AcDbLine
 62
253
  6
CONTINUOUS
 10
-26.054101084
 20
-24.1617426544
 11
-25.7871740176
 21
-24.1811604524
  0
LWPOLYLINE
  5
2E9
100
AcDbEntity
  8
0
100
AcDbPolyline
 62
7
  6
CONTINUOUS
 90
7
 70
0
 10
12.5924090527
 20
-23.3930869247
 10
12.5474381246
 20
-23.3889299402
 10
12.501924632
 20
-23.3871022362
 10
12.4558684398
 20
-23.3876043288
 10
12.4092694094
 20
-23.3904367272
 10
12.362127399
 20
-23.3955999324
 10
12.3144422632
 20
-23.4030944363
  0
LWPOLYLINE
  5
2EA
100
AcDbEntity
  8
SUPERFICI
100
AcDbPolyline
 62
253
  6
CONTINUOUS
 90
5
 70
0
 10
-26.4939387814
 20
45.843778433
 10
-26.4873436336
 20
45.8128293937
 10
-26.4794078321
 20
45.758429056
 10
-26.4700073672
 20
45.6819193919
 10
-26.4589990683
 20
45.5842922893
  0
LWPOLYLINE
  5
2EB
100
AcDbEntity
  8
RACCORDO
100
AcDbPolyline
 62
253
  6
CONTINUOUS
 90
10
 70
0
 10
-27.292557142
 20
-24.0696435173
 10
-27.5321800559
 20
-24.0830116912
 10
-27.7661313153
 20
-24.0905563787
 10
-27.9943114751
 20
-24.0924591342
 10
-28.2158499574
 20
-24.0889492681
 10
-28.4314270398
 20
-24.0802772651
 10
-28.6432887093
 20
-24.0665226646
 10
-28.8521220129
 20
-24.0477145735
 10
-29.0570056594
 20
-24.0240238315
 10
-29.2577983557
 20
-23.995595933
  0
LINE
  5
2EC
100
AcDbEntity
  8
0
100
AcDbLine
 62
253
  6
CONTINUOUS
 10
-36.1922094387
 20
-23.5978965576
 11
-35.8443494494
 21
-23.5794356359
  0
LWPOLYLINE
  5
2ED
100
AcDbEntity
  8
RACCORDO
100
AcDbPolyline
 62
253
  6
CONTINUOUS
 90
13
 70
0
 10
-25.4777079101
 20
-22.874708097
 10
-25.4916590685
 20
-22.8753735073
 10
-25.5056665139
 20
-22.8759421973
 10
-25.5194544285
 20
-22.8764029692
 10
-25.5327513177
 20
-22.8767467499
 10
-25.5452953553
 20
-22.8769667702
 10
-25.5568395394
 20
-22.8770586978
 10
-25.5671565561
 20
-22.8770207224
 10
-25.5760432551
 20
-22.8768535918
 10
-25.5833246505
 20
-22.876560597
 10
-25.5888573659
 20
-22.8761475073
 10
-25.5925324579
 20
-22.8756224567
 10
-25.5942775609
 20
-22.8749957839
  0
LINE
  5
2EE
100
AcDbEntity
  8
0
100
AcDbLine
 62
253
  6
CONTINUOUS
 10
-36.475218315
 20
-23.6113699512
 11
-36.1922094387
 21
-23.5978965576
  0
LINE
  5
2EF
100
AcDbEntity
  8
RACCORDO
100
AcDbLine
 62
253
  6
CONTINUOUS
 10
-26.0763627095
 20
-22.8969072324
 11
-25.5942776912
 21
-22.8749957652
  0
LINE
  5
2F0
100
AcDbEntity
  8
0
100
AcDbLine
 62
253
  6
CONTINUOUS
 10
-36.685138005
 20
-23.620232362
 11
-36.475218315
 21
-23.6113699512
  0
LINE
  5
2F1
100
AcDbEntity
  8
0
100
AcDbLine
 62
253
  6
CONTINUOUS
 10
-36.8488881874
 20
-23.6266045341
 11
-36.685138005
 21
-23.620232362
  0
LWPOLYLINE
  5
2F2
100
AcDbEntity
  8
RACCORDO
100
AcDbPolyline
 62
253
  6
CONTINUOUS
 90
14
 70
0
 10
-24.2879466946
 20
-22.1734214802
 10
-24.2470206309
 20
-22.1725640978
 10
-24.2078174929
 20
-22.1715550867
 10
-24.1706481886
 20
-22.170402449
 10
-24.1358074965
 20
-22.1691153259
 10
-24.1035717272
 20
-22.1677039253
 10
-24.0741965329
 20
-22.1661794404
 10
-24.0479148791
 20
-22.1645539616
 10
-24.0249351976
 20
-22.16284038
 10
-24.0054397331
 20
-22.1610522854
 10
-23.9895830984
 20
-22.1592038588
 10
-23.9774910473
 20
-22.1573097595
 10
-23.9692594783
 20
-22.1553850088
 10
-23.9649536735
 20
-22.1534448716
  0
LINE
  5
2F3
100
AcDbEntity
  8
RACCORDO
100
AcDbLine
 62
253
  6
CONTINUOUS
 10
-24.373658221
 20
-22.1746554166
 11
-24.2879466946
 21
-22.1734214802
  0
LWPOLYLINE
  5
2F4
100
AcDbEntity
  8
RACCORDO
100
AcDbPolyline
 62
253
  6
CONTINUOUS
 90
15
 70
0
 10
44.2868600363
 20
-22.174655381
 10
44.2011484437
 20
-22.1734214526
 10
44.1602223422
 20
-22.1725640738
 10
44.1210191644
 20
-22.1715550661
 10
44.0838498194
 20
-22.1704024314
 10
44.0490090864
 20
-22.1691153111
 10
44.016773277
 20
-22.167703913
 10
43.987398044
 20
-22.1661794304
 10
43.9611163539
 20
-22.1645539535
 10
43.938136639
 20
-22.1628403737
 10
43.9186411448
 20
-22.1610522807
 10
43.9027844843
 20
-22.1592038555
 10
43.890692412
 20
-22.1573097573
 10
43.8824608267
 20
-22.1553850078
 10
43.8781550107
 20
-22.1534448716
  0
LINE
  5
2F5
100
AcDbEntity
  8
SUPERFICI
100
AcDbLine
 62
253
  6
CONTINUOUS
 10
56.7620898506
 20
-23.6266045341
 11
56.5032021005
 21
-23.6163494097
  0
LINE
  5
2F6
100
AcDbEntity
  8
RACCORDO
100
AcDbLine
 62
253
  6
CONTINUOUS
 10
45.9895643704
 20
-22.8969072323
 11
45.5074791634
 21
-22.8750001973
  0
LINE
  5
2F7
100
AcDbEntity
  8
SUPERFICI
100
AcDbLine
 62
253
  6
CONTINUOUS
 10
56.5032021005
 20
-23.6163494097
 11
56.255397801
 21
-23.6052333869
  0
LWPOLYLINE
  5
2F8
100
AcDbEntity
  8
RACCORDO
100
AcDbPolyline
 62
253
  6
CONTINUOUS
 90
13
 70
0
 10
45.3909095564
 20
-22.8747081013
 10
45.4048607348
 20
-22.8753735127
 10
45.4188682024
 20
-22.8759422039
 10
45.4326561404
 20
-22.8764029768
 10
45.4459530528
 20
-22.8767467584
 10
45.4584971121
 20
-22.8769667794
 10
45.4700413154
 20
-22.8770587073
 10
45.4803583476
 20
-22.8770207319
 10
45.4892450577
 20
-22.8768536012
 10
45.4965264589
 20
-22.8765606059
 10
45.5020591744
 20
-22.8761475154
 10
45.5057342603
 20
-22.8756224637
 10
45.5074793512
 20
-22.8749957897
  0
LWPOLYLINE
  5
2F9
100
AcDbEntity
  8
SUPERFICI
100
AcDbPolyline
 62
253
  6
CONTINUOUS
 90
3
 70
0
 10
56.255397801
 20
-23.6052333869
 10
55.9391327727
 20
-23.5893052929
 10
55.7575511126
 20
-23.5794356359
  0
LWPOLYLINE
  5
2FA
100
AcDbEntity
  8
0
100
AcDbPolyline
 62
7
  6
CONTINUOUS
 90
51
 70
0
 10
12.84861563
 20
-23.1513356412
 10
12.8691503009
 20
-23.1597924266
 10
12.8896211681
 20
-23.1699341633
 10
12.9100282747
 20
-23.1817606449
 10
12.9304588916
 20
-23.1952187249
 10
12.9508258338
 20
-23.2103611303
 10
12.9708674592
 20
-23.2273464729
 10
12.9907710731
 20
-23.2463063958
 10
13.0103494544
 20
-23.2671088391
 10
13.02877914
 20
-23.2895170306
 10
13.0460240331
 20
-23.3138019202
 10
13.0621202385
 20
-23.3396925418
 10
13.0763525163
 20
-23.3661396694
 10
13.0884579429
 20
-23.3931605825
 10
13.0986993278
 20
-23.420738618
 10
13.10714997
 20
-23.4477739468
 10
13.1136403053
 20
-23.4739989649
 10
13.1183397604
 20
-23.4996819973
 10
13.1218301297
 20
-23.5245270527
 10
13.124183823
 20
-23.5484123699
 10
13.1253283504
 20
-23.5714601215
 10
13.1256281888
 20
-23.5937400496
 10
13.1251436896
 20
-23.6152602768
 10
13.1238144556
 20
-23.6360129094
 10
13.1218238583
 20
-23.6560435718
 10
13.119181885
 20
-23.6753555034
 10
13.1158785196
 20
-23.6939456016
 10
13.1120671383
 20
-23.7118499272
 10
13.1077535021
 20
-23.729064716
 10
13.1029318345
 20
-23.7455937995
 10
13.0977382132
 20
-23.7614845967
 10
13.0921813212
 20
-23.7767359398
 10
13.0862524697
 20
-23.7913490149
 10
13.0800616831
 20
-23.8053747484
 10
13.0736167754
 20
-23.8188197706
 10
13.0669099331
 20
-23.8316774395
 10
13.0600277426
 20
-23.8439787585
 10
13.05297653
 20
-23.8557231968
 10
13.0457499739
 20
-23.8669112544
 10
13.0384156918
 20
-23.8775754723
 10
13.0309753666
 20
-23.8877035621
 10
13.0234273226
 20
-23.8973077712
 10
13.01583414
 20
-23.9064574415
 10
13.0081895223
 20
-23.9151446167
 10
13.0004997739
 20
-23.9233772113
 10
12.9928463758
 20
-23.9312483761
 10
12.9852392568
 20
-23.9387604047
 10
12.977668496
 20
-23.9459109658
 10
12.9701858001
 20
-23.952786278
 10
12.9628003131
 20
-23.9593954587
 10
12.9555028978
 20
-23.9657293605
  0
LWPOLYLINE
  5
2FB
100
AcDbEntity
  8
0
100
AcDbPolyline
 62
7
  6
CONTINUOUS
 90
4
 70
0
 10
12.8850530144
 20
-24.0198878957
 10
12.9052372316
 20
-24.0301401717
 10
12.923678652
 20
-24.0412442946
 10
12.9403772713
 20
-24.0532003671
  0
LWPOLYLINE
  5
2FC
100
AcDbEntity
  8
RACCORDO
100
AcDbPolyline
 62
253
  6
CONTINUOUS
 90
13
 70
0
 10
-23.8335183619
 20
-22.9467173413
 10
-23.8115402012
 20
-22.909736442
 10
-23.7897575093
 20
-22.8748653611
 10
-23.7683622857
 20
-22.8424114758
 10
-23.7475431147
 20
-22.8126608568
 10
-23.7274835024
 20
-22.7858757467
 10
-23.7083602598
 20
-22.7622922483
 10
-23.6903419439
 20
-22.7421182437
 10
-23.6735873716
 20
-22.7255315621
 10
-23.6582442208
 20
-22.7126784116
 10
-23.6444477278
 20
-22.7036720909
 10
-23.632319496
 20
-22.6985919908
 10
-23.6219664233
 20
-22.6974828936
  0
LWPOLYLINE
  5
2FD
100
AcDbEntity
  8
RACCORDO
100
AcDbPolyline
 62
253
  6
CONTINUOUS
 90
13
 70
0
 10
-25.4606854418
 20
-23.0370034758
 10
-25.4743970046
 20
-23.0393864238
 10
-25.4881698714
 20
-23.0416393122
 10
-25.5017351134
 20
-23.0437181496
 10
-25.5148278558
 20
-23.0455823431
 10
-25.52719245
 20
-23.0471954909
 10
-25.5385874651
 20
-23.0485260933
 10
-25.5487904021
 20
-23.0495481675
 10
-25.5576020387
 20
-23.0502417551
 10
-25.5648503191
 20
-23.0505933117
 10
-25.5703937135
 20
-23.0505959716
 10
-25.5741239817
 20
-23.0502496816
 10
-25.5759682867
 20
-23.0495612022
  0
LWPOLYLINE
  5
2FE
100
AcDbEntity
  8
RACCORDO
100
AcDbPolyline
 62
253
  6
CONTINUOUS
 90
13
 70
0
 10
45.3738881434
 20
-23.0370031169
 10
45.3875999027
 20
-23.0393861038
 10
45.4013730683
 20
-23.0416390505
 10
45.4149387065
 20
-23.0437179663
 10
45.4280319359
 20
-23.0455822584
 10
45.4403970994
 20
-23.0471955248
 10
45.451792756
 20
-23.048526265
 10
45.4619963953
 20
-23.0495484951
 10
45.470808782
 20
-23.0502422552
 10
45.4780578463
 20
-23.050593999
 10
45.4836020435
 20
-23.0505968584
 10
45.4873331182
 20
-23.0502507775
 10
45.4891782177
 20
-23.0495625138
  0
LWPOLYLINE
  5
2FF
100
AcDbEntity
  8
0
100
AcDbPolyline
 62
7
  6
CONTINUOUS
 90
18
 70
0
 10
12.9403772713
 20
-24.0532003671
 10
12.9551223675
 20
-24.0661978083
 10
12.9681246424
 20
-24.0800474449
 10
12.9800162233
 20
-24.0941814765
 10
12.9908799935
 20
-24.108476325
 10
13.0006330379
 20
-24.1230557858
 10
13.009658791
 20
-24.1377230569
 10
13.0180213398
 20
-24.1524618332
 10
13.0256565728
 20
-24.1672885705
 10
13.0327556327
 20
-24.1820555594
 10
13.039335082
 20
-24.1967288009
 10
13.0453783371
 20
-24.2113424163
 10
13.0510268271
 20
-24.2258508464
 10
13.0562830127
 20
-24.2402221726
 10
13.061144417
 20
-24.2544884042
 10
13.0657450679
 20
-24.2686998439
 10
13.0700759728
 20
-24.2828582763
 10
13.0741461142
 20
-24.2969619733
  0
LWPOLYLINE
  5
300
100
AcDbEntity
  8
RACCORDO
100
AcDbPolyline
 62
253
  6
CONTINUOUS
 90
13
 70
0
 10
-23.8335183826
 20
22.5845894897
 10
-23.8115405965
 20
22.5476080041
 10
-23.78975822
 20
22.5127363657
 10
-23.7683632563
 20
22.480281954
 10
-23.7475442933
 20
22.4505308418
 10
-23.727484842
 20
22.4237452732
 10
-23.7083617189
 20
22.4001613522
 10
-23.6903434867
 20
22.3799869616
 10
-23.6735889689
 20
22.3633999306
 10
-23.65824585
 20
22.3505464675
 10
-23.6444493734
 20
22.3415398702
 10
-23.6323211496
 20
22.3364595284
 10
-23.6219680841
 20
22.3353502232
  0
LINE
  5
301
100
AcDbEntity
  8
RACCORDO
100
AcDbLine
 62
253
  6
CONTINUOUS
 10
-23.8933991684
 20
-22.0818903665
 11
-23.964953615
 21
-22.1534723676
  0
LINE
  5
302
100
AcDbEntity
  8
RACCORDO
100
AcDbLine
 62
253
  6
CONTINUOUS
 10
43.7468275288
 20
22.5845471915
 11
44.1077646533
 21
22.722443684
  0
LINE
  5
303
100
AcDbEntity
  8
RACCORDO
100
AcDbLine
 62
253
  6
CONTINUOUS
 10
44.197822844
 20
22.2390865545
 11
44.5684383921
 21
22.3799705876
  0
LINE
  5
304
100
AcDbEntity
  8
RACCORDO
100
AcDbLine
 62
253
  6
CONTINUOUS
 10
44.1077646533
 20
22.722443684
 11
44.3865555959
 21
22.8274974773
  0
LINE
  5
305
100
AcDbEntity
  8
RACCORDO
100
AcDbLine
 62
253
  6
CONTINUOUS
 10
44.5684383921
 20
22.3799705876
 11
44.8560613857
 21
22.4874415063
  0
LINE
  5
306
100
AcDbEntity
  8
RACCORDO
100
AcDbLine
 62
253
  6
CONTINUOUS
 10
44.3865555959
 20
22.8274974773
 11
44.5772683511
 21
22.8983828407
  0
LINE
  5
307
100
AcDbEntity
  8
RACCORDO
100
AcDbLine
 62
253
  6
CONTINUOUS
 10
44.8560613857
 20
22.4874415063
 11
45.0557574435
 21
22.5607760277
  0
LINE
  5
308
100
AcDbEntity
  8
RACCORDO
100
AcDbLine
 62
253
  6
CONTINUOUS
 10
44.5772683511
 20
22.8983828407
 11
44.7738064042
 21
22.9704055622
  0
LWPOLYLINE
  5
309
100
AcDbEntity
  8
RACCORDO
100
AcDbPolyline
 62
253
  6
CONTINUOUS
 90
3
 70
0
 10
45.0557574435
 20
22.5607760277
 10
45.2654874025
 20
22.6364121261
 10
45.3738858358
 20
22.6748839117
  0
LINE
  5
30A
100
AcDbEntity
  8
RACCORDO
100
AcDbLine
 62
253
  6
CONTINUOUS
 10
44.7738064042
 20
22.9704055622
 11
44.9794795486
 21
23.044402374
  0
LINE
  5
30B
100
AcDbEntity
  8
RACCORDO
100
AcDbLine
 62
253
  6
CONTINUOUS
 10
44.9794795486
 20
23.044402374
 11
45.1952141089
 21
23.1204502506
  0
LWPOLYLINE
  5
30C
100
AcDbEntity
  8
RACCORDO
100
AcDbPolyline
 62
253
  6
CONTINUOUS
 90
16
 70
0
 10
45.9745730564
 20
22.8785249432
 10
46.2406621
 20
22.9627550672
 10
46.5096082764
 20
23.043315342
 10
46.7814225494
 20
23.1196138915
 10
47.0569511835
 20
23.1912812891
 10
47.3353715895
 20
23.2573764812
 10
47.6141907714
 20
23.3165708256
 10
47.8945607086
 20
23.3684978654
 10
48.1753526296
 20
23.4124102191
 10
48.4506439618
 20
23.4470641783
 10
48.7186963965
 20
23.4722835069
 10
48.9812520048
 20
23.4884240257
 10
49.2375988772
 20
23.4956710713
 10
49.4874979536
 20
23.4942779596
 10
49.731184735
 20
23.4844892538
 10
49.9686564565
 20
23.4666047706
  0
LWPOLYLINE
  5
30D
100
AcDbEntity
  8
RACCORDO
100
AcDbPolyline
 62
253
  6
CONTINUOUS
 90
7
 70
0
 10
45.9120351962
 20
23.357978277
 10
46.1223899994
 20
23.4229573516
 10
46.3348113977
 20
23.4852487618
 10
46.5492987587
 20
23.544852963
 10
46.7658514623
 20
23.6017710787
 10
46.9844688638
 20
23.656004413
 10
47.2051502763
 20
23.70755422
  0
LWPOLYLINE
  5
30E
100
AcDbEntity
  8
RACCORDO
100
AcDbPolyline
 62
253
  6
CONTINUOUS
 90
7
 70
0
 10
45.9120348688
 20
-23.7201143525
 10
46.1206248784
 20
-23.7845879618
 10
46.331985021
 20
-23.8465945169
 10
46.5461143112
 20
-23.9061209951
 10
46.7630117601
 20
-23.9631548647
 10
46.9826763385
 20
-24.0176836025
 10
47.2051069564
 20
-24.0696944274
  0
LWPOLYLINE
  5
30F
100
AcDbEntity
  8
RACCORDO
100
AcDbPolyline
 62
253
  6
CONTINUOUS
 90
16
 70
0
 10
45.9745729649
 20
-23.2406610883
 10
46.232057086
 20
-23.322238824
 10
46.4937857227
 20
-23.4008457093
 10
46.7597698914
 20
-23.4758631222
 10
47.0307510282
 20
-23.546863264
 10
47.3060120813
 20
-23.6128724403
 10
47.5833764754
 20
-23.6725275354
 10
47.8644828702
 20
-23.7254365191
 10
48.1477196517
 20
-23.7706032751
 10
48.426026079
 20
-23.8064575695
 10
48.6974036373
 20
-23.8327275473
 10
48.9638565503
 20
-23.8497533143
 10
49.2243165965
 20
-23.8576396122
 10
49.4784261208
 20
-23.856607816
 10
49.7265402913
 20
-23.846881449
 10
49.9686568974
 20
-23.8287317618
  0
LINE
  5
310
100
AcDbEntity
  8
RACCORDO
100
AcDbLine
 62
253
  6
CONTINUOUS
 10
44.9771379976
 20
-23.4056995219
 11
45.1952228503
 21
-23.4825751205
  0
LINE
  5
311
100
AcDbEntity
  8
RACCORDO
100
AcDbLine
 62
253
  6
CONTINUOUS
 10
45.1579073583
 20
-22.9599335034
 11
45.3738895529
 21
-23.0369927609
  0
LINE
  5
312
100
AcDbEntity
  8
RACCORDO
100
AcDbLine
 62
253
  6
CONTINUOUS
 10
44.7695302448
 20
-23.3309889514
 11
44.9771379976
 21
-23.4056995219
  0
LINE
  5
313
100
AcDbEntity
  8
RACCORDO
100
AcDbLine
 62
253
  6
CONTINUOUS
 10
44.9519878234
 20
-22.8849552412
 11
45.1579073583
 21
-22.9599335034
  0
LINE
  5
314
100
AcDbEntity
  8
RACCORDO
100
AcDbLine
 62
253
  6
CONTINUOUS
 10
44.5715698709
 20
-23.258414663
 11
44.7695302448
 21
-23.3309889514
  0
LINE
  5
315
100
AcDbEntity
  8
RACCORDO
100
AcDbLine
 62
253
  6
CONTINUOUS
 10
44.7553204997
 20
-22.8121601876
 11
44.9519878234
 21
-22.8849552412
  0
LINE
  5
316
100
AcDbEntity
  8
RACCORDO
100
AcDbLine
 62
253
  6
CONTINUOUS
 10
44.2866711007
 20
-23.1521734647
 11
44.5715698709
 21
-23.258414663
  0
LINE
  5
317
100
AcDbEntity
  8
RACCORDO
100
AcDbLine
 62
253
  6
CONTINUOUS
 10
44.4718184228
 20
-22.7056002349
 11
44.7553204997
 21
-22.8121601876
  0
LINE
  5
318
100
AcDbEntity
  8
RACCORDO
100
AcDbLine
 62
253
  6
CONTINUOUS
 10
43.9226596517
 20
-23.014095849
 11
44.2866711007
 21
-23.1521734647
  0
LINE
  5
319
100
AcDbEntity
  8
RACCORDO
100
AcDbLine
 62
253
  6
CONTINUOUS
 10
44.1978171403
 20
-22.6012387574
 11
44.4718184228
 21
-22.7056002349
  0
LINE
  5
31A
100
AcDbEntity
  8
RACCORDO
100
AcDbLine
 62
253
  6
CONTINUOUS
 10
43.7467963411
 20
-22.9466956082
 11
43.9226596517
 21
-23.014095849
  0
LINE
  5
31B
100
AcDbEntity
  8
RACCORDO
100
AcDbLine
 62
253
  6
CONTINUOUS
 10
-23.8933991684
 20
21.7197541918
 11
-23.9649536955
 21
21.7912983339
  0
LINE
  5
31C
100
AcDbEntity
  8
0
100
AcDbLine
 62
7
  6
CONTINUOUS
 10
9.5232248316
 20
-24.8133690873
 11
9.1069688316
 21
-23.7033900873
  0
LINE
  5
31D
100
AcDbEntity
  8
0
100
AcDbLine
 62
7
  6
CONTINUOUS
 10
9.1989638316
 20
-23.1135060873
 11
9.5500448316
 21
-24.0572750873
  0
LINE
  5
31E
100
AcDbEntity
  8
0
100
AcDbLine
 62
7
  6
CONTINUOUS
 10
7.1543248316
 20
-24.8133690873
 11
6.6154348316
 21
-23.1135060873
  0
LINE
  5
31F
100
AcDbEntity
  8
0
100
AcDbLine
 62
7
  6
CONTINUOUS
 10
7.0008878316
 20
-23.1135060873
 11
7.3249128316
 21
-24.2835740873
  0
LINE
  5
320
100
AcDbEntity
  8
RACCORDO
100
AcDbLine
 62
253
  6
CONTINUOUS
 10
-23.2942214475
 20
-22.6810680873
 11
-23.3693313481
 21
-22.7561887991
  0
LWPOLYLINE
  5
321
100
AcDbEntity
  8
RACCORDO
100
AcDbPolyline
 62
253
  6
CONTINUOUS
 90
16
 70
0
 10
44.1978091048
 20
22.2391279238
 10
44.157662633
 20
22.2207150399
 10
44.1185807081
 20
22.2022757044
 10
44.0808801359
 20
22.18395939
 10
44.0448665248
 20
22.1659145725
 10
44.0108318081
 20
22.1482875266
 10
43.9790518782
 20
22.1312211406
 10
43.9497843493
 20
22.1148537579
 10
43.92326647
 20
22.0993180557
 10
43.8997131995
 20
22.0847399694
 10
43.8793154652
 20
22.0712376717
 10
43.8622386153
 20
22.0589206149
 10
43.8486210782
 20
22.0478886435
 10
43.8385732402
 20
22.0382311847
 10
43.8321765513
 20
22.0300265236
 10
43.8294828642
 20
22.0233411689
  0
LWPOLYLINE
  5
322
100
AcDbEntity
  8
RACCORDO
100
AcDbPolyline
 62
253
  6
CONTINUOUS
 90
16
 70
0
 10
44.1978091497
 20
-22.6012640879
 10
44.1576618288
 20
-22.5828507786
 10
44.1185790597
 20
-22.5644110282
 10
44.0808776718
 20
-22.5460943198
 10
44.0448632964
 20
-22.5280491386
 10
44.0108278884
 20
-22.5104217689
 10
43.9790473603
 20
-22.4933551079
 10
43.9497793452
 20
-22.4769875071
 10
43.9232611081
 20
-22.4614516513
 10
43.8997076226
 20
-22.4468734824
 10
43.8793098284
 20
-22.4333711789
 10
43.8622330829
 20
-22.4210541974
 10
43.8486158213
 20
-22.4100223858
 10
43.8385684341
 20
-22.4003651735
 10
43.832172372
 20
-22.3921608467
 10
43.829479486
 20
-22.3854759135
  0
LINE
  5
323
100
AcDbEntity
  8
RACCORDO
100
AcDbLine
 62
253
  6
CONTINUOUS
 10
-23.2942214475
 20
22.3189319127
 11
-23.3693878898
 21
22.3940526246
  0
LWPOLYLINE
  5
324
100
AcDbEntity
  8
0
100
AcDbPolyline
 62
7
  6
CONTINUOUS
 90
16
 70
0
 10
12.7143901971
 20
-24.2978341145
 10
12.7083878302
 20
-24.2834233537
 10
12.701343244
 20
-24.2693216884
 10
12.6932564545
 20
-24.255529027
 10
12.684141635
 20
-24.2419693609
 10
12.6739846421
 20
-24.2287185163
 10
12.6627430128
 20
-24.2160041627
 10
12.6503704009
 20
-24.2037101384
 10
12.6369131725
 20
-24.1919524454
 10
12.6224679169
 20
-24.1813070642
 10
12.6070217053
 20
-24.17173677
 10
12.5905874498
 20
-24.163278775
 10
12.5733004699
 20
-24.156620853
 10
12.5552058417
 20
-24.1519923617
 10
12.5362584156
 20
-24.1491641615
 10
12.5164581506
 20
-24.1481363714
  0
LINE
  5
325
100
AcDbEntity
  8
0
100
AcDbLine
 62
7
  6
CONTINUOUS
 10
11.3470528316
 20
-23.1135060873
 11
11.8686128316
 21
-24.8133690873
  0
LINE
  5
326
100
AcDbEntity
  8
0
100
AcDbLine
 62
7
  6
CONTINUOUS
 10
12.8695780467
 20
-24.813368774
 11
12.8161198022
 21
-24.6303318747
  0
LINE
  5
327
100
AcDbEntity
  8
0
100
AcDbLine
 62
7
  6
CONTINUOUS
 10
11.4946388316
 20
-24.8133690873
 11
11.4027198316
 21
-24.4740160873
  0
LINE
  5
328
100
AcDbEntity
  8
0
100
AcDbLine
 62
7
  6
CONTINUOUS
 10
11.3318068316
 20
-24.2114260873
 11
11.1687588316
 21
-23.5805850873
  0
LINE
  5
329
100
AcDbEntity
  8
0
100
AcDbLine
 62
7
  6
CONTINUOUS
 10
10.2559398316
 20
-23.1135060873
 11
10.4148968316
 21
-24.8133690873
  0
LINE
  5
32A
100
AcDbEntity
  8
0
100
AcDbLine
 62
7
  6
CONTINUOUS
 10
10.0677808316
 20
-24.8133690873
 11
9.9948798316
 21
-23.7080170873
  0
LINE
  5
32B
100
AcDbEntity
  8
0
100
AcDbLine
 62
7
  6
CONTINUOUS
 10
8.1450988316
 20
-24.8133690873
 11
8.1450988316
 21
-23.1134040873
  0
LINE
  5
32C
100
AcDbEntity
  8
0
100
AcDbLine
 62
7
  6
CONTINUOUS
 10
8.4999268316
 20
-23.1134040873
 11
8.4999268316
 21
-24.8133690873
  0
LINE
  5
32D
100
AcDbEntity
  8
0
100
AcDbLine
 62
253
  6
CONTINUOUS
 10
9.956720846
 20
-25.2087020215
 11
9.9566543148
 21
-23.808167722
  0
LINE
  5
32E
100
AcDbEntity
  8
0
100
AcDbLine
 62
253
  6
CONTINUOUS
 10
9.9566213455
 20
-23.1135060873
 11
9.9566180798
 21
-23.0446747852
  0
LINE
  5
32F
100
AcDbEntity
  8
ASSI
100
AcDbLine
 62
253
  6
CONTINUOUS
 10
9.9566008316
 20
46.1689319154
 11
9.956459198
 21
25.7189319126
  0
LINE
  5
330
100
AcDbEntity
  8
0
100
AcDbLine
 62
253
  6
CONTINUOUS
 10
9.9566009341
 20
-47.5367117923
 11
9.9566008316
 21
-46.53106809
  0
LINE
  5
331
100
AcDbEntity
  8
0
100
AcDbLine
 62
253
  6
CONTINUOUS
 10
9.9566007291
 20
47.1745756177
 11
9.9566008316
 21
46.1689319154
  0
LINE
  5
332
100
AcDbEntity
  8
RACCORDO
100
AcDbLine
 62
253
  6
CONTINUOUS
 10
9.9566180667
 20
-23.0446747973
 11
9.9566180672
 21
-22.7566698579
  0
LINE
  5
333
100
AcDbEntity
  8
RACCORDO
100
AcDbLine
 62
253
  6
CONTINUOUS
 10
9.9567208387
 20
-25.2087020182
 11
9.9567208587
 21
-25.3508269416
  0
LINE
  5
334
100
AcDbEntity
  8
ASSI
100
AcDbLine
 62
253
  6
CONTINUOUS
 10
9.9566008316
 20
-46.5310680901
 11
9.9567424652
 21
-26.0810680872
  0
LINE
  5
335
100
AcDbEntity
  8
RACCORDO
100
AcDbLine
 62
253
  6
CONTINUOUS
 10
9.9564808045
 20
24.9886907669
 11
9.956583596
 21
22.3945336833
  0
LWPOLYLINE
  5
336
100
AcDbEntity
  8
RACCORDO
100
AcDbPolyline
 62
253
  6
CONTINUOUS
 90
13
 70
0
 10
45.1952163837
 20
23.1204473385
 10
45.2075627529
 20
23.1278131019
 10
45.2196519329
 20
23.1358830488
 10
45.2312284767
 20
23.1444866594
 10
45.2420477694
 20
23.1534421377
 10
45.2518811971
 20
23.1625602525
 10
45.2605209773
 20
23.1716483359
 10
45.2677845497
 20
23.1805143549
 10
45.2735184334
 20
23.1889709686
 10
45.2776014702
 20
23.1968394869
 10
45.2799473846
 20
23.2039536462
 10
45.280506607
 20
23.210163123
 10
45.2792673209
 20
23.2153367094
  0
LINE
  5
337
100
AcDbEntity
  8
ASSI
100
AcDbLine
 62
253
  6
CONTINUOUS
 10
-26.5933991678
 20
-0.1811191255
 11
-30.6229792354
 21
-0.1810680703
  0
LINE
  5
338
100
AcDbEntity
  8
ASSI
100
AcDbLine
 62
253
  6
CONTINUOUS
 10
46.506600831
 20
-0.1811191255
 11
50.5361808986
 21
-0.1810680703
  0
LINE
  5
339
100
AcDbEntity
  8
0
100
AcDbLine
 62
253
  6
CONTINUOUS
 10
50.5361808818
 20
-0.1815353343
 11
57.3122445366
 21
-0.1810682924
  0
LINE
  5
33A
100
AcDbEntity
  8
RACCORDO
100
AcDbLine
 62
253
  6
CONTINUOUS
 10
-23.9900960609
 20
-0.1810827693
 11
-26.0799522161
 21
-0.1811111524
  0
LINE
  5
33B
100
AcDbEntity
  8
RACCORDO
100
AcDbLine
 62
253
  6
CONTINUOUS
 10
43.9032977241
 20
-0.1810827693
 11
45.9931538793
 21
-0.1811111524
  0
LINE
  5
33C
100
AcDbEntity
  8
0
100
AcDbLine
 62
253
  6
CONTINUOUS
 10
-30.6229792186
 20
-0.1815353343
 11
-37.3990428734
 21
-0.1810682924
  0
LWPOLYLINE
  5
33D
100
AcDbEntity
  8
RACCORDO
100
AcDbPolyline
 62
253
  6
CONTINUOUS
 90
13
 70
0
 10
45.19521646
 20
-23.4825808538
 10
45.2075626867
 20
-23.4899467737
 10
45.2196516266
 20
-23.4980168148
 10
45.2312278362
 20
-23.5066204571
 10
45.2420467064
 20
-23.5155759055
 10
45.2518796306
 20
-23.5246939308
 10
45.2605188356
 20
-23.5337818689
 10
45.267781772
 20
-23.5426476909
 10
45.2735149709
 20
-23.5511040616
 10
45.2775972875
 20
-23.5589722975
 10
45.2799424605
 20
-23.5660861424
 10
45.2805009348
 20
-23.5722952805
 10
45.2792609086
 20
-23.5774685127
  0
LWPOLYLINE
  5
33E
100
AcDbEntity
  8
0
100
AcDbPolyline
 62
7
  6
CONTINUOUS
 90
6
 70
0
 10
12.8161198022
 20
-24.6303318747
 10
12.7832706928
 20
-24.5139900601
 10
12.7667422949
 20
-24.4577993208
 10
12.7496221147
 20
-24.4030811571
 10
12.7321714182
 20
-24.3497594053
 10
12.7143901971
 20
-24.2978341145
  0
LWPOLYLINE
  5
33F
100
AcDbEntity
  8
0
100
AcDbPolyline
 62
7
  6
CONTINUOUS
 90
4
 70
0
 10
13.0741461142
 20
-24.2969619733
 10
13.0820407636
 20
-24.325155162
 10
13.0858652685
 20
-24.3392446699
 10
13.1316667483
 20
-24.5110665071
  0
LINE
  5
340
100
AcDbEntity
  8
0
100
AcDbLine
 62
7
  6
CONTINUOUS
 10
13.1316667483
 20
-24.5110665071
 11
13.2108813901
 21
-24.813368774
  0
LWPOLYLINE
  5
341
100
AcDbEntity
  8
0
100
AcDbPolyline
 62
7
  6
CONTINUOUS
 90
16
 70
0
 10
12.7928554401
 20
-23.6057218812
 10
12.7916951565
 20
-23.5858820711
 10
12.7885684098
 20
-23.5661866775
 10
12.7834752493
 20
-23.5466354711
 10
12.7764355775
 20
-23.5269379622
 10
12.7674295894
 20
-23.5073841671
 10
12.7563977626
 20
-23.4888446494
 10
12.7430933286
 20
-23.4713291819
 10
12.7277631213
 20
-23.4548276289
 10
12.7110879752
 20
-23.4401809078
 10
12.6929890486
 20
-23.4276639611
 10
12.6735451439
 20
-23.4170019572
 10
12.653673509
 20
-23.4082114228
 10
12.6336798585
 20
-23.401298021
 10
12.6132583886
 20
-23.3962564599
 10
12.5924090527
 20
-23.3930869247
  0
LINE
  5
342
100
AcDbEntity
  8
0
100
AcDbLine
 62
7
  6
CONTINUOUS
 10
11.9728074955
 20
-24.813368774
 11
11.9728074955
 21
-23.1333660051
  0
LINE
  5
343
100
AcDbEntity
  8
0
100
AcDbLine
 62
7
  6
CONTINUOUS
 10
12.3144422632
 20
-23.4030944363
 11
12.3144422632
 21
-23.8697399188
  0
LINE
  5
344
100
AcDbEntity
  8
0
100
AcDbLine
 62
7
  6
CONTINUOUS
 10
12.3262078276
 20
-24.1481363714
 11
12.3262078276
 21
-24.813368774
  0
LINE
  5
345
100
AcDbEntity
  8
0
100
AcDbLine
 62
7
  6
CONTINUOUS
 10
12.8850530144
 20
-24.0098431885
 11
12.8850530144
 21
-24.0198878957
  0
LINE
  5
346
100
AcDbEntity
  8
0
100
AcDbLine
 62
7
  6
CONTINUOUS
 10
9.1069688316
 20
-23.7033900873
 11
9.0303968316
 21
-24.8133690873
  0
LINE
  5
347
100
AcDbEntity
  8
0
100
AcDbLine
 62
7
  6
CONTINUOUS
 10
8.6909418316
 20
-24.8133690873
 11
8.8444288316
 21
-23.1135060873
  0
LINE
  5
348
100
AcDbEntity
  8
0
100
AcDbLine
 62
7
  6
CONTINUOUS
 10
7.3249128316
 20
-24.2835740873
 11
7.6588348316
 21
-23.1135060873
  0
LWPOLYLINE
  5
349
100
AcDbEntity
  8
RACCORDO
100
AcDbPolyline
 62
253
  6
CONTINUOUS
 90
13
 70
0
 10
-25.2820147259
 20
-23.4825835046
 10
-25.2943610951
 20
-23.4899492679
 10
-25.3064502751
 20
-23.4980192146
 10
-25.3180268189
 20
-23.5066228252
 10
-25.3288461117
 20
-23.5155783033
 10
-25.3386795394
 20
-23.5246964179
 10
-25.3473193197
 20
-23.5337845013
 10
-25.3545828922
 20
-23.5426505202
 10
-25.3603167759
 20
-23.5511071339
 10
-25.3643998128
 20
-23.5589756521
 10
-25.3667457274
 20
-23.5660898114
 10
-25.3673049499
 20
-23.5722992882
 10
-25.3660656639
 20
-23.5774728747
  0
LWPOLYLINE
  5
34A
100
AcDbEntity
  8
RACCORDO
100
AcDbPolyline
 62
253
  6
CONTINUOUS
 90
13
 70
0
 10
-25.282014798
 20
23.1204446778
 10
-25.2943610247
 20
23.1278105976
 10
-25.3064499645
 20
23.1358806387
 10
-25.3180261742
 20
23.1444842811
 10
-25.3288450443
 20
23.1534397294
 10
-25.3386779685
 20
23.1625577547
 10
-25.3473171735
 20
23.1716456927
 10
-25.3545801099
 20
23.1805115148
 10
-25.3603133088
 20
23.1889678855
 10
-25.3643956254
 20
23.1968361214
 10
-25.3667407984
 20
23.2039499663
 10
-25.3672992726
 20
23.2101591043
 10
-25.3660592464
 20
23.2153323365
  0
LINE
  5
34B
100
AcDbEntity
  8
0
100
AcDbLine
 62
7
  6
CONTINUOUS
 10
11.1687588316
 20
-23.5805850873
 11
10.9920848316
 21
-24.2114260873
  0
LINE
  5
34C
100
AcDbEntity
  8
0
100
AcDbLine
 62
7
  6
CONTINUOUS
 10
10.9195028316
 20
-24.4740160873
 11
10.8215918316
 21
-24.8133690873
  0
LINE
  5
34D
100
AcDbEntity
  8
0
100
AcDbLine
 62
7
  6
CONTINUOUS
 10
10.4706138316
 20
-24.8133690873
 11
11.0037988316
 21
-23.1135060873
  0
LINE
  5
34E
100
AcDbEntity
  8
0
100
AcDbLine
 62
7
  6
CONTINUOUS
 10
8.0134208316
 20
-23.1135060873
 11
7.4670168316
 21
-24.8133690873
  0
LINE
  5
34F
100
AcDbEntity
  8
0
100
AcDbLine
 62
7
  6
CONTINUOUS
 10
9.5500448316
 20
-24.0572750873
 11
9.9048728316
 21
-23.1135060873
  0
LINE
  5
350
100
AcDbEntity
  8
0
100
AcDbLine
 62
7
  6
CONTINUOUS
 10
9.9948798316
 20
-23.7080170873
 11
9.5729888316
 21
-24.8133690873
  0
LINE
  5
351
100
AcDbEntity
  8
RACCORDO
100
AcDbLine
 62
253
  6
CONTINUOUS
 10
43.8066008316
 20
21.7197541918
 11
43.8781552782
 21
21.791336193
  0
LINE
  5
352
100
AcDbEntity
  8
RACCORDO
100
AcDbLine
 62
253
  6
CONTINUOUS
 10
43.2074231107
 20
22.3189319127
 11
43.2825330113
 21
22.3940526244
  0
LWPOLYLINE
  5
353
100
AcDbEntity
  8
RACCORDO
100
AcDbPolyline
 62
253
  6
CONTINUOUS
 90
16
 70
0
 10
-24.2846074417
 20
-22.6012640982
 10
-24.2444609699
 20
-22.5828512143
 10
-24.205379045
 20
-22.5644118788
 10
-24.1676784728
 20
-22.5460955645
 10
-24.1316648617
 20
-22.528050747
 10
-24.097630145
 20
-22.5104237011
 10
-24.065850215
 20
-22.4933573151
 10
-24.0365826862
 20
-22.4769899324
 10
-24.0100648069
 20
-22.4614542302
 10
-23.9865115364
 20
-22.4468761438
 10
-23.9661138021
 20
-22.4333738462
 10
-23.9490369522
 20
-22.4210567894
 10
-23.935419415
 20
-22.410024818
 10
-23.9253715771
 20
-22.4003673592
 10
-23.9189748882
 20
-22.3921626981
 10
-23.9162812011
 20
-22.3854773434
  0
LINE
  5
354
100
AcDbEntity
  8
RACCORDO
100
AcDbLine
 62
253
  6
CONTINUOUS
 10
-23.8336258675
 20
-22.9466833656
 11
-24.1945870559
 21
-23.0845889953
  0
LINE
  5
355
100
AcDbEntity
  8
RACCORDO
100
AcDbLine
 62
253
  6
CONTINUOUS
 10
-24.2846211809
 20
-22.6012227289
 11
-24.6552673007
 21
-22.7421182842
  0
LINE
  5
356
100
AcDbEntity
  8
RACCORDO
100
AcDbLine
 62
253
  6
CONTINUOUS
 10
-24.1945870559
 20
-23.0845889953
 11
-24.4733958194
 21
-23.1896493108
  0
LINE
  5
357
100
AcDbEntity
  8
RACCORDO
100
AcDbLine
 62
253
  6
CONTINUOUS
 10
-24.6552673007
 20
-22.7421182842
 11
-24.942883334
 21
-22.8495864204
  0
LINE
  5
358
100
AcDbEntity
  8
RACCORDO
100
AcDbLine
 62
253
  6
CONTINUOUS
 10
-24.4733958194
 20
-23.1896493108
 11
-24.6641052454
 21
-23.2605332516
  0
LINE
  5
359
100
AcDbEntity
  8
RACCORDO
100
AcDbLine
 62
253
  6
CONTINUOUS
 10
-24.942883334
 20
-22.8495864204
 11
-25.1425628126
 21
-22.9229147608
  0
LWPOLYLINE
  5
35A
100
AcDbEntity
  8
RACCORDO
100
AcDbPolyline
 62
253
  6
CONTINUOUS
 90
3
 70
0
 10
-25.1425628126
 20
-22.9229147608
 10
-25.3522863245
 20
-22.9985485047
 10
-25.4606841737
 20
-23.0370200824
  0
LINE
  5
35B
100
AcDbEntity
  8
RACCORDO
100
AcDbLine
 62
253
  6
CONTINUOUS
 10
-25.1403942165
 20
22.5599887416
 11
-25.3514735854
 21
22.6361062358
  0
LINE
  5
35C
100
AcDbEntity
  8
RACCORDO
100
AcDbLine
 62
253
  6
CONTINUOUS
 10
-24.9396484092
 20
22.4862538907
 11
-25.1403942165
 21
22.5599887416
  0
LINE
  5
35D
100
AcDbEntity
  8
RACCORDO
100
AcDbLine
 62
253
  6
CONTINUOUS
 10
-24.3735583333
 20
22.7900707253
 11
-24.6584361242
 21
22.8963035735
  0
LINE
  5
35E
100
AcDbEntity
  8
RACCORDO
100
AcDbLine
 62
253
  6
CONTINUOUS
 10
-24.6518873731
 20
22.378706863
 11
-24.9396484092
 21
22.4862538907
  0
LINE
  5
35F
100
AcDbEntity
  8
RACCORDO
100
AcDbLine
 62
253
  6
CONTINUOUS
 10
-24.0095734585
 20
22.651970781
 11
-24.3735583333
 21
22.7900707253
  0
LINE
  5
360
100
AcDbEntity
  8
RACCORDO
100
AcDbLine
 62
253
  6
CONTINUOUS
 10
-24.2846154771
 20
22.2391025829
 11
-24.6518873731
 21
22.378706863
  0
LINE
  5
361
100
AcDbEntity
  8
RACCORDO
100
AcDbLine
 62
253
  6
CONTINUOUS
 10
-23.8337864946
 20
22.5844838951
 11
-24.0095734585
 21
22.651970781
  0
LWPOLYLINE
  5
362
100
AcDbEntity
  8
RACCORDO
100
AcDbPolyline
 62
253
  6
CONTINUOUS
 90
16
 70
0
 10
-24.2846074864
 20
22.2391279133
 10
-24.2444601655
 20
22.220714604
 10
-24.2053773964
 20
22.2022748537
 10
-24.1676760086
 20
22.1839581452
 10
-24.1316616331
 20
22.165912964
 10
-24.0976262251
 20
22.1482855943
 10
-24.065845697
 20
22.1312189333
 10
-24.0365776819
 20
22.1148513325
 10
-24.0100594448
 20
22.0993154767
 10
-23.9865059594
 20
22.0847373078
 10
-23.9661081651
 20
22.0712350043
 10
-23.9490314196
 20
22.0589180228
 10
-23.9354141581
 20
22.0478862112
 10
-23.9253667709
 20
22.038228999
 10
-23.9189707088
 20
22.0300246722
 10
-23.9162778227
 20
22.0233397389
  0
LINE
  5
363
100
AcDbEntity
  8
RACCORDO
100
AcDbLine
 62
253
  6
CONTINUOUS
 10
43.2074231107
 20
-22.6810680873
 11
43.282589553
 21
-22.7561887992
  0
LINE
  5
364
100
AcDbEntity
  8
RACCORDO
100
AcDbLine
 62
253
  6
CONTINUOUS
 10
43.8066008316
 20
-22.0818903665
 11
43.8781553587
 21
-22.1534345086
  0
LINE
  5
365
100
AcDbEntity
  8
RACCORDO
100
AcDbLine
 62
253
  6
CONTINUOUS
 10
-24.6641052454
 20
-23.2605332516
 11
-24.8606265827
 21
-23.3325496691
  0
LINE
  5
366
100
AcDbEntity
  8
RACCORDO
100
AcDbLine
 62
253
  6
CONTINUOUS
 10
-24.8606265827
 20
-23.3325496691
 11
-25.0662855478
 21
-23.4065412768
  0
LINE
  5
367
100
AcDbEntity
  8
RACCORDO
100
AcDbLine
 62
253
  6
CONTINUOUS
 10
-25.0662855478
 20
-23.4065412768
 11
-25.2820124497
 21
-23.4825864184
  0
LWPOLYLINE
  5
368
100
AcDbEntity
  8
RACCORDO
100
AcDbPolyline
 62
253
  6
CONTINUOUS
 90
16
 70
0
 10
-26.0613714114
 20
-23.2406611237
 10
-26.3242778327
 20
-23.3239078369
 10
-26.5898065812
 20
-23.4035321071
 10
-26.8579680964
 20
-23.4789725045
 10
-27.1291105262
 20
-23.5497717013
 10
-27.4029078792
 20
-23.6151698425
 10
-27.6783600138
 20
-23.6741764085
 10
-27.9570895699
 20
-23.726445724
 10
-28.2374994752
 20
-23.7710278016
 10
-28.5137536112
 20
-23.8065495542
 10
-28.7845361516
 20
-23.8327393478
 10
-29.0511710405
 20
-23.8497685734
 10
-29.3117708028
 20
-23.8576471011
 10
-29.5657041406
 20
-23.8566018024
 10
-29.8135994569
 20
-23.8468767599
 10
-30.0554544619
 20
-23.8287478469
  0
LWPOLYLINE
  5
369
100
AcDbEntity
  8
RACCORDO
100
AcDbPolyline
 62
253
  6
CONTINUOUS
 90
7
 70
0
 10
-25.9988333622
 20
-23.7201143999
 10
-26.2096721123
 20
-23.7852334538
 10
-26.422378046
 20
-23.8476041436
 10
-26.6369506303
 20
-23.907230724
 10
-26.8533893491
 20
-23.9641181505
 10
-27.0716936652
 20
-24.0182715908
 10
-27.2918630042
 20
-24.0696962026
  0
LWPOLYLINE
  5
36A
100
AcDbEntity
  8
RACCORDO
100
AcDbPolyline
 62
253
  6
CONTINUOUS
 90
7
 70
0
 10
-25.9988331438
 20
23.3579781591
 10
-26.2077811067
 20
23.4225543137
 10
-26.4193555277
 20
23.4846187714
 10
-26.6335554928
 20
23.5441612406
 10
-26.8503800881
 20
23.6011719641
 10
-27.0698283627
 20
23.6556412352
 10
-27.2918993092
 20
23.7075591385
  0
LWPOLYLINE
  5
36B
100
AcDbEntity
  8
RACCORDO
100
AcDbPolyline
 62
253
  6
CONTINUOUS
 90
16
 70
0
 10
-26.0613712904
 20
22.87852491
 10
-26.3195704575
 20
22.960322163
 10
-26.5817875948
 20
23.0390595568
 10
-26.8480336325
 20
23.1141265714
 10
-27.11891682
 20
23.1850727934
 10
-27.3938529178
 20
23.2509766627
 10
-27.6710645575
 20
23.3105729912
 10
-27.9523464619
 20
23.3634862187
 10
-28.2359314426
 20
23.4086700411
 10
-28.5146908321
 20
23.4445294299
 10
-28.7868494847
 20
23.4707974755
 10
-29.0541888383
 20
23.4877738376
 10
-29.3149023318
 20
23.4955457079
 10
-29.5683850372
 20
23.4944013855
 10
-29.8152371607
 20
23.4846377054
 10
-30.0554554437
 20
23.4665912232
  0
LINE
  5
36C
100
AcDbEntity
  8
RACCORDO
100
AcDbLine
 62
253
  6
CONTINUOUS
 10
-25.0639582838
 20
23.0435711823
 11
-25.2820211886
 21
23.120438944
  0
LINE
  5
36D
100
AcDbEntity
  8
RACCORDO
100
AcDbLine
 62
253
  6
CONTINUOUS
 10
-25.3514735854
 20
22.6361062358
 11
-25.4606878897
 21
22.6748565845
  0
LINE
  5
36E
100
AcDbEntity
  8
RACCORDO
100
AcDbLine
 62
253
  6
CONTINUOUS
 10
-24.8563737362
 20
22.9688691891
 11
-25.0639582838
 21
23.0435711823
  0
LINE
  5
36F
100
AcDbEntity
  8
RACCORDO
100
AcDbLine
 62
253
  6
CONTINUOUS
 10
-24.6584361242
 20
22.8963035735
 11
-24.8563737362
 21
22.9688691891
  0
LWPOLYLINE
  5
370
100
AcDbEntity
  8
RACCORDO
100
AcDbPolyline
 62
253
  6
CONTINUOUS
 90
13
 70
0
 10
43.7467200242
 20
22.5845811668
 10
43.7247418635
 20
22.5476002675
 10
43.7029591716
 20
22.5127291866
 10
43.6815639481
 20
22.4802753013
 10
43.6607447771
 20
22.4505246824
 10
43.6406851649
 20
22.4237395723
 10
43.6215619224
 20
22.4001560739
 10
43.6035436065
 20
22.3799820693
 10
43.5867890343
 20
22.3633953877
 10
43.5714458835
 20
22.3505422372
 10
43.5576493906
 20
22.3415359165
 10
43.5455211588
 20
22.3364558163
 10
43.5351680862
 20
22.3353467191
  0
LWPOLYLINE
  5
371
100
AcDbEntity
  8
RACCORDO
100
AcDbPolyline
 62
253
  6
CONTINUOUS
 90
13
 70
0
 10
45.3738871029
 20
22.6748673071
 10
45.3875986658
 20
22.6772502552
 10
45.4013715328
 20
22.6795031437
 10
45.414936775
 20
22.6815819813
 10
45.4280295176
 20
22.6834461749
 10
45.4403941119
 20
22.6850593228
 10
45.4517891272
 20
22.6863899252
 10
45.4619920643
 20
22.6874119995
 10
45.470803701
 20
22.6881055871
 10
45.4780519814
 20
22.6884571438
 10
45.4835953757
 20
22.6884598037
 10
45.4873256439
 20
22.6881135137
 10
45.4891699487
 20
22.6874250342
  0
LWPOLYLINE
  5
372
100
AcDbEntity
  8
RACCORDO
100
AcDbPolyline
 62
253
  6
CONTINUOUS
 90
13
 70
0
 10
-25.4606864801
 20
22.6748669414
 10
-25.4743982395
 20
22.6772499284
 10
-25.4881714051
 20
22.6795028751
 10
-25.5017370433
 20
22.6815817909
 10
-25.5148302727
 20
22.6834460829
 10
-25.5271954362
 20
22.6850593493
 10
-25.5385910929
 20
22.6863900896
 10
-25.5487947323
 20
22.6874123197
 10
-25.557607119
 20
22.6881060798
 10
-25.5648561832
 20
22.6884578236
 10
-25.5704003805
 20
22.6884606829
 10
-25.5741314552
 20
22.688114602
 10
-25.5759765547
 20
22.6874263384
  0
LWPOLYLINE
  5
373
100
AcDbEntity
  8
RACCORDO
100
AcDbPolyline
 62
253
  6
CONTINUOUS
 90
13
 70
0
 10
43.7467200461
 20
-22.9467256638
 10
43.72474226
 20
-22.9097441782
 10
43.7029598836
 20
-22.8748725399
 10
43.6815649198
 20
-22.8424181282
 10
43.6607459568
 20
-22.812667016
 10
43.6406865056
 20
-22.7858814475
 10
43.6215633825
 20
-22.7622975265
 10
43.6035451503
 20
-22.7421231359
 10
43.5867906326
 20
-22.725536105
 10
43.5714475136
 20
-22.7126826419
 10
43.557651037
 20
-22.7036760446
 10
43.5455228132
 20
-22.6985957028
 10
43.5351697477
 20
-22.6974863977
  0
LWPOLYLINE
  5
374
100
AcDbEntity
  8
0
100
AcDbPolyline
 62
7
  6
CONTINUOUS
 90
10
 70
0
 10
12.9555028978
 20
-23.9657293605
 10
12.9412834064
 20
-23.9778208573
 10
12.9343613358
 20
-23.9835784301
 10
12.9274611017
 20
-23.9889591707
 10
12.9206001029
 20
-23.9940268393
 10
12.9137609472
 20
-23.9987176447
 10
12.9068009255
 20
-24.0026798831
 10
12.8996724731
 20
-24.0057962937
 10
12.8924231673
 20
-24.0081840729
 10
12.8850530144
 20
-24.0098431885
  0
LWPOLYLINE
  5
375
100
AcDbEntity
  8
RACCORDO
100
AcDbPolyline
 62
253
  6
CONTINUOUS
 90
10
 70
0
 10
47.2057323808
 20
23.7075097753
 10
47.44547697
 20
23.7208779573
 10
47.6795470779
 20
23.7284185464
 10
47.9078440886
 20
23.7303157431
 10
48.129526061
 20
23.7267967782
 10
48.3452364321
 20
23.7181098365
 10
48.5571192007
 20
23.7043406782
 10
48.7658285237
 20
23.6855284621
 10
48.9704848062
 20
23.6618504388
 10
49.1709563589
 20
23.6334605446
  0
LINE
  5
376
100
AcDbEntity
  8
SUPERFICI
100
AcDbLine
 62
253
  6
CONTINUOUS
 10
56.1054111019
 20
23.2357603829
 11
55.7575511126
 21
23.2172994612
  0
LWPOLYLINE
  5
377
100
AcDbEntity
  8
RACCORDO
100
AcDbPolyline
 62
253
  6
CONTINUOUS
 90
13
 70
0
 10
45.3909095733
 20
22.5125719224
 10
45.4048607317
 20
22.5132373326
 10
45.4188681771
 20
22.5138060227
 10
45.4326560917
 20
22.5142667945
 10
45.4459529809
 20
22.5146105753
 10
45.4584970185
 20
22.5148305956
 10
45.4700412026
 20
22.5149225231
 10
45.4803582193
 20
22.5148845477
 10
45.4892449183
 20
22.5147174172
 10
45.4965263137
 20
22.5144244224
 10
45.5020590291
 20
22.5140113326
 10
45.5057341211
 20
22.5134862821
 10
45.5074792241
 20
22.5128596093
  0
LINE
  5
378
100
AcDbEntity
  8
SUPERFICI
100
AcDbLine
 62
253
  6
CONTINUOUS
 10
56.3884199782
 20
23.2492337766
 11
56.1054111019
 21
23.2357603829
  0
LINE
  5
379
100
AcDbEntity
  8
RACCORDO
100
AcDbLine
 62
253
  6
CONTINUOUS
 10
45.9895643658
 20
22.5347710575
 11
45.5074793544
 21
22.5128595906
  0
LINE
  5
37A
100
AcDbEntity
  8
SUPERFICI
100
AcDbLine
 62
253
  6
CONTINUOUS
 10
56.5983396682
 20
23.2580961874
 11
56.3884199782
 21
23.2492337766
  0
LINE
  5
37B
100
AcDbEntity
  8
SUPERFICI
100
AcDbLine
 62
253
  6
CONTINUOUS
 10
56.7620898506
 20
23.2644683594
 11
56.5983396682
 21
23.2580961874
  0
LWPOLYLINE
  5
37C
100
AcDbEntity
  8
RACCORDO
100
AcDbPolyline
 62
253
  6
CONTINUOUS
 90
14
 70
0
 10
44.2011483578
 20
21.8112853056
 10
44.1602222941
 20
21.8104279232
 10
44.1210191561
 20
21.8094189121
 10
44.0838498518
 20
21.8082662744
 10
44.0490091597
 20
21.8069791513
 10
44.0167733904
 20
21.8055677507
 10
43.9873981961
 20
21.8040432658
 10
43.9611165423
 20
21.802417787
 10
43.9381368608
 20
21.8007042053
 10
43.9186413963
 20
21.7989161108
 10
43.9027847616
 20
21.7970676842
 10
43.8906927105
 20
21.7951735848
 10
43.8824611415
 20
21.7932488342
 10
43.8781553367
 20
21.7913086969
  0
LINE
  5
37D
100
AcDbEntity
  8
RACCORDO
100
AcDbLine
 62
253
  6
CONTINUOUS
 10
44.2868598842
 20
21.812519242
 11
44.2011483578
 21
21.8112853056
  0
LINE
  5
37E
100
AcDbEntity
  8
RACCORDO
100
AcDbLine
 62
253
  6
CONTINUOUS
 10
-23.3691132899
 20
22.6912502431
 11
-21.035252762
 21
22.6929218945
  0
LINE
  5
37F
100
AcDbEntity
  8
RACCORDO
100
AcDbLine
 62
253
  6
CONTINUOUS
 10
9.9565835834
 20
22.6825386105
 11
38.5537445771
 21
22.6927892522
  0
LINE
  5
380
100
AcDbEntity
  8
RACCORDO
100
AcDbLine
 62
7
  6
CONTINUOUS
 10
-23.2942214475
 20
22.3189319127
 11
43.2074231107
 21
22.3189319127
  0
LINE
  5
381
100
AcDbEntity
  8
RACCORDO
100
AcDbLine
 62
253
  6
CONTINUOUS
 10
-23.3693878898
 20
22.3940526246
 11
43.2825330113
 21
22.3940526244
  0
LWPOLYLINE
  5
382
100
AcDbEntity
  8
RACCORDO
100
AcDbPolyline
 62
253
  6
CONTINUOUS
 90
3
 70
0
 10
38.5537445771
 20
22.6927892522
 10
40.9569245221
 20
22.6929093837
 10
43.2823149531
 20
22.6912502431
  0
LINE
  5
383
100
AcDbEntity
  8
RACCORDO
100
AcDbLine
 62
253
  6
CONTINUOUS
 10
-8.1989398504
 20
22.688500523
 11
9.9565835834
 21
22.6825386106
  0
LINE
  5
384
100
AcDbEntity
  8
RACCORDO
100
AcDbLine
 62
253
  6
CONTINUOUS
 10
-21.035252762
 20
22.6929218945
 11
-8.1989398504
 21
22.688500523
  0
LWPOLYLINE
  5
385
100
AcDbEntity
  8
RACCORDO
100
AcDbPolyline
 62
253
  6
CONTINUOUS
 90
15
 70
0
 10
-24.3736583731
 20
21.8125192064
 10
-24.2879467805
 20
21.811285278
 10
-24.247020679
 20
21.8104278992
 10
-24.2078175012
 20
21.8094188914
 10
-24.1706481562
 20
21.8082662568
 10
-24.1358074232
 20
21.8069791365
 10
-24.1035716138
 20
21.8055677383
 10
-24.0741963808
 20
21.8040432557
 10
-24.0479146907
 20
21.8024177789
 10
-24.0249349758
 20
21.800704199
 10
-24.0054394816
 20
21.7989161061
 10
-23.9895828211
 20
21.7970676808
 10
-23.9774907488
 20
21.7951735827
 10
-23.9692591635
 20
21.7932488332
 10
-23.9649533475
 20
21.7913086969
  0
LINE
  5
386
100
AcDbEntity
  8
SUPERFICI
100
AcDbLine
 62
253
  6
CONTINUOUS
 10
-36.8488881874
 20
23.2644683594
 11
-36.5900004373
 21
23.2542132351
  0
LINE
  5
387
100
AcDbEntity
  8
RACCORDO
100
AcDbLine
 62
253
  6
CONTINUOUS
 10
-26.0763627038
 20
22.5347710575
 11
-25.5942775002
 21
22.5128640226
  0
LINE
  5
388
100
AcDbEntity
  8
SUPERFICI
100
AcDbLine
 62
253
  6
CONTINUOUS
 10
-36.5900004373
 20
23.2542132351
 11
-36.3421961378
 21
23.2430972122
  0
LWPOLYLINE
  5
389
100
AcDbEntity
  8
RACCORDO
100
AcDbPolyline
 62
253
  6
CONTINUOUS
 90
13
 70
0
 10
-25.4777078932
 20
22.5125719267
 10
-25.4916590716
 20
22.5132373381
 10
-25.5056665392
 20
22.5138060293
 10
-25.5194544772
 20
22.5142668022
 10
-25.5327513896
 20
22.5146105838
 10
-25.5452954489
 20
22.5148306047
 10
-25.5568396522
 20
22.5149225326
 10
-25.5671566844
 20
22.5148845573
 10
-25.5760433945
 20
22.5147174265
 10
-25.5833247957
 20
22.5144244312
 10
-25.5888575112
 20
22.5140113407
 10
-25.5925325971
 20
22.5134862891
 10
-25.594277688
 20
22.512859615
  0
LWPOLYLINE
  5
38A
100
AcDbEntity
  8
SUPERFICI
100
AcDbPolyline
 62
253
  6
CONTINUOUS
 90
3
 70
0
 10
-36.3421961378
 20
23.2430972122
 10
-36.0259311095
 20
23.2271691183
 10
-35.8443494494
 20
23.2172994612
  0
LWPOLYLINE
  5
38B
100
AcDbEntity
  8
SUPERFICI
100
AcDbPolyline
 62
253
  6
CONTINUOUS
 90
5
 70
0
 10
46.4071404446
 20
45.843778433
 10
46.4005452968
 20
45.8128293937
 10
46.3926094953
 20
45.758429056
 10
46.3832090304
 20
45.6819193919
 10
46.3722007315
 20
45.5842922893
  0
LINE
  5
38C
100
AcDbEntity
  8
RACCORDO
100
AcDbLine
 62
253
  6
CONTINUOUS
 10
-35.2550059729
 20
23.273134241
 11
-35.8438541765
 21
23.2183409315
  0
LWPOLYLINE
  5
38D
100
AcDbEntity
  8
RACCORDO
100
AcDbPolyline
 62
253
  6
CONTINUOUS
 90
10
 70
0
 10
-27.3286305621
 20
24.1704215648
 10
-27.5775555488
 20
24.1481095559
 10
-27.8187879746
 20
24.1202282522
 10
-28.0522863621
 20
24.0867938289
 10
-28.2774053638
 20
24.0476527241
 10
-28.4947424719
 20
24.0029894333
 10
-28.7061379107
 20
23.9533234733
 10
-28.9122111201
 20
23.8988339446
 10
-29.1123602155
 20
23.8393625141
 10
-29.3066072641
 20
23.7749195139
  0
LINE
  5
38E
100
AcDbEntity
  8
RACCORDO
100
AcDbLine
 62
253
  6
CONTINUOUS
 10
-33.4409124299
 20
23.4342268411
 11
-35.2550059729
 21
23.273134241
  0
LINE
  5
38F
100
AcDbEntity
  8
RACCORDO
100
AcDbLine
 62
253
  6
CONTINUOUS
 10
-32.1592348896
 20
23.5441512708
 11
-33.4409124299
 21
23.4342268411
  0
LWPOLYLINE
  5
390
100
AcDbEntity
  8
RACCORDO
100
AcDbPolyline
 62
253
  6
CONTINUOUS
 90
3
 70
0
 10
-30.0433432067
 20
23.7164145173
 10
-30.7718184598
 20
23.6581193663
 10
-32.1592348896
 20
23.5441512708
  0
LWPOLYLINE
  5
391
100
AcDbEntity
  8
RACCORDO
100
AcDbPolyline
 62
253
  6
CONTINUOUS
 90
34
 70
0
 10
-24.2752376898
 20
23.844642183
 10
-24.2994108689
 20
23.8428076307
 10
-24.3241506424
 20
23.8405036032
 10
-24.3494468267
 20
23.8376987406
 10
-24.3752448419
 20
23.8343663288
 10
-24.4015754334
 20
23.8304704282
 10
-24.428553567
 20
23.8259577035
 10
-24.4561630838
 20
23.8207868771
 10
-24.4843850787
 20
23.8149166914
 10
-24.5133252897
 20
23.8082776035
 10
-24.5429608569
 20
23.8008180492
 10
-24.5732635199
 20
23.7924869371
 10
-24.6043236555
 20
23.7831982762
 10
-24.6361092351
 20
23.7728894048
 10
-24.6685787971
 20
23.7614993425
 10
-24.7017987902
 20
23.7489272584
 10
-24.7357237159
 20
23.7350998217
 10
-24.7702956309
 20
23.7199468417
 10
-24.8055497857
 20
23.7033556989
 10
-24.841421954
 20
23.6852443984
 10
-24.8778343589
 20
23.665535279
 10
-24.914786492
 20
23.6441076456
 10
-24.9521849105
 20
23.6208776868
 10
-24.9899333676
 20
23.5957605259
 10
-25.0280076984
 20
23.5686206256
 10
-25.0662707351
 20
23.539384005
 10
-25.1046108282
 20
23.5079547272
 10
-25.1430132583
 20
23.4741472936
 10
-25.1813142957
 20
23.4378764753
 10
-25.219345648
 20
23.39905693
 10
-25.257044296
 20
23.3574834245
 10
-25.294237363
 20
23.3130297412
 10
-25.3306576089
 20
23.2656669709
 10
-25.3660658555
 20
23.2153366074
  0
LWPOLYLINE
  5
392
100
AcDbEntity
  8
RACCORDO
100
AcDbPolyline
 62
253
  6
CONTINUOUS
 90
34
 70
0
 10
-24.2681678912
 20
23.7044845257
 10
-24.2906335192
 20
23.7028317527
 10
-24.3136044744
 20
23.7006821205
 10
-24.3370807807
 20
23.6980368547
 10
-24.3610359149
 20
23.6949380547
 10
-24.3854964508
 20
23.6913461614
 10
-24.4105420676
 20
23.6871403362
 10
-24.4361799779
 20
23.6823341247
 10
-24.4624030438
 20
23.6769176548
 10
-24.4892694386
 20
23.6707359061
 10
-24.5167898901
 20
23.6638039573
 10
-24.5449537793
 20
23.6561119442
 10
-24.5737872873
 20
23.6474687247
 10
-24.6033059962
 20
23.6378901733
 10
-24.6334944794
 20
23.6273677008
 10
-24.6643324428
 20
23.6156751244
 10
-24.6958402514
 20
23.6028281833
 10
-24.7279977559
 20
23.5888210183
 10
-24.7607239366
 20
23.5733970099
 10
-24.7940433978
 20
23.5565707371
 10
-24.8279318219
 20
23.5383404707
 10
-24.8622348561
 20
23.5184272156
 10
-24.8969767136
 20
23.4968468764
 10
-24.9321335417
 20
23.4735993657
 10
-24.9674789364
 20
23.4483836536
 10
-25.0030323157
 20
23.4212259735
 10
-25.0387746869
 20
23.3921183707
 10
-25.0744220726
 20
23.3607101855
 10
-25.1100183252
 20
23.3270153382
 10
-25.1455200679
 20
23.2910399663
 10
-25.1805125003
 20
23.2524223811
 10
-25.2148575092
 20
23.2110482962
 10
-25.2486936658
 20
23.1670508357
 10
-25.2820211886
 20
23.120438944
  0
LWPOLYLINE
  5
393
100
AcDbEntity
  8
RACCORDO
100
AcDbPolyline
 62
253
  6
CONTINUOUS
 90
3
 70
0
 10
-27.2918993092
 20
23.7075591385
 10
-25.9665520242
 20
23.8059933182
 10
-25.787174008
 20
23.8190242785
  0
LINE
  5
394
100
AcDbEntity
  8
RACCORDO
100
AcDbLine
 62
253
  6
CONTINUOUS
 10
-27.3286305621
 20
24.1704215648
 11
-25.9941928637
 21
24.2666366559
  0
LINE
  5
395
100
AcDbEntity
  8
RACCORDO
100
AcDbLine
 62
253
  6
CONTINUOUS
 10
-25.9941928637
 20
24.2666366559
 11
-25.2503700416
 21
24.3190140336
  0
LWPOLYLINE
  5
396
100
AcDbEntity
  8
RACCORDO
100
AcDbPolyline
 62
253
  6
CONTINUOUS
 90
25
 70
0
 10
9.9564808172
 20
24.8465658468
 10
7.9639541852
 20
24.8427117963
 10
6.0300402516
 20
24.8317093284
 10
4.1547701668
 20
24.8141747064
 10
2.3406515199
 20
24.7907185249
 10
0.5852187127
 20
24.7619192584
 10
-1.1189645856
 20
24.728251923
 10
-2.7725743314
 20
24.6902032282
 10
-4.3749215534
 20
24.6482121854
 10
-5.9313990298
 20
24.6025814361
 10
-7.4423792325
 20
24.5537638153
 10
-8.9074960767
 20
24.5021681397
 10
-10.3310359389
 20
24.4479645049
 10
-11.7145398316
 20
24.391452464
 10
-13.0564801286
 20
24.3330412216
 10
-14.3565410025
 20
24.2730329248
 10
-15.6139557979
 20
24.2118102187
 10
-16.8295124599
 20
24.1496425741
 10
-18.0052248176
 20
24.086658782
 10
-19.1402650615
 20
24.0232385423
 10
-20.235487239
 20
23.9596311006
 10
-21.2954250608
 20
23.8957521688
 10
-22.3215963886
 20
23.831720734
 10
-23.3125065062
 20
23.7678886177
 10
-24.2681678912
 20
23.7044845257
  0
LWPOLYLINE
  5
397
100
AcDbEntity
  8
RACCORDO
100
AcDbPolyline
 62
253
  6
CONTINUOUS
 90
25
 70
0
 10
9.9564808045
 20
24.9886907681
 10
7.9636145628
 20
24.984904304
 10
6.0293754493
 20
24.9738182768
 10
4.1537864512
 20
24.9561132193
 10
2.3393460305
 20
24.9325109525
 10
0.5835871697
 20
24.9036064606
 10
-1.1209199712
 20
24.8697806643
 10
-2.7748464972
 20
24.8315325094
 10
-4.3775075157
 20
24.7893905197
 10
-5.9342995724
 20
24.7436259212
 10
-7.4455890855
 20
24.6946487185
 10
-8.9110076967
 20
24.6428900995
 10
-10.3348495539
 20
24.58854437
 10
-11.718652127
 20
24.5318976599
 10
-13.0608834458
 20
24.4733547211
 10
-14.361234051
 20
24.4132369935
 10
-15.6189341173
 20
24.3519069216
 10
-16.834767244
 20
24.2896482011
 10
-18.010754822
 20
24.226636193
 10
-19.146064933
 20
24.1631975282
 10
-20.2415471901
 20
24.0995616784
 10
-21.301743763
 20
24.0356993764
 10
-22.3281737946
 20
23.9717348938
 10
-23.3193353015
 20
23.9079792446
 10
-24.2752376897
 20
23.8446421819
  0
LWPOLYLINE
  5
398
100
AcDbEntity
  8
RACCORDO
100
AcDbPolyline
 62
253
  6
CONTINUOUS
 90
10
 70
0
 10
43.2825330249
 20
22.3940526379
 10
43.3121335467
 20
22.3933590099
 10
43.3414625308
 20
22.3911594822
 10
43.3704510603
 20
22.3874787308
 10
43.3989721654
 20
22.3823562856
 10
43.427023011
 20
22.3758169529
 10
43.4547185774
 20
22.3678418555
 10
43.4820495533
 20
22.3584216195
 10
43.5088889299
 20
22.3475851768
 10
43.5351697367
 20
22.3353502397
  0
LWPOLYLINE
  5
399
100
AcDbEntity
  8
RACCORDO
100
AcDbPolyline
 62
253
  6
CONTINUOUS
 90
10
 70
0
 10
43.2823149531
 20
22.6912502431
 10
43.3366735071
 20
22.6897972474
 10
43.3903511441
 20
22.6857109274
 10
43.4433481764
 20
22.6790062883
 10
43.4956733214
 20
22.6696996738
 10
43.5473184732
 20
22.6578037656
 10
43.5982587021
 20
22.6433275814
 10
43.648485892
 20
22.626283116
 10
43.6980087401
 20
22.6066853378
 10
43.7468275288
 20
22.5845471915
  0
LWPOLYLINE
  5
39A
100
AcDbEntity
  8
RACCORDO
100
AcDbPolyline
 62
253
  6
CONTINUOUS
 90
22
 70
0
 10
44.1884371152
 20
23.8446423324
 10
43.089982248
 20
23.9172661554
 10
41.9448777164
 20
23.99042337
 10
40.7531093255
 20
24.0637933635
 10
39.5166972662
 20
24.1369175331
 10
38.2335958778
 20
24.2095844792
 10
36.8976907318
 20
24.2817776599
 10
35.507267625
 20
24.3531547276
 10
34.064015587
 20
24.423185253
 10
32.5669237891
 20
24.4914896741
 10
31.0164622046
 20
24.5575599286
 10
29.4121458988
 20
24.6209234042
 10
27.7515329315
 20
24.6811954694
 10
26.0365712722
 20
24.7377471996
 10
24.2653114823
 20
24.7900818596
 10
22.4294655698
 20
24.8378728868
 10
20.5294447479
 20
24.8803891344
 10
18.5648525949
 20
24.9169185787
 10
16.5261901904
 20
24.9469253695
 10
14.4103039372
 20
24.9695654576
 10
12.2203898585
 20
24.9838113963
 10
9.9564808045
 20
24.9886907681
  0
LWPOLYLINE
  5
39B
100
AcDbEntity
  8
RACCORDO
100
AcDbPolyline
 62
253
  6
CONTINUOUS
 90
22
 70
0
 10
44.1813695544
 20
23.7044845257
 10
43.0831877107
 20
23.7771690374
 10
41.9383719334
 20
23.8504069977
 10
40.7469036828
 20
23.9238555488
 10
39.5107928824
 20
23.9969950839
 10
38.2279934128
 20
24.0696063932
 10
36.8924000853
 20
24.1417525542
 10
35.5022957964
 20
24.2130740518
 10
34.0593667963
 20
24.2829768585
 10
32.5626092351
 20
24.3511369942
 10
31.0124861058
 20
24.4170530706
 10
29.4085078257
 20
24.4802401429
 10
27.7482433549
 20
24.5403536964
 10
26.033635997
 20
24.5967611931
 10
24.2627290825
 20
24.6489157726
 10
22.4272421709
 20
24.6964772874
 10
20.5275895529
 20
24.7388213131
 10
18.5633670619
 20
24.7752260508
 10
16.5250699541
 20
24.8050349441
 10
14.4095458445
 20
24.8274458601
 10
12.2200013492
 20
24.8415843113
 10
9.9564808172
 20
24.8465658468
  0
LINE
  5
39C
100
AcDbEntity
  8
RACCORDO
100
AcDbLine
 62
253
  6
CONTINUOUS
 10
47.2418393514
 20
24.1704205583
 11
45.1635719511
 21
24.3190140165
  0
LINE
  5
39D
100
AcDbEntity
  8
RACCORDO
100
AcDbLine
 62
253
  6
CONTINUOUS
 10
47.2051502763
 20
23.70755422
 11
45.7003757012
 21
23.8190242763
  0
LINE
  5
39E
100
AcDbEntity
  8
RACCORDO
100
AcDbLine
 62
253
  6
CONTINUOUS
 10
49.9565448699
 20
23.7164145173
 11
51.3908670253
 21
23.6007086003
  0
LINE
  5
39F
100
AcDbEntity
  8
RACCORDO
100
AcDbLine
 62
253
  6
CONTINUOUS
 10
51.3908670253
 20
23.6007086003
 11
52.7253903019
 21
23.4887399044
  0
LWPOLYLINE
  5
3A0
100
AcDbEntity
  8
RACCORDO
100
AcDbPolyline
 62
253
  6
CONTINUOUS
 90
4
 70
0
 10
52.7253903019
 20
23.4887399044
 10
54.5739779996
 20
23.3266899268
 10
55.1682076361
 20
23.273134241
 10
55.7570558397
 20
23.2183409315
  0
LWPOLYLINE
  5
3A1
100
AcDbEntity
  8
SUPERFICI
100
AcDbPolyline
 62
253
  6
CONTINUOUS
 90
5
 70
0
 10
46.4071404446
 20
-46.2059146076
 10
46.4005452968
 20
-46.1749655683
 10
46.3926094953
 20
-46.1205652306
 10
46.3832090304
 20
-46.0440555665
 10
46.3722007315
 20
-45.9464284639
  0
LINE
  5
3A2
100
AcDbEntity
  8
SUPERFICI
100
AcDbLine
 62
253
  6
CONTINUOUS
 10
46.3722007315
 20
-45.9464284639
 11
46.2926139616
 21
-45.2063599907
  0
LINE
  5
3A3
100
AcDbEntity
  8
RACCORDO
100
AcDbLine
 62
253
  6
CONTINUOUS
 10
44.1813695544
 20
-24.0666207004
 11
44.1823018273
 21
-24.0786853906
  0
LWPOLYLINE
  5
3A4
100
AcDbEntity
  8
RACCORDO
100
AcDbPolyline
 62
253
  6
CONTINUOUS
 90
3
 70
0
 10
44.1813695545
 20
23.7044845499
 10
44.1823018285
 20
23.7165492363
 10
44.1841159646
 20
23.7418891871
  0
LINE
  5
3A5
100
AcDbEntity
  8
SUPERFICI
100
AcDbLine
 62
253
  6
CONTINUOUS
 10
46.3722007315
 20
45.5842922893
 11
46.2926139616
 21
44.8442238161
  0
LINE
  5
3A6
100
AcDbEntity
  8
SUPERFICI
100
AcDbLine
 62
253
  6
CONTINUOUS
 10
46.8064224555
 20
45.4251568882
 11
46.7351234018
 21
44.8028209451
  0
LINE
  5
3A7
100
AcDbEntity
  8
SUPERFICI
100
AcDbLine
 62
253
  6
CONTINUOUS
 10
46.8514803671
 20
45.8017018083
 11
46.8064224555
 21
45.4251568882
  0
LWPOLYLINE
  5
3A8
100
AcDbEntity
  8
RACCORDO
100
AcDbPolyline
 62
253
  6
CONTINUOUS
 90
10
 70
0
 10
-29.2578507234
 20
23.633449778
 10
-29.0572865085
 20
23.6618605322
 10
-28.8525454594
 20
23.6855464948
 10
-28.6437676956
 20
23.7043580336
 10
-28.431843481
 20
23.7181204188
 10
-28.2161226912
 20
23.7267978556
 10
-27.9944570335
 20
23.730310096
 10
-27.7661991657
 20
23.7284108795
 10
-27.5321886139
 20
23.7208722018
 10
-27.2925205258
 20
23.7075115306
  0
LWPOLYLINE
  5
3A9
100
AcDbEntity
  8
RACCORDO
100
AcDbPolyline
 62
253
  6
CONTINUOUS
 90
10
 70
0
 10
49.1709563838
 20
23.6334606764
 10
49.2378270983
 20
23.6228157074
 10
49.3049213249
 20
23.6115314457
 10
49.3722302615
 20
23.5995935165
 10
49.4399379229
 20
23.5869522171
 10
49.5078467005
 20
23.5736288518
 10
49.575376432
 20
23.5597318711
 10
49.6425150859
 20
23.5452404984
 10
49.7091943529
 20
23.5300889697
 10
49.7747532773
 20
23.5143531718
  0
LWPOLYLINE
  5
3AA
100
AcDbEntity
  8
RACCORDO
100
AcDbPolyline
 62
253
  6
CONTINUOUS
 90
13
 70
0
 10
43.7468319552
 20
22.5845488408
 10
43.8067247839
 20
22.5656050997
 10
43.8623030812
 20
22.5443777024
 10
43.9135370863
 20
22.5209317562
 10
43.9601970148
 20
22.4951288491
 10
44.0024577347
 20
22.4672407572
 10
44.0409018445
 20
22.4379606937
 10
44.0754839907
 20
22.4075509976
 10
44.1062145929
 20
22.375904513
 10
44.133762875
 20
22.3431629
 10
44.1583395443
 20
22.3094156662
 10
44.1797005213
 20
22.2747037088
 10
44.1978312848
 20
22.2390897856
  0
LINE
  5
3AB
100
AcDbEntity
  8
SUPERFICI
100
AcDbLine
 62
253
  6
CONTINUOUS
 10
46.8514803671
 20
-46.1638379829
 11
46.7907244409
 21
-45.6530293776
  0
LINE
  5
3AC
100
AcDbEntity
  8
SUPERFICI
100
AcDbLine
 62
253
  6
CONTINUOUS
 10
46.7907244409
 20
-45.6530293776
 11
46.7351234018
 21
-45.1649571197
  0
LINE
  5
3AD
100
AcDbEntity
  8
RACCORDO
100
AcDbLine
 62
253
  6
CONTINUOUS
 10
47.2057245827
 20
-24.0696471802
 11
47.2180378162
 21
-24.218637977
  0
LINE
  5
3AE
100
AcDbEntity
  8
RACCORDO
100
AcDbLine
 62
253
  6
CONTINUOUS
 10
47.2180378162
 20
-24.218637977
 11
47.2301636322
 21
-24.3742500779
  0
LINE
  5
3AF
100
AcDbEntity
  8
0
100
AcDbLine
 62
253
  6
CONTINUOUS
 10
46.4189898756
 20
-46.349789971
 11
46.4084627248
 21
-46.2058180329
  0
LINE
  5
3B0
100
AcDbEntity
  8
RACCORDO
100
AcDbLine
 62
253
  6
CONTINUOUS
 10
47.2301636322
 20
-24.3742500779
 11
47.2417964611
 21
-24.5325618696
  0
LINE
  5
3B1
100
AcDbEntity
  8
RACCORDO
100
AcDbLine
 62
253
  6
CONTINUOUS
 10
44.1823018273
 20
-24.0786853906
 11
44.184115962
 21
-24.1040253501
  0
LINE
  5
3B2
100
AcDbEntity
  8
RACCORDO
100
AcDbLine
 62
253
  6
CONTINUOUS
 10
44.2346758249
 20
-24.8802980001
 11
44.188439353
 21
-24.2067783576
  0
LINE
  5
3B3
100
AcDbEntity
  8
RACCORDO
100
AcDbLine
 62
253
  6
CONTINUOUS
 10
44.184115962
 20
-24.1040253501
 11
44.1857633977
 21
-24.1295721264
  0
LWPOLYLINE
  5
3B4
100
AcDbEntity
  8
RACCORDO
100
AcDbPolyline
 62
253
  6
CONTINUOUS
 90
10
 70
0
 10
44.1857633977
 20
-24.1295721264
 10
44.1871350941
 20
-24.153634834
 10
44.187688281
 20
-24.1646051609
 10
44.1881402617
 20
-24.1746208148
 10
44.1884835261
 20
-24.1835153758
 10
44.1887123706
 20
-24.1911410522
 10
44.1888229926
 20
-24.1973711358
 10
44.1888135541
 20
-24.2021021077
 10
44.188684212
 20
-24.2052553582
 10
44.1884371152
 20
-24.2067784929
  0
LWPOLYLINE
  5
3B5
100
AcDbEntity
  8
RACCORDO
100
AcDbPolyline
 62
253
  6
CONTINUOUS
 90
7
 70
0
 10
45.3909095737
 20
22.5125719223
 10
45.3894716852
 20
22.5396648992
 10
45.3874735155
 20
22.5667426924
 10
45.3849154502
 20
22.5938044309
 10
45.3817978815
 20
22.6208491972
 10
45.3781212081
 20
22.6478760274
 10
45.3738858358
 20
22.6748839117
  0
LWPOLYLINE
  5
3B6
100
AcDbEntity
  8
RACCORDO
100
AcDbPolyline
 62
253
  6
CONTINUOUS
 90
7
 70
0
 10
45.5074793544
 20
22.5128595906
 10
45.5059290346
 20
22.5419858719
 10
45.5037807275
 20
22.571115866
 10
45.5010327881
 20
22.6002373097
 10
45.4976838194
 20
22.6293378569
 10
45.4937326755
 20
22.6584050831
 10
45.4891784648
 20
22.6874264905
  0
LWPOLYLINE
  5
3B7
100
AcDbEntity
  8
RACCORDO
100
AcDbPolyline
 62
253
  6
CONTINUOUS
 90
13
 70
0
 10
45.878262929
 20
-0.1811112189
 10
45.8732153647
 20
2.0964964489
 10
45.8591571437
 20
4.2993841451
 10
45.8369657762
 20
6.4273179461
 10
45.8072822606
 20
8.4767494283
 10
45.771054748
 20
10.4507147318
 10
45.7294743686
 20
12.3588867684
 10
45.6827237562
 20
14.2015290539
 10
45.631126307
 20
15.9779674211
 10
45.5758527254
 20
17.6965861468
 10
45.5174054557
 20
19.360106014
 10
45.4556734199
 20
20.9654965309
 10
45.3909095737
 20
22.5125719223
  0
LWPOLYLINE
  5
3B8
100
AcDbEntity
  8
RACCORDO
100
AcDbPolyline
 62
253
  6
CONTINUOUS
 90
13
 70
0
 10
45.9931538808
 20
-0.1811111524
 10
45.9883579087
 20
2.0969007156
 10
45.9743025659
 20
4.2997514457
 10
45.9519813985
 20
6.4274103832
 10
45.9224492529
 20
8.4767674385
 10
45.8865613082
 20
10.4508947265
 10
45.8448509909
 20
12.3590420051
 10
45.7980536697
 20
14.2016133197
 10
45.7469145447
 20
15.9781936947
 10
45.6917471906
 20
17.6968043583
 10
45.6330100338
 20
19.3601192701
 10
45.571401508
 20
20.9654687271
 10
45.5074793544
 20
22.5128595906
  0
LINE
  5
3B9
100
AcDbEntity
  8
RACCORDO
100
AcDbLine
 62
253
  6
CONTINUOUS
 10
44.2868598824
 20
21.8125192424
 11
44.3070383112
 21
13.0668601028
  0
LINE
  5
3BA
100
AcDbEntity
  8
RACCORDO
100
AcDbLine
 62
253
  6
CONTINUOUS
 10
43.8781552782
 20
21.791336193
 11
43.8924675378
 21
14.2360397794
  0
LINE
  5
3BB
100
AcDbEntity
  8
RACCORDO
100
AcDbLine
 62
253
  6
CONTINUOUS
 10
43.2824300816
 20
22.4573983712
 11
43.2825438225
 21
22.3940525927
  0
LINE
  5
3BC
100
AcDbEntity
  8
RACCORDO
100
AcDbLine
 62
253
  6
CONTINUOUS
 10
43.8924675378
 20
14.2360397794
 11
43.9016604711
 21
5.4219377578
  0
LINE
  5
3BD
100
AcDbEntity
  8
RACCORDO
100
AcDbLine
 62
253
  6
CONTINUOUS
 10
44.3070383112
 20
13.0668601028
 11
44.3172790843
 21
4.0639354595
  0
LINE
  5
3BE
100
AcDbEntity
  8
RACCORDO
100
AcDbLine
 62
253
  6
CONTINUOUS
 10
43.2823149533
 20
22.691250518
 11
43.2824300816
 21
22.4573983712
  0
LINE
  5
3BF
100
AcDbEntity
  8
RACCORDO
100
AcDbLine
 62
7
  6
CONTINUOUS
 10
43.8066008316
 20
21.7197541918
 11
43.8066008316
 21
-22.0818903665
  0
LINE
  5
3C0
100
AcDbEntity
  8
RACCORDO
100
AcDbLine
 62
253
  6
CONTINUOUS
 10
43.9016604711
 20
5.4219377578
 11
43.9032977241
 21
-0.1810827693
  0
LINE
  5
3C1
100
AcDbEntity
  8
RACCORDO
100
AcDbLine
 62
253
  6
CONTINUOUS
 10
44.3172790843
 20
4.0639354595
 11
44.3183331552
 21
-1.6279901371
  0
LINE
  5
3C2
100
AcDbEntity
  8
RACCORDO
100
AcDbLine
 62
253
  6
CONTINUOUS
 10
43.9032977241
 20
-0.1810827693
 11
43.9016488833
 21
-5.8041355419
  0
LINE
  5
3C3
100
AcDbEntity
  8
RACCORDO
100
AcDbLine
 62
253
  6
CONTINUOUS
 10
44.3183331552
 20
-1.6279901371
 11
44.3152910481
 21
-7.1504253708
  0
LINE
  5
3C4
100
AcDbEntity
  8
RACCORDO
100
AcDbLine
 62
253
  6
CONTINUOUS
 10
43.9016488833
 20
-5.8041355419
 11
43.8971935574
 21
-11.003661976
  0
LINE
  5
3C5
100
AcDbEntity
  8
RACCORDO
100
AcDbLine
 62
253
  6
CONTINUOUS
 10
44.3152910481
 20
-7.1504253708
 11
44.3089649227
 21
-12.2491273465
  0
LINE
  5
3C6
100
AcDbEntity
  8
RACCORDO
100
AcDbLine
 62
253
  6
CONTINUOUS
 10
43.8971935574
 20
-11.003661976
 11
43.8887246537
 21
-16.9084008144
  0
LINE
  5
3C7
100
AcDbEntity
  8
RACCORDO
100
AcDbLine
 62
253
  6
CONTINUOUS
 10
44.3089649227
 20
-12.2491273465
 11
44.3002705785
 21
-16.9246007777
  0
LINE
  5
3C8
100
AcDbEntity
  8
RACCORDO
100
AcDbLine
 62
253
  6
CONTINUOUS
 10
43.8887246537
 20
-16.9084008144
 11
43.8781553587
 21
-22.1534345086
  0
LWPOLYLINE
  5
3C9
100
AcDbEntity
  8
RACCORDO
100
AcDbPolyline
 62
253
  6
CONTINUOUS
 90
3
 70
0
 10
43.282314953
 20
-23.0533863899
 10
43.2825202928
 20
-22.7606942518
 10
43.2825438225
 20
-22.7561888054
  0
LINE
  5
3CA
100
AcDbEntity
  8
RACCORDO
100
AcDbLine
 62
253
  6
CONTINUOUS
 10
44.3002705785
 20
-16.9246007777
 11
44.2868598824
 21
-22.174655417
  0
LWPOLYLINE
  5
3CB
100
AcDbEntity
  8
RACCORDO
100
AcDbPolyline
 62
253
  6
CONTINUOUS
 90
10
 70
0
 10
44.2868598824
 20
-22.174655417
 10
44.2857848893
 20
-22.221763029
 10
44.2825380724
 20
-22.2690104875
 10
44.2771221516
 20
-22.3163917388
 10
44.2695928859
 20
-22.3639690232
 10
44.2599002827
 20
-22.4116668817
 10
44.2478888017
 20
-22.4592716938
 10
44.2335089762
 20
-22.50670657
 10
44.2168172123
 20
-22.5540318421
 10
44.1978171403
 20
-22.6012387574
  0
LWPOLYLINE
  5
3CC
100
AcDbEntity
  8
RACCORDO
100
AcDbPolyline
 62
253
  6
CONTINUOUS
 90
10
 70
0
 10
43.8781553719
 20
-22.1534345218
 10
43.8775486446
 20
-22.1790359847
 10
43.8758019775
 20
-22.2047963077
 10
43.8728884952
 20
-22.2306656406
 10
43.8687870295
 20
-22.2565757508
 10
43.8634728319
 20
-22.2824881445
 10
43.8569104401
 20
-22.308392685
 10
43.8490699309
 20
-22.3342436407
 10
43.839934485
 20
-22.359961212
 10
43.8294860342
 20
-22.3854786791
  0
LWPOLYLINE
  5
3CD
100
AcDbEntity
  8
RACCORDO
100
AcDbPolyline
 62
253
  6
CONTINUOUS
 90
13
 70
0
 10
45.5074791634
 20
-22.8750001973
 10
45.5714464067
 20
-21.3264826143
 10
45.6330869318
 20
-19.7201719243
 10
45.6918442624
 20
-18.0560613385
 10
45.7470223237
 20
-16.3367931612
 10
45.7981630147
 20
-14.5597209622
 10
45.8449520056
 20
-12.7169059997
 10
45.8866466194
 20
-10.808774498
 10
45.922514549
 20
-8.8349113039
 10
45.9520241666
 20
-6.7861156339
 10
45.9743238611
 20
-4.6593317216
 10
45.9883634621
 20
-2.4576533536
 10
45.9931538808
 20
-0.1811111524
  0
LWPOLYLINE
  5
3CE
100
AcDbEntity
  8
RACCORDO
100
AcDbPolyline
 62
253
  6
CONTINUOUS
 90
13
 70
0
 10
45.3909095737
 20
-22.8747080969
 10
45.4557166713
 20
-21.3265099438
 10
45.5174810978
 20
-19.7201601681
 10
45.5759500559
 20
-18.0558452678
 10
45.6312341935
 20
-16.3365690699
 10
45.6828320631
 20
-14.5596387481
 10
45.7295757141
 20
-12.7167524084
 10
45.7711413084
 20
-10.8085955954
 10
45.8073471416
 20
-8.8348942788
 10
45.837008669
 20
-6.7860242876
 10
45.8591813523
 20
-4.658965417
 10
45.8732244103
 20
-2.457249784
 10
45.8782629315
 20
-0.1811112189
  0
LWPOLYLINE
  5
3CF
100
AcDbEntity
  8
RACCORDO
100
AcDbPolyline
 62
253
  6
CONTINUOUS
 90
9
 70
0
 10
44.1871350974
 20
23.791498656
 10
44.1876882842
 20
23.8024689807
 10
44.1881402646
 20
23.8124846336
 10
44.1884835288
 20
23.8213791947
 10
44.1887123729
 20
23.8290048725
 10
44.1888229946
 20
23.8352349588
 10
44.1888135557
 20
23.8399659347
 10
44.1886842132
 20
23.8431191906
 10
44.1884371162
 20
23.844642332
  0
LINE
  5
3D0
100
AcDbEntity
  8
RACCORDO
100
AcDbLine
 62
253
  6
CONTINUOUS
 10
44.1857634009
 20
23.7674359549
 11
44.1871350974
 21
23.791498656
  0
LINE
  5
3D1
100
AcDbEntity
  8
RACCORDO
100
AcDbLine
 62
253
  6
CONTINUOUS
 10
44.1841159646
 20
23.7418891871
 11
44.1857634009
 21
23.7674359549
  0
LINE
  5
3D2
100
AcDbEntity
  8
RACCORDO
100
AcDbLine
 62
253
  6
CONTINUOUS
 10
44.234675825
 20
24.5181618255
 11
44.1884371152
 21
23.8446423324
  0
LINE
  5
3D3
100
AcDbEntity
  8
0
100
AcDbLine
 62
253
  6
CONTINUOUS
 10
46.4189898758
 20
45.9876537965
 11
46.408462725
 21
45.8436818582
  0
LINE
  5
3D4
100
AcDbEntity
  8
RACCORDO
100
AcDbLine
 62
253
  6
CONTINUOUS
 10
47.2418058078
 20
24.1704244704
 11
47.2301724856
 21
24.0121129561
  0
LINE
  5
3D5
100
AcDbEntity
  8
RACCORDO
100
AcDbLine
 62
253
  6
CONTINUOUS
 10
47.2301724856
 20
24.0121129561
 11
47.2180461478
 21
23.8565007609
  0
LINE
  5
3D6
100
AcDbEntity
  8
RACCORDO
100
AcDbLine
 62
253
  6
CONTINUOUS
 10
47.2180461478
 20
23.8565007609
 11
47.2057323808
 21
23.7075097753
  0
LWPOLYLINE
  5
3D7
100
AcDbEntity
  8
RACCORDO
100
AcDbPolyline
 62
253
  6
CONTINUOUS
 90
10
 70
0
 10
43.5351697521
 20
-22.6974864071
 10
43.5090401927
 20
-22.7096574865
 10
43.4822716283
 20
-22.7204763599
 10
43.4549257677
 20
-22.7299130018
 10
43.4270581736
 20
-22.7379429874
 10
43.3987413093
 20
-22.7445387494
 10
43.3700653094
 20
-22.7496737575
 10
43.3411061319
 20
-22.7533325451
 10
43.3119244864
 20
-22.7555066622
 10
43.2825894963
 20
-22.7561887408
  0
LWPOLYLINE
  5
3D8
100
AcDbEntity
  8
RACCORDO
100
AcDbPolyline
 62
253
  6
CONTINUOUS
 90
10
 70
0
 10
43.7467963411
 20
-22.9466956082
 10
43.6983215469
 20
-22.9687350354
 10
43.6489688355
 20
-22.9882770074
 10
43.5987379377
 20
-23.005309203
 10
43.5475018896
 20
-23.0198430965
 10
43.4953870966
 20
-23.0318413975
 10
43.4427733151
 20
-23.0412171369
 10
43.3897869156
 20
-23.0479310604
 10
43.3363009
 20
-23.0519925494
 10
43.2823149531
 20
-23.0533864177
  0
LWPOLYLINE
  5
3D9
100
AcDbEntity
  8
RACCORDO
100
AcDbPolyline
 62
253
  6
CONTINUOUS
 90
10
 70
0
 10
49.2197777836
 20
-24.1370566986
 10
49.2839437752
 20
-24.1144853712
 10
49.3480730958
 20
-24.0911948492
 10
49.4121595549
 20
-24.0671746522
 10
49.4763720644
 20
-24.0423643269
 10
49.540494064
 20
-24.0168248213
 10
49.603947502
 20
-23.9907425421
 10
49.6667136715
 20
-23.9639790066
 10
49.7288554995
 20
-23.9365400582
 10
49.7898645669
 20
-23.9088929026
  0
LWPOLYLINE
  5
3DA
100
AcDbEntity
  8
RACCORDO
100
AcDbPolyline
 62
253
  6
CONTINUOUS
 90
11
 70
0
 10
-29.9895873311
 20
23.4821739916
 10
-29.8615621243
 20
23.5143463881
 10
-29.7959932649
 20
23.5300658786
 10
-29.7293121995
 20
23.5452118137
 10
-29.6621763536
 20
23.5597050673
 10
-29.5946530437
 20
23.5736073621
 10
-29.5267554567
 20
23.5869366878
 10
-29.4590632198
 20
23.5995828213
 10
-29.3917736668
 20
23.6115228575
 10
-29.3247009939
 20
23.6228066693
 10
-29.2578507371
 20
23.6334498508
  0
LINE
  5
3DB
100
AcDbEntity
  8
RACCORDO
100
AcDbLine
 62
253
  6
CONTINUOUS
 10
-30.0530980508
 20
23.4668017583
 11
-29.9895873311
 21
23.4821739916
  0
LINE
  5
3DC
100
AcDbEntity
  8
0
100
AcDbLine
 62
253
  6
CONTINUOUS
 10
56.1253227261
 20
36.2813208098
 11
55.9813508075
 21
36.2707936608
  0
LINE
  5
3DD
100
AcDbEntity
  8
SUPERFICI
100
AcDbLine
 62
253
  6
CONTINUOUS
 10
48.6672051985
 20
35.7363073078
 11
54.97835586
 21
36.1974428264
  0
LWPOLYLINE
  5
3DE
100
AcDbEntity
  8
SUPERFICI
100
AcDbPolyline
 62
253
  6
CONTINUOUS
 90
10
 70
0
 10
55.9813507996
 20
36.2707934994
 10
55.9495658446
 20
36.269777054
 10
55.8967153213
 20
36.2690791563
 10
55.8230289884
 20
36.2676467721
 10
55.7284744956
 20
36.2645015052
 10
55.6135425822
 20
36.2587559529
 10
55.479885849
 20
36.2497015001
 10
55.328976079
 20
36.236781192
 10
55.1614587062
 20
36.2194913327
 10
54.9783846643
 20
36.1974573178
  0
LWPOLYLINE
  5
3DF
100
AcDbEntity
  8
SUPERFICI
100
AcDbPolyline
 62
253
  6
CONTINUOUS
 90
10
 70
0
 10
-36.0681491363
 20
36.2707934994
 10
-36.0363641814
 20
36.269777054
 10
-35.9835136581
 20
36.2690791563
 10
-35.9098273252
 20
36.2676467721
 10
-35.8152728324
 20
36.2645015052
 10
-35.700340919
 20
36.2587559529
 10
-35.5666841858
 20
36.2497015001
 10
-35.4157744158
 20
36.236781192
 10
-35.248257043
 20
36.2194913327
 10
-35.0651830011
 20
36.1974573178
  0
LINE
  5
3E0
100
AcDbEntity
  8
0
100
AcDbLine
 62
253
  6
CONTINUOUS
 10
-36.2121210629
 20
36.2813208098
 11
-36.0681491443
 21
36.2707936608
  0
LINE
  5
3E1
100
AcDbEntity
  8
SUPERFICI
100
AcDbLine
 62
253
  6
CONTINUOUS
 10
-28.7540035353
 20
35.7363073078
 11
-35.0651541968
 21
36.1974428264
  0
LWPOLYLINE
  5
3E2
100
AcDbEntity
  8
RACCORDO
100
AcDbPolyline
 62
253
  6
CONTINUOUS
 90
3
 70
0
 10
49.7747532773
 20
23.5143531718
 10
49.9027613
 20
23.4821515769
 10
49.966299369
 20
23.4668156542
  0
LWPOLYLINE
  5
3E3
100
AcDbEntity
  8
RACCORDO
100
AcDbPolyline
 62
253
  6
CONTINUOUS
 90
10
 70
0
 10
49.2197255926
 20
23.774926075
 10
49.0255759458
 20
23.8393472674
 10
48.8255019074
 20
23.8988041741
 10
48.6194813797
 20
23.9532864485
 10
48.408115359
 20
24.0029550741
 10
48.1907851457
 20
24.0476282669
 10
47.9656529502
 20
24.0867784872
 10
47.7321220954
 20
24.1202185445
 10
47.4908370719
 20
24.1481046375
 10
47.2418393514
 20
24.1704205583
  0
LWPOLYLINE
  5
3E4
100
AcDbEntity
  8
RACCORDO
100
AcDbPolyline
 62
253
  6
CONTINUOUS
 90
13
 70
0
 10
43.5351697367
 20
22.3353502397
 10
43.5719574216
 20
22.3153767029
 10
43.6064035394
 20
22.2935354055
 10
43.6384672892
 20
22.2701293915
 10
43.6680797016
 20
22.2454897237
 10
43.6953196669
 20
22.2198579816
 10
43.7203815056
 20
22.1933526767
 10
43.7432553173
 20
22.1662527771
 10
43.7640360106
 20
22.1387068706
 10
43.7830148112
 20
22.1105450081
 10
43.8002747498
 20
22.081783248
 10
43.8157549031
 20
22.0526727163
 10
43.8294860332
 20
22.023342507
  0
LWPOLYLINE
  5
3E5
100
AcDbEntity
  8
RACCORDO
100
AcDbPolyline
 62
253
  6
CONTINUOUS
 90
6
 70
0
 10
49.9674743621
 20
23.4667863074
 10
49.9658845091
 20
23.4943835034
 10
49.9644245139
 20
23.5220139308
 10
49.9630943655
 20
23.5496775924
 10
49.9619399209
 20
23.5773742677
 10
49.9566008322
 20
23.7163636876
  0
LWPOLYLINE
  5
3E6
100
AcDbEntity
  8
RACCORDO
100
AcDbPolyline
 62
253
  6
CONTINUOUS
 90
10
 70
0
 10
49.9674743621
 20
23.4667863074
 10
50.0946268981
 20
20.6630625165
 10
50.2039617143
 20
17.9056851251
 10
50.2962921296
 20
15.1935353671
 10
50.3723668483
 20
12.5255548942
 10
50.4329963335
 20
9.9007939497
 10
50.4790180962
 20
7.3184417174
 10
50.511144051
 20
4.7777422756
 10
50.529984694
 20
2.2779671841
 10
50.5361809146
 20
-0.1815353343
  0
LINE
  5
3E7
100
AcDbEntity
  8
RACCORDO
100
AcDbLine
 62
253
  6
CONTINUOUS
 10
49.961940117
 20
-23.9395052581
 11
49.9566008322
 21
-24.0784998623
  0
LWPOLYLINE
  5
3E8
100
AcDbEntity
  8
RACCORDO
100
AcDbPolyline
 62
253
  6
CONTINUOUS
 90
10
 70
0
 10
49.9674747619
 20
-23.8289131979
 10
50.0946285
 20
-21.0251602288
 10
50.203964127
 20
-18.2677552876
 10
50.2962949982
 20
-15.5555795707
 10
50.3723709527
 20
-12.8875319564
 10
50.4330009302
 20
-10.2627055
 10
50.4790205407
 20
-7.6804172851
 10
50.511143293
 20
-5.1399537229
 10
50.5299824898
 20
-2.6405436234
 10
50.5361808818
 20
-0.1815353343
  0
LWPOLYLINE
  5
3E9
100
AcDbEntity
  8
RACCORDO
100
AcDbPolyline
 62
253
  6
CONTINUOUS
 90
5
 70
0
 10
49.9674747619
 20
-23.8289131979
 10
49.9658848504
 20
-23.856511414
 10
49.9644248014
 20
-23.8841428648
 10
49.963094604
 20
-23.9118075528
 10
49.961940117
 20
-23.9395052581
  0
LWPOLYLINE
  5
3EA
100
AcDbEntity
  8
RACCORDO
100
AcDbPolyline
 62
253
  6
CONTINUOUS
 90
7
 70
0
 10
45.3738895529
 20
-23.0369927609
 10
45.3781214302
 20
-23.0100147158
 10
45.3817957576
 20
-22.9830076152
 10
45.3849121305
 20
-22.9559724651
 10
45.3874701509
 20
-22.9289102263
 10
45.389469427
 20
-22.9018218138
 10
45.3909095737
 20
-22.8747080969
  0
LWPOLYLINE
  5
3EB
100
AcDbEntity
  8
RACCORDO
100
AcDbPolyline
 62
253
  6
CONTINUOUS
 90
7
 70
0
 10
45.4891784836
 20
-23.0495625593
 10
45.4937298318
 20
-23.0205606395
 10
45.497679866
 20
-22.9915054924
 10
45.5010290126
 20
-22.9624095382
 10
45.5037779504
 20
-22.9332851434
 10
45.5059276087
 20
-22.9041446153
 10
45.507479165
 20
-22.8750001973
  0
LWPOLYLINE
  5
3EC
100
AcDbEntity
  8
RACCORDO
100
AcDbPolyline
 62
253
  6
CONTINUOUS
 90
13
 70
0
 10
43.8294860342
 20
-22.3854786791
 10
43.8157652827
 20
-22.4147871729
 10
43.800285582
 20
-22.443899605
 10
43.7830124542
 20
-22.4726849239
 10
43.7639927567
 20
-22.5009043541
 10
43.7431488942
 20
-22.5285228871
 10
43.7202227759
 20
-22.555666401
 10
43.6951386138
 20
-22.5821743993
 10
43.6678970951
 20
-22.6077875081
 10
43.6383005899
 20
-22.6323957785
 10
43.6062701773
 20
-22.655762464
 10
43.5718790977
 20
-22.6775588608
 10
43.5351697521
 20
-22.6974864071
  0
LWPOLYLINE
  5
3ED
100
AcDbEntity
  8
RACCORDO
100
AcDbPolyline
 62
253
  6
CONTINUOUS
 90
13
 70
0
 10
44.1978223623
 20
-22.6012407558
 10
44.179711178
 20
-22.636837972
 10
44.1583455679
 20
-22.6715537758
 10
44.1337394902
 20
-22.7053253282
 10
44.1061202705
 20
-22.7381274641
 10
44.0752928802
 20
-22.769853776
 10
44.0406372879
 20
-22.8003141675
 10
44.0021581392
 20
-22.8295948332
 10
43.9598870087
 20
-22.8574559257
 10
43.9132478876
 20
-22.8832220697
 10
43.8620680976
 20
-22.906627947
 10
43.80657535
 20
-22.9278074794
 10
43.7467993319
 20
-22.9466968553
  0
LWPOLYLINE
  5
3EE
100
AcDbEntity
  8
RACCORDO
100
AcDbPolyline
 62
253
  6
CONTINUOUS
 90
3
 70
0
 10
49.7898645669
 20
-23.9088929026
 10
49.9077728127
 20
-23.8547456546
 10
49.9662996057
 20
-23.8289423507
  0
LINE
  5
3EF
100
AcDbEntity
  8
RACCORDO
100
AcDbLine
 62
253
  6
CONTINUOUS
 10
49.966299369
 20
23.4668156542
 11
49.9077578315
 21
23.4925735341
  0
LWPOLYLINE
  5
3F0
100
AcDbEntity
  8
RACCORDO
100
AcDbPolyline
 62
253
  6
CONTINUOUS
 90
11
 70
0
 10
49.9077578315
 20
23.4925735341
 10
49.789890511
 20
23.5467301944
 10
49.7288849103
 20
23.5744034979
 10
49.6667390538
 20
23.6018646576
 10
49.6039650142
 20
23.628639185
 10
49.5404988191
 20
23.6547195127
 10
49.4763599819
 20
23.6802509411
 10
49.412131568
 20
23.7050539192
 10
49.3480331604
 20
23.7290696446
 10
49.2838955243
 20
23.7523566425
 10
49.2197238469
 20
23.7749266147
  0
LWPOLYLINE
  5
3F1
100
AcDbEntity
  8
RACCORDO
100
AcDbPolyline
 62
253
  6
CONTINUOUS
 90
10
 70
0
 10
43.8294860332
 20
22.023342507
 10
43.8396788246
 20
21.9984979272
 10
43.8486977941
 20
21.9732396034
 10
43.8565296816
 20
21.9476204205
 10
43.8631801407
 20
21.9216205592
 10
43.8686177509
 20
21.8953651597
 10
43.8728068486
 20
21.8691307781
 10
43.875766922
 20
21.8430491462
 10
43.8775395531
 20
21.817100549
 10
43.8781552422
 20
21.7913361575
  0
LWPOLYLINE
  5
3F2
100
AcDbEntity
  8
RACCORDO
100
AcDbPolyline
 62
253
  6
CONTINUOUS
 90
10
 70
0
 10
44.197822844
 20
22.2390865545
 10
44.216447535
 20
22.1931621283
 10
44.2329028963
 20
22.146684209
 10
44.2471857362
 20
22.0996605046
 10
44.2593013202
 20
22.0518743258
 10
44.2692382035
 20
22.0035570874
 10
44.2769680446
 20
21.9553887578
 10
44.2824793259
 20
21.9076007639
 10
44.2857775383
 20
21.8599755139
 10
44.2868598824
 20
21.8125192424
  0
LWPOLYLINE
  5
3F3
100
AcDbEntity
  8
RACCORDO
100
AcDbPolyline
 62
253
  6
CONTINUOUS
 90
13
 70
0
 10
45.4891784648
 20
22.6874264905
 10
45.480869283
 20
22.7323817343
 10
45.4709271932
 20
22.7774840361
 10
45.4593198964
 20
22.8226679987
 10
45.446000822
 20
22.8679275217
 10
45.4309551139
 20
22.9131287265
 10
45.4142205148
 20
22.9580160491
 10
45.3957985048
 20
23.002506881
 10
45.3756850376
 20
23.0465449399
 10
45.3539466324
 20
23.0899240988
 10
45.3306255798
 20
23.1325354556
 10
45.3057242446
 20
23.1743608223
 10
45.2792674117
 20
23.2153367681
  0
LWPOLYLINE
  5
3F4
100
AcDbEntity
  8
RACCORDO
100
AcDbPolyline
 62
253
  6
CONTINUOUS
 90
13
 70
0
 10
45.3738848216
 20
22.6748835578
 10
45.3674280975
 20
22.7131056825
 10
45.3594200323
 20
22.7513961465
 10
45.3498665654
 20
22.7896979799
 10
45.3387862776
 20
22.8279869671
 10
45.3261765089
 20
22.8661597299
 10
45.3120145228
 20
22.9040351922
 10
45.2963015828
 20
22.9415069884
 10
45.2790634812
 20
22.97853306
 10
45.2603174763
 20
23.015025178
 10
45.2400813776
 20
23.0508980701
 10
45.2183735249
 20
23.0860692527
 10
45.1952144449
 20
23.1204503805
  0
LWPOLYLINE
  5
3F5
100
AcDbEntity
  8
RACCORDO
100
AcDbPolyline
 62
253
  6
CONTINUOUS
 90
25
 70
0
 10
48.667023951
 20
-36.0978147438
 10
48.7564358895
 20
-35.5532891986
 10
48.8418295776
 20
-35.0153439038
 10
48.9233302925
 20
-34.4838117318
 10
49.0009052806
 20
-33.9594161913
 10
49.0748017037
 20
-33.4414491374
 10
49.1454974417
 20
-32.9277428761
 10
49.2131060601
 20
-32.4181012845
 10
49.277542945
 20
-31.9131400805
 10
49.3390080107
 20
-31.4117055509
 10
49.3976360997
 20
-30.9136594255
 10
49.4535007393
 20
-30.4189624499
 10
49.5067088182
 20
-29.9265739252
 10
49.5572404262
 20
-29.4367362063
 10
49.6051763081
 20
-28.9493851077
 10
49.6506984118
 20
-28.4630807612
 10
49.6938105773
 20
-27.9778557405
 10
49.7345225563
 20
-27.493697424
 10
49.7729462369
 20
-27.0091646106
 10
49.8090668992
 20
-26.5242913963
 10
49.8429536934
 20
-26.039033927
 10
49.8747556242
 20
-25.5519050702
 10
49.9044284115
 20
-25.0624651047
 10
49.9317532969
 20
-24.5713222707
 10
49.9565448699
 20
-24.0785506919
  0
LWPOLYLINE
  5
3F6
100
AcDbEntity
  8
RACCORDO
100
AcDbPolyline
 62
253
  6
CONTINUOUS
 90
13
 70
0
 10
45.2792675177
 20
-23.5774727836
 10
45.3053614767
 20
-23.5370818022
 10
45.32994573
 20
-23.4958610095
 10
45.3529961327
 20
-23.453870992
 10
45.3744977343
 20
-23.4111553045
 10
45.394423586
 20
-23.3677926797
 10
45.4127406782
 20
-23.3238991256
 10
45.4293909138
 20
-23.2796801496
 10
45.4444272038
 20
-23.2350608108
 10
45.457955105
 20
-23.1897251417
 10
45.4699677818
 20
-23.1435977274
 10
45.4803874045
 20
-23.0968580054
 10
45.4891784836
 20
-23.0495625593
  0
LWPOLYLINE
  5
3F7
100
AcDbEntity
  8
RACCORDO
100
AcDbPolyline
 62
253
  6
CONTINUOUS
 90
13
 70
0
 10
45.1952219454
 20
-23.4825748056
 10
45.2180551088
 20
-23.4486992237
 10
45.2394822791
 20
-23.4140474828
 10
45.2594837295
 20
-23.378703847
 10
45.2780373397
 20
-23.3427659372
 10
45.2951304313
 20
-23.306296894
 10
45.3107592549
 20
-23.2693236033
 10
45.324879361
 20
-23.2320346089
 10
45.3375085216
 20
-23.194383542
 10
45.3487324578
 20
-23.1560332358
 10
45.3585657387
 20
-23.1169096292
 10
45.3669575598
 20
-23.0772086194
 10
45.3738902032
 20
-23.0369929896
  0
LWPOLYLINE
  5
3F8
100
AcDbEntity
  8
RACCORDO
100
AcDbPolyline
 62
253
  6
CONTINUOUS
 90
31
 70
0
 10
45.1952141089
 20
23.1204502506
 10
45.1588055759
 20
23.1710642007
 10
45.1218185407
 20
23.2186289907
 10
45.0842527217
 20
23.2631330932
 10
45.0459351861
 20
23.3044095669
 10
45.0070382758
 20
23.3426010264
 10
44.9680796137
 20
23.3781597237
 10
44.9291184206
 20
23.4110771713
 10
44.8900948685
 20
23.441336182
 10
44.8513480412
 20
23.4693770953
 10
44.812901727
 20
23.4952119396
 10
44.7747316093
 20
23.5188058855
 10
44.7371046778
 20
23.5405314691
 10
44.7000536445
 20
23.5603895048
 10
44.6635453626
 20
23.5783599837
 10
44.627748101
 20
23.5947869953
 10
44.5926930793
 20
23.6096752679
 10
44.5583487453
 20
23.623005042
 10
44.5247892772
 20
23.6350865268
 10
44.4920400908
 20
23.6459296257
 10
44.4600755309
 20
23.6555133431
 10
44.4288932273
 20
23.6641040842
 10
44.3984973916
 20
23.6717166989
 10
44.3688836477
 20
23.6783285147
 10
44.3400367882
 20
23.6841516606
 10
44.3120131076
 20
23.6891938397
 10
44.2847562011
 20
23.6934419223
 10
44.2580818453
 20
23.6970783074
 10
44.2319286131
 20
23.7001628356
 10
44.2063578607
 20
23.7026321439
 10
44.1813695544
 20
23.7044845257
  0
LWPOLYLINE
  5
3F9
100
AcDbEntity
  8
RACCORDO
100
AcDbPolyline
 62
253
  6
CONTINUOUS
 90
31
 70
0
 10
45.2792674117
 20
23.2153367681
 10
45.2406433217
 20
23.2700190016
 10
45.2008139296
 20
23.3212218933
 10
45.1600813457
 20
23.3690190438
 10
45.1187804895
 20
23.4134507708
 10
45.0771283718
 20
23.4546756806
 10
45.0352042118
 20
23.4929461468
 10
44.993216349
 20
23.5283705986
 10
44.9513641784
 20
23.5610597982
 10
44.9096592221
 20
23.5912429459
 10
44.8682328058
 20
23.6190419326
 10
44.8272513855
 20
23.6445502424
 10
44.7867422045
 20
23.6679313572
 10
44.7468204345
 20
23.6892907866
 10
44.7075927396
 20
23.7087352904
 10
44.6690491534
 20
23.7264122092
 10
44.6312793995
 20
23.7424174825
 10
44.5943547144
 20
23.7568523998
 10
44.5582181526
 20
23.7698519308
 10
44.522934761
 20
23.7815008172
 10
44.4885525998
 20
23.7918875799
 10
44.4549740605
 20
23.8011299469
 10
44.4222285923
 20
23.8093031707
 10
44.3903637582
 20
23.816476296
 10
44.3592984472
 20
23.8227370982
 10
44.3291096022
 20
23.8281385876
 10
44.2997730236
 20
23.8327520169
 10
44.2710474288
 20
23.8366661624
 10
44.2428623693
 20
23.8399309943
 10
44.2153209526
 20
23.8425761654
 10
44.1884371152
 20
23.8446423324
  0
LWPOLYLINE
  5
3FA
100
AcDbEntity
  8
RACCORDO
100
AcDbPolyline
 62
253
  6
CONTINUOUS
 90
25
 70
0
 10
48.667023951
 20
35.7356785692
 10
48.7564358895
 20
35.1911530239
 10
48.8418295776
 20
34.6532077292
 10
48.9233302925
 20
34.1216755572
 10
49.0009052806
 20
33.5972800166
 10
49.0748017037
 20
33.0793129628
 10
49.1454974417
 20
32.5656067015
 10
49.2131060601
 20
32.0559651099
 10
49.277542945
 20
31.5510039059
 10
49.3390080107
 20
31.0495693763
 10
49.3976360997
 20
30.5515232509
 10
49.4535007393
 20
30.0568262753
 10
49.5067088182
 20
29.5644377506
 10
49.5572404262
 20
29.0746000316
 10
49.6051763081
 20
28.5872489331
 10
49.6506984118
 20
28.1009445866
 10
49.6938105773
 20
27.6157195659
 10
49.7345225563
 20
27.1315612493
 10
49.7729462369
 20
26.647028436
 10
49.8090668992
 20
26.1621552217
 10
49.8429536934
 20
25.6768977524
 10
49.8747556242
 20
25.1897688955
 10
49.9044284115
 20
24.7003289301
 10
49.9317532969
 20
24.2091860961
 10
49.9565448699
 20
23.7164145173
  0
LWPOLYLINE
  5
3FB
100
AcDbEntity
  8
SUPERFICI
100
AcDbPolyline
 62
253
  6
CONTINUOUS
 90
31
 70
0
 10
54.97835586
 20
36.1974428264
 10
54.9397623281
 20
36.5795445273
 10
54.8887859846
 20
36.9591715956
 10
54.8239754807
 20
37.3362873893
 10
54.7418978521
 20
37.7128002423
 10
54.6424241779
 20
38.0867737312
 10
54.5298333239
 20
38.4528242824
 10
54.4045419852
 20
38.8094427933
 10
54.2644201495
 20
39.1590133369
 10
54.1111965665
 20
39.5020732942
 10
53.9464406625
 20
39.8355121501
 10
53.7675373606
 20
40.1623637918
 10
53.5692293311
 20
40.4920766095
 10
53.3448300727
 20
40.831980008
 10
53.0965022195
 20
41.1739263541
 10
52.8332601007
 20
41.5043380935
 10
52.5622508457
 20
41.8157112866
 10
52.2775438209
 20
42.1151174946
 10
51.9690817199
 20
42.4106519655
 10
51.6272113228
 20
42.7086197199
 10
51.2573239395
 20
43.0007112854
 10
50.8728191816
 20
43.273436834
 10
50.4842332714
 20
43.5214671646
 10
50.0843500219
 20
43.7504335686
 10
49.6610820951
 20
43.963537169
 10
49.2046845189
 20
44.1642227465
 10
48.7230681572
 20
44.3470892648
 10
48.2313462748
 20
44.5025381781
 10
47.7370822949
 20
44.628277055
 10
47.2375931944
 20
44.7280923167
 10
46.7351685878
 20
44.8028215096
  0
LINE
  5
3FC
100
AcDbEntity
  8
SUPERFICI
100
AcDbLine
 62
253
  6
CONTINUOUS
 10
55.021264888
 20
35.6215644375
 11
54.978407128
 21
36.1976879821
  0
LINE
  5
3FD
100
AcDbEntity
  8
SUPERFICI
100
AcDbLine
 62
253
  6
CONTINUOUS
 10
55.181415085
 20
33.3136322652
 11
55.021264888
 21
35.6215644375
  0
LINE
  5
3FE
100
AcDbEntity
  8
SUPERFICI
100
AcDbLine
 62
253
  6
CONTINUOUS
 10
55.3210986461
 20
31.1597628935
 11
55.181415085
 21
33.3136322652
  0
LINE
  5
3FF
100
AcDbEntity
  8
SUPERFICI
100
AcDbLine
 62
253
  6
CONTINUOUS
 10
55.4770466245
 20
28.5732141156
 11
55.3210986461
 21
31.1597628935
  0
LINE
  5
400
100
AcDbEntity
  8
SUPERFICI
100
AcDbLine
 62
253
  6
CONTINUOUS
 10
55.5603987816
 20
27.0960375982
 11
55.4770466245
 21
28.5732141156
  0
LINE
  5
401
100
AcDbEntity
  8
SUPERFICI
100
AcDbLine
 62
253
  6
CONTINUOUS
 10
55.6756102975
 20
24.8997099219
 11
55.5603987816
 21
27.0960375982
  0
LINE
  5
402
100
AcDbEntity
  8
SUPERFICI
100
AcDbLine
 62
253
  6
CONTINUOUS
 10
55.7570558397
 20
23.2183409315
 11
55.6756102975
 21
24.8997099219
  0
LWPOLYLINE
  5
403
100
AcDbEntity
  8
0
100
AcDbPolyline
 62
253
  6
CONTINUOUS
 90
19
 70
0
 10
56.3066008283
 20
-0.1815487758
 10
56.3045625265
 20
1.2668008051
 10
56.2984988204
 20
2.6709724053
 10
56.288819442
 20
4.0312400477
 10
56.2760345669
 20
5.3402532204
 10
56.2604475342
 20
6.6057678963
 10
56.2419540475
 20
7.8506760211
 10
56.220621191
 20
9.0803085335
 10
56.1967063968
 20
10.2896144752
 10
56.1701498251
 20
11.4859255236
 10
56.1413880067
 20
12.6562104919
 10
56.1102598941
 20
13.8134863208
 10
56.0754216862
 20
15.0042795058
 10
56.0364464111
 20
16.234101083
 10
55.9932490417
 20
17.4974298859
 10
55.9444246501
 20
18.824397074
 10
55.8890511071
 20
20.2250706813
 10
55.8269475035
 20
21.689386951
 10
55.7575511126
 20
23.2172994612
  0
LWPOLYLINE
  5
404
100
AcDbEntity
  8
0
100
AcDbPolyline
 62
253
  6
CONTINUOUS
 90
19
 70
0
 10
56.3066010648
 20
-0.1815487758
 10
56.3045610146
 20
-1.6294708975
 10
56.2984975811
 20
-3.0333221165
 10
56.288819442
 20
-4.3933762224
 10
56.2760353794
 20
-5.7023181999
 10
56.2604480346
 20
-6.9678684614
 10
56.2419540475
 20
-8.2128121957
 10
56.220621191
 20
-9.4424447081
 10
56.1967063968
 20
-10.6517506498
 10
56.1701498251
 20
-11.8480616982
 10
56.1413880067
 20
-13.0183466665
 10
56.1102598941
 20
-14.1756224955
 10
56.0754216862
 20
-15.3664156804
 10
56.0364464111
 20
-16.5962372576
 10
55.9932490417
 20
-17.8595660606
 10
55.9444246501
 20
-19.1865332487
 10
55.8890511071
 20
-20.587206856
 10
55.8269475035
 20
-22.0515231257
 10
55.7575511126
 20
-23.5794356359
  0
LINE
  5
405
100
AcDbEntity
  8
SUPERFICI
100
AcDbLine
 62
253
  6
CONTINUOUS
 10
55.7570558397
 20
-23.5804771061
 11
55.6756102975
 21
-25.2618460966
  0
LINE
  5
406
100
AcDbEntity
  8
SUPERFICI
100
AcDbLine
 62
253
  6
CONTINUOUS
 10
55.6756102975
 20
-25.2618460966
 11
55.5878430662
 21
-26.9470061798
  0
LINE
  5
407
100
AcDbEntity
  8
SUPERFICI
100
AcDbLine
 62
253
  6
CONTINUOUS
 10
55.5878430662
 20
-26.9470061798
 11
55.5052706485
 21
-28.4413146407
  0
LINE
  5
408
100
AcDbEntity
  8
SUPERFICI
100
AcDbLine
 62
253
  6
CONTINUOUS
 10
55.5052706485
 20
-28.4413146407
 11
55.4183193934
 21
-29.9347362217
  0
LINE
  5
409
100
AcDbEntity
  8
SUPERFICI
100
AcDbLine
 62
253
  6
CONTINUOUS
 10
55.4183193934
 20
-29.9347362217
 11
55.3210986461
 21
-31.5218990681
  0
LINE
  5
40A
100
AcDbEntity
  8
SUPERFICI
100
AcDbLine
 62
253
  6
CONTINUOUS
 10
55.3210986461
 20
-31.5218990681
 11
55.181415085
 21
-33.6757684398
  0
LWPOLYLINE
  5
40B
100
AcDbEntity
  8
SUPERFICI
100
AcDbPolyline
 62
253
  6
CONTINUOUS
 90
3
 70
0
 10
55.181415085
 20
-33.6757684398
 10
55.021264888
 20
-35.9837006122
 10
54.978407128
 20
-36.5598241567
  0
LWPOLYLINE
  5
40C
100
AcDbEntity
  8
SUPERFICI
100
AcDbPolyline
 62
253
  6
CONTINUOUS
 90
31
 70
0
 10
54.97835586
 20
-36.559579001
 10
54.9397623281
 20
-36.9416807019
 10
54.8887859846
 20
-37.3213077702
 10
54.8239754807
 20
-37.698423564
 10
54.7418978521
 20
-38.0749364169
 10
54.6424241779
 20
-38.4489099058
 10
54.5298333239
 20
-38.8149604571
 10
54.4045419852
 20
-39.1715789679
 10
54.2644201495
 20
-39.5211495115
 10
54.1111965665
 20
-39.8642094689
 10
53.9464406625
 20
-40.1976483248
 10
53.7675373606
 20
-40.5244999664
 10
53.5692293311
 20
-40.8542127841
 10
53.3448300727
 20
-41.1941161826
 10
53.0965022195
 20
-41.5360625288
 10
52.8332601007
 20
-41.8664742682
 10
52.5622508457
 20
-42.1778474612
 10
52.2775438209
 20
-42.4772536692
 10
51.9690817199
 20
-42.7727881402
 10
51.6272113228
 20
-43.0707558945
 10
51.2573239395
 20
-43.36284746
 10
50.8728191816
 20
-43.6355730086
 10
50.4842332714
 20
-43.8836033392
 10
50.0843500219
 20
-44.1125697432
 10
49.6610820951
 20
-44.3256733437
 10
49.2046845189
 20
-44.5263589211
 10
48.7230681572
 20
-44.7092254395
 10
48.2313462748
 20
-44.8646743527
 10
47.7370822949
 20
-44.9904132296
 10
47.2375931944
 20
-45.0902284913
 10
46.7351685878
 20
-45.1649576843
  0
LWPOLYLINE
  5
40D
100
AcDbEntity
  8
SUPERFICI
100
AcDbPolyline
 62
253
  6
CONTINUOUS
 90
10
 70
0
 10
46.7351685878
 20
-45.1649576843
 10
46.9905151602
 20
-44.1642714577
 10
47.2357567501
 20
-43.1608283073
 10
47.4708518185
 20
-42.1547050189
 10
47.6959259839
 20
-41.147232682
 10
47.910850547
 20
-40.1383605088
 10
48.1154482063
 20
-39.1282384708
 10
48.3096803062
 20
-38.1181607793
 10
48.4935646201
 20
-37.1084757848
 10
48.6672051985
 20
-36.0984434824
  0
LWPOLYLINE
  5
40E
100
AcDbEntity
  8
SUPERFICI
100
AcDbPolyline
 62
253
  6
CONTINUOUS
 90
5
 70
0
 10
-26.8219217385
 20
44.8028209451
 10
-26.7736769204
 20
44.8083489525
 10
-26.7253827996
 20
44.813539358
 10
-26.6769504467
 20
44.8184392563
 10
-26.6282552213
 20
44.8231000753
  0
LWPOLYLINE
  5
40F
100
AcDbEntity
  8
SUPERFICI
100
AcDbPolyline
 62
253
  6
CONTINUOUS
 90
10
 70
0
 10
-26.9382788748
 20
45.8017017984
 10
-26.8889392882
 20
45.807329365
 10
-26.8396182332
 20
45.8127154656
 10
-26.7903169125
 20
45.8178606226
 10
-26.7410265107
 20
45.8227663365
 10
-26.6917582224
 20
45.8274320719
 10
-26.6425432973
 20
45.8318557366
 10
-26.5933929779
 20
45.8360374754
 10
-26.5442984537
 20
45.8399791915
 10
-26.4952609215
 20
45.843681868
  0
LINE
  5
410
100
AcDbEntity
  8
SUPERFICI
100
AcDbLine
 62
253
  6
CONTINUOUS
 10
-26.6282552213
 20
44.8231000753
 11
-26.5299024554
 21
44.8318849389
  0
LINE
  5
411
100
AcDbEntity
  8
SUPERFICI
100
AcDbLine
 62
253
  6
CONTINUOUS
 10
-26.5299024554
 20
44.8318849389
 11
-26.3794188755
 21
44.8443064815
  0
LWPOLYLINE
  5
412
100
AcDbEntity
  8
0
100
AcDbPolyline
 62
253
  6
CONTINUOUS
 90
22
 70
0
 10
-26.3794188755
 20
44.8443064815
 10
-25.1753004312
 20
44.934507209
 10
-23.7425680875
 20
45.0322854804
 10
-22.1731890675
 20
45.1327228957
 10
-20.6131500506
 20
45.2282536188
 10
-19.1553494844
 20
45.3146115123
 10
-17.7418299248
 20
45.3950002028
 10
-16.2984209454
 20
45.4729214537
 10
-14.7836889469
 20
45.5501463599
 10
-13.215762079
 20
45.6254043191
 10
-11.614722684
 20
45.6973861385
 10
-9.971174637
 20
45.7660776436
 10
-8.2769512871
 20
45.8312265103
 10
-6.5231722044
 20
45.8926454651
 10
-4.721224487
 20
45.9495556364
 10
-2.8970593116
 20
46.0005600225
 10
-1.0246115574
 20
46.0458453873
 10
0.8717386833
 20
46.0850024255
 10
2.7921708589
 20
46.1170578551
 10
4.8985542533
 20
46.1427714194
 10
7.3153818293
 20
46.1616521941
 10
9.9566008316
 20
46.1689319154
  0
LWPOLYLINE
  5
413
100
AcDbEntity
  8
0
100
AcDbPolyline
 62
253
  6
CONTINUOUS
 90
22
 70
0
 10
46.2926205387
 20
44.8443064815
 10
45.0885020944
 20
44.934507209
 10
43.6557697507
 20
45.0322854804
 10
42.0863907307
 20
45.1327228957
 10
40.5263517138
 20
45.2282536188
 10
39.0685511476
 20
45.3146115123
 10
37.655031588
 20
45.3950002028
 10
36.2116226086
 20
45.4729214537
 10
34.6968906101
 20
45.5501463599
 10
33.1289637422
 20
45.6254043191
 10
31.5279243472
 20
45.6973861385
 10
29.8843763002
 20
45.7660776436
 10
28.1901529503
 20
45.8312265103
 10
26.4363738676
 20
45.8926454651
 10
24.6344261502
 20
45.9495556364
 10
22.8102609748
 20
46.0005600225
 10
20.9378132206
 20
46.0458453873
 10
19.04146298
 20
46.0850024255
 10
17.1210308043
 20
46.1170578551
 10
15.0146474099
 20
46.1427714194
 10
12.5978198339
 20
46.1616521941
 10
9.9566008316
 20
46.1689319154
  0
LINE
  5
414
100
AcDbEntity
  8
SUPERFICI
100
AcDbLine
 62
253
  6
CONTINUOUS
 10
46.4431041186
 20
44.8318849389
 11
46.2926205387
 21
44.8443064815
  0
LWPOLYLINE
  5
415
100
AcDbEntity
  8
SUPERFICI
100
AcDbPolyline
 62
253
  6
CONTINUOUS
 90
10
 70
0
 10
46.851480538
 20
45.8017017984
 10
46.8021409514
 20
45.807329365
 10
46.7528198964
 20
45.8127154656
 10
46.7035185757
 20
45.8178606226
 10
46.6542281739
 20
45.8227663365
 10
46.6049598856
 20
45.8274320719
 10
46.5557449605
 20
45.8318557366
 10
46.5065946411
 20
45.8360374754
 10
46.4575001169
 20
45.8399791915
 10
46.4084625848
 20
45.843681868
  0
LWPOLYLINE
  5
416
100
AcDbEntity
  8
SUPERFICI
100
AcDbPolyline
 62
253
  6
CONTINUOUS
 90
6
 70
0
 10
46.7351234018
 20
44.8028209451
 10
46.6868785836
 20
44.8083489525
 10
46.6385844628
 20
44.813539358
 10
46.5901521099
 20
44.8184392563
 10
46.5414568845
 20
44.8231000753
 10
46.4431041186
 20
44.8318849389
  0
LWPOLYLINE
  5
417
100
AcDbEntity
  8
SUPERFICI
100
AcDbPolyline
 62
253
  6
CONTINUOUS
 90
10
 70
0
 10
46.7351685878
 20
44.8028215096
 10
46.9905151602
 20
43.802135283
 10
47.2357567501
 20
42.7986921327
 10
47.4708518185
 20
41.7925688443
 10
47.6959259839
 20
40.7850965074
 10
47.910850547
 20
39.7762243342
 10
48.1154482063
 20
38.7661022962
 10
48.3096803062
 20
37.7560246047
 10
48.4935646201
 20
36.7463396102
 10
48.6672051985
 20
35.7363073078
  0
LINE
  5
418
100
AcDbEntity
  8
DRAFT
100
AcDbLine
 62
7
  6
CONTINUOUS
 10
-50.2709292152
 20
-47.5801219011
 11
-51.6970971933
 21
-47.6548641977
  0
LINE
  5
419
100
AcDbEntity
  8
RACCORDO
100
AcDbLine
 62
253
  6
CONTINUOUS
 10
-50.2709292152
 20
-46.2491125702
 11
-51.6970971933
 21
-46.3236558612
  0
LINE
  5
41A
100
AcDbEntity
  8
ASSI
100
AcDbLine
 62
7
  6
CONTINUOUS
 10
-51.6970971933
 20
-47.1810680873
 11
-52.1970971933
 21
-47.1810680873
  0
LINE
  5
41B
100
AcDbEntity
  8
ASSI
100
AcDbLine
 62
253
  6
CONTINUOUS
 10
-52.1970971933
 20
-45.8511212596
 11
-51.6970971933
 21
-45.8511212596
  0
LINE
  5
41C
100
AcDbEntity
  8
0
100
AcDbLine
 62
253
  6
CONTINUOUS
 10
-52.5470971933
 20
-46.349789971
 11
-54.197097192
 21
-46.2058180329
  0
LINE
  5
41D
100
AcDbEntity
  8
0
100
AcDbLine
 62
7
  6
CONTINUOUS
 10
-54.1970971933
 20
-47.5367117923
 11
-52.5470971933
 21
-47.6810680873
  0
LWPOLYLINE
  5
41E
100
AcDbEntity
  8
0
100
AcDbPolyline
 62
7
  6
CONTINUOUS
 90
22
 70
0
 10
-54.1970971933
 20
-47.5367117923
 10
-54.3100887537
 20
-47.523748556
 10
-54.4195705524
 20
-47.505192655
 10
-54.5250915812
 20
-47.481463872
 10
-54.6262761598
 20
-47.4529697485
 10
-54.722806811
 20
-47.4201091479
 10
-54.8144210541
 20
-47.3832744812
 10
-54.900858989
 20
-47.3428787237
 10
-54.9820585587
 20
-47.2992619195
 10
-55.0581154426
 20
-47.2526627965
 10
-55.1289287808
 20
-47.203427013
 10
-55.1945178696
 20
-47.1518392483
 10
-55.2551538856
 20
-47.0979572919
 10
-55.3108199606
 20
-47.0420481202
 10
-55.3615666629
 20
-46.9843352647
 10
-55.4077034205
 20
-46.924703328
 10
-55.4492378755
 20
-46.8633415793
 10
-55.4862116217
 20
-46.8004146196
 10
-55.5188781071
 20
-46.735658111
 10
-55.547285802
 20
-46.6690364555
 10
-55.5713597703
 20
-46.6008024916
 10
-55.5911124398
 20
-46.53106809
  0
LINE
  5
41F
100
AcDbEntity
  8
RACCORDO
100
AcDbLine
 62
253
  6
CONTINUOUS
 10
-52.1970971933
 20
-43.6569788833
 11
-52.5470971933
 21
-43.6386850249
  0
LINE
  5
420
100
AcDbEntity
  8
DRAFT
100
AcDbLine
 62
7
  6
CONTINUOUS
 10
-52.1970971933
 20
-44.9810680873
 11
-52.5470971933
 21
-44.9627253646
  0
LWPOLYLINE
  5
421
100
AcDbEntity
  8
SUPERFICI
100
AcDbPolyline
 62
253
  6
CONTINUOUS
 90
10
 70
0
 10
-54.1970971933
 20
-46.2059146076
 10
-54.4138869498
 20
-46.1749655683
 10
-54.6215170596
 20
-46.1205652306
 10
-54.8159383642
 20
-46.0440555665
 10
-54.9939400276
 20
-45.9464284639
 10
-55.1515830927
 20
-45.8291287809
 10
-55.2847513238
 20
-45.6946511427
 10
-55.3911193971
 20
-45.5451573357
 10
-55.4695583837
 20
-45.3818830234
 10
-55.5189474186
 20
-45.2063599907
  0
LWPOLYLINE
  5
422
100
AcDbEntity
  8
SUPERFICI
100
AcDbPolyline
 62
253
  6
CONTINUOUS
 90
10
 70
0
 10
-54.1970971933
 20
-46.1638379829
 10
-54.4139426718
 20
-46.1326569581
 10
-54.6216715826
 20
-46.0782193033
 10
-54.8162152411
 20
-46.0018103104
 10
-54.9943441192
 20
-45.9043695973
 10
-55.1520988195
 20
-45.7872930628
 10
-55.2853424065
 20
-45.6530293776
 10
-55.3917325347
 20
-45.5037006374
 10
-55.4701254904
 20
-45.3405089173
 10
-55.5193862406
 20
-45.1649571197
  0
LINE
  5
423
100
AcDbEntity
  8
RACCORDO
100
AcDbLine
 62
253
  6
CONTINUOUS
 10
-50.2289512218
 20
-36.63580524
 11
-51.6970971933
 21
-36.6415460759
  0
LINE
  5
424
100
AcDbEntity
  8
ASSI
100
AcDbLine
 62
253
  6
CONTINUOUS
 10
-52.1970971933
 20
-36.6069945998
 11
-51.6970971933
 21
-36.6069945998
  0
LINE
  5
425
100
AcDbEntity
  8
RACCORDO
100
AcDbLine
 62
253
  6
CONTINUOUS
 10
-52.1970971933
 20
-36.4465600886
 11
-52.5470971933
 21
-36.4452223892
  0
LINE
  5
426
100
AcDbEntity
  8
0
100
AcDbLine
 62
253
  6
CONTINUOUS
 10
-52.5470971933
 20
-36.6434569844
 11
-54.1970969656
 21
-36.6329298354
  0
LWPOLYLINE
  5
427
100
AcDbEntity
  8
SUPERFICI
100
AcDbPolyline
 62
253
  6
CONTINUOUS
 90
8
 70
0
 10
-54.1970971933
 20
-36.632929674
 10
-54.891187577
 20
-36.6297829467
 10
-55.0975336139
 20
-36.6266376798
 10
-55.2852314684
 20
-36.6208921275
 10
-55.4498988862
 20
-36.6118376747
 10
-55.5890892152
 20
-36.5989173666
 10
-55.701749422
 20
-36.5816275074
 10
-55.7867217198
 20
-36.5595934924
  0
LINE
  5
428
100
AcDbEntity
  8
0
100
AcDbLine
 62
7
  6
CONTINUOUS
 10
-49.0970971933
 20
-27.3310680873
 11
-49.7970971933
 21
-27.332289819
  0
LINE
  5
429
100
AcDbEntity
  8
RACCORDO
100
AcDbLine
 62
7
  6
CONTINUOUS
 10
-58.6748861828
 20
-26.0810642059
 11
-58.674936755
 21
-26.0810680873
  0
LINE
  5
42A
100
AcDbEntity
  8
0
100
AcDbLine
 62
7
  6
CONTINUOUS
 10
-49.0970971933
 20
-26.5310680873
 11
-49.7970971933
 21
-26.5351405682
  0
LINE
  5
42B
100
AcDbEntity
  8
0
100
AcDbLine
 62
253
  6
CONTINUOUS
 10
-58.2500568193
 20
-24.297834209
 11
-58.2082237826
 21
-24.297800551
  0
LINE
  5
42C
100
AcDbEntity
  8
0
100
AcDbLine
 62
253
  6
CONTINUOUS
 10
-49.0970971933
 20
-27.1087138008
 11
-49.7970971933
 21
-27.1090300083
  0
LINE
  5
42D
100
AcDbEntity
  8
0
100
AcDbLine
 62
7
  6
CONTINUOUS
 10
-49.2970971933
 20
-25.3810680873
 11
-49.7970971933
 21
-25.3810680873
  0
LINE
  5
42E
100
AcDbEntity
  8
0
100
AcDbLine
 62
7
  6
CONTINUOUS
 10
-49.6470971933
 20
-25.2310680873
 11
-49.4470971933
 21
-25.2310680873
  0
LINE
  5
42F
100
AcDbEntity
  8
0
100
AcDbLine
 62
7
  6
CONTINUOUS
 10
-58.4896803082
 20
-24.813368774
 11
-58.4900119261
 21
-24.813368774
  0
LINE
  5
430
100
AcDbEntity
  8
0
100
AcDbLine
 62
7
  6
CONTINUOUS
 10
-58.1448873856
 20
-24.1481363714
 11
-58.0804555438
 21
-24.1481363714
  0
LINE
  5
431
100
AcDbEntity
  8
0
100
AcDbLine
 62
7
  6
CONTINUOUS
 10
-58.1804555438
 20
-24.1481363714
 11
-58.180559722
 21
-24.1481363714
  0
LINE
  5
432
100
AcDbEntity
  8
0
100
AcDbLine
 62
7
  6
CONTINUOUS
 10
-49.2866300021
 20
-25.972694504
 11
-49.7970971933
 21
-25.9501419995
  0
LINE
  5
433
100
AcDbEntity
  8
DRAFT
100
AcDbLine
 62
7
  6
CONTINUOUS
 10
-58.2827882353
 20
-25.366946093
 11
-58.5903594508
 21
-25.3508269686
  0
LWPOLYLINE
  5
434
100
AcDbEntity
  8
SUPERFICI
100
AcDbPolyline
 62
253
  6
CONTINUOUS
 90
9
 70
0
 10
-54.1970971933
 20
-23.6266045341
 10
-54.7247836393
 20
-23.6231361668
 10
-54.973119062
 20
-23.620232362
 10
-55.2083947458
 20
-23.6163494097
 10
-55.4279591441
 20
-23.6113699512
 10
-55.6286374441
 20
-23.6052333869
 10
-55.8087371929
 20
-23.5978965576
 10
-55.967741043
 20
-23.5893052929
 10
-56.1049398951
 20
-23.5794356359
  0
LINE
  5
435
100
AcDbEntity
  8
RACCORDO
100
AcDbLine
 62
253
  6
CONTINUOUS
 10
-57.9816976868
 20
-24.2090530364
 11
-58.0252032693
 21
-24.2067783576
  0
LWPOLYLINE
  5
436
100
AcDbEntity
  8
RACCORDO
100
AcDbPolyline
 62
253
  6
CONTINUOUS
 90
6
 70
0
 10
-58.0841640901
 20
23.8213791947
 10
-58.0737738861
 20
23.8290048725
 10
-58.0624896733
 20
23.8352349588
 10
-58.0504989499
 20
23.8399659347
 10
-58.0380009534
 20
23.8431191906
 10
-58.0252033499
 20
23.844642332
  0
LWPOLYLINE
  5
437
100
AcDbEntity
  8
RACCORDO
100
AcDbPolyline
 62
253
  6
CONTINUOUS
 90
6
 70
0
 10
-58.0841641203
 20
-24.1835153758
 10
-58.0737739097
 20
-24.1911410522
 10
-58.0624896904
 20
-24.1973711358
 10
-58.0504989605
 20
-24.2021021077
 10
-58.038000958
 20
-24.2052553582
 10
-58.0252033492
 20
-24.2067784929
  0
LWPOLYLINE
  5
438
100
AcDbEntity
  8
SUPERFICI
100
AcDbPolyline
 62
253
  6
CONTINUOUS
 90
10
 70
0
 10
-56.9152231445
 20
35.7363073078
 10
-56.875262088
 20
35.7926386112
 10
-56.8147137571
 20
35.8479792641
 10
-56.7330930844
 20
35.9022149751
 10
-56.6305870637
 20
35.9550192393
 10
-56.5068455245
 20
36.0064514027
 10
-56.3603979132
 20
36.0566216841
 10
-56.1907538906
 20
36.105247708
 10
-55.9991080664
 20
36.1521500541
 10
-55.7866860851
 20
36.1974428264
  0
LWPOLYLINE
  5
439
100
AcDbEntity
  8
SUPERFICI
100
AcDbPolyline
 62
253
  6
CONTINUOUS
 90
10
 70
0
 10
-56.9152231445
 20
-36.0984434824
 10
-56.875262088
 20
-36.1547747858
 10
-56.8147137571
 20
-36.2101154387
 10
-56.7330930844
 20
-36.2643511498
 10
-56.6305870637
 20
-36.317155414
 10
-56.5068455245
 20
-36.3685875773
 10
-56.3603979132
 20
-36.4187578587
 10
-56.1907538906
 20
-36.4673838826
 10
-55.9991080664
 20
-36.5142862287
 10
-55.7866860851
 20
-36.559579001
  0
LINE
  5
43A
100
AcDbEntity
  8
0
100
AcDbLine
 62
7
  6
CONTINUOUS
 10
-49.4470971933
 20
24.8689319127
 11
-49.2970971933
 21
25.0189319127
  0
LINE
  5
43B
100
AcDbEntity
  8
0
100
AcDbLine
 62
7
  6
CONTINUOUS
 10
-49.4470971933
 20
-25.2310680873
 11
-49.2970971933
 21
-25.3810680873
  0
LINE
  5
43C
100
AcDbEntity
  8
ASSI
100
AcDbLine
 62
253
  6
CONTINUOUS
 10
-58.5274181875
 20
-0.18108895
 11
-58.5193424343
 21
-0.1810680703
  0
LINE
  5
43D
100
AcDbEntity
  8
0
100
AcDbLine
 62
253
  6
CONTINUOUS
 10
-58.5193424174
 20
-0.1815353343
 11
-54.1970971934
 21
-0.1810682924
  0
LINE
  5
43E
100
AcDbEntity
  8
RACCORDO
100
AcDbLine
 62
7
  6
CONTINUOUS
 10
-49.7970971933
 20
-4.0160893507
 11
-51.6970971933
 21
-3.6810680873
  0
LWPOLYLINE
  5
43F
100
AcDbEntity
  8
SUPERFICI
100
AcDbPolyline
 62
253
  6
CONTINUOUS
 90
10
 70
0
 10
-55.5193854541
 20
44.8028215096
 10
-55.6998697812
 20
43.802135283
 10
-55.8741232714
 20
42.7986921327
 10
-56.0421877301
 20
41.7925688443
 10
-56.204128202
 20
40.7850965074
 10
-56.3595470113
 20
39.7762243342
 10
-56.508226186
 20
38.7661022962
 10
-56.6504265883
 20
37.7560246047
 10
-56.7862025174
 20
36.7463396102
 10
-56.9152231445
 20
35.7363073078
  0
LWPOLYLINE
  5
440
100
AcDbEntity
  8
SUPERFICI
100
AcDbPolyline
 62
7
  6
CONTINUOUS
 90
29
 70
0
 10
-55.7787949786
 20
45.406049766
 10
-55.9758192468
 20
44.5786571234
 10
-56.1644003535
 20
43.7587135774
 10
-56.344769263
 20
42.9461411727
 10
-56.5171112935
 20
42.1410228206
 10
-56.681577928
 20
41.3435931639
 10
-56.838405523
 20
40.553670756
 10
-56.9877497193
 20
39.7714107256
 10
-57.1296585003
 20
38.9975408115
 10
-57.2643295253
 20
38.2320362933
 10
-57.391956713
 20
37.4748925995
 10
-57.5126139052
 20
36.726878107
 10
-57.6264890663
 20
35.9881261352
 10
-57.7338098606
 20
35.2584951612
 10
-57.8347304734
 20
34.5383572928
 10
-57.9294663885
 20
33.8276896883
 10
-58.0182247985
 20
33.1265359338
 10
-58.1011603542
 20
32.4353767434
 10
-58.178475884
 20
31.754335172
 10
-58.2503921912
 20
31.0833291219
 10
-58.3170934079
 20
30.4225420341
 10
-58.3788118774
 20
29.7716354966
 10
-58.4357060928
 20
29.1310003573
 10
-58.487867912
 20
28.5019346206
 10
-58.5355150658
 20
27.8843964246
 10
-58.5788487082
 20
27.278514442
 10
-58.617977394
 20
26.6858697872
 10
-58.6530979008
 20
26.107036408
 10
-58.6749404716
 20
25.7189280313
  0
LINE
  5
441
100
AcDbEntity
  8
SUPERFICI
100
AcDbLine
 62
7
  6
CONTINUOUS
 10
-55.5911124358
 20
46.1689319264
 11
-55.7787949786
 21
45.406049766
  0
LINE
  5
442
100
AcDbEntity
  8
RACCORDO
100
AcDbLine
 62
7
  6
CONTINUOUS
 10
-49.7970971933
 20
3.653953176
 11
-51.6970971933
 21
3.3189319127
  0
LINE
  5
443
100
AcDbEntity
  8
SUPERFICI
100
AcDbLine
 62
7
  6
CONTINUOUS
 10
-55.7787949251
 20
-45.7681861611
 11
-55.5911124358
 21
-46.531068101
  0
LINE
  5
444
100
AcDbEntity
  8
0
100
AcDbLine
 62
7
  6
CONTINUOUS
 10
-55.7787949251
 20
-45.7681861611
 11
-55.5911124358
 21
-46.531068101
  0
LWPOLYLINE
  5
445
100
AcDbEntity
  8
SUPERFICI
100
AcDbPolyline
 62
253
  6
CONTINUOUS
 90
10
 70
0
 10
-55.5193854541
 20
-45.1649576843
 10
-55.6998697812
 20
-44.1642714577
 10
-55.8741232714
 20
-43.1608283073
 10
-56.0421877301
 20
-42.1547050189
 10
-56.204128202
 20
-41.147232682
 10
-56.3595470113
 20
-40.1383605088
 10
-56.508226186
 20
-39.1282384708
 10
-56.6504265883
 20
-38.1181607793
 10
-56.7862025174
 20
-37.1084757848
 10
-56.9152231445
 20
-36.0984434824
  0
LINE
  5
446
100
AcDbEntity
  8
RACCORDO
100
AcDbLine
 62
253
  6
CONTINUOUS
 10
-57.2773681855
 20
-32.9277428761
 11
-57.3794245756
 21
-31.9131400805
  0
LWPOLYLINE
  5
447
100
AcDbEntity
  8
RACCORDO
100
AcDbPolyline
 62
253
  6
CONTINUOUS
 90
3
 70
0
 10
-57.3794245756
 20
-31.9131400805
 10
-57.4737258681
 20
-30.9136594255
 10
-57.5180199145
 20
-30.4189624499
  0
LINE
  5
448
100
AcDbEntity
  8
ASSI
100
AcDbLine
 62
7
  6
CONTINUOUS
 10
-58.5686921374
 20
-27.7826575023
 11
-58.6749367372
 21
-26.0810680872
  0
LINE
  5
449
100
AcDbEntity
  8
ASSI
100
AcDbLine
 62
7
  6
CONTINUOUS
 10
-58.5686920506
 20
27.4205227178
 11
-58.6749367372
 21
25.7189319126
  0
LINE
  5
44A
100
AcDbEntity
  8
RACCORDO
100
AcDbLine
 62
253
  6
CONTINUOUS
 10
-57.4275302734
 20
31.0495693763
 11
-57.5180199145
 21
30.0568262753
  0
LWPOLYLINE
  5
44B
100
AcDbEntity
  8
RACCORDO
100
AcDbPolyline
 62
253
  6
CONTINUOUS
 90
9
 70
0
 10
-56.9142089327
 20
35.7356785692
 10
-56.9814144777
 20
35.1911530239
 10
-57.0459187125
 20
34.6532077292
 10
-57.1077189968
 20
34.1216755572
 10
-57.16676335
 20
33.5972800166
 10
-57.2232032089
 20
33.0793129628
 10
-57.2773681855
 20
32.5656067015
 10
-57.3294158829
 20
32.0559651099
 10
-57.4275302734
 20
31.0495693763
  0
LWPOLYLINE
  5
44C
100
AcDbEntity
  8
RACCORDO
100
AcDbPolyline
 62
253
  6
CONTINUOUS
 90
7
 70
0
 10
-56.9142089327
 20
-36.0978147438
 10
-56.9814144777
 20
-35.5532891986
 10
-57.0459187125
 20
-35.0153439038
 10
-57.1077189968
 20
-34.4838117318
 10
-57.16676335
 20
-33.9594161913
 10
-57.2232032089
 20
-33.4414491374
 10
-57.2773681855
 20
-32.9277428761
  0
LINE
  5
44D
100
AcDbEntity
  8
RACCORDO
100
AcDbLine
 62
253
  6
CONTINUOUS
 10
-57.5180199145
 20
-30.4189624499
 11
-57.6012720697
 21
-29.4367362063
  0
LINE
  5
44E
100
AcDbEntity
  8
RACCORDO
100
AcDbLine
 62
253
  6
CONTINUOUS
 10
-57.6012720697
 20
-29.4367362063
 11
-57.6778010933
 21
-28.4630807612
  0
LINE
  5
44F
100
AcDbEntity
  8
RACCORDO
100
AcDbLine
 62
253
  6
CONTINUOUS
 10
-57.6778010933
 20
-28.4630807612
 11
-57.7482760867
 21
-27.493697424
  0
LINE
  5
450
100
AcDbEntity
  8
RACCORDO
100
AcDbLine
 62
253
  6
CONTINUOUS
 10
-57.7482760867
 20
-27.493697424
 11
-57.8127984254
 21
-26.5242913963
  0
LWPOLYLINE
  5
451
100
AcDbEntity
  8
SUPERFICI
100
AcDbPolyline
 62
253
  6
CONTINUOUS
 90
5
 70
0
 10
-55.8258510483
 20
-35.9837006122
 10
-55.7620520789
 20
-36.9416807019
 10
-55.7397873254
 20
-37.3213077702
 10
-55.7199750177
 20
-37.698423564
 10
-55.7030485021
 20
-38.0749364169
  0
LINE
  5
452
100
AcDbEntity
  8
RACCORDO
100
AcDbLine
 62
253
  6
CONTINUOUS
 10
-57.8127984254
 20
-26.5242913963
 11
-57.8713993132
 21
-25.5519050702
  0
LWPOLYLINE
  5
453
100
AcDbEntity
  8
SUPERFICI
100
AcDbPolyline
 62
7
  6
CONTINUOUS
 90
29
 70
0
 10
-58.6749404716
 20
-26.0810642059
 10
-58.6530984165
 20
-26.4691636978
 10
-58.6179779429
 20
-27.0479972919
 10
-58.5788492877
 20
-27.6406421853
 10
-58.535515673
 20
-28.2465244269
 10
-58.4878685443
 20
-28.8640628929
 10
-58.435706747
 20
-29.4931289101
 10
-58.3788125502
 20
-30.1337643409
 10
-58.3170940964
 20
-30.7846711731
 10
-58.2503928924
 20
-31.4454585558
 10
-58.1784765948
 20
-32.1164649041
 10
-58.1011610709
 20
-32.7975067782
 10
-58.0182255174
 20
-33.4886662764
 10
-57.9294671056
 20
-34.1898203435
 10
-57.8347311846
 20
-34.9004882647
 10
-57.7338105616
 20
-35.6206264537
 10
-57.6264897526
 20
-36.3502577526
 10
-57.5126145719
 20
-37.0890100535
 10
-57.3919573552
 20
-37.8370248799
 10
-57.2643301378
 20
-38.5941689118
 10
-57.1296590777
 20
-39.3596737717
 10
-56.9877502561
 20
-40.1335440316
 10
-56.8384060135
 20
-40.9158044113
 10
-56.6815783668
 20
-41.7057271705
 10
-56.5171116749
 20
-42.50315718
 10
-56.3447695813
 20
-43.3082758871
 10
-56.1644006026
 20
-44.1208486495
 10
-55.9758194204
 20
-44.9407925562
 10
-55.7787950074
 20
-45.7681858264
  0
LINE
  5
454
100
AcDbEntity
  8
RACCORDO
100
AcDbLine
 62
253
  6
CONTINUOUS
 10
-57.8713993132
 20
-25.5519050702
 11
-57.9243833978
 21
-24.5713222707
  0
LINE
  5
455
100
AcDbEntity
  8
SUPERFICI
100
AcDbLine
 62
253
  6
CONTINUOUS
 10
-55.5229398274
 20
-45.0902284913
 11
-55.5193854541
 21
-45.1649576843
  0
LINE
  5
456
100
AcDbEntity
  8
RACCORDO
100
AcDbLine
 62
253
  6
CONTINUOUS
 10
-57.960630317
 20
-23.8289131979
 11
-57.9243833978
 21
-24.5713222707
  0
LINE
  5
457
100
AcDbEntity
  8
RACCORDO
100
AcDbLine
 62
253
  6
CONTINUOUS
 10
-57.9689995505
 20
23.774926075
 11
-57.971912274
 21
23.8393472674
  0
LINE
  5
458
100
AcDbEntity
  8
SUPERFICI
100
AcDbLine
 62
7
  6
CONTINUOUS
 10
-58.0816056443
 20
-21.289693339
 11
-57.9665477896
 21
-23.8560511238
  0
LINE
  5
459
100
AcDbEntity
  8
0
100
AcDbLine
 62
7
  6
CONTINUOUS
 10
-57.9776704259
 20
-23.6079623954
 11
-57.9733865727
 21
-23.703513508
  0
LWPOLYLINE
  5
45A
100
AcDbEntity
  8
RACCORDO
100
AcDbPolyline
 62
253
  6
CONTINUOUS
 90
10
 70
0
 10
-57.960630317
 20
-23.8289131979
 10
-58.085306023
 20
-21.0251602288
 10
-58.1925587002
 20
-18.2677552876
 10
-58.2831937003
 20
-15.5555795707
 10
-58.3579981105
 20
-12.8875319564
 10
-58.4177278353
 20
-10.2627055
 10
-58.4630738117
 20
-7.6804172851
 10
-58.4946946191
 20
-5.1399537229
 10
-58.5132396219
 20
-2.6405436234
 10
-58.5193424174
 20
-0.1815353343
  0
LWPOLYLINE
  5
45B
100
AcDbEntity
  8
SUPERFICI
100
AcDbPolyline
 62
253
  6
CONTINUOUS
 90
8
 70
0
 10
-55.5193862406
 20
-45.1649571197
 10
-55.5191530904
 20
-45.1704851271
 10
-55.5189830248
 20
-45.1756755326
 10
-55.5188686079
 20
-45.180575431
 10
-55.5188021816
 20
-45.1852362499
 10
-55.518776006
 20
-45.1897041146
 10
-55.518782011
 20
-45.1940211135
 10
-55.5188129122
 20
-45.1982300005
  0
LINE
  5
45C
100
AcDbEntity
  8
RACCORDO
100
AcDbLine
 62
7
  6
CONTINUOUS
 10
-57.9715301366
 20
23.7218768503
 11
-57.9695337901
 21
23.6768624412
  0
LWPOLYLINE
  5
45D
100
AcDbEntity
  8
RACCORDO
100
AcDbPolyline
 62
7
  6
CONTINUOUS
 90
10
 70
0
 10
-58.0677956683
 20
24.2822713293
 10
-58.0662390404
 20
24.2437662247
 10
-58.063339944
 20
24.2037487376
 10
-58.0592055878
 20
24.1623944437
 10
-58.0537287633
 20
24.1199921531
 10
-58.0465878442
 20
24.0769748256
 10
-58.0377083176
 20
24.0336340394
 10
-58.0271646965
 20
23.9901348758
 10
-58.0148588941
 20
23.9467319567
 10
-58.0007582146
 20
23.9036367096
  0
LINE
  5
45E
100
AcDbEntity
  8
RACCORDO
100
AcDbLine
 62
253
  6
CONTINUOUS
 10
-57.9672253119
 20
23.7290696446
 11
-57.9689996825
 21
23.7749266147
  0
LINE
  5
45F
100
AcDbEntity
  8
RACCORDO
100
AcDbLine
 62
7
  6
CONTINUOUS
 10
-57.9695337901
 20
23.6768624412
 11
-57.96784362
 21
23.6323378588
  0
LINE
  5
460
100
AcDbEntity
  8
SUPERFICI
100
AcDbLine
 62
253
  6
CONTINUOUS
 10
-55.5314638326
 20
-44.8646743527
 11
-55.5229398274
 21
-45.0902284913
  0
LWPOLYLINE
  5
461
100
AcDbEntity
  8
SUPERFICI
100
AcDbPolyline
 62
253
  6
CONTINUOUS
 90
3
 70
0
 10
-55.7030485021
 20
-38.0749364169
 10
-55.6760776915
 20
-38.8149604571
 10
-55.6649656204
 20
-39.1715789679
  0
LINE
  5
462
100
AcDbEntity
  8
RACCORDO
100
AcDbLine
 62
253
  6
CONTINUOUS
 10
-57.9655843417
 20
23.6802509411
 11
-57.9672253119
 21
23.7290696446
  0
LINE
  5
463
100
AcDbEntity
  8
RACCORDO
100
AcDbLine
 62
7
  6
CONTINUOUS
 10
-57.9665453172
 20
-23.8560790282
 11
-57.9655804731
 21
-23.8859777641
  0
LWPOLYLINE
  5
464
100
AcDbEntity
  8
RACCORDO
100
AcDbPolyline
 62
253
  6
CONTINUOUS
 90
7
 70
0
 10
-57.9658336205
 20
23.5690580611
 10
-57.9655441029
 20
23.5597318711
 10
-57.9650112118
 20
23.5452404984
 10
-57.9643641718
 20
23.5300889697
 10
-57.9636149295
 20
23.5143531718
 10
-57.9627655403
 20
23.4981995663
 10
-57.9617900162
 20
23.4821515769
  0
LWPOLYLINE
  5
465
100
AcDbEntity
  8
RACCORDO
100
AcDbPolyline
 62
7
  6
CONTINUOUS
 90
3
 70
0
 10
-57.96784362
 20
23.6323378588
 10
-57.9662567378
 20
23.5835229854
 10
-57.9658377626
 20
23.5692030593
  0
LWPOLYLINE
  5
466
100
AcDbEntity
  8
SUPERFICI
100
AcDbPolyline
 62
253
  6
CONTINUOUS
 90
3
 70
0
 10
-55.5489556675
 20
-44.3256733437
 10
-55.5429806974
 20
-44.5263589211
 10
-55.5314638326
 20
-44.8646743527
  0
LINE
  5
467
100
AcDbEntity
  8
RACCORDO
100
AcDbLine
 62
253
  6
CONTINUOUS
 10
-57.964094257
 20
23.628639185
 11
-57.9655843417
 21
23.6802509411
  0
LWPOLYLINE
  5
468
100
AcDbEntity
  8
SUPERFICI
100
AcDbPolyline
 62
253
  6
CONTINUOUS
 90
8
 70
0
 10
-55.9951312084
 20
-32.045337678
 10
-55.9816022315
 20
-32.5686792389
 10
-55.9647423908
 20
-33.1087867231
 10
-55.9441302128
 20
-33.6757684398
 10
-55.9202253568
 20
-34.2571450482
 10
-55.8926182426
 20
-34.8364570266
 10
-55.8611341058
 20
-35.4097621806
 10
-55.8258510483
 20
-35.9837006122
  0
LINE
  5
469
100
AcDbEntity
  8
RACCORDO
100
AcDbLine
 62
253
  6
CONTINUOUS
 10
-57.9628037192
 20
23.5744034979
 11
-57.964094257
 21
23.628639185
  0
LINE
  5
46A
100
AcDbEntity
  8
RACCORDO
100
AcDbLine
 62
7
  6
CONTINUOUS
 10
-57.9658329457
 20
23.5690553813
 11
-57.9655181868
 21
23.553985297
  0
LINE
  5
46B
100
AcDbEntity
  8
RACCORDO
100
AcDbLine
 62
253
  6
CONTINUOUS
 10
-57.9606626717
 20
23.4668156542
 11
-57.9628037192
 21
23.5744034979
  0
LWPOLYLINE
  5
46C
100
AcDbEntity
  8
0
100
AcDbPolyline
 62
7
  6
CONTINUOUS
 90
9
 70
0
 10
-58.5207326795
 20
-2.7512690499
 10
-58.5001905966
 20
-5.3956262435
 10
-58.4656989091
 20
-8.0407478288
 10
-58.417147274
 20
-10.6881987673
 10
-58.3544535597
 20
-13.337813904
 10
-58.2776272839
 20
-15.9877196929
 10
-58.1866891617
 20
-18.6378034803
 10
-58.0816058661
 20
-21.2896880921
 10
-58.0563912324
 20
-21.8520991154
  0
LWPOLYLINE
  5
46D
100
AcDbEntity
  8
SUPERFICI
100
AcDbPolyline
 62
7
  6
CONTINUOUS
 90
9
 70
0
 10
-58.5274181875
 20
-0.18108895
 10
-58.5207326786
 20
-2.7512694074
 10
-58.5001905821
 20
-5.3956276362
 10
-58.4656988767
 20
-8.0407498969
 10
-58.4171472167
 20
-10.6882014982
 10
-58.3544534707
 20
-13.3378172848
 10
-58.2776271568
 20
-15.9877237095
 10
-58.1866889902
 20
-18.6378081186
 10
-58.0816056443
 20
-21.289693339
  0
LINE
  5
46E
100
AcDbEntity
  8
0
100
AcDbLine
 62
7
  6
CONTINUOUS
 10
-58.5274181875
 20
-0.18108895
 11
-58.5207326795
 21
-2.7512690499
  0
LINE
  5
46F
100
AcDbEntity
  8
RACCORDO
100
AcDbLine
 62
7
  6
CONTINUOUS
 10
-57.9655804731
 20
-23.8859777641
 11
-57.965573672
 21
-23.9196179973
  0
LWPOLYLINE
  5
470
100
AcDbEntity
  8
RACCORDO
100
AcDbPolyline
 62
7
  6
CONTINUOUS
 90
3
 70
0
 10
-57.9655181868
 20
23.553985297
 10
-57.9656582165
 20
23.5196442733
 10
-57.9665421479
 20
23.493936746
  0
LWPOLYLINE
  5
471
100
AcDbEntity
  8
RACCORDO
100
AcDbPolyline
 62
7
  6
CONTINUOUS
 90
12
 70
0
 10
-58.0681191106
 20
-24.7089479955
 10
-58.0683587133
 20
-24.7350592505
 10
-58.0687286361
 20
-24.7594101491
 10
-58.0692266179
 20
-24.7819341751
 10
-58.0698549197
 20
-24.8025527647
 10
-58.070620325
 20
-24.8211812873
 10
-58.0715244972
 20
-24.8377603262
 10
-58.0725657728
 20
-24.8522239798
 10
-58.0737459442
 20
-24.8644962585
 10
-58.0750656089
 20
-24.8745265165
 10
-58.0765241693
 20
-24.8822782423
 10
-58.0781216256
 20
-24.8877110564
  0
LINE
  5
472
100
AcDbEntity
  8
RACCORDO
100
AcDbLine
 62
7
  6
CONTINUOUS
 10
-57.965573672
 20
-23.9196179973
 11
-57.9658353734
 21
-23.9311780744
  0
LINE
  5
473
100
AcDbEntity
  8
RACCORDO
100
AcDbLine
 62
253
  6
CONTINUOUS
 10
-57.9634269551
 20
-23.9639790066
 11
-57.9606593467
 21
-23.8289423507
  0
LWPOLYLINE
  5
474
100
AcDbEntity
  8
RACCORDO
100
AcDbPolyline
 62
253
  6
CONTINUOUS
 90
7
 70
0
 10
-58.0111141054
 20
24.1704244704
 10
-58.0125424386
 20
24.1176001471
 10
-58.0111649138
 20
24.0647802224
 10
-58.0069854231
 20
24.0121129561
 10
-58.0000157336
 20
23.9597462445
 10
-57.9902754299
 20
23.9078270031
 10
-57.9819124555
 20
23.8734427054
  0
LINE
  5
475
100
AcDbEntity
  8
RACCORDO
100
AcDbLine
 62
253
  6
CONTINUOUS
 10
-57.9648177078
 20
-24.0168248213
 11
-57.9634269551
 21
-23.9639790066
  0
LINE
  5
476
100
AcDbEntity
  8
RACCORDO
100
AcDbLine
 62
253
  6
CONTINUOUS
 10
-57.9663888159
 20
-24.0671746522
 11
-57.9648177078
 21
-24.0168248213
  0
LINE
  5
477
100
AcDbEntity
  8
RACCORDO
100
AcDbLine
 62
7
  6
CONTINUOUS
 10
-57.9658358991
 20
-23.9311800888
 11
-57.9673186828
 21
-23.9791627984
  0
LINE
  5
478
100
AcDbEntity
  8
SUPERFICI
100
AcDbLine
 62
253
  6
CONTINUOUS
 10
-55.5489556675
 20
43.963537169
 11
-55.5368943455
 21
44.3470892648
  0
LWPOLYLINE
  5
479
100
AcDbEntity
  8
SUPERFICI
100
AcDbPolyline
 62
253
  6
CONTINUOUS
 90
4
 70
0
 10
-55.5368943455
 20
44.3470892648
 10
-55.5269440863
 20
44.628277055
 10
-55.5229398274
 20
44.7280923167
 10
-55.5193854541
 20
44.8028215096
  0
LINE
  5
47A
100
AcDbEntity
  8
RACCORDO
100
AcDbLine
 62
7
  6
CONTINUOUS
 10
-57.9673186828
 20
-23.9791627984
 11
-57.9690020645
 21
-24.0257209569
  0
LWPOLYLINE
  5
47B
100
AcDbEntity
  8
RACCORDO
100
AcDbPolyline
 62
253
  6
CONTINUOUS
 90
9
 70
0
 10
-58.0853044197
 20
20.6630625165
 10
-58.1925563144
 20
17.9056851251
 10
-58.2831908763
 20
15.1935353671
 10
-58.3579940734
 20
12.5255548942
 10
-58.4177233121
 20
9.9007939497
 10
-58.4630714054
 20
7.3184417174
 10
-58.4946953652
 20
4.7777422756
 10
-58.5132417917
 20
2.2779671841
 10
-58.5193424503
 20
-0.1815353343
  0
LWPOLYLINE
  5
47C
100
AcDbEntity
  8
SUPERFICI
100
AcDbPolyline
 62
7
  6
CONTINUOUS
 90
9
 70
0
 10
-58.0816056559
 20
20.9275568889
 10
-58.1866889991
 20
18.2756717024
 10
-58.2776271633
 20
15.6255873278
 10
-58.3544534752
 20
12.9756809382
 10
-58.4171472196
 20
10.3260651875
 10
-58.4656988782
 20
7.6786136228
 10
-58.5001905827
 20
5.0334913993
 10
-58.5207326787
 20
2.3891332083
 10
-58.5274181902
 20
-0.181088927
  0
LWPOLYLINE
  5
47D
100
AcDbEntity
  8
RACCORDO
100
AcDbPolyline
 62
253
  6
CONTINUOUS
 90
3
 70
0
 10
-57.9689982917
 20
-24.1370566986
 10
-57.9680945596
 20
-24.1144853712
 10
-57.9663888159
 20
-24.0671746522
  0
LWPOLYLINE
  5
47E
100
AcDbEntity
  8
SUPERFICI
100
AcDbPolyline
 62
253
  6
CONTINUOUS
 90
9
 70
0
 10
-55.5193862406
 20
44.8028209451
 10
-55.5191530904
 20
44.8083489525
 10
-55.5189830248
 20
44.813539358
 10
-55.5188686079
 20
44.8184392563
 10
-55.5188021816
 20
44.8231000753
 10
-55.518776006
 20
44.82756794
 10
-55.518782011
 20
44.8318849389
 10
-55.5188129122
 20
44.8360938259
 10
-55.5189316976
 20
44.8443064815
  0
LWPOLYLINE
  5
47F
100
AcDbEntity
  8
RACCORDO
100
AcDbPolyline
 62
7
  6
CONTINUOUS
 90
6
 70
0
 10
-57.9690020645
 20
-24.0257209569
 10
-57.9702717935
 20
-24.0565018219
 10
-57.9716135156
 20
-24.0857668381
 10
-57.9729784315
 20
-24.1126098045
 10
-57.9743574255
 20
-24.1371341372
 10
-57.975736163
 20
-24.1593534473
  0
LWPOLYLINE
  5
480
100
AcDbEntity
  8
RACCORDO
100
AcDbPolyline
 62
253
  6
CONTINUOUS
 90
4
 70
0
 10
-57.964365271
 20
-23.8922227228
 10
-57.9650133653
 20
-23.9073667043
 10
-57.965546629
 20
-23.9218559776
 10
-57.9658358991
 20
-23.9311800888
  0
LINE
  5
481
100
AcDbEntity
  8
SUPERFICI
100
AcDbLine
 62
7
  6
CONTINUOUS
 10
-57.9665482156
 20
23.4939059586
 11
-58.0816054533
 21
20.9275616827
  0
LINE
  5
482
100
AcDbEntity
  8
RACCORDO
100
AcDbLine
 62
253
  6
CONTINUOUS
 10
-57.9719099693
 20
-24.201462491
 11
-57.9689982544
 21
-24.1370585413
  0
LINE
  5
483
100
AcDbEntity
  8
RACCORDO
100
AcDbLine
 62
253
  6
CONTINUOUS
 10
-58.0853044197
 20
20.6630625165
 11
-57.9487303313
 21
23.7163636876
  0
LINE
  5
484
100
AcDbEntity
  8
RACCORDO
100
AcDbLine
 62
253
  6
CONTINUOUS
 10
-57.8985994097
 20
24.7003289301
 11
-57.9487480319
 21
23.7164145173
  0
LINE
  5
485
100
AcDbEntity
  8
RACCORDO
100
AcDbLine
 62
253
  6
CONTINUOUS
 10
-57.8428074677
 20
25.6768977524
 11
-57.8985994097
 21
24.7003289301
  0
LWPOLYLINE
  5
486
100
AcDbEntity
  8
SUPERFICI
100
AcDbPolyline
 62
253
  6
CONTINUOUS
 90
6
 70
0
 10
-55.7620520789
 20
36.5795445273
 10
-55.7397873254
 20
36.9591715956
 10
-55.7199750177
 20
37.3362873893
 10
-55.7030485021
 20
37.7128002423
 10
-55.6887481127
 20
38.0867737312
 10
-55.6649656204
 20
38.8094427933
  0
LINE
  5
487
100
AcDbEntity
  8
RACCORDO
100
AcDbLine
 62
253
  6
CONTINUOUS
 10
-57.7812849308
 20
26.647028436
 11
-57.8428074677
 21
25.6768977524
  0
LINE
  5
488
100
AcDbEntity
  8
RACCORDO
100
AcDbLine
 62
253
  6
CONTINUOUS
 10
-57.7138015899
 20
27.6157195659
 11
-57.7812849308
 21
26.647028436
  0
LINE
  5
489
100
AcDbEntity
  8
RACCORDO
100
AcDbLine
 62
253
  6
CONTINUOUS
 10
-57.6403049017
 20
28.5872489331
 11
-57.7138015899
 21
27.6157195659
  0
LWPOLYLINE
  5
48A
100
AcDbEntity
  8
RACCORDO
100
AcDbPolyline
 62
253
  6
CONTINUOUS
 90
3
 70
0
 10
-57.5180199145
 20
30.0568262753
 10
-57.560529566
 20
29.5644377506
 10
-57.6403049017
 20
28.5872489331
  0
LWPOLYLINE
  5
48B
100
AcDbEntity
  8
RACCORDO
100
AcDbPolyline
 62
7
  6
CONTINUOUS
 90
5
 70
0
 10
-57.9818249151
 20
23.8726363847
 10
-57.9807604545
 20
23.8618767231
 10
-57.979585799
 20
23.8488505076
 10
-57.9783202267
 20
23.8334404994
 10
-57.9770004133
 20
23.8157743179
  0
LINE
  5
48C
100
AcDbEntity
  8
RACCORDO
100
AcDbLine
 62
253
  6
CONTINUOUS
 10
-57.9617900162
 20
23.4821515769
 11
-57.9606626717
 21
23.4668156542
  0
LWPOLYLINE
  5
48D
100
AcDbEntity
  8
RACCORDO
100
AcDbPolyline
 62
253
  6
CONTINUOUS
 90
8
 70
0
 10
-57.9752378139
 20
23.8988041741
 10
-57.9789802546
 20
23.9532864485
 10
-57.9831152555
 20
24.0029550741
 10
-57.9876737841
 20
24.0476282669
 10
-57.9927425501
 20
24.0867784872
 10
-57.998351935
 20
24.1202185445
 10
-58.0044755211
 20
24.1481046375
 10
-58.0111141464
 20
24.1704205583
  0
LWPOLYLINE
  5
48E
100
AcDbEntity
  8
RACCORDO
100
AcDbPolyline
 62
7
  6
CONTINUOUS
 90
5
 70
0
 10
-57.9770004133
 20
23.8157743179
 10
-57.9756448068
 20
23.7958110424
 10
-57.974267916
 20
23.7734728111
 10
-57.972891671
 20
23.7488328343
 10
-57.9715301366
 20
23.7218768503
  0
LINE
  5
48F
100
AcDbEntity
  8
RACCORDO
100
AcDbLine
 62
253
  6
CONTINUOUS
 10
-57.971912274
 20
23.8393472674
 11
-57.9752378139
 21
23.8988041741
  0
LINE
  5
490
100
AcDbEntity
  8
SUPERFICI
100
AcDbLine
 62
253
  6
CONTINUOUS
 10
-55.6649656204
 20
-39.1715789679
 11
-55.6470388078
 21
-39.8642094689
  0
LINE
  5
491
100
AcDbEntity
  8
SUPERFICI
100
AcDbLine
 62
253
  6
CONTINUOUS
 10
-55.5742529064
 20
-43.36284746
 11
-55.5489556675
 21
-44.3256733437
  0
LINE
  5
492
100
AcDbEntity
  8
SUPERFICI
100
AcDbLine
 62
253
  6
CONTINUOUS
 10
-55.6470388078
 20
-39.8642094689
 11
-55.62554665
 21
-40.8542127841
  0
LINE
  5
493
100
AcDbEntity
  8
SUPERFICI
100
AcDbLine
 62
253
  6
CONTINUOUS
 10
-56.0172223678
 20
-30.9900669623
 11
-55.9951312084
 21
-32.045337678
  0
LINE
  5
494
100
AcDbEntity
  8
SUPERFICI
100
AcDbLine
 62
253
  6
CONTINUOUS
 10
-55.62554665
 20
-40.8542127841
 11
-55.5742529064
 21
-43.36284746
  0
LINE
  5
495
100
AcDbEntity
  8
0
100
AcDbLine
 62
253
  6
CONTINUOUS
 10
-56.1498692551
 20
-20.587206856
 11
-56.1049398951
 21
-23.5794356359
  0
LINE
  5
496
100
AcDbEntity
  8
SUPERFICI
100
AcDbLine
 62
253
  6
CONTINUOUS
 10
-56.033056335
 20
-29.9347362217
 11
-56.0172223678
 21
-30.9900669623
  0
LINE
  5
497
100
AcDbEntity
  8
SUPERFICI
100
AcDbLine
 62
253
  6
CONTINUOUS
 10
-56.1045358456
 20
-23.5804771061
 11
-56.0884899609
 21
-24.6988251015
  0
LINE
  5
498
100
AcDbEntity
  8
0
100
AcDbLine
 62
253
  6
CONTINUOUS
 10
-56.1857810517
 20
-17.8595660606
 11
-56.1498692551
 21
-20.587206856
  0
LINE
  5
499
100
AcDbEntity
  8
0
100
AcDbLine
 62
253
  6
CONTINUOUS
 10
-56.2143897998
 20
-15.3664156804
 11
-56.1857810517
 21
-17.8595660606
  0
LWPOLYLINE
  5
49A
100
AcDbEntity
  8
0
100
AcDbPolyline
 62
253
  6
CONTINUOUS
 90
3
 70
0
 10
-54.1973816398
 20
-47.5202513082
 10
-54.1972451477
 20
-47.5325899314
 10
-54.1970971933
 20
-47.5367117923
  0
LINE
  5
49B
100
AcDbEntity
  8
SUPERFICI
100
AcDbLine
 62
253
  6
CONTINUOUS
 10
-56.0884899609
 20
-24.6988251015
 11
-56.0752662505
 21
-25.8321123511
  0
LINE
  5
49C
100
AcDbEntity
  8
0
100
AcDbLine
 62
253
  6
CONTINUOUS
 10
-56.2376469039
 20
-13.0183466665
 11
-56.2143897998
 21
-15.3664156804
  0
LINE
  5
49D
100
AcDbEntity
  8
SUPERFICI
100
AcDbLine
 62
253
  6
CONTINUOUS
 10
-56.0752662505
 20
-25.8321123511
 11
-56.033056335
 21
-29.9347362217
  0
LINE
  5
49E
100
AcDbEntity
  8
0
100
AcDbLine
 62
253
  6
CONTINUOUS
 10
-56.2574045961
 20
-10.6517506498
 11
-56.2376469039
 21
-13.0183466665
  0
LINE
  5
49F
100
AcDbEntity
  8
0
100
AcDbLine
 62
253
  6
CONTINUOUS
 10
-56.2738244533
 20
-8.2128121957
 11
-56.2574045961
 21
-10.6517506498
  0
LINE
  5
4A0
100
AcDbEntity
  8
0
100
AcDbLine
 62
253
  6
CONTINUOUS
 10
-56.2864176455
 20
-5.7023181999
 11
-56.2738244533
 21
-8.2128121957
  0
LINE
  5
4A1
100
AcDbEntity
  8
0
100
AcDbLine
 62
253
  6
CONTINUOUS
 10
-54.1977741204
 20
-47.4339321939
 11
-54.1973816398
 21
-47.5202513082
  0
LINE
  5
4A2
100
AcDbEntity
  8
0
100
AcDbLine
 62
253
  6
CONTINUOUS
 10
-56.2947665606
 20
-3.0333221165
 11
-56.2864176455
 21
-5.7023181999
  0
LINE
  5
4A3
100
AcDbEntity
  8
0
100
AcDbLine
 62
253
  6
CONTINUOUS
 10
-56.2980085818
 20
-0.1815487758
 11
-56.2947665606
 21
-3.0333221165
  0
LINE
  5
4A4
100
AcDbEntity
  8
0
100
AcDbLine
 62
253
  6
CONTINUOUS
 10
-54.1959609513
 20
-23.626609197
 11
-54.1976268652
 21
-10.604555603
  0
LINE
  5
4A5
100
AcDbEntity
  8
SUPERFICI
100
AcDbLine
 62
253
  6
CONTINUOUS
 10
-54.1970971933
 20
45.843681868
 11
-54.1963397856
 21
23.2644714659
  0
LINE
  5
4A6
100
AcDbEntity
  8
0
100
AcDbLine
 62
253
  6
CONTINUOUS
 10
-54.1965121484
 20
46.480415631
 11
-54.1978129843
 21
47.0265991091
  0
LINE
  5
4A7
100
AcDbEntity
  8
0
100
AcDbLine
 62
253
  6
CONTINUOUS
 10
-54.1976268652
 20
-10.604555603
 11
-54.1963397856
 21
23.2644714659
  0
LINE
  5
4A8
100
AcDbEntity
  8
SUPERFICI
100
AcDbLine
 62
253
  6
CONTINUOUS
 10
-54.1970971933
 20
-46.2058180426
 11
-54.1959609513
 21
-23.626609197
  0
LINE
  5
4A9
100
AcDbEntity
  8
0
100
AcDbLine
 62
253
  6
CONTINUOUS
 10
-54.1970971934
 20
45.8436818582
 11
-54.1965121484
 21
46.480415631
  0
LINE
  5
4AA
100
AcDbEntity
  8
0
100
AcDbLine
 62
253
  6
CONTINUOUS
 10
-56.2980088406
 20
-0.1815487758
 11
-56.2947670096
 21
2.6709724053
  0
LWPOLYLINE
  5
4AB
100
AcDbEntity
  8
0
100
AcDbPolyline
 62
253
  6
CONTINUOUS
 90
3
 70
0
 10
-54.197097192
 20
-46.2058180329
 10
-54.1967061115
 20
-47.0396990044
 10
-54.1973171205
 20
-47.2039274556
  0
LINE
  5
4AC
100
AcDbEntity
  8
0
100
AcDbLine
 62
253
  6
CONTINUOUS
 10
-54.1973171205
 20
-47.2039274556
 11
-54.1977741204
 21
-47.4339321939
  0
LINE
  5
4AD
100
AcDbEntity
  8
0
100
AcDbLine
 62
253
  6
CONTINUOUS
 10
-56.2947670096
 20
2.6709724053
 11
-56.2864173724
 21
5.3402532204
  0
LWPOLYLINE
  5
4AE
100
AcDbEntity
  8
0
100
AcDbPolyline
 62
253
  6
CONTINUOUS
 90
5
 70
0
 10
-54.1978129843
 20
47.0265991091
 10
-54.1975066696
 20
47.1375599514
 10
-54.1973816399
 20
47.1581151336
 10
-54.1972451478
 20
47.1704537567
 10
-54.1970971933
 20
47.1745756176
  0
LINE
  5
4AF
100
AcDbEntity
  8
0
100
AcDbLine
 62
253
  6
CONTINUOUS
 10
-56.2864173724
 20
5.3402532204
 11
-56.2738244533
 21
7.8506760211
  0
LINE
  5
4B0
100
AcDbEntity
  8
0
100
AcDbLine
 62
253
  6
CONTINUOUS
 10
-56.2738244533
 20
7.8506760211
 11
-56.2574045961
 21
10.2896144752
  0
LINE
  5
4B1
100
AcDbEntity
  8
0
100
AcDbLine
 62
253
  6
CONTINUOUS
 10
-56.2574045961
 20
10.2896144752
 11
-56.2376469039
 21
12.6562104919
  0
LINE
  5
4B2
100
AcDbEntity
  8
0
100
AcDbLine
 62
253
  6
CONTINUOUS
 10
-56.2376469039
 20
12.6562104919
 11
-56.2143897998
 21
15.0042795058
  0
LINE
  5
4B3
100
AcDbEntity
  8
0
100
AcDbLine
 62
253
  6
CONTINUOUS
 10
-56.2143897998
 20
15.0042795058
 11
-56.1857810517
 21
17.4974298859
  0
LINE
  5
4B4
100
AcDbEntity
  8
SUPERFICI
100
AcDbLine
 62
253
  6
CONTINUOUS
 10
-56.0884899609
 20
24.3366889268
 11
-56.0393684916
 21
29.0665881415
  0
LINE
  5
4B5
100
AcDbEntity
  8
0
100
AcDbLine
 62
253
  6
CONTINUOUS
 10
-56.1857810517
 20
17.4974298859
 11
-56.1498692551
 21
20.2250706813
  0
LWPOLYLINE
  5
4B6
100
AcDbEntity
  8
SUPERFICI
100
AcDbPolyline
 62
253
  6
CONTINUOUS
 90
3
 70
0
 10
-56.0393684916
 20
29.0665881415
 10
-56.0256895104
 20
30.0961518838
 10
-56.0172223678
 20
30.6279307876
  0
LINE
  5
4B7
100
AcDbEntity
  8
SUPERFICI
100
AcDbLine
 62
253
  6
CONTINUOUS
 10
-56.1045358456
 20
23.2183409315
 11
-56.0884899609
 21
24.3366889268
  0
LINE
  5
4B8
100
AcDbEntity
  8
0
100
AcDbLine
 62
253
  6
CONTINUOUS
 10
-56.1498692551
 20
20.2250706813
 11
-56.1049398951
 21
23.2172994612
  0
LINE
  5
4B9
100
AcDbEntity
  8
SUPERFICI
100
AcDbLine
 62
253
  6
CONTINUOUS
 10
-55.5188129122
 20
-45.1982300005
 11
-55.5189316976
 21
-45.2064426561
  0
LWPOLYLINE
  5
4BA
100
AcDbEntity
  8
SUPERFICI
100
AcDbPolyline
 62
253
  6
CONTINUOUS
 90
10
 70
0
 10
-56.0172223678
 20
30.6279307876
 10
-55.9951312084
 20
31.6832015034
 10
-55.9816022315
 20
32.2065430643
 10
-55.9647423908
 20
32.7466505484
 10
-55.9441302128
 20
33.3136322652
 10
-55.9202253568
 20
33.8950088736
 10
-55.8926182426
 20
34.474320852
 10
-55.8611341058
 20
35.047626006
 10
-55.8258510483
 20
35.6215644375
 10
-55.7620520789
 20
36.5795445273
  0
LINE
  5
4BB
100
AcDbEntity
  8
SUPERFICI
100
AcDbLine
 62
253
  6
CONTINUOUS
 10
-55.6470388078
 20
39.5020732942
 11
-55.5874960387
 21
42.4106519655
  0
LINE
  5
4BC
100
AcDbEntity
  8
SUPERFICI
100
AcDbLine
 62
253
  6
CONTINUOUS
 10
-55.5874960387
 20
42.4106519655
 11
-55.5676312892
 21
43.273436834
  0
LINE
  5
4BD
100
AcDbEntity
  8
SUPERFICI
100
AcDbLine
 62
253
  6
CONTINUOUS
 10
-55.6649656204
 20
38.8094427933
 11
-55.6470388078
 21
39.5020732942
  0
LINE
  5
4BE
100
AcDbEntity
  8
SUPERFICI
100
AcDbLine
 62
253
  6
CONTINUOUS
 10
-55.5676312892
 20
43.273436834
 11
-55.5489556675
 21
43.963537169
  0
LINE
  5
4BF
100
AcDbEntity
  8
RACCORDO
100
AcDbLine
 62
7
  6
CONTINUOUS
 10
-57.975736163
 20
-24.1593534473
 11
-57.9770922302
 21
-24.1791913965
  0
LWPOLYLINE
  5
4C0
100
AcDbEntity
  8
RACCORDO
100
AcDbPolyline
 62
253
  6
CONTINUOUS
 90
5
 70
0
 10
-57.9606593467
 20
-23.8289423507
 10
-57.9617862712
 20
-23.8443163858
 10
-57.9627630446
 20
-23.8603644938
 10
-57.963614372
 20
-23.8765012221
 10
-57.964365271
 20
-23.8922227228
  0
LWPOLYLINE
  5
4C1
100
AcDbEntity
  8
RACCORDO
100
AcDbPolyline
 62
7
  6
CONTINUOUS
 90
5
 70
0
 10
-57.9770922302
 20
-24.1791913965
 10
-57.9784109773
 20
-24.1967271471
 10
-57.9796737805
 20
-24.212001892
 10
-57.9808431673
 20
-24.2248828936
 10
-57.9818995295
 20
-24.2354879275
  0
LWPOLYLINE
  5
4C2
100
AcDbEntity
  8
RACCORDO
100
AcDbPolyline
 62
7
  6
CONTINUOUS
 90
5
 70
0
 10
-57.9818995295
 20
-24.2354879275
 10
-57.9828105926
 20
-24.2438209258
 10
-57.9835015351
 20
-24.2495815294
 10
-57.9839383998
 20
-24.2529083881
 10
-57.9840215942
 20
-24.2535001669
  0
LWPOLYLINE
  5
4C3
100
AcDbEntity
  8
RACCORDO
100
AcDbPolyline
 62
253
  6
CONTINUOUS
 90
3
 70
0
 10
-57.966545129
 20
-23.8561072712
 10
-57.9653134407
 20
-23.846881449
 10
-57.9606024172
 20
-23.8287317618
  0
LWPOLYLINE
  5
4C4
100
AcDbEntity
  8
RACCORDO
100
AcDbPolyline
 62
7
  6
CONTINUOUS
 90
7
 70
0
 10
-57.9829714095
 20
23.8852833937
 10
-57.9837776367
 20
23.889868192
 10
-57.9840698948
 20
23.891693433
 10
-57.9839141674
 20
23.890597054
 10
-57.9834550004
 20
23.8870752989
 10
-57.9827474639
 20
23.8811338302
 10
-57.9818249151
 20
23.8726363847
  0
LWPOLYLINE
  5
4C5
100
AcDbEntity
  8
RACCORDO
100
AcDbPolyline
 62
253
  6
CONTINUOUS
 90
3
 70
0
 10
-57.9665447452
 20
23.4939791952
 10
-57.9652559585
 20
23.4844892538
 10
-57.960601983
 20
23.4666047706
  0
LINE
  5
4C6
100
AcDbEntity
  8
0
100
AcDbLine
 62
253
  6
CONTINUOUS
 10
-55.5189316976
 20
44.8443064815
 11
-55.5911124358
 21
46.1689319264
  0
LINE
  5
4C7
100
AcDbEntity
  8
0
100
AcDbLine
 62
7
  6
CONTINUOUS
 10
-52.5470971933
 20
47.3189319126
 11
-52.5470971933
 21
-47.6810680873
  0
LINE
  5
4C8
100
AcDbEntity
  8
ASSI
100
AcDbLine
 62
7
  6
CONTINUOUS
 10
-52.1970971933
 20
-47.1810680873
 11
-52.1970971933
 21
46.8189319127
  0
LINE
  5
4C9
100
AcDbEntity
  8
DRAFT
100
AcDbLine
 62
7
  6
CONTINUOUS
 10
-51.6970971933
 20
-47.6548641977
 11
-51.6970971933
 21
47.292728023
  0
LINE
  5
4CA
100
AcDbEntity
  8
RACCORDO
100
AcDbLine
 62
253
  6
CONTINUOUS
 10
-50.2709292152
 20
47.2179857264
 11
-50.2709292152
 21
3.5704038062
  0
LINE
  5
4CB
100
AcDbEntity
  8
RACCORDO
100
AcDbLine
 62
253
  6
CONTINUOUS
 10
-50.2709292152
 20
-3.9325399809
 11
-50.2709292152
 21
-47.5801219011
  0
LINE
  5
4CC
100
AcDbEntity
  8
0
100
AcDbLine
 62
253
  6
CONTINUOUS
 10
-55.5189316976
 20
-45.2064426561
 11
-55.5911124358
 21
-46.531068101
  0
LWPOLYLINE
  5
4CD
100
AcDbEntity
  8
RACCORDO
100
AcDbPolyline
 62
253
  6
CONTINUOUS
 90
7
 70
0
 10
-57.9819064741
 20
-24.2355514454
 10
-57.9902763093
 20
-24.2699641663
 10
-58.0000165418
 20
-24.3218833668
 10
-58.0069861796
 20
-24.3742500779
 10
-58.0111656312
 20
-24.4269173943
 10
-58.0125431203
 20
-24.4797374116
 10
-58.0111147474
 20
-24.5325618696
  0
LWPOLYLINE
  5
4CE
100
AcDbEntity
  8
RACCORDO
100
AcDbPolyline
 62
253
  6
CONTINUOUS
 90
9
 70
0
 10
-58.0111141087
 20
-24.5325567363
 10
-58.0044762257
 20
-24.5102411702
 10
-57.9983529092
 20
-24.4823529745
 10
-57.9927433205
 20
-24.4489083319
 10
-57.9876735402
 20
-24.4097479574
 10
-57.9831135218
 20
-24.3650620746
 10
-57.9789775663
 20
-24.3153874283
 10
-57.9752350465
 20
-24.2609089097
 10
-57.9719099693
 20
-24.201462491
  0
LWPOLYLINE
  5
4CF
100
AcDbEntity
  8
RACCORDO
100
AcDbPolyline
 62
7
  6
CONTINUOUS
 90
11
 70
0
 10
-58.000745217
 20
-24.2657338497
 10
-58.0148423812
 20
-24.3088140752
 10
-58.0271467773
 20
-24.3522003804
 10
-58.037690984
 20
-24.3956861036
 10
-58.0465727378
 20
-24.4390292246
 10
-58.053718595
 20
-24.4820756461
 10
-58.0592019992
 20
-24.5245180888
 10
-58.0633410178
 20
-24.5658980218
 10
-58.0662416734
 20
-24.6059208245
 10
-58.0677979435
 20
-24.644420898
 10
-58.0681191106
 20
-24.7089479955
  0
LWPOLYLINE
  5
4D0
100
AcDbEntity
  8
RACCORDO
100
AcDbPolyline
 62
253
  6
CONTINUOUS
 90
11
 70
0
 10
-58.1113881287
 20
-24.0666207004
 10
-58.1158304139
 20
-24.0786853906
 10
-58.1186798803
 20
-24.091223049
 10
-58.1198891813
 20
-24.1040253501
 10
-58.1194382232
 20
-24.116879571
 10
-58.117334499
 20
-24.1295721264
 10
-58.1136129642
 20
-24.141892117
 10
-58.1083354557
 20
-24.153634834
 10
-58.1015896646
 20
-24.1646051609
 10
-58.0934876786
 20
-24.1746208148
 10
-58.0841641203
 20
-24.1835153758
  0
LWPOLYLINE
  5
4D1
100
AcDbEntity
  8
RACCORDO
100
AcDbPolyline
 62
253
  6
CONTINUOUS
 90
4
 70
0
 10
-58.0252032693
 20
-24.2067783576
 10
-58.0245271818
 20
-24.2049438053
 10
-58.0236333593
 20
-24.2026397778
 10
-58.0196802446
 20
-24.1926066029
  0
LINE
  5
4D2
100
AcDbEntity
  8
RACCORDO
100
AcDbLine
 62
7
  6
CONTINUOUS
 10
-57.9871878783
 20
-24.2289907012
 11
-58.000745217
 21
-24.2657338497
  0
LINE
  5
4D3
100
AcDbEntity
  8
RACCORDO
100
AcDbLine
 62
253
  6
CONTINUOUS
 10
-58.0111141087
 20
-24.5325567363
 11
-58.0348036123
 21
-24.5951181456
  0
LINE
  5
4D4
100
AcDbEntity
  8
RACCORDO
100
AcDbLine
 62
253
  6
CONTINUOUS
 10
-58.0234160547
 20
23.8399309943
 11
-58.0244448505
 21
23.8425761654
  0
LINE
  5
4D5
100
AcDbEntity
  8
RACCORDO
100
AcDbLine
 62
253
  6
CONTINUOUS
 10
-58.0111141464
 20
24.1704205583
 11
-58.034891452
 21
24.2332122491
  0
LINE
  5
4D6
100
AcDbEntity
  8
RACCORDO
100
AcDbLine
 62
7
  6
CONTINUOUS
 10
-58.0007582146
 20
23.9036367096
 11
-57.9871871366
 21
23.866854791
  0
LWPOLYLINE
  5
4D7
100
AcDbEntity
  8
RACCORDO
100
AcDbPolyline
 62
253
  6
CONTINUOUS
 90
11
 70
0
 10
-58.1113880741
 20
23.7044845499
 10
-58.115830357
 20
23.7165492363
 10
-58.1186798222
 20
23.7290868905
 10
-58.1198891231
 20
23.7418891871
 10
-58.119438166
 20
23.7547434037
 10
-58.1173344441
 20
23.7674359549
 10
-58.1136129126
 20
23.7797559419
 10
-58.1083354084
 20
23.791498656
 10
-58.1015896223
 20
23.8024689807
 10
-58.0934876421
 20
23.8124846336
 10
-58.0841640901
 20
23.8213791947
  0
LINE
  5
4D8
100
AcDbEntity
  8
RACCORDO
100
AcDbLine
 62
253
  6
CONTINUOUS
 10
-58.0244448505
 20
23.8425761654
 11
-58.02520335
 21
23.8446423324
  0
LWPOLYLINE
  5
4D9
100
AcDbEntity
  8
RACCORDO
100
AcDbPolyline
 62
7
  6
CONTINUOUS
 90
13
 70
0
 10
-58.0781216256
 20
24.5255748818
 10
-58.076524201
 20
24.520142106
 10
-58.0750656903
 20
24.512390746
 10
-58.0737460933
 20
24.5023614142
 10
-58.0725660302
 20
24.4900911252
 10
-58.0715248808
 20
24.4756305628
 10
-58.0706207848
 20
24.459054827
 10
-58.0698553731
 20
24.4404296884
 10
-58.0692270148
 20
24.4198143164
 10
-58.0687289564
 20
24.3972914116
 10
-58.0683589469
 20
24.3729382885
 10
-58.0681192374
 20
24.3468214057
 10
-58.0677956683
 20
24.2822713293
  0
LWPOLYLINE
  5
4DA
100
AcDbEntity
  8
RACCORDO
100
AcDbPolyline
 62
253
  6
CONTINUOUS
 90
19
 70
0
 10
-49.7970971933
 20
45.3889910818
 10
-49.7988751889
 20
45.4310076939
 10
-49.8041965306
 20
45.4727254847
 10
-49.813023373
 20
45.5138477579
 10
-49.82529294
 20
45.5540820527
 10
-49.8409179704
 20
45.5931422234
 10
-49.8597873395
 20
45.6307504749
 10
-49.8817668486
 20
45.666639338
 10
-49.9067001799
 20
45.7005535717
 10
-49.9344100079
 20
45.7322519784
 10
-49.9646992609
 20
45.7615091196
 10
-49.997352522
 20
45.788116919
 10
-50.032137562
 20
45.8118861425
 10
-50.06880699
 20
45.8326477436
 10
-50.1071000138
 20
45.8502540663
 10
-50.1467442942
 20
45.8645798949
 10
-50.1874578817
 20
45.8755233442
 10
-50.228951222
 20
45.8830065846
 10
-50.2709292152
 20
45.8869763955
  0
LINE
  5
4DB
100
AcDbEntity
  8
RACCORDO
100
AcDbLine
 62
7
  6
CONTINUOUS
 10
-49.7970971933
 20
46.718670959
 11
-49.7970971933
 21
3.653953176
  0
LINE
  5
4DC
100
AcDbEntity
  8
RACCORDO
100
AcDbLine
 62
7
  6
CONTINUOUS
 10
-49.7970971933
 20
-4.0160893507
 11
-49.7970971933
 21
-47.0808071337
  0
LINE
  5
4DD
100
AcDbEntity
  8
0
100
AcDbLine
 62
253
  6
CONTINUOUS
 10
-49.2866300021
 20
25.6105583294
 11
-49.2866300021
 21
25.0192060057
  0
LINE
  5
4DE
100
AcDbEntity
  8
0
100
AcDbLine
 62
253
  6
CONTINUOUS
 10
-49.2866300021
 20
-25.3813421804
 11
-49.2866300021
 21
-25.972694504
  0
LINE
  5
4DF
100
AcDbEntity
  8
0
100
AcDbLine
 62
7
  6
CONTINUOUS
 10
-49.0970971933
 20
-25.5810680873
 11
-49.0970971933
 21
-27.3310680873
  0
LINE
  5
4E0
100
AcDbEntity
  8
0
100
AcDbLine
 62
7
  6
CONTINUOUS
 10
-49.0970971933
 20
25.2189319127
 11
-49.0970971933
 21
26.9689319127
  0
LWPOLYLINE
  5
4E1
100
AcDbEntity
  8
RACCORDO
100
AcDbPolyline
 62
253
  6
CONTINUOUS
 90
19
 70
0
 10
-49.7970971933
 20
-45.7511272564
 10
-49.7988751889
 20
-45.7931438688
 10
-49.8041965306
 20
-45.8348616597
 10
-49.8130233732
 20
-45.875983933
 10
-49.8252929402
 20
-45.9162182279
 10
-49.8409179707
 20
-45.9552783987
 10
-49.8597873398
 20
-45.9928866501
 10
-49.8817668489
 20
-46.028775513
 10
-49.90670018
 20
-46.0626897464
 10
-49.9344100078
 20
-46.0943881529
 10
-49.9646992605
 20
-46.1236452939
 10
-49.9973525215
 20
-46.1502530932
 10
-50.0321375612
 20
-46.1740223166
 10
-50.0688069892
 20
-46.1947839178
 10
-50.1071000131
 20
-46.2123902407
 10
-50.1467442936
 20
-46.2267160693
 10
-50.1874578813
 20
-46.2376595187
 10
-50.2289512218
 20
-46.2451427592
 10
-50.2709292152
 20
-46.2491125702
  0
LINE
  5
4E2
100
AcDbEntity
  8
RACCORDO
100
AcDbLine
 62
253
  6
CONTINUOUS
 10
-58.0348036123
 20
-24.5951181456
 11
-58.0541986132
 21
-24.6456130125
  0
LINE
  5
4E3
100
AcDbEntity
  8
RACCORDO
100
AcDbLine
 62
7
  6
CONTINUOUS
 10
-57.9794258298
 20
-24.209002704
 11
-57.9871801936
 21
-24.2289926644
  0
LINE
  5
4E4
100
AcDbEntity
  8
RACCORDO
100
AcDbLine
 62
253
  6
CONTINUOUS
 10
-58.0541986132
 20
-24.6456130125
 11
-58.0680098283
 21
-24.6811501915
  0
LINE
  5
4E5
100
AcDbEntity
  8
RACCORDO
100
AcDbLine
 62
253
  6
CONTINUOUS
 10
-58.0196802446
 20
-24.1926066029
 11
-58.0044684072
 21
-24.1546231119
  0
LWPOLYLINE
  5
4E6
100
AcDbEntity
  8
RACCORDO
100
AcDbPolyline
 62
7
  6
CONTINUOUS
 90
15
 70
0
 10
-58.0781216256
 20
-24.8877110564
 10
-58.1357123797
 20
-25.0302454141
 10
-58.1905315724
 20
-25.1605531552
 10
-58.2425792037
 20
-25.2792835073
 10
-58.2918213577
 20
-25.3866398493
 10
-58.3382919503
 20
-25.4837317871
 10
-58.3820927292
 20
-25.5722627497
 10
-58.4232789768
 20
-25.6525778044
 10
-58.4617954108
 20
-25.7249492459
 10
-58.4975779316
 20
-25.790439504
 10
-58.5307467606
 20
-25.8491031248
 10
-58.5611816764
 20
-25.9010095459
 10
-58.5884579155
 20
-25.9467503357
 10
-58.612804144
 20
-25.9861347723
 10
-58.6509098089
 20
-26.0453524594
  0
LINE
  5
4E7
100
AcDbEntity
  8
RACCORDO
100
AcDbLine
 62
253
  6
CONTINUOUS
 10
-58.0044684072
 20
-24.1546231119
 11
-57.9709841287
 21
-24.0720389441
  0
LINE
  5
4E8
100
AcDbEntity
  8
RACCORDO
100
AcDbLine
 62
253
  6
CONTINUOUS
 10
-58.0777464121
 20
-24.3338710684
 11
-58.0252032901
 21
-24.2067783565
  0
LINE
  5
4E9
100
AcDbEntity
  8
RACCORDO
100
AcDbLine
 62
7
  6
CONTINUOUS
 10
-58.1107115002
 20
-24.0649679274
 11
-58.1087023424
 21
-24.0601730293
  0
LINE
  5
4EA
100
AcDbEntity
  8
RACCORDO
100
AcDbLine
 62
253
  6
CONTINUOUS
 10
-58.1047294593
 20
-24.3978355511
 11
-58.0777464121
 21
-24.3338710684
  0
LINE
  5
4EB
100
AcDbEntity
  8
RACCORDO
100
AcDbLine
 62
7
  6
CONTINUOUS
 10
-58.1087023424
 20
-24.0601730293
 11
-58.1040566902
 21
-24.0492765108
  0
LWPOLYLINE
  5
4EC
100
AcDbEntity
  8
RACCORDO
100
AcDbPolyline
 62
7
  6
CONTINUOUS
 90
5
 70
0
 10
-58.2185512739
 20
-24.3217672752
 10
-58.1910252297
 20
-24.2578883434
 10
-58.1639160533
 20
-24.1938569086
 10
-58.1373494335
 20
-24.1300247923
 10
-58.1107115002
 20
-24.0649679274
  0
LINE
  5
4ED
100
AcDbEntity
  8
RACCORDO
100
AcDbLine
 62
7
  6
CONTINUOUS
 10
-58.1040566902
 20
-24.0492765108
 11
-58.0906364043
 21
-24.018248119
  0
LWPOLYLINE
  5
4EE
100
AcDbEntity
  8
RACCORDO
100
AcDbPolyline
 62
253
  6
CONTINUOUS
 90
3
 70
0
 10
-58.1602071739
 20
-24.5253337029
 10
-58.1322311545
 20
-24.4616978531
 10
-58.1047294593
 20
-24.3978355511
  0
LINE
  5
4EF
100
AcDbEntity
  8
RACCORDO
100
AcDbLine
 62
7
  6
CONTINUOUS
 10
-58.0906364043
 20
-24.018248119
 11
-58.0303006878
 21
-23.8805633906
  0
LINE
  5
4F0
100
AcDbEntity
  8
RACCORDO
100
AcDbLine
 62
7
  6
CONTINUOUS
 10
-58.2464626067
 20
-24.3853747169
 11
-58.2185512739
 21
-24.3217672752
  0
LINE
  5
4F1
100
AcDbEntity
  8
RACCORDO
100
AcDbLine
 62
7
  6
CONTINUOUS
 10
-58.0303006878
 20
-23.8805633906
 11
-57.9714299079
 21
-23.7471557994
  0
LINE
  5
4F2
100
AcDbEntity
  8
RACCORDO
100
AcDbLine
 62
7
  6
CONTINUOUS
 10
-58.2748234008
 20
-24.4487949567
 11
-58.2464626067
 21
-24.3853747169
  0
LINE
  5
4F3
100
AcDbEntity
  8
RACCORDO
100
AcDbLine
 62
7
  6
CONTINUOUS
 10
-58.3035512403
 20
-24.5117787487
 11
-58.2748234008
 21
-24.4487949567
  0
LINE
  5
4F4
100
AcDbEntity
  8
RACCORDO
100
AcDbLine
 62
7
  6
CONTINUOUS
 10
-58.3324958724
 20
-24.5739463934
 11
-58.3035512403
 21
-24.5117787487
  0
LINE
  5
4F5
100
AcDbEntity
  8
0
100
AcDbLine
 62
7
  6
CONTINUOUS
 10
-58.6757570614
 20
-25.2087020215
 11
-57.9733605045
 21
-23.704093972
  0
LINE
  5
4F6
100
AcDbEntity
  8
0
100
AcDbLine
 62
7
  6
CONTINUOUS
 10
-58.0500258138
 20
-23.8681558848
 11
-58.0469726904
 21
-23.8616485446
  0
LINE
  5
4F7
100
AcDbEntity
  8
0
100
AcDbLine
 62
7
  6
CONTINUOUS
 10
-58.0507783673
 20
-23.8697399188
 11
-58.0505346987
 21
-23.8692325864
  0
LWPOLYLINE
  5
4F8
100
AcDbEntity
  8
RACCORDO
100
AcDbPolyline
 62
253
  6
CONTINUOUS
 90
6
 70
0
 10
-58.3045611022
 20
-24.8354908957
 10
-58.2753918054
 20
-24.7753731681
 10
-58.2463110114
 20
-24.7140430962
 10
-58.2172471023
 20
-24.6517843757
 10
-58.1885245458
 20
-24.5887723676
 10
-58.1602071739
 20
-24.5253337029
  0
LWPOLYLINE
  5
4F9
100
AcDbEntity
  8
RACCORDO
100
AcDbPolyline
 62
7
  6
CONTINUOUS
 90
4
 70
0
 10
-58.4197755788
 20
-24.7535886387
 10
-58.3907639928
 20
-24.6951773963
 10
-58.3616078132
 20
-24.6351690994
 10
-58.3324958724
 20
-24.5739463934
  0
LINE
  5
4FA
100
AcDbEntity
  8
RACCORDO
100
AcDbLine
 62
7
  6
CONTINUOUS
 10
-58.4484756356
 20
-24.8101006796
 11
-58.4197755788
 21
-24.7535886387
  0
LWPOLYLINE
  5
4FB
100
AcDbEntity
  8
RACCORDO
100
AcDbPolyline
 62
253
  6
CONTINUOUS
 90
7
 70
0
 10
-58.4701340869
 20
-25.1515266943
 10
-58.4447283248
 20
-25.1057620958
 10
-58.4182462126
 20
-25.0567848932
 10
-58.3905898392
 20
-25.0050262741
 10
-58.3624110293
 20
-24.9506805446
 10
-58.333747284
 20
-24.8940338346
 10
-58.3045611022
 20
-24.8354908957
  0
LWPOLYLINE
  5
4FC
100
AcDbEntity
  8
RACCORDO
100
AcDbPolyline
 62
253
  6
CONTINUOUS
 90
7
 70
0
 10
-58.4978378439
 20
24.8378728868
 10
-58.5226864875
 20
24.8803891344
 10
-58.5451549118
 20
24.9169185787
 10
-58.5633461648
 20
24.9469253695
 10
-58.5766279292
 20
24.9695654576
 10
-58.5856325224
 20
24.9838113963
 10
-58.5903598025
 20
24.9886907755
  0
LINE
  5
4FD
100
AcDbEntity
  8
RACCORDO
100
AcDbLine
 62
7
  6
CONTINUOUS
 10
-58.6757570614
 20
24.8465658468
 11
-57.9734292415
 21
23.3404251198
  0
LWPOLYLINE
  5
4FE
100
AcDbEntity
  8
RACCORDO
100
AcDbPolyline
 62
7
  6
CONTINUOUS
 90
18
 70
0
 10
-58.2354799088
 20
23.9983504328
 10
-58.2671436361
 20
24.0696063932
 10
-58.2999209082
 20
24.1417525542
 10
-58.3330899455
 20
24.2130740518
 10
-58.3663954137
 20
24.2829768585
 10
-58.3996833035
 20
24.3511369942
 10
-58.4326971904
 20
24.4170530706
 10
-58.4651658739
 20
24.4802401429
 10
-58.4968631526
 20
24.5403536964
 10
-58.5273963492
 20
24.5967611931
 10
-58.5563919354
 20
24.6489157726
 10
-58.5835568837
 20
24.6964772874
 10
-58.6084039332
 20
24.7388213131
 10
-58.6303588074
 20
24.7752260508
 10
-58.6488480422
 20
24.8050349441
 10
-58.6631481819
 20
24.8274458601
 10
-58.6724197545
 20
24.8415843113
 10
-58.6757570614
 20
24.8465658468
  0
LINE
  5
4FF
100
AcDbEntity
  8
RACCORDO
100
AcDbLine
 62
7
  6
CONTINUOUS
 10
-57.9714299101
 20
23.3850200784
 11
-58.0762002441
 21
23.623005042
  0
LINE
  5
500
100
AcDbEntity
  8
RACCORDO
100
AcDbLine
 62
7
  6
CONTINUOUS
 10
-58.0762002441
 20
23.623005042
 11
-58.1002636621
 21
23.6783285147
  0
LINE
  5
501
100
AcDbEntity
  8
RACCORDO
100
AcDbLine
 62
7
  6
CONTINUOUS
 10
-58.1002636621
 20
23.6783285147
 11
-58.1067521018
 21
23.6934419223
  0
LWPOLYLINE
  5
502
100
AcDbEntity
  8
RACCORDO
100
AcDbPolyline
 62
253
  6
CONTINUOUS
 90
13
 70
0
 10
-58.0856607801
 20
23.99042337
 10
-58.1167722782
 20
24.0637933635
 10
-58.1485565217
 20
24.1369175331
 10
-58.1809292873
 20
24.2095844792
 10
-58.2136379049
 20
24.2817776599
 10
-58.2468029516
 20
24.3531547276
 10
-58.2803038503
 20
24.423185253
 10
-58.3135261996
 20
24.4914896741
 10
-58.3465594253
 20
24.5575599286
 10
-58.3793141016
 20
24.6209234042
 10
-58.4109075495
 20
24.6811954694
 10
-58.4414518729
 20
24.7377471996
 10
-58.4978378439
 20
24.8378728868
  0
LWPOLYLINE
  5
503
100
AcDbEntity
  8
RACCORDO
100
AcDbPolyline
 62
7
  6
CONTINUOUS
 90
4
 70
0
 10
-58.1067521018
 20
23.6934419223
 10
-58.1095987195
 20
23.7001628356
 10
-58.1106293211
 20
23.7026321439
 10
-58.1411838017
 20
23.7771690374
  0
LWPOLYLINE
  5
504
100
AcDbEntity
  8
RACCORDO
100
AcDbPolyline
 62
7
  6
CONTINUOUS
 90
4
 70
0
 10
-58.1411838017
 20
23.7771690374
 10
-58.171778191
 20
23.8504069977
 10
-58.2030745842
 20
23.9238555488
 10
-58.2354799088
 20
23.9983504328
  0
LINE
  5
505
100
AcDbEntity
  8
RACCORDO
100
AcDbLine
 62
253
  6
CONTINUOUS
 10
-58.02520335
 20
23.8446423324
 11
-58.0856607801
 21
23.99042337
  0
LINE
  5
506
100
AcDbEntity
  8
RACCORDO
100
AcDbLine
 62
253
  6
CONTINUOUS
 10
-57.9709867765
 20
23.7099469465
 11
-58.0112348042
 21
23.8093031707
  0
LINE
  5
507
100
AcDbEntity
  8
RACCORDO
100
AcDbLine
 62
253
  6
CONTINUOUS
 10
-58.0112348042
 20
23.8093031707
 11
-58.0187603258
 21
23.8281385876
  0
LINE
  5
508
100
AcDbEntity
  8
RACCORDO
100
AcDbLine
 62
253
  6
CONTINUOUS
 10
-58.0187603258
 20
23.8281385876
 11
-58.0234160547
 21
23.8399309943
  0
LINE
  5
509
100
AcDbEntity
  8
RACCORDO
100
AcDbLine
 62
7
  6
CONTINUOUS
 10
-57.9871802259
 20
23.8668565564
 11
-57.9794220623
 21
23.8468567974
  0
LINE
  5
50A
100
AcDbEntity
  8
RACCORDO
100
AcDbLine
 62
253
  6
CONTINUOUS
 10
-58.0476552855
 20
24.2665172383
 11
-58.0680098281
 21
24.3190140165
  0
LINE
  5
50B
100
AcDbEntity
  8
RACCORDO
100
AcDbLine
 62
253
  6
CONTINUOUS
 10
-58.034891452
 20
24.2332122491
 11
-58.0476552855
 21
24.2665172383
  0
LWPOLYLINE
  5
50C
100
AcDbEntity
  8
RACCORDO
100
AcDbPolyline
 62
7
  6
CONTINUOUS
 90
4
 70
0
 10
-58.6509098089
 20
-26.0453524594
 10
-58.6631882296
 20
-26.064871302
 10
-58.6711972116
 20
-26.0769370965
 10
-58.6748861828
 20
-26.0810642059
  0
LWPOLYLINE
  5
50D
100
AcDbEntity
  8
RACCORDO
100
AcDbPolyline
 62
7
  6
CONTINUOUS
 90
13
 70
0
 10
-58.6757570614
 20
-25.2087020215
 10
-58.6731679228
 20
-25.2048479709
 10
-58.6659140804
 20
-25.193845503
 10
-58.6546283334
 20
-25.176310881
 10
-58.639903917
 20
-25.1528546995
 10
-58.6222668018
 20
-25.1240554331
 10
-58.6021383955
 20
-25.0903880976
 10
-58.5799272503
 20
-25.0523394028
 10
-58.5559954112
 20
-25.0103483601
 10
-58.530598215
 20
-24.9647176107
 10
-58.5040511216
 20
-24.9158999899
 10
-58.4766308882
 20
-24.8643043144
 10
-58.4484756356
 20
-24.8101006796
  0
LWPOLYLINE
  5
50E
100
AcDbEntity
  8
RACCORDO
100
AcDbPolyline
 62
253
  6
CONTINUOUS
 90
10
 70
0
 10
-57.9487480319
 20
-24.0785506919
 10
-57.9088505825
 20
-24.020255541
 10
-57.8289559579
 20
-23.962844775
 10
-57.7081527949
 20
-23.9062874454
 10
-57.5471161711
 20
-23.850876079
 10
-57.345418216
 20
-23.7963630158
 10
-57.0996772691
 20
-23.7422787091
 10
-56.8085933513
 20
-23.6888261015
 10
-56.4755991931
 20
-23.6352704157
 10
-56.1045358456
 20
-23.5804771061
  0
LWPOLYLINE
  5
50F
100
AcDbEntity
  8
RACCORDO
100
AcDbPolyline
 62
253
  6
CONTINUOUS
 90
8
 70
0
 10
-58.5903599444
 20
-25.3508269427
 10
-58.5867846277
 20
-25.3470404787
 10
-58.5797139261
 20
-25.3359544514
 10
-58.5691478394
 20
-25.318249394
 10
-58.5546278458
 20
-25.2946471272
 10
-58.5366124672
 20
-25.2657426352
 10
-58.5164772692
 20
-25.2319168389
 10
-58.4701340869
 20
-25.1515266943
  0
LINE
  5
510
100
AcDbEntity
  8
RACCORDO
100
AcDbLine
 62
253
  6
CONTINUOUS
 10
-57.9809674307
 20
23.8469551946
 11
-58.02520335
 21
23.8446423324
  0
LWPOLYLINE
  5
511
100
AcDbEntity
  8
SUPERFICI
100
AcDbPolyline
 62
253
  6
CONTINUOUS
 90
7
 70
0
 10
-54.973119062
 20
23.2580961874
 10
-55.2083947458
 20
23.2542132351
 10
-55.4279591441
 20
23.2492337766
 10
-55.6286374441
 20
23.2430972122
 10
-55.8087371929
 20
23.2357603829
 10
-55.967741043
 20
23.2271691183
 10
-56.1049398951
 20
23.2172994612
  0
LWPOLYLINE
  5
512
100
AcDbEntity
  8
SUPERFICI
100
AcDbPolyline
 62
253
  6
CONTINUOUS
 90
3
 70
0
 10
-54.1970971933
 20
23.2644683594
 10
-54.4652395201
 20
23.2630723141
 10
-54.973119062
 20
23.2580961874
  0
LWPOLYLINE
  5
513
100
AcDbEntity
  8
RACCORDO
100
AcDbPolyline
 62
7
  6
CONTINUOUS
 90
5
 70
0
 10
-58.6748863837
 20
25.7189280313
 10
-58.6712155198
 20
25.7148144032
 10
-58.6632266158
 20
25.7027814686
 10
-58.650970043
 20
25.6833072737
 10
-58.6129188097
 20
25.6241824902
  0
LWPOLYLINE
  5
514
100
AcDbEntity
  8
RACCORDO
100
AcDbPolyline
 62
253
  6
CONTINUOUS
 90
10
 70
0
 10
-57.9487480319
 20
23.7164145173
 10
-57.9088505825
 20
23.6581193663
 10
-57.8289559579
 20
23.6007086003
 10
-57.7081527949
 20
23.5441512708
 10
-57.5471161711
 20
23.4887399044
 10
-57.345418216
 20
23.4342268411
 10
-57.0996772691
 20
23.3801425345
 10
-56.8085933513
 20
23.3266899268
 10
-56.4755991931
 20
23.273134241
 10
-56.1045358456
 20
23.2183409315
  0
LWPOLYLINE
  5
515
100
AcDbEntity
  8
RACCORDO
100
AcDbPolyline
 62
7
  6
CONTINUOUS
 90
14
 70
0
 10
-58.6129188097
 20
25.6241824902
 10
-58.5885943125
 20
25.5848381319
 10
-58.5613309837
 20
25.5391282471
 10
-58.5309026088
 20
25.4872392158
 10
-58.4977331663
 20
25.4285819759
 10
-58.4619414051
 20
25.3630848347
 10
-58.4234085763
 20
25.2906909297
 10
-58.3822024123
 20
25.2103440667
 10
-58.3383765731
 20
25.1217700376
 10
-58.2918773986
 20
25.0246245707
 10
-58.2426116414
 20
24.9172193851
 10
-58.1905482189
 20
24.7984531017
 10
-58.1357182136
 20
24.6681203377
 10
-58.0781216256
 20
24.5255748818
  0
LINE
  5
516
100
AcDbEntity
  8
DRAFT
100
AcDbLine
 62
7
  6
CONTINUOUS
 10
-58.2827885937
 20
25.0048098996
 11
-58.5903594508
 21
24.988690794
  0
LINE
  5
517
100
AcDbEntity
  8
0
100
AcDbLine
 62
7
  6
CONTINUOUS
 10
-49.2866300021
 20
25.6105583294
 11
-49.7970971933
 21
25.5880058249
  0
LINE
  5
518
100
AcDbEntity
  8
0
100
AcDbLine
 62
7
  6
CONTINUOUS
 10
-49.6470971933
 20
24.8689319127
 11
-49.4470971933
 21
24.8689319127
  0
LINE
  5
519
100
AcDbEntity
  8
0
100
AcDbLine
 62
7
  6
CONTINUOUS
 10
-49.2970971933
 20
25.0189319127
 11
-49.7970971933
 21
25.0189319127
  0
LINE
  5
51A
100
AcDbEntity
  8
0
100
AcDbLine
 62
253
  6
CONTINUOUS
 10
-49.0970971933
 20
26.7465776262
 11
-49.7970971933
 21
26.7468938336
  0
LINE
  5
51B
100
AcDbEntity
  8
0
100
AcDbLine
 62
7
  6
CONTINUOUS
 10
-49.0970971933
 20
26.9689319127
 11
-49.7970971933
 21
26.9701536444
  0
LINE
  5
51C
100
AcDbEntity
  8
0
100
AcDbLine
 62
7
  6
CONTINUOUS
 10
-49.0970971933
 20
26.1689319127
 11
-49.7970971933
 21
26.1730043935
  0
LINE
  5
51D
100
AcDbEntity
  8
RACCORDO
100
AcDbLine
 62
7
  6
CONTINUOUS
 10
-58.6749366392
 20
25.7189319127
 11
-58.6748863837
 21
25.7189280313
  0
LINE
  5
51E
100
AcDbEntity
  8
0
100
AcDbLine
 62
7
  6
CONTINUOUS
 10
-49.7970971933
 20
-25.3810680873
 11
-49.6470971933
 21
-25.2310680873
  0
LINE
  5
51F
100
AcDbEntity
  8
0
100
AcDbLine
 62
7
  6
CONTINUOUS
 10
-49.7970971933
 20
25.0189319127
 11
-49.6470971933
 21
24.8689319127
  0
LWPOLYLINE
  5
520
100
AcDbEntity
  8
RACCORDO
100
AcDbPolyline
 62
253
  6
CONTINUOUS
 90
18
 70
0
 10
-49.7970971933
 20
-36.599683092
 10
-49.7988751889
 20
-36.6027553241
 10
-49.8041965306
 20
-36.6058057066
 10
-49.8130233732
 20
-36.6088125451
 10
-49.8252929401
 20
-36.6117544551
 10
-49.8409179707
 20
-36.6146105138
 10
-49.8597873398
 20
-36.6173604089
 10
-49.8817668488
 20
-36.6199845833
 10
-49.90670018
 20
-36.6224643738
 10
-49.9344100078
 20
-36.6247821443
 10
-49.9646992605
 20
-36.6269214107
 10
-49.9973525215
 20
-36.6288669587
 10
-50.0321375612
 20
-36.6306049515
 10
-50.0688069892
 20
-36.6321230286
 10
-50.1071000131
 20
-36.6334103935
 10
-50.1467442936
 20
-36.6344578904
 10
-50.1874578812
 20
-36.6352580695
 10
-50.2289512218
 20
-36.63580524
  0
LWPOLYLINE
  5
521
100
AcDbEntity
  8
RACCORDO
100
AcDbPolyline
 62
253
  6
CONTINUOUS
 90
19
 70
0
 10
-49.7970971933
 20
36.2375469174
 10
-49.7988751889
 20
36.2406191495
 10
-49.8041965306
 20
36.2436695319
 10
-49.8130233732
 20
36.2466763705
 10
-49.8252929402
 20
36.2496182805
 10
-49.8409179707
 20
36.2524743392
 10
-49.8597873398
 20
36.2552242343
 10
-49.8817668489
 20
36.2578484087
 10
-49.90670018
 20
36.2603281992
 10
-49.9344100078
 20
36.2626459696
 10
-49.9646992605
 20
36.264785236
 10
-49.9973525215
 20
36.266730784
 10
-50.0321375612
 20
36.2684687769
 10
-50.0688069892
 20
36.269986854
 10
-50.1071000131
 20
36.2712742188
 10
-50.1467442936
 20
36.2723217157
 10
-50.1874578813
 20
36.2731218949
 10
-50.2289512218
 20
36.2736690654
 10
-51.6970971933
 20
36.2794099012
  0
LWPOLYLINE
  5
522
100
AcDbEntity
  8
SUPERFICI
100
AcDbPolyline
 62
253
  6
CONTINUOUS
 90
7
 70
0
 10
-54.891187577
 20
36.2676467721
 10
-55.0975336139
 20
36.2645015052
 10
-55.2852314684
 20
36.2587559529
 10
-55.4498988862
 20
36.2497015001
 10
-55.5890892152
 20
36.236781192
 10
-55.701749422
 20
36.2194913327
 10
-55.7867217198
 20
36.1974573178
  0
LINE
  5
523
100
AcDbEntity
  8
0
100
AcDbLine
 62
253
  6
CONTINUOUS
 10
-52.5470971933
 20
36.2813208098
 11
-54.1970969656
 21
36.2707936608
  0
LINE
  5
524
100
AcDbEntity
  8
RACCORDO
100
AcDbLine
 62
253
  6
CONTINUOUS
 10
-52.1970971933
 20
36.084423914
 11
-52.5470971933
 21
36.0830806682
  0
LINE
  5
525
100
AcDbEntity
  8
SUPERFICI
100
AcDbLine
 62
253
  6
CONTINUOUS
 10
-54.1970971933
 20
36.2707934994
 11
-54.891187577
 21
36.2676467721
  0
LINE
  5
526
100
AcDbEntity
  8
ASSI
100
AcDbLine
 62
253
  6
CONTINUOUS
 10
-52.1970971933
 20
36.2448584251
 11
-51.6970971933
 21
36.2448584251
  0
LWPOLYLINE
  5
527
100
AcDbEntity
  8
SUPERFICI
100
AcDbPolyline
 62
253
  6
CONTINUOUS
 90
10
 70
0
 10
-54.1970971933
 20
45.8017018083
 10
-54.4139426718
 20
45.7705207835
 10
-54.6216715826
 20
45.7160831287
 10
-54.8162152411
 20
45.6396741357
 10
-54.9943441192
 20
45.5422334227
 10
-55.1520988195
 20
45.4251568882
 10
-55.2853424065
 20
45.2908932029
 10
-55.3917325347
 20
45.1415644628
 10
-55.4701254904
 20
44.9783727426
 10
-55.5193862406
 20
44.8028209451
  0
LWPOLYLINE
  5
528
100
AcDbEntity
  8
SUPERFICI
100
AcDbPolyline
 62
253
  6
CONTINUOUS
 90
10
 70
0
 10
-54.1970971933
 20
45.843778433
 10
-54.4138869498
 20
45.8128293937
 10
-54.6215170596
 20
45.758429056
 10
-54.8159383642
 20
45.6819193919
 10
-54.9939400276
 20
45.5842922893
 10
-55.1515830927
 20
45.4669926063
 10
-55.2847513238
 20
45.3325149681
 10
-55.3911193971
 20
45.183021161
 10
-55.4695583837
 20
45.0197468487
 10
-55.5189474186
 20
44.8442238161
  0
LINE
  5
529
100
AcDbEntity
  8
0
100
AcDbLine
 62
253
  6
CONTINUOUS
 10
-52.5470971933
 20
45.9876537965
 11
-54.1970971934
 21
45.8436818582
  0
LINE
  5
52A
100
AcDbEntity
  8
DRAFT
100
AcDbLine
 62
7
  6
CONTINUOUS
 10
-52.1970971933
 20
44.6189319127
 11
-52.5470971933
 21
44.6005891899
  0
LINE
  5
52B
100
AcDbEntity
  8
RACCORDO
100
AcDbLine
 62
253
  6
CONTINUOUS
 10
-52.1970971933
 20
43.2948427087
 11
-52.5470971933
 21
43.2765488439
  0
LWPOLYLINE
  5
52C
100
AcDbEntity
  8
0
100
AcDbPolyline
 62
7
  6
CONTINUOUS
 90
22
 70
0
 10
-54.1970971933
 20
47.1745756177
 10
-54.3100887537
 20
47.1616123813
 10
-54.4195705524
 20
47.1430564804
 10
-54.5250915812
 20
47.1193276974
 10
-54.6262761598
 20
47.0908335739
 10
-54.722806811
 20
47.0579729733
 10
-54.8144210541
 20
47.0211383066
 10
-54.900858989
 20
46.980742549
 10
-54.9820585587
 20
46.9371257449
 10
-55.0581154426
 20
46.8905266218
 10
-55.1289287808
 20
46.8412908383
 10
-55.1945178696
 20
46.7897030737
 10
-55.2551538856
 20
46.7358211172
 10
-55.3108199606
 20
46.6799119456
 10
-55.3615666629
 20
46.62219909
 10
-55.4077034205
 20
46.5625671534
 10
-55.4492378755
 20
46.5012054047
 10
-55.4862116217
 20
46.438278445
 10
-55.5188781071
 20
46.3735219363
 10
-55.547285802
 20
46.3069002808
 10
-55.5713597703
 20
46.2386663169
 10
-55.5911124398
 20
46.1689319154
  0
LINE
  5
52D
100
AcDbEntity
  8
SUPERFICI
100
AcDbLine
 62
7
  6
CONTINUOUS
 10
-54.1970971933
 20
47.1745756176
 11
-52.5470971933
 21
47.3189319126
  0
LINE
  5
52E
100
AcDbEntity
  8
ASSI
100
AcDbLine
 62
253
  6
CONTINUOUS
 10
-52.1970971933
 20
45.488985085
 11
-51.6970971933
 21
45.488985085
  0
LINE
  5
52F
100
AcDbEntity
  8
ASSI
100
AcDbLine
 62
7
  6
CONTINUOUS
 10
-51.6970971933
 20
46.8189319127
 11
-52.1970971933
 21
46.8189319127
  0
LINE
  5
530
100
AcDbEntity
  8
RACCORDO
100
AcDbLine
 62
253
  6
CONTINUOUS
 10
-50.2709292152
 20
45.8869763955
 11
-51.6970971933
 21
45.9615196866
  0
LINE
  5
531
100
AcDbEntity
  8
DRAFT
100
AcDbLine
 62
7
  6
CONTINUOUS
 10
-50.2709292152
 20
47.2179857264
 11
-51.6970971933
 21
47.292728023
  0
ARC
  5
532
100
AcDbEntity
  8
0
100
AcDbCircle
 62
7
  6
CONTINUOUS
 10
-25.7400779024
 20
-35.8777468213
 40
10.5
100
AcDbArc
 50
184.1819940524
 51
265.8180055327
  0
ARC
  5
533
100
AcDbEntity
  8
0
100
AcDbCircle
 62
253
  6
CONTINUOUS
 10
-25.7400779024
 20
-35.8777468213
 40
10.355643705
100
AcDbArc
 50
184.1819942288
 51
263.3573143657
  0
ARC
  5
534
100
AcDbEntity
  8
RACCORDO
100
AcDbCircle
 62
253
  6
CONTINUOUS
 10
-24.1793904756
 20
-22.8106871744
 40
2.0744822834
100
AcDbArc
 50
212.8622832587
 51
266.0726712916
  0
ARC
  5
535
100
AcDbEntity
  8
RACCORDO
100
AcDbCircle
 62
7
  6
CONTINUOUS
 10
-24.4573028203
 20
-23.2915297989
 40
1.6
100
AcDbArc
 50
182.6577184667
 51
266.0406468302
  0
ARC
  5
536
100
AcDbEntity
  8
RACCORDO
100
AcDbCircle
 62
253
  6
CONTINUOUS
 10
-24.1793904756
 20
-22.8106871744
 40
1.575167516
100
AcDbArc
 50
182.6023827825
 51
266.0726712916
  0
ARC
  5
537
100
AcDbEntity
  8
0
100
AcDbCircle
 62
7
  6
CONTINUOUS
 10
-442.543399197
 20
-0.1810680853
 40
500.000000032
100
AcDbArc
 50
355.8180057424
 51
4.1819942376
  0
ARC
  5
538
100
AcDbEntity
  8
RACCORDO
100
AcDbCircle
 62
7
  6
CONTINUOUS
 10
-453.4933991684
 20
-0.1810680873
 40
500.0
100
AcDbArc
 50
357.3422815333
 51
2.6577184667
  0
ARC
  5
539
100
AcDbEntity
  8
RACCORDO
100
AcDbCircle
 62
253
  6
CONTINUOUS
 10
-453.7933991684
 20
-0.1810680873
 40
499.975167516
100
AcDbArc
 50
357.3976172175
 51
2.6023827825
  0
ARC
  5
53A
100
AcDbEntity
  8
SUPERFICI
100
AcDbCircle
 62
253
  6
CONTINUOUS
 10
-442.5433991517
 20
-0.1810680884
 40
499.8556436882
100
AcDbArc
 50
2.6884228598
 51
4.1819942287
  0
ARC
  5
53B
100
AcDbEntity
  8
SUPERFICI
100
AcDbCircle
 62
253
  6
CONTINUOUS
 10
-442.5433991517
 20
-0.1810680884
 40
499.8556436882
100
AcDbArc
 50
355.8180057713
 51
357.3115771402
  0
ARC
  5
53C
100
AcDbEntity
  8
0
100
AcDbCircle
 62
253
  6
CONTINUOUS
 10
-442.5433991517
 20
-0.1810680884
 40
499.8556142877
100
AcDbArc
 50
357.3115771402
 51
2.6884228598
  0
ARC
  5
53D
100
AcDbEntity
  8
0
100
AcDbCircle
 62
7
  6
CONTINUOUS
 10
-25.7400779023
 20
35.5156106463
 40
10.5000000004
100
AcDbArc
 50
94.1819944797
 51
175.8180061972
  0
ARC
  5
53E
100
AcDbEntity
  8
SUPERFICI
100
AcDbCircle
 62
253
  6
CONTINUOUS
 10
-25.7400779025
 20
35.5156106465
 40
10.3556437251
100
AcDbArc
 50
96.6442968036
 51
175.8180057712
  0
ARC
  5
53F
100
AcDbEntity
  8
RACCORDO
100
AcDbCircle
 62
253
  6
CONTINUOUS
 10
-24.1793904756
 20
22.4485509998
 40
2.0744822834
100
AcDbArc
 50
93.9273287084
 51
147.1379598482
  0
ARC
  5
540
100
AcDbEntity
  8
RACCORDO
100
AcDbCircle
 62
7
  6
CONTINUOUS
 10
-24.4573028203
 20
22.9293936243
 40
1.6
100
AcDbArc
 50
93.9593531698
 51
177.3422815333
  0
ARC
  5
541
100
AcDbEntity
  8
RACCORDO
100
AcDbCircle
 62
253
  6
CONTINUOUS
 10
-24.1793904756
 20
22.4485509998
 40
1.575167516
100
AcDbArc
 50
93.9273287084
 51
177.3976172175
  0
ARC
  5
542
100
AcDbEntity
  8
RACCORDO
100
AcDbCircle
 62
253
  6
CONTINUOUS
 10
9.9566008316
 20
-474.7810680873
 40
500.4744822834
100
AcDbArc
 50
86.0726712916
 51
93.9273287084
  0
ARC
  5
543
100
AcDbEntity
  8
RACCORDO
100
AcDbCircle
 62
7
  6
CONTINUOUS
 10
9.9566008316
 20
-474.2810680873
 40
500.0
100
AcDbArc
 50
86.0406468302
 51
93.9593531698
  0
ARC
  5
544
100
AcDbEntity
  8
0
100
AcDbCircle
 62
7
  6
CONTINUOUS
 10
9.9566008317
 20
-452.6810680851
 40
499.9999999978
100
AcDbArc
 50
85.8180057479
 51
94.1819942524
  0
ARC
  5
545
100
AcDbEntity
  8
RACCORDO
100
AcDbCircle
 62
253
  6
CONTINUOUS
 10
9.9566008316
 20
-474.7810680873
 40
499.975167516
100
AcDbArc
 50
86.0726712916
 51
93.9273287084
  0
ARC
  5
546
100
AcDbEntity
  8
0
100
AcDbCircle
 62
253
  6
CONTINUOUS
 10
9.9566008317
 20
-452.6810680848
 40
499.8556361719
100
AcDbArc
 50
85.8180057361
 51
94.1819942639
  0
ARC
  5
547
100
AcDbEntity
  8
0
100
AcDbCircle
 62
7
  6
CONTINUOUS
 10
45.6532795655
 20
-35.8777468209
 40
10.5000000004
100
AcDbArc
 50
274.1819944797
 51
355.818005268
  0
ARC
  5
548
100
AcDbEntity
  8
SUPERFICI
100
AcDbCircle
 62
253
  6
CONTINUOUS
 10
45.6532795657
 20
-35.8777468212
 40
10.3556437251
100
AcDbArc
 50
276.6442968036
 51
355.8180057712
  0
ARC
  5
549
100
AcDbEntity
  8
RACCORDO
100
AcDbCircle
 62
253
  6
CONTINUOUS
 10
44.0925921388
 20
-22.8106871744
 40
2.0744822834
100
AcDbArc
 50
273.9273287084
 51
327.1379296243
  0
ARC
  5
54A
100
AcDbEntity
  8
RACCORDO
100
AcDbCircle
 62
7
  6
CONTINUOUS
 10
44.3705044835
 20
-23.2915297989
 40
1.6
100
AcDbArc
 50
273.9593531698
 51
357.3422815333
  0
ARC
  5
54B
100
AcDbEntity
  8
RACCORDO
100
AcDbCircle
 62
253
  6
CONTINUOUS
 10
44.0925921388
 20
-22.8106871744
 40
1.575167516
100
AcDbArc
 50
273.9273287084
 51
357.3976172175
  0
ARC
  5
54C
100
AcDbEntity
  8
RACCORDO
100
AcDbCircle
 62
253
  6
CONTINUOUS
 10
9.9566008316
 20
474.4189319127
 40
500.4744822834
100
AcDbArc
 50
266.0726712916
 51
273.9273287084
  0
ARC
  5
54D
100
AcDbEntity
  8
0
100
AcDbCircle
 62
7
  6
CONTINUOUS
 10
462.4566008602
 20
-0.1810680853
 40
500.000000032
100
AcDbArc
 50
175.8180057624
 51
184.1819942434
  0
ARC
  5
54E
100
AcDbEntity
  8
RACCORDO
100
AcDbCircle
 62
7
  6
CONTINUOUS
 10
473.4066008316
 20
-0.1810680873
 40
500.0
100
AcDbArc
 50
177.3422815333
 51
182.6577184667
  0
ARC
  5
54F
100
AcDbEntity
  8
RACCORDO
100
AcDbCircle
 62
7
  6
CONTINUOUS
 10
9.9566008316
 20
473.9189319127
 40
500.0
100
AcDbArc
 50
266.0406468302
 51
273.9593531698
  0
ARC
  5
550
100
AcDbEntity
  8
0
100
AcDbCircle
 62
7
  6
CONTINUOUS
 10
9.9566008315
 20
452.3189319105
 40
499.9999999978
100
AcDbArc
 50
265.8180057479
 51
274.1819942524
  0
ARC
  5
551
100
AcDbEntity
  8
RACCORDO
100
AcDbCircle
 62
253
  6
CONTINUOUS
 10
473.7066008316
 20
-0.1810680873
 40
499.975167516
100
AcDbArc
 50
177.3976172175
 51
182.6023827825
  0
ARC
  5
552
100
AcDbEntity
  8
RACCORDO
100
AcDbCircle
 62
253
  6
CONTINUOUS
 10
9.9566008316
 20
474.4189319127
 40
499.975167516
100
AcDbArc
 50
266.0726712916
 51
273.9273287084
  0
ARC
  5
553
100
AcDbEntity
  8
0
100
AcDbCircle
 62
253
  6
CONTINUOUS
 10
462.4566008149
 20
-0.1810680884
 40
499.8556436882
100
AcDbArc
 50
177.3115771402
 51
184.1819942287
  0
ARC
  5
554
100
AcDbEntity
  8
SUPERFICI
100
AcDbCircle
 62
253
  6
CONTINUOUS
 10
462.4566008149
 20
-0.1810680884
 40
499.8556436882
100
AcDbArc
 50
175.8180057713
 51
177.3115771402
  0
ARC
  5
555
100
AcDbEntity
  8
0
100
AcDbCircle
 62
253
  6
CONTINUOUS
 10
9.9566008315
 20
452.3189319102
 40
499.8556361719
100
AcDbArc
 50
265.8180057361
 51
274.1819942639
  0
ARC
  5
556
100
AcDbEntity
  8
0
100
AcDbCircle
 62
7
  6
CONTINUOUS
 10
45.6532795655
 20
35.5156106463
 40
10.5000000004
100
AcDbArc
 50
4.1819938028
 51
85.8180055326
  0
ARC
  5
557
100
AcDbEntity
  8
SUPERFICI
100
AcDbCircle
 62
253
  6
CONTINUOUS
 10
45.6532795657
 20
35.5156106465
 40
10.3556437251
100
AcDbArc
 50
4.1819942288
 51
83.3557031964
  0
ARC
  5
558
100
AcDbEntity
  8
RACCORDO
100
AcDbCircle
 62
253
  6
CONTINUOUS
 10
44.0925921388
 20
22.4485509998
 40
2.0744822834
100
AcDbArc
 50
32.862308279
 51
86.0726712916
  0
ARC
  5
559
100
AcDbEntity
  8
RACCORDO
100
AcDbCircle
 62
7
  6
CONTINUOUS
 10
44.3705044835
 20
22.9293936243
 40
1.6
100
AcDbArc
 50
2.6577184667
 51
86.0406468302
  0
ARC
  5
55A
100
AcDbEntity
  8
RACCORDO
100
AcDbCircle
 62
253
  6
CONTINUOUS
 10
44.0925921388
 20
22.4485509998
 40
1.575167516
100
AcDbArc
 50
2.6023827825
 51
86.0726712916
  0
ARC
  5
55B
100
AcDbEntity
  8
RACCORDO
100
AcDbCircle
 62
7
  6
CONTINUOUS
 10
-50.2970971933
 20
46.718670959
 40
0.5
100
AcDbArc
 50
0.0
 51
87.0
  0
ARC
  5
55C
100
AcDbEntity
  8
RACCORDO
100
AcDbCircle
 62
7
  6
CONTINUOUS
 10
-50.2970971933
 20
-47.0808071337
 40
0.5
100
AcDbArc
 50
273.0
 51
360.0
  0
ARC
  5
55D
100
AcDbEntity
  8
0
100
AcDbCircle
 62
7
  6
CONTINUOUS
 10
-49.2970971933
 20
25.2189319127
 40
0.2
100
AcDbArc
 50
270.0
 51
360.0
  0
ARC
  5
55E
100
AcDbEntity
  8
0
100
AcDbCircle
 62
7
  6
CONTINUOUS
 10
-49.2970971933
 20
-25.5810680873
 40
0.2
100
AcDbArc
 50
0.0
 51
90.0
  0
ARC
  5
55F
100
AcDbEntity
  8
RACCORDO
100
AcDbCircle
 62
7
  6
CONTINUOUS
 10
-58.5851263568
 20
-25.2509639877
 40
0.0999999999
100
AcDbArc
 50
154.9999093265
 51
267.0000046343
  0
ARC
  5
560
100
AcDbEntity
  8
RACCORDO
100
AcDbCircle
 62
7
  6
CONTINUOUS
 10
-58.5851263568
 20
24.8888278131
 40
0.0999999999
100
AcDbArc
 50
92.9999953657
 51
205.0000906735
  0
ELLIPSE
  5
561
100
AcDbEntity
  8
RACCORDO
100
AcDbEllipse
 62
7
  6
CONTINUOUS
 10
43.205777424
 20
21.7181085051
 30
0.0
 11
-0.4254277461
 21
-0.4254277461
 31
0.0
 40
0.9972646886
 41
2.3575640181
 42
3.9256212891
  0
ELLIPSE
  5
562
100
AcDbEntity
  8
RACCORDO
100
AcDbEllipse
 62
7
  6
CONTINUOUS
 10
-23.2925757608
 20
21.7181085051
 30
0.0
 11
0.4254277461
 21
-0.4254277461
 31
0.0
 40
0.9972646886
 41
2.3575640181
 42
3.9256212891
  0
ELLIPSE
  5
563
100
AcDbEntity
  8
RACCORDO
100
AcDbEllipse
 62
7
  6
CONTINUOUS
 10
-23.2925757608
 20
-22.0802446797
 30
0.0
 11
0.4254277461
 21
0.4254277461
 31
0.0
 40
0.9972646886
 41
2.3575640181
 42
3.9256212891
  0
ELLIPSE
  5
564
100
AcDbEntity
  8
RACCORDO
100
AcDbEllipse
 62
7
  6
CONTINUOUS
 10
43.205777424
 20
-22.0802446797
 30
0.0
 11
-0.4254277461
 21
0.4254277461
 31
0.0
 40
0.9972646886
 41
2.3575640181
 42
3.9256212891
  0
ELLIPSE
  5
565
100
AcDbEntity
  8
0
100
AcDbEllipse
 62
7
  6
CONTINUOUS
 10
-49.2970971933
 20
-26.1725065314
 30
0.0
 11
0.1417119467
 21
0.1422961243
 31
0.0
 40
0.9918061237
 41
-0.7833412615
 42
0.7350951877
  0
ELLIPSE
  5
566
100
AcDbEntity
  8
0
100
AcDbEllipse
 62
7
  6
CONTINUOUS
 10
-49.2970971933
 20
25.8103703568
 30
0.0
 11
-0.1417119467
 21
0.1422961243
 31
0.0
 40
0.9918061237
 41
-3.8766878413
 42
-2.358251392
  0
ENDSEC
  0
SECTION
  2
OBJECTS
  0
DICTIONARY
  5
C
100
AcDbDictionary
280
0
281
1
  3
ACAD_GROUP
350
D
  3
ACAD_MLINESTYLE
350
17
  3
ACAD_LAYOUT
350
1A
  3
ACAD_PLOTSETTINGS
350
19
  3
ACAD_PLOTSTYLENAME
350
E
  0
DICTIONARY
  5
D
102
{ACAD_REACTORS
330
C
102
}
100
AcDbDictionary
280
0
281
1
  0
ACDBDICTIONARYWDFLT
  5
E
102
{ACAD_REACTORS
330
C
102
}
100
AcDbDictionary
281
1
  3
Normal
350
F
100
AcDbDictionaryWithDefault
340
F
  0
DICTIONARY
  5
17
102
{ACAD_REACTORS
330
C
102
}
100
AcDbDictionary
280
0
281
1
  3
Standard
350
18
  0
DICTIONARY
  5
19
102
{ACAD_REACTORS
330
C
102
}
100
AcDbDictionary
281
1
  0
DICTIONARY
  5
1A
102
{ACAD_REACTORS
330
C
102
}
100
AcDbDictionary
281
1
  3
Model
350
567
  3
Layout1
350
568
  0
ACDBPLACEHOLDER
  5
F
102
{ACAD_REACTORS
330
E
102
}
  0
MLINESTYLE
  5
18
102
{ACAD_REACTORS
330
17
102
}
100
AcDbMlineStyle
  2
STANDARD
 70
0
  3

 62
256
 51
90.0
 52
90.0
 71
2
 49
0.5
 62
256
  6
BYLAYER
 49
-0.5
 62
256
  6
BYLAYER
  0
LAYOUT
  5
567
102
{ACAD_REACTORS
330
1A
102
}
100
AcDbPlotSettings
  1

  2
none_device
  4
ISO_A4_(297.00_x_210.00_MM)
  6

 40
0.0
 41
0.0
 42
0.0
 43
0.0
 44
297.0
 45
210.0
 46
0.0
 47
0.0
 48
0.0
 49
0.0
140
0.0
141
0.0
142
1.0
143
1.0
 70
1024
 72
1
 73
0
 74
0
  7

 75
0
147
1.0
148
0.0
149
0.0
100
AcDbLayout
  1
Model
 70
0
 71
0
 10
0.0
 20
0.0
 11
297.0
 21
210.0
 12
0.0
 22
0.0
 32
0.0
 14
0.0
 24
0.0
 34
0.0
 15
0.0
 25
0.0
 35
0.0
146
0.0
 13
0.0
 23
0.0
 33
0.0
 16
1.0
 26
0.0
 36
0.0
 17
0.0
 27
1.0
 37
0.0
 76
0
330
218
345
0
346
0
  0
LAYOUT
  5
568
102
{ACAD_REACTORS
330
1A
102
}
100
AcDbPlotSettings
  1

  2
none_device
  4
ISO_A4_(297.00_x_210.00_MM)
  6

 40
0.0
 41
0.0
 42
0.0
 43
0.0
 44
297.0
 45
210.0
 46
0.0
 47
0.0
 48
0.0
 49
0.0
140
0.0
141
0.0
142
1.0
143
1.0
 70
0
 72
1
 73
0
 74
0
  7

 75
0
147
1.0
148
0.0
149
0.0
100
AcDbLayout
  1
Layout1
 70
0
 71
1
 10
0.0
 20
0.0
 11
297.0
 21
210.0
 12
0.0
 22
0.0
 32
0.0
 14
0.0
 24
0.0
 34
0.0
 15
0.0
 25
0.0
 35
0.0
146
0.0
 13
0.0
 23
0.0
 33
0.0
 16
1.0
 26
0.0
 36
0.0
 17
0.0
 27
1.0
 37
0.0
 76
0
330
219
345
0
346
0
  0
ENDSEC
  0
EOF
