  0
SECTION
  2
HEADER
  9
$ACADVER
  1
AC1015
  9
$DWGCODEPAGE
  3
ANSI_1252
  9
$EXTMAX
 10
297.0
 20
210.0
 30
0.0
  9
$EXTMIN
 10
0.0
 20
0.0
 30
0.0
  9
$LIMMIN
 10
0.0
 20
0.0
  9
$LIMMAX
 10
297.0
 20
210.0
  9
$VIEWCTR
 10
148.5
 20
105.0
  9
$VIEWSIZE
 40
210.0
  9
$CLAYER
  8
0
  9
$LTSCALE
 40
16.335
  9
$CELTYPE
  6
BYLAYER
  9
$DIMSCALE
 40
1.0
  9
$DIMASZ
 40
3.0
  9
$DIMEXO
 40
0.5
  9
$DIMDLI
 40
11.286
  9
$DIMEXE
 40
1.5
  9
$DIMCEN
 40
2.673
  9
$DIMLFAC
 40
1.0
  9
$DIMBLK
  1
_FILLED
  9
$DIMTXT
 40
3.0
  9
$DIMTOL
 70
1
  9
$DIMLIM
 70
0
  9
$DIMTFAC
 40
1.0
  9
$DIMTP
 40
0.01
  9
$DIMTM
 40
0.01
  9
$DIMGAP
 40
0.625
  9
$DIMDSEP
 70
44
  9
$PDMODE
 70
3
  9
$PDSIZE
 40
3.0
  9
$HANDSEED
  5
674
  9
$TILEMODE
 70
1
  9
$MEASUREMENT
 70
1
  9
$INSUNITS
 70
4
  0
ENDSEC
  0
SECTION
  2
CLASSES
  0
CLASS
  1
ACDBDICTIONARYWDFLT
  2
AcDbDictionaryWithDefault
  3
AutoCAD 2000
 90
0
280
0
281
0
  0
CLASS
  1
ACDBPLACEHOLDER
  2
AcDbPlaceHolder
  3
AutoCAD 2000
 90
0
280
0
281
0
  0
CLASS
  1
LAYOUT
  2
AcDbLayout
  3
AutoCAD 2000
 90
0
280
0
281
0
  0
ENDSEC
  0
SECTION
  2
TABLES
  0
TABLE
  2
VPORT
  5
8
100
AcDbSymbolTable
 70
2
  0
VPORT
  5
1F4
100
AcDbSymbolTableRecord
100
AcDbViewportTableRecord
  2
*ACTIVE
 70
0
 10
0.0
 20
0.0
 11
1.0
 21
1.0
 12
148.5
 22
105.0
 13
0.0
 23
0.0
 14
1.0
 24
1.0
 15
0.0
 25
0.0
 16
0.0
 26
0.0
 36
1.0
 17
0.0
 27
0.0
 37
0.0
 40
210.0
 41
1.4142857143
 42
50.0
 43
0.0
 44
0.0
 50
0.0
 51
0.0
 71
0
 72
100
 73
1
 74
1
 75
0
 76
0
 77
0
 78
0
  0
ENDTAB
  0
TABLE
  2
LTYPE
  5
5
100
AcDbSymbolTable
 70
6
  0
LTYPE
  5
14
100
AcDbSymbolTableRecord
100
AcDbLinetypeTableRecord
  2
BYBLOCK
 70
0
  3

 72
65
 73
0
 40
0.0
  0
LTYPE
  5
15
100
AcDbSymbolTableRecord
100
AcDbLinetypeTableRecord
  2
BYLAYER
 70
0
  3

 72
65
 73
0
 40
0.0
  0
LTYPE
  5
16
100
AcDbSymbolTableRecord
100
AcDbLinetypeTableRecord
  2
CONTINUOUS
 70
64
  3
Solid line
 72
65
 73
0
 40
0.0
  0
LTYPE
  5
1F5
100
AcDbSymbolTableRecord
100
AcDbLinetypeTableRecord
  2
CENTER
 70
64
  3
____ _ ____ _ ____ _ ____ _ ____ _ ____ _ ____
 72
65
 73
4
 40
0.6
 49
0.375
 74
0
 49
-0.075
 74
0
 49
0.075
 74
0
 49
-0.075
 74
0
  0
LTYPE
  5
1F6
100
AcDbSymbolTableRecord
100
AcDbLinetypeTableRecord
  2
HIDDEN
 70
64
  3
- - - - - - - - - - - - - - - - - - - -
 72
65
 73
2
 40
0.2
 49
0.1
 74
0
 49
-0.1
 74
0
  0
LTYPE
  5
1F7
100
AcDbSymbolTableRecord
100
AcDbLinetypeTableRecord
  2
PHANTOM
 70
64
  3
_____ _ _ _____ _ _ _____ _ _ _____
 72
65
 73
6
 40
0.8
 49
0.45
 74
0
 49
-0.05
 74
0
 49
0.1
 74
0
 49
-0.05
 74
0
 49
0.1
 74
0
 49
-0.05
 74
0
  0
LTYPE
  5
1F8
100
AcDbSymbolTableRecord
100
AcDbLinetypeTableRecord
  2
DOT
 70
64
  3
. . . . . . . . . . . . . . . . . . . .
 72
65
 73
2
 40
0.2
 49
0.1
 74
0
 49
-0.1
 74
0
  0
LTYPE
  5
1F9
100
AcDbSymbolTableRecord
100
AcDbLinetypeTableRecord
  2
DASHED
 70
64
  3
- - - - - - - - - - - - - - - - - - - -
 72
65
 73
2
 40
0.2
 49
0.1
 74
0
 49
-0.1
 74
0
  0
ENDTAB
  0
TABLE
  2
LAYER
  5
2
100
AcDbSymbolTable
 70
36
  0
LAYER
  5
10
100
AcDbSymbolTableRecord
100
AcDbLayerTableRecord
  2
0
 70
0
 62
7
  6
CONTINUOUS
370
-3
390
F
  0
LAYER
  5
1FA
100
AcDbSymbolTableRecord
100
AcDbLayerTableRecord
  2
DEFAULT_1
 70
0
 62
7
  6
CENTER
370
-3
390
F
  0
LAYER
  5
1FB
100
AcDbSymbolTableRecord
100
AcDbLayerTableRecord
  2
DEFAULT_2
 70
0
 62
7
  6
HIDDEN
370
-3
390
F
  0
LAYER
  5
1FC
100
AcDbSymbolTableRecord
100
AcDbLayerTableRecord
  2
DEFAULT_3
 70
0
 62
7
  6
PHANTOM
370
-3
390
F
  0
LAYER
  5
1FD
100
AcDbSymbolTableRecord
100
AcDbLayerTableRecord
  2
ASSI
 70
0
 62
7
  6
CONTINUOUS
370
-3
390
F
  0
LAYER
  5
1FE
100
AcDbSymbolTableRecord
100
AcDbLayerTableRecord
  2
COLOR15
 70
0
 62
7
  6
CONTINUOUS
370
-3
390
F
  0
LAYER
  5
1FF
100
AcDbSymbolTableRecord
100
AcDbLayerTableRecord
  2
COORDINATE
 70
0
 62
7
  6
CONTINUOUS
370
-3
390
F
  0
LAYER
  5
200
100
AcDbSymbolTableRecord
100
AcDbLayerTableRecord
  2
COPY_PUBLISH
 70
0
 62
7
  6
CONTINUOUS
370
-3
390
F
  0
LAYER
  5
201
100
AcDbSymbolTableRecord
100
AcDbLayerTableRecord
  2
COSMETIC
 70
0
 62
7
  6
CONTINUOUS
370
-3
390
F
  0
LAYER
  5
202
100
AcDbSymbolTableRecord
100
AcDbLayerTableRecord
  2
CRV_ROUND_OLD
 70
0
 62
7
  6
CONTINUOUS
370
-3
390
F
  0
LAYER
  5
203
100
AcDbSymbolTableRecord
100
AcDbLayerTableRecord
  2
CURVE
 70
0
 62
7
  6
CONTINUOUS
370
-3
390
F
  0
LAYER
  5
204
100
AcDbSymbolTableRecord
100
AcDbLayerTableRecord
  2
DRAFT
 70
0
 62
7
  6
CONTINUOUS
370
-3
390
F
  0
LAYER
  5
205
100
AcDbSymbolTableRecord
100
AcDbLayerTableRecord
  2
IMPORT_IGES
 70
0
 62
7
  6
CONTINUOUS
370
-3
390
F
  0
LAYER
  5
206
100
AcDbSymbolTableRecord
100
AcDbLayerTableRecord
  2
INTF_1
 70
0
 62
7
  6
CONTINUOUS
370
-3
390
F
  0
LAYER
  5
207
100
AcDbSymbolTableRecord
100
AcDbLayerTableRecord
  2
INTF_CYAN
 70
0
 62
7
  6
CONTINUOUS
370
-3
390
F
  0
LAYER
  5
208
100
AcDbSymbolTableRecord
100
AcDbLayerTableRecord
  2
PELLE_ESTERNA
 70
0
 62
7
  6
CONTINUOUS
370
-3
390
F
  0
LAYER
  5
209
100
AcDbSymbolTableRecord
100
AcDbLayerTableRecord
  2
PELLE_INTERNA
 70
0
 62
7
  6
CONTINUOUS
370
-3
390
F
  0
LAYER
  5
20A
100
AcDbSymbolTableRecord
100
AcDbLayerTableRecord
  2
PIANI
 70
0
 62
7
  6
CONTINUOUS
370
-3
390
F
  0
LAYER
  5
20B
100
AcDbSymbolTableRecord
100
AcDbLayerTableRecord
  2
PUNTI
 70
0
 62
7
  6
CONTINUOUS
370
-3
390
F
  0
LAYER
  5
20C
100
AcDbSymbolTableRecord
100
AcDbLayerTableRecord
  2
PUNZ_REFER
 70
0
 62
7
  6
CONTINUOUS
370
-3
390
F
  0
LAYER
  5
20D
100
AcDbSymbolTableRecord
100
AcDbLayerTableRecord
  2
RACCORDO
 70
0
 62
7
  6
CONTINUOUS
370
-3
390
F
  0
LAYER
  5
20E
100
AcDbSymbolTableRecord
100
AcDbLayerTableRecord
  2
SHELL
 70
0
 62
7
  6
CONTINUOUS
370
-3
390
F
  0
LAYER
  5
20F
100
AcDbSymbolTableRecord
100
AcDbLayerTableRecord
  2
SMUSSO
 70
0
 62
7
  6
CONTINUOUS
370
-3
390
F
  0
LAYER
  5
210
100
AcDbSymbolTableRecord
100
AcDbLayerTableRecord
  2
SNAPLINE
 70
0
 62
7
  6
CONTINUOUS
370
-3
390
F
  0
LAYER
  5
211
100
AcDbSymbolTableRecord
100
AcDbLayerTableRecord
  2
SOLIDI
 70
0
 62
7
  6
CONTINUOUS
370
-3
390
F
  0
LAYER
  5
212
100
AcDbSymbolTableRecord
100
AcDbLayerTableRecord
  2
SRF_COSTRUZIONE
 70
0
 62
7
  6
CONTINUOUS
370
-3
390
F
  0
LAYER
  5
213
100
AcDbSymbolTableRecord
100
AcDbLayerTableRecord
  2
SUPERFICI
 70
0
 62
7
  6
CONTINUOUS
370
-3
390
F
  0
LAYER
  5
214
100
AcDbSymbolTableRecord
100
AcDbLayerTableRecord
  2
SUP_TAGLIO_COSTOLE
 70
0
 62
7
  6
CONTINUOUS
370
-3
390
F
  0
LAYER
  5
215
100
AcDbSymbolTableRecord
100
AcDbLayerTableRecord
  2
TRASH
 70
0
 62
7
  6
CONTINUOUS
370
-3
390
F
  0
LAYER
  5
216
100
AcDbSymbolTableRecord
100
AcDbLayerTableRecord
  2
XSEC_DATUMS
 70
0
 62
7
  6
CONTINUOUS
370
-3
390
F
  0
ENDTAB
  0
TABLE
  2
STYLE
  5
3
100
AcDbSymbolTable
 70
1
  0
STYLE
  5
11
100
AcDbSymbolTableRecord
100
AcDbTextStyleTableRecord
  2
STANDARD
 70
0
 40
0.0
 41
0.8
 50
0.0
 71
0
 42
0.2
  3
txt
  4

  0
STYLE
  5
217
100
AcDbSymbolTableRecord
100
AcDbTextStyleTableRecord
  2
TEXTSTYLE_1
 70
0
 40
0.0
 41
0.8
 50
0.0
 71
0
 42
0.2
  3
gdt
  4

  0
ENDTAB
  0
TABLE
  2
VIEW
  5
6
100
AcDbSymbolTable
 70
0
  0
ENDTAB
  0
TABLE
  2
UCS
  5
7
100
AcDbSymbolTable
 70
0
  0
ENDTAB
  0
TABLE
  2
APPID
  5
9
100
AcDbSymbolTable
 70
1
  0
APPID
  5
218
100
AcDbSymbolTableRecord
100
AcDbRegAppTableRecord
  2
ACAD
 70
0
  0
ENDTAB
  0
TABLE
  2
BLOCK_RECORD
  5
1
100
AcDbSymbolTable
 70
0
  0
BLOCK_RECORD
  5
219
100
AcDbSymbolTableRecord
100
AcDbBlockTableRecord
  2
*Model_Space
  0
BLOCK_RECORD
  5
21A
100
AcDbSymbolTableRecord
100
AcDbBlockTableRecord
  2
*Paper_Space
  0
BLOCK_RECORD
  5
21B
100
AcDbSymbolTableRecord
100
AcDbBlockTableRecord
  2
_FILLED
  0
BLOCK_RECORD
  5
21C
100
AcDbSymbolTableRecord
100
AcDbBlockTableRecord
  2
*D0
  0
BLOCK_RECORD
  5
21D
100
AcDbSymbolTableRecord
100
AcDbBlockTableRecord
  2
*D1
  0
BLOCK_RECORD
  5
21E
100
AcDbSymbolTableRecord
100
AcDbBlockTableRecord
  2
*D2
  0
ENDTAB
  0
TABLE
  2
DIMSTYLE
  5
A
100
AcDbSymbolTable
 70
1
100
AcDbDimStyleTable
 71
0
  0
DIMSTYLE
105
21F
100
AcDbSymbolTableRecord
100
AcDbDimStyleTableRecord
  2
STANDARD
 70
0
  3

  4

 40
1.0
 41
3.0
 42
0.5
 43
0.38
 44
1.5
 45
0.0
 46
0.0
 47
0.01
 48
0.01
140
3.0
141
0.09
142
0.0
143
25.4
144
1.0
145
0.0
146
1.0
147
0.625
 71
1.0
 72
0.0
 73
0
 74
0
 75
0
 76
0
 77
1
 78
8
170
0
171
2
172
0
173
0
174
0
175
0
176
0
177
0
178
0
270
2
271
2
272
2
273
2
274
2
275
0
280
0
281
0
282
0
283
1
284
8
285
0
286
0
287
3
288
0
340
11
278
44
341
21B
342
21B
343
21B
344
21B
  0
DIMSTYLE
105
220
100
AcDbSymbolTableRecord
100
AcDbDimStyleTableRecord
  2
DIMSTYLE_1
 70
0
  3

  4

 40
1.0
 41
3.0
 42
0.5
 43
0.38
 44
1.5
 45
0.0
 46
0.0
 47
0.0
 48
0.0
140
3.0
141
0.09
142
0.0
143
25.4
144
1.0
145
0.0
146
1.0
147
0.75
 71
0.0
 72
0.0
 73
0
 74
0
 75
0
 76
0
 77
1
 78
8
170
0
171
2
172
0
173
0
174
0
175
0
176
0
177
0
178
0
270
2
271
2
272
2
273
2
274
2
275
0
280
0
281
0
282
0
283
1
284
8
285
0
286
0
287
3
288
0
340
11
278
44
341
21B
342
21B
343
21B
344
21B
  0
DIMSTYLE
105
221
100
AcDbSymbolTableRecord
100
AcDbDimStyleTableRecord
  2
DIMSTYLE_2
 70
0
  3

  4

 40
1.0
 41
3.0
 42
0.5
 43
0.38
 44
1.5
 45
0.0
 46
0.0
 47
0.0
 48
0.0
140
3.0
141
0.09
142
0.0
143
25.4
144
1.0
145
0.0
146
1.0
147
0.75
 71
0.0
 72
0.0
 73
0
 74
0
 75
0
 76
0
 77
1
 78
8
170
0
171
2
172
0
173
0
174
0
175
0
176
0
177
0
178
0
270
2
271
1
272
1
273
2
274
2
275
0
280
0
281
0
282
0
283
1
284
8
285
0
286
0
287
3
288
0
340
11
278
44
341
21B
342
21B
343
21B
344
21B
  0
ENDTAB
  0
ENDSEC
  0
SECTION
  2
BLOCKS
  0
BLOCK
  5
20
100
AcDbEntity
  8
0
100
AcDbBlockBegin
  2
*Model_Space
 70
0
 10
0.0
 20
0.0
 30
0.0
  3
*Model_Space
  1

  0
ENDBLK
  5
21
100
AcDbEntity
  8
0
100
AcDbBlockEnd
  0
BLOCK
  5
1C
100
AcDbEntity
  8
0
100
AcDbBlockBegin
  2
*Paper_Space
 70
0
 10
0.0
 20
0.0
 30
0.0
  3
*Paper_Space
  1

  0
ENDBLK
  5
1D
100
AcDbEntity
  8
0
100
AcDbBlockEnd
  0
BLOCK
  5
222
100
AcDbEntity
  8
0
100
AcDbBlockBegin
  2
_FILLED
 70
64
 10
0.0
 20
0.0
  3
_FILLED
  1

  0
SOLID
  5
223
100
AcDbEntity
  8
0
  6
BYBLOCK
 62
0
100
AcDbTrace
 10
0.0
 20
0.0
 11
-1.0
 21
0.3166666667
 12
-1.0
 22
-0.3166666667
 13
-1.0
 23
-0.3166666667
  0
ENDBLK
  5
224
100
AcDbEntity
  8
0
  6
BYBLOCK
 62
0
100
AcDbBlockEnd
  0
BLOCK
  5
225
100
AcDbEntity
  8
0
100
AcDbBlockBegin
 62
7
  6
CONTINUOUS
  2
*D0
 70
65
 10
0.0
 20
0.0
  3
*D0
  1

  0
MTEXT
  5
226
100
AcDbEntity
  8
0
100
AcDbMText
 62
7
  6
CONTINUOUS
  7
STANDARD
 71
2
 72
1
 10
11.0740324584
 20
59.0343057108
 30
0.0
 11
1.0
 21
0.0
 31
0.0
 44
0.9
  1
155
 40
3.0
 41
6.0
  0
LINE
  5
227
100
AcDbEntity
  8
0
100
AcDbLine
 62
7
  6
CONTINUOUS
 10
88.5740324586
 20
0.2843057106
 11
88.5740324586
 21
56.7843057108
  0
LINE
  5
228
100
AcDbEntity
  8
0
100
AcDbLine
 62
7
  6
CONTINUOUS
 10
-66.4259675417
 20
0.2843057106
 11
-66.4259675417
 21
56.7843057108
  0
LINE
  5
229
100
AcDbEntity
  8
0
100
AcDbLine
 62
7
  6
CONTINUOUS
 10
88.5740324586
 20
55.2843057108
 11
11.0740324584
 21
55.2843057108
  0
LINE
  5
22A
100
AcDbEntity
  8
0
100
AcDbLine
 62
7
  6
CONTINUOUS
 10
-66.4259675417
 20
55.2843057108
 11
11.0740324584
 21
55.2843057108
  0
INSERT
  5
22B
100
AcDbEntity
  8
0
100
AcDbBlockReference
 62
7
  6
CONTINUOUS
  2
_FILLED
 10
88.5740324586
 20
55.2843057108
 41
3.0
 42
3.0
 43
3.0
  0
INSERT
  5
22C
100
AcDbEntity
  8
0
100
AcDbBlockReference
 62
7
  6
CONTINUOUS
  2
_FILLED
 10
-66.4259675417
 20
55.2843057108
 41
3.0
 42
3.0
 43
3.0
 50
180.0
  0
ENDBLK
  5
22D
100
AcDbEntity
  8
0
  6
BYBLOCK
 62
0
100
AcDbBlockEnd
  0
BLOCK
  5
22E
100
AcDbEntity
  8
0
100
AcDbBlockBegin
 62
7
  6
CONTINUOUS
  2
*D1
 70
65
 10
0.0
 20
0.0
  3
*D1
  1

  0
MTEXT
  5
22F
100
AcDbEntity
  8
0
100
AcDbMText
 62
7
  6
CONTINUOUS
  7
STANDARD
 71
2
 72
1
 10
92.8240324584
 20
-0.2156942892
 30
0.0
 11
0.0
 21
1.0
 31
0.0
 44
0.9
  1
95
 40
3.0
 41
4.5
  0
LINE
  5
230
100
AcDbEntity
  8
0
100
AcDbLine
 62
7
  6
CONTINUOUS
 10
11.5740324581
 20
47.2843057103
 11
98.0740324584
 21
47.2843057103
  0
LINE
  5
231
100
AcDbEntity
  8
0
100
AcDbLine
 62
7
  6
CONTINUOUS
 10
11.5740324581
 20
-47.7156942888
 11
98.0740324584
 21
-47.7156942888
  0
LINE
  5
232
100
AcDbEntity
  8
0
100
AcDbLine
 62
7
  6
CONTINUOUS
 10
96.5740324584
 20
47.2843057103
 11
96.5740324584
 21
-0.2156942892
  0
LINE
  5
233
100
AcDbEntity
  8
0
100
AcDbLine
 62
7
  6
CONTINUOUS
 10
96.5740324584
 20
-47.7156942888
 11
96.5740324584
 21
-0.2156942892
  0
INSERT
  5
234
100
AcDbEntity
  8
0
100
AcDbBlockReference
 62
7
  6
CONTINUOUS
  2
_FILLED
 10
96.5740324584
 20
47.2843057103
 41
3.0
 42
3.0
 43
3.0
 50
90.0
  0
INSERT
  5
235
100
AcDbEntity
  8
0
100
AcDbBlockReference
 62
7
  6
CONTINUOUS
  2
_FILLED
 10
96.5740324584
 20
-47.7156942888
 41
3.0
 42
3.0
 43
3.0
 50
270.0
  0
ENDBLK
  5
236
100
AcDbEntity
  8
0
  6
BYBLOCK
 62
0
100
AcDbBlockEnd
  0
BLOCK
  5
237
100
AcDbEntity
  8
0
100
AcDbBlockBegin
 62
7
  6
CONTINUOUS
  2
*D2
 70
65
 10
0.0
 20
0.0
  3
*D2
  1

  0
MTEXT
  5
238
100
AcDbEntity
  8
0
100
AcDbMText
 62
7
  6
CONTINUOUS
  7
STANDARD
 71
2
 72
1
 10
-84.5611799365
 20
59.0343057108
 30
0.0
 11
1.0
 21
0.0
 31
0.0
 44
0.9
  1
9
 40
3.0
 41
2.3571428571
  0
LINE
  5
239
100
AcDbEntity
  8
0
100
AcDbLine
 62
7
  6
CONTINUOUS
 10
-80.0683604665
 20
47.6073188638
 11
-80.0683604665
 21
56.7843057108
  0
LINE
  5
23A
100
AcDbEntity
  8
0
100
AcDbLine
 62
7
  6
CONTINUOUS
 10
-89.0539994065
 20
25.6544619823
 11
-89.0539994065
 21
56.7843057108
  0
LINE
  5
23B
100
AcDbEntity
  8
0
100
AcDbLine
 62
7
  6
CONTINUOUS
 10
-80.0683604665
 20
55.2843057108
 11
-84.5611799365
 21
55.2843057108
  0
LINE
  5
23C
100
AcDbEntity
  8
0
100
AcDbLine
 62
7
  6
CONTINUOUS
 10
-89.0539994065
 20
55.2843057108
 11
-84.5611799365
 21
55.2843057108
  0
INSERT
  5
23D
100
AcDbEntity
  8
0
100
AcDbBlockReference
 62
7
  6
CONTINUOUS
  2
_FILLED
 10
-80.0683604665
 20
55.2843057108
 41
3.0
 42
3.0
 43
3.0
  0
INSERT
  5
23E
100
AcDbEntity
  8
0
100
AcDbBlockReference
 62
7
  6
CONTINUOUS
  2
_FILLED
 10
-89.0539994065
 20
55.2843057108
 41
3.0
 42
3.0
 43
3.0
 50
180.0
  0
ENDBLK
  5
23F
100
AcDbEntity
  8
0
  6
BYBLOCK
 62
0
100
AcDbBlockEnd
  0
ENDSEC
  0
SECTION
  2
ENTITIES
  0
DIMENSION
  5
240
100
AcDbEntity
  8
0
100
AcDbDimension
 62
7
  6
CONTINUOUS
  2
*D0
 10
-66.4259675417
 20
55.2843057108
 11
11.0740324584
 21
55.2843057108
 70
160
 71
2
 42
155.0000000003
  3
DIMSTYLE_1
100
AcDbAlignedDimension
 13
88.5740324586
 23
-0.2156942894
 14
-66.4259675417
 24
-0.2156942894
 50
180.0
100
AcDbRotatedDimension
  0
DIMENSION
  5
241
100
AcDbEntity
  8
0
100
AcDbDimension
 62
7
  6
CONTINUOUS
  2
*D1
 10
96.5740324584
 20
-47.7156942888
 11
96.5740324584
 21
-0.2156942892
 70
160
 71
2
 42
94.9999999991
  3
DIMSTYLE_1
100
AcDbAlignedDimension
 13
11.0740324581
 23
47.2843057103
 14
11.0740324581
 24
-47.7156942888
 50
270.0
100
AcDbRotatedDimension
  0
DIMENSION
  5
242
100
AcDbEntity
  8
0
100
AcDbDimension
 62
7
  6
CONTINUOUS
  2
*D2
 10
-89.0539994065
 20
55.2843057108
 11
-84.5611799365
 21
55.2843057108
 70
160
 71
2
 42
8.98563894
  3
DIMSTYLE_2
100
AcDbAlignedDimension
 13
-80.0683604665
 23
47.1073188638
 14
-89.0539994065
 24
25.1544619823
 50
180.0
100
AcDbRotatedDimension
  0
LWPOLYLINE
  5
243
100
AcDbEntity
  8
SUPERFICI
100
AcDbPolyline
 62
253
  6
CONTINUOUS
 90
34
 70
0
 10
-63.9688595348
 20
-36.3043592712
 10
-63.9350436816
 20
-36.6645827873
 10
-63.8857368181
 20
-37.0371641147
 10
-63.8196121917
 20
-37.4203268489
 10
-63.733582692
 20
-37.8143209378
 10
-63.6273236437
 20
-38.2147787019
 10
-63.5039143248
 20
-38.613611804
 10
-63.3615801706
 20
-39.0084965349
 10
-63.1988627482
 20
-39.3989297736
 10
-63.0204232462
 20
-39.781091299
 10
-62.8259858484
 20
-40.1536894247
 10
-62.6135108218
 20
-40.5167014417
 10
-62.3861167386
 20
-40.8694109916
 10
-62.1432888929
 20
-41.2121948356
 10
-61.8838562593
 20
-41.5440565049
 10
-61.6108450994
 20
-41.8630555499
 10
-61.32445609
 20
-42.1695353549
 10
-61.0236635645
 20
-42.4633145527
 10
-60.7105027005
 20
-42.7424031811
 10
-60.3853370452
 20
-43.0074936174
 10
-60.047704792
 20
-43.2585927904
 10
-59.6991171866
 20
-43.4932890488
 10
-59.3401644127
 20
-43.7126048852
 10
-58.9709182945
 20
-43.9167786495
 10
-58.5928005239
 20
-44.1028161196
 10
-58.2071610355
 20
-44.2717693731
 10
-57.814168291
 20
-44.4244533694
 10
-57.4140375493
 20
-44.5580081875
 10
-57.0072564664
 20
-44.6736293188
 10
-56.5952864082
 20
-44.772205762
 10
-56.1803548049
 20
-44.8508220801
 10
-55.7643048722
 20
-44.909400876
 10
-55.3481938959
 20
-44.9503975896
 10
-54.9334163091
 20
-44.9748441662
  0
LWPOLYLINE
  5
244
100
AcDbEntity
  8
SUPERFICI
100
AcDbPolyline
 62
253
  6
CONTINUOUS
 90
34
 70
0
 10
-63.9688595348
 20
35.8729706927
 10
-63.9350436816
 20
36.2331942088
 10
-63.8857368181
 20
36.6057755362
 10
-63.8196121917
 20
36.9889382704
 10
-63.733582692
 20
37.3829323593
 10
-63.6273236437
 20
37.7833901234
 10
-63.5039143248
 20
38.1822232255
 10
-63.3615801706
 20
38.5771079564
 10
-63.1988627482
 20
38.9675411951
 10
-63.0204232462
 20
39.3497027205
 10
-62.8259858484
 20
39.7223008462
 10
-62.6135108218
 20
40.0853128632
 10
-62.3861167386
 20
40.4380224131
 10
-62.1432888929
 20
40.7808062571
 10
-61.8838562593
 20
41.1126679264
 10
-61.6108450994
 20
41.4316669714
 10
-61.32445609
 20
41.7381467764
 10
-61.0236635645
 20
42.0319259742
 10
-60.7105027005
 20
42.3110146026
 10
-60.3853370452
 20
42.5761050389
 10
-60.047704792
 20
42.8272042119
 10
-59.6991171866
 20
43.0619004703
 10
-59.3401644127
 20
43.2812163067
 10
-58.9709182945
 20
43.485390071
 10
-58.5928005239
 20
43.6714275411
 10
-58.2071610355
 20
43.8403807946
 10
-57.814168291
 20
43.993064791
 10
-57.4140375493
 20
44.1266196091
 10
-57.0072564664
 20
44.2422407404
 10
-56.5952864082
 20
44.3408171835
 10
-56.1803548049
 20
44.4194335016
 10
-55.7643048722
 20
44.4780122975
 10
-55.3481938959
 20
44.5190090111
 10
-54.9334163091
 20
44.5434555878
  0
LWPOLYLINE
  5
245
100
AcDbEntity
  8
SUPERFICI
100
AcDbPolyline
 62
253
  6
CONTINUOUS
 90
8
 70
0
 10
-63.9688538216
 20
-36.3043565563
 10
-64.0625536448
 20
-34.9996769743
 10
-64.1536514834
 20
-33.6646295576
 10
-64.242779039
 20
-32.3017888611
 10
-64.3303328949
 20
-30.9107190239
 10
-64.4162501861
 20
-29.4922841416
 10
-64.4996746796
 20
-28.0499736134
 10
-64.5788040829
 20
-26.5844583238
  0
LINE
  5
246
100
AcDbEntity
  8
SUPERFICI
100
AcDbLine
 62
253
  6
CONTINUOUS
 10
-64.5788040829
 20
-26.5844583238
 11
-64.7283018034
 21
-23.5845476303
  0
LWPOLYLINE
  5
247
100
AcDbEntity
  8
0
100
AcDbPolyline
 62
253
  6
CONTINUOUS
 90
10
 70
0
 10
-64.7282965438
 20
-23.5845448431
 10
-64.8434074637
 20
-20.9857341929
 10
-64.9449096842
 20
-18.3885287672
 10
-65.0328220758
 20
-15.7925718227
 10
-65.1071564569
 20
-13.1977775586
 10
-65.1679415969
 20
-10.6035178869
 10
-65.2152090671
 20
-8.0086229321
 10
-65.248967874
 20
-5.4124644322
 10
-65.2692186078
 20
-2.8149552388
 10
-65.2759675413
 20
-0.2157364358
  0
LWPOLYLINE
  5
248
100
AcDbEntity
  8
0
100
AcDbPolyline
 62
253
  6
CONTINUOUS
 90
10
 70
0
 10
-64.7282965438
 20
23.1531562646
 10
-64.8434074637
 20
20.5543456144
 10
-64.9449096842
 20
17.9571401887
 10
-65.0328220758
 20
15.3611832442
 10
-65.1071563757
 20
12.7663921007
 10
-65.167941467
 20
10.1721355484
 10
-65.2152090671
 20
7.5772343536
 10
-65.2489680687
 20
4.9810571331
 10
-65.269218851
 20
2.383519848
 10
-65.2759675413
 20
-0.2157364358
  0
LWPOLYLINE
  5
249
100
AcDbEntity
  8
SUPERFICI
100
AcDbPolyline
 62
253
  6
CONTINUOUS
 90
9
 70
0
 10
-63.9688538216
 20
35.8729679778
 10
-64.0625536448
 20
34.5682883958
 10
-64.1536514834
 20
33.2332409792
 10
-64.242779039
 20
31.8704002827
 10
-64.3303328949
 20
30.4793304454
 10
-64.4162501861
 20
29.0608955632
 10
-64.4996746796
 20
27.6185850349
 10
-64.5788040829
 20
26.1530697453
 10
-64.7283018034
 20
23.1531590519
  0
LWPOLYLINE
  5
24A
100
AcDbEntity
  8
SUPERFICI
100
AcDbPolyline
 62
253
  6
CONTINUOUS
 90
10
 70
0
 10
-53.2327603762
 20
-45.0557620687
 10
-53.3259951271
 20
-44.0081772283
 10
-53.4171159611
 20
-42.9583733028
 10
-53.5062946576
 20
-41.9071027234
 10
-53.593203873
 20
-40.854188786
 10
-53.6780402567
 20
-39.8002754397
 10
-53.7606891418
 20
-38.7458924268
 10
-53.8410751622
 20
-37.6911549025
 10
-53.9194007954
 20
-36.6362635299
 10
-53.9952263445
 20
-35.5809475157
  0
LWPOLYLINE
  5
24B
100
AcDbEntity
  8
RACCORDO
100
AcDbPolyline
 62
253
  6
CONTINUOUS
 90
10
 70
0
 10
-54.676298909
 20
-24.1127906191
 10
-54.6135081065
 20
-25.3907492417
 10
-54.5474252623
 20
-26.6688605969
 10
-54.4780754282
 20
-27.9467689767
 10
-54.405460484
 20
-29.2245176611
 10
-54.3296258211
 20
-30.5013692834
 10
-54.250670885
 20
-31.7758315327
 10
-54.1686554846
 20
-33.0472321163
 10
-54.0835882475
 20
-34.3156837331
 10
-53.9954995228
 20
-35.58089142
  0
LWPOLYLINE
  5
24C
100
AcDbEntity
  8
RACCORDO
100
AcDbPolyline
 62
253
  6
CONTINUOUS
 90
10
 70
0
 10
-54.6759675416
 20
-24.1128067812
 10
-54.7962320036
 20
-21.4518621768
 10
-54.9022407981
 20
-18.793828191
 10
-54.9940213751
 20
-16.1381715555
 10
-55.0715931559
 20
-13.4846649059
 10
-55.13499534
 20
-10.8324634667
 10
-55.1842704566
 20
-8.1801078463
 10
-55.2194350493
 20
-5.5267526843
 10
-55.2404961246
 20
-2.872163848
 10
-55.247467446
 20
-0.2157970712
  0
LWPOLYLINE
  5
24D
100
AcDbEntity
  8
RACCORDO
100
AcDbPolyline
 62
253
  6
CONTINUOUS
 90
10
 70
0
 10
-54.6759675416
 20
23.6814182028
 10
-54.7962320036
 20
21.0204735983
 10
-54.9022407981
 20
18.3624396125
 10
-54.9940213751
 20
15.706782977
 10
-55.0715929531
 20
13.05328396
 10
-55.134995016
 20
10.4010901395
 10
-55.1842704566
 20
7.7487192678
 10
-55.2194355333
 20
5.0953184072
 10
-55.2404967273
 20
2.4406610569
 10
-55.2474674406
 20
-0.2157970712
  0
LWPOLYLINE
  5
24E
100
AcDbEntity
  8
RACCORDO
100
AcDbPolyline
 62
253
  6
CONTINUOUS
 90
10
 70
0
 10
-54.676298909
 20
23.6814020406
 10
-54.6135081022
 20
24.9593607484
 10
-54.5474252548
 20
26.2374721607
 10
-54.4780754187
 20
27.5153805691
 10
-54.4054604747
 20
28.793129244
 10
-54.3296258137
 20
30.0699808282
 10
-54.2506708796
 20
31.3444430393
 10
-54.1686554809
 20
32.6158435945
 10
-54.0835882455
 20
33.8842951829
 10
-53.9954995228
 20
35.1495028416
  0
LWPOLYLINE
  5
24F
100
AcDbEntity
  8
SUPERFICI
100
AcDbPolyline
 62
253
  6
CONTINUOUS
 90
10
 70
0
 10
-53.2327603762
 20
44.6243734902
 10
-53.3259951271
 20
43.5767886498
 10
-53.4171159611
 20
42.5269847243
 10
-53.5062946576
 20
41.4757141449
 10
-53.593203873
 20
40.4228002076
 10
-53.6780402567
 20
39.3688868612
 10
-53.7606891418
 20
38.3145038483
 10
-53.8410751622
 20
37.259766324
 10
-53.9194007954
 20
36.2048749514
 10
-53.9952263445
 20
35.1495589373
  0
LINE
  5
250
100
AcDbEntity
  8
0
100
AcDbLine
 62
253
  6
CONTINUOUS
 10
-55.1504302182
 20
45.6843056806
 11
-55.1434589171
 21
45.540117814
  0
LINE
  5
251
100
AcDbEntity
  8
0
100
AcDbLine
 62
253
  6
CONTINUOUS
 10
-53.2805563161
 20
45.6289169615
 11
-53.287331493
 21
45.7731141768
  0
LINE
  5
252
100
AcDbEntity
  8
SUPERFICI
100
AcDbLine
 62
253
  6
CONTINUOUS
 10
-53.2339558561
 20
44.6243899573
 11
-53.2805563161
 21
45.6289169615
  0
LINE
  5
253
100
AcDbEntity
  8
SUPERFICI
100
AcDbLine
 62
253
  6
CONTINUOUS
 10
-53.2339558561
 20
-45.0557785358
 11
-53.2805563161
 21
-46.06030554
  0
LINE
  5
254
100
AcDbEntity
  8
0
100
AcDbLine
 62
253
  6
CONTINUOUS
 10
-53.2805563161
 20
-46.06030554
 11
-53.287331493
 21
-46.2045027553
  0
LINE
  5
255
100
AcDbEntity
  8
0
100
AcDbLine
 62
253
  6
CONTINUOUS
 10
-55.1504302182
 20
-46.1156942591
 11
-55.1434589171
 21
-45.9715063925
  0
LINE
  5
256
100
AcDbEntity
  8
RACCORDO
100
AcDbLine
 62
253
  6
CONTINUOUS
 10
-50.7927406428
 20
23.6778432958
 11
-50.8536224459
 21
23.2726510901
  0
LWPOLYLINE
  5
257
100
AcDbEntity
  8
RACCORDO
100
AcDbPolyline
 62
253
  6
CONTINUOUS
 90
16
 70
0
 10
-45.2169536884
 20
21.9534869931
 10
-45.2078093865
 20
21.9778124968
 10
-45.1974976282
 20
22.0021873847
 10
-45.1859850601
 20
22.0265416746
 10
-45.1732768012
 20
22.0507362594
 10
-45.1593174884
 20
22.0747612416
 10
-45.1439624555
 20
22.0987188165
 10
-45.1271388242
 20
22.1225485984
 10
-45.1088351604
 20
22.1460923367
 10
-45.0889744198
 20
22.1692737986
 10
-45.0674985461
 20
22.1919990564
 10
-45.044412149
 20
22.2140877411
 10
-45.0197467882
 20
22.235326488
 10
-44.9935256765
 20
22.2555519595
 10
-44.9657552672
 20
22.2746412954
 10
-44.9364671843
 20
22.2924444366
  0
LWPOLYLINE
  5
258
100
AcDbEntity
  8
RACCORDO
100
AcDbPolyline
 62
253
  6
CONTINUOUS
 90
16
 70
0
 10
-45.62515455
 20
22.1374777696
 10
-45.6123112392
 20
22.1669533841
 10
-45.5972457576
 20
22.1961590293
 10
-45.5799623268
 20
22.2250623524
 10
-45.5606021119
 20
22.2536329275
 10
-45.5390339995
 20
22.2818322931
 10
-45.5148534854
 20
22.3096128881
 10
-45.4880337309
 20
22.3370313644
 10
-45.4586123028
 20
22.3639485387
 10
-45.4262826894
 20
22.3900232177
 10
-45.3909708634
 20
22.4152890206
 10
-45.3527680931
 20
22.4396294014
 10
-45.3116200215
 20
22.4624961394
 10
-45.2675167955
 20
22.4836984321
 10
-45.220490664
 20
22.5033864505
 10
-45.1705520083
 20
22.5215422965
  0
LWPOLYLINE
  5
259
100
AcDbEntity
  8
RACCORDO
100
AcDbPolyline
 62
253
  6
CONTINUOUS
 90
16
 70
0
 10
-46.8459787525
 20
22.9977455868
 10
-46.8642050289
 20
22.9581288048
 10
-46.8807421181
 20
22.9189190439
 10
-46.8956605118
 20
22.8801965089
 10
-46.9090385729
 20
22.8419960044
 10
-46.9209408352
 20
22.8044252725
 10
-46.9314286049
 20
22.7676669231
 10
-46.9405645554
 20
22.731870863
 10
-46.9484573636
 20
22.6969999593
 10
-46.9552347902
 20
22.6629452861
 10
-46.9609753386
 20
22.6296991033
 10
-46.9657369576
 20
22.5973428314
 10
-46.9696024328
 20
22.5658901016
 10
-46.9726420844
 20
22.5353615993
 10
-46.974914923
 20
22.5057864763
 10
-46.9764835244
 20
22.4771850416
  0
LWPOLYLINE
  5
25A
100
AcDbEntity
  8
RACCORDO
100
AcDbPolyline
 62
253
  6
CONTINUOUS
 90
16
 70
0
 10
-46.7551062938
 20
22.9140734018
 10
-46.770974655
 20
22.8807902292
 10
-46.7854507919
 20
22.8477683392
 10
-46.7985245432
 20
22.8151096488
 10
-46.8101160929
 20
22.7828908193
 10
-46.8202922753
 20
22.7512086815
 10
-46.829266003
 20
22.7201804449
 10
-46.8370224198
 20
22.6899342624
 10
-46.843574719
 20
22.6604617147
 10
-46.849178551
 20
22.6316592394
 10
-46.853855124
 20
22.6035204461
 10
-46.8575859541
 20
22.5761232013
 10
-46.8605665351
 20
22.5494783638
 10
-46.8628639949
 20
22.5236036875
 10
-46.864417701
 20
22.4985247168
 10
-46.8652318749
 20
22.4742575626
  0
LWPOLYLINE
  5
25B
100
AcDbEntity
  8
RACCORDO
100
AcDbPolyline
 62
253
  6
CONTINUOUS
 90
37
 70
0
 10
-46.7551077992
 20
-23.3454626122
 10
-46.7242636772
 20
-23.4044306885
 10
-46.6922000943
 20
-23.4601403702
 10
-46.6589170507
 20
-23.5125916571
 10
-46.6241412945
 20
-23.5617049097
 10
-46.5881460775
 20
-23.6075597677
 10
-46.551751155
 20
-23.6503951496
 10
-46.5150881479
 20
-23.6901225755
 10
-46.4780254353
 20
-23.7268305253
 10
-46.4409879095
 20
-23.7610233584
 10
-46.4040493542
 20
-23.792712798
 10
-46.3671359856
 20
-23.8218871208
 10
-46.3304513453
 20
-23.8490155164
 10
-46.2940006382
 20
-23.874144171
 10
-46.2577786593
 20
-23.8972268984
 10
-46.2219733356
 20
-23.9185943298
 10
-46.1865875069
 20
-23.9382687416
 10
-46.1516183333
 20
-23.9562278573
 10
-46.1172452224
 20
-23.9727354787
 10
-46.0834952425
 20
-23.987795491
 10
-46.0503413253
 20
-24.001404009
 10
-46.0178816728
 20
-24.0138131791
 10
-45.9861371668
 20
-24.025031579
 10
-45.9550869256
 20
-24.0350506312
 10
-45.9247665061
 20
-24.0440967496
 10
-45.8951919571
 20
-24.0521805245
 10
-45.8663472298
 20
-24.0592913657
 10
-45.8382197352
 20
-24.0656239168
 10
-45.8108216422
 20
-24.0711893858
 10
-45.7841407818
 20
-24.0759765647
 10
-45.7581280584
 20
-24.0801464739
 10
-45.7327865736
 20
-24.0837103901
 10
-45.7081132257
 20
-24.0866570365
 10
-45.6840496141
 20
-24.0891136037
 10
-45.6605762718
 20
-24.0911224885
 10
-45.6377126657
 20
-24.0926412941
 10
-45.6154587958
 20
-24.0936700205
  0
LWPOLYLINE
  5
25C
100
AcDbEntity
  8
RACCORDO
100
AcDbPolyline
 62
253
  6
CONTINUOUS
 90
37
 70
0
 10
-46.8459787511
 20
-23.4291341684
 10
-46.8134444489
 20
-23.4927234495
 10
-46.7789083444
 20
-23.5527225248
 10
-46.7427257937
 20
-23.6091562162
 10
-46.7052366349
 20
-23.6620720658
 10
-46.6667554838
 20
-23.7115403551
 10
-46.6275709914
 20
-23.7576499059
 10
-46.5880325905
 20
-23.8004281946
 10
-46.5483330042
 20
-23.8400682639
 10
-46.5084706998
 20
-23.8768974622
 10
-46.4686475261
 20
-23.9110166267
 10
-46.4290431396
 20
-23.9425410192
 10
-46.3895537605
 20
-23.971773226
 10
-46.3502699256
 20
-23.9988359003
 10
-46.3113633675
 20
-24.0237910834
 10
-46.2728073884
 20
-24.0468129402
 10
-46.2346748028
 20
-24.0680030308
 10
-46.1970862645
 20
-24.0874329193
 10
-46.1600646563
 20
-24.1052146007
 10
-46.1236930059
 20
-24.1214295717
 10
-46.0880350572
 20
-24.1361658461
 10
-46.0530703625
 20
-24.1495330907
 10
-46.0188589401
 20
-24.1616071295
 10
-45.9854476543
 20
-24.1724667039
 10
-45.9527842908
 20
-24.1822108099
 10
-45.9209118246
 20
-24.1909063565
 10
-45.8898629391
 20
-24.1986217237
 10
-45.8595605868
 20
-24.2054419091
 10
-45.8300349457
 20
-24.2114237503
 10
-45.8013079903
 20
-24.216624784
 10
-45.7732833922
 20
-24.2211146521
 10
-45.7459756796
 20
-24.224940846
 10
-45.7194054011
 20
-24.2281492477
 10
-45.6934804854
 20
-24.2307921508
 10
-45.6681777748
 20
-24.2329096604
 10
-45.6435437402
 20
-24.2345364625
 10
-45.6195879606
 20
-24.2357093964
  0
LWPOLYLINE
  5
25D
100
AcDbEntity
  8
RACCORDO
100
AcDbPolyline
 62
253
  6
CONTINUOUS
 90
7
 70
0
 10
-45.2169536877
 20
-22.3848755736
 10
-45.2270129404
 20
-22.353598317
 10
-45.2353066541
 20
-22.3217704839
 10
-45.2418057484
 20
-22.2894875976
 10
-45.2464863843
 20
-22.256846864
 10
-45.2493300675
 20
-22.2239468839
 10
-45.2503237365
 20
-22.1908873591
  0
LWPOLYLINE
  5
25E
100
AcDbEntity
  8
RACCORDO
100
AcDbPolyline
 62
253
  6
CONTINUOUS
 90
7
 70
0
 10
-45.6251444454
 20
-22.5688638945
 10
-45.6435744661
 20
-22.5110564813
 10
-45.6587061406
 20
-22.4526046581
 10
-45.6705357233
 20
-22.3935165962
 10
-45.6790595486
 20
-22.3338002565
 10
-45.6842740307
 20
-22.2734633788
 10
-45.6861756621
 20
-22.2125134748
  0
LINE
  5
25F
100
AcDbEntity
  8
RACCORDO
100
AcDbLine
 62
253
  6
CONTINUOUS
 10
-50.7927425456
 20
-24.1092299544
 11
-50.8536242264
 21
-23.7040402432
  0
LWPOLYLINE
  5
260
100
AcDbEntity
  8
RACCORDO
100
AcDbPolyline
 62
253
  6
CONTINUOUS
 90
16
 70
0
 10
-46.9764829699
 20
-22.9085856611
 10
-46.9748977633
 20
-22.9374290813
 10
-46.9726051055
 20
-22.9671661619
 10
-46.9695471025
 20
-22.9977767165
 10
-46.9656758609
 20
-23.0291866974
 10
-46.9609223217
 20
-23.0614216193
 10
-46.9551846925
 20
-23.094603615
 10
-46.9483835941
 20
-23.1287337283
 10
-46.9404497326
 20
-23.1637347934
 10
-46.9312813137
 20
-23.1996006807
 10
-46.9207902481
 20
-23.236314803
 10
-46.9089054166
 20
-23.2737842396
 10
-46.8955526686
 20
-23.3118785674
 10
-46.8806617385
 20
-23.350507188
 10
-46.8641603787
 20
-23.3896189129
 10
-46.8459787511
 20
-23.4291341684
  0
LINE
  5
261
100
AcDbEntity
  8
RACCORDO
100
AcDbLine
 62
253
  6
CONTINUOUS
 10
-45.6154587958
 20
23.662281442
 11
-45.6166060276
 21
23.6870356044
  0
LINE
  5
262
100
AcDbEntity
  8
RACCORDO
100
AcDbLine
 62
253
  6
CONTINUOUS
 10
-45.6477821953
 20
24.485606106
 11
-45.6195886563
 21
23.8043207902
  0
LINE
  5
263
100
AcDbEntity
  8
RACCORDO
100
AcDbLine
 62
253
  6
CONTINUOUS
 10
-45.6166060276
 20
23.6870356044
 11
-45.6176757976
 21
23.712971895
  0
LINE
  5
264
100
AcDbEntity
  8
RACCORDO
100
AcDbLine
 62
253
  6
CONTINUOUS
 10
-45.6176757976
 20
23.712971895
 11
-45.6185958743
 21
23.7383390795
  0
LWPOLYLINE
  5
265
100
AcDbEntity
  8
RACCORDO
100
AcDbPolyline
 62
253
  6
CONTINUOUS
 90
16
 70
0
 10
-46.8652318768
 20
-22.9056461418
 10
-46.8644001107
 20
-22.9301214546
 10
-46.8628326098
 20
-22.9553393665
 10
-46.8605256947
 20
-22.9812835917
 10
-46.8575452719
 20
-23.0078895482
 10
-46.8538201529
 20
-23.035179134
 10
-46.8491405214
 20
-23.0632588516
 10
-46.8435121093
 20
-23.092121625
 10
-46.8369255062
 20
-23.1217012077
 10
-46.8291474044
 20
-23.1520036822
 10
-46.8201753046
 20
-23.1829905821
 10
-46.8100141306
 20
-23.2145834743
 10
-46.7984426841
 20
-23.2467134363
 10
-46.7853912458
 20
-23.2792993966
 10
-46.7709423823
 20
-23.3122494623
 10
-46.7551061893
 20
-23.3454622159
  0
LWPOLYLINE
  5
266
100
AcDbEntity
  8
RACCORDO
100
AcDbPolyline
 62
253
  6
CONTINUOUS
 90
9
 70
0
 10
-45.6185958743
 20
23.7383390795
 10
-45.6193041336
 20
23.7614243503
 10
-45.6195632326
 20
23.7716151643
 10
-45.6197527533
 20
23.7806689757
 10
-45.6198694828
 20
23.7884323046
 10
-45.6199114423
 20
23.7947735469
 10
-45.6198779207
 20
23.799585206
 10
-45.619769486
 20
23.8027857147
 10
-45.6195879765
 20
23.8043208178
  0
LINE
  5
267
100
AcDbEntity
  8
RACCORDO
100
AcDbLine
 62
253
  6
CONTINUOUS
 10
-46.8659727669
 20
-22.8764262756
 11
-46.8652318768
 21
-22.9056461418
  0
LWPOLYLINE
  5
268
100
AcDbEntity
  8
RACCORDO
100
AcDbPolyline
 62
253
  6
CONTINUOUS
 90
10
 70
0
 10
-47.3518239852
 20
-0.2156999601
 10
-47.3440569402
 20
-3.0300330014
 10
-47.3223885183
 20
-5.7724031731
 10
-47.287814255
 20
-8.4424256235
 10
-47.2407755384
 20
-11.0408923678
 10
-47.1827092989
 20
-13.5660395066
 10
-47.1156838921
 20
-16.0133832172
 10
-47.0405376973
 20
-18.3808305465
 10
-46.9571379795
 20
-20.6687587187
 10
-46.865972798
 20
-22.8764262832
  0
LWPOLYLINE
  5
269
100
AcDbEntity
  8
RACCORDO
100
AcDbPolyline
 62
253
  6
CONTINUOUS
 90
10
 70
0
 10
-47.4628496077
 20
-0.2156999741
 10
-47.4554798863
 20
-3.0307464148
 10
-47.4337790164
 20
-5.7730327814
 10
-47.3989439876
 20
-8.4424975931
 10
-47.3521591149
 20
-11.0409951986
 10
-47.2945201547
 20
-13.5665830625
 10
-47.2271304417
 20
-16.0135201003
 10
-47.1511518047
 20
-18.379882899
 10
-47.0677083033
 20
-20.6675656535
 10
-46.9764829949
 20
-22.9085856622
  0
LINE
  5
26A
100
AcDbEntity
  8
RACCORDO
100
AcDbLine
 62
253
  6
CONTINUOUS
 10
-45.6861756621
 20
-22.2125134748
 11
-45.7005258255
 21
-16.0152127785
  0
LINE
  5
26B
100
AcDbEntity
  8
RACCORDO
100
AcDbLine
 62
253
  6
CONTINUOUS
 10
-45.2503237554
 20
-22.1908873779
 11
-45.2625613192
 21
-15.9997020416
  0
LINE
  5
26C
100
AcDbEntity
  8
RACCORDO
100
AcDbLine
 62
253
  6
CONTINUOUS
 10
-45.7005258255
 20
-16.0152127785
 11
-45.7098415379
 21
-10.2403138275
  0
LINE
  5
26D
100
AcDbEntity
  8
RACCORDO
100
AcDbLine
 62
253
  6
CONTINUOUS
 10
-45.2625613192
 20
-15.9997020416
 11
-45.270320351
 21
-10.2304822604
  0
LINE
  5
26E
100
AcDbEntity
  8
RACCORDO
100
AcDbLine
 62
253
  6
CONTINUOUS
 10
-45.7098415379
 20
-10.2403138275
 11
-45.7143641393
 21
-5.4324570067
  0
LINE
  5
26F
100
AcDbEntity
  8
RACCORDO
100
AcDbLine
 62
253
  6
CONTINUOUS
 10
-45.270320351
 20
-10.2304822604
 11
-45.2741389171
 21
-5.4273327835
  0
LINE
  5
270
100
AcDbEntity
  8
RACCORDO
100
AcDbLine
 62
253
  6
CONTINUOUS
 10
-45.7143641393
 20
-5.4324570067
 11
-45.7159696285
 21
-0.2156949618
  0
LINE
  5
271
100
AcDbEntity
  8
RACCORDO
100
AcDbLine
 62
253
  6
CONTINUOUS
 10
-45.2741389171
 20
-5.4273327835
 11
-45.2755618038
 21
-0.215694932
  0
LINE
  5
272
100
AcDbEntity
  8
RACCORDO
100
AcDbLine
 62
7
  6
CONTINUOUS
 10
-45.1759675416
 20
-22.1165165684
 11
-45.1759675416
 21
21.6851279899
  0
LINE
  5
273
100
AcDbEntity
  8
RACCORDO
100
AcDbLine
 62
253
  6
CONTINUOUS
 10
-44.657763614
 20
22.6532851413
 11
-44.657763614
 21
22.365279504
  0
LINE
  5
274
100
AcDbEntity
  8
RACCORDO
100
AcDbLine
 62
253
  6
CONTINUOUS
 10
-44.657763614
 20
-23.0846737198
 11
-44.6577636141
 21
-22.7966680825
  0
LINE
  5
275
100
AcDbEntity
  8
RACCORDO
100
AcDbLine
 62
253
  6
CONTINUOUS
 10
-45.7159696284
 20
-0.2156949618
 11
-45.7143490324
 21
5.0247797878
  0
LINE
  5
276
100
AcDbEntity
  8
RACCORDO
100
AcDbLine
 62
253
  6
CONTINUOUS
 10
-45.2755618038
 20
-0.215694932
 11
-45.2730890283
 21
6.6713224361
  0
LINE
  5
277
100
AcDbEntity
  8
RACCORDO
100
AcDbLine
 62
253
  6
CONTINUOUS
 10
-45.7143490324
 20
5.0247797878
 11
-45.7097970792
 21
9.8444864747
  0
LINE
  5
278
100
AcDbEntity
  8
RACCORDO
100
AcDbLine
 62
253
  6
CONTINUOUS
 10
-45.2730890283
 20
6.6713224361
 11
-45.2666939225
 21
12.8112483356
  0
LINE
  5
279
100
AcDbEntity
  8
RACCORDO
100
AcDbLine
 62
253
  6
CONTINUOUS
 10
-45.7097970792
 20
9.8444864747
 11
-45.7004610291
 21
15.6167437429
  0
LINE
  5
27A
100
AcDbEntity
  8
RACCORDO
100
AcDbLine
 62
253
  6
CONTINUOUS
 10
-45.2666939225
 20
12.8112483356
 11
-45.2578430134
 21
18.2044935151
  0
LINE
  5
27B
100
AcDbEntity
  8
RACCORDO
100
AcDbLine
 62
253
  6
CONTINUOUS
 10
-45.2578430134
 20
18.2044935151
 11
-45.2503237552
 21
21.7594988755
  0
LINE
  5
27C
100
AcDbEntity
  8
RACCORDO
100
AcDbLine
 62
253
  6
CONTINUOUS
 10
-45.7004610291
 20
15.6167437429
 11
-45.6861756621
 21
21.7811248963
  0
LWPOLYLINE
  5
27D
100
AcDbEntity
  8
RACCORDO
100
AcDbPolyline
 62
253
  6
CONTINUOUS
 90
7
 70
0
 10
-45.6195632325
 20
-24.2030037409
 10
-45.6197527532
 20
-24.2120575522
 10
-45.6198694827
 20
-24.2198208809
 10
-45.6199114422
 20
-24.2261621232
 10
-45.6198779206
 20
-24.2309737822
 10
-45.6197694859
 20
-24.2341742909
 10
-45.6195879765
 20
-24.2357093941
  0
LINE
  5
27E
100
AcDbEntity
  8
RACCORDO
100
AcDbLine
 62
253
  6
CONTINUOUS
 10
-46.8652318749
 20
22.4742575626
 11
-46.8659727612
 21
22.4450378847
  0
LINE
  5
27F
100
AcDbEntity
  8
RACCORDO
100
AcDbLine
 62
253
  6
CONTINUOUS
 10
-45.6189798483
 20
-24.1816578657
 11
-45.6195632325
 21
-24.2030037409
  0
LWPOLYLINE
  5
280
100
AcDbEntity
  8
RACCORDO
100
AcDbPolyline
 62
253
  6
CONTINUOUS
 90
7
 70
0
 10
-45.2503237362
 20
21.7594988567
 10
-45.2493300652
 20
21.7925583477
 10
-45.2464863827
 20
21.8254583025
 10
-45.2418057488
 20
21.858099019
 10
-45.2353066565
 20
21.8903818966
 10
-45.2270129432
 20
21.9222097292
 10
-45.2169536884
 20
21.9534869931
  0
LWPOLYLINE
  5
281
100
AcDbEntity
  8
RACCORDO
100
AcDbPolyline
 62
253
  6
CONTINUOUS
 90
7
 70
0
 10
-45.6861756621
 20
21.7811248963
 10
-45.6842740241
 20
21.8420748653
 10
-45.6790595402
 20
21.9024117759
 10
-45.6705357174
 20
21.9621281163
 10
-45.658706142
 20
22.0212161468
 10
-45.6435744792
 20
22.0796679067
 10
-45.6251444748
 20
22.1374752245
  0
LINE
  5
282
100
AcDbEntity
  8
RACCORDO
100
AcDbLine
 62
253
  6
CONTINUOUS
 10
-45.6181587205
 20
-24.1572245417
 11
-45.6189798483
 21
-24.1816578657
  0
LWPOLYLINE
  5
283
100
AcDbEntity
  8
RACCORDO
100
AcDbPolyline
 62
253
  6
CONTINUOUS
 90
9
 70
0
 10
-47.0677300431
 20
20.2356137021
 10
-47.1511906066
 20
17.9473628885
 10
-47.2271812978
 20
15.580427361
 10
-47.2945828665
 20
13.1327194782
 10
-47.3522260401
 20
10.6063561097
 10
-47.3989975924
 20
8.0076589223
 10
-47.4338085439
 20
5.3387641517
 10
-47.4554882188
 20
2.5976240333
 10
-47.4628496077
 20
-0.2156999741
  0
LINE
  5
284
100
AcDbEntity
  8
RACCORDO
100
AcDbLine
 62
253
  6
CONTINUOUS
 10
-45.6171552921
 20
-24.1313535219
 11
-45.6181587205
 21
-24.1572245417
  0
LWPOLYLINE
  5
285
100
AcDbEntity
  8
RACCORDO
100
AcDbPolyline
 62
253
  6
CONTINUOUS
 90
10
 70
0
 10
-46.8659727904
 20
22.4450378919
 10
-46.9571599532
 20
20.236807957
 10
-47.0405767448
 20
17.9483114396
 10
-47.1157348442
 20
15.5802904775
 10
-47.1827679651
 20
13.1321753647
 10
-47.2408361468
 20
10.6062529891
 10
-47.2878679555
 20
8.0075869922
 10
-47.3224273875
 20
5.3381344764
 10
-47.3440767012
 20
2.5969104211
 10
-47.3518239849
 20
-0.21569996
  0
LINE
  5
286
100
AcDbEntity
  8
RACCORDO
100
AcDbLine
 62
253
  6
CONTINUOUS
 10
-45.6477821954
 20
-24.9169946845
 11
-45.6195879606
 21
-24.2357093964
  0
LINE
  5
287
100
AcDbEntity
  8
RACCORDO
100
AcDbLine
 62
253
  6
CONTINUOUS
 10
-46.9764835244
 20
22.4771850416
 11
-47.0677300431
 21
20.2356137021
  0
LWPOLYLINE
  5
288
100
AcDbEntity
  8
RACCORDO
100
AcDbPolyline
 62
253
  6
CONTINUOUS
 90
3
 70
0
 10
-45.6154587958
 20
-24.0936700205
 10
-45.6160373152
 20
-24.1057916332
 10
-45.6171552921
 20
-24.1313535219
  0
LWPOLYLINE
  5
289
100
AcDbEntity
  8
SUPERFICI
100
AcDbPolyline
 62
253
  6
CONTINUOUS
 90
10
 70
0
 10
-55.0447818954
 20
-45.617187268
 10
-55.0549040998
 20
-45.6761941027
 10
-55.0648705265
 20
-45.7315778826
 10
-55.0748253918
 20
-45.7829746677
 10
-55.0849511775
 20
-45.8299897664
 10
-55.0953686056
 20
-45.8717437444
 10
-55.1061657892
 20
-45.9072576858
 10
-55.1175205584
 20
-45.9359839545
 10
-55.1297046233
 20
-45.9575750025
 10
-55.1429761181
 20
-45.9715348416
  0
LWPOLYLINE
  5
28A
100
AcDbEntity
  8
SUPERFICI
100
AcDbPolyline
 62
253
  6
CONTINUOUS
 90
6
 70
0
 10
-54.9333851132
 20
-44.9746795196
 10
-54.9484055071
 20
-45.0543195589
 10
-54.9626612586
 20
-45.1322684841
 10
-54.9761760138
 20
-45.2083223591
 10
-54.9889406605
 20
-45.2820360595
 10
-55.0447818954
 20
-45.617187268
  0
LWPOLYLINE
  5
28B
100
AcDbEntity
  8
SUPERFICI
100
AcDbPolyline
 62
253
  6
CONTINUOUS
 90
4
 70
0
 10
-54.9333851132
 20
44.5432909411
 10
-54.9484055071
 20
44.6229309804
 10
-54.9626612586
 20
44.7008799056
 10
-54.9761760138
 20
44.7769337806
  0
LWPOLYLINE
  5
28C
100
AcDbEntity
  8
SUPERFICI
100
AcDbPolyline
 62
253
  6
CONTINUOUS
 90
10
 70
0
 10
-55.0447818954
 20
45.1857986895
 10
-55.0549040998
 20
45.2448055242
 10
-55.0648705265
 20
45.3001893041
 10
-55.0748253918
 20
45.3515860892
 10
-55.0849511775
 20
45.3986011879
 10
-55.0953686056
 20
45.440355166
 10
-55.1061657892
 20
45.4758691074
 10
-55.1175205584
 20
45.504595376
 10
-55.1297046233
 20
45.526186424
 10
-55.1429761181
 20
45.5401462631
  0
LINE
  5
28D
100
AcDbEntity
  8
SUPERFICI
100
AcDbLine
 62
253
  6
CONTINUOUS
 10
-54.9761760138
 20
44.7769337806
 11
-55.0010393853
 21
44.9220604135
  0
LINE
  5
28E
100
AcDbEntity
  8
SUPERFICI
100
AcDbLine
 62
253
  6
CONTINUOUS
 10
-55.0010393853
 20
44.9220604135
 11
-55.0447818954
 21
45.1857986895
  0
LINE
  5
28F
100
AcDbEntity
  8
0
100
AcDbLine
 62
7
  6
CONTINUOUS
 10
75.4353964098
 20
-46.2045027553
 11
77.298495135
 21
-46.1156942591
  0
LINE
  5
290
100
AcDbEntity
  8
SUPERFICI
100
AcDbLine
 62
253
  6
CONTINUOUS
 10
77.2915238339
 20
-45.9715063925
 11
75.428621233
 21
-46.06030554
  0
LINE
  5
291
100
AcDbEntity
  8
SUPERFICI
100
AcDbLine
 62
253
  6
CONTINUOUS
 10
77.0814812259
 20
-44.9748441662
 11
75.380825293
 21
-45.0557620687
  0
LINE
  5
292
100
AcDbEntity
  8
0
100
AcDbLine
 62
7
  6
CONTINUOUS
 10
-55.1504302182
 20
-46.1156942591
 11
-53.287331493
 21
-46.2045027553
  0
LINE
  5
293
100
AcDbEntity
  8
SUPERFICI
100
AcDbLine
 62
253
  6
CONTINUOUS
 10
-55.1434589171
 20
-45.9715063925
 11
-53.2805563161
 21
-46.06030554
  0
LINE
  5
294
100
AcDbEntity
  8
SUPERFICI
100
AcDbLine
 62
253
  6
CONTINUOUS
 10
-54.9334163091
 20
-44.9748441662
 11
-53.2327603762
 21
-45.0557620687
  0
LWPOLYLINE
  5
295
100
AcDbEntity
  8
RACCORDO
100
AcDbPolyline
 62
253
  6
CONTINUOUS
 90
16
 70
0
 10
-44.9364671603
 20
-22.7238330279
 10
-44.965755244
 20
-22.7060298866
 10
-44.9935256561
 20
-22.6869405497
 10
-45.0197467723
 20
-22.666715076
 10
-45.0444121407
 20
-22.6454763247
 10
-45.0674985465
 20
-22.6233876337
 10
-45.0889744258
 20
-22.6006623709
 10
-45.1088351675
 20
-22.5774809072
 10
-45.1271388299
 20
-22.5539371691
 10
-45.1439624596
 20
-22.5301073883
 10
-45.1593174911
 20
-22.5061498155
 10
-45.1732768023
 20
-22.4821248365
 10
-45.1859850603
 20
-22.4579302541
 10
-45.1974976279
 20
-22.4335759653
 10
-45.2078093859
 20
-22.4092010778
 10
-45.2169536877
 20
-22.3848755736
  0
LWPOLYLINE
  5
296
100
AcDbEntity
  8
RACCORDO
100
AcDbPolyline
 62
253
  6
CONTINUOUS
 90
13
 70
0
 10
-44.9364671843
 20
22.2924444366
 10
-44.914781426
 20
22.3041348729
 10
-44.8927027332
 20
22.3148054193
 10
-44.8702749384
 20
22.3244510686
 10
-44.8475601425
 20
22.3330620735
 10
-44.8245831774
 20
22.3406455493
 10
-44.8013291043
 20
22.3472176783
 10
-44.7778300208
 20
22.3527758667
 10
-44.7541339028
 20
22.3573146454
 10
-44.7302465429
 20
22.3608373043
 10
-44.7061957841
 20
22.3633411434
 10
-44.6820322969
 20
22.3648220531
 10
-44.6577954129
 20
22.3652794772
  0
LWPOLYLINE
  5
297
100
AcDbEntity
  8
RACCORDO
100
AcDbPolyline
 62
253
  6
CONTINUOUS
 90
13
 70
0
 10
-45.1705491394
 20
22.5215415718
 10
-45.1302297894
 20
22.542620084
 10
-45.0894049853
 20
22.5618525846
 10
-45.048074727
 20
22.5792390736
 10
-45.0062010399
 20
22.5947709725
 10
-44.9638218987
 20
22.6084568597
 10
-44.9210512275
 20
22.6203224709
 10
-44.8778777162
 20
22.6303784833
 10
-44.8343126749
 20
22.6386142196
 10
-44.7905039585
 20
22.6450233832
 10
-44.7465008521
 20
22.6496038753
 10
-44.7022540706
 20
22.6523577947
 10
-44.657763614
 20
22.6532851413
  0
LWPOLYLINE
  5
298
100
AcDbEntity
  8
0
100
AcDbPolyline
 62
253
  6
CONTINUOUS
 90
10
 70
0
 10
75.382020773
 20
-45.0557785358
 10
68.239639828
 20
-45.3726752529
 10
61.096244573
 20
-45.6523197214
 10
53.9520558578
 20
-45.8946865797
 10
46.8076141947
 20
-46.0997327695
 10
39.6628209577
 20
-46.2674706299
 10
32.5169394534
 20
-46.3979499899
 10
25.3698728431
 20
-46.4911677817
 10
18.2221629817
 20
-46.5470859504
 10
11.0740324584
 20
-46.5656942622
  0
LWPOLYLINE
  5
299
100
AcDbEntity
  8
0
100
AcDbPolyline
 62
253
  6
CONTINUOUS
 90
10
 70
0
 10
-53.2339558561
 20
-45.0557785358
 10
-46.0915749112
 20
-45.3726752529
 10
-38.9481796562
 20
-45.6523197214
 10
-31.8039909409
 20
-45.8946865797
 10
-24.6595492779
 20
-46.0997327695
 10
-17.5147560408
 20
-46.2674706299
 10
-10.3688745366
 20
-46.3979499899
 10
-3.2218079263
 20
-46.4911677817
 10
3.9259019351
 20
-46.5470859504
 10
11.0740324584
 20
-46.5656942622
  0
LWPOLYLINE
  5
29A
100
AcDbEntity
  8
RACCORDO
100
AcDbPolyline
 62
253
  6
CONTINUOUS
 90
16
 70
0
 10
-45.1708176805
 20
-22.9528233777
 10
-45.2206380254
 20
-22.9347139731
 10
-45.2675754727
 20
-22.9150621326
 10
-45.3116196579
 20
-22.8938848232
 10
-45.3527481655
 20
-22.8710267101
 10
-45.3909609111
 20
-22.8466820475
 10
-45.426282654
 20
-22.8214118295
 10
-45.4586122912
 20
-22.7953371416
 10
-45.4880337075
 20
-22.7684199642
 10
-45.5148534567
 20
-22.7410014761
 10
-45.5390339941
 20
-22.713220842
 10
-45.560602136
 20
-22.6850214278
 10
-45.5799623626
 20
-22.6564508357
 10
-45.59724578
 20
-22.6275475411
 10
-45.6123112313
 20
-22.5983419561
 10
-45.6251544953
 20
-22.5688664334
  0
LWPOLYLINE
  5
29B
100
AcDbEntity
  8
RACCORDO
100
AcDbPolyline
 62
253
  6
CONTINUOUS
 90
16
 70
0
 10
-45.1705207932
 20
-22.9529411937
 10
-45.1511287273
 20
-22.9246786395
 10
-45.1318446109
 20
-22.8977493717
 10
-45.1127757649
 20
-22.8723032623
 10
-45.0940283123
 20
-22.8484819289
 10
-45.0757065875
 20
-22.8264179468
 10
-45.0579125553
 20
-22.8062341107
 10
-45.0407452438
 20
-22.788042752
 10
-45.024300193
 20
-22.7719451132
 10
-45.0086689233
 20
-22.7580307845
 10
-44.9939384259
 20
-22.7463772053
 10
-44.9801906791
 20
-22.7370492332
 10
-44.9675021916
 20
-22.7300987827
 10
-44.9559435771
 20
-22.725564537
 10
-44.9455791609
 20
-22.7234717319
 10
-44.9364666225
 20
-22.7238320159
  0
LINE
  5
29C
100
AcDbEntity
  8
RACCORDO
100
AcDbLine
 62
253
  6
CONTINUOUS
 10
76.7176619804
 20
-24.1260506069
 11
76.8246950217
 21
-24.1127780342
  0
LWPOLYLINE
  5
29D
100
AcDbEntity
  8
RACCORDO
100
AcDbPolyline
 62
253
  6
CONTINUOUS
 90
10
 70
0
 10
76.7194402117
 20
-24.1258311475
 10
75.8374315267
 20
-24.2297488871
 10
74.9598345648
 20
-24.3237310842
 10
74.0874809892
 20
-24.4080989642
 10
73.2297989152
 20
-24.4818230978
 10
72.3785539684
 20
-24.5451573031
 10
71.5081385232
 20
-24.6006298609
 10
70.6105215774
 20
-24.6498317352
 10
69.6951471883
 20
-24.6931469368
 10
68.7621784146
 20
-24.7327960562
  0
LINE
  5
29E
100
AcDbEntity
  8
RACCORDO
100
AcDbLine
 62
253
  6
CONTINUOUS
 10
76.6605588868
 20
-24.1305372996
 11
76.6805539101
 21
-24.1287509352
  0
LINE
  5
29F
100
AcDbEntity
  8
SUPERFICI
100
AcDbLine
 62
253
  6
CONTINUOUS
 10
-64.3568849604
 20
-36.3383208104
 11
-64.2089488334
 21
-36.3261971429
  0
LINE
  5
2A0
100
AcDbEntity
  8
SUPERFICI
100
AcDbLine
 62
253
  6
CONTINUOUS
 10
-64.4957247786
 20
-36.3487075366
 11
-64.3568849604
 21
-36.3383208104
  0
LINE
  5
2A1
100
AcDbEntity
  8
0
100
AcDbLine
 62
253
  6
CONTINUOUS
 10
-64.9718696252
 20
-36.3771110082
 11
-65.1158476721
 21
-36.3875542797
  0
LINE
  5
2A2
100
AcDbEntity
  8
SUPERFICI
100
AcDbLine
 62
253
  6
CONTINUOUS
 10
-61.3293621692
 20
-36.1135716738
 11
-63.4784726503
 21
-36.2696162975
  0
LINE
  5
2A3
100
AcDbEntity
  8
SUPERFICI
100
AcDbLine
 62
253
  6
CONTINUOUS
 10
-63.4784726503
 20
-36.2696162975
 11
-63.9688595348
 21
-36.3043592712
  0
LWPOLYLINE
  5
2A4
100
AcDbEntity
  8
SUPERFICI
100
AcDbPolyline
 62
253
  6
CONTINUOUS
 90
3
 70
0
 10
-59.4623703444
 20
-35.9787835727
 10
-60.1134384137
 20
-36.0249334666
 10
-61.3293621692
 20
-36.1135716738
  0
LWPOLYLINE
  5
2A5
100
AcDbEntity
  8
SUPERFICI
100
AcDbPolyline
 62
253
  6
CONTINUOUS
 90
7
 70
0
 10
-53.9952263445
 20
-35.5809475157
 10
-54.8710435548
 20
-35.6391680942
 10
-55.7189734249
 20
-35.701693078
 10
-56.5359524419
 20
-35.7652996209
 10
-57.3177862117
 20
-35.8236562534
 10
-58.0641273079
 20
-35.8758793093
 10
-59.4623703444
 20
-35.9787835727
  0
LINE
  5
2A6
100
AcDbEntity
  8
SUPERFICI
100
AcDbLine
 62
253
  6
CONTINUOUS
 10
-64.6236774253
 20
-36.3573942207
 11
-64.4957247786
 21
-36.3487075366
  0
LINE
  5
2A7
100
AcDbEntity
  8
SUPERFICI
100
AcDbLine
 62
253
  6
CONTINUOUS
 10
-64.9718696129
 20
-36.3771111809
 11
-64.9580623566
 21
-36.3762572124
  0
LINE
  5
2A8
100
AcDbEntity
  8
SUPERFICI
100
AcDbLine
 62
253
  6
CONTINUOUS
 10
-64.7382994419
 20
-36.3644408855
 11
-64.6236774253
 21
-36.3573942207
  0
LINE
  5
2A9
100
AcDbEntity
  8
SUPERFICI
100
AcDbLine
 62
253
  6
CONTINUOUS
 10
-64.8350325774
 20
-36.3698539763
 11
-64.7382994419
 21
-36.3644408855
  0
LINE
  5
2AA
100
AcDbEntity
  8
SUPERFICI
100
AcDbLine
 62
253
  6
CONTINUOUS
 10
-64.9580623566
 20
-36.3762572124
 11
-64.8350325774
 21
-36.3698539763
  0
LINE
  5
2AB
100
AcDbEntity
  8
SUPERFICI
100
AcDbLine
 62
253
  6
CONTINUOUS
 10
87.1061272735
 20
-36.3762572124
 11
86.9371746222
 21
-36.3673434385
  0
LINE
  5
2AC
100
AcDbEntity
  8
SUPERFICI
100
AcDbLine
 62
253
  6
CONTINUOUS
 10
86.9371746222
 20
-36.3673434385
 11
86.8309939117
 21
-36.3611237208
  0
LINE
  5
2AD
100
AcDbEntity
  8
SUPERFICI
100
AcDbLine
 62
253
  6
CONTINUOUS
 10
87.1199345298
 20
-36.3771111809
 11
87.1061272735
 21
-36.3762572124
  0
LINE
  5
2AE
100
AcDbEntity
  8
SUPERFICI
100
AcDbLine
 62
253
  6
CONTINUOUS
 10
86.8309939117
 20
-36.3611237208
 11
86.7092444661
 21
-36.3532588821
  0
LWPOLYLINE
  5
2AF
100
AcDbEntity
  8
SUPERFICI
100
AcDbPolyline
 62
253
  6
CONTINUOUS
 90
6
 70
0
 10
76.1432912613
 20
-35.5809475157
 10
77.0191084716
 20
-35.6391680942
 10
77.8670383418
 20
-35.701693078
 10
78.6840173587
 20
-35.7652996209
 10
79.4658511285
 20
-35.8236562534
 10
80.2121922248
 20
-35.8758793093
  0
LWPOLYLINE
  5
2B0
100
AcDbEntity
  8
SUPERFICI
100
AcDbPolyline
 62
253
  6
CONTINUOUS
 90
3
 70
0
 10
81.6104352612
 20
-35.9787835727
 10
82.8839845882
 20
-36.0699805913
 10
84.5895180217
 20
-36.1936091682
  0
LINE
  5
2B1
100
AcDbEntity
  8
0
100
AcDbLine
 62
253
  6
CONTINUOUS
 10
87.119934542
 20
-36.3771110082
 11
87.2639127414
 21
-36.3875542907
  0
LINE
  5
2B2
100
AcDbEntity
  8
SUPERFICI
100
AcDbLine
 62
253
  6
CONTINUOUS
 10
86.7092444661
 20
-36.3532588821
 11
86.575526366
 21
-36.3437236774
  0
LINE
  5
2B3
100
AcDbEntity
  8
SUPERFICI
100
AcDbLine
 62
253
  6
CONTINUOUS
 10
84.5895180217
 20
-36.1936091682
 11
86.1169244517
 21
-36.3043592712
  0
LINE
  5
2B4
100
AcDbEntity
  8
SUPERFICI
100
AcDbLine
 62
253
  6
CONTINUOUS
 10
80.2121922248
 20
-35.8758793093
 11
81.6104352612
 21
-35.9787835727
  0
LWPOLYLINE
  5
2B5
100
AcDbEntity
  8
SUPERFICI
100
AcDbPolyline
 62
253
  6
CONTINUOUS
 90
3
 70
0
 10
86.575526366
 20
-36.3437236774
 10
86.4322681995
 20
-36.3324970915
 10
86.3570137502
 20
-36.3261971429
  0
LWPOLYLINE
  5
2B6
100
AcDbEntity
  8
RACCORDO
100
AcDbPolyline
 62
253
  6
CONTINUOUS
 90
16
 70
0
 10
-45.1705208662
 20
22.5215548373
 10
-45.1511289659
 20
22.4932920846
 10
-45.1318449888
 20
22.4663626364
 10
-45.1127762573
 20
22.4409163649
 10
-45.0940288957
 20
22.4170948878
 10
-45.0757072398
 20
22.3950307801
 10
-45.0579132564
 20
22.3748468366
 10
-45.0407459752
 20
22.3566553881
 10
-45.0243009384
 20
22.3405576767
 10
-45.0086696686
 20
22.326643292
 10
-44.9939391594
 20
22.3149896724
 10
-44.9801913914
 20
22.3056616745
 10
-44.9675028759
 20
22.2987112121
 10
-44.9559442291
 20
22.294176967
 10
-44.9455797789
 20
22.2920841739
 10
-44.9364672073
 20
22.2924444798
  0
LINE
  5
2B7
100
AcDbEntity
  8
RACCORDO
100
AcDbLine
 62
253
  6
CONTINUOUS
 10
-45.2503237554
 20
-22.1908873779
 11
-45.1759675416
 21
-22.1165165684
  0
LINE
  5
2B8
100
AcDbEntity
  8
RACCORDO
100
AcDbLine
 62
253
  6
CONTINUOUS
 10
-44.6577954364
 20
-22.7966680825
 11
-44.5767898207
 21
-22.7156942892
  0
LWPOLYLINE
  5
2B9
100
AcDbEntity
  8
SUPERFICI
100
AcDbPolyline
 62
253
  6
CONTINUOUS
 90
3
 70
0
 10
-64.2089488334
 20
-36.3261971429
 10
-64.131049347
 20
-36.3193951396
 10
-63.9688481084
 20
-36.3043538413
  0
LINE
  5
2BA
100
AcDbEntity
  8
RACCORDO
100
AcDbLine
 62
253
  6
CONTINUOUS
 10
76.6805539101
 20
-24.1287509352
 11
76.6903247641
 21
-24.1279426
  0
LINE
  5
2BB
100
AcDbEntity
  8
RACCORDO
100
AcDbLine
 62
253
  6
CONTINUOUS
 10
76.5921057235
 20
-24.136087594
 11
76.6605588868
 21
-24.1305372996
  0
LINE
  5
2BC
100
AcDbEntity
  8
RACCORDO
100
AcDbLine
 62
253
  6
CONTINUOUS
 10
76.5386057377
 20
-24.1400676738
 11
76.5921057235
 21
-24.136087594
  0
LINE
  5
2BD
100
AcDbEntity
  8
RACCORDO
100
AcDbLine
 62
253
  6
CONTINUOUS
 10
76.6903247641
 20
-24.1279426
 11
76.7194402117
 21
-24.1258311475
  0
LINE
  5
2BE
100
AcDbEntity
  8
RACCORDO
100
AcDbLine
 62
253
  6
CONTINUOUS
 10
76.4936347854
 20
-24.1432202132
 11
76.5386057377
 21
-24.1400676738
  0
LINE
  5
2BF
100
AcDbEntity
  8
RACCORDO
100
AcDbLine
 62
253
  6
CONTINUOUS
 10
76.4263381443
 20
-24.1475693013
 11
76.4936347854
 21
-24.1432202132
  0
LINE
  5
2C0
100
AcDbEntity
  8
RACCORDO
100
AcDbLine
 62
253
  6
CONTINUOUS
 10
76.3695791502
 20
-24.1509401446
 11
76.4263381443
 21
-24.1475693013
  0
LINE
  5
2C1
100
AcDbEntity
  8
SUPERFICI
100
AcDbLine
 62
253
  6
CONTINUOUS
 10
86.8763667202
 20
-23.5845476303
 11
84.2314607497
 21
-23.7310470906
  0
LINE
  5
2C2
100
AcDbEntity
  8
RACCORDO
100
AcDbLine
 62
253
  6
CONTINUOUS
 10
76.3077175886
 20
-24.1543229816
 11
76.3695791502
 21
-24.1509401446
  0
LINE
  5
2C3
100
AcDbEntity
  8
SUPERFICI
100
AcDbLine
 62
253
  6
CONTINUOUS
 10
84.2314607497
 20
-23.7310470906
 11
81.7972082027
 21
-23.8614082409
  0
LINE
  5
2C4
100
AcDbEntity
  8
SUPERFICI
100
AcDbLine
 62
253
  6
CONTINUOUS
 10
81.7972082027
 20
-23.8614082409
 11
79.4140960789
 21
-23.9842312
  0
LINE
  5
2C5
100
AcDbEntity
  8
SUPERFICI
100
AcDbLine
 62
253
  6
CONTINUOUS
 10
79.4140960789
 20
-23.9842312
 11
76.8243638258
 21
-24.1127906191
  0
LWPOLYLINE
  5
2C6
100
AcDbEntity
  8
RACCORDO
100
AcDbPolyline
 62
253
  6
CONTINUOUS
 90
37
 70
0
 10
67.7676535731
 20
-24.2357093687
 10
67.7914684545
 20
-24.2345445759
 10
67.8159271925
 20
-24.2329332758
 10
67.8410204992
 20
-24.2308407175
 10
67.8666933398
 20
-24.2282354002
 10
67.8929783442
 20
-24.2250788098
 10
67.919994906
 20
-24.2213170173
 10
67.9477283741
 20
-24.2169040998
 10
67.976159325
 20
-24.211794212
 10
68.0053950417
 20
-24.2059165833
 10
68.0354136059
 20
-24.1992140924
 10
68.0661859385
 20
-24.1916301053
 10
68.0978014059
 20
-24.1830768219
 10
68.1302277662
 20
-24.1734852706
 10
68.1634225281
 20
-24.1627878922
 10
68.1974498711
 20
-24.1508811098
 10
68.2322633397
 20
-24.1376843285
 10
68.2678026381
 20
-24.1231199941
 10
68.3040984625
 20
-24.1070721796
 10
68.3410878016
 20
-24.0894492115
 10
68.3786854241
 20
-24.0701670367
 10
68.4168734125
 20
-24.0491074289
 10
68.4555368015
 20
-24.0261902075
 10
68.4945931054
 20
-24.0013138526
 10
68.5340512275
 20
-23.9743117956
 10
68.5737369412
 20
-23.9451198022
 10
68.6135586386
 20
-23.9136121204
 10
68.6536061937
 20
-23.879495207
 10
68.6936842293
 20
-23.8426661681
 10
68.7336049463
 20
-23.8030102221
 10
68.7733978652
 20
-23.7601669939
 10
68.8128539122
 20
-23.7139511781
 10
68.8516283498
 20
-23.6643184871
 10
68.8894775238
 20
-23.6110987339
 10
68.9260835132
 20
-23.554183567
 10
68.9610655641
 20
-23.4935398675
 10
68.9940436691
 20
-23.4291341658
  0
LINE
  5
2C7
100
AcDbEntity
  8
RACCORDO
100
AcDbLine
 62
253
  6
CONTINUOUS
 10
76.2416375786
 20
-24.1576247164
 11
76.3077175886
 21
-24.1543229816
  0
LWPOLYLINE
  5
2C8
100
AcDbEntity
  8
RACCORDO
100
AcDbPolyline
 62
253
  6
CONTINUOUS
 90
37
 70
0
 10
67.7635237127
 20
-24.0936700205
 10
67.7856475757
 20
-24.0926454495
 10
67.8083499933
 20
-24.0911415565
 10
67.8316309654
 20
-24.0891583416
 10
67.8554622602
 20
-24.0867377521
 10
67.8798721096
 20
-24.0838378407
 10
67.9049452086
 20
-24.0803327651
 10
67.930689722
 20
-24.0762342435
 10
67.957097485
 20
-24.0715305578
 10
67.9842286984
 20
-24.0660607107
 10
68.0120951694
 20
-24.0598368808
 10
68.0406850908
 20
-24.0528468895
 10
68.0700232418
 20
-24.0448932047
 10
68.1001260029
 20
-24.0359875619
 10
68.1309769936
 20
-24.0261182255
 10
68.1625518518
 20
-24.0150524559
 10
68.1948722467
 20
-24.0028001099
 10
68.2279165091
 20
-23.9893513307
 10
68.261595269
 20
-23.9744438082
 10
68.2959376747
 20
-23.9580821909
 10
68.3309145781
 20
-23.9402618302
 10
68.3663491651
 20
-23.9207064704
 10
68.4022517174
 20
-23.8994339743
 10
68.4386119534
 20
-23.8764264791
 10
68.4752222148
 20
-23.8513541407
 10
68.5120864083
 20
-23.8242618326
 10
68.5492006271
 20
-23.7951046813
 10
68.5863454932
 20
-23.7634182215
 10
68.6235832924
 20
-23.7292278739
 10
68.6608517387
 20
-23.6925082179
 10
68.6977445964
 20
-23.6527185261
 10
68.7343941959
 20
-23.6097883996
 10
68.7706682067
 20
-23.5637882373
 10
68.8057634014
 20
-23.5143885079
 10
68.8394120376
 20
-23.4614793677
 10
68.8718818578
 20
-23.4051706605
 10
68.903172862
 20
-23.3454623861
  0
LWPOLYLINE
  5
2C9
100
AcDbEntity
  8
RACCORDO
100
AcDbPolyline
 62
253
  6
CONTINUOUS
 90
7
 70
0
 10
76.6605152907
 20
-24.1274774763
 10
76.6706099488
 20
-24.1270237671
 10
76.6803428179
 20
-24.1265411238
 10
76.6900212203
 20
-24.1261715403
 10
76.6997475789
 20
-24.1259621475
 10
76.7094194372
 20
-24.1258658406
 10
76.7190367802
 20
-24.1258826947
  0
LINE
  5
2CA
100
AcDbEntity
  8
RACCORDO
100
AcDbLine
 62
253
  6
CONTINUOUS
 10
76.1710292061
 20
-24.1608202542
 11
76.2416375786
 21
-24.1576247164
  0
LINE
  5
2CB
100
AcDbEntity
  8
RACCORDO
100
AcDbLine
 62
253
  6
CONTINUOUS
 10
69.3118746485
 20
-24.2307507946
 11
70.1435470778
 21
-24.1952034058
  0
LINE
  5
2CC
100
AcDbEntity
  8
RACCORDO
100
AcDbLine
 62
253
  6
CONTINUOUS
 10
76.0948223336
 20
-24.163908744
 11
76.1710292061
 21
-24.1608202542
  0
LINE
  5
2CD
100
AcDbEntity
  8
RACCORDO
100
AcDbLine
 62
253
  6
CONTINUOUS
 10
70.1435470778
 20
-24.1952034058
 11
70.9609492915
 21
-24.1641080399
  0
LINE
  5
2CE
100
AcDbEntity
  8
RACCORDO
100
AcDbLine
 62
253
  6
CONTINUOUS
 10
76.0119168185
 20
-24.1668708782
 11
76.0948223336
 21
-24.163908744
  0
LWPOLYLINE
  5
2CF
100
AcDbEntity
  8
0
100
AcDbPolyline
 62
7
  6
CONTINUOUS
 90
28
 70
0
 10
13.6346546029
 20
-24.1043661207
 10
13.6510753394
 20
-24.1038275686
 10
13.6673697
 20
-24.1027067855
 10
13.6835376846
 20
-24.1010037712
 10
13.6996084229
 20
-24.0987750229
 10
13.7155527851
 20
-24.0959640436
 10
13.7312833825
 20
-24.0924013419
 10
13.7468677216
 20
-24.0880852476
 10
13.7622382959
 20
-24.083017431
 10
13.7771051968
 20
-24.0770334114
 10
13.7914731337
 20
-24.0701105269
 10
13.8053373973
 20
-24.0622714395
 10
13.8183939517
 20
-24.0534196545
 10
13.8305771014
 20
-24.0434497835
 10
13.8419525418
 20
-24.0324672149
 10
13.8524133238
 20
-24.0206916189
 10
13.8619068957
 20
-24.0080938717
 10
13.8704858093
 20
-23.9947030971
 10
13.8782007699
 20
-23.9808263365
 10
13.8850489761
 20
-23.9665126833
 10
13.8910332294
 20
-23.9517130441
 10
13.8962126398
 20
-23.9365871802
 10
13.9006150055
 20
-23.921149557
 10
13.9042125284
 20
-23.9053857091
 10
13.9069809244
 20
-23.8894120006
 10
13.908912099
 20
-23.8732672197
 10
13.9100141466
 20
-23.8569125783
 10
13.9102870675
 20
-23.8403480764
  0
LINE
  5
2D0
100
AcDbEntity
  8
RACCORDO
100
AcDbLine
 62
253
  6
CONTINUOUS
 10
70.9609492915
 20
-24.1641080399
 11
71.7639545671
 21
-24.1377529685
  0
LINE
  5
2D1
100
AcDbEntity
  8
RACCORDO
100
AcDbLine
 62
253
  6
CONTINUOUS
 10
76.6041945419
 20
-24.1292792504
 11
76.6605152907
 21
-24.1274774763
  0
LINE
  5
2D2
100
AcDbEntity
  8
RACCORDO
100
AcDbLine
 62
253
  6
CONTINUOUS
 10
75.9212318232
 20
-24.1696668066
 11
76.0119168185
 21
-24.1668708782
  0
LINE
  5
2D3
100
AcDbEntity
  8
RACCORDO
100
AcDbLine
 62
253
  6
CONTINUOUS
 10
76.591846329
 20
-24.1296239207
 11
76.6041945419
 21
-24.1292792504
  0
LWPOLYLINE
  5
2D4
100
AcDbEntity
  8
RACCORDO
100
AcDbPolyline
 62
253
  6
CONTINUOUS
 90
3
 70
0
 10
71.7639545671
 20
-24.1377529685
 10
72.552056015
 20
-24.1172912789
 10
72.9405494842
 20
-24.1091983844
  0
LINE
  5
2D5
100
AcDbEntity
  8
RACCORDO
100
AcDbLine
 62
253
  6
CONTINUOUS
 10
75.8216901348
 20
-24.1722364595
 11
75.9212318232
 21
-24.1696668066
  0
LINE
  5
2D6
100
AcDbEntity
  8
RACCORDO
100
AcDbLine
 62
253
  6
CONTINUOUS
 10
75.7122854531
 20
-24.1744982
 11
75.8216901348
 21
-24.1722364595
  0
LINE
  5
2D7
100
AcDbEntity
  8
RACCORDO
100
AcDbLine
 62
253
  6
CONTINUOUS
 10
76.5659771979
 20
-24.1301413931
 11
76.591846329
 21
-24.1296239207
  0
LINE
  5
2D8
100
AcDbEntity
  8
RACCORDO
100
AcDbLine
 62
253
  6
CONTINUOUS
 10
75.5920751011
 20
-24.1763503548
 11
75.7122854531
 21
-24.1744982
  0
LINE
  5
2D9
100
AcDbEntity
  8
RACCORDO
100
AcDbLine
 62
253
  6
CONTINUOUS
 10
76.523847995
 20
-24.1307542925
 11
76.5659771979
 21
-24.1301413931
  0
LINE
  5
2DA
100
AcDbEntity
  8
RACCORDO
100
AcDbLine
 62
253
  6
CONTINUOUS
 10
75.4601502299
 20
-24.1776731434
 11
75.5920751011
 21
-24.1763503548
  0
LINE
  5
2DB
100
AcDbEntity
  8
RACCORDO
100
AcDbLine
 62
253
  6
CONTINUOUS
 10
76.4933678673
 20
-24.1309836465
 11
76.523847995
 21
-24.1307542925
  0
LINE
  5
2DC
100
AcDbEntity
  8
RACCORDO
100
AcDbLine
 62
253
  6
CONTINUOUS
 10
-53.0281983421
 20
-24.1782337259
 11
-52.8857703485
 21
-24.1774516221
  0
LINE
  5
2DD
100
AcDbEntity
  8
RACCORDO
100
AcDbLine
 62
253
  6
CONTINUOUS
 10
-54.3063171822
 20
-24.1310023187
 11
-54.2789667297
 21
-24.130868543
  0
LINE
  5
2DE
100
AcDbEntity
  8
RACCORDO
100
AcDbLine
 62
253
  6
CONTINUOUS
 10
75.3155403363
 20
-24.1783306209
 11
75.4601502299
 21
-24.1776731434
  0
LINE
  5
2DF
100
AcDbEntity
  8
0
100
AcDbLine
 62
7
  6
CONTINUOUS
 10
8.2717564584
 20
-25.0479952892
 11
8.5844484584
 21
-25.0479952892
  0
LINE
  5
2E0
100
AcDbEntity
  8
0
100
AcDbLine
 62
7
  6
CONTINUOUS
 10
9.2625304584
 20
-25.0479952892
 11
9.6173584584
 21
-25.0479952892
  0
LINE
  5
2E1
100
AcDbEntity
  8
0
100
AcDbLine
 62
7
  6
CONTINUOUS
 10
9.8083734584
 20
-25.0479952892
 11
10.1478284584
 21
-25.0479952892
  0
LINE
  5
2E2
100
AcDbEntity
  8
0
100
AcDbLine
 62
7
  6
CONTINUOUS
 10
10.6406564584
 20
-25.0479952892
 11
10.6904204584
 21
-25.0479952892
  0
LINE
  5
2E3
100
AcDbEntity
  8
0
100
AcDbLine
 62
7
  6
CONTINUOUS
 10
11.1852124584
 20
-25.0479952892
 11
11.5323284584
 21
-25.0479952892
  0
LINE
  5
2E4
100
AcDbEntity
  8
0
100
AcDbLine
 62
7
  6
CONTINUOUS
 10
11.5880454584
 20
-25.0479952892
 11
11.9390234584
 21
-25.0479952892
  0
LINE
  5
2E5
100
AcDbEntity
  8
0
100
AcDbLine
 62
7
  6
CONTINUOUS
 10
12.6120704584
 20
-25.0479952892
 11
12.9860444584
 21
-25.0479952892
  0
LINE
  5
2E6
100
AcDbEntity
  8
0
100
AcDbLine
 62
7
  6
CONTINUOUS
 10
13.0902391223
 20
-25.0479949759
 11
13.4436394544
 21
-25.0479949759
  0
LINE
  5
2E7
100
AcDbEntity
  8
0
100
AcDbLine
 62
7
  6
CONTINUOUS
 10
13.9870096735
 20
-25.0479949759
 11
14.3283130169
 21
-25.0479949759
  0
LINE
  5
2E8
100
AcDbEntity
  8
0
100
AcDbLine
 62
7
  6
CONTINUOUS
 10
12.0369344584
 20
-24.7086422892
 11
12.5201514584
 21
-24.7086422892
  0
LINE
  5
2E9
100
AcDbEntity
  8
0
100
AcDbLine
 62
7
  6
CONTINUOUS
 10
12.4492384584
 20
-24.4460522892
 11
12.1095164584
 21
-24.4460522892
  0
LINE
  5
2EA
100
AcDbEntity
  8
0
100
AcDbLine
 62
7
  6
CONTINUOUS
 10
13.4436394544
 20
-24.3827625734
 11
13.6338897775
 21
-24.3827625734
  0
LINE
  5
2EB
100
AcDbEntity
  8
0
100
AcDbLine
 62
7
  6
CONTINUOUS
 10
13.6346546029
 20
-24.1043661207
 11
13.43187389
 21
-24.1043661207
  0
LINE
  5
2EC
100
AcDbEntity
  8
RACCORDO
100
AcDbLine
 62
253
  6
CONTINUOUS
 10
76.4608540019
 20
-24.1310172049
 11
76.4933678673
 21
-24.1309836465
  0
LINE
  5
2ED
100
AcDbEntity
  8
RACCORDO
100
AcDbLine
 62
253
  6
CONTINUOUS
 10
-53.1582245375
 20
-24.1783428017
 11
-53.0281983421
 21
-24.1782337259
  0
LINE
  5
2EE
100
AcDbEntity
  8
RACCORDO
100
AcDbLine
 62
253
  6
CONTINUOUS
 10
-54.3333121826
 20
-24.131005665
 11
-54.3063171822
 21
-24.1310023187
  0
LINE
  5
2EF
100
AcDbEntity
  8
RACCORDO
100
AcDbLine
 62
253
  6
CONTINUOUS
 10
75.1568462743
 20
-24.1781689988
 11
75.3155403363
 21
-24.1783306209
  0
LINE
  5
2F0
100
AcDbEntity
  8
RACCORDO
100
AcDbLine
 62
253
  6
CONTINUOUS
 10
-53.2772181678
 20
-24.1779019472
 11
-53.1582245375
 21
-24.1783428017
  0
LINE
  5
2F1
100
AcDbEntity
  8
RACCORDO
100
AcDbLine
 62
253
  6
CONTINUOUS
 10
76.4261377972
 20
-24.1308657965
 11
76.4608540019
 21
-24.1310172049
  0
LINE
  5
2F2
100
AcDbEntity
  8
RACCORDO
100
AcDbLine
 62
253
  6
CONTINUOUS
 10
-54.3602882422
 20
-24.1308755444
 11
-54.3333121826
 21
-24.131005665
  0
LINE
  5
2F3
100
AcDbEntity
  8
RACCORDO
100
AcDbLine
 62
253
  6
CONTINUOUS
 10
75.0422942729
 20
-24.1775178057
 11
75.1568462743
 21
-24.1781689988
  0
LINE
  5
2F4
100
AcDbEntity
  8
RACCORDO
100
AcDbLine
 62
253
  6
CONTINUOUS
 10
-53.3864881478
 20
-24.1770124167
 11
-53.2772181678
 21
-24.1779019472
  0
LINE
  5
2F5
100
AcDbEntity
  8
RACCORDO
100
AcDbLine
 62
253
  6
CONTINUOUS
 10
-54.3874626518
 20
-24.1306040031
 11
-54.3602882422
 21
-24.1308755444
  0
LINE
  5
2F6
100
AcDbEntity
  8
RACCORDO
100
AcDbLine
 62
253
  6
CONTINUOUS
 10
-53.5187500053
 20
-24.175271877
 11
-53.3864881478
 21
-24.1770124167
  0
LINE
  5
2F7
100
AcDbEntity
  8
RACCORDO
100
AcDbLine
 62
253
  6
CONTINUOUS
 10
-54.4148088543
 20
-24.1301811665
 11
-54.3874626518
 21
-24.1306040031
  0
LWPOLYLINE
  5
2F8
100
AcDbEntity
  8
RACCORDO
100
AcDbPolyline
 62
253
  6
CONTINUOUS
 90
13
 70
0
 10
-44.6577954104
 20
-22.7966680557
 10
-44.6820322935
 20
-22.7962106317
 10
-44.7061957797
 20
-22.7947297222
 10
-44.7302465371
 20
-22.7922258835
 10
-44.7541338953
 20
-22.7887032251
 10
-44.7778300115
 20
-22.7841644471
 10
-44.8013290932
 20
-22.7786062597
 10
-44.824583165
 20
-22.7720341317
 10
-44.8475601289
 20
-22.7644506571
 10
-44.8702749229
 20
-22.7558396535
 10
-44.8927027153
 20
-22.7461940059
 10
-44.9147814052
 20
-22.7355234617
 10
-44.9364671603
 20
-22.7238330279
  0
LINE
  5
2F9
100
AcDbEntity
  8
RACCORDO
100
AcDbLine
 62
253
  6
CONTINUOUS
 10
-53.6364983123
 20
-24.1730661632
 11
-53.5187500053
 21
-24.175271877
  0
LWPOLYLINE
  5
2FA
100
AcDbEntity
  8
RACCORDO
100
AcDbPolyline
 62
253
  6
CONTINUOUS
 90
13
 70
0
 10
-44.657763614
 20
-23.0846737198
 10
-44.7022540657
 20
-23.0837463719
 10
-44.7465008426
 20
-23.0809924525
 10
-44.7905039446
 20
-23.0764119615
 10
-44.834312657
 20
-23.0700028008
 10
-44.8778776946
 20
-23.0617670686
 10
-44.9210512019
 20
-23.0517110593
 10
-44.9638129286
 20
-23.0398496606
 10
-45.006183125
 20
-23.0261679848
 10
-45.0480746864
 20
-23.0106276634
 10
-45.0894585778
 20
-22.9932159068
 10
-45.1303638341
 20
-22.9739455045
 10
-45.1707904553
 20
-22.9528164566
  0
LINE
  5
2FB
100
AcDbEntity
  8
RACCORDO
100
AcDbLine
 62
253
  6
CONTINUOUS
 10
-54.4422334517
 20
-24.1296008934
 11
-54.4148088543
 21
-24.1301811665
  0
LWPOLYLINE
  5
2FC
100
AcDbEntity
  8
RACCORDO
100
AcDbPolyline
 62
253
  6
CONTINUOUS
 90
3
 70
0
 10
-50.7927409132
 20
-24.1092293404
 10
-49.9671024401
 20
-24.1272328568
 10
-49.560489342
 20
-24.1384319026
  0
LINE
  5
2FD
100
AcDbEntity
  8
RACCORDO
100
AcDbLine
 62
253
  6
CONTINUOUS
 10
-53.7408038279
 20
-24.1705567716
 11
-53.6364983123
 21
-24.1730661632
  0
LINE
  5
2FE
100
AcDbEntity
  8
RACCORDO
100
AcDbLine
 62
253
  6
CONTINUOUS
 10
-54.4605363179
 20
-24.1291285348
 11
-54.4422334517
 21
-24.1296008934
  0
LINE
  5
2FF
100
AcDbEntity
  8
RACCORDO
100
AcDbLine
 62
253
  6
CONTINUOUS
 10
-53.8337858863
 20
-24.1678464288
 11
-53.7408038279
 21
-24.1705567716
  0
LINE
  5
300
100
AcDbEntity
  8
RACCORDO
100
AcDbLine
 62
253
  6
CONTINUOUS
 10
-54.4879585042
 20
-24.128259395
 11
-54.4605363179
 21
-24.1291285348
  0
LINE
  5
301
100
AcDbEntity
  8
RACCORDO
100
AcDbLine
 62
253
  6
CONTINUOUS
 10
-53.9170685872
 20
-24.1650135174
 11
-53.8337858863
 21
-24.1678464288
  0
LINE
  5
302
100
AcDbEntity
  8
RACCORDO
100
AcDbLine
 62
253
  6
CONTINUOUS
 10
-49.560489342
 20
-24.1384319026
 11
-48.7630376059
 21
-24.1654783212
  0
LINE
  5
303
100
AcDbEntity
  8
RACCORDO
100
AcDbLine
 62
253
  6
CONTINUOUS
 10
-54.5153144411
 20
-24.1272751237
 11
-54.4879585042
 21
-24.128259395
  0
LWPOLYLINE
  5
304
100
AcDbEntity
  8
RACCORDO
100
AcDbPolyline
 62
253
  6
CONTINUOUS
 90
19
 70
0
 10
-45.6195879606
 20
-24.2357093964
 10
-39.3250784439
 20
-24.4758452368
 10
-33.0290154079
 20
-24.6877677022
 10
-26.731522002
 20
-24.8714650658
 10
-20.4326271547
 20
-25.0269280467
 10
-14.1325484734
 20
-25.154143168
 10
-7.8316923191
 20
-25.2530970917
 10
-1.530182229
 20
-25.3237842401
 10
4.7718582622
 20
-25.3661992367
 10
11.0740226434
 20
-25.3803376326
 10
17.3761872931
 20
-25.3661993236
 10
23.6782285907
 20
-25.3237844065
 10
29.9797400252
 20
-25.2530973234
 10
36.2805981155
 20
-25.1541434422
 10
42.5806792705
 20
-25.0269283339
 10
48.8795769682
 20
-24.8714653337
 10
55.177073547
 20
-24.6877679152
 10
61.4731401319
 20
-24.4758453529
 10
67.7676535731
 20
-24.2357093682
  0
LWPOLYLINE
  5
305
100
AcDbEntity
  8
RACCORDO
100
AcDbPolyline
 62
253
  6
CONTINUOUS
 90
19
 70
0
 10
-45.6154587958
 20
-24.0936700205
 10
-39.3212044291
 20
-24.3338065615
 10
-33.0256423322
 20
-24.5457092707
 10
-26.7287725051
 20
-24.7293781479
 10
-20.4303769949
 20
-24.8848231225
 10
-14.1306737546
 20
-25.0120342651
 10
-7.8303166429
 20
-25.1109817883
 10
-1.5293057452
 20
-25.1816590724
 10
4.7723590238
 20
-25.224072737
 10
11.0740240608
 20
-25.2382128531
 10
17.3756893652
 20
-25.2240728086
 10
23.6773549376
 20
-25.1816592155
 10
29.9783671761
 20
-25.1109819815
 10
36.2787263498
 20
-25.0120344797
 10
42.5784321897
 20
-24.884823337
 10
48.8768302868
 20
-24.7293783409
 10
55.1737025049
 20
-24.5457094208
 10
61.4692669802
 20
-24.3338066473
 10
67.7635237127
 20
-24.0936700205
  0
LINE
  5
306
100
AcDbEntity
  8
RACCORDO
100
AcDbLine
 62
253
  6
CONTINUOUS
 10
-53.991246805
 20
-24.1621464221
 11
-53.9170685872
 21
-24.1650135174
  0
LINE
  5
307
100
AcDbEntity
  8
RACCORDO
100
AcDbLine
 62
253
  6
CONTINUOUS
 10
-54.5651977414
 20
-24.1252323975
 11
-54.5425522385
 21
-24.1261241385
  0
LINE
  5
308
100
AcDbEntity
  8
RACCORDO
100
AcDbLine
 62
253
  6
CONTINUOUS
 10
-48.7630376059
 20
-24.1654783212
 11
-47.9653246561
 21
-24.1971154141
  0
LINE
  5
309
100
AcDbEntity
  8
RACCORDO
100
AcDbLine
 62
253
  6
CONTINUOUS
 10
-54.5425522385
 20
-24.1261241385
 11
-54.5153144411
 21
-24.1272751237
  0
LWPOLYLINE
  5
30A
100
AcDbEntity
  8
RACCORDO
100
AcDbPolyline
 62
253
  6
CONTINUOUS
 90
9
 70
0
 10
-46.6171506633
 20
-24.7311092293
 10
-48.5624692308
 20
-24.645091575
 10
-49.4975471438
 20
-24.5936645237
 10
-50.4057083113
 20
-24.5332449914
 10
-51.2874010337
 20
-24.4648033184
 10
-52.145036435
 20
-24.3889918625
 10
-52.9792332762
 20
-24.3065862686
 10
-53.7888315496
 20
-24.2185199319
 10
-54.5736853398
 20
-24.1255309732
  0
LINE
  5
30B
100
AcDbEntity
  8
RACCORDO
100
AcDbLine
 62
253
  6
CONTINUOUS
 10
-54.0728079175
 20
-24.1585934519
 11
-53.991246805
 21
-24.1621464221
  0
LINE
  5
30C
100
AcDbEntity
  8
RACCORDO
100
AcDbLine
 62
253
  6
CONTINUOUS
 10
-47.9653246561
 20
-24.1971154141
 11
-47.1623072178
 21
-24.2329625536
  0
LINE
  5
30D
100
AcDbEntity
  8
RACCORDO
100
AcDbLine
 62
253
  6
CONTINUOUS
 10
-54.1429303871
 20
-24.1551799529
 11
-54.0728079175
 21
-24.1585934519
  0
LINE
  5
30E
100
AcDbEntity
  8
SUPERFICI
100
AcDbLine
 62
253
  6
CONTINUOUS
 10
-58.0720218527
 20
-23.9432088178
 11
-54.676298909
 21
-24.1127906191
  0
LINE
  5
30F
100
AcDbEntity
  8
SUPERFICI
100
AcDbLine
 62
253
  6
CONTINUOUS
 10
-61.2551992533
 20
-23.7759496968
 11
-58.0720218527
 21
-23.9432088178
  0
LINE
  5
310
100
AcDbEntity
  8
SUPERFICI
100
AcDbLine
 62
253
  6
CONTINUOUS
 10
-64.7283018034
 20
-23.5845476303
 11
-61.2551992533
 21
-23.7759496968
  0
LINE
  5
311
100
AcDbEntity
  8
RACCORDO
100
AcDbLine
 62
253
  6
CONTINUOUS
 10
-54.2116479574
 20
-24.1514882989
 11
-54.1429303871
 21
-24.1551799529
  0
LINE
  5
312
100
AcDbEntity
  8
RACCORDO
100
AcDbLine
 62
253
  6
CONTINUOUS
 10
-54.2699034273
 20
-24.1480698763
 11
-54.2116479574
 21
-24.1514882989
  0
LINE
  5
313
100
AcDbEntity
  8
RACCORDO
100
AcDbLine
 62
253
  6
CONTINUOUS
 10
-54.3245832185
 20
-24.1446017001
 11
-54.2699034273
 21
-24.1480698763
  0
LINE
  5
314
100
AcDbEntity
  8
RACCORDO
100
AcDbLine
 62
253
  6
CONTINUOUS
 10
-54.3786533412
 20
-24.1409057443
 11
-54.3245832185
 21
-24.1446017001
  0
LINE
  5
315
100
AcDbEntity
  8
RACCORDO
100
AcDbLine
 62
253
  6
CONTINUOUS
 10
-54.4242009715
 20
-24.1375701113
 11
-54.3786533412
 21
-24.1409057443
  0
LINE
  5
316
100
AcDbEntity
  8
RACCORDO
100
AcDbLine
 62
253
  6
CONTINUOUS
 10
-54.5736853398
 20
-24.1255309732
 11
-54.5427271378
 21
-24.1278840868
  0
LWPOLYLINE
  5
317
100
AcDbEntity
  8
RACCORDO
100
AcDbPolyline
 62
253
  6
CONTINUOUS
 90
7
 70
0
 10
-54.6768131372
 20
-24.1089592424
 10
-54.6586736037
 20
-24.110408358
 10
-54.6407011469
 20
-24.112338791
 10
-54.6228957827
 20
-24.1147505879
 10
-54.6052575249
 20
-24.1176437955
 10
-54.5877863853
 20
-24.1210184611
 10
-54.5704823741
 20
-24.1248746323
  0
LINE
  5
318
100
AcDbEntity
  8
RACCORDO
100
AcDbLine
 62
253
  6
CONTINUOUS
 10
-54.4699026471
 20
-24.1340079866
 11
-54.4242009715
 21
-24.1375701113
  0
LWPOLYLINE
  5
319
100
AcDbEntity
  8
RACCORDO
100
AcDbPolyline
 62
253
  6
CONTINUOUS
 90
3
 70
0
 10
-54.5427271378
 20
-24.1278840868
 10
-54.5333492935
 20
-24.128654549
 10
-54.515415278
 20
-24.1302457477
  0
LINE
  5
31A
100
AcDbEntity
  8
RACCORDO
100
AcDbLine
 62
253
  6
CONTINUOUS
 10
-54.515415278
 20
-24.1302457477
 11
-54.4699026471
 21
-24.1340079866
  0
LWPOLYLINE
  5
31B
100
AcDbEntity
  8
SUPERFICI
100
AcDbPolyline
 62
253
  6
CONTINUOUS
 90
3
 70
0
 10
86.3570137502
 20
-36.3261971429
 10
86.1990172627
 20
-36.3121129746
 10
86.1169130252
 20
-36.3043538413
  0
LINE
  5
31C
100
AcDbEntity
  8
RACCORDO
100
AcDbLine
 62
253
  6
CONTINUOUS
 10
-44.5767898207
 20
22.2843057108
 11
-44.6577954389
 21
22.365279504
  0
LINE
  5
31D
100
AcDbEntity
  8
RACCORDO
100
AcDbLine
 62
253
  6
CONTINUOUS
 10
-45.1759675416
 20
21.6851279899
 11
-45.2503237552
 21
21.7594988755
  0
LWPOLYLINE
  5
31E
100
AcDbEntity
  8
0
100
AcDbPolyline
 62
7
  6
CONTINUOUS
 90
22
 70
0
 10
13.0902391223
 20
-23.3679922071
 10
13.1322549717
 20
-23.3617755501
 10
13.1742732855
 20
-23.3559233938
 10
13.2162940638
 20
-23.3504357381
 10
13.2582961632
 20
-23.3452412856
 10
13.3003007269
 20
-23.3404113337
 10
13.3423711854
 20
-23.3361597744
 10
13.3845158413
 20
-23.3324782846
 10
13.426726392
 20
-23.3293751874
 10
13.4690413591
 20
-23.3270893449
 10
13.5115256936
 20
-23.3256136588
 10
13.5541144447
 20
-23.3249552274
 10
13.5966512812
 20
-23.3253742084
 10
13.639165167
 20
-23.3268819924
 10
13.6816271383
 20
-23.3294671889
 10
13.7237939723
 20
-23.3333557837
 10
13.765735202
 20
-23.33856941
 10
13.8073812945
 20
-23.3450864346
 10
13.8482804278
 20
-23.3530679435
 10
13.8882819947
 20
-23.3625676319
 10
13.9275366025
 20
-23.3735318045
 10
13.9660442511
 20
-23.3859604614
  0
LINE
  5
31F
100
AcDbEntity
  8
RACCORDO
100
AcDbLine
 62
253
  6
CONTINUOUS
 10
-53.4926107128
 20
-24.0863168364
 11
-53.4273539455
 21
-24.0799816705
  0
LINE
  5
320
100
AcDbEntity
  8
RACCORDO
100
AcDbLine
 62
253
  6
CONTINUOUS
 10
-53.5542956293
 20
-24.0920099776
 11
-53.4926107128
 21
-24.0863168364
  0
LINE
  5
321
100
AcDbEntity
  8
RACCORDO
100
AcDbLine
 62
253
  6
CONTINUOUS
 10
-53.6124758639
 20
-24.0971023105
 11
-53.5542956293
 21
-24.0920099776
  0
LINE
  5
322
100
AcDbEntity
  8
RACCORDO
100
AcDbLine
 62
253
  6
CONTINUOUS
 10
-53.6672381908
 20
-24.1016369103
 11
-53.6124758639
 21
-24.0971023105
  0
LINE
  5
323
100
AcDbEntity
  8
RACCORDO
100
AcDbLine
 62
253
  6
CONTINUOUS
 10
-53.7188634573
 20
-24.1056725635
 11
-53.6672381908
 21
-24.1016369103
  0
LINE
  5
324
100
AcDbEntity
  8
RACCORDO
100
AcDbLine
 62
253
  6
CONTINUOUS
 10
-53.7675381562
 20
-24.1092536658
 11
-53.7188634573
 21
-24.1056725635
  0
LINE
  5
325
100
AcDbEntity
  8
RACCORDO
100
AcDbLine
 62
253
  6
CONTINUOUS
 10
-53.8135923347
 20
-24.1124340697
 11
-53.7675381562
 21
-24.1092536658
  0
LINE
  5
326
100
AcDbEntity
  8
RACCORDO
100
AcDbLine
 62
253
  6
CONTINUOUS
 10
-53.8572338395
 20
-24.1152541306
 11
-53.8135923347
 21
-24.1124340697
  0
LINE
  5
327
100
AcDbEntity
  8
RACCORDO
100
AcDbLine
 62
253
  6
CONTINUOUS
 10
-53.9183593852
 20
-24.1188700777
 11
-53.8572338395
 21
-24.1152541306
  0
LINE
  5
328
100
AcDbEntity
  8
SUPERFICI
100
AcDbLine
 62
253
  6
CONTINUOUS
 10
-64.7282916391
 20
-23.5848793006
 11
-64.9685819374
 21
-23.5981222843
  0
LINE
  5
329
100
AcDbEntity
  8
RACCORDO
100
AcDbLine
 62
253
  6
CONTINUOUS
 10
-53.9744506679
 20
-24.1218279827
 11
-53.9183593852
 21
-24.1188700777
  0
LINE
  5
32A
100
AcDbEntity
  8
SUPERFICI
100
AcDbLine
 62
253
  6
CONTINUOUS
 10
-64.9685819374
 20
-23.5981222843
 11
-65.185616757
 21
-23.6089583087
  0
LINE
  5
32B
100
AcDbEntity
  8
RACCORDO
100
AcDbLine
 62
253
  6
CONTINUOUS
 10
-51.149339118
 20
-24.1264556377
 11
-50.7927425427
 21
-24.1092295571
  0
LWPOLYLINE
  5
32C
100
AcDbEntity
  8
RACCORDO
100
AcDbPolyline
 62
253
  6
CONTINUOUS
 90
16
 70
0
 10
-46.8659727124
 20
-22.8764286289
 10
-46.8768534678
 20
-22.8769293275
 10
-46.8877492834
 20
-22.8773717626
 10
-46.8985303411
 20
-22.8777506629
 10
-46.9090681895
 20
-22.8780615138
 10
-46.9192372755
 20
-22.8783006119
 10
-46.9289164391
 20
-22.8784651082
 10
-46.9379903579
 20
-22.8785530431
 10
-46.9463509204
 20
-22.8785633686
 10
-46.9538985147
 20
-22.8784959619
 10
-46.9605432147
 20
-22.878351626
 10
-46.9662058521
 20
-22.8781320806
 10
-46.9708189592
 20
-22.8778399416
 10
-46.9743275732
 20
-22.8774786895
 10
-46.9766898905
 20
-22.8770526286
 10
-46.9778777654
 20
-22.8765668352
  0
LINE
  5
32D
100
AcDbEntity
  8
RACCORDO
100
AcDbLine
 62
253
  6
CONTINUOUS
 10
-47.4595487183
 20
-22.9305286147
 11
-46.9764829699
 21
-22.9085856611
  0
LINE
  5
32E
100
AcDbEntity
  8
RACCORDO
100
AcDbLine
 62
253
  6
CONTINUOUS
 10
-54.0258935001
 20
-24.1242199934
 11
-53.9744506679
 21
-24.1218279827
  0
LINE
  5
32F
100
AcDbEntity
  8
RACCORDO
100
AcDbLine
 62
253
  6
CONTINUOUS
 10
-46.8652318631
 20
-22.9056461437
 11
-46.8869373462
 21
-22.9066109266
  0
LINE
  5
330
100
AcDbEntity
  8
SUPERFICI
100
AcDbLine
 62
253
  6
CONTINUOUS
 10
-65.185616757
 20
-23.6089583087
 11
-65.3784102899
 21
-23.6175352511
  0
LINE
  5
331
100
AcDbEntity
  8
RACCORDO
100
AcDbLine
 62
253
  6
CONTINUOUS
 10
-51.465420815
 20
-24.1402228185
 11
-51.149339118
 21
-24.1264556377
  0
LINE
  5
332
100
AcDbEntity
  8
SUPERFICI
100
AcDbLine
 62
253
  6
CONTINUOUS
 10
-65.3784102899
 20
-23.6175352511
 11
-65.732844598
 21
-23.6316518377
  0
LINE
  5
333
100
AcDbEntity
  8
RACCORDO
100
AcDbLine
 62
253
  6
CONTINUOUS
 10
-54.0732102137
 20
-24.1261342004
 11
-54.0258935001
 21
-24.1242199934
  0
LINE
  5
334
100
AcDbEntity
  8
RACCORDO
100
AcDbLine
 62
253
  6
CONTINUOUS
 10
-46.8869373462
 20
-22.9066109266
 11
-46.908160657
 21
-22.9074543236
  0
LINE
  5
335
100
AcDbEntity
  8
RACCORDO
100
AcDbLine
 62
253
  6
CONTINUOUS
 10
-51.7472478129
 20
-24.1510986561
 11
-51.465420815
 21
-24.1402228185
  0
LINE
  5
336
100
AcDbEntity
  8
RACCORDO
100
AcDbLine
 62
253
  6
CONTINUOUS
 10
-46.908160657
 20
-22.9074543236
 11
-46.9278998995
 21
-22.9081365199
  0
LINE
  5
337
100
AcDbEntity
  8
RACCORDO
100
AcDbLine
 62
253
  6
CONTINUOUS
 10
-54.1165250159
 20
-24.1276336388
 11
-54.0732102137
 21
-24.1261342004
  0
LINE
  5
338
100
AcDbEntity
  8
RACCORDO
100
AcDbLine
 62
253
  6
CONTINUOUS
 10
-51.9990288471
 20
-24.1595493451
 11
-51.7472478129
 21
-24.1510986561
  0
LWPOLYLINE
  5
339
100
AcDbEntity
  8
RACCORDO
100
AcDbPolyline
 62
253
  6
CONTINUOUS
 90
14
 70
0
 10
-45.5039295177
 20
-22.2094368743
 10
-45.471039876
 20
-22.2084707104
 10
-45.4398136774
 20
-22.2073994738
 10
-45.4104373656
 20
-22.2062295607
 10
-45.3830863395
 20
-22.2049679563
 10
-45.357923905
 20
-22.2036221933
 10
-45.3351003009
 20
-22.202200307
 10
-45.3147518011
 20
-22.2007107871
 10
-45.2969999014
 20
-22.1991625271
 10
-45.2819505941
 20
-22.1975647713
 10
-45.2696937347
 20
-22.1959270594
 10
-45.2603025059
 20
-22.19425917
 10
-45.2538329805
 20
-22.1925710614
 10
-45.2503237862
 20
-22.190872813
  0
LINE
  5
33A
100
AcDbEntity
  8
RACCORDO
100
AcDbLine
 62
253
  6
CONTINUOUS
 10
-54.1555645729
 20
-24.1287673327
 11
-54.1165250159
 21
-24.1276336388
  0
LINE
  5
33B
100
AcDbEntity
  8
RACCORDO
100
AcDbLine
 62
253
  6
CONTINUOUS
 10
-52.2258707862
 20
-24.1660138915
 11
-51.9990288471
 21
-24.1595493451
  0
LWPOLYLINE
  5
33C
100
AcDbEntity
  8
RACCORDO
100
AcDbPolyline
 62
253
  6
CONTINUOUS
 90
9
 70
0
 10
-46.9278998995
 20
-22.9081365199
 10
-46.9452232368
 20
-22.9086253107
 10
-46.9527178262
 20
-22.9087895786
 10
-46.9593128803
 20
-22.9088976214
 10
-46.9649303345
 20
-22.9089481603
 10
-46.9695036955
 20
-22.9089405969
 10
-46.9729788293
 20
-22.9088750208
 10
-46.9753146012
 20
-22.9087522081
 10
-46.9764833629
 20
-22.9085736127
  0
LINE
  5
33D
100
AcDbEntity
  8
RACCORDO
100
AcDbLine
 62
253
  6
CONTINUOUS
 10
-54.190365994
 20
-24.1295952562
 11
-54.1555645729
 21
-24.1287673327
  0
LINE
  5
33E
100
AcDbEntity
  8
RACCORDO
100
AcDbLine
 62
253
  6
CONTINUOUS
 10
-52.430879533
 20
-24.1708190874
 11
-52.2258707862
 21
-24.1660138915
  0
LINE
  5
33F
100
AcDbEntity
  8
RACCORDO
100
AcDbLine
 62
253
  6
CONTINUOUS
 10
-45.5739048677
 20
-22.2110315712
 11
-45.5039295177
 21
-22.2094368743
  0
LINE
  5
340
100
AcDbEntity
  8
RACCORDO
100
AcDbLine
 62
253
  6
CONTINUOUS
 10
-54.2217450171
 20
-24.1301872602
 11
-54.190365994
 21
-24.1295952562
  0
LINE
  5
341
100
AcDbEntity
  8
RACCORDO
100
AcDbLine
 62
253
  6
CONTINUOUS
 10
-52.6159112091
 20
-24.1742282728
 11
-52.430879533
 21
-24.1708190874
  0
LINE
  5
342
100
AcDbEntity
  8
RACCORDO
100
AcDbLine
 62
253
  6
CONTINUOUS
 10
-54.2509510906
 20
-24.1306010488
 11
-54.2217450171
 21
-24.1301872602
  0
LINE
  5
343
100
AcDbEntity
  8
RACCORDO
100
AcDbLine
 62
253
  6
CONTINUOUS
 10
-52.7831117141
 20
-24.1764836013
 11
-52.6159112091
 21
-24.1742282728
  0
LWPOLYLINE
  5
344
100
AcDbEntity
  8
RACCORDO
100
AcDbPolyline
 62
253
  6
CONTINUOUS
 90
3
 70
0
 10
-45.6861756649
 20
-22.2125134738
 10
-45.6480710005
 20
-22.2121455353
 10
-45.5739048677
 20
-22.2110315712
  0
LINE
  5
345
100
AcDbEntity
  8
RACCORDO
100
AcDbLine
 62
253
  6
CONTINUOUS
 10
-52.8857703485
 20
-24.1774516221
 11
-52.7831117141
 21
-24.1764836013
  0
LINE
  5
346
100
AcDbEntity
  8
RACCORDO
100
AcDbLine
 62
253
  6
CONTINUOUS
 10
-54.2789667297
 20
-24.130868543
 11
-54.2509510906
 21
-24.1306010488
  0
LINE
  5
347
100
AcDbEntity
  8
0
100
AcDbLine
 62
7
  6
CONTINUOUS
 10
12.4644844584
 20
-23.3481322892
 11
12.1212304584
 21
-23.3481322892
  0
LINE
  5
348
100
AcDbEntity
  8
0
100
AcDbLine
 62
7
  6
CONTINUOUS
 10
11.3733714584
 20
-23.3481322892
 11
11.0223044584
 21
-23.3481322892
  0
LINE
  5
349
100
AcDbEntity
  8
0
100
AcDbLine
 62
7
  6
CONTINUOUS
 10
10.3163954584
 20
-23.3481322892
 11
9.9618604584
 21
-23.3481322892
  0
LINE
  5
34A
100
AcDbEntity
  8
0
100
AcDbLine
 62
7
  6
CONTINUOUS
 10
9.1308524584
 20
-23.3481322892
 11
8.7762664584
 21
-23.3481322892
  0
LINE
  5
34B
100
AcDbEntity
  8
0
100
AcDbLine
 62
7
  6
CONTINUOUS
 10
8.1183194584
 20
-23.3481322892
 11
7.7328664584
 21
-23.3481322892
  0
LINE
  5
34C
100
AcDbEntity
  8
0
100
AcDbLine
 62
7
  6
CONTINUOUS
 10
9.6173584584
 20
-23.3480302892
 11
9.2625304584
 21
-23.3480302892
  0
LINE
  5
34D
100
AcDbEntity
  8
RACCORDO
100
AcDbLine
 62
253
  6
CONTINUOUS
 10
66.8058285308
 20
-23.0846737198
 11
-44.657763614
 21
-23.0846737198
  0
LINE
  5
34E
100
AcDbEntity
  8
RACCORDO
100
AcDbLine
 62
253
  6
CONTINUOUS
 10
66.805815603
 20
-22.7966680825
 11
-44.6577954364
 21
-22.7966680825
  0
LINE
  5
34F
100
AcDbEntity
  8
RACCORDO
100
AcDbLine
 62
7
  6
CONTINUOUS
 10
66.7248547376
 20
-22.7156942892
 11
-44.5767898207
 21
-22.7156942892
  0
LINE
  5
350
100
AcDbEntity
  8
RACCORDO
100
AcDbLine
 62
253
  6
CONTINUOUS
 10
76.3889937213
 20
-24.1304738674
 11
76.4261377972
 21
-24.1308657965
  0
LINE
  5
351
100
AcDbEntity
  8
RACCORDO
100
AcDbLine
 62
253
  6
CONTINUOUS
 10
74.8559540636
 20
-24.1755676965
 11
75.0422942729
 21
-24.1775178057
  0
LINE
  5
352
100
AcDbEntity
  8
RACCORDO
100
AcDbLine
 62
253
  6
CONTINUOUS
 10
67.8342408665
 20
-22.2125133769
 11
67.7586378115
 21
-22.211650507
  0
LINE
  5
353
100
AcDbEntity
  8
RACCORDO
100
AcDbLine
 62
253
  6
CONTINUOUS
 10
74.6497411529
 20
-24.172222927
 11
74.8559540636
 21
-24.1755676965
  0
LINE
  5
354
100
AcDbEntity
  8
RACCORDO
100
AcDbLine
 62
253
  6
CONTINUOUS
 10
76.3494459246
 20
-24.1298131901
 11
76.3889937213
 21
-24.1304738674
  0
LWPOLYLINE
  5
355
100
AcDbEntity
  8
RACCORDO
100
AcDbPolyline
 62
253
  6
CONTINUOUS
 90
16
 70
0
 10
67.7586378115
 20
-22.211650507
 10
67.6863510649
 20
-22.2102921397
 10
67.651994244
 20
-22.2094368252
 10
67.6191044859
 20
-22.2084706687
 10
67.5878781687
 20
-22.2073994388
 10
67.558501738
 20
-22.2062295316
 10
67.5311505944
 20
-22.2049679325
 10
67.5059880459
 20
-22.2036221742
 10
67.4831643328
 20
-22.2022002919
 10
67.4628157306
 20
-22.2007107754
 10
67.4450637366
 20
-22.1991625183
 10
67.4300143443
 20
-22.1975647649
 10
67.4177574104
 20
-22.1959270552
 10
67.4083661185
 20
-22.1942591674
 10
67.4018965421
 20
-22.1925710603
 10
67.3983873096
 20
-22.1908728131
  0
LWPOLYLINE
  5
356
100
AcDbEntity
  8
RACCORDO
100
AcDbPolyline
 62
253
  6
CONTINUOUS
 90
8
 70
0
 10
69.093288221
 20
-22.9086253077
 10
69.1007828225
 20
-22.9087895764
 10
69.1073778895
 20
-22.9088976203
 10
69.1129953573
 20
-22.9089481604
 10
69.1175687325
 20
-22.9089405985
 10
69.1210438809
 20
-22.9088750241
 10
69.1233796676
 20
-22.9087522135
 10
69.1245484442
 20
-22.9085736202
  0
LINE
  5
357
100
AcDbEntity
  8
RACCORDO
100
AcDbLine
 62
253
  6
CONTINUOUS
 10
74.4206417263
 20
-24.1671782098
 11
74.6497411529
 21
-24.172222927
  0
LINE
  5
358
100
AcDbEntity
  8
RACCORDO
100
AcDbLine
 62
253
  6
CONTINUOUS
 10
76.3077913143
 20
-24.1288648014
 11
76.3494459246
 21
-24.1298131901
  0
LINE
  5
359
100
AcDbEntity
  8
RACCORDO
100
AcDbLine
 62
253
  6
CONTINUOUS
 10
74.1663471229
 20
-24.1601036524
 11
74.4206417263
 21
-24.1671782098
  0
LINE
  5
35A
100
AcDbEntity
  8
RACCORDO
100
AcDbLine
 62
253
  6
CONTINUOUS
 10
69.0759648626
 20
-22.9081365158
 11
69.093288221
 21
-22.9086253077
  0
LINE
  5
35B
100
AcDbEntity
  8
RACCORDO
100
AcDbLine
 62
253
  6
CONTINUOUS
 10
76.2643284973
 20
-24.1276105439
 11
76.3077913143
 21
-24.1288648014
  0
LINE
  5
35C
100
AcDbEntity
  8
RACCORDO
100
AcDbLine
 62
253
  6
CONTINUOUS
 10
73.8831086074
 20
-24.1505975356
 11
74.1663471229
 21
-24.1601036524
  0
LINE
  5
35D
100
AcDbEntity
  8
RACCORDO
100
AcDbLine
 62
253
  6
CONTINUOUS
 10
69.0562256036
 20
-22.9074543193
 11
69.0759648626
 21
-22.9081365158
  0
LINE
  5
35E
100
AcDbEntity
  8
RACCORDO
100
AcDbLine
 62
253
  6
CONTINUOUS
 10
76.2190542426
 20
-24.1260309048
 11
76.2643284973
 21
-24.1276105439
  0
LINE
  5
35F
100
AcDbEntity
  8
RACCORDO
100
AcDbLine
 62
253
  6
CONTINUOUS
 10
73.5649659756
 20
-24.1381315141
 11
73.8831086074
 21
-24.1505975356
  0
LINE
  5
360
100
AcDbEntity
  8
RACCORDO
100
AcDbLine
 62
253
  6
CONTINUOUS
 10
69.0350022816
 20
-22.9066109227
 11
69.0562256036
 21
-22.9074543193
  0
LINE
  5
361
100
AcDbEntity
  8
RACCORDO
100
AcDbLine
 62
253
  6
CONTINUOUS
 10
76.1716835737
 20
-24.1240971057
 11
76.2190542426
 21
-24.1260309048
  0
LINE
  5
362
100
AcDbEntity
  8
SUPERFICI
100
AcDbLine
 62
253
  6
CONTINUOUS
 10
87.4651561089
 20
-23.6149122275
 11
87.8809095148
 21
-23.6316518377
  0
LINE
  5
363
100
AcDbEntity
  8
RACCORDO
100
AcDbLine
 62
253
  6
CONTINUOUS
 10
69.6076137777
 20
-22.9305286212
 11
69.1245484412
 21
-22.9085736201
  0
LINE
  5
364
100
AcDbEntity
  8
RACCORDO
100
AcDbLine
 62
253
  6
CONTINUOUS
 10
69.0132967929
 20
-22.9056461407
 11
69.0350022816
 21
-22.9066109227
  0
LWPOLYLINE
  5
365
100
AcDbEntity
  8
RACCORDO
100
AcDbPolyline
 62
253
  6
CONTINUOUS
 90
16
 70
0
 10
69.0140376072
 20
-22.8764286343
 10
69.0249183751
 20
-22.8769293336
 10
69.0358142033
 20
-22.8773717694
 10
69.0465952731
 20
-22.87775067
 10
69.0571331328
 20
-22.8780615212
 10
69.0673022287
 20
-22.8783006193
 10
69.0769814006
 20
-22.8784651155
 10
69.0860553255
 20
-22.8785530499
 10
69.0944158917
 20
-22.8785633748
 10
69.101963487
 20
-22.8784959673
 10
69.1086081851
 20
-22.8783516304
 10
69.1142708174
 20
-22.8781320838
 10
69.1188839164
 20
-22.8778399434
 10
69.1223925189
 20
-22.8774786899
 10
69.1247548216
 20
-22.8770526275
 10
69.1259426787
 20
-22.8765668325
  0
LINE
  5
366
100
AcDbEntity
  8
RACCORDO
100
AcDbLine
 62
253
  6
CONTINUOUS
 10
73.2058427653
 20
-24.1221049711
 11
73.5649659756
 21
-24.1381315141
  0
LINE
  5
367
100
AcDbEntity
  8
SUPERFICI
100
AcDbLine
 62
253
  6
CONTINUOUS
 10
87.2638336507
 20
-23.6056043339
 11
87.4651561089
 21
-23.6149122275
  0
LINE
  5
368
100
AcDbEntity
  8
RACCORDO
100
AcDbLine
 62
253
  6
CONTINUOUS
 10
76.1218282046
 20
-24.1217646671
 11
76.1716835737
 21
-24.1240971057
  0
LINE
  5
369
100
AcDbEntity
  8
RACCORDO
100
AcDbLine
 62
253
  6
CONTINUOUS
 10
72.9405537316
 20
-24.1091989402
 11
73.2058427653
 21
-24.1221049711
  0
LINE
  5
36A
100
AcDbEntity
  8
SUPERFICI
100
AcDbLine
 62
253
  6
CONTINUOUS
 10
87.0388895251
 20
-23.5939636313
 11
87.2638336507
 21
-23.6056043339
  0
LINE
  5
36B
100
AcDbEntity
  8
RACCORDO
100
AcDbLine
 62
253
  6
CONTINUOUS
 10
76.0692504455
 20
-24.1189941247
 11
76.1218282046
 21
-24.1217646671
  0
LINE
  5
36C
100
AcDbEntity
  8
SUPERFICI
100
AcDbLine
 62
253
  6
CONTINUOUS
 10
86.876356556
 20
-23.5848793006
 11
87.0388895251
 21
-23.5939636313
  0
LINE
  5
36D
100
AcDbEntity
  8
RACCORDO
100
AcDbLine
 62
253
  6
CONTINUOUS
 10
76.0136013464
 20
-24.1157314652
 11
76.0692504455
 21
-24.1189941247
  0
LINE
  5
36E
100
AcDbEntity
  8
RACCORDO
100
AcDbLine
 62
253
  6
CONTINUOUS
 10
75.9545309056
 20
-24.1119142611
 11
76.0136013464
 21
-24.1157314652
  0
LINE
  5
36F
100
AcDbEntity
  8
RACCORDO
100
AcDbLine
 62
253
  6
CONTINUOUS
 10
75.8918085333
 20
-24.1074862666
 11
75.9545309056
 21
-24.1119142611
  0
LINE
  5
370
100
AcDbEntity
  8
RACCORDO
100
AcDbLine
 62
253
  6
CONTINUOUS
 10
75.8250860646
 20
-24.1023734549
 11
75.8918085333
 21
-24.1074862666
  0
LINE
  5
371
100
AcDbEntity
  8
RACCORDO
100
AcDbLine
 62
253
  6
CONTINUOUS
 10
75.7540576089
 20
-24.0965001084
 11
75.8250860646
 21
-24.1023734549
  0
LINE
  5
372
100
AcDbEntity
  8
RACCORDO
100
AcDbLine
 62
253
  6
CONTINUOUS
 10
75.6785212504
 20
-24.0897969296
 11
75.7540576089
 21
-24.0965001084
  0
LWPOLYLINE
  5
373
100
AcDbEntity
  8
0
100
AcDbPolyline
 62
7
  6
CONTINUOUS
 90
7
 70
0
 10
13.7098406796
 20
-23.6277131266
 10
13.6649458099
 20
-23.6235526616
 10
13.6194777688
 20
-23.62172355
 10
13.5734365563
 20
-23.6222257919
 10
13.5268221723
 20
-23.6250593872
 10
13.4796346169
 20
-23.630224336
 10
13.43187389
 20
-23.6377206383
  0
LWPOLYLINE
  5
374
100
AcDbEntity
  8
RACCORDO
100
AcDbPolyline
 62
253
  6
CONTINUOUS
 90
3
 70
0
 10
75.5561180687
 20
-24.0780036098
 10
75.5981832224
 20
-24.0821799996
 10
75.6785212504
 20
-24.0897969296
  0
LWPOLYLINE
  5
375
100
AcDbEntity
  8
0
100
AcDbPolyline
 62
7
  6
CONTINUOUS
 90
48
 70
0
 10
13.9660442511
 20
-23.3859604614
 10
13.9866910662
 20
-23.3944592239
 10
14.0072936425
 20
-23.4046831189
 10
14.0278519801
 20
-23.4166321463
 10
14.0484745488
 20
-23.4302666325
 10
14.0690528787
 20
-23.4456262511
 10
14.0892615602
 20
-23.4628300232
 10
14.1091964516
 20
-23.4818601265
 10
14.1287616947
 20
-23.5027343832
 10
14.1473443048
 20
-23.5256252816
 10
14.1650709837
 20
-23.5509561845
 10
14.1818150296
 20
-23.578303729
 10
14.1965833529
 20
-23.6065703147
 10
14.209061187
 20
-23.6358806607
 10
14.2195632985
 20
-23.666110048
 10
14.2280408976
 20
-23.6957867185
 10
14.2342548467
 20
-23.7245873092
 10
14.2384442833
 20
-23.7528351833
 10
14.2412778307
 20
-23.7800286721
 10
14.2428470738
 20
-23.805954036
 10
14.2430604277
 20
-23.8308250146
 10
14.2423117605
 20
-23.8547811585
 10
14.2406564334
 20
-23.8778547593
 10
14.2380390853
 20
-23.9000135254
 10
14.2346875018
 20
-23.9213001318
 10
14.2306100695
 20
-23.9417130279
 10
14.2257984019
 20
-23.9612537644
 10
14.2204551252
 20
-23.9799696681
 10
14.214590403
 20
-23.9978555316
 10
14.2081940717
 20
-24.0149165624
 10
14.2014382668
 20
-24.0312157102
 10
14.1943419072
 20
-24.0467510843
 10
14.186886074
 20
-24.0615245754
 10
14.1791861466
 20
-24.0756048058
 10
14.1712498304
 20
-24.0889998553
 10
14.1630694199
 20
-24.101701644
 10
14.1547371778
 20
-24.1137545552
 10
14.1462486025
 20
-24.1251434359
 10
14.1376081956
 20
-24.1358834391
 10
14.1289217248
 20
-24.1460644067
 10
14.1201801661
 20
-24.155678145
 10
14.1113925435
 20
-24.1647328476
 10
14.1026916976
 20
-24.1733429369
 10
14.0940942051
 20
-24.1815125853
 10
14.0855834893
 20
-24.1892376204
 10
14.0772426603
 20
-24.1966199468
 10
14.0691367412
 20
-24.2036872413
 10
14.061200709
 20
-24.2104118272
  0
LWPOLYLINE
  5
376
100
AcDbEntity
  8
0
100
AcDbPolyline
 62
7
  6
CONTINUOUS
 90
21
 70
0
 10
14.0024846412
 20
-24.2545140976
 10
14.0220587017
 20
-24.264326657
 10
14.0400455341
 20
-24.2750563191
 10
14.0564451385
 20
-24.2867030842
 10
14.0710879845
 20
-24.2994591051
 10
14.0841436025
 20
-24.3131322288
 10
14.0961205832
 20
-24.3271459963
 10
14.1070683062
 20
-24.3413760225
 10
14.1169373919
 20
-24.3559466924
 10
14.1260882929
 20
-24.370654702
 10
14.1345835971
 20
-24.3854924053
 10
14.1423607167
 20
-24.4004674482
 10
14.149592341
 20
-24.4153994651
 10
14.1562917663
 20
-24.4302561197
 10
14.1624456964
 20
-24.4450697481
 10
14.1681869316
 20
-24.4597569938
 10
14.1735125275
 20
-24.474272391
 10
14.1784254286
 20
-24.4886614054
 10
14.1830672686
 20
-24.5029770773
 10
14.1874292463
 20
-24.5172180618
 10
14.1915201628
 20
-24.5313857038
  0
LWPOLYLINE
  5
377
100
AcDbEntity
  8
ASSI
100
AcDbPolyline
 62
253
  6
CONTINUOUS
 90
4
 70
0
 10
-49.3454740157
 20
-23.445229131
 10
-49.1837343263
 20
-23.4141667631
 10
-49.0162615539
 20
-23.3811752666
 10
-48.6639111814
 20
-23.3093381438
  0
LINE
  5
378
100
AcDbEntity
  8
ASSI
100
AcDbLine
 62
253
  6
CONTINUOUS
 10
-49.6527092791
 20
-23.5021423019
 11
-49.3454740157
 21
-23.445229131
  0
LINE
  5
379
100
AcDbEntity
  8
ASSI
100
AcDbLine
 62
253
  6
CONTINUOUS
 10
-49.9395403233
 20
-23.5527787219
 11
-49.6527092791
 21
-23.5021423019
  0
LINE
  5
37A
100
AcDbEntity
  8
ASSI
100
AcDbLine
 62
253
  6
CONTINUOUS
 10
-50.2115528307
 20
-23.5992032913
 11
-49.9395403233
 21
-23.5527787219
  0
LINE
  5
37B
100
AcDbEntity
  8
ASSI
100
AcDbLine
 62
253
  6
CONTINUOUS
 10
-50.6008345725
 20
-23.6635041528
 11
-50.2115528307
 21
-23.5992032913
  0
LINE
  5
37C
100
AcDbEntity
  8
ASSI
100
AcDbLine
 62
253
  6
CONTINUOUS
 10
-50.8536242274
 20
-23.7040402426
 11
-50.6008345725
 21
-23.6635041528
  0
LINE
  5
37D
100
AcDbEntity
  8
RACCORDO
100
AcDbLine
 62
253
  6
CONTINUOUS
 10
-52.1096717001
 20
-23.9047940496
 11
-50.8536242274
 21
-23.7040402426
  0
LINE
  5
37E
100
AcDbEntity
  8
RACCORDO
100
AcDbLine
 62
253
  6
CONTINUOUS
 10
-52.3239874424
 20
-23.9375520639
 11
-52.1096717001
 21
-23.9047940496
  0
LINE
  5
37F
100
AcDbEntity
  8
RACCORDO
100
AcDbLine
 62
253
  6
CONTINUOUS
 10
-52.5177917297
 20
-23.9661738132
 11
-52.3239874424
 21
-23.9375520639
  0
LINE
  5
380
100
AcDbEntity
  8
RACCORDO
100
AcDbLine
 62
253
  6
CONTINUOUS
 10
-52.6928972815
 20
-23.9910119822
 11
-52.5177917297
 21
-23.9661738132
  0
LINE
  5
381
100
AcDbEntity
  8
RACCORDO
100
AcDbLine
 62
253
  6
CONTINUOUS
 10
-52.8002727617
 20
-24.005683437
 11
-52.6928972815
 21
-23.9910119822
  0
LINE
  5
382
100
AcDbEntity
  8
RACCORDO
100
AcDbLine
 62
253
  6
CONTINUOUS
 10
-52.9490029167
 20
-24.0251906074
 11
-52.8002727617
 21
-24.005683437
  0
LWPOLYLINE
  5
383
100
AcDbEntity
  8
RACCORDO
100
AcDbPolyline
 62
253
  6
CONTINUOUS
 90
14
 70
0
 10
-50.7927409132
 20
-24.1092293404
 10
-50.6667143199
 20
-24.0935234937
 10
-50.5393608839
 20
-24.0767442508
 10
-50.4106806052
 20
-24.0588916119
 10
-50.2812396465
 20
-24.040049031
 10
-50.150471845
 20
-24.020133054
 10
-50.016678713
 20
-23.9988933184
 10
-49.8798462186
 20
-23.9763216681
 10
-49.7399883938
 20
-23.9524262592
 10
-49.5954488471
 20
-23.9269811976
 10
-49.4459194943
 20
-23.8999720562
 10
-49.2917084196
 20
-23.8714132622
 10
-49.1320834839
 20
-23.8411222028
 10
-48.7963775952
 20
-23.7753894228
  0
LINE
  5
384
100
AcDbEntity
  8
RACCORDO
100
AcDbLine
 62
253
  6
CONTINUOUS
 10
-53.0407781645
 20
-24.0367070402
 11
-52.9490029167
 21
-24.0251906074
  0
LINE
  5
385
100
AcDbEntity
  8
RACCORDO
100
AcDbLine
 62
253
  6
CONTINUOUS
 10
-53.1272629614
 20
-24.0471579048
 11
-53.0407781645
 21
-24.0367070402
  0
LINE
  5
386
100
AcDbEntity
  8
RACCORDO
100
AcDbLine
 62
253
  6
CONTINUOUS
 10
-53.208767011
 20
-24.0566276893
 11
-53.1272629614
 21
-24.0471579048
  0
LINE
  5
387
100
AcDbEntity
  8
RACCORDO
100
AcDbLine
 62
253
  6
CONTINUOUS
 10
-53.2856986133
 20
-24.0652008585
 11
-53.208767011
 21
-24.0566276893
  0
LINE
  5
388
100
AcDbEntity
  8
RACCORDO
100
AcDbLine
 62
253
  6
CONTINUOUS
 10
-53.3584843428
 20
-24.0729645251
 11
-53.2856986133
 21
-24.0652008585
  0
LINE
  5
389
100
AcDbEntity
  8
RACCORDO
100
AcDbLine
 62
253
  6
CONTINUOUS
 10
-53.4273539455
 20
-24.0799816705
 11
-53.3584843428
 21
-24.0729645251
  0
LINE
  5
38A
100
AcDbEntity
  8
RACCORDO
100
AcDbLine
 62
253
  6
CONTINUOUS
 10
75.4681088054
 20
-24.0688654832
 11
75.5561180687
 21
-24.0780036098
  0
LINE
  5
38B
100
AcDbEntity
  8
RACCORDO
100
AcDbLine
 62
253
  6
CONTINUOUS
 10
75.3746025551
 20
-24.0586053056
 11
75.4681088054
 21
-24.0688654832
  0
LINE
  5
38C
100
AcDbEntity
  8
RACCORDO
100
AcDbLine
 62
253
  6
CONTINUOUS
 10
75.2753207164
 20
-24.0471307712
 11
75.3746025551
 21
-24.0586053056
  0
LINE
  5
38D
100
AcDbEntity
  8
RACCORDO
100
AcDbLine
 62
253
  6
CONTINUOUS
 10
75.1697652674
 20
-24.0343259586
 11
75.2753207164
 21
-24.0471307712
  0
LINE
  5
38E
100
AcDbEntity
  8
RACCORDO
100
AcDbLine
 62
253
  6
CONTINUOUS
 10
75.0573109278
 20
-24.0200674252
 11
75.1697652674
 21
-24.0343259586
  0
LINE
  5
38F
100
AcDbEntity
  8
RACCORDO
100
AcDbLine
 62
253
  6
CONTINUOUS
 10
74.9375073556
 20
-24.0042290167
 11
75.0573109278
 21
-24.0200674252
  0
LINE
  5
390
100
AcDbEntity
  8
RACCORDO
100
AcDbLine
 62
253
  6
CONTINUOUS
 10
74.8096720117
 20
-23.986666272
 11
74.9375073556
 21
-24.0042290167
  0
LINE
  5
391
100
AcDbEntity
  8
RACCORDO
100
AcDbLine
 62
253
  6
CONTINUOUS
 10
74.6726745265
 20
-23.9671953314
 11
74.8096720117
 21
-23.986666272
  0
LINE
  5
392
100
AcDbEntity
  8
RACCORDO
100
AcDbLine
 62
253
  6
CONTINUOUS
 10
74.448587651
 20
-23.9340701877
 11
74.6726745265
 21
-23.9671953314
  0
LINE
  5
393
100
AcDbEntity
  8
RACCORDO
100
AcDbLine
 62
253
  6
CONTINUOUS
 10
74.200062377
 20
-23.895882583
 11
74.448587651
 21
-23.9340701877
  0
LINE
  5
394
100
AcDbEntity
  8
RACCORDO
100
AcDbLine
 62
253
  6
CONTINUOUS
 10
73.0014407782
 20
-23.7040007616
 11
74.200062377
 21
-23.895882583
  0
LINE
  5
395
100
AcDbEntity
  8
ASSI
100
AcDbLine
 62
253
  6
CONTINUOUS
 10
72.619829118
 20
-23.6424300229
 11
73.0014407782
 21
-23.7040007616
  0
LINE
  5
396
100
AcDbEntity
  8
ASSI
100
AcDbLine
 62
253
  6
CONTINUOUS
 10
72.2247818907
 20
-23.5763283337
 11
72.619829118
 21
-23.6424300229
  0
LWPOLYLINE
  5
397
100
AcDbEntity
  8
RACCORDO
100
AcDbPolyline
 62
253
  6
CONTINUOUS
 90
9
 70
0
 10
71.8876302526
 20
-23.9523446016
 10
72.0274432559
 20
-23.9762513258
 10
72.1642507405
 20
-23.9988310743
 10
72.2980507408
 20
-24.020070167
 10
72.4288452224
 20
-24.0399822838
 10
72.5583234145
 20
-24.0588253695
 10
72.6870483938
 20
-24.0766854057
 10
72.8144570837
 20
-24.0934764106
 10
72.9405494842
 20
-24.1091983844
  0
LWPOLYLINE
  5
398
100
AcDbEntity
  8
ASSI
100
AcDbPolyline
 62
253
  6
CONTINUOUS
 90
3
 70
0
 10
71.8003779744
 20
-23.5020859436
 10
71.9462311012
 20
-23.5281273961
 10
72.2247818907
 20
-23.5763283337
  0
LWPOLYLINE
  5
399
100
AcDbEntity
  8
RACCORDO
100
AcDbPolyline
 62
253
  6
CONTINUOUS
 90
3
 70
0
 10
71.439418314
 20
-23.8713441089
 10
71.5936177817
 20
-23.8998909931
 10
71.8876302526
 20
-23.9523446016
  0
LWPOLYLINE
  5
39A
100
AcDbEntity
  8
RACCORDO
100
AcDbPolyline
 62
253
  6
CONTINUOUS
 90
3
 70
0
 10
70.9441364427
 20
-23.7753294482
 10
71.1146776446
 20
-23.8090633364
 10
71.439418314
 20
-23.8713441089
  0
LINE
  5
39B
100
AcDbEntity
  8
RACCORDO
100
AcDbLine
 62
253
  6
CONTINUOUS
 10
-45.8651598055
 20
-23.1275852246
 11
-45.1707904553
 21
-22.9528164566
  0
LINE
  5
39C
100
AcDbEntity
  8
RACCORDO
100
AcDbLine
 62
253
  6
CONTINUOUS
 10
-45.6251444454
 20
-22.5688638945
 11
-46.3187024507
 21
-22.7425099464
  0
LINE
  5
39D
100
AcDbEntity
  8
RACCORDO
100
AcDbLine
 62
253
  6
CONTINUOUS
 10
-46.383238247
 20
-23.2554619438
 11
-45.8651598055
 21
-23.1275852246
  0
LINE
  5
39E
100
AcDbEntity
  8
RACCORDO
100
AcDbLine
 62
253
  6
CONTINUOUS
 10
-46.3187024507
 20
-22.7425099464
 11
-46.865972798
 21
-22.8764262832
  0
LINE
  5
39F
100
AcDbEntity
  8
RACCORDO
100
AcDbLine
 62
253
  6
CONTINUOUS
 10
-46.7551077992
 20
-23.3454626122
 11
-46.383238247
 21
-23.2554619438
  0
LINE
  5
3A0
100
AcDbEntity
  8
ASSI
100
AcDbLine
 62
253
  6
CONTINUOUS
 10
-47.8842690888
 20
-23.1403073629
 11
-47.4546591035
 21
-23.0419221035
  0
LINE
  5
3A1
100
AcDbEntity
  8
RACCORDO
100
AcDbLine
 62
253
  6
CONTINUOUS
 10
-47.8543600119
 20
-23.5761444564
 11
-47.4326802484
 21
-23.4810196432
  0
LINE
  5
3A2
100
AcDbEntity
  8
ASSI
100
AcDbLine
 62
253
  6
CONTINUOUS
 10
-48.2871839719
 20
-23.2293182624
 11
-47.8842690888
 21
-23.1403073629
  0
LINE
  5
3A3
100
AcDbEntity
  8
RACCORDO
100
AcDbLine
 62
253
  6
CONTINUOUS
 10
-48.2499134424
 20
-23.6622812848
 11
-47.8543600119
 21
-23.5761444564
  0
LINE
  5
3A4
100
AcDbEntity
  8
ASSI
100
AcDbLine
 62
253
  6
CONTINUOUS
 10
-48.6639111814
 20
-23.3093381438
 11
-48.2871839719
 21
-23.2293182624
  0
LWPOLYLINE
  5
3A5
100
AcDbEntity
  8
RACCORDO
100
AcDbPolyline
 62
253
  6
CONTINUOUS
 90
3
 70
0
 10
-48.7963775952
 20
-23.7753894228
 10
-48.6199933718
 20
-23.739672819
 10
-48.2499134424
 20
-23.6622812848
  0
LWPOLYLINE
  5
3A6
100
AcDbEntity
  8
ASSI
100
AcDbPolyline
 62
253
  6
CONTINUOUS
 90
4
 70
0
 10
71.1640043999
 20
-23.3811069893
 10
71.3314607679
 20
-23.4140973077
 10
71.4931831368
 20
-23.4451644014
 10
71.8003779744
 20
-23.5020859436
  0
LINE
  5
3A7
100
AcDbEntity
  8
ASSI
100
AcDbLine
 62
253
  6
CONTINUOUS
 10
70.8116867528
 20
-23.3092774202
 11
71.1640043999
 21
-23.3811069893
  0
LINE
  5
3A8
100
AcDbEntity
  8
RACCORDO
100
AcDbLine
 62
253
  6
CONTINUOUS
 10
70.5856606089
 20
-23.7019113904
 11
70.9441364427
 21
-23.7753294482
  0
LINE
  5
3A9
100
AcDbEntity
  8
ASSI
100
AcDbLine
 62
253
  6
CONTINUOUS
 10
70.4349908179
 20
-23.229263488
 11
70.8116867528
 21
-23.3092774202
  0
LINE
  5
3AA
100
AcDbEntity
  8
RACCORDO
100
AcDbLine
 62
253
  6
CONTINUOUS
 10
70.2033308691
 20
-23.6203199401
 11
70.5856606089
 21
-23.7019113904
  0
LINE
  5
3AB
100
AcDbEntity
  8
ASSI
100
AcDbLine
 62
253
  6
CONTINUOUS
 10
70.0321671565
 20
-23.1402708827
 11
70.4349908179
 21
-23.229263488
  0
LWPOLYLINE
  5
3AC
100
AcDbEntity
  8
RACCORDO
100
AcDbPolyline
 62
253
  6
CONTINUOUS
 90
3
 70
0
 10
69.5807452339
 20
-23.4810189731
 10
69.7947342549
 20
-23.5296757399
 10
70.2033308691
 20
-23.6203199401
  0
LINE
  5
3AD
100
AcDbEntity
  8
ASSI
100
AcDbLine
 62
253
  6
CONTINUOUS
 10
69.6027240735
 20
-23.041920956
 11
70.0321671565
 21
-23.1402708827
  0
LINE
  5
3AE
100
AcDbEntity
  8
RACCORDO
100
AcDbLine
 62
253
  6
CONTINUOUS
 10
68.3412707871
 20
-23.2088524668
 11
68.903172862
 21
-23.3454623861
  0
LINE
  5
3AF
100
AcDbEntity
  8
RACCORDO
100
AcDbLine
 62
253
  6
CONTINUOUS
 10
68.4667567372
 20
-22.7425070619
 11
69.0140376776
 21
-22.8764264627
  0
LINE
  5
3B0
100
AcDbEntity
  8
RACCORDO
100
AcDbLine
 62
253
  6
CONTINUOUS
 10
67.6485245433
 20
-23.0362877952
 11
68.3412707871
 21
-23.2088524668
  0
LINE
  5
3B1
100
AcDbEntity
  8
RACCORDO
100
AcDbLine
 62
253
  6
CONTINUOUS
 10
67.7732194771
 20
-22.5688663392
 11
68.4667567372
 21
-22.7425070619
  0
LINE
  5
3B2
100
AcDbEntity
  8
RACCORDO
100
AcDbLine
 62
253
  6
CONTINUOUS
 10
67.3185735036
 20
-22.9529489393
 11
67.6485245433
 21
-23.0362877952
  0
LWPOLYLINE
  5
3B3
100
AcDbEntity
  8
0
100
AcDbPolyline
 62
7
  6
CONTINUOUS
 90
16
 70
0
 10
13.8318218239
 20
-24.5324603164
 10
13.8258127503
 20
-24.5180342981
 10
13.8187586975
 20
-24.5039175328
 10
13.8106596654
 20
-24.4901100206
 10
13.80152867
 20
-24.4765345309
 10
13.7913526952
 20
-24.4632682944
 10
13.7800926936
 20
-24.4505430021
 10
13.7677015525
 20
-24.438243567
 10
13.7542263845
 20
-24.4264850762
 10
13.7397694799
 20
-24.4158444822
 10
13.7243177648
 20
-24.4062869942
 10
13.707884313
 20
-24.397847403
 10
13.6906106372
 20
-24.3912070328
 10
13.672543908
 20
-24.3865929919
 10
13.6536369548
 20
-24.3837781721
 10
13.6338897775
 20
-24.3827625734
  0
LINE
  5
3B4
100
AcDbEntity
  8
0
100
AcDbLine
 62
7
  6
CONTINUOUS
 10
10.2244004584
 20
-23.9380162892
 11
10.6406564584
 21
-25.0479952892
  0
LINE
  5
3B5
100
AcDbEntity
  8
0
100
AcDbLine
 62
7
  6
CONTINUOUS
 10
10.6674764584
 20
-24.2919012892
 11
10.3163954584
 21
-23.3481322892
  0
LINE
  5
3B6
100
AcDbEntity
  8
0
100
AcDbLine
 62
7
  6
CONTINUOUS
 10
7.7328664584
 20
-23.3481322892
 11
8.2717564584
 21
-25.0479952892
  0
LINE
  5
3B7
100
AcDbEntity
  8
0
100
AcDbLine
 62
7
  6
CONTINUOUS
 10
12.9860444584
 20
-25.0479952892
 11
12.4644844584
 21
-23.3481322892
  0
LINE
  5
3B8
100
AcDbEntity
  8
0
100
AcDbLine
 62
7
  6
CONTINUOUS
 10
8.4423444584
 20
-24.5182002892
 11
8.1183194584
 21
-23.3481322892
  0
LINE
  5
3B9
100
AcDbEntity
  8
0
100
AcDbLine
 62
7
  6
CONTINUOUS
 10
11.5323284584
 20
-25.0479952892
 11
11.3733714584
 21
-23.3481322892
  0
LINE
  5
3BA
100
AcDbEntity
  8
0
100
AcDbLine
 62
7
  6
CONTINUOUS
 10
11.1123114584
 20
-23.9426432892
 11
11.1852124584
 21
-25.0479952892
  0
LINE
  5
3BB
100
AcDbEntity
  8
0
100
AcDbLine
 62
7
  6
CONTINUOUS
 10
9.2625304584
 20
-23.3480302892
 11
9.2625304584
 21
-25.0479952892
  0
LINE
  5
3BC
100
AcDbEntity
  8
0
100
AcDbLine
 62
7
  6
CONTINUOUS
 10
9.6173584584
 20
-25.0479952892
 11
9.6173584584
 21
-23.3480302892
  0
LINE
  5
3BD
100
AcDbEntity
  8
0
100
AcDbLine
 62
253
  6
CONTINUOUS
 10
11.0740327397
 20
47.1399494158
 11
11.0740324584
 21
46.1343056838
  0
LINE
  5
3BE
100
AcDbEntity
  8
0
100
AcDbLine
 62
253
  6
CONTINUOUS
 10
11.0740327397
 20
-47.5713379942
 11
11.0740324584
 21
-46.5656942622
  0
LINE
  5
3BF
100
AcDbEntity
  8
ASSI
100
AcDbLine
 62
253
  6
CONTINUOUS
 10
11.0740324584
 20
46.1343056837
 11
11.0740324584
 21
25.6843057108
  0
LINE
  5
3C0
100
AcDbEntity
  8
ASSI
100
AcDbLine
 62
253
  6
CONTINUOUS
 10
11.0740324584
 20
-46.5656942622
 11
11.0740324584
 21
-26.1156942892
  0
LINE
  5
3C1
100
AcDbEntity
  8
0
100
AcDbLine
 62
7
  6
CONTINUOUS
 10
10.1478284584
 20
-25.0479952892
 11
10.2244004584
 21
-23.9380162892
  0
LWPOLYLINE
  5
3C2
100
AcDbEntity
  8
RACCORDO
100
AcDbPolyline
 62
253
  6
CONTINUOUS
 90
16
 70
0
 10
-46.755099516
 20
-23.345477004
 10
-46.7654533986
 20
-23.3498500273
 10
-46.7756746214
 20
-23.3547083984
 10
-46.7856322498
 20
-23.359989881
 10
-46.7951987259
 20
-23.365626819
 10
-46.8042515025
 20
-23.3715470025
 10
-46.8126746129
 20
-23.3776745935
 10
-46.8203601566
 20
-23.383931097
 10
-46.8272096812
 20
-23.3902363666
 10
-46.8331354439
 20
-23.3965096313
 10
-46.8380615352
 20
-23.40267053
 10
-46.8419248517
 20
-23.408640141
 10
-46.844675904
 20
-23.4143419931
 10
-46.8462794509
 20
-23.4197030449
 10
-46.8467149511
 20
-23.4246546211
 10
-46.8459768257
 20
-23.4291332914
  0
LWPOLYLINE
  5
3C3
100
AcDbEntity
  8
RACCORDO
100
AcDbPolyline
 62
253
  6
CONTINUOUS
 90
19
 70
0
 10
67.7731980359
 20
22.137520404
 10
67.7370835274
 20
22.1243941062
 10
67.7015708096
 20
22.1112141884
 10
67.6668740523
 20
22.098060136
 10
67.6332025045
 20
22.0850112784
 10
67.6007592324
 20
22.0721463104
 10
67.5697398947
 20
22.0595428181
 10
67.5403315626
 20
22.0472768105
 10
67.5127115917
 20
22.0354222614
 10
67.4870465525
 20
22.0240506631
 10
67.4634912254
 20
22.0132305953
 10
67.4421876678
 20
22.0030273116
 10
67.4232643571
 20
21.993502346
 10
67.4068354159
 20
21.9847131414
 10
67.3929999238
 20
21.9767127038
 10
67.3818413197
 20
21.9695492821
 10
67.3734268989
 20
21.9632660775
 10
67.3678074071
 20
21.9579009826
 10
67.3650167343
 20
21.9534863532
  0
LINE
  5
3C4
100
AcDbEntity
  8
ASSI
100
AcDbLine
 62
253
  6
CONTINUOUS
 10
70.1240324584
 20
-0.2156857105
 11
77.3955323628
 21
-0.2155915072
  0
LINE
  5
3C5
100
AcDbEntity
  8
0
100
AcDbLine
 62
253
  6
CONTINUOUS
 10
-55.247467446
 20
-0.2157970712
 11
-66.2816112466
 21
-0.2156944943
  0
LINE
  5
3C6
100
AcDbEntity
  8
RACCORDO
100
AcDbLine
 62
253
  6
CONTINUOUS
 10
-45.2755618038
 20
-0.215694932
 11
-47.462849606
 21
-0.2156999741
  0
LINE
  5
3C7
100
AcDbEntity
  8
ASSI
100
AcDbLine
 62
253
  6
CONTINUOUS
 10
-47.9759675415
 20
-0.215702868
 11
-55.247467446
 21
-0.2157970712
  0
LINE
  5
3C8
100
AcDbEntity
  8
RACCORDO
100
AcDbLine
 62
253
  6
CONTINUOUS
 10
67.4236267206
 20
-0.2156936465
 11
69.6109145228
 21
-0.2156886044
  0
LINE
  5
3C9
100
AcDbEntity
  8
0
100
AcDbLine
 62
253
  6
CONTINUOUS
 10
77.3955323628
 20
-0.2155915072
 11
88.4296761634
 21
-0.2156940842
  0
LWPOLYLINE
  5
3CA
100
AcDbEntity
  8
RACCORDO
100
AcDbPolyline
 62
253
  6
CONTINUOUS
 90
19
 70
0
 10
67.7731980426
 20
-22.5689089783
 10
67.7370832314
 20
-22.5557825582
 10
67.7015702119
 20
-22.5426025205
 10
67.6668731604
 20
-22.5294483525
 10
67.6332013318
 20
-22.5163993858
 10
67.6007577982
 20
-22.5035343174
 10
67.5697382239
 20
-22.4909307353
 10
67.5403296853
 20
-22.4786646502
 10
67.5127095429
 20
-22.4668100379
 10
67.4870443716
 20
-22.4554383921
 10
67.463488956
 20
-22.4446182941
 10
67.4421853567
 20
-22.4344149989
 10
67.4232620542
 20
-22.4248900412
 10
67.4068331732
 20
-22.4161008653
 10
67.3929977952
 20
-22.4081004775
 10
67.3818393601
 20
-22.4009371274
 10
67.3734251637
 20
-22.3946540163
 10
67.3678059513
 20
-22.3892890368
 10
67.3650156119
 20
-22.3848745445
  0
LWPOLYLINE
  5
3CB
100
AcDbEntity
  8
RACCORDO
100
AcDbPolyline
 62
253
  6
CONTINUOUS
 90
16
 70
0
 10
-46.7550995175
 20
22.9140878
 10
-46.7654535416
 20
22.9184608188
 10
-46.7756749108
 20
22.9233192046
 10
-46.7856326842
 20
22.9286007194
 10
-46.7951992981
 20
22.9342377047
 10
-46.8042521995
 20
22.9401579483
 10
-46.8126754164
 20
22.9462856094
 10
-46.8203610433
 20
22.9525421899
 10
-46.8272106236
 20
22.9588475403
 10
-46.8331364108
 20
22.9651208864
 10
-46.8380624928
 20
22.9712818638
 10
-46.841925764
 20
22.9772515476
 10
-46.8446767339
 20
22.9829534637
 10
-46.8462801614
 20
22.9883145681
 10
-46.8467155055
 20
22.9932661825
 10
-46.8459771894
 20
22.9977448747
  0
LINE
  5
3CC
100
AcDbEntity
  8
0
100
AcDbLine
 62
7
  6
CONTINUOUS
 10
13.9870096735
 20
-25.0479949759
 11
13.9333168305
 21
-24.8641505197
  0
LWPOLYLINE
  5
3CD
100
AcDbEntity
  8
0
100
AcDbPolyline
 62
7
  6
CONTINUOUS
 90
6
 70
0
 10
13.9333168305
 20
-24.8641505197
 10
13.9004392048
 20
-24.7477171327
 10
13.8839362084
 20
-24.6916154055
 10
13.8668684983
 20
-24.6370770397
 10
13.8494970368
 20
-24.5840253433
 10
13.8318218239
 20
-24.5324603164
  0
LWPOLYLINE
  5
3CE
100
AcDbEntity
  8
0
100
AcDbPolyline
 62
7
  6
CONTINUOUS
 90
4
 70
0
 10
14.1915201628
 20
-24.5313857038
 10
14.1994489372
 20
-24.5596912101
 10
14.203286795
 20
-24.5738290745
 10
14.2491916381
 20
-24.7460481655
  0
LINE
  5
3CF
100
AcDbEntity
  8
0
100
AcDbLine
 62
7
  6
CONTINUOUS
 10
12.5201514584
 20
-24.7086422892
 11
12.6120704584
 21
-25.0479952892
  0
LINE
  5
3D0
100
AcDbEntity
  8
0
100
AcDbLine
 62
7
  6
CONTINUOUS
 10
14.2491916381
 20
-24.7460481655
 11
14.3283130169
 21
-25.0479949759
  0
LINE
  5
3D1
100
AcDbEntity
  8
0
100
AcDbLine
 62
7
  6
CONTINUOUS
 10
12.2861904584
 20
-23.8152112892
 11
12.4492384584
 21
-24.4460522892
  0
LWPOLYLINE
  5
3D2
100
AcDbEntity
  8
0
100
AcDbPolyline
 62
7
  6
CONTINUOUS
 90
19
 70
0
 10
13.9102870675
 20
-23.8403480764
 10
13.9093634715
 20
-23.8236659065
 10
13.9071146602
 20
-23.8071090597
 10
13.9035406336
 20
-23.7906775359
 10
13.8986883575
 20
-23.7742871569
 10
13.892510866
 20
-23.758022101
 10
13.8848672621
 20
-23.7421349025
 10
13.8756303773
 20
-23.7264555838
 10
13.86492738
 20
-23.7111541224
 10
13.8529988779
 20
-23.6969929858
 10
13.8397610349
 20
-23.684168749
 10
13.8252976871
 20
-23.6724848368
 10
13.8101009498
 20
-23.6621139911
 10
13.7941371912
 20
-23.6531173357
 10
13.7774400431
 20
-23.6454337468
 10
13.7606025168
 20
-23.6390525944
 10
13.7438222827
 20
-23.6339703353
 10
13.7269016703
 20
-23.6301905127
 10
13.7098406796
 20
-23.6277131266
  0
LINE
  5
3D3
100
AcDbEntity
  8
0
100
AcDbLine
 62
7
  6
CONTINUOUS
 10
13.0902391223
 20
-23.3679922071
 11
13.0902391223
 21
-25.0479949759
  0
LINE
  5
3D4
100
AcDbEntity
  8
0
100
AcDbLine
 62
7
  6
CONTINUOUS
 10
13.43187389
 20
-24.1043661207
 11
13.43187389
 21
-23.6377206383
  0
LINE
  5
3D5
100
AcDbEntity
  8
0
100
AcDbLine
 62
7
  6
CONTINUOUS
 10
13.4436394544
 20
-25.0479949759
 11
13.4436394544
 21
-24.3827625734
  0
LINE
  5
3D6
100
AcDbEntity
  8
0
100
AcDbLine
 62
7
  6
CONTINUOUS
 10
14.0024846412
 20
-24.2545140976
 11
14.0024846412
 21
-24.2444693905
  0
LINE
  5
3D7
100
AcDbEntity
  8
0
100
AcDbLine
 62
7
  6
CONTINUOUS
 10
9.9618604584
 20
-23.3481322892
 11
9.8083734584
 21
-25.0479952892
  0
LINE
  5
3D8
100
AcDbEntity
  8
0
100
AcDbLine
 62
7
  6
CONTINUOUS
 10
8.7762664584
 20
-23.3481322892
 11
8.4423444584
 21
-24.5182002892
  0
LINE
  5
3D9
100
AcDbEntity
  8
0
100
AcDbLine
 62
7
  6
CONTINUOUS
 10
8.5844484584
 20
-25.0479952892
 11
9.1308524584
 21
-23.3481322892
  0
LWPOLYLINE
  5
3DA
100
AcDbEntity
  8
RACCORDO
100
AcDbPolyline
 62
253
  6
CONTINUOUS
 90
16
 70
0
 10
68.9031644328
 20
22.9140884252
 10
68.9135183154
 20
22.9184614485
 10
68.9237395382
 20
22.9233198196
 10
68.9336971666
 20
22.9286013022
 10
68.9432636427
 20
22.9342382402
 10
68.9523164193
 20
22.9401584237
 10
68.9607395298
 20
22.9462860147
 10
68.9684250735
 20
22.9525425182
 10
68.9752745981
 20
22.9588477878
 10
68.9812003608
 20
22.9651210525
 10
68.9861264522
 20
22.9712819512
 10
68.9899897686
 20
22.9772515622
 10
68.9927408209
 20
22.9829534143
 10
68.9943443679
 20
22.9883144662
 10
68.9947798681
 20
22.9932660423
 10
68.9940417427
 20
22.9977447126
  0
LWPOLYLINE
  5
3DB
100
AcDbEntity
  8
RACCORDO
100
AcDbPolyline
 62
253
  6
CONTINUOUS
 90
19
 70
0
 10
-45.6251331192
 20
-22.5689089824
 10
-45.5890186107
 20
-22.5557826846
 10
-45.5535058929
 20
-22.5426027668
 10
-45.5188091356
 20
-22.5294487144
 10
-45.4851375877
 20
-22.5163998568
 10
-45.4526943156
 20
-22.5035348888
 10
-45.4216749779
 20
-22.4909313965
 10
-45.3922666458
 20
-22.478665389
 10
-45.3646466749
 20
-22.4668108398
 10
-45.3389816357
 20
-22.4554392415
 10
-45.3154263086
 20
-22.4446191737
 10
-45.294122751
 20
-22.4344158901
 10
-45.2751994403
 20
-22.4248909244
 10
-45.2587704991
 20
-22.4161017198
 10
-45.244935007
 20
-22.4081012822
 10
-45.2337764029
 20
-22.4009378606
 10
-45.2253619821
 20
-22.3946546559
 10
-45.2197424903
 20
-22.389289561
 10
-45.2169518175
 20
-22.3848749316
  0
LWPOLYLINE
  5
3DC
100
AcDbEntity
  8
RACCORDO
100
AcDbPolyline
 62
253
  6
CONTINUOUS
 90
19
 70
0
 10
-45.6251331237
 20
22.1375203998
 10
-45.5890183138
 20
22.1243939802
 10
-45.5535052958
 20
22.111213943
 10
-45.5188082457
 20
22.0980597755
 10
-45.4851364186
 20
22.0850108093
 10
-45.4526928863
 20
22.0721457414
 10
-45.4216733133
 20
22.0595421597
 10
-45.3922647759
 20
22.047276075
 10
-45.3646446347
 20
22.035421463
 10
-45.3389794644
 20
22.0240498175
 10
-45.3154240495
 20
22.0132297197
 10
-45.2941204509
 20
22.0030264246
 10
-45.2751971488
 20
21.993501467
 10
-45.2587682681
 20
21.984712291
 10
-45.24493289
 20
21.9767119031
 10
-45.2337744547
 20
21.9695485528
 10
-45.2253602578
 20
21.9632654414
 10
-45.2197410446
 20
21.9579004616
 10
-45.2169507043
 20
21.9534859689
  0
LWPOLYLINE
  5
3DD
100
AcDbEntity
  8
RACCORDO
100
AcDbPolyline
 62
253
  6
CONTINUOUS
 90
16
 70
0
 10
68.9031644346
 20
-23.3454763791
 10
68.9135184587
 20
-23.3498493979
 10
68.9237398278
 20
-23.3547077837
 10
68.9336976012
 20
-23.3599892984
 10
68.943264215
 20
-23.3656262837
 10
68.9523171164
 20
-23.3715465274
 10
68.9607403332
 20
-23.3776741884
 10
68.9684259601
 20
-23.3839307689
 10
68.9752755403
 20
-23.3902361194
 10
68.9812013275
 20
-23.3965094654
 10
68.9861274095
 20
-23.4026704428
 10
68.9899906806
 20
-23.4086401266
 10
68.9927416506
 20
-23.4143420427
 10
68.994345078
 20
-23.419703147
 10
68.9947804221
 20
-23.4246547615
 10
68.994042106
 20
-23.4291334537
  0
LINE
  5
3DE
100
AcDbEntity
  8
0
100
AcDbLine
 62
7
  6
CONTINUOUS
 10
12.1095164584
 20
-24.4460522892
 11
12.2861904584
 21
-23.8152112892
  0
LINE
  5
3DF
100
AcDbEntity
  8
0
100
AcDbLine
 62
7
  6
CONTINUOUS
 10
11.9390234584
 20
-25.0479952892
 11
12.0369344584
 21
-24.7086422892
  0
LINE
  5
3E0
100
AcDbEntity
  8
0
100
AcDbLine
 62
7
  6
CONTINUOUS
 10
12.1212304584
 20
-23.3481322892
 11
11.5880454584
 21
-25.0479952892
  0
LINE
  5
3E1
100
AcDbEntity
  8
0
100
AcDbLine
 62
7
  6
CONTINUOUS
 10
11.0223044584
 20
-23.3481322892
 11
10.6674764584
 21
-24.2919012892
  0
LINE
  5
3E2
100
AcDbEntity
  8
0
100
AcDbLine
 62
7
  6
CONTINUOUS
 10
10.6904204584
 20
-25.0479952892
 11
11.1123114584
 21
-23.9426432892
  0
LINE
  5
3E3
100
AcDbEntity
  8
RACCORDO
100
AcDbLine
 62
253
  6
CONTINUOUS
 10
68.0131920883
 20
22.6961885136
 11
67.3188553692
 21
22.5214278793
  0
LINE
  5
3E4
100
AcDbEntity
  8
RACCORDO
100
AcDbLine
 62
253
  6
CONTINUOUS
 10
67.7732093621
 20
22.1374753161
 11
68.4667673549
 21
22.3111213651
  0
LINE
  5
3E5
100
AcDbEntity
  8
RACCORDO
100
AcDbLine
 62
253
  6
CONTINUOUS
 10
68.5313049885
 20
22.8240738116
 11
68.0131920883
 21
22.6961885136
  0
LINE
  5
3E6
100
AcDbEntity
  8
RACCORDO
100
AcDbLine
 62
253
  6
CONTINUOUS
 10
68.4667673549
 20
22.3111213651
 11
69.014037715
 21
22.4450377051
  0
LINE
  5
3E7
100
AcDbEntity
  8
RACCORDO
100
AcDbLine
 62
253
  6
CONTINUOUS
 10
68.9031727156
 20
22.914074034
 11
68.5313049885
 21
22.8240738116
  0
LINE
  5
3E8
100
AcDbEntity
  8
ASSI
100
AcDbLine
 62
253
  6
CONTINUOUS
 10
70.0328304728
 20
22.7090119654
 11
69.6027238249
 21
22.6105378433
  0
LINE
  5
3E9
100
AcDbEntity
  8
RACCORDO
100
AcDbLine
 62
253
  6
CONTINUOUS
 10
70.0029495624
 20
23.1448686115
 11
69.580745392
 21
23.0496291999
  0
LINE
  5
3EA
100
AcDbEntity
  8
ASSI
100
AcDbLine
 62
253
  6
CONTINUOUS
 10
70.4362327883
 20
22.7981461165
 11
70.0328304728
 21
22.7090119654
  0
LINE
  5
3EB
100
AcDbEntity
  8
RACCORDO
100
AcDbLine
 62
253
  6
CONTINUOUS
 10
70.3989829412
 20
23.2311016343
 11
70.0029495624
 21
23.1448686115
  0
LINE
  5
3EC
100
AcDbEntity
  8
ASSI
100
AcDbLine
 62
253
  6
CONTINUOUS
 10
70.8134376789
 20
22.8782952318
 11
70.4362327883
 21
22.7981461165
  0
LWPOLYLINE
  5
3ED
100
AcDbEntity
  8
RACCORDO
100
AcDbPolyline
 62
253
  6
CONTINUOUS
 90
3
 70
0
 10
70.9461209105
 20
23.3443557152
 10
70.7695188573
 20
23.3085801746
 10
70.3989829412
 20
23.2311016343
  0
LINE
  5
3EE
100
AcDbEntity
  8
ASSI
100
AcDbLine
 62
253
  6
CONTINUOUS
 10
71.1661813493
 20
22.9501025317
 11
70.8134376789
 21
22.8782952318
  0
LWPOLYLINE
  5
3EF
100
AcDbEntity
  8
RACCORDO
100
AcDbPolyline
 62
253
  6
CONTINUOUS
 90
3
 70
0
 10
71.4426106597
 20
23.4405360568
 10
71.2823966237
 20
23.4102096513
 10
70.9461209105
 20
23.3443557152
  0
LWPOLYLINE
  5
3F0
100
AcDbEntity
  8
ASSI
100
AcDbPolyline
 62
253
  6
CONTINUOUS
 90
5
 70
0
 10
71.9511801988
 20
23.0977286295
 10
71.804605889
 20
23.0715553079
 10
71.652952269
 20
23.0437662411
 10
71.4962268932
 20
23.0143303332
 10
71.1661813493
 20
22.9501025317
  0
LWPOLYLINE
  5
3F1
100
AcDbEntity
  8
RACCORDO
100
AcDbPolyline
 62
253
  6
CONTINUOUS
 90
3
 70
0
 10
71.892692578
 20
23.5217181256
 10
71.7475574984
 20
23.4961813986
 10
71.4426106597
 20
23.4405360568
  0
LINE
  5
3F2
100
AcDbEntity
  8
ASSI
100
AcDbLine
 62
253
  6
CONTINUOUS
 10
72.2295946451
 20
23.1455875372
 11
71.9511801988
 21
23.0977286295
  0
LINE
  5
3F3
100
AcDbEntity
  8
ASSI
100
AcDbLine
 62
253
  6
CONTINUOUS
 10
-49.9391815754
 20
23.1213232367
 11
-50.2111878599
 21
23.1677435217
  0
LINE
  5
3F4
100
AcDbEntity
  8
ASSI
100
AcDbLine
 62
253
  6
CONTINUOUS
 10
-49.6524257426
 20
23.0707162737
 11
-49.9391815754
 21
23.1213232367
  0
LWPOLYLINE
  5
3F5
100
AcDbEntity
  8
RACCORDO
100
AcDbPolyline
 62
253
  6
CONTINUOUS
 90
3
 70
0
 10
-49.2914629877
 20
23.4399764077
 10
-49.4456632832
 20
23.468524021
 10
-49.7396759434
 20
23.5209758937
  0
LWPOLYLINE
  5
3F6
100
AcDbEntity
  8
ASSI
100
AcDbPolyline
 62
253
  6
CONTINUOUS
 90
4
 70
0
 10
-49.0160443788
 20
22.9497395927
 10
-49.1835047432
 20
22.9827300979
 10
-49.345229533
 20
23.0137965473
 10
-49.6524257426
 20
23.0707162737
  0
LWPOLYLINE
  5
3F7
100
AcDbEntity
  8
RACCORDO
100
AcDbPolyline
 62
253
  6
CONTINUOUS
 90
3
 70
0
 10
-48.7961691524
 20
23.3439603353
 10
-48.9667159223
 20
23.3776945648
 10
-49.2914629877
 20
23.4399764077
  0
LINE
  5
3F8
100
AcDbEntity
  8
ASSI
100
AcDbLine
 62
253
  6
CONTINUOUS
 10
-48.6637138841
 20
22.8779081204
 11
-49.0160443788
 21
22.9497395927
  0
LINE
  5
3F9
100
AcDbEntity
  8
RACCORDO
100
AcDbLine
 62
253
  6
CONTINUOUS
 10
-48.4376766326
 20
23.2705398303
 11
-48.7961691524
 21
23.3439603353
  0
LINE
  5
3FA
100
AcDbEntity
  8
ASSI
100
AcDbLine
 62
253
  6
CONTINUOUS
 10
-48.2869973733
 20
22.7978903385
 11
-48.6637138841
 21
22.8779081204
  0
LINE
  5
3FB
100
AcDbEntity
  8
RACCORDO
100
AcDbLine
 62
253
  6
CONTINUOUS
 10
-48.0553221815
 20
23.1889435315
 11
-48.4376766326
 21
23.2705398303
  0
LINE
  5
3FC
100
AcDbEntity
  8
ASSI
100
AcDbLine
 62
253
  6
CONTINUOUS
 10
-47.8841432338
 20
22.7088914228
 11
-48.2869973733
 21
22.7978903385
  0
LWPOLYLINE
  5
3FD
100
AcDbEntity
  8
RACCORDO
100
AcDbPolyline
 62
253
  6
CONTINUOUS
 90
3
 70
0
 10
-47.4326803119
 20
23.0496304188
 10
-47.6466905532
 20
23.0982918711
 10
-48.0553221815
 20
23.1889435315
  0
LINE
  5
3FE
100
AcDbEntity
  8
ASSI
100
AcDbLine
 62
253
  6
CONTINUOUS
 10
-47.4546591539
 20
22.6105324355
 11
-47.8841432338
 21
22.7088914228
  0
LINE
  5
3FF
100
AcDbEntity
  8
RACCORDO
100
AcDbLine
 62
253
  6
CONTINUOUS
 10
-46.1931446713
 20
22.7774488157
 11
-46.7551079446
 21
22.914073808
  0
LINE
  5
400
100
AcDbEntity
  8
RACCORDO
100
AcDbLine
 62
253
  6
CONTINUOUS
 10
-46.3186899342
 20
22.3111180147
 11
-46.8659727612
 21
22.4450378847
  0
LINE
  5
401
100
AcDbEntity
  8
RACCORDO
100
AcDbLine
 62
253
  6
CONTINUOUS
 10
-45.5004549861
 20
22.6048915904
 11
-46.1931446713
 21
22.7774488157
  0
LINE
  5
402
100
AcDbEntity
  8
RACCORDO
100
AcDbLine
 62
253
  6
CONTINUOUS
 10
-45.62515455
 20
22.1374777696
 11
-46.3186899342
 21
22.3111180147
  0
LINE
  5
403
100
AcDbEntity
  8
RACCORDO
100
AcDbLine
 62
253
  6
CONTINUOUS
 10
-45.1705491394
 20
22.5215415718
 11
-45.5004549861
 21
22.6048915904
  0
LINE
  5
404
100
AcDbEntity
  8
ASSI
100
AcDbLine
 62
253
  6
CONTINUOUS
 10
72.488715925
 20
23.1877953112
 11
72.2295946451
 21
23.1455875372
  0
LINE
  5
405
100
AcDbEntity
  8
RACCORDO
100
AcDbLine
 62
253
  6
CONTINUOUS
 10
74.3250233592
 20
23.4771377354
 11
73.215080017
 21
23.3010423803
  0
LWPOLYLINE
  5
406
100
AcDbEntity
  8
RACCORDO
100
AcDbPolyline
 62
253
  6
CONTINUOUS
 90
3
 70
0
 10
73.215080017
 20
23.3010423803
 10
73.0963289242
 20
23.2825591816
 10
72.9729719348
 20
23.2633789481
  0
LWPOLYLINE
  5
407
100
AcDbEntity
  8
ASSI
100
AcDbPolyline
 62
253
  6
CONTINUOUS
 90
3
 70
0
 10
72.9729719348
 20
23.2633789481
 10
72.8557597899
 20
23.2454128425
 10
72.488715925
 20
23.1877953112
  0
LINE
  5
408
100
AcDbEntity
  8
RACCORDO
100
AcDbLine
 62
253
  6
CONTINUOUS
 10
74.5343824862
 20
23.5091281393
 11
74.3250233592
 21
23.4771377354
  0
LINE
  5
409
100
AcDbEntity
  8
RACCORDO
100
AcDbLine
 62
253
  6
CONTINUOUS
 10
74.7231979199
 20
23.5370488262
 11
74.5343824862
 21
23.5091281393
  0
LINE
  5
40A
100
AcDbEntity
  8
RACCORDO
100
AcDbLine
 62
253
  6
CONTINUOUS
 10
74.8934988422
 20
23.5612728772
 11
74.7231979199
 21
23.5370488262
  0
LINE
  5
40B
100
AcDbEntity
  8
RACCORDO
100
AcDbLine
 62
253
  6
CONTINUOUS
 10
75.0475988941
 20
23.5822486832
 11
74.8934988422
 21
23.5612728772
  0
LWPOLYLINE
  5
40C
100
AcDbEntity
  8
RACCORDO
100
AcDbPolyline
 62
253
  6
CONTINUOUS
 90
8
 70
0
 10
72.910137474
 20
23.678375813
 10
72.7927652102
 20
23.6629492511
 10
72.6729207573
 20
23.6463616852
 10
72.5506041155
 20
23.6286131154
 10
72.4264534622
 20
23.6097612903
 10
72.29983062
 20
23.5897484612
 10
72.1688210558
 20
23.5684013821
 10
71.892692578
 20
23.5217181256
  0
LINE
  5
40D
100
AcDbEntity
  8
RACCORDO
100
AcDbLine
 62
253
  6
CONTINUOUS
 10
75.1877215687
 20
23.6004126472
 11
75.0475988941
 21
23.5822486832
  0
LINE
  5
40E
100
AcDbEntity
  8
RACCORDO
100
AcDbLine
 62
253
  6
CONTINUOUS
 10
75.2742816847
 20
23.6111437997
 11
75.1877215687
 21
23.6004126472
  0
LINE
  5
40F
100
AcDbEntity
  8
RACCORDO
100
AcDbLine
 62
253
  6
CONTINUOUS
 10
75.3557703498
 20
23.6208758643
 11
75.2742816847
 21
23.6111437997
  0
LINE
  5
410
100
AcDbEntity
  8
RACCORDO
100
AcDbLine
 62
253
  6
CONTINUOUS
 10
75.4326151476
 20
23.629695128
 11
75.3557703498
 21
23.6208758643
  0
LINE
  5
411
100
AcDbEntity
  8
RACCORDO
100
AcDbLine
 62
253
  6
CONTINUOUS
 10
75.5052539229
 20
23.637690457
 11
75.4326151476
 21
23.629695128
  0
LINE
  5
412
100
AcDbEntity
  8
RACCORDO
100
AcDbLine
 62
253
  6
CONTINUOUS
 10
75.5739238825
 20
23.6449259766
 11
75.5052539229
 21
23.637690457
  0
LINE
  5
413
100
AcDbEntity
  8
RACCORDO
100
AcDbLine
 62
253
  6
CONTINUOUS
 10
75.6389421087
 20
23.6514679019
 11
75.5739238825
 21
23.6449259766
  0
LINE
  5
414
100
AcDbEntity
  8
RACCORDO
100
AcDbLine
 62
253
  6
CONTINUOUS
 10
75.7003372124
 20
23.6573547547
 11
75.6389421087
 21
23.6514679019
  0
LINE
  5
415
100
AcDbEntity
  8
RACCORDO
100
AcDbLine
 62
253
  6
CONTINUOUS
 10
75.7581763486
 20
23.6626279516
 11
75.7003372124
 21
23.6573547547
  0
LINE
  5
416
100
AcDbEntity
  8
RACCORDO
100
AcDbLine
 62
253
  6
CONTINUOUS
 10
75.812552625
 20
23.6673313204
 11
75.7581763486
 21
23.6626279516
  0
LINE
  5
417
100
AcDbEntity
  8
RACCORDO
100
AcDbLine
 62
253
  6
CONTINUOUS
 10
75.8637680398
 20
23.6715264154
 11
75.812552625
 21
23.6673313204
  0
LINE
  5
418
100
AcDbEntity
  8
RACCORDO
100
AcDbLine
 62
253
  6
CONTINUOUS
 10
75.9120130632
 20
23.6752585348
 11
75.8637680398
 21
23.6715264154
  0
LINE
  5
419
100
AcDbEntity
  8
RACCORDO
100
AcDbLine
 62
253
  6
CONTINUOUS
 10
-53.6552140205
 20
23.6692759303
 11
-53.7163055067
 21
23.6740913316
  0
LINE
  5
41A
100
AcDbEntity
  8
RACCORDO
100
AcDbLine
 62
253
  6
CONTINUOUS
 10
-53.5902807375
 20
23.6638032981
 11
-53.6552140205
 21
23.6692759303
  0
LINE
  5
41B
100
AcDbEntity
  8
RACCORDO
100
AcDbLine
 62
253
  6
CONTINUOUS
 10
-53.5212269781
 20
23.6576043768
 11
-53.5902807375
 21
23.6638032981
  0
LINE
  5
41C
100
AcDbEntity
  8
RACCORDO
100
AcDbLine
 62
253
  6
CONTINUOUS
 10
-53.4478668992
 20
23.6506157812
 11
-53.5212269781
 21
23.6576043768
  0
LINE
  5
41D
100
AcDbEntity
  8
RACCORDO
100
AcDbLine
 62
253
  6
CONTINUOUS
 10
-53.3699214182
 20
23.6427604689
 11
-53.4478668992
 21
23.6506157812
  0
LINE
  5
41E
100
AcDbEntity
  8
RACCORDO
100
AcDbLine
 62
253
  6
CONTINUOUS
 10
-53.2871261816
 20
23.6339643006
 11
-53.3699214182
 21
23.6427604689
  0
LINE
  5
41F
100
AcDbEntity
  8
RACCORDO
100
AcDbLine
 62
253
  6
CONTINUOUS
 10
-53.1992613886
 20
23.6241511176
 11
-53.2871261816
 21
23.6339643006
  0
LINE
  5
420
100
AcDbEntity
  8
RACCORDO
100
AcDbLine
 62
253
  6
CONTINUOUS
 10
-53.1059623092
 20
23.6132283478
 11
-53.1992613886
 21
23.6241511176
  0
LINE
  5
421
100
AcDbEntity
  8
RACCORDO
100
AcDbLine
 62
253
  6
CONTINUOUS
 10
-53.0066895668
 20
23.6010873925
 11
-53.1059623092
 21
23.6132283478
  0
LINE
  5
422
100
AcDbEntity
  8
RACCORDO
100
AcDbLine
 62
253
  6
CONTINUOUS
 10
-52.9010902355
 20
23.5876249374
 11
-53.0066895668
 21
23.6010873925
  0
LINE
  5
423
100
AcDbEntity
  8
RACCORDO
100
AcDbLine
 62
253
  6
CONTINUOUS
 10
-52.7886637613
 20
23.5727255481
 11
-52.9010902355
 21
23.5876249374
  0
LINE
  5
424
100
AcDbEntity
  8
RACCORDO
100
AcDbLine
 62
253
  6
CONTINUOUS
 10
-52.6686371723
 20
23.5562522858
 11
-52.7886637613
 21
23.5727255481
  0
LINE
  5
425
100
AcDbEntity
  8
RACCORDO
100
AcDbLine
 62
253
  6
CONTINUOUS
 10
-52.4727814683
 20
23.5282444029
 11
-52.6686371723
 21
23.5562522858
  0
LINE
  5
426
100
AcDbEntity
  8
RACCORDO
100
AcDbLine
 62
253
  6
CONTINUOUS
 10
-52.2554386743
 20
23.4958117346
 11
-52.4727814683
 21
23.5282444029
  0
LINE
  5
427
100
AcDbEntity
  8
RACCORDO
100
AcDbLine
 62
253
  6
CONTINUOUS
 10
-52.0146820077
 20
23.4586084264
 11
-52.2554386743
 21
23.4958117346
  0
LINE
  5
428
100
AcDbEntity
  8
RACCORDO
100
AcDbLine
 62
253
  6
CONTINUOUS
 10
-51.6500494555
 20
23.4005659554
 11
-52.0146820077
 21
23.4586084264
  0
LINE
  5
429
100
AcDbEntity
  8
RACCORDO
100
AcDbLine
 62
253
  6
CONTINUOUS
 10
-50.8536224456
 20
23.2726510903
 11
-51.6500494555
 21
23.4005659554
  0
LINE
  5
42A
100
AcDbEntity
  8
ASSI
100
AcDbLine
 62
253
  6
CONTINUOUS
 10
-50.4719038037
 20
23.2110640363
 11
-50.8536224456
 21
23.2726510903
  0
LINE
  5
42B
100
AcDbEntity
  8
ASSI
100
AcDbLine
 62
253
  6
CONTINUOUS
 10
-50.2111878599
 20
23.1677435217
 11
-50.4719038037
 21
23.2110640363
  0
LWPOLYLINE
  5
42C
100
AcDbEntity
  8
RACCORDO
100
AcDbPolyline
 62
253
  6
CONTINUOUS
 90
9
 70
0
 10
-49.7396759434
 20
23.5209758937
 10
-49.8794883081
 20
23.544880153
 10
-50.0162983305
 20
23.5674586278
 10
-50.1501032332
 20
23.5886985303
 10
-50.2809057936
 20
23.6086126483
 10
-50.4104010999
 20
23.6274582058
 10
-50.5391541815
 20
23.6453209441
 10
-50.666600009
 20
23.6621151218
 10
-50.7927385823
 20
23.6778407389
  0
LINE
  5
42D
100
AcDbEntity
  8
RACCORDO
100
AcDbLine
 62
253
  6
CONTINUOUS
 10
67.3983886723
 20
21.7594987994
 11
67.3240324584
 21
21.6851279899
  0
LINE
  5
42E
100
AcDbEntity
  8
RACCORDO
100
AcDbLine
 62
253
  6
CONTINUOUS
 10
66.8058603532
 20
22.365279504
 11
66.7248547376
 21
22.2843057108
  0
LWPOLYLINE
  5
42F
100
AcDbEntity
  8
0
100
AcDbPolyline
 62
7
  6
CONTINUOUS
 90
7
 70
0
 10
14.061200709
 20
-24.2104118272
 10
14.0456340679
 20
-24.2230433795
 10
14.038003459
 20
-24.2289503459
 10
14.0299238997
 20
-24.2340907073
 10
14.0212264306
 20
-24.2383168733
 10
14.0120800111
 20
-24.2417764344
 10
14.0024846412
 20
-24.2444693905
  0
LINE
  5
430
100
AcDbEntity
  8
RACCORDO
100
AcDbLine
 62
253
  6
CONTINUOUS
 10
75.9576069975
 20
23.6785818242
 11
75.9120130632
 21
23.6752585348
  0
LINE
  5
431
100
AcDbEntity
  8
RACCORDO
100
AcDbLine
 62
253
  6
CONTINUOUS
 10
76.0007733388
 20
23.6815385638
 11
75.9576069975
 21
23.6785818242
  0
LINE
  5
432
100
AcDbEntity
  8
RACCORDO
100
AcDbLine
 62
253
  6
CONTINUOUS
 10
76.0611773572
 20
23.6853495827
 11
76.0007733388
 21
23.6815385638
  0
LINE
  5
433
100
AcDbEntity
  8
RACCORDO
100
AcDbLine
 62
253
  6
CONTINUOUS
 10
76.116550869
 20
23.6884915156
 11
76.0611773572
 21
23.6853495827
  0
LINE
  5
434
100
AcDbEntity
  8
SUPERFICI
100
AcDbLine
 62
253
  6
CONTINUOUS
 10
86.876356556
 20
23.1534907222
 11
87.1166468543
 21
23.1667337059
  0
LINE
  5
435
100
AcDbEntity
  8
RACCORDO
100
AcDbLine
 62
253
  6
CONTINUOUS
 10
76.1672375742
 20
23.6910553189
 11
76.116550869
 21
23.6884915156
  0
LINE
  5
436
100
AcDbEntity
  8
RACCORDO
100
AcDbLine
 62
253
  6
CONTINUOUS
 10
73.2735115485
 20
23.6965882721
 11
72.9101261181
 21
23.678374255
  0
LINE
  5
437
100
AcDbEntity
  8
SUPERFICI
100
AcDbLine
 62
253
  6
CONTINUOUS
 10
87.1166468543
 20
23.1667337059
 11
87.3336816739
 21
23.1775697302
  0
LWPOLYLINE
  5
438
100
AcDbEntity
  8
RACCORDO
100
AcDbPolyline
 62
253
  6
CONTINUOUS
 90
16
 70
0
 10
69.0140376296
 20
22.4450400505
 10
69.0249183849
 20
22.445540749
 10
69.0358142006
 20
22.4459831841
 10
69.0465952582
 20
22.4463620844
 10
69.0571331066
 20
22.4466729353
 10
69.0673021925
 20
22.4469120334
 10
69.0769813561
 20
22.4470765297
 10
69.0860552748
 20
22.4471644645
 10
69.0944158374
 20
22.4471747901
 10
69.1019634316
 20
22.4471073834
 10
69.1086081316
 20
22.4469630475
 10
69.1142707689
 20
22.4467435021
 10
69.1188838761
 20
22.446451363
 10
69.12239249
 20
22.446090111
 10
69.1247548074
 20
22.4456640501
 10
69.1259426822
 20
22.4451782566
  0
LINE
  5
439
100
AcDbEntity
  8
RACCORDO
100
AcDbLine
 62
253
  6
CONTINUOUS
 10
69.6076136274
 20
22.4991400359
 11
69.1245478868
 21
22.4771970826
  0
LINE
  5
43A
100
AcDbEntity
  8
RACCORDO
100
AcDbLine
 62
253
  6
CONTINUOUS
 10
69.0132967804
 20
22.4742575653
 11
69.0350022635
 21
22.4752223482
  0
LINE
  5
43B
100
AcDbEntity
  8
SUPERFICI
100
AcDbLine
 62
253
  6
CONTINUOUS
 10
87.3336816739
 20
23.1775697302
 11
87.5264752067
 21
23.1861466726
  0
LINE
  5
43C
100
AcDbEntity
  8
RACCORDO
100
AcDbLine
 62
253
  6
CONTINUOUS
 10
73.5952928155
 20
23.7109730973
 11
73.2735115485
 21
23.6965882721
  0
LINE
  5
43D
100
AcDbEntity
  8
RACCORDO
100
AcDbLine
 62
253
  6
CONTINUOUS
 10
76.2137611291
 20
23.6931312558
 11
76.1672375742
 21
23.6910553189
  0
LINE
  5
43E
100
AcDbEntity
  8
SUPERFICI
100
AcDbLine
 62
253
  6
CONTINUOUS
 10
87.5264752067
 20
23.1861466726
 11
87.8809095148
 21
23.2002632592
  0
LINE
  5
43F
100
AcDbEntity
  8
RACCORDO
100
AcDbLine
 62
253
  6
CONTINUOUS
 10
69.0350022635
 20
22.4752223482
 11
69.0562255742
 21
22.4760657452
  0
LINE
  5
440
100
AcDbEntity
  8
RACCORDO
100
AcDbLine
 62
253
  6
CONTINUOUS
 10
73.8816824336
 20
23.7222191364
 11
73.5952928155
 21
23.7109730973
  0
LINE
  5
441
100
AcDbEntity
  8
RACCORDO
100
AcDbLine
 62
253
  6
CONTINUOUS
 10
76.2565179239
 20
23.6947926338
 11
76.2137611291
 21
23.6931312558
  0
LINE
  5
442
100
AcDbEntity
  8
RACCORDO
100
AcDbLine
 62
253
  6
CONTINUOUS
 10
69.0562255742
 20
22.4760657452
 11
69.0759648166
 21
22.4767479414
  0
LINE
  5
443
100
AcDbEntity
  8
RACCORDO
100
AcDbLine
 62
253
  6
CONTINUOUS
 10
74.136933164
 20
23.7308318079
 11
73.8816824336
 21
23.7222191364
  0
LINE
  5
444
100
AcDbEntity
  8
RACCORDO
100
AcDbLine
 62
253
  6
CONTINUOUS
 10
76.2956196468
 20
23.6960947108
 11
76.2565179239
 21
23.6947926338
  0
LWPOLYLINE
  5
445
100
AcDbEntity
  8
RACCORDO
100
AcDbPolyline
 62
253
  6
CONTINUOUS
 90
14
 70
0
 10
67.6519944346
 20
21.7780482958
 10
67.6191047928
 20
21.7770821319
 10
67.5878785942
 20
21.7760108953
 10
67.5585022825
 20
21.7748409822
 10
67.5311512563
 20
21.7735793778
 10
67.5059888219
 20
21.7722336149
 10
67.4831652177
 20
21.7708117285
 10
67.4628167179
 20
21.7693222086
 10
67.4450648183
 20
21.7677739486
 10
67.4300155109
 20
21.7661761928
 10
67.4177586515
 20
21.7645384809
 10
67.4083674228
 20
21.7628705915
 10
67.4018978973
 20
21.7611824829
 10
67.398388703
 20
21.7594842345
  0
LWPOLYLINE
  5
446
100
AcDbEntity
  8
RACCORDO
100
AcDbPolyline
 62
253
  6
CONTINUOUS
 90
9
 70
0
 10
69.0759648166
 20
22.4767479414
 10
69.0932881538
 20
22.4772367323
 10
69.1007827432
 20
22.4774010002
 10
69.1073777973
 20
22.477509043
 10
69.1129952514
 20
22.4775595818
 10
69.1175686124
 20
22.4775520184
 10
69.1210437462
 20
22.4774864423
 10
69.1233795181
 20
22.4773636297
 10
69.1245482798
 20
22.4771850342
  0
LINE
  5
447
100
AcDbEntity
  8
RACCORDO
100
AcDbLine
 62
253
  6
CONTINUOUS
 10
74.3663879303
 20
23.7373251269
 11
74.136933164
 21
23.7308318079
  0
LINE
  5
448
100
AcDbEntity
  8
RACCORDO
100
AcDbLine
 62
253
  6
CONTINUOUS
 10
76.3310796905
 20
23.6970872483
 11
76.2956196468
 21
23.6960947108
  0
LINE
  5
449
100
AcDbEntity
  8
RACCORDO
100
AcDbLine
 62
253
  6
CONTINUOUS
 10
76.3632046272
 20
23.6978244029
 11
76.3310796905
 21
23.6970872483
  0
LINE
  5
44A
100
AcDbEntity
  8
RACCORDO
100
AcDbLine
 62
253
  6
CONTINUOUS
 10
74.5734997427
 20
23.7420710085
 11
74.3663879303
 21
23.7373251269
  0
LINE
  5
44B
100
AcDbEntity
  8
RACCORDO
100
AcDbLine
 62
253
  6
CONTINUOUS
 10
67.7219697845
 20
21.7796429927
 11
67.6519944346
 21
21.7780482958
  0
LINE
  5
44C
100
AcDbEntity
  8
RACCORDO
100
AcDbLine
 62
253
  6
CONTINUOUS
 10
76.39297394
 20
23.6983637493
 11
76.3632046272
 21
23.6978244029
  0
LINE
  5
44D
100
AcDbEntity
  8
RACCORDO
100
AcDbLine
 62
253
  6
CONTINUOUS
 10
74.7600053487
 20
23.7453613386
 11
74.5734997427
 21
23.7420710085
  0
LINE
  5
44E
100
AcDbEntity
  8
RACCORDO
100
AcDbLine
 62
253
  6
CONTINUOUS
 10
-54.3937343217
 20
23.69913672
 11
-54.4139546645
 21
23.6988108855
  0
LINE
  5
44F
100
AcDbEntity
  8
RACCORDO
100
AcDbLine
 62
253
  6
CONTINUOUS
 10
-53.4417300637
 20
23.7449890652
 11
-53.5515296838
 21
23.7433339163
  0
LINE
  5
450
100
AcDbEntity
  8
RACCORDO
100
AcDbLine
 62
253
  6
CONTINUOUS
 10
76.4215058271
 20
23.698745547
 11
76.39297394
 21
23.6983637493
  0
LINE
  5
451
100
AcDbEntity
  8
RACCORDO
100
AcDbLine
 62
253
  6
CONTINUOUS
 10
74.9282015566
 20
23.7474647064
 11
74.7600053487
 21
23.7453613386
  0
LWPOLYLINE
  5
452
100
AcDbEntity
  8
RACCORDO
100
AcDbPolyline
 62
253
  6
CONTINUOUS
 90
3
 70
0
 10
67.8342405817
 20
21.7811248954
 10
67.7961359173
 20
21.7807569568
 10
67.7219697845
 20
21.7796429927
  0
LINE
  5
453
100
AcDbEntity
  8
RACCORDO
100
AcDbLine
 62
253
  6
CONTINUOUS
 10
-54.361079762
 20
23.6994830972
 11
-54.3937343217
 21
23.69913672
  0
LINE
  5
454
100
AcDbEntity
  8
RACCORDO
100
AcDbLine
 62
253
  6
CONTINUOUS
 10
-53.3213137542
 20
23.7462132931
 11
-53.4417300637
 21
23.7449890652
  0
LINE
  5
455
100
AcDbEntity
  8
RACCORDO
100
AcDbLine
 62
253
  6
CONTINUOUS
 10
76.4493689636
 20
23.6989852943
 11
76.4215058271
 21
23.698745547
  0
LINE
  5
456
100
AcDbEntity
  8
RACCORDO
100
AcDbLine
 62
253
  6
CONTINUOUS
 10
75.0804467542
 20
23.7486093062
 11
74.9282015566
 21
23.7474647064
  0
LINE
  5
457
100
AcDbEntity
  8
RACCORDO
100
AcDbLine
 62
253
  6
CONTINUOUS
 10
-54.3373371592
 20
23.6996104694
 11
-54.361079762
 21
23.6994830972
  0
LINE
  5
458
100
AcDbEntity
  8
RACCORDO
100
AcDbLine
 62
253
  6
CONTINUOUS
 10
-53.189404658
 20
23.7468915422
 11
-53.3213137542
 21
23.7462132931
  0
LINE
  5
459
100
AcDbEntity
  8
RACCORDO
100
AcDbLine
 62
253
  6
CONTINUOUS
 10
76.4768651673
 20
23.6990872304
 11
76.4493689636
 21
23.6989852943
  0
LINE
  5
45A
100
AcDbEntity
  8
RACCORDO
100
AcDbLine
 62
253
  6
CONTINUOUS
 10
75.2189361547
 20
23.748980641
 11
75.0804467542
 21
23.7486093062
  0
LINE
  5
45B
100
AcDbEntity
  8
RACCORDO
100
AcDbLine
 62
7
  6
CONTINUOUS
 10
-44.5767898207
 20
22.2843057108
 11
66.7248547376
 21
22.2843057108
  0
LINE
  5
45C
100
AcDbEntity
  8
RACCORDO
100
AcDbLine
 62
253
  6
CONTINUOUS
 10
-44.6577954389
 20
22.365279504
 11
66.8058603532
 21
22.365279504
  0
LINE
  5
45D
100
AcDbEntity
  8
RACCORDO
100
AcDbLine
 62
253
  6
CONTINUOUS
 10
-44.657763614
 20
22.6532851413
 11
66.8058285308
 21
22.6532851413
  0
LINE
  5
45E
100
AcDbEntity
  8
RACCORDO
100
AcDbLine
 62
253
  6
CONTINUOUS
 10
-54.3116375907
 20
23.6996295048
 11
-54.3373371592
 21
23.6996104694
  0
LINE
  5
45F
100
AcDbEntity
  8
RACCORDO
100
AcDbLine
 62
253
  6
CONTINUOUS
 10
-53.0448032925
 20
23.7468933694
 11
-53.189404658
 21
23.7468915422
  0
LINE
  5
460
100
AcDbEntity
  8
RACCORDO
100
AcDbLine
 62
253
  6
CONTINUOUS
 10
76.5043244443
 20
23.6990494318
 11
76.4768651673
 21
23.6990872304
  0
LINE
  5
461
100
AcDbEntity
  8
RACCORDO
100
AcDbLine
 62
253
  6
CONTINUOUS
 10
75.3452821239
 20
23.7487261225
 11
75.2189361547
 21
23.748980641
  0
LINE
  5
462
100
AcDbEntity
  8
RACCORDO
100
AcDbLine
 62
253
  6
CONTINUOUS
 10
-54.2838643971
 20
23.6995170545
 11
-54.3116375907
 21
23.6996295048
  0
LWPOLYLINE
  5
463
100
AcDbEntity
  8
RACCORDO
100
AcDbPolyline
 62
253
  6
CONTINUOUS
 90
6
 70
0
 10
76.7208353333
 20
23.6943083253
 10
76.7100727979
 20
23.6943804902
 10
76.6996918271
 20
23.6945245685
 10
76.6896924334
 20
23.6947413026
 10
76.6802059334
 20
23.6950616194
 10
76.6619838257
 20
23.6958344307
  0
LINE
  5
464
100
AcDbEntity
  8
RACCORDO
100
AcDbLine
 62
253
  6
CONTINUOUS
 10
-52.8859079197
 20
23.7460649332
 11
-53.0448032925
 21
23.7468933694
  0
LINE
  5
465
100
AcDbEntity
  8
RACCORDO
100
AcDbLine
 62
253
  6
CONTINUOUS
 10
75.4608388267
 20
23.7479665598
 11
75.3452821239
 21
23.7487261225
  0
LINE
  5
466
100
AcDbEntity
  8
RACCORDO
100
AcDbLine
 62
253
  6
CONTINUOUS
 10
76.5319696369
 20
23.6988642878
 11
76.5043244443
 21
23.6990494318
  0
LINE
  5
467
100
AcDbEntity
  8
RACCORDO
100
AcDbLine
 62
253
  6
CONTINUOUS
 10
-54.2539820515
 20
23.6992527969
 11
-54.2838643971
 21
23.6995170545
  0
LINE
  5
468
100
AcDbEntity
  8
RACCORDO
100
AcDbLine
 62
253
  6
CONTINUOUS
 10
-52.7110237719
 20
23.7442234872
 11
-52.8859079197
 21
23.7460649332
  0
LINE
  5
469
100
AcDbEntity
  8
RACCORDO
100
AcDbLine
 62
253
  6
CONTINUOUS
 10
-45.6861756331
 20
21.7811249062
 11
-45.6105727545
 21
21.7802620132
  0
LINE
  5
46A
100
AcDbEntity
  8
RACCORDO
100
AcDbLine
 62
253
  6
CONTINUOUS
 10
75.6003759344
 20
23.7463338372
 11
75.4608388267
 21
23.7479665598
  0
LINE
  5
46B
100
AcDbEntity
  8
RACCORDO
100
AcDbLine
 62
253
  6
CONTINUOUS
 10
-54.2220105918
 20
23.6988086835
 11
-54.2539820515
 21
23.6992527969
  0
LWPOLYLINE
  5
46C
100
AcDbEntity
  8
RACCORDO
100
AcDbPolyline
 62
253
  6
CONTINUOUS
 90
3
 70
0
 10
76.5690775386
 20
23.6983701624
 10
76.559784423
 20
23.6985216192
 10
76.5319696369
 20
23.6988642878
  0
LINE
  5
46D
100
AcDbEntity
  8
RACCORDO
100
AcDbLine
 62
253
  6
CONTINUOUS
 10
75.6644456493
 20
23.7453069212
 11
75.6003759344
 21
23.7463338372
  0
LINE
  5
46E
100
AcDbEntity
  8
RACCORDO
100
AcDbLine
 62
253
  6
CONTINUOUS
 10
-52.5178113016
 20
23.7411471215
 11
-52.7110237719
 21
23.7442234872
  0
LWPOLYLINE
  5
46F
100
AcDbEntity
  8
RACCORDO
100
AcDbPolyline
 62
253
  6
CONTINUOUS
 90
13
 70
0
 10
66.8058603272
 20
22.3652794772
 10
66.8300972104
 20
22.3648220532
 10
66.8542606965
 20
22.3633411437
 10
66.8783114539
 20
22.360837305
 10
66.9021988121
 20
22.3573146467
 10
66.9258949282
 20
22.3527758687
 10
66.94939401
 20
22.3472176812
 10
66.9726480817
 20
22.3406455533
 10
66.9956250456
 20
22.3330620786
 10
67.0183398396
 20
22.3244510751
 10
67.0407676319
 20
22.3148054276
 10
67.0628463218
 20
22.3041348833
 10
67.0845320768
 20
22.2924444496
  0
LINE
  5
470
100
AcDbEntity
  8
RACCORDO
100
AcDbLine
 62
253
  6
CONTINUOUS
 10
-54.1881299675
 20
23.6981638338
 11
-54.2220105918
 21
23.6988086835
  0
LWPOLYLINE
  5
471
100
AcDbEntity
  8
RACCORDO
100
AcDbPolyline
 62
253
  6
CONTINUOUS
 90
16
 70
0
 10
-45.6105727545
 20
21.7802620132
 10
-45.5382862315
 20
21.7789036257
 10
-45.5039295343
 20
21.7780483023
 10
-45.471039905
 20
21.7770821376
 10
-45.4398137193
 20
21.7760109003
 10
-45.4104374208
 20
21.7748409865
 10
-45.3830864078
 20
21.7735793815
 10
-45.3579239863
 20
21.772233618
 10
-45.3351003949
 20
21.7708117311
 10
-45.3147519072
 20
21.7693222107
 10
-45.297000019
 20
21.7677739503
 10
-45.2819507224
 20
21.766176194
 10
-45.2696938727
 20
21.7645384819
 10
-45.2603026526
 20
21.762870592
 10
-45.2538331347
 20
21.7611824832
 10
-45.2503239467
 20
21.7594842345
  0
LWPOLYLINE
  5
472
100
AcDbEntity
  8
RACCORDO
100
AcDbPolyline
 62
253
  6
CONTINUOUS
 90
13
 70
0
 10
66.8058285308
 20
22.6532851413
 10
66.8503189825
 20
22.6523577935
 10
66.8945657593
 20
22.649603874
 10
66.9385688613
 20
22.6450233831
 10
66.9823775736
 20
22.6386142224
 10
67.0259426112
 20
22.6303784902
 10
67.0691161184
 20
22.6203224809
 10
67.1118778452
 20
22.6084610822
 10
67.1542480416
 20
22.5947794065
 10
67.1961396028
 20
22.5792390851
 10
67.2375234936
 20
22.5618273287
 10
67.2784287491
 20
22.5425569268
 10
67.3188553692
 20
22.5214278793
  0
LWPOLYLINE
  5
473
100
AcDbEntity
  8
RACCORDO
100
AcDbPolyline
 62
253
  6
CONTINUOUS
 90
8
 70
0
 10
-46.9452233044
 20
22.4772367292
 10
-46.9527179058
 20
22.477400998
 10
-46.9593129728
 20
22.4775090418
 10
-46.9649304405
 20
22.4775595819
 10
-46.9695038158
 20
22.4775520201
 10
-46.9729789641
 20
22.4774864457
 10
-46.9753147508
 20
22.477363635
 10
-46.9764835274
 20
22.4771850417
  0
LINE
  5
474
100
AcDbEntity
  8
RACCORDO
100
AcDbLine
 62
253
  6
CONTINUOUS
 10
-52.3030940139
 20
23.7365564232
 11
-52.5178113016
 21
23.7411471215
  0
LINE
  5
475
100
AcDbEntity
  8
RACCORDO
100
AcDbLine
 62
253
  6
CONTINUOUS
 10
-54.1525002532
 20
23.6973037823
 11
-54.1881299675
 21
23.6981638338
  0
LINE
  5
476
100
AcDbEntity
  8
RACCORDO
100
AcDbLine
 62
253
  6
CONTINUOUS
 10
-52.0650484911
 20
23.7301600654
 11
-52.3030940139
 21
23.7365564232
  0
LINE
  5
477
100
AcDbEntity
  8
RACCORDO
100
AcDbLine
 62
253
  6
CONTINUOUS
 10
-46.9278999461
 20
22.4767479374
 11
-46.9452233044
 21
22.4772367292
  0
LINE
  5
478
100
AcDbEntity
  8
RACCORDO
100
AcDbLine
 62
253
  6
CONTINUOUS
 10
-54.1155523257
 20
23.6962212063
 11
-54.1525002532
 21
23.6973037823
  0
LINE
  5
479
100
AcDbEntity
  8
RACCORDO
100
AcDbLine
 62
253
  6
CONTINUOUS
 10
-51.8007124527
 20
23.7216097902
 11
-52.0650484911
 21
23.7301600654
  0
LINE
  5
47A
100
AcDbEntity
  8
RACCORDO
100
AcDbLine
 62
253
  6
CONTINUOUS
 10
-54.0770633157
 20
23.6948959593
 11
-54.1155523257
 21
23.6962212063
  0
LINE
  5
47B
100
AcDbEntity
  8
RACCORDO
100
AcDbLine
 62
253
  6
CONTINUOUS
 10
-46.9081606872
 20
22.4760657409
 11
-46.9278999461
 21
22.4767479374
  0
LINE
  5
47C
100
AcDbEntity
  8
RACCORDO
100
AcDbLine
 62
253
  6
CONTINUOUS
 10
-51.5040449178
 20
23.7104073084
 11
-51.8007124527
 21
23.7216097902
  0
LINE
  5
47D
100
AcDbEntity
  8
RACCORDO
100
AcDbLine
 62
253
  6
CONTINUOUS
 10
-54.036893219
 20
23.6933083919
 11
-54.0770633157
 21
23.6948959593
  0
LINE
  5
47E
100
AcDbEntity
  8
RACCORDO
100
AcDbLine
 62
253
  6
CONTINUOUS
 10
-46.8869373653
 20
22.4752223444
 11
-46.9081606872
 21
22.4760657409
  0
LINE
  5
47F
100
AcDbEntity
  8
SUPERFICI
100
AcDbLine
 62
253
  6
CONTINUOUS
 10
-65.3170911921
 20
23.183523649
 11
-65.732844598
 21
23.2002632592
  0
LINE
  5
480
100
AcDbEntity
  8
RACCORDO
100
AcDbLine
 62
253
  6
CONTINUOUS
 10
-51.1708820985
 20
23.6960524963
 11
-51.5040449178
 21
23.7104073084
  0
LINE
  5
481
100
AcDbEntity
  8
RACCORDO
100
AcDbLine
 62
253
  6
CONTINUOUS
 10
-47.4595488609
 20
22.4991400427
 11
-46.9764835244
 21
22.4771850416
  0
LINE
  5
482
100
AcDbEntity
  8
RACCORDO
100
AcDbLine
 62
253
  6
CONTINUOUS
 10
-46.8652318767
 20
22.4742575623
 11
-46.8869373653
 21
22.4752223444
  0
LINE
  5
483
100
AcDbEntity
  8
RACCORDO
100
AcDbLine
 62
253
  6
CONTINUOUS
 10
-53.99474461
 20
23.6914278858
 11
-54.036893219
 21
23.6933083919
  0
LWPOLYLINE
  5
484
100
AcDbEntity
  8
RACCORDO
100
AcDbPolyline
 62
253
  6
CONTINUOUS
 90
16
 70
0
 10
-46.8659726906
 20
22.4450400556
 10
-46.8768534585
 20
22.445540755
 10
-46.8877492867
 20
22.4459831907
 10
-46.8985303564
 20
22.4463620914
 10
-46.9090682162
 20
22.4466729426
 10
-46.919237312
 20
22.4469120406
 10
-46.9289164839
 20
22.4470765368
 10
-46.9379904088
 20
22.4471644712
 10
-46.946350975
 20
22.4471747961
 10
-46.9538985702
 20
22.4471073886
 10
-46.9605432683
 20
22.4469630517
 10
-46.9662059006
 20
22.4467435052
 10
-46.9708189996
 20
22.4464513648
 10
-46.9743276021
 20
22.4460901113
 10
-46.9766899047
 20
22.4456640488
 10
-46.9778777618
 20
22.4451782538
  0
LINE
  5
485
100
AcDbEntity
  8
SUPERFICI
100
AcDbLine
 62
253
  6
CONTINUOUS
 10
-65.1157687338
 20
23.1742157554
 11
-65.3170911921
 21
23.183523649
  0
LINE
  5
486
100
AcDbEntity
  8
RACCORDO
100
AcDbLine
 62
253
  6
CONTINUOUS
 10
-50.792740639
 20
23.6778410123
 11
-51.1708820985
 21
23.6960524963
  0
LINE
  5
487
100
AcDbEntity
  8
RACCORDO
100
AcDbLine
 62
253
  6
CONTINUOUS
 10
-53.9503349375
 20
23.6892173713
 11
-53.99474461
 21
23.6914278858
  0
LINE
  5
488
100
AcDbEntity
  8
SUPERFICI
100
AcDbLine
 62
253
  6
CONTINUOUS
 10
-64.8908246083
 20
23.1625750528
 11
-65.1157687338
 21
23.1742157554
  0
LINE
  5
489
100
AcDbEntity
  8
RACCORDO
100
AcDbLine
 62
253
  6
CONTINUOUS
 10
-53.9034765981
 20
23.6866437857
 11
-53.9503349375
 21
23.6892173713
  0
LINE
  5
48A
100
AcDbEntity
  8
SUPERFICI
100
AcDbLine
 62
253
  6
CONTINUOUS
 10
-64.7282916391
 20
23.1534907222
 11
-64.8908246083
 21
23.1625750528
  0
LINE
  5
48B
100
AcDbEntity
  8
RACCORDO
100
AcDbLine
 62
253
  6
CONTINUOUS
 10
-53.8538891316
 20
23.6836618368
 11
-53.9034765981
 21
23.6866437857
  0
LINE
  5
48C
100
AcDbEntity
  8
RACCORDO
100
AcDbLine
 62
253
  6
CONTINUOUS
 10
-53.8012932054
 20
23.6802204767
 11
-53.8538891316
 21
23.6836618368
  0
LWPOLYLINE
  5
48D
100
AcDbEntity
  8
RACCORDO
100
AcDbPolyline
 62
253
  6
CONTINUOUS
 90
3
 70
0
 10
-53.7163055067
 20
23.6740913316
 10
-53.7455028875
 20
23.6762741911
 10
-53.8012932054
 20
23.6802204767
  0
LINE
  5
48E
100
AcDbEntity
  8
RACCORDO
100
AcDbLine
 62
253
  6
CONTINUOUS
 10
66.805815603
 20
-22.7966680825
 11
66.7248547376
 21
-22.7156942892
  0
LINE
  5
48F
100
AcDbEntity
  8
RACCORDO
100
AcDbLine
 62
253
  6
CONTINUOUS
 10
67.3983886546
 20
-22.1908957112
 11
67.3240324584
 21
-22.1165165684
  0
LINE
  5
490
100
AcDbEntity
  8
SUPERFICI
100
AcDbLine
 62
253
  6
CONTINUOUS
 10
86.2791142638
 20
35.8880065612
 11
86.1169130252
 21
35.8729652628
  0
LINE
  5
491
100
AcDbEntity
  8
RACCORDO
100
AcDbLine
 62
253
  6
CONTINUOUS
 10
-54.5153215665
 20
23.6988691355
 11
-54.5336370066
 21
23.6972310395
  0
LINE
  5
492
100
AcDbEntity
  8
SUPERFICI
100
AcDbLine
 62
253
  6
CONTINUOUS
 10
86.4322681995
 20
35.901108513
 11
86.2791142638
 21
35.8880065612
  0
LINE
  5
493
100
AcDbEntity
  8
RACCORDO
100
AcDbLine
 62
253
  6
CONTINUOUS
 10
-54.5336370066
 20
23.6972310395
 11
-54.5429873245
 21
23.6964616788
  0
LINE
  5
494
100
AcDbEntity
  8
RACCORDO
100
AcDbLine
 62
253
  6
CONTINUOUS
 10
-54.461187377
 20
23.7033207429
 11
-54.5153215665
 21
23.6988691355
  0
LINE
  5
495
100
AcDbEntity
  8
SUPERFICI
100
AcDbLine
 62
253
  6
CONTINUOUS
 10
86.575526366
 20
35.9123350989
 11
86.4322681995
 21
35.901108513
  0
LINE
  5
496
100
AcDbEntity
  8
RACCORDO
100
AcDbLine
 62
253
  6
CONTINUOUS
 10
-54.4142175468
 20
23.7069305061
 11
-54.461187377
 21
23.7033207429
  0
LINE
  5
497
100
AcDbEntity
  8
0
100
AcDbLine
 62
253
  6
CONTINUOUS
 10
87.119934542
 20
35.9457224297
 11
87.2639127414
 21
35.9561657122
  0
LINE
  5
498
100
AcDbEntity
  8
RACCORDO
100
AcDbLine
 62
253
  6
CONTINUOUS
 10
-54.5429873245
 20
23.6964616788
 11
-54.5720543178
 21
23.6943434791
  0
LINE
  5
499
100
AcDbEntity
  8
SUPERFICI
100
AcDbLine
 62
253
  6
CONTINUOUS
 10
82.2615033306
 20
35.5935448881
 11
85.6265375672
 21
35.8382277191
  0
LINE
  5
49A
100
AcDbEntity
  8
SUPERFICI
100
AcDbLine
 62
253
  6
CONTINUOUS
 10
81.6104352612
 20
35.5473949942
 11
82.2615033306
 21
35.5935448881
  0
LINE
  5
49B
100
AcDbEntity
  8
SUPERFICI
100
AcDbLine
 62
253
  6
CONTINUOUS
 10
85.6265375672
 20
35.8382277191
 11
86.1169244517
 21
35.8729706927
  0
LINE
  5
49C
100
AcDbEntity
  8
RACCORDO
100
AcDbLine
 62
253
  6
CONTINUOUS
 10
-54.3613511132
 20
23.7107281408
 11
-54.4142175468
 21
23.7069305061
  0
LWPOLYLINE
  5
49D
100
AcDbEntity
  8
SUPERFICI
100
AcDbPolyline
 62
253
  6
CONTINUOUS
 90
7
 70
0
 10
76.1432912613
 20
35.1495589373
 10
77.0191084716
 20
35.2077795157
 10
77.8670383418
 20
35.2703044996
 10
78.6840173587
 20
35.3339110424
 10
79.4658511285
 20
35.3922676749
 10
80.2121922248
 20
35.4444907308
 10
81.6104352612
 20
35.5473949942
  0
LWPOLYLINE
  5
49E
100
AcDbEntity
  8
SUPERFICI
100
AcDbPolyline
 62
253
  6
CONTINUOUS
 90
3
 70
0
 10
86.7717423422
 20
35.9260056422
 10
86.7092444661
 20
35.9218703036
 10
86.575526366
 20
35.9123350989
  0
LINE
  5
49F
100
AcDbEntity
  8
RACCORDO
100
AcDbLine
 62
253
  6
CONTINUOUS
 10
-54.3118821226
 20
23.7140401945
 11
-54.3613511132
 21
23.7107281408
  0
LINE
  5
4A0
100
AcDbEntity
  8
RACCORDO
100
AcDbLine
 62
253
  6
CONTINUOUS
 10
-54.254149068
 20
23.7176307434
 11
-54.3118821226
 21
23.7140401945
  0
LINE
  5
4A1
100
AcDbEntity
  8
RACCORDO
100
AcDbLine
 62
253
  6
CONTINUOUS
 10
-54.1881470802
 20
23.7213997063
 11
-54.254149068
 21
23.7176307434
  0
LINE
  5
4A2
100
AcDbEntity
  8
SUPERFICI
100
AcDbLine
 62
253
  6
CONTINUOUS
 10
-64.7283018034
 20
23.1531590519
 11
-62.0833958329
 21
23.2996585122
  0
LINE
  5
4A3
100
AcDbEntity
  8
SUPERFICI
100
AcDbLine
 62
253
  6
CONTINUOUS
 10
-62.0833958329
 20
23.2996585122
 11
-59.6491432858
 21
23.4300196625
  0
LINE
  5
4A4
100
AcDbEntity
  8
SUPERFICI
100
AcDbLine
 62
253
  6
CONTINUOUS
 10
-59.6491432858
 20
23.4300196625
 11
-57.2660311621
 21
23.5528426215
  0
LINE
  5
4A5
100
AcDbEntity
  8
RACCORDO
100
AcDbLine
 62
253
  6
CONTINUOUS
 10
-54.115327704
 20
23.7251730436
 11
-54.1881470802
 21
23.7213997063
  0
LINE
  5
4A6
100
AcDbEntity
  8
SUPERFICI
100
AcDbLine
 62
253
  6
CONTINUOUS
 10
-57.2660311621
 20
23.5528426215
 11
-54.676298909
 21
23.6814020406
  0
LWPOLYLINE
  5
4A7
100
AcDbEntity
  8
RACCORDO
100
AcDbPolyline
 62
253
  6
CONTINUOUS
 90
37
 70
0
 10
-45.6195886563
 20
23.8043207902
 10
-45.6434035377
 20
23.8031559974
 10
-45.6678622757
 20
23.8015446973
 10
-45.6929555824
 20
23.7994521391
 10
-45.718628423
 20
23.7968468218
 10
-45.7449134274
 20
23.7936902313
 10
-45.7719299892
 20
23.7899284388
 10
-45.7996634573
 20
23.7855155213
 10
-45.8280944082
 20
23.7804056335
 10
-45.8573301249
 20
23.7745280048
 10
-45.8873486891
 20
23.7678255139
 10
-45.9181210217
 20
23.7602415268
 10
-45.9497364892
 20
23.7516882434
 10
-45.9821628494
 20
23.7420966921
 10
-46.0153576113
 20
23.7313993137
 10
-46.0493849544
 20
23.7194925313
 10
-46.0841984229
 20
23.7062957499
 10
-46.1197377214
 20
23.6917314156
 10
-46.1560335458
 20
23.6756836011
 10
-46.1930228849
 20
23.658060633
 10
-46.2306205074
 20
23.6387784581
 10
-46.2688084958
 20
23.6177188504
 10
-46.3074718848
 20
23.5948016289
 10
-46.3465281887
 20
23.569925274
 10
-46.3859863109
 20
23.542923217
 10
-46.4256720245
 20
23.5137312236
 10
-46.465493722
 20
23.4822235417
 10
-46.5055412771
 20
23.4481066283
 10
-46.5456193127
 20
23.4112775894
 10
-46.5855400297
 20
23.3716216433
 10
-46.6253329486
 20
23.3287784151
 10
-46.6647889956
 20
23.2825625993
 10
-46.7035634332
 20
23.2329299082
 10
-46.7414126072
 20
23.179710155
 10
-46.7780185966
 20
23.1227949881
 10
-46.8130006475
 20
23.0621512886
 10
-46.8459787525
 20
22.9977455868
  0
LWPOLYLINE
  5
4A8
100
AcDbEntity
  8
RACCORDO
100
AcDbPolyline
 62
253
  6
CONTINUOUS
 90
37
 70
0
 10
-45.6154587958
 20
23.662281442
 10
-45.6375826589
 20
23.661256871
 10
-45.6602850765
 20
23.659752978
 10
-45.6835660486
 20
23.6577697631
 10
-45.7073973434
 20
23.6553491736
 10
-45.7318071928
 20
23.6524492622
 10
-45.7568802918
 20
23.6489441866
 10
-45.7826248052
 20
23.644845665
 10
-45.8090325682
 20
23.6401419793
 10
-45.8361637816
 20
23.6346721322
 10
-45.8640302526
 20
23.6284483023
 10
-45.892620174
 20
23.621458311
 10
-45.921958325
 20
23.6135046262
 10
-45.9520610861
 20
23.6045989834
 10
-45.9829120769
 20
23.594729647
 10
-46.0144869351
 20
23.5836638774
 10
-46.04680733
 20
23.5714115314
 10
-46.0798515923
 20
23.5579627522
 10
-46.1135303523
 20
23.5430552297
 10
-46.147872758
 20
23.5266936123
 10
-46.1828496614
 20
23.5088732516
 10
-46.2182842484
 20
23.4893178918
 10
-46.2541868007
 20
23.4680453957
 10
-46.2905470367
 20
23.4450379006
 10
-46.3271572981
 20
23.4199655621
 10
-46.3640214916
 20
23.392873254
 10
-46.4011357104
 20
23.3637161027
 10
-46.4382805765
 20
23.3320296428
 10
-46.4755183757
 20
23.2978392953
 10
-46.5127868221
 20
23.2611196393
 10
-46.5496796798
 20
23.2213299474
 10
-46.5863292793
 20
23.1783998209
 10
-46.6226032901
 20
23.1323996585
 10
-46.6576984848
 20
23.0829999291
 10
-46.6913471208
 20
23.0300907891
 10
-46.7238169408
 20
22.9737820821
 10
-46.7551079446
 20
22.914073808
  0
LINE
  5
4A9
100
AcDbEntity
  8
RACCORDO
100
AcDbLine
 62
253
  6
CONTINUOUS
 10
-54.5152678207
 20
23.6959040735
 11
-54.5334399327
 21
23.6950557231
  0
LINE
  5
4AA
100
AcDbEntity
  8
RACCORDO
100
AcDbLine
 62
253
  6
CONTINUOUS
 10
-54.0363144754
 20
23.7288449761
 11
-54.115327704
 21
23.7251730436
  0
LINE
  5
4AB
100
AcDbEntity
  8
RACCORDO
100
AcDbLine
 62
253
  6
CONTINUOUS
 10
-48.4063536821
 20
24.2211851268
 11
-46.6171506633
 21
24.2997206508
  0
LINE
  5
4AC
100
AcDbEntity
  8
RACCORDO
100
AcDbLine
 62
253
  6
CONTINUOUS
 10
-47.1623072178
 20
23.8015739751
 11
-47.9653289075
 21
23.7657266585
  0
LINE
  5
4AD
100
AcDbEntity
  8
RACCORDO
100
AcDbLine
 62
253
  6
CONTINUOUS
 10
-53.9492565176
 20
23.7324189435
 11
-54.0363144754
 21
23.7288449761
  0
LINE
  5
4AE
100
AcDbEntity
  8
RACCORDO
100
AcDbLine
 62
253
  6
CONTINUOUS
 10
-47.9653289075
 20
23.7657266585
 11
-48.7630420557
 21
23.7340895695
  0
LWPOLYLINE
  5
4AF
100
AcDbEntity
  8
RACCORDO
100
AcDbPolyline
 62
253
  6
CONTINUOUS
 90
5
 70
0
 10
-54.5334399327
 20
23.6950557231
 10
-54.5427042966
 20
23.6947155861
 10
-54.5521801496
 20
23.6945133753
 10
-54.5618211617
 20
23.6944076387
 10
-54.5716273194
 20
23.6943980662
  0
LINE
  5
4B0
100
AcDbEntity
  8
RACCORDO
100
AcDbLine
 62
253
  6
CONTINUOUS
 10
-53.8521204531
 20
23.735865434
 11
-53.9492565176
 21
23.7324189435
  0
LINE
  5
4B1
100
AcDbEntity
  8
RACCORDO
100
AcDbLine
 62
253
  6
CONTINUOUS
 10
-48.7630420557
 20
23.7340895695
 11
-49.5604908366
 21
23.7070432798
  0
LINE
  5
4B2
100
AcDbEntity
  8
RACCORDO
100
AcDbLine
 62
253
  6
CONTINUOUS
 10
-54.4609553268
 20
23.6977362955
 11
-54.5152678207
 21
23.6959040735
  0
LINE
  5
4B3
100
AcDbEntity
  8
RACCORDO
100
AcDbLine
 62
253
  6
CONTINUOUS
 10
-53.7713852226
 20
23.7383256497
 11
-53.8521204531
 21
23.735865434
  0
LINE
  5
4B4
100
AcDbEntity
  8
RACCORDO
100
AcDbLine
 62
253
  6
CONTINUOUS
 10
-53.682944963
 20
23.7406261435
 11
-53.7713852226
 21
23.7383256497
  0
LWPOLYLINE
  5
4B5
100
AcDbEntity
  8
RACCORDO
100
AcDbPolyline
 62
253
  6
CONTINUOUS
 90
3
 70
0
 10
-49.5604908366
 20
23.7070432798
 10
-50.377851947
 20
23.6861100763
 10
-50.7927385823
 20
23.6778407389
  0
LINE
  5
4B6
100
AcDbEntity
  8
RACCORDO
100
AcDbLine
 62
253
  6
CONTINUOUS
 10
-54.4332077726
 20
23.6984165649
 11
-54.4609553268
 21
23.6977362955
  0
LINE
  5
4B7
100
AcDbEntity
  8
RACCORDO
100
AcDbLine
 62
253
  6
CONTINUOUS
 10
-54.4139546645
 20
23.6988108855
 11
-54.4332077726
 21
23.6984165649
  0
LWPOLYLINE
  5
4B8
100
AcDbEntity
  8
RACCORDO
100
AcDbPolyline
 62
253
  6
CONTINUOUS
 90
3
 70
0
 10
-53.5515296838
 20
23.7433339163
 10
-53.5859331616
 20
23.7427036687
 10
-53.682944963
 20
23.7406261435
  0
LINE
  5
4B9
100
AcDbEntity
  8
RACCORDO
100
AcDbLine
 62
253
  6
CONTINUOUS
 10
76.5969800109
 20
23.6978091606
 11
76.5690775386
 21
23.6983701624
  0
LINE
  5
4BA
100
AcDbEntity
  8
RACCORDO
100
AcDbLine
 62
253
  6
CONTINUOUS
 10
75.7816069367
 20
23.7429489707
 11
75.6644456493
 21
23.7453069212
  0
LINE
  5
4BB
100
AcDbEntity
  8
RACCORDO
100
AcDbLine
 62
253
  6
CONTINUOUS
 10
72.910137474
 20
23.678375813
 11
72.1357090826
 21
23.6960531615
  0
LINE
  5
4BC
100
AcDbEntity
  8
RACCORDO
100
AcDbLine
 62
253
  6
CONTINUOUS
 10
76.6155802542
 20
23.6973348531
 11
76.5969800109
 21
23.6978091606
  0
LINE
  5
4BD
100
AcDbEntity
  8
RACCORDO
100
AcDbLine
 62
253
  6
CONTINUOUS
 10
75.8851690309
 20
23.7403181435
 11
75.7816069367
 21
23.7429489707
  0
LINE
  5
4BE
100
AcDbEntity
  8
RACCORDO
100
AcDbLine
 62
253
  6
CONTINUOUS
 10
72.1357090826
 20
23.6960531615
 11
71.3467055321
 21
23.7194087179
  0
LINE
  5
4BF
100
AcDbEntity
  8
RACCORDO
100
AcDbLine
 62
253
  6
CONTINUOUS
 10
76.6434463048
 20
23.6964808113
 11
76.6155802542
 21
23.6973348531
  0
LINE
  5
4C0
100
AcDbEntity
  8
RACCORDO
100
AcDbLine
 62
253
  6
CONTINUOUS
 10
75.9772987657
 20
23.7375154345
 11
75.8851690309
 21
23.7403181435
  0
LINE
  5
4C1
100
AcDbEntity
  8
RACCORDO
100
AcDbLine
 62
253
  6
CONTINUOUS
 10
76.6619838257
 20
23.6958344307
 11
76.6434463048
 21
23.6964808113
  0
LINE
  5
4C2
100
AcDbEntity
  8
RACCORDO
100
AcDbLine
 62
253
  6
CONTINUOUS
 10
71.3467055321
 20
23.7194087179
 11
70.5432510697
 21
23.7481605346
  0
LINE
  5
4C3
100
AcDbEntity
  8
RACCORDO
100
AcDbLine
 62
253
  6
CONTINUOUS
 10
76.0596725689
 20
23.7346163802
 11
75.9772987657
 21
23.7375154345
  0
LWPOLYLINE
  5
4C4
100
AcDbEntity
  8
RACCORDO
100
AcDbPolyline
 62
253
  6
CONTINUOUS
 90
19
 70
0
 10
67.7635237127
 20
23.662281442
 10
61.4692693459
 20
23.902417983
 10
55.173707249
 20
24.1143206922
 10
48.876837422
 20
24.2979895694
 10
42.5784419118
 20
24.453434544
 10
36.2787386714
 20
24.5806456866
 10
29.9783815597
 20
24.6795932098
 10
23.677370662
 20
24.7502704939
 10
17.375705893
 20
24.7926841585
 10
11.074040856
 20
24.8068242746
 10
4.7723755516
 20
24.7926842301
 10
-1.5292900208
 20
24.750270637
 10
-7.8303022593
 20
24.679593403
 10
-14.130661433
 20
24.5806459012
 10
-20.4303672729
 20
24.4534347585
 10
-26.72876537
 20
24.2979897624
 10
-33.025637588
 20
24.1143208423
 10
-39.3212020633
 20
23.9024180688
 10
-45.6154587958
 20
23.662281442
  0
LWPOLYLINE
  5
4C5
100
AcDbEntity
  8
RACCORDO
100
AcDbPolyline
 62
253
  6
CONTINUOUS
 90
19
 70
0
 10
67.7676528775
 20
23.804320818
 10
61.4731433607
 20
24.0444566583
 10
55.1770803248
 20
24.2563791237
 10
48.8795869189
 20
24.4400764873
 10
42.5806920715
 20
24.5955394682
 10
36.2806133902
 20
24.7227545895
 10
29.9797572359
 20
24.8217085132
 10
23.6782471458
 20
24.8923956616
 10
17.3762066546
 20
24.9348106582
 10
11.0740422735
 20
24.9489490541
 10
4.7718776237
 20
24.9348107451
 10
-1.5301636739
 20
24.8923958281
 10
-7.8316751084
 20
24.8217087449
 10
-14.1325331987
 20
24.7227548637
 10
-20.4326143537
 20
24.5955397554
 10
-26.7315120514
 20
24.4400767552
 10
-33.0290086302
 20
24.2563793367
 10
-39.3250752151
 20
24.0444567744
 10
-45.6195886562
 20
23.8043207897
  0
LINE
  5
4C6
100
AcDbEntity
  8
RACCORDO
100
AcDbLine
 62
253
  6
CONTINUOUS
 10
76.1329340671
 20
23.7317064281
 11
76.0596725689
 21
23.7346163802
  0
LWPOLYLINE
  5
4C7
100
AcDbEntity
  8
RACCORDO
100
AcDbPolyline
 62
253
  6
CONTINUOUS
 90
3
 70
0
 10
70.5432510697
 20
23.7481605346
 10
69.7258426844
 20
23.7811808209
 10
69.3118747089
 20
23.799362127
  0
LWPOLYLINE
  5
4C8
100
AcDbEntity
  8
RACCORDO
100
AcDbPolyline
 62
253
  6
CONTINUOUS
 90
10
 70
0
 10
68.762178337
 20
24.3014075197
 10
69.6953457533
 20
24.2617495014
 10
70.6108811355
 20
24.2184247404
 10
71.508621202
 20
24.1692124712
 10
72.3790639982
 20
24.1137324771
 10
73.2302985821
 20
24.0503933929
 10
74.0881048332
 20
23.9766550095
 10
74.9607724447
 20
23.8922493641
 10
75.8388142572
 20
23.7982026021
 10
76.7213943761
 20
23.6942001578
  0
LINE
  5
4C9
100
AcDbEntity
  8
RACCORDO
100
AcDbLine
 62
253
  6
CONTINUOUS
 10
76.2132296116
 20
23.7281340887
 11
76.1329340671
 21
23.7317064281
  0
LINE
  5
4CA
100
AcDbEntity
  8
SUPERFICI
100
AcDbLine
 62
253
  6
CONTINUOUS
 10
80.2200867696
 20
23.5118202393
 11
76.8243638258
 21
23.6814020406
  0
LINE
  5
4CB
100
AcDbEntity
  8
RACCORDO
100
AcDbLine
 62
253
  6
CONTINUOUS
 10
76.2827781632
 20
23.7246945973
 11
76.2132296116
 21
23.7281340887
  0
LINE
  5
4CC
100
AcDbEntity
  8
SUPERFICI
100
AcDbLine
 62
253
  6
CONTINUOUS
 10
83.4032641702
 20
23.3445611183
 11
80.2200867696
 21
23.5118202393
  0
LINE
  5
4CD
100
AcDbEntity
  8
SUPERFICI
100
AcDbLine
 62
253
  6
CONTINUOUS
 10
86.8763667202
 20
23.1531590519
 11
83.4032641702
 21
23.3445611183
  0
LINE
  5
4CE
100
AcDbEntity
  8
RACCORDO
100
AcDbLine
 62
253
  6
CONTINUOUS
 10
76.3528357221
 20
23.7208816664
 11
76.2827781632
 21
23.7246945973
  0
LINE
  5
4CF
100
AcDbEntity
  8
RACCORDO
100
AcDbLine
 62
253
  6
CONTINUOUS
 10
76.4122382633
 20
23.7173546125
 11
76.3528357221
 21
23.7208816664
  0
LINE
  5
4D0
100
AcDbEntity
  8
RACCORDO
100
AcDbLine
 62
253
  6
CONTINUOUS
 10
76.4679575681
 20
23.7137822828
 11
76.4122382633
 21
23.7173546125
  0
LWPOLYLINE
  5
4D1
100
AcDbEntity
  8
SUPERFICI
100
AcDbPolyline
 62
253
  6
CONTINUOUS
 90
6
 70
0
 10
-53.9952263445
 20
35.1495589373
 10
-54.8710435548
 20
35.2077795157
 10
-55.7189734249
 20
35.2703044996
 10
-56.5359524419
 20
35.3339110424
 10
-57.3177862117
 20
35.3922676749
 10
-58.0641273079
 20
35.4444907308
  0
LINE
  5
4D2
100
AcDbEntity
  8
SUPERFICI
100
AcDbLine
 62
253
  6
CONTINUOUS
 10
-64.6236774254
 20
35.9260056422
 11
-64.4957247786
 21
35.9173189581
  0
LINE
  5
4D3
100
AcDbEntity
  8
RACCORDO
100
AcDbLine
 62
253
  6
CONTINUOUS
 10
76.5230024223
 20
23.7099827473
 11
76.4679575681
 21
23.7137822828
  0
LWPOLYLINE
  5
4D4
100
AcDbEntity
  8
SUPERFICI
100
AcDbPolyline
 62
253
  6
CONTINUOUS
 90
3
 70
0
 10
-59.4623703444
 20
35.5473949942
 10
-60.7359196714
 20
35.6385920128
 10
-62.4414531048
 20
35.7622205897
  0
LINE
  5
4D5
100
AcDbEntity
  8
0
100
AcDbLine
 62
253
  6
CONTINUOUS
 10
-64.9718696252
 20
35.9457224297
 11
-65.1158478245
 21
35.9561657122
  0
LINE
  5
4D6
100
AcDbEntity
  8
SUPERFICI
100
AcDbLine
 62
253
  6
CONTINUOUS
 10
-62.4414531048
 20
35.7622205897
 11
-63.9688595348
 21
35.8729706927
  0
LINE
  5
4D7
100
AcDbEntity
  8
SUPERFICI
100
AcDbLine
 62
253
  6
CONTINUOUS
 10
-58.0641273079
 20
35.4444907308
 11
-59.4623703444
 21
35.5473949942
  0
LWPOLYLINE
  5
4D8
100
AcDbEntity
  8
RACCORDO
100
AcDbPolyline
 62
253
  6
CONTINUOUS
 90
7
 70
0
 10
76.8248779394
 20
23.6775730552
 10
76.8065022734
 20
23.6789615539
 10
76.7885450101
 20
23.6809090541
 10
76.7710061682
 20
23.6834156186
 10
76.7538857629
 20
23.6864813093
 10
76.7371838062
 20
23.6901061872
 10
76.720900307
 20
23.6942903126
  0
LINE
  5
4D9
100
AcDbEntity
  8
RACCORDO
100
AcDbLine
 62
253
  6
CONTINUOUS
 10
76.5693388454
 20
23.7065592383
 11
76.5230024223
 21
23.7099827473
  0
LINE
  5
4DA
100
AcDbEntity
  8
SUPERFICI
100
AcDbLine
 62
253
  6
CONTINUOUS
 10
-64.4957247786
 20
35.9173189581
 11
-64.3568849604
 21
35.9069322319
  0
LINE
  5
4DB
100
AcDbEntity
  8
RACCORDO
100
AcDbLine
 62
253
  6
CONTINUOUS
 10
76.7213943761
 20
23.6942001578
 11
76.6898784242
 21
23.6966336274
  0
LINE
  5
4DC
100
AcDbEntity
  8
RACCORDO
100
AcDbLine
 62
253
  6
CONTINUOUS
 10
76.615808466
 20
23.7029070333
 11
76.5693388454
 21
23.7065592383
  0
LWPOLYLINE
  5
4DD
100
AcDbEntity
  8
RACCORDO
100
AcDbPolyline
 62
253
  6
CONTINUOUS
 90
3
 70
0
 10
76.6898784242
 20
23.6966336274
 10
76.680333327
 20
23.6974238567
 10
76.6620848705
 20
23.6990488467
  0
LINE
  5
4DE
100
AcDbEntity
  8
SUPERFICI
100
AcDbLine
 62
253
  6
CONTINUOUS
 10
-64.3568849604
 20
35.9069322319
 11
-64.2089488334
 21
35.8948085645
  0
LINE
  5
4DF
100
AcDbEntity
  8
RACCORDO
100
AcDbLine
 62
253
  6
CONTINUOUS
 10
76.6620848705
 20
23.6990488467
 11
76.615808466
 21
23.7029070333
  0
LWPOLYLINE
  5
4E0
100
AcDbEntity
  8
SUPERFICI
100
AcDbPolyline
 62
253
  6
CONTINUOUS
 90
3
 70
0
 10
-64.2089488334
 20
35.8948085645
 10
-64.0509523458
 20
35.8807243961
 10
-63.9688481084
 20
35.8729652628
  0
LWPOLYLINE
  5
4E1
100
AcDbEntity
  8
RACCORDO
100
AcDbPolyline
 62
253
  6
CONTINUOUS
 90
16
 70
0
 10
67.3185857091
 20
22.5215526155
 10
67.2991936433
 20
22.4932900612
 10
67.2799095268
 20
22.4663607935
 10
67.2608406809
 20
22.4409146841
 10
67.2420932284
 20
22.4170933507
 10
67.2237715036
 20
22.3950293686
 10
67.2059774715
 20
22.3748455325
 10
67.18881016
 20
22.3566541738
 10
67.1723651093
 20
22.340556535
 10
67.1567338396
 20
22.3266422063
 10
67.1420033422
 20
22.3149886271
 10
67.1282555955
 20
22.3056606549
 10
67.115567108
 20
22.2987102045
 10
67.1040084935
 20
22.2941759587
 10
67.0936440775
 20
22.2920831536
 10
67.0845315391
 20
22.2924434376
  0
LINE
  5
4E2
100
AcDbEntity
  8
RACCORDO
100
AcDbLine
 62
253
  6
CONTINUOUS
 10
-54.5701025387
 20
23.6945840734
 11
-54.6762977007
 21
23.6814272938
  0
LWPOLYLINE
  5
4E3
100
AcDbEntity
  8
RACCORDO
100
AcDbPolyline
 62
253
  6
CONTINUOUS
 90
8
 70
0
 10
-54.5720543178
 20
23.6943434791
 10
-53.7296192733
 20
23.7938510367
 10
-52.8724319773
 20
23.8862284451
 10
-52.0008365671
 20
23.97097438
 10
-51.1107707483
 20
24.0479114158
 10
-50.2071449409
 20
24.1159941056
 10
-49.3039608372
 20
24.1738549647
 10
-48.4063536821
 20
24.2211851268
  0
LINE
  5
4E4
100
AcDbEntity
  8
SUPERFICI
100
AcDbLine
 62
253
  6
CONTINUOUS
 10
87.1199345298
 20
35.9457226024
 11
87.1061272735
 21
35.944868634
  0
LINE
  5
4E5
100
AcDbEntity
  8
SUPERFICI
100
AcDbLine
 62
253
  6
CONTINUOUS
 10
86.8863643588
 20
35.933052307
 11
86.7717423422
 21
35.9260056422
  0
LINE
  5
4E6
100
AcDbEntity
  8
SUPERFICI
100
AcDbLine
 62
253
  6
CONTINUOUS
 10
86.9830974943
 20
35.9384653978
 11
86.8863643588
 21
35.933052307
  0
LINE
  5
4E7
100
AcDbEntity
  8
SUPERFICI
100
AcDbLine
 62
253
  6
CONTINUOUS
 10
87.1061272735
 20
35.944868634
 11
86.9830974943
 21
35.9384653978
  0
LINE
  5
4E8
100
AcDbEntity
  8
SUPERFICI
100
AcDbLine
 62
253
  6
CONTINUOUS
 10
-64.9580623566
 20
35.944868634
 11
-64.7891097054
 21
35.93595486
  0
LWPOLYLINE
  5
4E9
100
AcDbEntity
  8
SUPERFICI
100
AcDbPolyline
 62
253
  6
CONTINUOUS
 90
3
 70
0
 10
-64.7891097054
 20
35.93595486
 10
-64.6829289949
 20
35.9297351424
 10
-64.6236774254
 20
35.9260056422
  0
LINE
  5
4EA
100
AcDbEntity
  8
SUPERFICI
100
AcDbLine
 62
253
  6
CONTINUOUS
 10
-64.9718696129
 20
35.9457226024
 11
-64.9580623566
 21
35.944868634
  0
LWPOLYLINE
  5
4EB
100
AcDbEntity
  8
RACCORDO
100
AcDbPolyline
 62
253
  6
CONTINUOUS
 90
16
 70
0
 10
67.318585783
 20
-22.9529433141
 10
67.2991938698
 20
-22.9246805814
 10
67.2799098824
 20
-22.897751152
 10
67.2608411432
 20
-22.8723048981
 10
67.2420937763
 20
-22.848483437
 10
67.2237721175
 20
-22.8264193439
 10
67.2059781332
 20
-22.8062354132
 10
67.1888108533
 20
-22.7880439759
 10
67.1723658196
 20
-22.7719462739
 10
67.1567345545
 20
-22.7580318967
 10
67.1420040515
 20
-22.7463782828
 10
67.1282562908
 20
-22.737050289
 10
67.1155677836
 20
-22.7300998288
 10
67.1040091457
 20
-22.7255655842
 10
67.0936447051
 20
-22.72347279
 10
67.0845321432
 20
-22.7238330934
  0
LWPOLYLINE
  5
4EC
100
AcDbEntity
  8
RACCORDO
100
AcDbPolyline
 62
253
  6
CONTINUOUS
 90
16
 70
0
 10
67.318882594
 20
22.5214348004
 10
67.3687029402
 20
22.5033253952
 10
67.4156403884
 20
22.4836735543
 10
67.4596845743
 20
22.4624962446
 10
67.5008130822
 20
22.4396381313
 10
67.5390258279
 20
22.4152934688
 10
67.5743475708
 20
22.3900232507
 10
67.606677208
 20
22.3639485628
 10
67.6360986243
 20
22.3370313855
 10
67.6629183735
 20
22.3096128974
 10
67.6870989108
 20
22.2818322633
 10
67.7086670526
 20
22.2536328492
 10
67.7280272792
 20
22.2250622572
 10
67.7453106966
 20
22.1961589626
 10
67.7603761479
 20
22.1669533777
 10
67.7732194119
 20
22.137477855
  0
LWPOLYLINE
  5
4ED
100
AcDbEntity
  8
RACCORDO
100
AcDbPolyline
 62
253
  6
CONTINUOUS
 90
10
 70
0
 10
67.0845321015
 20
-22.7238330149
 10
67.0555279263
 20
-22.7391936122
 10
67.0258397432
 20
-22.7527430807
 10
66.9955702921
 20
-22.7644699205
 10
66.9648747174
 20
-22.7743530701
 10
66.9338010355
 20
-22.7824143945
 10
66.9022825748
 20
-22.7886891475
 10
66.8703562272
 20
-22.7931687581
 10
66.8381694313
 20
-22.7958301848
 10
66.8058156269
 20
-22.7966681063
  0
LWPOLYLINE
  5
4EE
100
AcDbEntity
  8
RACCORDO
100
AcDbPolyline
 62
253
  6
CONTINUOUS
 90
10
 70
0
 10
67.3185735036
 20
-22.9529489393
 10
67.264593037
 20
-22.9806236181
 10
67.2098058461
 20
-23.0050299833
 10
67.1542119308
 20
-23.0261680351
 10
67.0977327243
 20
-23.0440262194
 10
67.0404467936
 20
-23.0586160902
 10
66.9825898388
 20
-23.0699723094
 10
66.9242404268
 20
-23.0781064311
 10
66.8653199908
 20
-23.0830069012
 10
66.8058285308
 20
-23.0846737198
  0
LINE
  5
4EF
100
AcDbEntity
  8
SUPERFICI
100
AcDbLine
 62
253
  6
CONTINUOUS
 10
-55.1434589171
 20
45.540117814
 11
-53.2805563161
 21
45.6289169615
  0
LINE
  5
4F0
100
AcDbEntity
  8
0
100
AcDbLine
 62
7
  6
CONTINUOUS
 10
-53.287331493
 20
45.7731141768
 11
-55.1504302182
 21
45.6843056806
  0
LINE
  5
4F1
100
AcDbEntity
  8
SUPERFICI
100
AcDbLine
 62
253
  6
CONTINUOUS
 10
-54.9334163091
 20
44.5434555878
 11
-53.2327603762
 21
44.6243734902
  0
LWPOLYLINE
  5
4F2
100
AcDbEntity
  8
0
100
AcDbPolyline
 62
253
  6
CONTINUOUS
 90
10
 70
0
 10
-53.2339558561
 20
44.6243899573
 10
-46.0915749112
 20
44.9412866744
 10
-38.9481796562
 20
45.220931143
 10
-31.803990941
 20
45.4632980012
 10
-24.6595492779
 20
45.668344191
 10
-17.5147560408
 20
45.8360820514
 10
-10.3688745366
 20
45.9665614115
 10
-3.2218079263
 20
46.0597792032
 10
3.9259019351
 20
46.1156973719
 10
11.0740324584
 20
46.1343056837
  0
LWPOLYLINE
  5
4F3
100
AcDbEntity
  8
0
100
AcDbPolyline
 62
253
  6
CONTINUOUS
 90
10
 70
0
 10
75.382020773
 20
44.6243899573
 10
68.239639828
 20
44.9412866744
 10
61.096244573
 20
45.220931143
 10
53.9520558578
 20
45.4632980012
 10
46.8076141947
 20
45.668344191
 10
39.6628209577
 20
45.8360820514
 10
32.5169394534
 20
45.9665614115
 10
25.3698728431
 20
46.0597792032
 10
18.2221629817
 20
46.1156973719
 10
11.0740324584
 20
46.1343056838
  0
LINE
  5
4F4
100
AcDbEntity
  8
SUPERFICI
100
AcDbLine
 62
253
  6
CONTINUOUS
 10
76.3306323168
 20
44.5794683875
 11
75.380825293
 21
44.6243734902
  0
LINE
  5
4F5
100
AcDbEntity
  8
SUPERFICI
100
AcDbLine
 62
253
  6
CONTINUOUS
 10
77.2915238339
 20
45.540117814
 11
75.428621233
 21
45.6289169615
  0
LINE
  5
4F6
100
AcDbEntity
  8
0
100
AcDbLine
 62
7
  6
CONTINUOUS
 10
77.298495135
 20
45.6843056806
 11
75.4353964098
 21
45.7731141768
  0
LINE
  5
4F7
100
AcDbEntity
  8
SUPERFICI
100
AcDbLine
 62
253
  6
CONTINUOUS
 10
77.0814812259
 20
44.5434555878
 11
76.3306323168
 21
44.5794683875
  0
LWPOLYLINE
  5
4F8
100
AcDbEntity
  8
RACCORDO
100
AcDbPolyline
 62
253
  6
CONTINUOUS
 90
16
 70
0
 10
67.0845320768
 20
22.2924444496
 10
67.1138201607
 20
22.2746413082
 10
67.1415905729
 20
22.2555519713
 10
67.1678116891
 20
22.2353264975
 10
67.1924770576
 20
22.2140877462
 10
67.2155634634
 20
22.1919990552
 10
67.2370393428
 20
22.1692737923
 10
67.2569000844
 20
22.1460923286
 10
67.2752037469
 20
22.1225485904
 10
67.2920273765
 20
22.0987188097
 10
67.307382408
 20
22.074761237
 10
67.3213417192
 20
22.050736258
 10
67.3340499771
 20
22.0265416757
 10
67.3455625447
 20
22.0021873869
 10
67.3558743027
 20
21.9778124994
 10
67.3650186046
 20
21.9534869951
  0
LWPOLYLINE
  5
4F9
100
AcDbEntity
  8
RACCORDO
100
AcDbPolyline
 62
253
  6
CONTINUOUS
 90
16
 70
0
 10
69.1245478868
 20
22.4771970826
 10
69.1229626801
 20
22.5060405028
 10
69.1206700223
 20
22.5357775834
 10
69.1176120193
 20
22.566388138
 10
69.1137407778
 20
22.5977981188
 10
69.1089872386
 20
22.6300330407
 10
69.1032496094
 20
22.6632150364
 10
69.096448511
 20
22.6973451497
 10
69.0885146494
 20
22.7323462148
 10
69.0793462306
 20
22.768212102
 10
69.068855165
 20
22.8049262243
 10
69.0569703335
 20
22.8423956609
 10
69.0436175855
 20
22.8804899887
 10
69.0287266555
 20
22.9191186093
 10
69.0122252957
 20
22.9582303341
 10
68.994043668
 20
22.9977455896
  0
LINE
  5
4FA
100
AcDbEntity
  8
RACCORDO
100
AcDbLine
 62
253
  6
CONTINUOUS
 10
67.7635237127
 20
-24.0936700205
 11
67.7646709445
 21
-24.1184241829
  0
LINE
  5
4FB
100
AcDbEntity
  8
RACCORDO
100
AcDbLine
 62
253
  6
CONTINUOUS
 10
67.7958471122
 20
-24.9169946845
 11
67.7676535731
 21
-24.2357093687
  0
LINE
  5
4FC
100
AcDbEntity
  8
RACCORDO
100
AcDbLine
 62
253
  6
CONTINUOUS
 10
67.7646709445
 20
-24.1184241829
 11
67.7657407145
 21
-24.1443604735
  0
LINE
  5
4FD
100
AcDbEntity
  8
RACCORDO
100
AcDbLine
 62
253
  6
CONTINUOUS
 10
67.7657407145
 20
-24.1443604735
 11
67.7666607912
 21
-24.169727658
  0
LWPOLYLINE
  5
4FE
100
AcDbEntity
  8
RACCORDO
100
AcDbPolyline
 62
253
  6
CONTINUOUS
 90
16
 70
0
 10
69.0132967941
 20
22.4742575634
 10
69.0124650279
 20
22.4987328762
 10
69.010897527
 20
22.5239507881
 10
69.0085906118
 20
22.5498950131
 10
69.005610189
 20
22.5765009697
 10
69.00188507
 20
22.6037905554
 10
68.9972054384
 20
22.631870273
 10
68.9915770263
 20
22.6607330464
 10
68.9849904232
 20
22.6903126291
 10
68.9772123213
 20
22.7206151035
 10
68.9682402215
 20
22.7516020033
 10
68.9580790474
 20
22.7831948955
 10
68.9465076008
 20
22.8153248575
 10
68.9334561625
 20
22.847910818
 10
68.9190072988
 20
22.8808608839
 10
68.9031711056
 20
22.9140736378
  0
LWPOLYLINE
  5
4FF
100
AcDbEntity
  8
RACCORDO
100
AcDbPolyline
 62
253
  6
CONTINUOUS
 90
9
 70
0
 10
67.7666607912
 20
-24.169727658
 10
67.7673690504
 20
-24.1928129288
 10
67.7676281495
 20
-24.2030037427
 10
67.7678176701
 20
-24.2120575542
 10
67.7679343996
 20
-24.2198208831
 10
67.7679763592
 20
-24.2261621254
 10
67.7679428375
 20
-24.2309737845
 10
67.7678344028
 20
-24.2341742932
 10
67.7676528934
 20
-24.2357093963
  0
LINE
  5
500
100
AcDbEntity
  8
RACCORDO
100
AcDbLine
 62
253
  6
CONTINUOUS
 10
69.014037684
 20
22.4450376976
 11
69.0132967941
 21
22.4742575634
  0
LWPOLYLINE
  5
501
100
AcDbEntity
  8
RACCORDO
100
AcDbPolyline
 62
253
  6
CONTINUOUS
 90
10
 70
0
 10
69.4998889021
 20
-0.2156886184
 10
69.4921218571
 20
2.5986444242
 10
69.4704534351
 20
5.3410145967
 10
69.4358791718
 20
8.0110370476
 10
69.3888404552
 20
10.6095037918
 10
69.3307742156
 20
13.1346509299
 10
69.2637488089
 20
15.58199464
 10
69.1886026141
 20
17.949441969
 10
69.1052028964
 20
20.2373701409
 10
69.014037715
 20
22.4450377051
  0
LWPOLYLINE
  5
502
100
AcDbEntity
  8
RACCORDO
100
AcDbPolyline
 62
253
  6
CONTINUOUS
 90
10
 70
0
 10
69.6109145245
 20
-0.2156886044
 10
69.6035448031
 20
2.5993578376
 10
69.5818439332
 20
5.3416442051
 10
69.5470089044
 20
8.0111090172
 10
69.5002240317
 20
10.6096066226
 10
69.4425850715
 20
13.1351944859
 10
69.3751953585
 20
15.5821315231
 10
69.2992167215
 20
17.9484943214
 10
69.2157732202
 20
20.2361770754
 10
69.1245479117
 20
22.4771970837
  0
LINE
  5
503
100
AcDbEntity
  8
RACCORDO
100
AcDbLine
 62
253
  6
CONTINUOUS
 10
67.8342405789
 20
21.7811248963
 11
67.8579064547
 21
9.808925249
  0
LINE
  5
504
100
AcDbEntity
  8
RACCORDO
100
AcDbLine
 62
253
  6
CONTINUOUS
 10
67.3983886723
 20
21.7594987994
 11
67.4183852679
 21
9.7990936819
  0
LINE
  5
505
100
AcDbEntity
  8
RACCORDO
100
AcDbLine
 62
253
  6
CONTINUOUS
 10
67.8579064547
 20
9.808925249
 11
67.8624290562
 21
5.0010684282
  0
LINE
  5
506
100
AcDbEntity
  8
RACCORDO
100
AcDbLine
 62
253
  6
CONTINUOUS
 10
67.4183852679
 20
9.7990936819
 11
67.422203834
 21
4.995944205
  0
LINE
  5
507
100
AcDbEntity
  8
RACCORDO
100
AcDbLine
 62
253
  6
CONTINUOUS
 10
66.8058285308
 20
22.6532851413
 11
66.805828531
 21
22.365279504
  0
LINE
  5
508
100
AcDbEntity
  8
RACCORDO
100
AcDbLine
 62
253
  6
CONTINUOUS
 10
66.8058285308
 20
-23.0846737198
 11
66.8058285308
 21
-22.7966680825
  0
LINE
  5
509
100
AcDbEntity
  8
RACCORDO
100
AcDbLine
 62
7
  6
CONTINUOUS
 10
67.3240324584
 20
21.6851279899
 11
67.3240324584
 21
-22.1165165684
  0
LINE
  5
50A
100
AcDbEntity
  8
RACCORDO
100
AcDbLine
 62
253
  6
CONTINUOUS
 10
67.422203834
 20
4.995944205
 11
67.4236267206
 21
-0.2156936465
  0
LINE
  5
50B
100
AcDbEntity
  8
RACCORDO
100
AcDbLine
 62
253
  6
CONTINUOUS
 10
67.8624290562
 20
5.0010684282
 11
67.8640345453
 21
-0.2156936166
  0
LINE
  5
50C
100
AcDbEntity
  8
RACCORDO
100
AcDbLine
 62
253
  6
CONTINUOUS
 10
67.8640345453
 20
-0.2156936166
 11
67.8624139493
 21
-5.4561683663
  0
LINE
  5
50D
100
AcDbEntity
  8
RACCORDO
100
AcDbLine
 62
253
  6
CONTINUOUS
 10
67.4236267206
 20
-0.2156936465
 11
67.4211539451
 21
-7.1027110146
  0
LINE
  5
50E
100
AcDbEntity
  8
RACCORDO
100
AcDbLine
 62
253
  6
CONTINUOUS
 10
67.8624139493
 20
-5.4561683663
 11
67.8578619961
 21
-10.2758750532
  0
LINE
  5
50F
100
AcDbEntity
  8
RACCORDO
100
AcDbLine
 62
253
  6
CONTINUOUS
 10
67.4211539451
 20
-7.1027110146
 11
67.4147588393
 21
-13.2426369141
  0
LINE
  5
510
100
AcDbEntity
  8
RACCORDO
100
AcDbLine
 62
253
  6
CONTINUOUS
 10
67.4147588393
 20
-13.2426369141
 11
67.4059079303
 21
-18.6358820936
  0
LINE
  5
511
100
AcDbEntity
  8
RACCORDO
100
AcDbLine
 62
253
  6
CONTINUOUS
 10
67.8578619961
 20
-10.2758750532
 11
67.8485259459
 21
-16.0481323214
  0
LINE
  5
512
100
AcDbEntity
  8
RACCORDO
100
AcDbLine
 62
253
  6
CONTINUOUS
 10
67.4059079303
 20
-18.6358820936
 11
67.3983886546
 21
-22.1908957112
  0
LINE
  5
513
100
AcDbEntity
  8
RACCORDO
100
AcDbLine
 62
253
  6
CONTINUOUS
 10
67.8485259459
 20
-16.0481323214
 11
67.8342405789
 21
-22.2125134748
  0
LWPOLYLINE
  5
514
100
AcDbEntity
  8
RACCORDO
100
AcDbPolyline
 62
253
  6
CONTINUOUS
 90
7
 70
0
 10
67.7676281494
 20
23.7716151624
 10
67.76781767
 20
23.7806689737
 10
67.7679343995
 20
23.7884323025
 10
67.7679763591
 20
23.7947735447
 10
67.7679428374
 20
23.7995852038
 10
67.7678344027
 20
23.8027857124
 10
67.7676528933
 20
23.8043208156
  0
LINE
  5
515
100
AcDbEntity
  8
RACCORDO
100
AcDbLine
 62
253
  6
CONTINUOUS
 10
69.0132967911
 20
-22.9056461409
 11
69.0140376776
 21
-22.8764264627
  0
LINE
  5
516
100
AcDbEntity
  8
RACCORDO
100
AcDbLine
 62
253
  6
CONTINUOUS
 10
67.7670447652
 20
23.7502692872
 11
67.7676281494
 21
23.7716151624
  0
LWPOLYLINE
  5
517
100
AcDbEntity
  8
RACCORDO
100
AcDbPolyline
 62
253
  6
CONTINUOUS
 90
7
 70
0
 10
67.3983886248
 20
-22.1908956819
 10
67.3974055738
 20
-22.2237706656
 10
67.3945843914
 20
-22.2565606846
 10
67.3899259363
 20
-22.2891660452
 10
67.3834365934
 20
-22.3214868195
 10
67.3751283084
 20
-22.3534231523
 10
67.3650186051
 20
-22.3848755719
  0
LWPOLYLINE
  5
518
100
AcDbEntity
  8
RACCORDO
100
AcDbPolyline
 62
253
  6
CONTINUOUS
 90
7
 70
0
 10
67.8342405789
 20
-22.2125134748
 10
67.832393787
 20
-22.2731425059
 10
67.8272121699
 20
-22.3332869522
 10
67.8186992532
 20
-22.3929392531
 10
67.8068586566
 20
-22.4520915857
 10
67.7916940957
 20
-22.5107358717
 10
67.7732093824
 20
-22.5688637887
  0
LINE
  5
519
100
AcDbEntity
  8
RACCORDO
100
AcDbLine
 62
253
  6
CONTINUOUS
 10
67.7662236373
 20
23.7258359632
 11
67.7670447652
 21
23.7502692872
  0
LWPOLYLINE
  5
51A
100
AcDbEntity
  8
RACCORDO
100
AcDbPolyline
 62
253
  6
CONTINUOUS
 90
9
 70
0
 10
69.21579496
 20
-20.6670022799
 10
69.2992555235
 20
-18.3787514655
 10
69.3752462147
 20
-16.0118159371
 10
69.4426477835
 20
-13.5641080531
 10
69.5002909571
 20
-11.0377446834
 10
69.5470625093
 20
-8.4390474956
 10
69.5818734607
 20
-5.770152726
 10
69.6035531357
 20
-3.0290126092
 10
69.6109145245
 20
-0.2156886044
  0
LINE
  5
51B
100
AcDbEntity
  8
RACCORDO
100
AcDbLine
 62
253
  6
CONTINUOUS
 10
67.7652202089
 20
23.6999649434
 11
67.7662236373
 21
23.7258359632
  0
LINE
  5
51C
100
AcDbEntity
  8
RACCORDO
100
AcDbLine
 62
253
  6
CONTINUOUS
 10
67.7958471122
 20
24.485606106
 11
67.7676528775
 21
23.804320818
  0
LWPOLYLINE
  5
51D
100
AcDbEntity
  8
RACCORDO
100
AcDbPolyline
 62
253
  6
CONTINUOUS
 90
10
 70
0
 10
69.014037707
 20
-22.8764264699
 10
69.10522487
 20
-20.6681965344
 10
69.1886416616
 20
-18.3797000164
 10
69.2637997611
 20
-16.0116790535
 10
69.3308328821
 20
-13.5635639396
 10
69.3889010637
 20
-11.0376415628
 10
69.4359328724
 20
-8.4389755655
 10
69.4704923044
 20
-5.7695230506
 10
69.492141618
 20
-3.028298997
 10
69.4998889018
 20
-0.2156886185
  0
LINE
  5
51E
100
AcDbEntity
  8
RACCORDO
100
AcDbLine
 62
253
  6
CONTINUOUS
 10
69.1245484412
 20
-22.9085736201
 11
69.21579496
 21
-20.6670022799
  0
LWPOLYLINE
  5
51F
100
AcDbEntity
  8
RACCORDO
100
AcDbPolyline
 62
253
  6
CONTINUOUS
 90
3
 70
0
 10
67.7635237127
 20
23.662281442
 10
67.7641022321
 20
23.6744030547
 10
67.7652202089
 20
23.6999649434
  0
LWPOLYLINE
  5
520
100
AcDbEntity
  8
SUPERFICI
100
AcDbPolyline
 62
253
  6
CONTINUOUS
 90
10
 70
0
 10
77.1928468122
 20
45.1857986895
 10
77.2029690166
 20
45.2448055242
 10
77.2129354434
 20
45.3001893041
 10
77.2228903086
 20
45.3515860892
 10
77.2330160944
 20
45.3986011879
 10
77.2434335225
 20
45.440355166
 10
77.254230706
 20
45.4758691074
 10
77.2655854752
 20
45.504595376
 10
77.2777695401
 20
45.526186424
 10
77.2910410349
 20
45.5401462631
  0
LWPOLYLINE
  5
521
100
AcDbEntity
  8
SUPERFICI
100
AcDbPolyline
 62
253
  6
CONTINUOUS
 90
6
 70
0
 10
77.0814500301
 20
44.5432909411
 10
77.0964704239
 20
44.6229309804
 10
77.1107261754
 20
44.7008799056
 10
77.1242409306
 20
44.7769337806
 10
77.1370055773
 20
44.8506474811
 10
77.1928468122
 20
45.1857986895
  0
LWPOLYLINE
  5
522
100
AcDbEntity
  8
RACCORDO
100
AcDbPolyline
 62
253
  6
CONTINUOUS
 90
16
 70
0
 10
67.3650186051
 20
-22.3848755719
 10
67.3558475534
 20
-22.4092698564
 10
67.3455208705
 20
-22.4336703619
 10
67.3340106199
 20
-22.4580091833
 10
67.3213335306
 20
-22.4821389402
 10
67.3074342534
 20
-22.5060644182
 10
67.2921516041
 20
-22.5299225966
 10
67.2754172886
 20
-22.5536482845
 10
67.2572170029
 20
-22.5770914668
 10
67.2374346219
 20
-22.6002223844
 10
67.2159889729
 20
-22.6229593094
 10
67.1928936046
 20
-22.6450977635
 10
67.1681838773
 20
-22.6664109735
 10
67.1418822954
 20
-22.686727606
 10
67.113988786
 20
-22.7059207032
 10
67.0845321015
 20
-22.7238330149
  0
LWPOLYLINE
  5
523
100
AcDbEntity
  8
RACCORDO
100
AcDbPolyline
 62
253
  6
CONTINUOUS
 90
16
 70
0
 10
67.7732194771
 20
-22.5688663392
 10
67.7603216202
 20
-22.5984188741
 10
67.7452359165
 20
-22.6276560688
 10
67.7279672122
 20
-22.6565454813
 10
67.7086622057
 20
-22.6850412094
 10
67.6871853924
 20
-22.7131211568
 10
67.6631174467
 20
-22.7407854624
 10
67.6364505573
 20
-22.7680909467
 10
67.6072031456
 20
-22.7948994048
 10
67.5749956664
 20
-22.8209168463
 10
67.5397355637
 20
-22.8461996413
 10
67.5015316847
 20
-22.8706053024
 10
67.460310571
 20
-22.8935584478
 10
67.4160560235
 20
-22.9148583268
 10
67.3688065924
 20
-22.9346617309
 10
67.318572741
 20
-22.9529487544
  0
LWPOLYLINE
  5
524
100
AcDbEntity
  8
RACCORDO
100
AcDbPolyline
 62
253
  6
CONTINUOUS
 90
7
 70
0
 10
67.3650186046
 20
21.9534869951
 10
67.3750778572
 20
21.9222097385
 10
67.383371571
 20
21.8903819054
 10
67.3898706653
 20
21.8580990192
 10
67.3945513011
 20
21.8254582856
 10
67.3973949844
 20
21.7925583054
 10
67.3983886533
 20
21.7594987806
  0
LWPOLYLINE
  5
525
100
AcDbEntity
  8
RACCORDO
100
AcDbPolyline
 62
253
  6
CONTINUOUS
 90
7
 70
0
 10
67.7732093621
 20
22.1374753161
 10
67.7916393829
 20
22.0796679029
 10
67.8067710574
 20
22.0212160797
 10
67.8186006401
 20
21.9621280178
 10
67.8271244655
 20
21.9024116781
 10
67.8323389475
 20
21.8420748003
 10
67.8342405789
 20
21.7811248963
  0
LWPOLYLINE
  5
526
100
AcDbEntity
  8
SUPERFICI
100
AcDbPolyline
 62
253
  6
CONTINUOUS
 90
4
 70
0
 10
77.0814500301
 20
-44.9746795196
 10
77.0964704239
 20
-45.0543195589
 10
77.1107261754
 20
-45.1322684841
 10
77.1242409306
 20
-45.2083223591
  0
LWPOLYLINE
  5
527
100
AcDbEntity
  8
SUPERFICI
100
AcDbPolyline
 62
253
  6
CONTINUOUS
 90
10
 70
0
 10
77.1928468122
 20
-45.617187268
 10
77.2029690166
 20
-45.6761941027
 10
77.2129354434
 20
-45.7315778826
 10
77.2228903086
 20
-45.7829746677
 10
77.2330160944
 20
-45.8299897664
 10
77.2434335225
 20
-45.8717437444
 10
77.254230706
 20
-45.9072576858
 10
77.2655854752
 20
-45.9359839545
 10
77.2777695401
 20
-45.9575750025
 10
77.2910410349
 20
-45.9715348416
  0
LINE
  5
528
100
AcDbEntity
  8
SUPERFICI
100
AcDbLine
 62
253
  6
CONTINUOUS
 10
77.1242409306
 20
-45.2083223591
 11
77.1491043021
 21
-45.353448992
  0
LINE
  5
529
100
AcDbEntity
  8
SUPERFICI
100
AcDbLine
 62
253
  6
CONTINUOUS
 10
77.1491043021
 20
-45.353448992
 11
77.1928468122
 21
-45.617187268
  0
LWPOLYLINE
  5
52A
100
AcDbEntity
  8
RACCORDO
100
AcDbPolyline
 62
253
  6
CONTINUOUS
 90
10
 70
0
 10
76.8243638258
 20
23.6814020406
 10
76.7615730233
 20
24.9593606632
 10
76.6954901792
 20
26.2374720184
 10
76.626140345
 20
27.5153803982
 10
76.5535254009
 20
28.7931290826
 10
76.477690738
 20
30.0699807049
 10
76.3987358018
 20
31.3444429542
 10
76.3167204015
 20
32.6158435379
 10
76.2316531643
 20
33.8842951546
 10
76.1435644396
 20
35.1495028416
  0
LINE
  5
52B
100
AcDbEntity
  8
0
100
AcDbLine
 62
253
  6
CONTINUOUS
 10
77.298495135
 20
-46.1156942591
 11
77.2915238339
 21
-45.9715063925
  0
LINE
  5
52C
100
AcDbEntity
  8
0
100
AcDbLine
 62
253
  6
CONTINUOUS
 10
75.428621233
 20
-46.06030554
 11
75.4353964098
 21
-46.2045027553
  0
LINE
  5
52D
100
AcDbEntity
  8
SUPERFICI
100
AcDbLine
 62
253
  6
CONTINUOUS
 10
75.3820207729
 20
-45.0557785358
 11
75.428621233
 21
-46.06030554
  0
LWPOLYLINE
  5
52E
100
AcDbEntity
  8
RACCORDO
100
AcDbPolyline
 62
253
  6
CONTINUOUS
 90
10
 70
0
 10
76.8240324584
 20
23.6814182028
 10
76.9442969204
 20
21.0204735983
 10
77.0503057149
 20
18.3624396125
 10
77.1420862919
 20
15.706782977
 10
77.2196580728
 20
13.0532763274
 10
77.2830602568
 20
10.4010748882
 10
77.3323353734
 20
7.7487192678
 10
77.3674999661
 20
5.0953641058
 10
77.3885610414
 20
2.4407752695
 10
77.3955323628
 20
-0.2155915072
  0
LWPOLYLINE
  5
52F
100
AcDbEntity
  8
RACCORDO
100
AcDbPolyline
 62
253
  6
CONTINUOUS
 90
10
 70
0
 10
76.8240324584
 20
-24.1128067812
 10
76.9442969204
 20
-21.4518621768
 10
77.0503057149
 20
-18.793828191
 10
77.1420862919
 20
-16.1381715555
 10
77.21965787
 20
-13.4846725385
 10
77.2830599329
 20
-10.832478718
 10
77.3323353734
 20
-8.1801078463
 10
77.3675004502
 20
-5.5267069857
 10
77.3885616441
 20
-2.8720496353
 10
77.3955323574
 20
-0.2155915072
  0
LINE
  5
530
100
AcDbEntity
  8
SUPERFICI
100
AcDbLine
 62
253
  6
CONTINUOUS
 10
75.3820207729
 20
44.6243899573
 11
75.428621233
 21
45.6289169615
  0
LINE
  5
531
100
AcDbEntity
  8
0
100
AcDbLine
 62
253
  6
CONTINUOUS
 10
75.428621233
 20
45.6289169615
 11
75.4353964098
 21
45.7731141768
  0
LINE
  5
532
100
AcDbEntity
  8
0
100
AcDbLine
 62
253
  6
CONTINUOUS
 10
77.298495135
 20
45.6843056806
 11
77.2915238339
 21
45.540117814
  0
LWPOLYLINE
  5
533
100
AcDbEntity
  8
RACCORDO
100
AcDbPolyline
 62
253
  6
CONTINUOUS
 90
10
 70
0
 10
76.8243638258
 20
-24.1127906191
 10
76.7615730233
 20
-25.3907492417
 10
76.6954901792
 20
-26.6688605969
 10
76.626140345
 20
-27.9467689767
 10
76.5535254009
 20
-29.2245176611
 10
76.477690738
 20
-30.5013692834
 10
76.3987358018
 20
-31.7758315327
 10
76.3167204015
 20
-33.0472321163
 10
76.2316531643
 20
-34.3156837331
 10
76.1435644396
 20
-35.58089142
  0
LINE
  5
534
100
AcDbEntity
  8
RACCORDO
100
AcDbLine
 62
253
  6
CONTINUOUS
 10
72.9405536333
 20
-24.1091990204
 11
73.001441009
 21
-23.7040006146
  0
LWPOLYLINE
  5
535
100
AcDbEntity
  8
RACCORDO
100
AcDbPolyline
 62
253
  6
CONTINUOUS
 90
16
 70
0
 10
68.9940436691
 20
-23.4291341658
 10
69.0122699455
 20
-23.3895173837
 10
69.0288070348
 20
-23.3503076228
 10
69.0437254285
 20
-23.3115850878
 10
69.0571034896
 20
-23.2733845833
 10
69.0690057519
 20
-23.2358138513
 10
69.0794935217
 20
-23.1990555019
 10
69.0886294721
 20
-23.1632594418
 10
69.0965222804
 20
-23.128388538
 10
69.103299707
 20
-23.0943338648
 10
69.1090402554
 20
-23.061087682
 10
69.1138018744
 20
-23.02873141
 10
69.1176673496
 20
-22.9972786802
 10
69.1207070012
 20
-22.9667501779
 10
69.1229798398
 20
-22.9371750548
 10
69.1245484412
 20
-22.9085736201
  0
LWPOLYLINE
  5
536
100
AcDbEntity
  8
RACCORDO
100
AcDbPolyline
 62
253
  6
CONTINUOUS
 90
16
 70
0
 10
68.9031712113
 20
-23.3454619799
 10
68.9190395723
 20
-23.3121788077
 10
68.933515709
 20
-23.279156918
 10
68.9465894602
 20
-23.2464982278
 10
68.9581810098
 20
-23.2142793984
 10
68.9683571921
 20
-23.1825972605
 10
68.9773309197
 20
-23.1515690238
 10
68.9850873364
 20
-23.1213228413
 10
68.9916396356
 20
-23.0918502934
 10
68.9972434675
 20
-23.0630478181
 10
69.0019200404
 20
-23.0349090248
 10
69.0056508704
 20
-23.0075117798
 10
69.0086314514
 20
-22.9808669423
 10
69.0109289111
 20
-22.9549922659
 10
69.0124826172
 20
-22.9299132952
 10
69.0132967911
 20
-22.9056461409
  0
LWPOLYLINE
  5
537
100
AcDbEntity
  8
RACCORDO
100
AcDbPolyline
 62
253
  6
CONTINUOUS
 90
37
 70
0
 10
68.9031727156
 20
22.914074034
 10
68.8723285938
 20
22.9730421101
 10
68.8402650112
 20
23.0287517916
 10
68.8069819677
 20
23.0812030784
 10
68.7722062115
 20
23.130316331
 10
68.7362109945
 20
23.176171189
 10
68.699816072
 20
23.219006571
 10
68.6631530649
 20
23.2587339969
 10
68.6260903523
 20
23.2954419467
 10
68.5890528265
 20
23.3296347798
 10
68.5521142711
 20
23.3613242194
 10
68.5152009026
 20
23.3904985423
 10
68.4785162623
 20
23.4176269379
 10
68.4420655551
 20
23.4427555925
 10
68.4058435762
 20
23.4658383199
 10
68.3700382525
 20
23.4872057513
 10
68.3346524238
 20
23.506880163
 10
68.2996832502
 20
23.5248392788
 10
68.2653101393
 20
23.5413469002
 10
68.2315601594
 20
23.5564069125
 10
68.1984062422
 20
23.5700154305
 10
68.1659465897
 20
23.5824246006
 10
68.1342020837
 20
23.5936430005
 10
68.1031518425
 20
23.6036620527
 10
68.072831423
 20
23.6127081711
 10
68.0432568739
 20
23.620791946
 10
68.0144121467
 20
23.6279027872
 10
67.9862846521
 20
23.6342353384
 10
67.958886559
 20
23.6398008073
 10
67.9322056987
 20
23.6445879862
 10
67.9061929752
 20
23.6487578954
 10
67.8808514904
 20
23.6523218116
 10
67.8561781426
 20
23.655268458
 10
67.8321145309
 20
23.6577250252
 10
67.8086411886
 20
23.65973391
 10
67.7857775825
 20
23.6612527156
 10
67.7635237127
 20
23.662281442
  0
LWPOLYLINE
  5
538
100
AcDbEntity
  8
RACCORDO
100
AcDbPolyline
 62
253
  6
CONTINUOUS
 90
37
 70
0
 10
68.994043668
 20
22.9977455896
 10
68.9615093659
 20
23.0613348708
 10
68.9269732613
 20
23.1213339461
 10
68.8907907107
 20
23.1777676375
 10
68.8533015519
 20
23.2306834871
 10
68.8148204008
 20
23.2801517764
 10
68.7756359084
 20
23.3262613272
 10
68.7360975075
 20
23.3690396159
 10
68.6963979211
 20
23.4086796853
 10
68.6565356168
 20
23.4455088836
 10
68.616712443
 20
23.4796280481
 10
68.5771080566
 20
23.5111524407
 10
68.5376186774
 20
23.5403846474
 10
68.4983348425
 20
23.5674473217
 10
68.4594282844
 20
23.5924025048
 10
68.4208723053
 20
23.6154243617
 10
68.3827397198
 20
23.6366144523
 10
68.3451511814
 20
23.6560443408
 10
68.3081295732
 20
23.6738260222
 10
68.2717579229
 20
23.6900409932
 10
68.2360999741
 20
23.7047772676
 10
68.2011352794
 20
23.7181445122
 10
68.166923857
 20
23.730218551
 10
68.1335125712
 20
23.7410781254
 10
68.1008492076
 20
23.7508222314
 10
68.0689767415
 20
23.759517778
 10
68.037927856
 20
23.7672331452
 10
68.0076255036
 20
23.7740533307
 10
67.9780998626
 20
23.7800351718
 10
67.9493729071
 20
23.7852362055
 10
67.921348309
 20
23.7897260736
 10
67.8940405965
 20
23.7935522675
 10
67.8674703179
 20
23.7967606693
 10
67.8415454023
 20
23.7994035723
 10
67.8162426916
 20
23.8015210819
 10
67.7916086571
 20
23.803147884
 10
67.7676528775
 20
23.804320818
  0
LINE
  5
539
100
AcDbEntity
  8
RACCORDO
100
AcDbLine
 62
253
  6
CONTINUOUS
 10
72.9101264129
 20
23.6783663139
 11
72.944808121
 21
23.4524384499
  0
LINE
  5
53A
100
AcDbEntity
  8
RACCORDO
100
AcDbLine
 62
253
  6
CONTINUOUS
 10
72.944808121
 20
23.4524384499
 11
72.9729719308
 21
23.2633789507
  0
LWPOLYLINE
  5
53B
100
AcDbEntity
  8
SUPERFICI
100
AcDbPolyline
 62
253
  6
CONTINUOUS
 90
10
 70
0
 10
75.380825293
 20
44.6243734902
 10
75.474060044
 20
43.5767886498
 10
75.565180878
 20
42.5269847243
 10
75.6543595745
 20
41.4757141449
 10
75.7412687898
 20
40.4228002076
 10
75.8261051735
 20
39.3688868612
 10
75.9087540586
 20
38.3145038483
 10
75.9891400791
 20
37.259766324
 10
76.0674657122
 20
36.2048749514
 10
76.1432912613
 20
35.1495589373
  0
LWPOLYLINE
  5
53C
100
AcDbEntity
  8
SUPERFICI
100
AcDbPolyline
 62
253
  6
CONTINUOUS
 90
10
 70
0
 10
75.380825293
 20
-45.0557620687
 10
75.474060044
 20
-44.0081772283
 10
75.565180878
 20
-42.9583733028
 10
75.6543595745
 20
-41.9071027234
 10
75.7412687898
 20
-40.854188786
 10
75.8261051735
 20
-39.8002754397
 10
75.9087540586
 20
-38.7458924268
 10
75.9891400791
 20
-37.6911549025
 10
76.0674657122
 20
-36.6362635299
 10
76.1432912613
 20
-35.5809475157
  0
LWPOLYLINE
  5
53D
100
AcDbEntity
  8
SUPERFICI
100
AcDbPolyline
 62
253
  6
CONTINUOUS
 90
34
 70
0
 10
86.1169244517
 20
35.8729706927
 10
86.0831085984
 20
36.2331942088
 10
86.0338017349
 20
36.6057755362
 10
85.9676771085
 20
36.9889382704
 10
85.8816476088
 20
37.3829323593
 10
85.7753885605
 20
37.7833901234
 10
85.6519792416
 20
38.1822232255
 10
85.5096450875
 20
38.5771079564
 10
85.346927665
 20
38.9675411951
 10
85.1684881631
 20
39.3497027205
 10
84.9740507652
 20
39.7223008462
 10
84.7615757386
 20
40.0853128632
 10
84.5341816555
 20
40.4380224131
 10
84.2913538097
 20
40.7808062571
 10
84.0319211762
 20
41.1126679264
 10
83.7589100162
 20
41.4316669714
 10
83.4725210068
 20
41.7381467764
 10
83.1717284814
 20
42.0319259742
 10
82.8585676173
 20
42.3110146026
 10
82.533401962
 20
42.5761050389
 10
82.1957697088
 20
42.8272042119
 10
81.8471821034
 20
43.0619004703
 10
81.4882293295
 20
43.2812163067
 10
81.1189832114
 20
43.485390071
 10
80.7408654408
 20
43.6714275411
 10
80.3552259523
 20
43.8403807946
 10
79.9622332079
 20
43.993064791
 10
79.5621024662
 20
44.1266196091
 10
79.1553213833
 20
44.2422407404
 10
78.7433513251
 20
44.3408171835
 10
78.3284197217
 20
44.4194335016
 10
77.9123697891
 20
44.4780122975
 10
77.4962588127
 20
44.5190090111
 10
77.0814812259
 20
44.5434555878
  0
LWPOLYLINE
  5
53E
100
AcDbEntity
  8
SUPERFICI
100
AcDbPolyline
 62
253
  6
CONTINUOUS
 90
8
 70
0
 10
86.1169187385
 20
35.8729679778
 10
86.2106185617
 20
34.5682883958
 10
86.3017164002
 20
33.2332409792
 10
86.3908439558
 20
31.8704002827
 10
86.4783978117
 20
30.4793304454
 10
86.5643151029
 20
29.0608955632
 10
86.6477395964
 20
27.6185850349
 10
86.7268689997
 20
26.1530697453
  0
LINE
  5
53F
100
AcDbEntity
  8
SUPERFICI
100
AcDbLine
 62
253
  6
CONTINUOUS
 10
86.7268689997
 20
26.1530697453
 11
86.8763667202
 21
23.1531590519
  0
LWPOLYLINE
  5
540
100
AcDbEntity
  8
0
100
AcDbPolyline
 62
253
  6
CONTINUOUS
 90
10
 70
0
 10
86.8763614607
 20
23.1531562646
 10
86.9914723806
 20
20.5543456144
 10
87.0929746011
 20
17.9571401887
 10
87.1808869926
 20
15.3611832442
 10
87.2552213738
 20
12.7663889801
 10
87.3160065138
 20
10.1721293084
 10
87.3632739839
 20
7.5772343536
 10
87.3970327909
 20
4.9810758538
 10
87.4172835246
 20
2.3835666603
 10
87.4240324581
 20
-0.2156521427
  0
LWPOLYLINE
  5
541
100
AcDbEntity
  8
0
100
AcDbPolyline
 62
253
  6
CONTINUOUS
 90
10
 70
0
 10
86.8763614607
 20
-23.5845448431
 10
86.9914723806
 20
-20.9857341929
 10
87.0929746011
 20
-18.3885287672
 10
87.1808869926
 20
-15.7925718227
 10
87.2552212925
 20
-13.1977806792
 10
87.3160063838
 20
-10.6035241268
 10
87.3632739839
 20
-8.0086229321
 10
87.3970329855
 20
-5.4124457116
 10
87.4172837678
 20
-2.8149084264
 10
87.4240324581
 20
-0.2156521427
  0
LWPOLYLINE
  5
542
100
AcDbEntity
  8
SUPERFICI
100
AcDbPolyline
 62
253
  6
CONTINUOUS
 90
9
 70
0
 10
86.1169187385
 20
-36.3043565563
 10
86.2106185617
 20
-34.9996769743
 10
86.3017164002
 20
-33.6646295576
 10
86.3908439558
 20
-32.3017888611
 10
86.4783978117
 20
-30.9107190239
 10
86.5643151029
 20
-29.4922841416
 10
86.6477395964
 20
-28.0499736134
 10
86.7268689997
 20
-26.5844583238
 10
86.8763667202
 20
-23.5845476303
  0
LWPOLYLINE
  5
543
100
AcDbEntity
  8
SUPERFICI
100
AcDbPolyline
 62
253
  6
CONTINUOUS
 90
34
 70
0
 10
86.1169244517
 20
-36.3043592712
 10
86.0831085984
 20
-36.6645827873
 10
86.0338017349
 20
-37.0371641147
 10
85.9676771085
 20
-37.4203268489
 10
85.8816476088
 20
-37.8143209378
 10
85.7753885605
 20
-38.2147787019
 10
85.6519792416
 20
-38.613611804
 10
85.5096450875
 20
-39.0084965349
 10
85.346927665
 20
-39.3989297736
 10
85.1684881631
 20
-39.781091299
 10
84.9740507652
 20
-40.1536894247
 10
84.7615757386
 20
-40.5167014417
 10
84.5341816555
 20
-40.8694109916
 10
84.2913538097
 20
-41.2121948356
 10
84.0319211762
 20
-41.5440565049
 10
83.7589100162
 20
-41.8630555499
 10
83.4725210068
 20
-42.1695353549
 10
83.1717284814
 20
-42.4633145527
 10
82.8585676173
 20
-42.7424031811
 10
82.533401962
 20
-43.0074936174
 10
82.1957697088
 20
-43.2585927904
 10
81.8471821034
 20
-43.4932890488
 10
81.4882293295
 20
-43.7126048852
 10
81.1189832114
 20
-43.9167786495
 10
80.7408654408
 20
-44.1028161196
 10
80.3552259523
 20
-44.2717693731
 10
79.9622332079
 20
-44.4244533694
 10
79.5621024662
 20
-44.5580081875
 10
79.1553213833
 20
-44.6736293188
 10
78.7433513251
 20
-44.772205762
 10
78.3284197217
 20
-44.8508220801
 10
77.9123697891
 20
-44.909400876
 10
77.4962588127
 20
-44.9503975896
 10
77.0814812259
 20
-44.9748441662
  0
LINE
  5
544
100
AcDbEntity
  8
DRAFT
100
AcDbLine
 62
7
  6
CONTINUOUS
 10
-80.5421924884
 20
-47.614748103
 11
-81.9683604665
 21
-47.6894903996
  0
LINE
  5
545
100
AcDbEntity
  8
RACCORDO
100
AcDbLine
 62
253
  6
CONTINUOUS
 10
-80.5421924884
 20
-46.0148661152
 11
-81.9683604665
 21
-46.0895212059
  0
LINE
  5
546
100
AcDbEntity
  8
0
100
AcDbLine
 62
7
  6
CONTINUOUS
 10
-81.9683604665
 20
-47.2156942892
 11
-82.4683604665
 21
-47.2156942892
  0
LINE
  5
547
100
AcDbEntity
  8
0
100
AcDbLine
 62
253
  6
CONTINUOUS
 10
-82.4683604665
 20
-45.6162778993
 11
-81.9683604665
 21
-45.6162778993
  0
LINE
  5
548
100
AcDbEntity
  8
DRAFT
100
AcDbLine
 62
7
  6
CONTINUOUS
 10
-82.4683604665
 20
-45.0156942892
 11
-82.8183604665
 21
-44.9973515665
  0
LINE
  5
549
100
AcDbEntity
  8
SUPERFICI
100
AcDbLine
 62
7
  6
CONTINUOUS
 10
-84.4683604694
 20
-47.5713379937
 11
-82.8183604665
 21
-47.715694289
  0
LINE
  5
54A
100
AcDbEntity
  8
0
100
AcDbLine
 62
253
  6
CONTINUOUS
 10
-84.4683604665
 20
-46.06030554
 11
-82.8183604665
 21
-46.2045027553
  0
LINE
  5
54B
100
AcDbEntity
  8
0
100
AcDbLine
 62
253
  6
CONTINUOUS
 10
-82.8183604665
 20
-46.1156942591
 11
-84.4683604665
 21
-45.9715063925
  0
LWPOLYLINE
  5
54C
100
AcDbEntity
  8
0
100
AcDbPolyline
 62
7
  6
CONTINUOUS
 90
25
 70
0
 10
-84.4683604665
 20
-47.5713379942
 10
-84.5669392658
 20
-47.5603730967
 10
-84.6633271259
 20
-47.5450478028
 10
-84.7572015537
 20
-47.5255825548
 10
-84.8484234194
 20
-47.5021514071
 10
-84.936579223
 20
-47.4749954903
 10
-85.0210087388
 20
-47.4444916989
 10
-85.101482897
 20
-47.4109328884
 10
-85.1779397257
 20
-47.3745541913
 10
-85.2500686513
 20
-47.335729321
 10
-85.3176828578
 20
-47.2948256678
 10
-85.3809286745
 20
-47.2520304223
 10
-85.440035679
 20
-47.2074346806
 10
-85.4949877897
 20
-47.1612878721
 10
-85.545860039
 20
-47.1137785618
 10
-85.5929789966
 20
-47.0648222732
 10
-85.6363585454
 20
-47.0145991754
 10
-85.6760609409
 20
-46.9632489259
 10
-85.7124018861
 20
-46.9105288118
 10
-85.7453886379
 20
-46.8565441522
 10
-85.7750402182
 20
-46.8013946934
 10
-85.8015783281
 20
-46.7447318558
 10
-85.8250260845
 20
-46.6864538438
 10
-85.8452810576
 20
-46.6267573694
 10
-85.8623181932
 20
-46.5656942622
  0
LINE
  5
54D
100
AcDbEntity
  8
RACCORDO
100
AcDbLine
 62
253
  6
CONTINUOUS
 10
-82.4683604665
 20
-43.4188447595
 11
-82.8183604665
 21
-43.400523706
  0
LINE
  5
54E
100
AcDbEntity
  8
RACCORDO
100
AcDbLine
 62
253
  6
CONTINUOUS
 10
-80.5061886142
 20
-36.3800205373
 11
-81.9683604665
 21
-36.3856588232
  0
LINE
  5
54F
100
AcDbEntity
  8
0
100
AcDbLine
 62
253
  6
CONTINUOUS
 10
-82.4683604665
 20
-36.3513826499
 11
-81.9683604665
 21
-36.3513826499
  0
LINE
  5
550
100
AcDbEntity
  8
RACCORDO
100
AcDbLine
 62
253
  6
CONTINUOUS
 10
-82.4683604665
 20
-36.1922264649
 11
-82.8183604665
 21
-36.1908509524
  0
LINE
  5
551
100
AcDbEntity
  8
0
100
AcDbLine
 62
253
  6
CONTINUOUS
 10
-84.4683604665
 20
-36.3771110082
 11
-82.8183587193
 21
-36.3875542907
  0
LINE
  5
552
100
AcDbEntity
  8
SUPERFICI
100
AcDbLine
 62
253
  6
CONTINUOUS
 10
-84.4683604665
 20
-36.3771111809
 11
-84.6977705999
 21
-36.3751465728
  0
LWPOLYLINE
  5
553
100
AcDbEntity
  8
SUPERFICI
100
AcDbPolyline
 62
253
  6
CONTINUOUS
 90
16
 70
0
 10
-84.6977705999
 20
-36.3751465728
 10
-84.9158734957
 20
-36.3719834807
 10
-85.0195754068
 20
-36.3698539763
 10
-85.1179279369
 20
-36.3673434385
 10
-85.2104489412
 20
-36.3644408855
 10
-85.2971686415
 20
-36.3611237208
 10
-85.3775865186
 20
-36.3573942207
 10
-85.4514490453
 20
-36.3532588821
 10
-85.5189604268
 20
-36.3487075366
 10
-85.5803782682
 20
-36.3437236774
 10
-85.6356139137
 20
-36.3383208104
 10
-85.684840557
 20
-36.3324970915
 10
-85.7285617931
 20
-36.3261971429
 10
-85.7668557359
 20
-36.3193951396
 10
-85.7995358637
 20
-36.3121129746
 10
-85.8265907234
 20
-36.3043538413
  0
LINE
  5
554
100
AcDbEntity
  8
0
100
AcDbLine
 62
7
  6
CONTINUOUS
 10
-79.3683604665
 20
-26.5656942892
 11
-80.0683604665
 21
-26.5697667701
  0
LINE
  5
555
100
AcDbEntity
  8
0
100
AcDbLine
 62
7
  6
CONTINUOUS
 10
-79.3683604665
 20
-27.3656942892
 11
-80.0683604665
 21
-27.366916021
  0
LINE
  5
556
100
AcDbEntity
  8
0
100
AcDbLine
 62
253
  6
CONTINUOUS
 10
-79.3683604665
 20
-27.1433400028
 11
-80.0683604665
 21
-27.1436562102
  0
LINE
  5
557
100
AcDbEntity
  8
0
100
AcDbLine
 62
7
  6
CONTINUOUS
 10
-79.5683604665
 20
-25.4156942892
 11
-80.0683604665
 21
-25.4156942892
  0
LINE
  5
558
100
AcDbEntity
  8
0
100
AcDbLine
 62
7
  6
CONTINUOUS
 10
-79.5578932752
 20
-26.007320706
 11
-80.0683604665
 21
-25.9847682014
  0
LINE
  5
559
100
AcDbEntity
  8
DRAFT
100
AcDbLine
 62
7
  6
CONTINUOUS
 10
-88.6062669302
 20
-25.3988358006
 11
-88.9592329713
 21
-25.3803376342
  0
LWPOLYLINE
  5
55A
100
AcDbEntity
  8
SUPERFICI
100
AcDbPolyline
 62
253
  6
CONTINUOUS
 90
13
 70
0
 10
-86.0329603947
 20
-23.5845476303
 10
-86.3852997553
 20
-23.6352942716
 10
-86.7066180501
 20
-23.6840779525
 10
-86.9942746383
 20
-23.7310470906
 10
-87.245375854
 20
-23.7759496968
 10
-87.4619317283
 20
-23.8190869221
 10
-87.6491679331
 20
-23.8614082409
 10
-87.8069566257
 20
-23.9027556094
 10
-87.9368089241
 20
-23.9432088178
 10
-88.0436234646
 20
-23.9842312
 10
-88.1275398502
 20
-24.0263946647
 10
-88.1864493907
 20
-24.0692381512
 10
-88.2198371817
 20
-24.1127906191
  0
LINE
  5
55B
100
AcDbEntity
  8
0
100
AcDbLine
 62
7
  6
CONTINUOUS
 10
-79.9183604665
 20
-25.2656942892
 11
-79.7183604665
 21
-25.2656942892
  0
LINE
  5
55C
100
AcDbEntity
  8
SUPERFICI
100
AcDbLine
 62
253
  6
CONTINUOUS
 10
-84.8693127801
 20
-23.6289078365
 11
-84.4683604665
 21
-23.6316518377
  0
LINE
  5
55D
100
AcDbEntity
  8
SUPERFICI
100
AcDbLine
 62
253
  6
CONTINUOUS
 10
-85.1084630267
 20
-23.6259218116
 11
-84.8693127801
 21
-23.6289078365
  0
LINE
  5
55E
100
AcDbEntity
  8
SUPERFICI
100
AcDbLine
 62
253
  6
CONTINUOUS
 10
-85.3207820877
 20
-23.6221244639
 11
-85.1084630267
 21
-23.6259218116
  0
LINE
  5
55F
100
AcDbEntity
  8
RACCORDO
100
AcDbLine
 62
253
  6
CONTINUOUS
 10
-88.2755138694
 20
-24.2435643389
 11
-88.4255238971
 21
-24.2357093687
  0
LINE
  5
560
100
AcDbEntity
  8
RACCORDO
100
AcDbLine
 62
253
  6
CONTINUOUS
 10
-88.2220677925
 20
-24.1258658406
 11
-88.2218425592
 21
-24.1258826947
  0
LWPOLYLINE
  5
561
100
AcDbEntity
  8
SUPERFICI
100
AcDbPolyline
 62
253
  6
CONTINUOUS
 90
11
 70
0
 10
-86.0329190417
 20
-23.5848793006
 10
-85.9968539898
 20
-23.5895455682
 10
-85.9553093598
 20
-23.5939636313
 10
-85.9082558576
 20
-23.5981222843
 10
-85.8558405233
 20
-23.6020005716
 10
-85.7979436533
 20
-23.6056043339
 10
-85.7340533804
 20
-23.6089583087
 10
-85.6640740774
 20
-23.6120607645
 10
-85.5880313694
 20
-23.6149122275
 10
-85.5054571021
 20
-23.6175352511
 10
-85.3207820877
 20
-23.6221244639
  0
LWPOLYLINE
  5
562
100
AcDbEntity
  8
SUPERFICI
100
AcDbPolyline
 62
253
  6
CONTINUOUS
 90
16
 70
0
 10
-87.2459736781
 20
35.1495589373
 10
-87.2170972573
 20
35.2077795157
 10
-87.1807290144
 20
35.2703044996
 10
-87.1341016384
 20
35.3339110424
 10
-87.0763039114
 20
35.3922676749
 10
-87.0069597853
 20
35.4444907308
 10
-86.9252924518
 20
35.4965251506
 10
-86.8320926982
 20
35.5473949942
 10
-86.7290415601
 20
35.5935448881
 10
-86.6168220179
 20
35.6385920128
 10
-86.4972573961
 20
35.6821830953
 10
-86.3719338723
 20
35.7226426227
 10
-86.2408550593
 20
35.7622205897
 10
-86.1049729561
 20
35.8012220862
 10
-85.9663744783
 20
35.8382277191
 10
-85.8265821516
 20
35.8729706927
  0
LWPOLYLINE
  5
563
100
AcDbEntity
  8
SUPERFICI
100
AcDbPolyline
 62
253
  6
CONTINUOUS
 90
16
 70
0
 10
-87.2459736781
 20
-35.5809475157
 10
-87.2170972573
 20
-35.6391680942
 10
-87.1807290144
 20
-35.701693078
 10
-87.1341016384
 20
-35.7652996209
 10
-87.0763039114
 20
-35.8236562534
 10
-87.0069597853
 20
-35.8758793093
 10
-86.9252924518
 20
-35.927913729
 10
-86.8320926982
 20
-35.9787835727
 10
-86.7290415601
 20
-36.0249334666
 10
-86.6168220179
 20
-36.0699805913
 10
-86.4972573961
 20
-36.1135716738
 10
-86.3719338723
 20
-36.1540312012
 10
-86.2408550593
 20
-36.1936091682
 10
-86.1049729561
 20
-36.2326106647
 10
-85.9663744783
 20
-36.2696162975
 10
-85.8265821516
 20
-36.3043592712
  0
LINE
  5
564
100
AcDbEntity
  8
0
100
AcDbLine
 62
7
  6
CONTINUOUS
 10
-79.7183604665
 20
24.8343057108
 11
-79.5683604665
 21
24.9843057108
  0
LINE
  5
565
100
AcDbEntity
  8
0
100
AcDbLine
 62
7
  6
CONTINUOUS
 10
-79.7183604665
 20
-25.2656942892
 11
-79.5683604665
 21
-25.4156942892
  0
LWPOLYLINE
  5
566
100
AcDbEntity
  8
SUPERFICI
100
AcDbPolyline
 62
253
  6
CONTINUOUS
 90
19
 70
0
 10
-85.7874620261
 20
44.6243899573
 10
-85.7692486546
 20
44.7046879372
 10
-85.7449654417
 20
44.7830989156
 10
-85.7145941765
 20
44.859436864
 10
-85.6782799304
 20
44.9332512324
 10
-85.6359480534
 20
45.0046319222
 10
-85.587116386
 20
45.0740785979
 10
-85.5316375654
 20
45.1413382672
 10
-85.4695307745
 20
45.2059838045
 10
-85.4003597086
 20
45.2680335755
 10
-85.3240947199
 20
45.3270321573
 10
-85.24077547
 20
45.3825024805
 10
-85.1499897762
 20
45.4342241455
 10
-85.05145598
 20
45.4817599048
 10
-84.9457708096
 20
45.5242365584
 10
-84.8339830629
 20
45.5607733197
 10
-84.7168431135
 20
45.5907507591
 10
-84.5947296353
 20
45.6136673266
 10
-84.4683604665
 20
45.6289169615
  0
LWPOLYLINE
  5
567
100
AcDbEntity
  8
SUPERFICI
100
AcDbPolyline
 62
253
  6
CONTINUOUS
 90
19
 70
0
 10
-85.7782102347
 20
44.5432909411
 10
-85.7599266678
 20
44.6229309804
 10
-85.735528447
 20
44.7008799056
 10
-85.7049838054
 20
44.7769337806
 10
-85.668412607
 20
44.8506474811
 10
-85.6257383426
 20
44.9220604135
 10
-85.5765172624
 20
44.9915806905
 10
-85.5206069878
 20
45.0589420777
 10
-85.4580334037
 20
45.1237004071
 10
-85.3884309833
 20
45.1857986895
 10
-85.3117415602
 20
45.2448055242
 10
-85.2280654317
 20
45.3001893041
 10
-85.1372437728
 20
45.3515860892
 10
-85.0389907887
 20
45.3986011879
 10
-84.9339847648
 20
45.440355166
 10
-84.8237187674
 20
45.4758691074
 10
-84.7091227667
 20
45.504595376
 10
-84.5904415554
 20
45.526186424
 10
-84.4683604665
 20
45.5401462631
  0
LWPOLYLINE
  5
568
100
AcDbEntity
  8
ASSI
100
AcDbPolyline
 62
7
  6
CONTINUOUS
 90
13
 70
0
 10
-85.8623181933
 20
46.1343056837
 10
-86.2675014222
 20
44.4558639498
 10
-86.6456346436
 20
42.7728796001
 10
-86.9969089913
 20
41.0849134222
 10
-87.3215971426
 20
39.3906292982
 10
-87.6195500676
 20
37.6903904054
 10
-87.8904042509
 20
35.9863395907
 10
-88.1342626994
 20
34.2779817143
 10
-88.3511300357
 20
32.5648141671
 10
-88.5407277794
 20
30.8490709532
 10
-88.7030709017
 20
29.1312073507
 10
-88.838237772
 20
27.4097909684
 10
-88.9461826425
 20
25.6843057108
  0
LWPOLYLINE
  5
569
100
AcDbEntity
  8
ASSI
100
AcDbPolyline
 62
7
  6
CONTINUOUS
 90
13
 70
0
 10
-85.8623181933
 20
-46.5656942622
 10
-86.2675014222
 20
-44.8872525283
 10
-86.6456346436
 20
-43.2042681786
 10
-86.9969089913
 20
-41.5163020007
 10
-87.3215971426
 20
-39.8220178766
 10
-87.6195500676
 20
-38.1217789838
 10
-87.8904042509
 20
-36.4177281692
 10
-88.1342626994
 20
-34.7093702927
 10
-88.3511300357
 20
-32.9962027456
 10
-88.5407277794
 20
-31.2804595316
 10
-88.7030709017
 20
-29.5625959292
 10
-88.838237772
 20
-27.8411795469
 10
-88.9461826425
 20
-26.1156942892
  0
LWPOLYLINE
  5
56A
100
AcDbEntity
  8
SUPERFICI
100
AcDbPolyline
 62
253
  6
CONTINUOUS
 90
19
 70
0
 10
-85.7782102347
 20
-44.9746795196
 10
-85.7599266678
 20
-45.0543195589
 10
-85.735528447
 20
-45.1322684841
 10
-85.7049838054
 20
-45.2083223591
 10
-85.668412607
 20
-45.2820360595
 10
-85.6257383426
 20
-45.353448992
 10
-85.5765172624
 20
-45.422969269
 10
-85.5206069878
 20
-45.4903306562
 10
-85.4580334037
 20
-45.5550889856
 10
-85.3884309833
 20
-45.617187268
 10
-85.3117415602
 20
-45.6761941027
 10
-85.2280654317
 20
-45.7315778826
 10
-85.1372437728
 20
-45.7829746677
 10
-85.0389907887
 20
-45.8299897664
 10
-84.9339847648
 20
-45.8717437444
 10
-84.8237187674
 20
-45.9072576858
 10
-84.7091227667
 20
-45.9359839545
 10
-84.5904415554
 20
-45.9575750025
 10
-84.4683604665
 20
-45.9715348416
  0
LWPOLYLINE
  5
56B
100
AcDbEntity
  8
SUPERFICI
100
AcDbPolyline
 62
253
  6
CONTINUOUS
 90
19
 70
0
 10
-85.7874620261
 20
-45.0557785358
 10
-85.7692486546
 20
-45.1360765157
 10
-85.7449654417
 20
-45.2144874941
 10
-85.7145941765
 20
-45.2908254425
 10
-85.6782799304
 20
-45.3646398109
 10
-85.6359480534
 20
-45.4360205007
 10
-85.587116386
 20
-45.5054671764
 10
-85.5316375654
 20
-45.5727268457
 10
-85.4695307745
 20
-45.637372383
 10
-85.4003597086
 20
-45.699422154
 10
-85.3240947199
 20
-45.7584207358
 10
-85.24077547
 20
-45.813891059
 10
-85.1499897762
 20
-45.865612724
 10
-85.05145598
 20
-45.9131484833
 10
-84.9457708096
 20
-45.9556251369
 10
-84.8339830629
 20
-45.9921618982
 10
-84.7168431135
 20
-46.0221393375
 10
-84.5947296353
 20
-46.0450559051
 10
-84.4683604665
 20
-46.06030554
  0
LWPOLYLINE
  5
56C
100
AcDbEntity
  8
SUPERFICI
100
AcDbPolyline
 62
253
  6
CONTINUOUS
 90
10
 70
0
 10
-85.7875395398
 20
44.6243734902
 10
-85.9782239061
 20
43.5767886498
 10
-86.1620371592
 20
42.5269847243
 10
-86.3387219333
 20
41.4757141449
 10
-86.5082528966
 20
40.4228002076
 10
-86.6704359056
 20
39.3688868612
 10
-86.8252285567
 20
38.3145038483
 10
-86.9727050573
 20
37.259766324
 10
-87.1128951868
 20
36.2048749514
 10
-87.2459736781
 20
35.1495589373
  0
LWPOLYLINE
  5
56D
100
AcDbEntity
  8
SUPERFICI
100
AcDbPolyline
 62
253
  6
CONTINUOUS
 90
10
 70
0
 10
-85.7875395398
 20
-45.0557620687
 10
-85.9782239061
 20
-44.0081772283
 10
-86.1620371592
 20
-42.9583733028
 10
-86.3387219333
 20
-41.9071027234
 10
-86.5082528966
 20
-40.854188786
 10
-86.6704359056
 20
-39.8002754397
 10
-86.8252285567
 20
-38.7458924268
 10
-86.9727050573
 20
-37.6911549025
 10
-87.1128951868
 20
-36.6362635299
 10
-87.2459736781
 20
-35.5809475157
  0
LWPOLYLINE
  5
56E
100
AcDbEntity
  8
RACCORDO
100
AcDbPolyline
 62
253
  6
CONTINUOUS
 90
10
 70
0
 10
-88.2198371817
 20
-24.1127906191
 10
-88.1534974552
 20
-25.3907492417
 10
-88.0765959365
 20
-26.6688605969
 10
-87.9891521489
 20
-27.9467689767
 10
-87.8911454266
 20
-29.2245176611
 10
-87.7826100903
 20
-30.5013692834
 10
-87.6637073724
 20
-31.7758315327
 10
-87.5345879332
 20
-33.0472321163
 10
-87.3952578791
 20
-34.3156837331
 10
-87.2456336009
 20
-35.58089142
  0
LWPOLYLINE
  5
56F
100
AcDbEntity
  8
RACCORDO
100
AcDbPolyline
 62
253
  6
CONTINUOUS
 90
35
 70
0
 10
-88.2316017574
 20
-24.1108269188
 10
-88.2315459526
 20
-24.1119142611
 10
-88.2314241083
 20
-24.1138955927
 10
-88.2312850669
 20
-24.1157314652
 10
-88.231130797
 20
-24.1174260903
 10
-88.2309622697
 20
-24.1189941247
 10
-88.2307810957
 20
-24.1204392688
 10
-88.2305888707
 20
-24.1217646671
 10
-88.2303859825
 20
-24.1229829458
 10
-88.2301737045
 20
-24.1240971057
 10
-88.2299532917
 20
-24.1251095506
 10
-88.229724587
 20
-24.1260309048
 10
-88.2294884056
 20
-24.1268642286
 10
-88.2292458401
 20
-24.1276105439
 10
-88.2289967348
 20
-24.1282765297
 10
-88.2287412095
 20
-24.1288648014
 10
-88.2284806041
 20
-24.1293758704
 10
-88.2282165607
 20
-24.1298131901
 10
-88.2279499406
 20
-24.1301785679
 10
-88.2276815937
 20
-24.1304738674
 10
-88.2274133878
 20
-24.1307031523
 10
-88.2271470653
 20
-24.1308657965
 10
-88.2268827684
 20
-24.1309664726
 10
-88.2266199708
 20
-24.1310172049
 10
-88.2263592213
 20
-24.131023775
 10
-88.2261014819
 20
-24.1309836465
 10
-88.2258466517
 20
-24.1308959507
 10
-88.2255956595
 20
-24.1307542925
 10
-88.2253488145
 20
-24.1305677285
 10
-88.2251049337
 20
-24.1303582376
 10
-88.2248639486
 20
-24.1301413931
 10
-88.2246269662
 20
-24.1299038526
 10
-88.2243944267
 20
-24.1296239207
 10
-88.2241677822
 20
-24.1292792504
 10
-88.2239463996
 20
-24.1288939526
  0
LINE
  5
570
100
AcDbEntity
  8
SUPERFICI
100
AcDbLine
 62
253
  6
CONTINUOUS
 10
-85.8085767036
 20
-44.1028161196
 11
-85.7850439141
 21
-44.5580081875
  0
LWPOLYLINE
  5
571
100
AcDbEntity
  8
SUPERFICI
100
AcDbPolyline
 62
253
  6
CONTINUOUS
 90
7
 70
0
 10
-85.7850439141
 20
-44.5580081875
 10
-85.7794238938
 20
-44.6736293188
 10
-85.775121273
 20
-44.772205762
 10
-85.7728348442
 20
-44.8508220801
 10
-85.772731123
 20
-44.909400876
 10
-85.7745114375
 20
-44.9503975896
 10
-85.7781501143
 20
-44.9748441662
  0
LINE
  5
572
100
AcDbEntity
  8
RACCORDO
100
AcDbLine
 62
7
  6
CONTINUOUS
 10
-88.2316028552
 20
-24.1108039826
 11
-88.2315984659
 21
-24.1108963066
  0
LWPOLYLINE
  5
573
100
AcDbEntity
  8
RACCORDO
100
AcDbPolyline
 62
253
  6
CONTINUOUS
 90
10
 70
0
 10
-88.2198447205
 20
-24.1128067812
 10
-88.3399335262
 20
-21.4518621768
 10
-88.4457813299
 20
-18.793828191
 10
-88.5374171068
 20
-16.1381715555
 10
-88.6148616195
 20
-13.4846725385
 10
-88.6781558675
 20
-10.832478718
 10
-88.7273442556
 20
-8.1801078463
 10
-88.7624446043
 20
-5.5267069857
 10
-88.7834649829
 20
-2.8720496353
 10
-88.7904203785
 20
-0.2155915072
  0
LINE
  5
574
100
AcDbEntity
  8
RACCORDO
100
AcDbLine
 62
7
  6
CONTINUOUS
 10
-88.2315721381
 20
-24.1114803587
 11
-88.2315480489
 21
-24.1120700569
  0
LWPOLYLINE
  5
575
100
AcDbEntity
  8
RACCORDO
100
AcDbPolyline
 62
7
  6
CONTINUOUS
 90
12
 70
0
 10
-88.3795325632
 20
24.2642000985
 10
-88.3782250483
 20
24.2252129651
 10
-88.3754271029
 20
24.1847476271
 10
-88.3712335597
 20
24.1430668468
 10
-88.365549586
 20
24.1004688972
 10
-88.3580906835
 20
24.0573003531
 10
-88.3487861639
 20
24.0138542236
 10
-88.3377067155
 20
23.9703328225
 10
-88.3247799055
 20
23.9269309192
 10
-88.3099815895
 20
23.8838420394
 10
-88.2933359119
 20
23.8412617515
 10
-88.2748428727
 20
23.799362127
  0
LINE
  5
576
100
AcDbEntity
  8
RACCORDO
100
AcDbLine
 62
7
  6
CONTINUOUS
 10
-88.2315262501
 20
-24.1126648439
 11
-88.2315067757
 21
-24.1132644657
  0
LINE
  5
577
100
AcDbEntity
  8
RACCORDO
100
AcDbLine
 62
7
  6
CONTINUOUS
 10
-88.2314896553
 20
-24.1138687112
 11
-88.2314749228
 21
-24.1144770616
  0
LINE
  5
578
100
AcDbEntity
  8
RACCORDO
100
AcDbLine
 62
7
  6
CONTINUOUS
 10
-88.2314625988
 20
-24.1150892921
 11
-88.2314527021
 21
-24.115705134
  0
LWPOLYLINE
  5
579
100
AcDbEntity
  8
RACCORDO
100
AcDbPolyline
 62
7
  6
CONTINUOUS
 90
10
 70
0
 10
-88.379349648
 20
-24.7327942286
 10
-88.3790078704
 20
-24.7700618334
 10
-88.378896486
 20
-24.8038753944
 10
-88.3790154948
 20
-24.8340770749
 10
-88.3793624231
 20
-24.8605446103
 10
-88.3799397445
 20
-24.8830945003
 10
-88.3807548807
 20
-24.9015318494
 10
-88.3818103057
 20
-24.9157598954
 10
-88.3831035454
 20
-24.9257313906
 10
-88.3846346
 20
-24.931385755
  0
LINE
  5
57A
100
AcDbEntity
  8
RACCORDO
100
AcDbLine
 62
7
  6
CONTINUOUS
 10
-88.2314452515
 20
-24.1163239749
 11
-88.2314402553
 21
-24.116945514
  0
LWPOLYLINE
  5
57B
100
AcDbEntity
  8
SUPERFICI
100
AcDbPolyline
 62
7
  6
CONTINUOUS
 90
9
 70
0
 10
-88.7957524869
 20
-2.6527640787
 10
-88.7768943416
 20
-5.2095898306
 10
-88.7444045734
 20
-7.8056166984
 10
-88.697621046
 20
-10.4421658602
 10
-88.6358905074
 20
-13.119117534
 10
-88.5585942543
 20
-15.83485003
 10
-88.4650712241
 20
-18.5891869715
 10
-88.354595801
 20
-21.3834753277
 10
-88.2316017573
 20
-24.1108269205
  0
LINE
  5
57C
100
AcDbEntity
  8
SUPERFICI
100
AcDbLine
 62
7
  6
CONTINUOUS
 10
-88.8016203368
 20
-0.2157755388
 11
-88.7957525658
 21
-2.6527312933
  0
LINE
  5
57D
100
AcDbEntity
  8
RACCORDO
100
AcDbLine
 62
7
  6
CONTINUOUS
 10
-88.2314377179
 20
-24.1175695118
 11
-88.2314376407
 21
-24.1181954196
  0
LINE
  5
57E
100
AcDbEntity
  8
RACCORDO
100
AcDbLine
 62
7
  6
CONTINUOUS
 10
-88.2314400187
 20
-24.1188229156
 11
-88.2314448437
 21
-24.1194517552
  0
LINE
  5
57F
100
AcDbEntity
  8
RACCORDO
100
AcDbLine
 62
7
  6
CONTINUOUS
 10
-88.2314521023
 20
-24.1200814878
 11
-88.2314617779
 21
-24.1207118185
  0
LWPOLYLINE
  5
580
100
AcDbEntity
  8
SUPERFICI
100
AcDbPolyline
 62
7
  6
CONTINUOUS
 90
5
 70
0
 10
-88.6976216591
 20
10.0107471961
 10
-88.7444048328
 20
7.3742109522
 10
-88.7768943901
 20
4.7781963688
 10
-88.7957524541
 20
2.2213822879
 10
-88.8016203368
 20
-0.2156130397
  0
LINE
  5
581
100
AcDbEntity
  8
RACCORDO
100
AcDbLine
 62
7
  6
CONTINUOUS
 10
-88.2315296099
 20
23.6861245266
 11
-88.2316902078
 21
23.6786596329
  0
LINE
  5
582
100
AcDbEntity
  8
RACCORDO
100
AcDbLine
 62
7
  6
CONTINUOUS
 10
-88.2314738507
 20
-24.1213424594
 11
-88.2314882937
 21
-24.1219729573
  0
LWPOLYLINE
  5
583
100
AcDbEntity
  8
RACCORDO
100
AcDbPolyline
 62
7
  6
CONTINUOUS
 90
3
 70
0
 10
-88.2315050783
 20
-24.1226030018
 10
-88.2315241735
 20
-24.1232323026
 10
-88.23154554
 20
-24.123860425
  0
LWPOLYLINE
  5
584
100
AcDbEntity
  8
SUPERFICI
100
AcDbPolyline
 62
7
  6
CONTINUOUS
 90
5
 70
0
 10
-88.3545982303
 20
20.9520293866
 10
-88.4650730165
 20
18.1577495869
 10
-88.5585955221
 20
15.4034208009
 10
-88.6358913538
 20
12.6876960719
 10
-88.6976215658
 20
10.0107517758
  0
LWPOLYLINE
  5
585
100
AcDbEntity
  8
SUPERFICI
100
AcDbPolyline
 62
253
  6
CONTINUOUS
 90
6
 70
0
 10
-85.7794238938
 20
44.2422407404
 10
-85.775121273
 20
44.3408171835
 10
-85.7728348442
 20
44.4194335016
 10
-85.772731123
 20
44.4780122975
 10
-85.7745114375
 20
44.5190090111
 10
-85.7781501143
 20
44.5434555878
  0
LINE
  5
586
100
AcDbEntity
  8
SUPERFICI
100
AcDbLine
 62
7
  6
CONTINUOUS
 10
-88.2317074358
 20
23.6772294264
 11
-88.3545995251
 21
20.9519988113
  0
LWPOLYLINE
  5
587
100
AcDbEntity
  8
RACCORDO
100
AcDbPolyline
 62
253
  6
CONTINUOUS
 90
10
 70
0
 10
-88.2198447205
 20
23.6814182028
 10
-88.3399335262
 20
21.0204735983
 10
-88.4457813299
 20
18.3624396125
 10
-88.5374171068
 20
15.706782977
 10
-88.6148618219
 20
13.0532763274
 10
-88.6781561909
 20
10.4010748882
 10
-88.7273442556
 20
7.7487192678
 10
-88.7624441211
 20
5.0953641058
 10
-88.7834643814
 20
2.4407752695
 10
-88.790420384
 20
-0.2155915072
  0
LINE
  5
588
100
AcDbEntity
  8
RACCORDO
100
AcDbLine
 62
7
  6
CONTINUOUS
 10
-88.231707425
 20
23.6772296532
 11
-88.2317326344
 21
23.676687144
  0
LINE
  5
589
100
AcDbEntity
  8
SUPERFICI
100
AcDbLine
 62
253
  6
CONTINUOUS
 10
-85.8263635827
 20
43.2812163067
 11
-85.8085767036
 21
43.6714275411
  0
LINE
  5
58A
100
AcDbEntity
  8
RACCORDO
100
AcDbLine
 62
253
  6
CONTINUOUS
 10
-88.231637429
 20
23.6785818242
 11
-88.231707425
 21
23.6772296532
  0
LWPOLYLINE
  5
58B
100
AcDbEntity
  8
RACCORDO
100
AcDbPolyline
 62
253
  6
CONTINUOUS
 90
10
 70
0
 10
-88.2198371817
 20
23.6814020406
 10
-88.1534974552
 20
24.9593606632
 10
-88.0765959365
 20
26.2374720184
 10
-87.9891521489
 20
27.5153803982
 10
-87.8911454266
 20
28.7931290826
 10
-87.7826100903
 20
30.0699807049
 10
-87.6637073724
 20
31.3444429542
 10
-87.5345879332
 20
32.6158435379
 10
-87.3952578791
 20
33.8842951546
 10
-87.2456336009
 20
35.1495028416
  0
LINE
  5
58C
100
AcDbEntity
  8
SUPERFICI
100
AcDbLine
 62
253
  6
CONTINUOUS
 10
-85.8085767036
 20
43.6714275411
 11
-85.7794238938
 21
44.2422407404
  0
LINE
  5
58D
100
AcDbEntity
  8
RACCORDO
100
AcDbLine
 62
7
  6
CONTINUOUS
 10
-80.0683604665
 20
-4.0507155526
 11
-81.9683604665
 21
-3.7156942892
  0
LWPOLYLINE
  5
58E
100
AcDbEntity
  8
SUPERFICI
100
AcDbPolyline
 62
253
  6
CONTINUOUS
 90
7
 70
0
 10
-85.8597955971
 20
-34.9996769743
 10
-85.8178029204
 20
-36.6645827873
 10
-85.8116131899
 20
-37.0371641147
 10
-85.8080270734
 20
-37.4203268489
 10
-85.8073202357
 20
-37.8143209378
 10
-85.8091949634
 20
-38.2147787019
 10
-85.8127609937
 20
-38.613611804
  0
LWPOLYLINE
  5
58F
100
AcDbEntity
  8
SUPERFICI
100
AcDbPolyline
 62
253
  6
CONTINUOUS
 90
3
 70
0
 10
-85.8597955971
 20
-34.9996769743
 10
-85.8868883979
 20
-33.6646295576
 10
-85.9104573123
 20
-32.3017888611
  0
LINE
  5
590
100
AcDbEntity
  8
SUPERFICI
100
AcDbLine
 62
253
  6
CONTINUOUS
 10
-85.8180626646
 20
38.5771079564
 11
-85.8513323869
 21
40.4380224131
  0
LINE
  5
591
100
AcDbEntity
  8
SUPERFICI
100
AcDbLine
 62
253
  6
CONTINUOUS
 10
-85.9104573123
 20
-32.3017888611
 11
-85.9751421692
 21
-28.0499736134
  0
LWPOLYLINE
  5
592
100
AcDbEntity
  8
SUPERFICI
100
AcDbPolyline
 62
253
  6
CONTINUOUS
 90
3
 70
0
 10
-85.9751421692
 20
-28.0499736134
 10
-86.0173882596
 20
-25.0947512297
 10
-86.0329603947
 20
-23.5845476303
  0
LWPOLYLINE
  5
593
100
AcDbEntity
  8
SUPERFICI
100
AcDbPolyline
 62
253
  6
CONTINUOUS
 90
10
 70
0
 10
-85.8513323869
 20
40.4380224131
 10
-85.8590057805
 20
41.1126679264
 10
-85.8604701785
 20
41.4316669714
 10
-85.8600946652
 20
41.7381467764
 10
-85.8580294589
 20
42.0319259742
 10
-85.8543296534
 20
42.3110146026
 10
-85.8490095408
 20
42.5761050389
 10
-85.8423293296
 20
42.8272042119
 10
-85.8347656247
 20
43.0619004703
 10
-85.8263635827
 20
43.2812163067
  0
LWPOLYLINE
  5
594
100
AcDbEntity
  8
0
100
AcDbPolyline
 62
253
  6
CONTINUOUS
 90
10
 70
0
 10
-86.0329987928
 20
-23.5845448431
 10
-86.0550624316
 20
-20.9857341929
 10
-86.0745361471
 20
-18.3885287672
 10
-86.0914182812
 20
-15.7925718227
 10
-86.1057058022
 20
-13.1977806792
 10
-86.1173989724
 20
-10.6035241268
 10
-86.1264986046
 20
-8.0086229321
 10
-86.1330011163
 20
-5.4124457116
 10
-86.1369012729
 20
-2.8149084264
 10
-86.1381949345
 20
-0.2156521427
  0
LINE
  5
595
100
AcDbEntity
  8
0
100
AcDbLine
 62
253
  6
CONTINUOUS
 10
-84.4683604686
 20
47.1399494151
 11
-84.4683604321
 21
45.628916962
  0
LINE
  5
596
100
AcDbEntity
  8
0
100
AcDbLine
 62
253
  6
CONTINUOUS
 10
-84.4683604686
 20
-47.5713379935
 11
-84.4683604321
 21
-46.0603055405
  0
LINE
  5
597
100
AcDbEntity
  8
SUPERFICI
100
AcDbLine
 62
253
  6
CONTINUOUS
 10
-84.4681304605
 20
-23.6316527799
 11
-84.4683604665
 21
-46.06030554
  0
LINE
  5
598
100
AcDbEntity
  8
SUPERFICI
100
AcDbLine
 62
253
  6
CONTINUOUS
 10
-84.468130466
 20
23.2002642008
 11
-84.4683604665
 21
45.6289169615
  0
LWPOLYLINE
  5
599
100
AcDbEntity
  8
0
100
AcDbPolyline
 62
253
  6
CONTINUOUS
 90
3
 70
0
 10
-84.468130466
 20
23.2002642008
 10
-84.4685315893
 20
-2.8150340259
 10
-84.4681304605
 20
-23.6316527799
  0
LWPOLYLINE
  5
59A
100
AcDbEntity
  8
SUPERFICI
100
AcDbPolyline
 62
253
  6
CONTINUOUS
 90
10
 70
0
 10
-85.8590057805
 20
-41.5440565049
 10
-85.8604701785
 20
-41.8630555499
 10
-85.8600946652
 20
-42.1695353549
 10
-85.8580294589
 20
-42.4633145527
 10
-85.8543296534
 20
-42.7424031811
 10
-85.8490095408
 20
-43.0074936174
 10
-85.8423293296
 20
-43.2585927904
 10
-85.8347656247
 20
-43.4932890488
 10
-85.8263635827
 20
-43.7126048852
 10
-85.8085767036
 20
-44.1028161196
  0
LWPOLYLINE
  5
59B
100
AcDbEntity
  8
0
100
AcDbPolyline
 62
253
  6
CONTINUOUS
 90
10
 70
0
 10
-86.0329987928
 20
23.1531562646
 10
-86.0550624316
 20
20.5543456144
 10
-86.0745361471
 20
17.9571401887
 10
-86.0914182812
 20
15.3611832442
 10
-86.1057058179
 20
12.7663889801
 10
-86.1173989974
 20
10.1721293084
 10
-86.1264986046
 20
7.5772343536
 10
-86.1330010788
 20
4.9810758538
 10
-86.1369012261
 20
2.3835666603
 10
-86.1381949348
 20
-0.2156521427
  0
LINE
  5
59C
100
AcDbEntity
  8
SUPERFICI
100
AcDbLine
 62
253
  6
CONTINUOUS
 10
-86.0173882596
 20
24.6633626512
 11
-86.0329603947
 21
23.1531590519
  0
LINE
  5
59D
100
AcDbEntity
  8
SUPERFICI
100
AcDbLine
 62
253
  6
CONTINUOUS
 10
-85.8513323869
 20
-40.8694109916
 11
-85.8590057805
 21
-41.5440565049
  0
LWPOLYLINE
  5
59E
100
AcDbEntity
  8
SUPERFICI
100
AcDbPolyline
 62
253
  6
CONTINUOUS
 90
7
 70
0
 10
-85.8178029204
 20
36.2331942088
 10
-85.8116131899
 20
36.6057755362
 10
-85.8080270734
 20
36.9889382704
 10
-85.8073202357
 20
37.3829323593
 10
-85.8091949634
 20
37.7833901234
 10
-85.8127609937
 20
38.1822232255
 10
-85.8180626646
 20
38.5771079564
  0
LINE
  5
59F
100
AcDbEntity
  8
SUPERFICI
100
AcDbLine
 62
253
  6
CONTINUOUS
 10
-85.8127609937
 20
-38.613611804
 11
-85.824876888
 21
-39.3989297736
  0
LINE
  5
5A0
100
AcDbEntity
  8
SUPERFICI
100
AcDbLine
 62
253
  6
CONTINUOUS
 10
-85.824876888
 20
-39.3989297736
 11
-85.8513323869
 21
-40.8694109916
  0
LWPOLYLINE
  5
5A1
100
AcDbEntity
  8
SUPERFICI
100
AcDbPolyline
 62
253
  6
CONTINUOUS
 90
5
 70
0
 10
-85.8178029204
 20
36.2331942088
 10
-85.8597955971
 20
34.5682883958
 10
-85.8868883979
 20
33.2332409792
 10
-85.9104573123
 20
31.8704002827
 10
-86.0173882596
 20
24.6633626512
  0
LINE
  5
5A2
100
AcDbEntity
  8
RACCORDO
100
AcDbLine
 62
7
  6
CONTINUOUS
 10
-88.2315691366
 20
-24.1244870127
 11
-88.2315949222
 21
-24.1251118053
  0
LINE
  5
5A3
100
AcDbEntity
  8
RACCORDO
100
AcDbLine
 62
7
  6
CONTINUOUS
 10
-88.2316228518
 20
-24.1257345055
 11
-88.2316528754
 21
-24.1263547801
  0
LINE
  5
5A4
100
AcDbEntity
  8
RACCORDO
100
AcDbLine
 62
7
  6
CONTINUOUS
 10
-88.2316849421
 20
-24.126972342
 11
-88.2317190017
 21
-24.1275869626
  0
LINE
  5
5A5
100
AcDbEntity
  8
RACCORDO
100
AcDbLine
 62
7
  6
CONTINUOUS
 10
-88.2317549983
 20
-24.1281983535
 11
-88.2317928709
 21
-24.1288061845
  0
LINE
  5
5A6
100
AcDbEntity
  8
RACCORDO
100
AcDbLine
 62
7
  6
CONTINUOUS
 10
-88.2318325578
 20
-24.1294101654
 11
-88.2318739872
 21
-24.1300098921
  0
LINE
  5
5A7
100
AcDbEntity
  8
RACCORDO
100
AcDbLine
 62
7
  6
CONTINUOUS
 10
-88.2319170969
 20
-24.1306051449
 11
-88.2319618398
 21
-24.1311959207
  0
LINE
  5
5A8
100
AcDbEntity
  8
RACCORDO
100
AcDbLine
 62
7
  6
CONTINUOUS
 10
-88.2320081436
 20
-24.1317818893
 11
-88.2320559377
 21
-24.1323627769
  0
LINE
  5
5A9
100
AcDbEntity
  8
RACCORDO
100
AcDbLine
 62
7
  6
CONTINUOUS
 10
-88.2321051821
 20
-24.132938686
 11
-88.2321558058
 21
-24.1335093492
  0
LINE
  5
5AA
100
AcDbEntity
  8
RACCORDO
100
AcDbLine
 62
7
  6
CONTINUOUS
 10
-88.2322077313
 20
-24.1340744526
 11
-88.2322609136
 21
-24.1346340502
  0
LINE
  5
5AB
100
AcDbEntity
  8
RACCORDO
100
AcDbLine
 62
7
  6
CONTINUOUS
 10
-88.2323152838
 20
-24.1351879351
 11
-88.2323707562
 21
-24.1357357506
  0
LINE
  5
5AC
100
AcDbEntity
  8
RACCORDO
100
AcDbLine
 62
7
  6
CONTINUOUS
 10
-88.232427263
 20
-24.1362773362
 11
-88.2324847119
 21
-24.1368123106
  0
LINE
  5
5AD
100
AcDbEntity
  8
RACCORDO
100
AcDbLine
 62
7
  6
CONTINUOUS
 10
-88.2325430285
 20
-24.137340487
 11
-88.232602176
 21
-24.1378620106
  0
LINE
  5
5AE
100
AcDbEntity
  8
RACCORDO
100
AcDbLine
 62
7
  6
CONTINUOUS
 10
-88.2326620685
 20
-24.1383765913
 11
-88.2327226223
 21
-24.1388839714
  0
LINE
  5
5AF
100
AcDbEntity
  8
RACCORDO
100
AcDbLine
 62
7
  6
CONTINUOUS
 10
-88.2327838098
 20
-24.1393843668
 11
-88.2328455511
 21
-24.1398775507
  0
LINE
  5
5B0
100
AcDbEntity
  8
RACCORDO
100
AcDbLine
 62
7
  6
CONTINUOUS
 10
-88.2329077554
 20
-24.1403632236
 11
-88.2329703855
 21
-24.1408415115
  0
LINE
  5
5B1
100
AcDbEntity
  8
RACCORDO
100
AcDbLine
 62
7
  6
CONTINUOUS
 10
-88.2330333659
 20
-24.1413122394
 11
-88.2330965983
 21
-24.1417750714
  0
LINE
  5
5B2
100
AcDbEntity
  8
RACCORDO
100
AcDbLine
 62
7
  6
CONTINUOUS
 10
-88.2331600143
 20
-24.1422299023
 11
-88.2332235075
 21
-24.1426763606
  0
LINE
  5
5B3
100
AcDbEntity
  8
RACCORDO
100
AcDbLine
 62
7
  6
CONTINUOUS
 10
-88.2332870013
 20
-24.143114302
 11
-88.233350477
 21
-24.1435439748
  0
LINE
  5
5B4
100
AcDbEntity
  8
RACCORDO
100
AcDbLine
 62
7
  6
CONTINUOUS
 10
-88.2334138427
 20
-24.1439651203
 11
-88.2334770078
 21
-24.1443775012
  0
LINE
  5
5B5
100
AcDbEntity
  8
RACCORDO
100
AcDbLine
 62
253
  6
CONTINUOUS
 10
-88.221867608
 20
-24.1260506069
 11
-88.2198294719
 21
-24.1127780342
  0
LINE
  5
5B6
100
AcDbEntity
  8
RACCORDO
100
AcDbLine
 62
7
  6
CONTINUOUS
 10
-88.2335399647
 20
-24.1447814193
 11
-88.2336026307
 21
-24.1451766818
  0
LINE
  5
5B7
100
AcDbEntity
  8
RACCORDO
100
AcDbLine
 62
253
  6
CONTINUOUS
 10
-88.2218328202
 20
-24.1258311475
 11
-88.2387330267
 21
-24.2297488871
  0
LWPOLYLINE
  5
5B8
100
AcDbEntity
  8
RACCORDO
100
AcDbPolyline
 62
7
  6
CONTINUOUS
 90
3
 70
0
 10
-88.2336649073
 20
-24.1455630061
 10
-88.2337267712
 20
-24.1459405781
 10
-88.2337881526
 20
-24.1463092919
  0
LINE
  5
5B9
100
AcDbEntity
  8
ASSI
100
AcDbLine
 62
253
  6
CONTINUOUS
 10
-88.8016203368
 20
-0.2156130397
 11
-88.790420384
 21
-0.2155915072
  0
LINE
  5
5BA
100
AcDbEntity
  8
0
100
AcDbLine
 62
253
  6
CONTINUOUS
 10
-88.790420384
 20
-0.2155915072
 11
-84.4683604665
 21
-0.2156940842
  0
LINE
  5
5BB
100
AcDbEntity
  8
RACCORDO
100
AcDbLine
 62
253
  6
CONTINUOUS
 10
-88.2387068151
 20
23.7982026021
 11
-88.221795836
 21
23.6942001578
  0
LINE
  5
5BC
100
AcDbEntity
  8
0
100
AcDbLine
 62
253
  6
CONTINUOUS
 10
-85.7874620261
 20
44.6243899573
 11
-85.8623181933
 21
46.1343056838
  0
LINE
  5
5BD
100
AcDbEntity
  8
0
100
AcDbLine
 62
7
  6
CONTINUOUS
 10
-82.8183604665
 20
-47.715694289
 11
-82.8183604665
 21
47.2843057105
  0
LINE
  5
5BE
100
AcDbEntity
  8
0
100
AcDbLine
 62
7
  6
CONTINUOUS
 10
-82.4683604665
 20
-47.2156942892
 11
-82.4683604665
 21
46.7843057108
  0
LINE
  5
5BF
100
AcDbEntity
  8
DRAFT
100
AcDbLine
 62
7
  6
CONTINUOUS
 10
-81.9683604665
 20
-47.6894903996
 11
-81.9683604665
 21
47.2581018211
  0
LINE
  5
5C0
100
AcDbEntity
  8
0
100
AcDbLine
 62
253
  6
CONTINUOUS
 10
-85.7874620261
 20
-45.0557785358
 11
-85.8623181933
 21
-46.5656942622
  0
LINE
  5
5C1
100
AcDbEntity
  8
RACCORDO
100
AcDbLine
 62
7
  6
CONTINUOUS
 10
-88.2338489394
 20
-24.1466687928
 11
-88.2339090466
 21
-24.1470188996
  0
LINE
  5
5C2
100
AcDbEntity
  8
RACCORDO
100
AcDbLine
 62
7
  6
CONTINUOUS
 10
-88.2339683562
 20
-24.1473592446
 11
-88.2340267935
 21
-24.1476897227
  0
LWPOLYLINE
  5
5C3
100
AcDbEntity
  8
RACCORDO
100
AcDbPolyline
 62
253
  6
CONTINUOUS
 90
9
 70
0
 10
-88.2387330267
 20
-24.2297488871
 10
-88.2556470041
 20
-24.3237310842
 10
-88.272598064
 20
-24.4080989642
 10
-88.2894686972
 20
-24.4818230978
 10
-88.3063880317
 20
-24.5451573031
 10
-88.323858212
 20
-24.6006298609
 10
-88.3420352193
 20
-24.6498317352
 10
-88.3606138708
 20
-24.6931469368
 10
-88.3793853078
 20
-24.7327960562
  0
LINE
  5
5C4
100
AcDbEntity
  8
RACCORDO
100
AcDbLine
 62
7
  6
CONTINUOUS
 10
-88.2340843423
 20
-24.1480105529
 11
-88.2341409019
 21
-24.148321478
  0
LINE
  5
5C5
100
AcDbEntity
  8
RACCORDO
100
AcDbLine
 62
7
  6
CONTINUOUS
 10
-88.2341963807
 20
-24.1486223003
 11
-88.2342507848
 21
-24.1489133473
  0
LINE
  5
5C6
100
AcDbEntity
  8
RACCORDO
100
AcDbLine
 62
7
  6
CONTINUOUS
 10
-88.2343040202
 20
-24.149194402
 11
-88.2343559914
 21
-24.1494652481
  0
LINE
  5
5C7
100
AcDbEntity
  8
RACCORDO
100
AcDbLine
 62
7
  6
CONTINUOUS
 10
-88.2344067121
 20
-24.1497262346
 11
-88.2344561175
 21
-24.1499772952
  0
LINE
  5
5C8
100
AcDbEntity
  8
RACCORDO
100
AcDbLine
 62
7
  6
CONTINUOUS
 10
-88.2345040873
 20
-24.150218087
 11
-88.2345505574
 21
-24.1504485572
  0
LINE
  5
5C9
100
AcDbEntity
  8
RACCORDO
100
AcDbLine
 62
7
  6
CONTINUOUS
 10
-88.234595411
 20
-24.1506683922
 11
-88.2346385738
 21
-24.1508774939
  0
LINE
  5
5CA
100
AcDbEntity
  8
RACCORDO
100
AcDbLine
 62
7
  6
CONTINUOUS
 10
-88.2346800505
 20
-24.1510761425
 11
-88.2347197362
 21
-24.1512640883
  0
LINE
  5
5CB
100
AcDbEntity
  8
RACCORDO
100
AcDbLine
 62
7
  6
CONTINUOUS
 10
-88.2347575477
 20
-24.1514411895
 11
-88.2347935315
 21
-24.1516079084
  0
LWPOLYLINE
  5
5CC
100
AcDbEntity
  8
RACCORDO
100
AcDbPolyline
 62
253
  6
CONTINUOUS
 90
5
 70
0
 10
-88.222818058
 20
-24.1296377995
 10
-88.2226260083
 20
-24.1287509352
 10
-88.2224335861
 20
-24.1279426
 10
-88.2222372714
 20
-24.1272119591
 10
-88.2220374134
 20
-24.1265147579
  0
LINE
  5
5CD
100
AcDbEntity
  8
RACCORDO
100
AcDbLine
 62
7
  6
CONTINUOUS
 10
-88.2348275977
 20
-24.151764063
 11
-88.2348596552
 21
-24.1519094711
  0
LINE
  5
5CE
100
AcDbEntity
  8
RACCORDO
100
AcDbLine
 62
7
  6
CONTINUOUS
 10
-88.2348897608
 20
-24.1520446183
 11
-88.2349178462
 21
-24.1521694156
  0
LINE
  5
5CF
100
AcDbEntity
  8
RACCORDO
100
AcDbLine
 62
7
  6
CONTINUOUS
 10
-88.2349676536
 20
-24.1523874876
 11
-88.2349893193
 21
-24.1524809426
  0
LINE
  5
5D0
100
AcDbEntity
  8
RACCORDO
100
AcDbLine
 62
253
  6
CONTINUOUS
 10
-88.2240886702
 20
-24.1351089805
 11
-88.2230154736
 21
-24.1305372996
  0
LINE
  5
5D1
100
AcDbEntity
  8
RACCORDO
100
AcDbLine
 62
7
  6
CONTINUOUS
 10
-88.2350257684
 20
-24.1526359769
 11
-88.2350404007
 21
-24.152697325
  0
LINE
  5
5D2
100
AcDbEntity
  8
RACCORDO
100
AcDbLine
 62
253
  6
CONTINUOUS
 10
-88.2245594952
 20
-24.1370635698
 11
-88.2243212902
 21
-24.136087594
  0
LINE
  5
5D3
100
AcDbEntity
  8
RACCORDO
100
AcDbLine
 62
7
  6
CONTINUOUS
 10
-88.2350622758
 20
-24.1527878369
 11
-88.2350700409
 21
-24.15281951
  0
LWPOLYLINE
  5
5D4
100
AcDbEntity
  8
RACCORDO
100
AcDbPolyline
 62
253
  6
CONTINUOUS
 90
3
 70
0
 10
-88.225846598
 20
-24.1421605411
 10
-88.2255755147
 20
-24.141107821
 10
-88.2248033677
 20
-24.138045277
  0
LINE
  5
5D5
100
AcDbEntity
  8
RACCORDO
100
AcDbLine
 62
253
  6
CONTINUOUS
 10
-88.2264083315
 20
-24.1442884613
 11
-88.2261242416
 21
-24.1432202132
  0
LWPOLYLINE
  5
5D6
100
AcDbEntity
  8
RACCORDO
100
AcDbPolyline
 62
253
  6
CONTINUOUS
 90
30
 70
0
 10
-88.2376335796
 20
-24.1601036524
 10
-88.2383342305
 20
-24.1627083483
 10
-88.2389258937
 20
-24.1650647299
 10
-88.2394161301
 20
-24.1671782098
 10
-88.2398156017
 20
-24.1690685529
 10
-88.2401322103
 20
-24.1707468762
 10
-88.2403730794
 20
-24.172222927
 10
-88.2405456491
 20
-24.1735115435
 10
-88.2406562905
 20
-24.1746227945
 10
-88.2407111525
 20
-24.1755676965
 10
-88.2407154554
 20
-24.1763590104
 10
-88.2406740828
 20
-24.1770060773
 10
-88.2405917994
 20
-24.1775178057
 10
-88.2404720279
 20
-24.1779027247
 10
-88.2403186849
 20
-24.1781689988
 10
-88.240135638
 20
-24.1783248953
 10
-88.239925118
 20
-24.1783763867
 10
-88.2396902427
 20
-24.1783306209
 10
-88.2394341655
 20
-24.1781950272
 10
-88.2391583364
 20
-24.1779737768
 10
-88.2388652208
 20
-24.1776731434
 10
-88.2385574483
 20
-24.1772997891
 10
-88.2382361514
 20
-24.1768568819
 10
-88.237903482
 20
-24.1763503548
 10
-88.2375615892
 20
-24.1757863092
 10
-88.2372112279
 20
-24.1751670693
 10
-88.2368542526
 20
-24.1744982
 10
-88.2364924405
 20
-24.1737852932
 10
-88.2361261165
 20
-24.1730296939
 10
-88.235756836
 20
-24.1722364595
  0
LINE
  5
5D7
100
AcDbEntity
  8
RACCORDO
100
AcDbLine
 62
253
  6
CONTINUOUS
 10
-88.2269980713
 20
-24.1464646701
 11
-88.2266996839
 21
-24.1453700683
  0
LINE
  5
5D8
100
AcDbEntity
  8
RACCORDO
100
AcDbLine
 62
253
  6
CONTINUOUS
 10
-88.2276156782
 20
-24.1486843446
 11
-88.2273031886
 21
-24.1475693013
  0
LINE
  5
5D9
100
AcDbEntity
  8
RACCORDO
100
AcDbLine
 62
253
  6
CONTINUOUS
 10
-88.2282627129
 20
-24.1509401446
 11
-88.2279359136
 21
-24.1498095021
  0
LINE
  5
5DA
100
AcDbEntity
  8
RACCORDO
100
AcDbLine
 62
253
  6
CONTINUOUS
 10
-88.2289305592
 20
-24.1531985205
 11
-88.2285943671
 21
-24.1520702022
  0
LINE
  5
5DB
100
AcDbEntity
  8
RACCORDO
100
AcDbLine
 62
253
  6
CONTINUOUS
 10
-88.2220374134
 20
-24.1265147579
 11
-88.2218328202
 21
-24.1258311475
  0
LINE
  5
5DC
100
AcDbEntity
  8
RACCORDO
100
AcDbLine
 62
7
  6
CONTINUOUS
 10
-80.0683604665
 20
3.6193269741
 11
-81.9683604665
 21
3.2843057108
  0
LINE
  5
5DD
100
AcDbEntity
  8
RACCORDO
100
AcDbLine
 62
253
  6
CONTINUOUS
 10
-88.229311065
 20
23.7233786361
 11
-88.2295086501
 21
23.7240312955
  0
LINE
  5
5DE
100
AcDbEntity
  8
RACCORDO
100
AcDbLine
 62
253
  6
CONTINUOUS
 10
-88.2289312385
 20
23.7221069451
 11
-88.2291184054
 21
23.7227363646
  0
LINE
  5
5DF
100
AcDbEntity
  8
RACCORDO
100
AcDbLine
 62
253
  6
CONTINUOUS
 10
-88.2285713182
 20
23.7208816664
 11
-88.228749327
 21
23.7214902141
  0
LINE
  5
5E0
100
AcDbEntity
  8
RACCORDO
100
AcDbLine
 62
253
  6
CONTINUOUS
 10
-88.2280602959
 20
23.719107218
 11
-88.2282279852
 21
23.7196939695
  0
LWPOLYLINE
  5
5E1
100
AcDbEntity
  8
RACCORDO
100
AcDbPolyline
 62
253
  6
CONTINUOUS
 90
7
 70
0
 10
-88.2200117654
 20
23.6775730552
 10
-88.2204056545
 20
23.6789615539
 10
-88.2207615257
 20
23.6809090541
 10
-88.2210793699
 20
23.6834156186
 10
-88.2213591715
 20
23.6864813093
 10
-88.2216009084
 20
23.6901061872
 10
-88.2218045517
 20
23.6942903126
  0
LINE
  5
5E2
100
AcDbEntity
  8
RACCORDO
100
AcDbLine
 62
253
  6
CONTINUOUS
 10
-88.227566878
 20
23.7173546125
 11
-88.2277302202
 21
23.7179390732
  0
LINE
  5
5E3
100
AcDbEntity
  8
RACCORDO
100
AcDbLine
 62
253
  6
CONTINUOUS
 10
-88.2270798081
 20
23.7155858334
 11
-88.2272418325
 21
23.7161784989
  0
LWPOLYLINE
  5
5E4
100
AcDbEntity
  8
RACCORDO
100
AcDbPolyline
 62
7
  6
CONTINUOUS
 90
10
 70
0
 10
-88.3846346
 20
24.4999971765
 10
-88.3831036024
 20
24.4943430326
 10
-88.3818104028
 20
24.4843721769
 10
-88.3807550011
 20
24.470145371
 10
-88.3799398676
 20
24.4517106297
 10
-88.3793625321
 20
24.4291645302
 10
-88.3790155835
 20
24.4026996352
 10
-88.3788965513
 20
24.372497617
 10
-88.379007906
 20
24.3386806184
 10
-88.3795325632
 20
24.2642000985
  0
LWPOLYLINE
  5
5E5
100
AcDbEntity
  8
RACCORDO
100
AcDbPolyline
 62
253
  6
CONTINUOUS
 90
4
 70
0
 10
-88.2220244724
 20
23.6950547484
 10
-88.2222396313
 20
23.695857019
 10
-88.2224421191
 20
23.6966336274
 10
-88.2226303262
 20
23.6974238567
  0
LINE
  5
5E6
100
AcDbEntity
  8
RACCORDO
100
AcDbLine
 62
253
  6
CONTINUOUS
 10
-88.2265939995
 20
23.7137822828
 11
-88.2267561926
 21
23.7143887735
  0
LINE
  5
5E7
100
AcDbEntity
  8
RACCORDO
100
AcDbLine
 62
253
  6
CONTINUOUS
 10
-88.2261039839
 20
23.7119222056
 11
-88.2262681604
 21
23.7125499709
  0
LINE
  5
5E8
100
AcDbEntity
  8
RACCORDO
100
AcDbLine
 62
253
  6
CONTINUOUS
 10
-88.2256046127
 20
23.7099827473
 11
-88.2257721563
 21
23.710638292
  0
LINE
  5
5E9
100
AcDbEntity
  8
RACCORDO
100
AcDbLine
 62
253
  6
CONTINUOUS
 10
-88.2250951376
 20
23.7079574562
 11
-88.2252659562
 21
23.7086418012
  0
LINE
  5
5EA
100
AcDbEntity
  8
RACCORDO
100
AcDbLine
 62
253
  6
CONTINUOUS
 10
-88.2245772527
 20
23.7058471512
 11
-88.2247507062
 21
23.7065592383
  0
LINE
  5
5EB
100
AcDbEntity
  8
RACCORDO
100
AcDbLine
 62
253
  6
CONTINUOUS
 10
-88.2240522697
 20
23.7036574065
 11
-88.2242279836
 21
23.7043962857
  0
LWPOLYLINE
  5
5EC
100
AcDbEntity
  8
RACCORDO
100
AcDbPolyline
 62
253
  6
CONTINUOUS
 90
8
 70
0
 10
-88.2400226564
 20
23.7373251269
 10
-88.2395713834
 20
23.735371109
 10
-88.2390359035
 20
23.733214403
 10
-88.2384049616
 20
23.7308318079
 10
-88.2376714773
 20
23.7282177675
 10
-88.2368258181
 20
23.7253597882
 10
-88.2358489786
 20
23.7222191364
 10
-88.234858556
 20
23.7191808
  0
LINE
  5
5ED
100
AcDbEntity
  8
RACCORDO
100
AcDbLine
 62
253
  6
CONTINUOUS
 10
-88.2231652958
 20
23.6998329571
 11
-88.2238757881
 21
23.7029070333
  0
LINE
  5
5EE
100
AcDbEntity
  8
RACCORDO
100
AcDbLine
 62
253
  6
CONTINUOUS
 10
-88.2228086921
 20
23.6982403339
 11
-88.2229862135
 21
23.6990488467
  0
LWPOLYLINE
  5
5EF
100
AcDbEntity
  8
RACCORDO
100
AcDbPolyline
 62
253
  6
CONTINUOUS
 90
22
 70
0
 10
-80.0683604665
 20
45.0847453472
 10
-80.0696669545
 20
45.1208249559
 10
-80.0735795909
 20
45.1567160144
 10
-80.0800779285
 20
45.1922309576
 10
-80.0891280072
 20
45.2271841861
 10
-80.1006825318
 20
45.2613930362
 10
-80.1146811189
 20
45.2946787339
 10
-80.1310506127
 20
45.3268673299
 10
-80.1497054668
 20
45.357790608
 10
-80.1705481919
 20
45.3872869647
 10
-80.193469865
 20
45.4152022534
 10
-80.2183506985
 20
45.4413905902
 10
-80.2450606662
 20
45.4657151159
 10
-80.2734601833
 20
45.4880487118
 10
-80.303400835
 20
45.5082746636
 10
-80.3347261531
 20
45.5262872714
 10
-80.3672724328
 20
45.5419924022
 10
-80.4008695888
 20
45.5553079818
 10
-80.4353420442
 20
45.5661644236
 10
-80.4705096474
 20
45.5745049923
 10
-80.5061886143
 20
45.5802861006
 10
-80.5421924884
 20
45.5834775367
  0
LINE
  5
5F0
100
AcDbEntity
  8
RACCORDO
100
AcDbLine
 62
253
  6
CONTINUOUS
 10
-80.5421924884
 20
47.1833595245
 11
-80.5421924884
 21
3.5357776043
  0
LINE
  5
5F1
100
AcDbEntity
  8
RACCORDO
100
AcDbLine
 62
253
  6
CONTINUOUS
 10
-80.5421924884
 20
-3.9671661828
 11
-80.5421924884
 21
-47.614748103
  0
LINE
  5
5F2
100
AcDbEntity
  8
RACCORDO
100
AcDbLine
 62
7
  6
CONTINUOUS
 10
-80.0683604665
 20
46.6840447571
 11
-80.0683604665
 21
3.6193269741
  0
LINE
  5
5F3
100
AcDbEntity
  8
RACCORDO
100
AcDbLine
 62
7
  6
CONTINUOUS
 10
-80.0683604665
 20
-4.0507155526
 11
-80.0683604665
 21
-47.1154333356
  0
LINE
  5
5F4
100
AcDbEntity
  8
0
100
AcDbLine
 62
253
  6
CONTINUOUS
 10
-79.5578932752
 20
25.5759321275
 11
-79.5578932752
 21
24.9845798038
  0
LINE
  5
5F5
100
AcDbEntity
  8
0
100
AcDbLine
 62
253
  6
CONTINUOUS
 10
-79.5578932752
 20
-25.4159683823
 11
-79.5578932752
 21
-26.007320706
  0
LINE
  5
5F6
100
AcDbEntity
  8
0
100
AcDbLine
 62
7
  6
CONTINUOUS
 10
-79.3683604665
 20
-25.6156942892
 11
-79.3683604665
 21
-27.3656942892
  0
LINE
  5
5F7
100
AcDbEntity
  8
0
100
AcDbLine
 62
7
  6
CONTINUOUS
 10
-79.3683604665
 20
25.1843057108
 11
-79.3683604665
 21
26.9343057108
  0
LWPOLYLINE
  5
5F8
100
AcDbEntity
  8
RACCORDO
100
AcDbPolyline
 62
253
  6
CONTINUOUS
 90
22
 70
0
 10
-80.0683604665
 20
-45.5161339256
 10
-80.0696669545
 20
-45.5522135345
 10
-80.073579591
 20
-45.5881045931
 10
-80.0800779286
 20
-45.6236195364
 10
-80.0891280074
 20
-45.6585727651
 10
-80.100682532
 20
-45.6927816152
 10
-80.1146811192
 20
-45.7260673129
 10
-80.1310506129
 20
-45.7582559088
 10
-80.149705467
 20
-45.7891791868
 10
-80.170548192
 20
-45.8186755434
 10
-80.193469865
 20
-45.8465908319
 10
-80.2183506983
 20
-45.8727791685
 10
-80.2450606659
 20
-45.8971036941
 10
-80.2734601827
 20
-45.9194372899
 10
-80.3034008344
 20
-45.9396632417
 10
-80.3347261523
 20
-45.9576758495
 10
-80.3672724321
 20
-45.9733809804
 10
-80.4008695882
 20
-45.9866965601
 10
-80.4353420437
 20
-45.9975530019
 10
-80.4705096471
 20
-46.0058935707
 10
-80.5061886142
 20
-46.0116746791
 10
-80.5421924884
 20
-46.0148661152
  0
LWPOLYLINE
  5
5F9
100
AcDbEntity
  8
RACCORDO
100
AcDbPolyline
 62
253
  6
CONTINUOUS
 90
5
 70
0
 10
-88.2343374892
 20
-24.1493688244
 10
-88.2347486917
 20
-24.1505975356
 10
-88.235855909
 20
-24.1540716529
 10
-88.2368136808
 20
-24.1572371339
 10
-88.2376335796
 20
-24.1601036524
  0
LWPOLYLINE
  5
5FA
100
AcDbEntity
  8
RACCORDO
100
AcDbPolyline
 62
253
  6
CONTINUOUS
 90
16
 70
0
 10
-88.5109210998
 20
-24.0936700205
 10
-88.5156382779
 20
-24.1057916333
 10
-88.5187391178
 20
-24.1184241829
 10
-88.5201710543
 20
-24.1313535223
 10
-88.5199098131
 20
-24.1443604735
 10
-88.5179598227
 20
-24.1572245426
 10
-88.5143541394
 20
-24.169727658
 10
-88.5091538868
 20
-24.1816578671
 10
-88.5024472194
 20
-24.1928129288
 10
-88.4943478286
 20
-24.2030037427
 10
-88.4849930154
 20
-24.2120575542
 10
-88.4745413624
 20
-24.2198208831
 10
-88.463170046
 20
-24.2261621254
 10
-88.4510718327
 20
-24.2309737845
 10
-88.4384518114
 20
-24.2341742932
 10
-88.4255239166
 20
-24.2357093963
  0
LINE
  5
5FB
100
AcDbEntity
  8
RACCORDO
100
AcDbLine
 62
253
  6
CONTINUOUS
 10
-88.4255238971
 20
-24.2357093687
 11
-88.2448194791
 21
-23.8177283822
  0
LWPOLYLINE
  5
5FC
100
AcDbEntity
  8
RACCORDO
100
AcDbPolyline
 62
253
  6
CONTINUOUS
 90
6
 70
0
 10
-88.2230853717
 20
-24.1274774763
 10
-88.2228873454
 20
-24.1270237671
 10
-88.222695624
 20
-24.1265411238
 10
-88.2224966569
 20
-24.1261715403
 10
-88.2222858378
 20
-24.1259621475
 10
-88.2220677925
 20
-24.1258658406
  0
LWPOLYLINE
  5
5FD
100
AcDbEntity
  8
RACCORDO
100
AcDbPolyline
 62
7
  6
CONTINUOUS
 90
13
 70
0
 10
-88.2748429142
 20
-24.2307507946
 10
-88.2934674906
 20
-24.2730380344
 10
-88.3102018382
 20
-24.3158933058
 10
-88.3250459569
 20
-24.3591498368
 10
-88.3379621072
 20
-24.4026154643
 10
-88.3489880287
 20
-24.4461074826
 10
-88.3582369406
 20
-24.4894484168
 10
-88.3656462121
 20
-24.5324053185
 10
-88.3712784741
 20
-24.57473939
 10
-88.3754348375
 20
-24.6162315094
 10
-88.3782156728
 20
-24.6566126379
 10
-88.3795206097
 20
-24.6955711382
 10
-88.379349648
 20
-24.7327942286
  0
LWPOLYLINE
  5
5FE
100
AcDbEntity
  8
RACCORDO
100
AcDbPolyline
 62
253
  6
CONTINUOUS
 90
19
 70
0
 10
-88.235756836
 20
-24.1722364595
 10
-88.2353860719
 20
-24.1714106704
 10
-88.2350137333
 20
-24.1705526263
 10
-88.2346411105
 20
-24.1696668066
 10
-88.2342693982
 20
-24.1687577209
 10
-88.2338980753
 20
-24.1678245135
 10
-88.2335281411
 20
-24.1668708782
 10
-88.2331605802
 20
-24.1659007687
 10
-88.2327945697
 20
-24.1649124062
 10
-88.2324308761
 20
-24.163908744
 10
-88.2320702827
 20
-24.1628930948
 10
-88.231711729
 20
-24.1618628515
 10
-88.2313558061
 20
-24.1608202542
 10
-88.231003106
 20
-24.1597679488
 10
-88.2306523158
 20
-24.1587024722
 10
-88.2303036602
 20
-24.1576247164
 10
-88.229957765
 20
-24.1565371186
 10
-88.2296137054
 20
-24.1554371924
 10
-88.2292709045
 20
-24.1543229816
  0
LINE
  5
5FF
100
AcDbEntity
  8
RACCORDO
100
AcDbLine
 62
7
  6
CONTINUOUS
 10
-89.0446301853
 20
-25.2382128531
 11
-88.2569381131
 21
-23.5490017453
  0
LINE
  5
600
100
AcDbEntity
  8
0
100
AcDbLine
 62
7
  6
CONTINUOUS
 10
-88.4921520459
 20
-24.0534196545
 11
-88.9559301328
 21
-25.0479949759
  0
LINE
  5
601
100
AcDbEntity
  8
RACCORDO
100
AcDbLine
 62
253
  6
CONTINUOUS
 10
-88.9592330021
 20
-25.3803376326
 11
-88.4255239059
 21
-24.2357093682
  0
LINE
  5
602
100
AcDbEntity
  8
RACCORDO
100
AcDbLine
 62
7
  6
CONTINUOUS
 10
-88.2569424618
 20
23.1176224927
 11
-89.0446301853
 21
24.8068242746
  0
LINE
  5
603
100
AcDbEntity
  8
RACCORDO
100
AcDbLine
 62
253
  6
CONTINUOUS
 10
-88.4255239169
 20
23.804320818
 11
-88.9592330021
 21
24.9489490541
  0
LINE
  5
604
100
AcDbEntity
  8
RACCORDO
100
AcDbLine
 62
253
  6
CONTINUOUS
 10
-88.244824051
 20
23.386357969
 11
-88.4255239171
 21
23.804320818
  0
LWPOLYLINE
  5
605
100
AcDbEntity
  8
RACCORDO
100
AcDbPolyline
 62
253
  6
CONTINUOUS
 90
16
 70
0
 10
-88.5109210998
 20
23.662281442
 10
-88.5156382775
 20
23.6744030547
 10
-88.5187391172
 20
23.6870356042
 10
-88.5201710534
 20
23.6999649434
 10
-88.519909812
 20
23.7129718943
 10
-88.5179598214
 20
23.7258359632
 10
-88.5143541381
 20
23.7383390784
 10
-88.5091538854
 20
23.7502692872
 10
-88.502447218
 20
23.7614243487
 10
-88.4943478274
 20
23.7716151624
 10
-88.4849930142
 20
23.7806689737
 10
-88.4745413614
 20
23.7884323025
 10
-88.4631700452
 20
23.7947735447
 10
-88.4510718322
 20
23.7995852038
 10
-88.4384518111
 20
23.8027857124
 10
-88.4255239165
 20
23.8043208156
  0
LWPOLYLINE
  5
606
100
AcDbEntity
  8
RACCORDO
100
AcDbPolyline
 62
253
  6
CONTINUOUS
 90
46
 70
0
 10
-88.2324861821
 20
23.7331579166
 10
-88.2327447317
 20
23.7338872679
 10
-88.2330070213
 20
23.7346163802
 10
-88.2332732023
 20
23.7353455021
 10
-88.233542885
 20
23.7360727586
 10
-88.2338156144
 20
23.7367961186
 10
-88.2340914061
 20
23.7375154345
 10
-88.234369575
 20
23.7382280935
 10
-88.2346498527
 20
23.7389326261
 10
-88.2349327976
 20
23.7396302221
 10
-88.2352177138
 20
23.7403181435
 10
-88.2355041117
 20
23.7409943014
 10
-88.2357926995
 20
23.7416601103
 10
-88.2360827581
 20
23.7423126464
 10
-88.2363734957
 20
23.7429489707
 10
-88.2366653188
 20
23.7435696374
 10
-88.2369574819
 20
23.7441715916
 10
-88.2372488581
 20
23.7447510465
 10
-88.2375391384
 20
23.7453069212
 10
-88.2378273271
 20
23.7458357628
 10
-88.2381122805
 20
23.7463338372
 10
-88.2383933883
 20
23.7467994434
 10
-88.2386692944
 20
23.7472286524
 10
-88.2389389806
 20
23.7476181306
 10
-88.2392021733
 20
23.7479665598
 10
-88.2394573374
 20
23.7482696233
 10
-88.2397031345
 20
23.7485234292
 10
-88.2399392231
 20
23.7487261225
 10
-88.2401638079
 20
23.7488727692
 10
-88.2403750754
 20
23.7489586213
 10
-88.2405721722
 20
23.748980641
 10
-88.2407528613
 20
23.7489332348
 10
-88.2409149318
 20
23.7488109488
 10
-88.2410569705
 20
23.7486093062
 10
-88.2411761943
 20
23.7483220259
 10
-88.2412698563
 20
23.7479427559
 10
-88.2413357372
 20
23.7474647064
 10
-88.2413703423
 20
23.7468804022
 10
-88.2413700752
 20
23.7461824134
 10
-88.2413314181
 20
23.7453613386
 10
-88.2412499917
 20
23.744408706
 10
-88.2411211745
 20
23.7433159916
 10
-88.2409397381
 20
23.7420710085
 10
-88.2407002673
 20
23.740664507
 10
-88.2403969719
 20
23.7390873114
 10
-88.2400226564
 20
23.7373251269
  0
LINE
  5
607
100
AcDbEntity
  8
RACCORDO
100
AcDbLine
 62
253
  6
CONTINUOUS
 10
-88.2319820167
 20
23.7317064281
 11
-88.2322318638
 21
23.7324304747
  0
LINE
  5
608
100
AcDbEntity
  8
RACCORDO
100
AcDbLine
 62
253
  6
CONTINUOUS
 10
-88.2314942623
 20
23.7302653692
 11
-88.2317360553
 21
23.7309842358
  0
LINE
  5
609
100
AcDbEntity
  8
RACCORDO
100
AcDbLine
 62
253
  6
CONTINUOUS
 10
-88.2310234866
 20
23.7288407622
 11
-88.2312569447
 21
23.729551449
  0
LINE
  5
60A
100
AcDbEntity
  8
RACCORDO
100
AcDbLine
 62
253
  6
CONTINUOUS
 10
-88.2305687677
 20
23.7274332443
 11
-88.2307939617
 21
23.7281340887
  0
LINE
  5
60B
100
AcDbEntity
  8
RACCORDO
100
AcDbLine
 62
253
  6
CONTINUOUS
 10
-88.2301309786
 20
23.7260487694
 11
-88.2303477348
 21
23.726737827
  0
LINE
  5
60C
100
AcDbEntity
  8
RACCORDO
100
AcDbLine
 62
253
  6
CONTINUOUS
 10
-88.229711267
 20
23.7246945973
 11
-88.2299187931
 21
23.7253675601
  0
LWPOLYLINE
  5
60D
100
AcDbEntity
  8
SUPERFICI
100
AcDbPolyline
 62
253
  6
CONTINUOUS
 90
10
 70
0
 10
-85.7781501143
 20
-44.9748441662
 10
-85.7798171154
 20
-44.9838810307
 10
-85.781306974
 20
-44.9928842399
 10
-85.7826293662
 20
-45.0018668632
 10
-85.7837900477
 20
-45.010856966
 10
-85.7847996595
 20
-45.0198547159
 10
-85.7856735925
 20
-45.0288322337
 10
-85.7864202502
 20
-45.037790934
 10
-85.7870411235
 20
-45.0467617448
 10
-85.7875395398
 20
-45.0557620687
  0
LINE
  5
60E
100
AcDbEntity
  8
RACCORDO
100
AcDbLine
 62
7
  6
CONTINUOUS
 10
-88.2748429142
 20
-24.2307507946
 11
-88.2329916541
 21
-24.1410004772
  0
LINE
  5
60F
100
AcDbEntity
  8
RACCORDO
100
AcDbLine
 62
7
  6
CONTINUOUS
 10
-88.9461826425
 20
-26.1156942892
 11
-88.3846346
 21
-24.931385755
  0
LWPOLYLINE
  5
610
100
AcDbEntity
  8
RACCORDO
100
AcDbPolyline
 62
253
  6
CONTINUOUS
 90
3
 70
0
 10
-88.2237274609
 20
-24.1285157378
 10
-88.2235094965
 20
-24.1281741394
 10
-88.2232946269
 20
-24.1278410193
  0
LINE
  5
611
100
AcDbEntity
  8
RACCORDO
100
AcDbLine
 62
7
  6
CONTINUOUS
 10
-88.9461826425
 20
25.6843057108
 11
-88.3846346
 21
24.4999971765
  0
LWPOLYLINE
  5
612
100
AcDbEntity
  8
RACCORDO
100
AcDbPolyline
 62
253
  6
CONTINUOUS
 90
9
 70
0
 10
-88.3793852912
 20
24.3014075197
 10
-88.3606098297
 20
24.2617495014
 10
-88.3420279263
 20
24.2184247404
 10
-88.3238485211
 20
24.1692124712
 10
-88.3063779226
 20
24.1137324771
 10
-88.2894588625
 20
24.0503933929
 10
-88.2725857826
 20
23.9766550095
 10
-88.2556287543
 20
23.8922493641
 10
-88.2387068151
 20
23.7982026021
  0
LINE
  5
613
100
AcDbEntity
  8
RACCORDO
100
AcDbLine
 62
7
  6
CONTINUOUS
 10
-88.2335065479
 20
23.710716092
 11
-88.2748428727
 21
23.799362127
  0
LWPOLYLINE
  5
614
100
AcDbEntity
  8
SUPERFICI
100
AcDbPolyline
 62
253
  6
CONTINUOUS
 90
10
 70
0
 10
-85.7781501143
 20
44.5434555878
 10
-85.7798171154
 20
44.5524924522
 10
-85.781306974
 20
44.5614956614
 10
-85.7826293662
 20
44.5704782847
 10
-85.7837900477
 20
44.5794683875
 10
-85.7847996595
 20
44.5884661374
 10
-85.7856735925
 20
44.5974436552
 10
-85.7864202502
 20
44.6064023555
 10
-85.7870411235
 20
44.6153731663
 10
-85.7875395398
 20
44.6243734902
  0
LWPOLYLINE
  5
615
100
AcDbEntity
  8
RACCORDO
100
AcDbPolyline
 62
253
  6
CONTINUOUS
 90
21
 70
0
 10
-80.0683604665
 20
-36.3441293995
 10
-80.0696669545
 20
-36.3467425816
 10
-80.073579591
 20
-36.3493421073
 10
-80.0800779286
 20
-36.3519143916
 10
-80.0891280074
 20
-36.354445992
 10
-80.100682532
 20
-36.3569236783
 10
-80.1146811192
 20
-36.3593345024
 10
-80.1310506129
 20
-36.3616658653
 10
-80.149705467
 20
-36.3639055835
 10
-80.170548192
 20
-36.3660419523
 10
-80.193469865
 20
-36.3680638071
 10
-80.2183506983
 20
-36.3699605819
 10
-80.2450606659
 20
-36.3717223641
 10
-80.2734601827
 20
-36.3733399469
 10
-80.3034008344
 20
-36.3748048767
 10
-80.3347261523
 20
-36.3761094979
 10
-80.3672724321
 20
-36.3772469927
 10
-80.4008695882
 20
-36.3782114165
 10
-80.4353420437
 20
-36.3789977293
 10
-80.4705096471
 20
-36.3796018219
 10
-80.5061886142
 20
-36.3800205373
  0
LINE
  5
616
100
AcDbEntity
  8
0
100
AcDbLine
 62
7
  6
CONTINUOUS
 10
-80.0683604665
 20
-25.4156942892
 11
-79.9183604665
 21
-25.2656942892
  0
LWPOLYLINE
  5
617
100
AcDbEntity
  8
RACCORDO
100
AcDbPolyline
 62
253
  6
CONTINUOUS
 90
65
 70
0
 10
-88.2218093609
 20
23.6943083253
 10
-88.2220573726
 20
23.6943804902
 10
-88.2222895095
 20
23.6945245685
 10
-88.2225061142
 20
23.6947413026
 10
-88.2227031163
 20
23.6950616194
 10
-88.2228853008
 20
23.6954561386
 10
-88.2230659662
 20
23.6958344307
 10
-88.2232494514
 20
23.6961658269
 10
-88.2234313325
 20
23.6964808113
 10
-88.223611459
 20
23.6967800257
 10
-88.2237897285
 20
23.6970653322
 10
-88.2239662365
 20
23.6973348531
 10
-88.224141136
 20
23.6975836363
 10
-88.2243145653
 20
23.6978091606
 10
-88.2244863849
 20
23.6980139432
 10
-88.2246563388
 20
23.6982006078
 10
-88.2248243865
 20
23.6983701624
 10
-88.2249905783
 20
23.6985216192
 10
-88.2251548056
 20
23.698654631
 10
-88.2253171237
 20
23.6987686603
 10
-88.2254774977
 20
23.6988642878
 10
-88.2256356965
 20
23.6989428718
 10
-88.2257916445
 20
23.6990046319
 10
-88.2259454563
 20
23.6990494318
 10
-88.2260971907
 20
23.6990781048
 10
-88.2262467096
 20
23.6990906952
 10
-88.2263941846
 20
23.6990872304
 10
-88.2265401104
 20
23.6990684565
 10
-88.2266844463
 20
23.699034552
 10
-88.2268272126
 20
23.6989852943
 10
-88.2269689432
 20
23.6989207146
 10
-88.2271095936
 20
23.6988408752
 10
-88.2272491306
 20
23.698745547
 10
-88.2273880489
 20
23.6986342035
 10
-88.2275260605
 20
23.6985071219
 10
-88.2276633251
 20
23.6983637493
 10
-88.2278009163
 20
23.6982021147
 10
-88.227938428
 20
23.6980226694
 10
-88.2280760058
 20
23.6978244029
 10
-88.2282153721
 20
23.6976027665
 10
-88.2283564585
 20
23.6973572634
 10
-88.2284988012
 20
23.6970872483
 10
-88.2286433276
 20
23.696787516
 10
-88.2287899672
 20
23.6964567801
 10
-88.2289380373
 20
23.6960947108
 10
-88.229087438
 20
23.6956973023
 10
-88.2292377985
 20
23.6952635379
 10
-88.22938865
 20
23.6947926338
 10
-88.2295397112
 20
23.6942808603
 10
-88.2296904678
 20
23.6937274691
 10
-88.2298405229
 20
23.6931312558
 10
-88.2299897257
 20
23.6924877093
 10
-88.2301374578
 20
23.6917962853
 10
-88.2302833058
 20
23.6910553189
 10
-88.2304273136
 20
23.6902583765
 10
-88.2305688434
 20
23.6894042878
 10
-88.2307072675
 20
23.6884915156
 10
-88.2308424742
 20
23.6875127101
 10
-88.2309737645
 20
23.6864658098
 10
-88.2311002968
 20
23.6853495827
 10
-88.2312215918
 20
23.6841575945
 10
-88.2313367976
 20
23.6828878303
 10
-88.2314450141
 20
23.6815385638
 10
-88.2315455698
 20
23.6801035392
 10
-88.231637429
 20
23.6785818242
  0
LINE
  5
618
100
AcDbEntity
  8
0
100
AcDbLine
 62
7
  6
CONTINUOUS
 10
-80.0683604665
 20
24.9843057108
 11
-79.9183604665
 21
24.8343057108
  0
LWPOLYLINE
  5
619
100
AcDbEntity
  8
RACCORDO
100
AcDbPolyline
 62
253
  6
CONTINUOUS
 90
22
 70
0
 10
-80.0683604665
 20
35.912740821
 10
-80.0696669545
 20
35.9153540031
 10
-80.073579591
 20
35.9179535288
 10
-80.0800779286
 20
35.9205258131
 10
-80.0891280074
 20
35.9230574135
 10
-80.100682532
 20
35.9255350998
 10
-80.1146811192
 20
35.9279459239
 10
-80.1310506129
 20
35.9302772868
 10
-80.149705467
 20
35.932517005
 10
-80.170548192
 20
35.9346533738
 10
-80.193469865
 20
35.9366752286
 10
-80.2183506983
 20
35.9385720034
 10
-80.2450606659
 20
35.9403337856
 10
-80.2734601827
 20
35.9419513684
 10
-80.3034008344
 20
35.9434162982
 10
-80.3347261523
 20
35.9447209194
 10
-80.3672724321
 20
35.9458584142
 10
-80.4008695882
 20
35.946822838
 10
-80.4353420437
 20
35.9476091508
 10
-80.4705096471
 20
35.9482132434
 10
-80.5061886142
 20
35.9486319589
 10
-81.9683604665
 20
35.9542702447
  0
LWPOLYLINE
  5
61A
100
AcDbEntity
  8
SUPERFICI
100
AcDbPolyline
 62
253
  6
CONTINUOUS
 90
10
 70
0
 10
-86.0329190417
 20
23.1534907222
 10
-85.9968539898
 20
23.1581569897
 10
-85.9553093598
 20
23.1625750528
 10
-85.9082558576
 20
23.1667337059
 10
-85.8558405233
 20
23.1706119931
 10
-85.7979436533
 20
23.1742157554
 10
-85.7340533804
 20
23.1775697302
 10
-85.6640740774
 20
23.180672186
 10
-85.5880313694
 20
23.183523649
 10
-85.5054571021
 20
23.1861466726
  0
LINE
  5
61B
100
AcDbEntity
  8
RACCORDO
100
AcDbLine
 62
253
  6
CONTINUOUS
 10
-88.275513834
 20
23.8121757898
 11
-88.4255239169
 21
23.804320818
  0
LINE
  5
61C
100
AcDbEntity
  8
DRAFT
100
AcDbLine
 62
7
  6
CONTINUOUS
 10
-88.6062669342
 20
24.9674472219
 11
-88.9592329713
 21
24.9489490557
  0
LINE
  5
61D
100
AcDbEntity
  8
0
100
AcDbLine
 62
7
  6
CONTINUOUS
 10
-79.5578932752
 20
25.5759321275
 11
-80.0683604665
 21
25.5533796229
  0
LINE
  5
61E
100
AcDbEntity
  8
SUPERFICI
100
AcDbLine
 62
253
  6
CONTINUOUS
 10
-85.5054571021
 20
23.1861466726
 11
-85.3207820877
 21
23.1907358854
  0
LINE
  5
61F
100
AcDbEntity
  8
SUPERFICI
100
AcDbLine
 62
253
  6
CONTINUOUS
 10
-85.3207820877
 20
23.1907358854
 11
-85.1084630267
 21
23.1945332331
  0
LINE
  5
620
100
AcDbEntity
  8
SUPERFICI
100
AcDbLine
 62
253
  6
CONTINUOUS
 10
-85.1084630267
 20
23.1945332331
 11
-84.8693127801
 21
23.197519258
  0
LINE
  5
621
100
AcDbEntity
  8
SUPERFICI
100
AcDbLine
 62
253
  6
CONTINUOUS
 10
-84.8693127801
 20
23.197519258
 11
-84.4683604665
 21
23.2002632592
  0
LINE
  5
622
100
AcDbEntity
  8
0
100
AcDbLine
 62
7
  6
CONTINUOUS
 10
-79.9183604665
 20
24.8343057108
 11
-79.7183604665
 21
24.8343057108
  0
LINE
  5
623
100
AcDbEntity
  8
0
100
AcDbLine
 62
7
  6
CONTINUOUS
 10
-79.5683604665
 20
24.9843057108
 11
-80.0683604665
 21
24.9843057108
  0
LWPOLYLINE
  5
624
100
AcDbEntity
  8
SUPERFICI
100
AcDbPolyline
 62
253
  6
CONTINUOUS
 90
13
 70
0
 10
-86.0329603947
 20
23.1531590519
 10
-86.3852997553
 20
23.2039056932
 10
-86.7066180501
 20
23.252689374
 10
-86.9942746383
 20
23.2996585122
 10
-87.245375854
 20
23.3445611183
 10
-87.4619317283
 20
23.3876983436
 10
-87.6491679331
 20
23.4300196625
 10
-87.8069566257
 20
23.471367031
 10
-87.9368089241
 20
23.5118202393
 10
-88.0436234646
 20
23.5528426215
 10
-88.1275398502
 20
23.5950060862
 10
-88.1864493907
 20
23.6378495727
 10
-88.2198371817
 20
23.6814020406
  0
LINE
  5
625
100
AcDbEntity
  8
0
100
AcDbLine
 62
253
  6
CONTINUOUS
 10
-79.3683604665
 20
26.7119514243
 11
-80.0683604665
 21
26.7122676317
  0
LINE
  5
626
100
AcDbEntity
  8
0
100
AcDbLine
 62
7
  6
CONTINUOUS
 10
-79.3683604665
 20
26.9343057108
 11
-80.0683604665
 21
26.9355274425
  0
LINE
  5
627
100
AcDbEntity
  8
0
100
AcDbLine
 62
7
  6
CONTINUOUS
 10
-79.3683604665
 20
26.1343057108
 11
-80.0683604665
 21
26.1383781916
  0
LWPOLYLINE
  5
628
100
AcDbEntity
  8
SUPERFICI
100
AcDbPolyline
 62
253
  6
CONTINUOUS
 90
14
 70
0
 10
-85.0195754068
 20
35.9384653978
 10
-85.1179279369
 20
35.93595486
 10
-85.2104489412
 20
35.933052307
 10
-85.2971686415
 20
35.9297351424
 10
-85.3775865186
 20
35.9260056422
 10
-85.4514490453
 20
35.9218703036
 10
-85.5189604268
 20
35.9173189581
 10
-85.5803782682
 20
35.9123350989
 10
-85.6356139137
 20
35.9069322319
 10
-85.684840557
 20
35.901108513
 10
-85.7285617931
 20
35.8948085645
 10
-85.7668557359
 20
35.8880065612
 10
-85.7995358637
 20
35.8807243961
 10
-85.8265907234
 20
35.8729652628
  0
LINE
  5
629
100
AcDbEntity
  8
SUPERFICI
100
AcDbLine
 62
253
  6
CONTINUOUS
 10
-84.808323116
 20
35.9423484727
 11
-85.0195754068
 21
35.9384653978
  0
LWPOLYLINE
  5
62A
100
AcDbEntity
  8
SUPERFICI
100
AcDbPolyline
 62
253
  6
CONTINUOUS
 90
3
 70
0
 10
-84.4683604665
 20
35.9457226024
 10
-84.5842888781
 20
35.944868634
 10
-84.808323116
 20
35.9423484727
  0
LINE
  5
62B
100
AcDbEntity
  8
0
100
AcDbLine
 62
253
  6
CONTINUOUS
 10
-84.4683604665
 20
35.9457224297
 11
-82.8183587193
 21
35.9561657122
  0
LINE
  5
62C
100
AcDbEntity
  8
RACCORDO
100
AcDbLine
 62
253
  6
CONTINUOUS
 10
-82.4683604665
 20
35.7608378864
 11
-82.8183604665
 21
35.7594683787
  0
LINE
  5
62D
100
AcDbEntity
  8
0
100
AcDbLine
 62
253
  6
CONTINUOUS
 10
-82.4683604665
 20
35.9199940714
 11
-81.9683604665
 21
35.9199940714
  0
LWPOLYLINE
  5
62E
100
AcDbEntity
  8
0
100
AcDbPolyline
 62
7
  6
CONTINUOUS
 90
25
 70
0
 10
-84.4683604665
 20
47.1399494158
 10
-84.5669392658
 20
47.1289845182
 10
-84.6633271259
 20
47.1136592243
 10
-84.7572015537
 20
47.0941939763
 10
-84.8484234194
 20
47.0707628287
 10
-84.936579223
 20
47.0436069118
 10
-85.0210087388
 20
47.0131031204
 10
-85.101482897
 20
46.97954431
 10
-85.1779397257
 20
46.9431656129
 10
-85.2500686513
 20
46.9043407425
 10
-85.3176828578
 20
46.8634370893
 10
-85.3809286745
 20
46.8206418438
 10
-85.440035679
 20
46.7760461022
 10
-85.4949877897
 20
46.7298992936
 10
-85.545860039
 20
46.6823899833
 10
-85.5929789966
 20
46.6334336947
 10
-85.6363585454
 20
46.5832105969
 10
-85.6760609409
 20
46.5318603474
 10
-85.7124018861
 20
46.4791402333
 10
-85.7453886379
 20
46.4251555737
 10
-85.7750402182
 20
46.3700061149
 10
-85.8015783281
 20
46.3133432773
 10
-85.8250260845
 20
46.2550652654
 10
-85.8452810576
 20
46.1953687909
 10
-85.8623181932
 20
46.1343056838
  0
LINE
  5
62F
100
AcDbEntity
  8
SUPERFICI
100
AcDbLine
 62
7
  6
CONTINUOUS
 10
-82.8183604665
 20
47.2843057105
 11
-84.4683604694
 21
47.1399494153
  0
LINE
  5
630
100
AcDbEntity
  8
0
100
AcDbLine
 62
253
  6
CONTINUOUS
 10
-82.8183604665
 20
45.6843056806
 11
-84.4683604665
 21
45.540117814
  0
LINE
  5
631
100
AcDbEntity
  8
0
100
AcDbLine
 62
253
  6
CONTINUOUS
 10
-84.4683604665
 20
45.6289169615
 11
-82.8183604665
 21
45.7731141768
  0
LINE
  5
632
100
AcDbEntity
  8
DRAFT
100
AcDbLine
 62
7
  6
CONTINUOUS
 10
-82.4683604665
 20
44.5843057108
 11
-82.8183604665
 21
44.565962988
  0
LINE
  5
633
100
AcDbEntity
  8
RACCORDO
100
AcDbLine
 62
253
  6
CONTINUOUS
 10
-82.4683604665
 20
42.987456181
 11
-82.8183604665
 21
42.9691351588
  0
LINE
  5
634
100
AcDbEntity
  8
0
100
AcDbLine
 62
253
  6
CONTINUOUS
 10
-82.4683604665
 20
45.1848893209
 11
-81.9683604665
 21
45.1848893209
  0
LINE
  5
635
100
AcDbEntity
  8
0
100
AcDbLine
 62
7
  6
CONTINUOUS
 10
-81.9683604665
 20
46.7843057108
 11
-82.4683604665
 21
46.7843057108
  0
LINE
  5
636
100
AcDbEntity
  8
RACCORDO
100
AcDbLine
 62
253
  6
CONTINUOUS
 10
-80.5421924884
 20
45.5834775367
 11
-81.9683604665
 21
45.6581326274
  0
LINE
  5
637
100
AcDbEntity
  8
DRAFT
100
AcDbLine
 62
7
  6
CONTINUOUS
 10
-80.5421924884
 20
47.1833595245
 11
-81.9683604665
 21
47.2581018211
  0
ARC
  5
638
100
AcDbEntity
  8
0
100
AcDbCircle
 62
7
  6
CONTINUOUS
 10
-54.6433601896
 20
-35.6279452163
 40
10.5
100
AcDbArc
 50
184.1486139784
 51
267.2319769518
  0
ARC
  5
639
100
AcDbEntity
  8
SUPERFICI
100
AcDbCircle
 62
253
  6
CONTINUOUS
 10
-54.6433601896
 20
-35.6279452162
 40
10.355643705
100
AcDbArc
 50
184.1486139367
 51
267.2319769951
  0
ARC
  5
63A
100
AcDbEntity
  8
RACCORDO
100
AcDbCircle
 62
253
  6
CONTINUOUS
 10
-45.5620055195
 20
-22.8442865271
 40
2.0744822834
100
AcDbArc
 50
212.4213154888
 51
267.6302313829
  0
ARC
  5
63B
100
AcDbEntity
  8
RACCORDO
100
AcDbCircle
 62
7
  6
CONTINUOUS
 10
-45.839564246
 20
-23.3327675577
 40
1.6
100
AcDbArc
 50
182.6584793461
 51
267.6186023797
  0
ARC
  5
63C
100
AcDbEntity
  8
RACCORDO
100
AcDbCircle
 62
253
  6
CONTINUOUS
 10
-45.5620055195
 20
-22.8442865271
 40
1.575167516
100
AcDbArc
 50
182.6022646146
 51
267.6302313829
  0
ARC
  5
63D
100
AcDbEntity
  8
ASSI
100
AcDbCircle
 62
7
  6
CONTINUOUS
 10
-429.8759675416
 20
-0.2156942892
 40
500.0
100
AcDbArc
 50
357.3833977001
 51
2.6166028952
  0
ARC
  5
63E
100
AcDbEntity
  8
RACCORDO
100
AcDbCircle
 62
7
  6
CONTINUOUS
 10
-429.8759675416
 20
-0.2156942892
 40
500.0
100
AcDbArc
 50
357.3415206539
 51
357.3833977001
  0
ARC
  5
63F
100
AcDbEntity
  8
RACCORDO
100
AcDbCircle
 62
7
  6
CONTINUOUS
 10
-429.8759675416
 20
-0.2156942892
 40
500.0
100
AcDbArc
 50
2.6166028952
 51
2.6584793461
  0
ARC
  5
640
100
AcDbEntity
  8
0
100
AcDbCircle
 62
7
  6
CONTINUOUS
 10
-411.425967535
 20
-0.2156942894
 40
499.9999999936
100
AcDbArc
 50
355.8513860732
 51
4.1486139268
  0
ARC
  5
641
100
AcDbEntity
  8
RACCORDO
100
AcDbCircle
 62
253
  6
CONTINUOUS
 10
-430.1759675416
 20
-0.2156942892
 40
499.975167516
100
AcDbArc
 50
357.3977353854
 51
2.6022646146
  0
ARC
  5
642
100
AcDbEntity
  8
SUPERFICI
100
AcDbCircle
 62
253
  6
CONTINUOUS
 10
-411.4259675256
 20
-0.2156942896
 40
499.8556839348
100
AcDbArc
 50
355.8513860633
 51
357.3149713422
  0
ARC
  5
643
100
AcDbEntity
  8
SUPERFICI
100
AcDbCircle
 62
253
  6
CONTINUOUS
 10
-411.4259675256
 20
-0.2156942896
 40
499.8556839348
100
AcDbArc
 50
2.6850286578
 51
4.1486139367
  0
ARC
  5
644
100
AcDbEntity
  8
0
100
AcDbCircle
 62
253
  6
CONTINUOUS
 10
-411.4259675256
 20
-0.2156942896
 40
499.8556104433
100
AcDbArc
 50
357.3149713422
 51
2.6850286578
  0
ARC
  5
645
100
AcDbEntity
  8
0
100
AcDbCircle
 62
7
  6
CONTINUOUS
 10
-54.6433601896
 20
35.1965566378
 40
10.5
100
AcDbArc
 50
92.7680230482
 51
175.851385592
  0
ARC
  5
646
100
AcDbEntity
  8
SUPERFICI
100
AcDbCircle
 62
253
  6
CONTINUOUS
 10
-54.6433601896
 20
35.1965566378
 40
10.355643705
100
AcDbArc
 50
92.7680230049
 51
175.8513860633
  0
ARC
  5
647
100
AcDbEntity
  8
RACCORDO
100
AcDbCircle
 62
253
  6
CONTINUOUS
 10
-45.5620055195
 20
22.4128979486
 40
2.0744822834
100
AcDbArc
 50
92.3697686171
 51
147.5786922494
  0
ARC
  5
648
100
AcDbEntity
  8
RACCORDO
100
AcDbCircle
 62
7
  6
CONTINUOUS
 10
-45.839564246
 20
22.9013789792
 40
1.6
100
AcDbArc
 50
92.3813976203
 51
177.3415206539
  0
ARC
  5
649
100
AcDbEntity
  8
RACCORDO
100
AcDbCircle
 62
253
  6
CONTINUOUS
 10
-45.5620055195
 20
22.4128979486
 40
1.575167516
100
AcDbArc
 50
92.3697686171
 51
177.3977353854
  0
ARC
  5
64A
100
AcDbEntity
  8
RACCORDO
100
AcDbCircle
 62
253
  6
CONTINUOUS
 10
11.0740324584
 20
-1346.1406942892
 40
1371.7994822834
100
AcDbArc
 50
87.6302313829
 51
92.3697686171
  0
ARC
  5
64B
100
AcDbEntity
  8
0
100
AcDbCircle
 62
7
  6
CONTINUOUS
 10
11.0740324581
 20
-1324.040498699
 40
1371.3248044092
100
AcDbArc
 50
87.3099081341
 51
92.6900918657
  0
ARC
  5
64C
100
AcDbEntity
  8
RACCORDO
100
AcDbCircle
 62
7
  6
CONTINUOUS
 10
11.0740324584
 20
-1345.6356942892
 40
1371.32
100
AcDbArc
 50
87.6186023797
 51
92.3813976203
  0
ARC
  5
64D
100
AcDbEntity
  8
RACCORDO
100
AcDbCircle
 62
253
  6
CONTINUOUS
 10
11.0740324584
 20
-1346.1406942892
 40
1371.300167516
100
AcDbArc
 50
87.6302313829
 51
92.3697686171
  0
ARC
  5
64E
100
AcDbEntity
  8
0
100
AcDbCircle
 62
253
  6
CONTINUOUS
 10
11.0740324584
 20
-1324.0404987112
 40
1371.1804468203
100
AcDbArc
 50
87.3099081362
 51
92.6900918638
  0
ARC
  5
64F
100
AcDbEntity
  8
0
100
AcDbCircle
 62
7
  6
CONTINUOUS
 10
76.7914251064
 20
-35.6279452163
 40
10.5
100
AcDbArc
 50
272.7680230482
 51
355.8513855914
  0
ARC
  5
650
100
AcDbEntity
  8
SUPERFICI
100
AcDbCircle
 62
253
  6
CONTINUOUS
 10
76.7914251064
 20
-35.6279452162
 40
10.355643705
100
AcDbArc
 50
272.7680230049
 51
355.8513860633
  0
ARC
  5
651
100
AcDbEntity
  8
RACCORDO
100
AcDbCircle
 62
253
  6
CONTINUOUS
 10
67.7100704363
 20
-22.8442865271
 40
2.0744822834
100
AcDbArc
 50
272.3697686171
 51
327.5789938183
  0
ARC
  5
652
100
AcDbEntity
  8
RACCORDO
100
AcDbCircle
 62
7
  6
CONTINUOUS
 10
67.9876291629
 20
-23.3327675577
 40
1.6
100
AcDbArc
 50
272.3813976203
 51
357.3415206539
  0
ARC
  5
653
100
AcDbEntity
  8
RACCORDO
100
AcDbCircle
 62
253
  6
CONTINUOUS
 10
67.7100704363
 20
-22.8442865271
 40
1.575167516
100
AcDbArc
 50
272.3697686171
 51
357.3977353854
  0
ARC
  5
654
100
AcDbEntity
  8
RACCORDO
100
AcDbCircle
 62
253
  6
CONTINUOUS
 10
11.0740324584
 20
1345.7093057108
 40
1371.7994822834
100
AcDbArc
 50
267.6302313829
 51
272.3697686171
  0
ARC
  5
655
100
AcDbEntity
  8
0
100
AcDbCircle
 62
7
  6
CONTINUOUS
 10
11.0740324581
 20
1323.6091101205
 40
1371.3248044092
100
AcDbArc
 50
267.3099081343
 51
272.6900918659
  0
ARC
  5
656
100
AcDbEntity
  8
RACCORDO
100
AcDbCircle
 62
7
  6
CONTINUOUS
 10
11.0740324584
 20
1345.2043057108
 40
1371.32
100
AcDbArc
 50
267.6186023797
 51
272.3813976203
  0
ARC
  5
657
100
AcDbEntity
  8
RACCORDO
100
AcDbCircle
 62
253
  6
CONTINUOUS
 10
11.0740324584
 20
1345.7093057108
 40
1371.300167516
100
AcDbArc
 50
267.6302313829
 51
272.3697686171
  0
ARC
  5
658
100
AcDbEntity
  8
0
100
AcDbCircle
 62
253
  6
CONTINUOUS
 10
11.0740324584
 20
1323.6091101327
 40
1371.1804468203
100
AcDbArc
 50
267.3099081362
 51
272.6900918638
  0
ARC
  5
659
100
AcDbEntity
  8
ASSI
100
AcDbCircle
 62
7
  6
CONTINUOUS
 10
452.0240324584
 20
-0.2156942892
 40
500.0
100
AcDbArc
 50
177.3833976926
 51
182.6166024508
  0
ARC
  5
65A
100
AcDbEntity
  8
RACCORDO
100
AcDbCircle
 62
7
  6
CONTINUOUS
 10
452.0240324584
 20
-0.2156942892
 40
500.0
100
AcDbArc
 50
182.6166024508
 51
182.6584793461
  0
ARC
  5
65B
100
AcDbEntity
  8
RACCORDO
100
AcDbCircle
 62
7
  6
CONTINUOUS
 10
452.0240324584
 20
-0.2156942892
 40
500.0
100
AcDbArc
 50
177.3415206539
 51
177.3833976926
  0
ARC
  5
65C
100
AcDbEntity
  8
0
100
AcDbCircle
 62
7
  6
CONTINUOUS
 10
433.5740324519
 20
-0.2156942894
 40
499.9999999936
100
AcDbArc
 50
175.8513860732
 51
184.1486139178
  0
ARC
  5
65D
100
AcDbEntity
  8
RACCORDO
100
AcDbCircle
 62
253
  6
CONTINUOUS
 10
452.3240324584
 20
-0.2156942892
 40
499.975167516
100
AcDbArc
 50
177.3977353854
 51
182.6022646146
  0
ARC
  5
65E
100
AcDbEntity
  8
SUPERFICI
100
AcDbCircle
 62
253
  6
CONTINUOUS
 10
433.5740324424
 20
-0.2156942896
 40
499.8556839348
100
AcDbArc
 50
175.8513860633
 51
177.3149713422
  0
ARC
  5
65F
100
AcDbEntity
  8
SUPERFICI
100
AcDbCircle
 62
253
  6
CONTINUOUS
 10
433.5740324424
 20
-0.2156942896
 40
499.8556839348
100
AcDbArc
 50
182.6850286578
 51
184.1486139367
  0
ARC
  5
660
100
AcDbEntity
  8
0
100
AcDbCircle
 62
253
  6
CONTINUOUS
 10
433.5740324424
 20
-0.2156942896
 40
499.8556104433
100
AcDbArc
 50
177.3149713422
 51
182.6850286578
  0
ARC
  5
661
100
AcDbEntity
  8
0
100
AcDbCircle
 62
7
  6
CONTINUOUS
 10
76.7914251064
 20
35.1965566378
 40
10.5
100
AcDbArc
 50
4.148614408
 51
87.2319769518
  0
ARC
  5
662
100
AcDbEntity
  8
SUPERFICI
100
AcDbCircle
 62
253
  6
CONTINUOUS
 10
76.7914251064
 20
35.1965566378
 40
10.355643705
100
AcDbArc
 50
4.1486139367
 51
87.2319769951
  0
ARC
  5
663
100
AcDbEntity
  8
RACCORDO
100
AcDbCircle
 62
253
  6
CONTINUOUS
 10
67.7100704363
 20
22.4128979486
 40
2.0744822834
100
AcDbArc
 50
32.4210143688
 51
87.6302313829
  0
ARC
  5
664
100
AcDbEntity
  8
RACCORDO
100
AcDbCircle
 62
7
  6
CONTINUOUS
 10
67.9876291629
 20
22.9013789792
 40
1.6
100
AcDbArc
 50
2.6584793461
 51
87.6186023797
  0
ARC
  5
665
100
AcDbEntity
  8
RACCORDO
100
AcDbCircle
 62
253
  6
CONTINUOUS
 10
67.7100704363
 20
22.4128979486
 40
1.575167516
100
AcDbArc
 50
2.6022646146
 51
87.6302313829
  0
ARC
  5
666
100
AcDbEntity
  8
RACCORDO
100
AcDbCircle
 62
7
  6
CONTINUOUS
 10
-80.5683604665
 20
46.6840447571
 40
0.5
100
AcDbArc
 50
0.0
 51
87.0
  0
ARC
  5
667
100
AcDbEntity
  8
RACCORDO
100
AcDbCircle
 62
7
  6
CONTINUOUS
 10
-80.5683604665
 20
-47.1154333356
 40
0.5
100
AcDbArc
 50
273.0
 51
360.0
  0
ARC
  5
668
100
AcDbEntity
  8
0
100
AcDbCircle
 62
7
  6
CONTINUOUS
 10
-79.5683604665
 20
25.1843057108
 40
0.2
100
AcDbArc
 50
270.0
 51
360.0
  0
ARC
  5
669
100
AcDbEntity
  8
0
100
AcDbCircle
 62
7
  6
CONTINUOUS
 10
-79.5683604665
 20
-25.6156942892
 40
0.2
100
AcDbArc
 50
0.0
 51
90.0
  0
ARC
  5
66A
100
AcDbEntity
  8
RACCORDO
100
AcDbCircle
 62
7
  6
CONTINUOUS
 10
-88.9539994065
 20
24.8490861006
 40
0.1
100
AcDbArc
 50
93.0
 51
204.9999998995
  0
ARC
  5
66B
100
AcDbEntity
  8
RACCORDO
100
AcDbCircle
 62
7
  6
CONTINUOUS
 10
-88.9539994065
 20
-25.2804746791
 40
0.1
100
AcDbArc
 50
155.0000001005
 51
267.0
  0
ELLIPSE
  5
66C
100
AcDbEntity
  8
RACCORDO
100
AcDbEllipse
 62
7
  6
CONTINUOUS
 10
-44.575144134
 20
-22.1148708816
 30
0.0
 11
0.4254277461
 21
0.4254277461
 31
0.0
 40
0.9972646886
 41
2.3575640181
 42
3.9256212891
  0
ELLIPSE
  5
66D
100
AcDbEntity
  8
RACCORDO
100
AcDbEllipse
 62
7
  6
CONTINUOUS
 10
66.7232090508
 20
-22.1148708816
 30
0.0
 11
-0.4254277461
 21
0.4254277461
 31
0.0
 40
0.9972646886
 41
2.3575640181
 42
3.9256212891
  0
ELLIPSE
  5
66E
100
AcDbEntity
  8
RACCORDO
100
AcDbEllipse
 62
7
  6
CONTINUOUS
 10
66.7232090508
 20
21.6834823032
 30
0.0
 11
-0.4254277461
 21
-0.4254277461
 31
0.0
 40
0.9972646886
 41
2.3575640181
 42
3.9256212891
  0
ELLIPSE
  5
66F
100
AcDbEntity
  8
RACCORDO
100
AcDbEllipse
 62
7
  6
CONTINUOUS
 10
-44.575144134
 20
21.6834823032
 30
0.0
 11
-0.4254277461
 21
0.4254277461
 31
0.0
 40
0.9972646886
 41
-0.7840286355
 42
0.7840286355
  0
ELLIPSE
  5
670
100
AcDbEntity
  8
0
100
AcDbEllipse
 62
7
  6
CONTINUOUS
 10
-79.5683604665
 20
-26.2071327333
 30
0.0
 11
0.1417119467
 21
0.1422961243
 31
0.0
 40
0.9918061237
 41
-0.7833412615
 42
0.7350951877
  0
ELLIPSE
  5
671
100
AcDbEntity
  8
0
100
AcDbEllipse
 62
7
  6
CONTINUOUS
 10
-79.5683604665
 20
25.7757441549
 30
0.0
 11
-0.1417119467
 21
0.1422961243
 31
0.0
 40
0.9918061237
 41
-3.8766878413
 42
-2.358251392
  0
ENDSEC
  0
SECTION
  2
OBJECTS
  0
DICTIONARY
  5
C
100
AcDbDictionary
280
0
281
1
  3
ACAD_GROUP
350
D
  3
ACAD_MLINESTYLE
350
17
  3
ACAD_LAYOUT
350
1A
  3
ACAD_PLOTSETTINGS
350
19
  3
ACAD_PLOTSTYLENAME
350
E
  0
DICTIONARY
  5
D
102
{ACAD_REACTORS
330
C
102
}
100
AcDbDictionary
280
0
281
1
  0
ACDBDICTIONARYWDFLT
  5
E
102
{ACAD_REACTORS
330
C
102
}
100
AcDbDictionary
281
1
  3
Normal
350
F
100
AcDbDictionaryWithDefault
340
F
  0
DICTIONARY
  5
17
102
{ACAD_REACTORS
330
C
102
}
100
AcDbDictionary
280
0
281
1
  3
Standard
350
18
  0
DICTIONARY
  5
19
102
{ACAD_REACTORS
330
C
102
}
100
AcDbDictionary
281
1
  0
DICTIONARY
  5
1A
102
{ACAD_REACTORS
330
C
102
}
100
AcDbDictionary
281
1
  3
Model
350
672
  3
Layout1
350
673
  0
ACDBPLACEHOLDER
  5
F
102
{ACAD_REACTORS
330
E
102
}
  0
MLINESTYLE
  5
18
102
{ACAD_REACTORS
330
17
102
}
100
AcDbMlineStyle
  2
STANDARD
 70
0
  3

 62
256
 51
90.0
 52
90.0
 71
2
 49
0.5
 62
256
  6
BYLAYER
 49
-0.5
 62
256
  6
BYLAYER
  0
LAYOUT
  5
672
102
{ACAD_REACTORS
330
1A
102
}
100
AcDbPlotSettings
  1

  2
none_device
  4
ISO_A4_(297.00_x_210.00_MM)
  6

 40
0.0
 41
0.0
 42
0.0
 43
0.0
 44
297.0
 45
210.0
 46
0.0
 47
0.0
 48
0.0
 49
0.0
140
0.0
141
0.0
142
1.0
143
1.0
 70
1024
 72
1
 73
0
 74
0
  7

 75
0
147
1.0
148
0.0
149
0.0
100
AcDbLayout
  1
Model
 70
0
 71
0
 10
0.0
 20
0.0
 11
297.0
 21
210.0
 12
0.0
 22
0.0
 32
0.0
 14
0.0
 24
0.0
 34
0.0
 15
0.0
 25
0.0
 35
0.0
146
0.0
 13
0.0
 23
0.0
 33
0.0
 16
1.0
 26
0.0
 36
0.0
 17
0.0
 27
1.0
 37
0.0
 76
0
330
219
345
0
346
0
  0
LAYOUT
  5
673
102
{ACAD_REACTORS
330
1A
102
}
100
AcDbPlotSettings
  1

  2
none_device
  4
ISO_A4_(297.00_x_210.00_MM)
  6

 40
0.0
 41
0.0
 42
0.0
 43
0.0
 44
297.0
 45
210.0
 46
0.0
 47
0.0
 48
0.0
 49
0.0
140
0.0
141
0.0
142
1.0
143
1.0
 70
0
 72
1
 73
0
 74
0
  7

 75
0
147
1.0
148
0.0
149
0.0
100
AcDbLayout
  1
Layout1
 70
0
 71
1
 10
0.0
 20
0.0
 11
297.0
 21
210.0
 12
0.0
 22
0.0
 32
0.0
 14
0.0
 24
0.0
 34
0.0
 15
0.0
 25
0.0
 35
0.0
146
0.0
 13
0.0
 23
0.0
 33
0.0
 16
1.0
 26
0.0
 36
0.0
 17
0.0
 27
1.0
 37
0.0
 76
0
330
21A
345
0
346
0
  0
ENDSEC
  0
EOF
