  0
SECTION
  2
HEADER
  9
$ACADVER
  1
AC1021
  9
$DWGCODEPAGE
  3
ANSI_1252
  9
$EXTMAX
 10
297.0
 20
210.0
 30
0.0
  9
$EXTMIN
 10
0.0
 20
0.0
 30
0.0
  9
$LIMMIN
 10
0.0
 20
0.0
  9
$LIMMAX
 10
297.0
 20
210.0
  9
$VIEWCTR
 10
148.5
 20
105.0
  9
$VIEWSIZE
 40
210.0
  9
$CLAYER
  8
0
  9
$LTSCALE
 40
16.335
  9
$CELTYPE
  6
BYLAYER
  9
$DIMSCALE
 40
1.0
  9
$DIMASZ
 40
3.0
  9
$DIMEXO
 40
0.5
  9
$DIMDLI
 40
11.286
  9
$DIMEXE
 40
1.5
  9
$DIMCEN
 40
2.673
  9
$DIMLFAC
 40
1.0
  9
$DIMBLK
  1
_FILLED
  9
$DIMALT
 70
0
  9
$DIMALTF
 40
25.4
  9
$DIMTXT
 40
3.0
  9
$DIMTOL
 70
1
  9
$DIMLIM
 70
0
  9
$DIMTFAC
 40
1.0
  9
$DIMTP
 40
0.01
  9
$DIMTM
 40
0.01
  9
$DIMGAP
 40
0.625
  9
$DIMDSEP
 70
44
  9
$AUNITS
 70
0
  9
$PDMODE
 70
3
  9
$PDSIZE
 40
3.0
  9
$HANDSEED
  5
424
  9
$TILEMODE
 70
1
  9
$MEASUREMENT
 70
1
  9
$INSUNITS
 70
4
  0
ENDSEC
  0
SECTION
  2
CLASSES
  0
CLASS
  1
ACDBDICTIONARYWDFLT
  2
AcDbDictionaryWithDefault
  3
AutoCAD 2000
 90
0
 91
1
280
0
281
0
  0
CLASS
  1
ACDBPLACEHOLDER
  2
AcDbPlaceHolder
  3
AutoCAD 2000
 90
0
 91
1
280
0
281
0
  0
CLASS
  1
LAYOUT
  2
AcDbLayout
  3
AutoCAD 2000
 90
0
 91
0
280
0
281
0
  0
ENDSEC
  0
SECTION
  2
TABLES
  0
TABLE
  2
VPORT
  5
8
100
AcDbSymbolTable
 70
2
  0
VPORT
  5
1F4
100
AcDbSymbolTableRecord
100
AcDbViewportTableRecord
  2
*ACTIVE
 70
0
 10
0.0
 20
0.0
 11
1.0
 21
1.0
 12
148.5
 22
105.0
 13
0.0
 23
0.0
 14
1.0
 24
1.0
 15
0.0
 25
0.0
 16
0.0
 26
0.0
 36
1.0
 17
0.0
 27
0.0
 37
0.0
 40
210.0
 41
1.4142857143
 42
50.0
 43
0.0
 44
0.0
 50
0.0
 51
0.0
 71
0
 72
100
 73
1
 74
1
 75
0
 76
0
 77
0
 78
0
  0
ENDTAB
  0
TABLE
  2
LTYPE
  5
5
100
AcDbSymbolTable
 70
6
  0
LTYPE
  5
14
100
AcDbSymbolTableRecord
100
AcDbLinetypeTableRecord
  2
BYBLOCK
 70
0
  3

 72
65
 73
0
 40
0.0
  0
LTYPE
  5
15
100
AcDbSymbolTableRecord
100
AcDbLinetypeTableRecord
  2
BYLAYER
 70
0
  3

 72
65
 73
0
 40
0.0
  0
LTYPE
  5
16
100
AcDbSymbolTableRecord
100
AcDbLinetypeTableRecord
  2
CONTINUOUS
 70
64
  3
Solid line
 72
65
 73
0
 40
0.0
  0
LTYPE
  5
1F5
100
AcDbSymbolTableRecord
100
AcDbLinetypeTableRecord
  2
CENTER
 70
64
  3
____ _ ____ _ ____ _ ____ _ ____ _ ____ _ ____
 72
65
 73
4
 40
0.6
 49
0.375
 74
0
 49
-0.075
 74
0
 49
0.075
 74
0
 49
-0.075
 74
0
  0
LTYPE
  5
1F6
100
AcDbSymbolTableRecord
100
AcDbLinetypeTableRecord
  2
HIDDEN
 70
64
  3
- - - - - - - - - - - - - - - - - - - -
 72
65
 73
2
 40
0.2
 49
0.1
 74
0
 49
-0.1
 74
0
  0
LTYPE
  5
1F7
100
AcDbSymbolTableRecord
100
AcDbLinetypeTableRecord
  2
PHANTOM
 70
64
  3
_____ _ _ _____ _ _ _____ _ _ _____
 72
65
 73
6
 40
0.8
 49
0.45
 74
0
 49
-0.05
 74
0
 49
0.1
 74
0
 49
-0.05
 74
0
 49
0.1
 74
0
 49
-0.05
 74
0
  0
LTYPE
  5
1F8
100
AcDbSymbolTableRecord
100
AcDbLinetypeTableRecord
  2
DOT
 70
64
  3
. . . . . . . . . . . . . . . . . . . .
 72
65
 73
2
 40
0.2
 49
0.1
 74
0
 49
-0.1
 74
0
  0
LTYPE
  5
1F9
100
AcDbSymbolTableRecord
100
AcDbLinetypeTableRecord
  2
DASHED
 70
64
  3
- - - - - - - - - - - - - - - - - - - -
 72
65
 73
2
 40
0.2
 49
0.1
 74
0
 49
-0.1
 74
0
  0
ENDTAB
  0
TABLE
  2
LAYER
  5
2
100
AcDbSymbolTable
 70
36
  0
LAYER
  5
10
100
AcDbSymbolTableRecord
100
AcDbLayerTableRecord
  2
0
 70
0
 62
7
  6
CONTINUOUS
370
-3
390
F
  0
LAYER
  5
1FA
100
AcDbSymbolTableRecord
100
AcDbLayerTableRecord
  2
DEFAULT_1
 70
0
 62
7
  6
CENTER
370
-3
390
F
  0
LAYER
  5
1FB
100
AcDbSymbolTableRecord
100
AcDbLayerTableRecord
  2
DEFAULT_2
 70
0
 62
7
  6
HIDDEN
370
-3
390
F
  0
LAYER
  5
1FC
100
AcDbSymbolTableRecord
100
AcDbLayerTableRecord
  2
DEFAULT_3
 70
0
 62
7
  6
PHANTOM
370
-3
390
F
  0
LAYER
  5
1FD
100
AcDbSymbolTableRecord
100
AcDbLayerTableRecord
  2
ASSI
 70
0
 62
7
  6
CONTINUOUS
370
-3
390
F
  0
LAYER
  5
1FE
100
AcDbSymbolTableRecord
100
AcDbLayerTableRecord
  2
COLORE_MATERIALE
 70
0
 62
7
  6
CONTINUOUS
370
-3
390
F
  0
LAYER
  5
1FF
100
AcDbSymbolTableRecord
100
AcDbLayerTableRecord
  2
COORDINATE
 70
0
 62
7
  6
CONTINUOUS
370
-3
390
F
  0
LAYER
  5
200
100
AcDbSymbolTableRecord
100
AcDbLayerTableRecord
  2
COORD_ORIGINE
 70
0
 62
7
  6
CONTINUOUS
370
-3
390
F
  0
LAYER
  5
201
100
AcDbSymbolTableRecord
100
AcDbLayerTableRecord
  2
COPY
 70
0
 62
7
  6
CONTINUOUS
370
-3
390
F
  0
LAYER
  5
202
100
AcDbSymbolTableRecord
100
AcDbLayerTableRecord
  2
COSMETICI
 70
0
 62
7
  6
CONTINUOUS
370
-3
390
F
  0
LAYER
  5
203
100
AcDbSymbolTableRecord
100
AcDbLayerTableRecord
  2
CURVE
 70
0
 62
7
  6
CONTINUOUS
370
-3
390
F
  0
LAYER
  5
204
100
AcDbSymbolTableRecord
100
AcDbLayerTableRecord
  2
DRAFT
 70
0
 62
7
  6
CONTINUOUS
370
-3
390
F
  0
LAYER
  5
205
100
AcDbSymbolTableRecord
100
AcDbLayerTableRecord
  2
IGS
 70
0
 62
7
  6
CONTINUOUS
370
-3
390
F
  0
LAYER
  5
206
100
AcDbSymbolTableRecord
100
AcDbLayerTableRecord
  2
NOTE
 70
0
 62
7
  6
CONTINUOUS
370
-3
390
F
  0
LAYER
  5
207
100
AcDbSymbolTableRecord
100
AcDbLayerTableRecord
  2
PIANI
 70
0
 62
7
  6
CONTINUOUS
370
-3
390
F
  0
LAYER
  5
208
100
AcDbSymbolTableRecord
100
AcDbLayerTableRecord
  2
PIANI_ORIGINE
 70
0
 62
7
  6
CONTINUOUS
370
-3
390
F
  0
LAYER
  5
209
100
AcDbSymbolTableRecord
100
AcDbLayerTableRecord
  2
PIANI_RIFERIMENTO
 70
0
 62
7
  6
CONTINUOUS
370
-3
390
F
  0
LAYER
  5
20A
100
AcDbSymbolTableRecord
100
AcDbLayerTableRecord
  2
PUNTI
 70
0
 62
7
  6
CONTINUOUS
370
-3
390
F
  0
LAYER
  5
20B
100
AcDbSymbolTableRecord
100
AcDbLayerTableRecord
  2
RACCORDO
 70
0
 62
7
  6
CONTINUOUS
370
-3
390
F
  0
LAYER
  5
20C
100
AcDbSymbolTableRecord
100
AcDbLayerTableRecord
  2
SIMBOLI
 70
0
 62
7
  6
CONTINUOUS
370
-3
390
F
  0
LAYER
  5
20D
100
AcDbSymbolTableRecord
100
AcDbLayerTableRecord
  2
SMUSSO
 70
0
 62
7
  6
CONTINUOUS
370
-3
390
F
  0
LAYER
  5
20E
100
AcDbSymbolTableRecord
100
AcDbLayerTableRecord
  2
SNAPLINE
 70
0
 62
7
  6
CONTINUOUS
370
-3
390
F
  0
LAYER
  5
20F
100
AcDbSymbolTableRecord
100
AcDbLayerTableRecord
  2
SOLIDO
 70
0
 62
7
  6
CONTINUOUS
370
-3
390
F
  0
LAYER
  5
210
100
AcDbSymbolTableRecord
100
AcDbLayerTableRecord
  2
SUPERFICI
 70
0
 62
7
  6
CONTINUOUS
370
-3
390
F
  0
LAYER
  5
211
100
AcDbSymbolTableRecord
100
AcDbLayerTableRecord
  2
TRASH
 70
0
 62
7
  6
CONTINUOUS
370
-3
390
F
  0
ENDTAB
  0
TABLE
  2
STYLE
  5
3
100
AcDbSymbolTable
 70
1
  0
STYLE
  5
11
100
AcDbSymbolTableRecord
100
AcDbTextStyleTableRecord
  2
STANDARD
 70
0
 40
0.0
 41
0.8
 50
0.0
 71
0
 42
0.2
  3
txt
  4

  0
STYLE
  5
212
100
AcDbSymbolTableRecord
100
AcDbTextStyleTableRecord
  2
TEXTSTYLE_1
 70
0
 40
0.0
 41
0.8
 50
0.0
 71
0
 42
0.2
  3
gdt
  4

  0
ENDTAB
  0
TABLE
  2
VIEW
  5
6
100
AcDbSymbolTable
 70
0
  0
ENDTAB
  0
TABLE
  2
UCS
  5
7
100
AcDbSymbolTable
 70
0
  0
ENDTAB
  0
TABLE
  2
APPID
  5
9
100
AcDbSymbolTable
 70
1
  0
APPID
  5
213
100
AcDbSymbolTableRecord
100
AcDbRegAppTableRecord
  2
ACAD
 70
0
  0
ENDTAB
  0
TABLE
  2
BLOCK_RECORD
  5
1
100
AcDbSymbolTable
 70
0
  0
BLOCK_RECORD
  5
214
100
AcDbSymbolTableRecord
100
AcDbBlockTableRecord
  2
*Model_Space
  0
BLOCK_RECORD
  5
215
100
AcDbSymbolTableRecord
100
AcDbBlockTableRecord
  2
*Paper_Space
  0
BLOCK_RECORD
  5
216
100
AcDbSymbolTableRecord
100
AcDbBlockTableRecord
  2
_FILLED
  0
BLOCK_RECORD
  5
217
100
AcDbSymbolTableRecord
100
AcDbBlockTableRecord
  2
*D0
  0
BLOCK_RECORD
  5
218
100
AcDbSymbolTableRecord
100
AcDbBlockTableRecord
  2
*D1
  0
BLOCK_RECORD
  5
219
100
AcDbSymbolTableRecord
100
AcDbBlockTableRecord
  2
*D2
  0
ENDTAB
  0
TABLE
  2
DIMSTYLE
  5
A
100
AcDbSymbolTable
 70
1
100
AcDbDimStyleTable
 71
0
  0
DIMSTYLE
105
21A
100
AcDbSymbolTableRecord
100
AcDbDimStyleTableRecord
  2
STANDARD
 70
0
  3

  4

 40
1.0
 41
3.0
 42
0.5
 43
0.38
 44
1.5
 45
0.0
 46
0.0
 47
0.01
 48
0.01
140
3.0
141
0.09
142
0.0
143
25.4
144
1.0
145
0.0
146
1.0
147
0.625
 71
1.0
 72
0.0
 73
0
 74
0
 75
0
 76
0
 77
1
 78
8
170
0
171
1
172
0
173
0
174
0
175
0
176
0
177
0
178
0
270
2
271
2
272
2
273
2
274
2
275
0
280
0
281
0
282
0
283
1
284
8
285
0
286
0
287
3
288
0
340
11
278
44
341
216
342
216
343
216
344
216
  0
DIMSTYLE
105
21B
100
AcDbSymbolTableRecord
100
AcDbDimStyleTableRecord
  2
DIMSTYLE_1
 70
0
  3

  4

 40
1.0
 41
3.0
 42
0.5
 43
0.38
 44
1.5
 45
0.0
 46
0.0
 47
0.0
 48
0.0
140
3.0
141
0.09
142
0.0
143
25.4
144
1.0
145
0.0
146
1.0
147
0.75
 71
0.0
 72
0.0
 73
0
 74
0
 75
0
 76
0
 77
1
 78
8
170
0
171
1
172
0
173
0
174
0
175
0
176
0
177
0
178
0
270
2
271
2
272
2
273
2
274
2
275
0
280
0
281
0
282
0
283
1
284
8
285
0
286
0
287
3
288
0
340
11
278
44
341
216
342
216
343
216
344
216
  0
ENDTAB
  0
ENDSEC
  0
SECTION
  2
BLOCKS
  0
BLOCK
  5
20
100
AcDbEntity
  8
0
100
AcDbBlockBegin
  2
*Model_Space
 70
0
 10
0.0
 20
0.0
 30
0.0
  3
*Model_Space
  1

  0
ENDBLK
  5
21
100
AcDbEntity
  8
0
100
AcDbBlockEnd
  0
BLOCK
  5
1C
100
AcDbEntity
  8
0
100
AcDbBlockBegin
  2
*Paper_Space
 70
0
 10
0.0
 20
0.0
 30
0.0
  3
*Paper_Space
  1

  0
ENDBLK
  5
1D
100
AcDbEntity
  8
0
100
AcDbBlockEnd
  0
BLOCK
  5
21C
100
AcDbEntity
  8
0
100
AcDbBlockBegin
  2
_FILLED
 70
64
 10
0.0
 20
0.0
  3
_FILLED
  1

  0
SOLID
  5
21D
100
AcDbEntity
  8
0
  6
BYBLOCK
 62
0
100
AcDbTrace
 10
0.0
 20
0.0
 11
-1.0
 21
0.3166666667
 12
-1.0
 22
-0.3166666667
 13
-1.0
 23
-0.3166666667
  0
ENDBLK
  5
21E
100
AcDbEntity
  8
0
  6
BYBLOCK
 62
0
100
AcDbBlockEnd
  0
BLOCK
  5
21F
100
AcDbEntity
  8
0
100
AcDbBlockBegin
 62
7
  6
CONTINUOUS
  2
*D0
 70
65
 10
0.0
 20
0.0
  3
*D0
  1

  0
MTEXT
  5
220
100
AcDbEntity
  8
0
100
AcDbMText
 62
7
  6
CONTINUOUS
  7
STANDARD
 71
2
 72
1
 10
-0.3876831359
 20
34.0130922693
 30
0.0
 11
1.0
 21
0.0
 31
0.0
 44
0.9
  1
22,2
 40
3.0
 41
13.1785714286
  0
LINE
  5
221
100
AcDbEntity
  8
0
100
AcDbLine
 62
7
  6
CONTINUOUS
 10
-11.4876831359
 20
9.5244371975
 11
-11.4876831359
 21
31.7630922693
  0
LINE
  5
222
100
AcDbEntity
  8
0
100
AcDbLine
 62
7
  6
CONTINUOUS
 10
10.7123168641
 20
9.5244371975
 11
10.7123168641
 21
31.7630922693
  0
LINE
  5
223
100
AcDbEntity
  8
0
100
AcDbLine
 62
7
  6
CONTINUOUS
 10
-11.4876831359
 20
30.2630922693
 11
-0.3876831359
 21
30.2630922693
  0
LINE
  5
224
100
AcDbEntity
  8
0
100
AcDbLine
 62
7
  6
CONTINUOUS
 10
10.7123168641
 20
30.2630922693
 11
-0.3876831359
 21
30.2630922693
  0
INSERT
  5
225
100
AcDbEntity
  8
0
100
AcDbBlockReference
 62
7
  6
CONTINUOUS
  2
_FILLED
 10
-11.4876831359
 20
30.2630922693
 41
3.0
 42
3.0
 43
3.0
 50
180.0
  0
INSERT
  5
226
100
AcDbEntity
  8
0
100
AcDbBlockReference
 62
7
  6
CONTINUOUS
  2
_FILLED
 10
10.7123168641
 20
30.2630922693
 41
3.0
 42
3.0
 43
3.0
 50
0.0
  0
ENDBLK
  5
227
100
AcDbEntity
  8
0
  6
BYBLOCK
 62
0
100
AcDbBlockEnd
  0
BLOCK
  5
228
100
AcDbEntity
  8
0
100
AcDbBlockBegin
 62
7
  6
CONTINUOUS
  2
*D1
 70
65
 10
0.0
 20
0.0
  3
*D1
  1

  0
MTEXT
  5
229
100
AcDbEntity
  8
0
100
AcDbMText
 62
7
  6
CONTINUOUS
  7
STANDARD
 71
2
 72
1
 10
14.9623168641
 20
0.0130922693
 30
0.0
 11
0.0
 21
1.0
 31
0.0
 44
0.9
  1
44,5
 40
3.0
 41
12.8571428571
  0
LINE
  5
22A
100
AcDbEntity
  8
0
100
AcDbLine
 62
7
  6
CONTINUOUS
 10
10.7126974638
 20
22.2630922693
 11
20.2123168641
 21
22.2630922693
  0
LINE
  5
22B
100
AcDbEntity
  8
0
100
AcDbLine
 62
7
  6
CONTINUOUS
 10
10.7126974638
 20
-22.2369077307
 11
20.2123168641
 21
-22.2369077307
  0
LINE
  5
22C
100
AcDbEntity
  8
0
100
AcDbLine
 62
7
  6
CONTINUOUS
 10
18.7123168641
 20
22.2630922693
 11
18.7123168641
 21
0.0130922693
  0
LINE
  5
22D
100
AcDbEntity
  8
0
100
AcDbLine
 62
7
  6
CONTINUOUS
 10
18.7123168641
 20
-22.2369077307
 11
18.7123168641
 21
0.0130922693
  0
INSERT
  5
22E
100
AcDbEntity
  8
0
100
AcDbBlockReference
 62
7
  6
CONTINUOUS
  2
_FILLED
 10
18.7123168641
 20
22.2630922693
 41
3.0
 42
3.0
 43
3.0
 50
90.0
  0
INSERT
  5
22F
100
AcDbEntity
  8
0
100
AcDbBlockReference
 62
7
  6
CONTINUOUS
  2
_FILLED
 10
18.7123168641
 20
-22.2369077307
 41
3.0
 42
3.0
 43
3.0
 50
270.0
  0
ENDBLK
  5
230
100
AcDbEntity
  8
0
  6
BYBLOCK
 62
0
100
AcDbBlockEnd
  0
BLOCK
  5
231
100
AcDbEntity
  8
0
100
AcDbBlockBegin
 62
7
  6
CONTINUOUS
  2
*D2
 70
65
 10
0.0
 20
0.0
  3
*D2
  1

  0
MTEXT
  5
232
100
AcDbEntity
  8
0
100
AcDbMText
 62
7
  6
CONTINUOUS
  7
STANDARD
 71
1
 72
1
 10
-25.9940880009
 20
34.0130922693
 30
0.0
 11
1.0
 21
0.0
 31
0.0
 44
0.9
  1
9,95
 40
3.0
 41
12.8571428571
  0
LINE
  5
233
100
AcDbEntity
  8
0
100
AcDbLine
 62
7
  6
CONTINUOUS
 10
-27.910504796
 20
13.6760344093
 11
-27.910504796
 21
31.7630922693
  0
LINE
  5
234
100
AcDbEntity
  8
0
100
AcDbLine
 62
7
  6
CONTINUOUS
 10
-37.8567567373
 20
0.9108607234
 11
-37.8567567373
 21
31.7630922693
  0
LINE
  5
235
100
AcDbEntity
  8
0
100
AcDbLine
 62
7
  6
CONTINUOUS
 10
-27.910504796
 20
30.2630922693
 11
-32.8836307666
 21
30.2630922693
  0
LINE
  5
236
100
AcDbEntity
  8
0
100
AcDbLine
 62
7
  6
CONTINUOUS
 10
-32.8836307666
 20
30.2630922693
 11
-17.4226594294
 21
30.2630922693
  0
LINE
  5
237
100
AcDbEntity
  8
0
100
AcDbLine
 62
7
  6
CONTINUOUS
 10
-37.8567567373
 20
30.2630922693
 11
-32.8836307666
 21
30.2630922693
  0
INSERT
  5
238
100
AcDbEntity
  8
0
100
AcDbBlockReference
 62
7
  6
CONTINUOUS
  2
_FILLED
 10
-27.910504796
 20
30.2630922693
 41
3.0
 42
3.0
 43
3.0
  0
INSERT
  5
239
100
AcDbEntity
  8
0
100
AcDbBlockReference
 62
7
  6
CONTINUOUS
  2
_FILLED
 10
-37.8567567373
 20
30.2630922693
 41
3.0
 42
3.0
 43
3.0
 50
180.0
  0
ENDBLK
  5
23A
100
AcDbEntity
  8
0
  6
BYBLOCK
 62
0
100
AcDbBlockEnd
  0
ENDSEC
  0
SECTION
  2
ENTITIES
  0
DIMENSION
  5
23B
100
AcDbEntity
  8
0
100
AcDbDimension
 62
7
  6
CONTINUOUS
  2
*D0
 10
10.7123168641
 20
30.2630922693
 11
-0.8162547526
 21
30.2630922693
 70
160
 71
2
 42
22.2
  3
DIMSTYLE_1
100
AcDbAlignedDimension
 13
-11.4876831359
 23
9.0244371975
 14
10.7123168641
 24
9.0244371975
100
AcDbRotatedDimension
  0
DIMENSION
  5
23C
100
AcDbEntity
  8
0
100
AcDbDimension
 62
7
  6
CONTINUOUS
  2
*D1
 10
18.7123168641
 20
-22.2369077307
 11
18.7123168641
 21
-0.4154786506
 70
160
 71
2
 42
44.5
  3
DIMSTYLE_1
100
AcDbAlignedDimension
 13
10.2126974638
 23
22.2630922693
 14
10.2126974638
 24
-22.2369077307
 50
270.0
100
AcDbRotatedDimension
  0
DIMENSION
  5
23D
100
AcDbEntity
  8
0
100
AcDbDimension
 62
7
  6
CONTINUOUS
  2
*D2
 10
-37.8567567373
 20
30.2630922693
 11
-22.1369448051
 21
30.2630922693
 70
160
 71
1
 42
9.9462519413
  3
DIMSTYLE_1
100
AcDbAlignedDimension
 13
-27.910504796
 23
13.1760344093
 14
-37.8567567373
 24
0.4108607234
 50
180.0
100
AcDbRotatedDimension
  0
LINE
  5
23E
100
AcDbEntity
  8
RACCORDO
100
AcDbLine
 62
7
  6
CONTINUOUS
 10
2.0189411911
 20
-22.2369077307
 11
3.4045818372
 21
-22.1111290604
  0
LINE
  5
23F
100
AcDbEntity
  8
RACCORDO
100
AcDbLine
 62
7
  6
CONTINUOUS
 10
-9.1810588089
 20
-22.2369077307
 11
-7.7954181628
 21
-22.1111290604
  0
LINE
  5
240
100
AcDbEntity
  8
RACCORDO
100
AcDbLine
 62
253
  6
CONTINUOUS
 10
10.2032309089
 20
-21.1235393987
 11
10.1747628738
 21
-21.1242238403
  0
LINE
  5
241
100
AcDbEntity
  8
RACCORDO
100
AcDbLine
 62
7
  6
CONTINUOUS
 10
10.2126974638
 20
-22.2369077307
 11
8.4056925371
 21
-22.2369077307
  0
LINE
  5
242
100
AcDbEntity
  8
DRAFT
100
AcDbLine
 62
7
  6
CONTINUOUS
 10
2.0189411911
 20
-22.2369077307
 11
-2.7943074629
 21
-22.2369077307
  0
LINE
  5
243
100
AcDbEntity
  8
RACCORDO
100
AcDbLine
 62
7
  6
CONTINUOUS
 10
-9.1810588089
 20
-22.2369077307
 11
-10.9880637356
 21
-22.2369077307
  0
LINE
  5
244
100
AcDbEntity
  8
RACCORDO
100
AcDbLine
 62
7
  6
CONTINUOUS
 10
-7.6222130821
 20
-22.1058882825
 11
-4.3531531897
 21
-22.1058882825
  0
LINE
  5
245
100
AcDbEntity
  8
RACCORDO
100
AcDbLine
 62
7
  6
CONTINUOUS
 10
3.5777869179
 20
-22.1058882825
 11
6.8468468103
 21
-22.1058882825
  0
LINE
  5
246
100
AcDbEntity
  8
RACCORDO
100
AcDbLine
 62
253
  6
CONTINUOUS
 10
10.1255258836
 20
-21.9751803205
 11
-10.9008921554
 21
-21.9751803205
  0
LINE
  5
247
100
AcDbEntity
  8
RACCORDO
100
AcDbLine
 62
7
  6
CONTINUOUS
 10
-2.7943074629
 20
-22.2369077307
 11
-4.179948109
 21
-22.1111290604
  0
LINE
  5
248
100
AcDbEntity
  8
RACCORDO
100
AcDbLine
 62
7
  6
CONTINUOUS
 10
8.4056925371
 20
-22.2369077307
 11
7.020051891
 21
-22.1111290604
  0
LINE
  5
249
100
AcDbEntity
  8
RACCORDO
100
AcDbLine
 62
253
  6
CONTINUOUS
 10
10.1747628738
 20
-21.1242238403
 11
10.1461048216
 21
-21.1246649562
  0
LINE
  5
24A
100
AcDbEntity
  8
RACCORDO
100
AcDbLine
 62
253
  6
CONTINUOUS
 10
10.1461048216
 20
-21.1246649562
 11
10.1173516035
 21
-21.1248612863
  0
LINE
  5
24B
100
AcDbEntity
  8
RACCORDO
100
AcDbLine
 62
253
  6
CONTINUOUS
 10
10.1173516
 20
-21.1248591089
 11
-10.8927178718
 21
-21.1248591089
  0
LINE
  5
24C
100
AcDbEntity
  8
RACCORDO
100
AcDbLine
 62
253
  6
CONTINUOUS
 10
-10.9214710939
 20
-21.1246649588
 11
-10.8927178753
 21
-21.1248612889
  0
LINE
  5
24D
100
AcDbEntity
  8
RACCORDO
100
AcDbLine
 62
253
  6
CONTINUOUS
 10
-10.9501291466
 20
-21.1242238429
 11
-10.9214710939
 21
-21.1246649588
  0
LWPOLYLINE
  5
24E
100
AcDbEntity
  8
RACCORDO
100
AcDbPolyline
 62
253
  6
CONTINUOUS
 90
49
 70
0
 10
-11.3926417229
 20
21.07689053
 10
-11.3921866174
 20
21.0790239411
 10
-11.3913181472
 20
21.0811555865
 10
-11.3900370308
 20
21.0832837021
 10
-11.3883443287
 20
21.0854065266
 10
-11.3862414417
 20
21.0875223033
 10
-11.3837301101
 20
21.089629281
 10
-11.3808124124
 20
21.0917257159
 10
-11.3774907633
 20
21.0938098732
 10
-11.3737679118
 20
21.0958800278
 10
-11.3696469389
 20
21.0979344666
 10
-11.3651312553
 20
21.0999714892
 10
-11.3602245981
 20
21.1019894098
 10
-11.3549310282
 20
21.1039865584
 10
-11.3492549265
 20
21.105961282
 10
-11.3432009906
 20
21.1079119464
 10
-11.3367742309
 20
21.1098369372
 10
-11.3299799661
 20
21.1117346612
 10
-11.3228238193
 20
21.113603548
 10
-11.315311713
 20
21.1154420507
 10
-11.3074498642
 20
21.1172486478
 10
-11.2992447794
 20
21.1190218442
 10
-11.2907032494
 20
21.1207601723
 10
-11.2818323431
 20
21.1224621935
 10
-11.2726394022
 20
21.1241264992
 10
-11.2631320348
 20
21.125751712
 10
-11.2533181093
 20
21.1273364869
 10
-11.2432057479
 20
21.1288795122
 10
-11.2328033195
 20
21.1303795109
 10
-11.2221194333
 20
21.1318352417
 10
-11.2111629315
 20
21.1332454997
 10
-11.1999428817
 20
21.1346091179
 10
-11.1884685697
 20
21.1359249676
 10
-11.1767494917
 20
21.13719196
 10
-11.1647953467
 20
21.1384090463
 10
-11.1526160279
 20
21.1395752193
 10
-11.140221615
 20
21.1406895139
 10
-11.1276223659
 20
21.1417510079
 10
-11.1148287076
 20
21.1427588228
 10
-11.1018512285
 20
21.1437121245
 10
-11.0887006687
 20
21.144610124
 10
-11.0753879118
 20
21.1454520782
 10
-11.0619239755
 20
21.1462372902
 10
-11.0483200028
 20
21.1469651103
 10
-11.0345872523
 20
21.147634936
 10
-11.0207370894
 20
21.1482462129
 10
-11.0067809767
 20
21.1487984353
 10
-10.9927304644
 20
21.149291146
 10
-10.9785971807
 20
21.1497239374
  0
LWPOLYLINE
  5
24F
100
AcDbEntity
  8
RACCORDO
100
AcDbPolyline
 62
253
  6
CONTINUOUS
 90
50
 70
0
 10
-11.3926417229
 20
-21.0507059914
 10
-11.3921866178
 20
-21.0528394025
 10
-11.3913181479
 20
-21.0549710479
 10
-11.3900370319
 20
-21.0570991636
 10
-11.3883443301
 20
-21.0592219882
 10
-11.3862414434
 20
-21.0613377649
 10
-11.3837301121
 20
-21.0634447426
 10
-11.3808124147
 20
-21.0655411777
 10
-11.3774907659
 20
-21.067625335
 10
-11.3737679146
 20
-21.0696954897
 10
-11.369646942
 20
-21.0717499285
 10
-11.3651312586
 20
-21.0737869512
 10
-11.3602246016
 20
-21.0758048719
 10
-11.3549310318
 20
-21.0778020205
 10
-11.3492549303
 20
-21.0797767442
 10
-11.3432009946
 20
-21.0817274086
 10
-11.336774235
 20
-21.0836523995
 10
-11.3299799704
 20
-21.0855501236
 10
-11.3228238237
 20
-21.0874190104
 10
-11.3153117174
 20
-21.0892575132
 10
-11.3074498687
 20
-21.0910641104
 10
-11.2992447841
 20
-21.0928373068
 10
-11.2907032541
 20
-21.094575635
 10
-11.2818323478
 20
-21.0962776563
 10
-11.2726394069
 20
-21.0979419621
 10
-11.2631320395
 20
-21.0995671749
 10
-11.253318114
 20
-21.1011519498
 10
-11.2432057525
 20
-21.1026949752
 10
-11.2328033241
 20
-21.104194974
 10
-11.2221194379
 20
-21.1056507048
 10
-11.211162936
 20
-21.1070609629
 10
-11.1999428861
 20
-21.1084245812
 10
-11.188468574
 20
-21.109740431
 10
-11.1767494959
 20
-21.1110074233
 10
-11.1647953508
 20
-21.1122245097
 10
-11.1526160318
 20
-21.1133906827
 10
-11.1402216188
 20
-21.1145049774
 10
-11.1276223695
 20
-21.1155664715
 10
-11.1148287111
 20
-21.1165742864
 10
-11.1018512318
 20
-21.1175275881
 10
-11.0887006718
 20
-21.1184255877
 10
-11.0753879147
 20
-21.1192675419
 10
-11.0619239783
 20
-21.120052754
 10
-11.0483200053
 20
-21.1207805741
 10
-11.0345872546
 20
-21.1214503998
 10
-11.0207370915
 20
-21.1220616768
 10
-11.0067809786
 20
-21.1226138992
 10
-10.992730466
 20
-21.1231066099
 10
-10.9785971822
 20
-21.1235394013
 10
-10.9501291466
 20
-21.1242238429
  0
LWPOLYLINE
  5
250
100
AcDbEntity
  8
RACCORDO
100
AcDbPolyline
 62
253
  6
CONTINUOUS
 90
12
 70
0
 10
-11.3756467838
 20
9.5035922693
 10
-11.3751890285
 20
9.5038655471
 10
-11.3743180115
 20
9.5041385988
 10
-11.3730344537
 20
9.5044111984
 10
-11.371339417
 20
9.5046831205
 10
-11.3692343038
 20
9.5049541399
 10
-11.366720856
 20
9.5052240326
 10
-11.3638011533
 20
9.5054925751
 10
-11.3604776114
 20
9.5057595453
 10
-11.3567529802
 20
9.5060247223
 10
-11.3526303415
 20
9.5062878866
 10
-11.3481131064
 20
9.5065488206
  0
LWPOLYLINE
  5
251
100
AcDbEntity
  8
RACCORDO
100
AcDbPolyline
 62
253
  6
CONTINUOUS
 90
14
 70
0
 10
-11.3756467838
 20
-9.4774077307
 10
-11.3751890285
 20
-9.4776810085
 10
-11.3743180115
 20
-9.4779540601
 10
-11.3730344537
 20
-9.4782266598
 10
-11.371339417
 20
-9.4784985818
 10
-11.3692343038
 20
-9.4787696013
 10
-11.3667208561
 20
-9.4790394939
 10
-11.3638011533
 20
-9.4793080365
 10
-11.3604776114
 20
-9.4795750067
 10
-11.3567529802
 20
-9.4798401836
 10
-11.3526303415
 20
-9.480103348
 10
-11.3481131064
 20
-9.480364282
 10
-11.3432050125
 20
-9.4806227697
 10
-11.3322328123
 20
-9.481131553
  0
LINE
  5
252
100
AcDbEntity
  8
RACCORDO
100
AcDbLine
 62
253
  6
CONTINUOUS
 10
-11.3983565088
 20
21.4739967634
 11
-11.3987550724
 21
21.4814788805
  0
LINE
  5
253
100
AcDbEntity
  8
RACCORDO
100
AcDbLine
 62
253
  6
CONTINUOUS
 10
-11.3979646829
 20
21.4654258254
 11
-11.3983565088
 21
21.4739967634
  0
LINE
  5
254
100
AcDbEntity
  8
RACCORDO
100
AcDbLine
 62
253
  6
CONTINUOUS
 10
-11.3975806053
 20
21.4557895115
 11
-11.3979646829
 21
21.4654258254
  0
LINE
  5
255
100
AcDbEntity
  8
RACCORDO
100
AcDbLine
 62
253
  6
CONTINUOUS
 10
-11.3970206342
 20
21.4393786201
 11
-11.3975806053
 21
21.4557895115
  0
LINE
  5
256
100
AcDbEntity
  8
RACCORDO
100
AcDbLine
 62
253
  6
CONTINUOUS
 10
-10.8988312097
 20
21.9602210722
 11
-10.8992354707
 21
21.972973677
  0
LINE
  5
257
100
AcDbEntity
  8
RACCORDO
100
AcDbLine
 62
253
  6
CONTINUOUS
 10
-11.39648275
 20
21.4206998791
 11
-11.3970206342
 21
21.4393786201
  0
LINE
  5
258
100
AcDbEntity
  8
RACCORDO
100
AcDbLine
 62
253
  6
CONTINUOUS
 10
-10.8982358974
 20
21.9369575531
 11
-10.8988312097
 21
21.9602210722
  0
LINE
  5
259
100
AcDbEntity
  8
RACCORDO
100
AcDbLine
 62
253
  6
CONTINUOUS
 10
-11.3958046755
 20
21.3924335769
 11
-11.39648275
 21
21.4206998791
  0
LINE
  5
25A
100
AcDbEntity
  8
RACCORDO
100
AcDbLine
 62
253
  6
CONTINUOUS
 10
-10.8974677453
 20
21.8984161033
 11
-10.8982358974
 21
21.9369575531
  0
LWPOLYLINE
  5
25B
100
AcDbEntity
  8
RACCORDO
100
AcDbPolyline
 62
253
  6
CONTINUOUS
 90
46
 70
0
 10
-11.3740756295
 20
0.4085182117
 10
-11.3739220605
 20
0.3997945149
 10
-11.3734641975
 20
0.3910814444
 10
-11.3727025982
 20
0.3823896139
 10
-11.3716381903
 20
0.3737296109
 10
-11.3702722704
 20
0.3651119842
 10
-11.3686065023
 20
0.3565472311
 10
-11.3666429152
 20
0.3480457843
 10
-11.3643839009
 20
0.3396179997
 10
-11.361832211
 20
0.331274143
 10
-11.358990954
 20
0.3230243782
 10
-11.3558635906
 20
0.3148787542
 10
-11.3524539305
 20
0.3068471934
 10
-11.3487661269
 20
0.298939479
 10
-11.3448046719
 20
0.2911652436
 10
-11.3405743912
 20
0.283533957
 10
-11.3360804376
 20
0.276054915
 10
-11.3313282852
 20
0.2687372279
 10
-11.3263237228
 20
0.2615898093
 10
-11.3210728463
 20
0.2546213657
 10
-11.315582052
 20
0.2478403853
 10
-11.3098580283
 20
0.2412551282
 10
-11.3039077476
 20
0.2348736159
 10
-11.297738458
 20
0.2287036218
 10
-11.2913576745
 20
0.2227526616
 10
-11.2847731694
 20
0.2170279842
 10
-11.2779929636
 20
0.211536563
 10
-11.2710253159
 20
0.2062850871
 10
-11.2638787138
 20
0.2012799533
 10
-11.2565618625
 20
0.1965272585
 10
-11.249083675
 20
0.1920327919
 10
-11.2414532603
 20
0.1878020283
 10
-11.2336799131
 20
0.1838401212
 10
-11.2257731024
 20
0.1801518968
 10
-11.2177424594
 20
0.1767418475
 10
-11.2095977663
 20
0.1736141273
 10
-11.2013489442
 20
0.1707725461
 10
-11.1930060412
 20
0.1682205651
 10
-11.1845792199
 20
0.1659612931
 10
-11.1760787449
 20
0.1639974819
 10
-11.1675149708
 20
0.1623315238
 10
-11.1588983292
 20
0.1609654482
 10
-11.1502393162
 20
0.1599009189
 10
-11.1415484794
 20
0.1591392327
 10
-11.1328364051
 20
0.1586813175
 10
-11.1241137057
 20
0.158527731
  0
LINE
  5
25C
100
AcDbEntity
  8
RACCORDO
100
AcDbLine
 62
253
  6
CONTINUOUS
 10
-11.3950288941
 20
21.3520827484
 11
-11.3958046755
 21
21.3924335769
  0
LWPOLYLINE
  5
25D
100
AcDbEntity
  8
RACCORDO
100
AcDbPolyline
 62
253
  6
CONTINUOUS
 90
55
 70
0
 10
-11.4008159723
 20
-21.4758654612
 10
-11.4005914524
 20
-21.4903794545
 10
-11.3999446285
 20
-21.5048811818
 10
-11.3988760472
 20
-21.5193583874
 10
-11.3973866116
 20
-21.5337988365
 10
-11.3954775805
 20
-21.5481903251
 10
-11.3931505672
 20
-21.5625206908
 10
-11.3904075384
 20
-21.5767778228
 10
-11.3872508121
 20
-21.5909496722
 10
-11.3836830563
 20
-21.605024262
 10
-11.379707286
 20
-21.6189896976
 10
-11.3753268612
 20
-21.6328341767
 10
-11.370545484
 20
-21.6465459989
 10
-11.3653671951
 20
-21.6601135763
 10
-11.3597963708
 20
-21.6735254426
 10
-11.3538377191
 20
-21.6867702632
 10
-11.3474962757
 20
-21.6998368448
 10
-11.3407774
 20
-21.7127141446
 10
-11.33368677
 20
-21.7253912797
 10
-11.3262303783
 20
-21.7378575365
 10
-11.3184145263
 20
-21.7501023796
 10
-11.3102458194
 20
-21.7621154606
 10
-11.301731161
 20
-21.7738866271
 10
-11.292877747
 20
-21.7854059311
 10
-11.2836930597
 20
-21.7966636374
 10
-11.274184861
 20
-21.807650232
 10
-11.2643611866
 20
-21.8183564299
 10
-11.2542303386
 20
-21.8287731832
 10
-11.2438008788
 20
-21.8388916884
 10
-11.2330816212
 20
-21.8487033943
 10
-11.2220816249
 20
-21.8582000088
 10
-11.2108101861
 20
-21.8673735062
 10
-11.1992768305
 20
-21.8762161338
 10
-11.1874913052
 20
-21.8847204185
 10
-11.1754635702
 20
-21.8928791733
 10
-11.1632037905
 20
-21.9006855031
 10
-11.1507223269
 20
-21.9081328105
 10
-11.1380297277
 20
-21.9152148018
 10
-11.1251367197
 20
-21.9219254919
 10
-11.112054199
 20
-21.9282592094
 10
-11.0987932217
 20
-21.9342106016
 10
-11.0853649951
 20
-21.9397746388
 10
-11.0717808674
 20
-21.944946619
 10
-11.0580523188
 20
-21.949722171
 10
-11.0441909517
 20
-21.954097259
 10
-11.0302084803
 20
-21.9580681856
 10
-11.0161167216
 20
-21.9616315948
 10
-11.0019275847
 20
-21.9647844752
 10
-10.9876530611
 20
-21.9675241622
 10
-10.9733052145
 20
-21.9698483405
 10
-10.9588961703
 20
-21.9717550458
 10
-10.944438106
 20
-21.9732426668
 10
-10.9299432403
 20
-21.9743099462
 10
-10.915423823
 20
-21.9749559822
 10
-10.9008921248
 20
-21.9751802286
  0
LINE
  5
25E
100
AcDbEntity
  8
RACCORDO
100
AcDbLine
 62
253
  6
CONTINUOUS
 10
-10.8963849355
 20
21.8252347175
 11
-10.8974677453
 21
21.8984161033
  0
LINE
  5
25F
100
AcDbEntity
  8
RACCORDO
100
AcDbLine
 62
253
  6
CONTINUOUS
 10
-11.3940961555
 20
21.2872676446
 11
-11.3950288941
 21
21.3520827484
  0
LINE
  5
260
100
AcDbEntity
  8
RACCORDO
100
AcDbLine
 62
253
  6
CONTINUOUS
 10
-10.8949602947
 20
21.6840381648
 11
-10.8963849355
 21
21.8252347175
  0
LINE
  5
261
100
AcDbEntity
  8
RACCORDO
100
AcDbLine
 62
253
  6
CONTINUOUS
 10
-11.3932795609
 20
21.2034864631
 11
-11.3940961555
 21
21.2872676446
  0
LINE
  5
262
100
AcDbEntity
  8
RACCORDO
100
AcDbLine
 62
253
  6
CONTINUOUS
 10
-10.8932738117
 20
21.3821171651
 11
-10.8949602947
 21
21.6840381648
  0
LINE
  5
263
100
AcDbEntity
  8
RACCORDO
100
AcDbLine
 62
253
  6
CONTINUOUS
 10
-11.3926753469
 20
21.0887582418
 11
-11.3932795609
 21
21.2034864631
  0
LINE
  5
264
100
AcDbEntity
  8
RACCORDO
100
AcDbLine
 62
253
  6
CONTINUOUS
 10
-11.388470476
 20
19.3717538989
 11
-11.3926753469
 21
21.0887582418
  0
LINE
  5
265
100
AcDbEntity
  8
RACCORDO
100
AcDbLine
 62
253
  6
CONTINUOUS
 10
-10.8895357399
 20
19.8654747626
 11
-10.8927178699
 21
21.1510436476
  0
LINE
  5
266
100
AcDbEntity
  8
RACCORDO
100
AcDbLine
 62
253
  6
CONTINUOUS
 10
-10.8875933277
 20
19.0070160196
 11
-10.8895357399
 21
19.8654747626
  0
LINE
  5
267
100
AcDbEntity
  8
RACCORDO
100
AcDbLine
 62
253
  6
CONTINUOUS
 10
-11.3848725407
 20
17.6623262501
 11
-11.388470476
 21
19.3717538989
  0
LINE
  5
268
100
AcDbEntity
  8
RACCORDO
100
AcDbLine
 62
253
  6
CONTINUOUS
 10
-10.8849486931
 20
17.7174090502
 11
-10.8875933277
 21
19.0070160196
  0
LINE
  5
269
100
AcDbEntity
  8
RACCORDO
100
AcDbLine
 62
253
  6
CONTINUOUS
 10
-11.3818492899
 20
15.9492601225
 11
-11.3848725407
 21
17.6623262501
  0
LINE
  5
26A
100
AcDbEntity
  8
RACCORDO
100
AcDbLine
 62
253
  6
CONTINUOUS
 10
-10.8819254424
 20
15.9947694521
 11
-10.8849486931
 21
17.7174090502
  0
LINE
  5
26B
100
AcDbEntity
  8
RACCORDO
100
AcDbLine
 62
253
  6
CONTINUOUS
 10
-10.8927178718
 20
21.1510436476
 11
-10.8932738117
 21
21.3821171651
  0
LINE
  5
26C
100
AcDbEntity
  8
RACCORDO
100
AcDbLine
 62
253
  6
CONTINUOUS
 10
-11.3794018232
 20
14.2331795456
 11
-11.3818492899
 21
15.9492601225
  0
LINE
  5
26D
100
AcDbEntity
  8
RACCORDO
100
AcDbLine
 62
253
  6
CONTINUOUS
 10
-10.8794779757
 20
14.2690985656
 11
-10.8819254424
 21
15.9947694521
  0
LINE
  5
26E
100
AcDbEntity
  8
RACCORDO
100
AcDbLine
 62
253
  6
CONTINUOUS
 10
-11.3775310328
 20
12.5147095982
 11
-11.3794018232
 21
14.2331795456
  0
LINE
  5
26F
100
AcDbEntity
  8
RACCORDO
100
AcDbLine
 62
253
  6
CONTINUOUS
 10
-10.8776071854
 20
12.5410349448
 11
-10.8794779757
 21
14.2690985656
  0
LINE
  5
270
100
AcDbEntity
  8
RACCORDO
100
AcDbLine
 62
253
  6
CONTINUOUS
 10
-11.3762376325
 20
10.7945061039
 11
-11.3775310328
 21
12.5147095982
  0
LINE
  5
271
100
AcDbEntity
  8
RACCORDO
100
AcDbLine
 62
253
  6
CONTINUOUS
 10
-10.876313785
 20
10.8112180943
 11
-10.8776071854
 21
12.5410349448
  0
LINE
  5
272
100
AcDbEntity
  8
RACCORDO
100
AcDbLine
 62
253
  6
CONTINUOUS
 10
-11.3758076165
 20
9.9339657846
 11
-11.3762376325
 21
10.7945061039
  0
LINE
  5
273
100
AcDbEntity
  8
RACCORDO
100
AcDbLine
 62
253
  6
CONTINUOUS
 10
-10.8758837687
 20
9.9458528536
 11
-10.876313785
 21
10.8112180943
  0
LWPOLYLINE
  5
274
100
AcDbEntity
  8
RACCORDO
100
AcDbPolyline
 62
253
  6
CONTINUOUS
 90
3
 70
0
 10
-11.3745915932
 20
5.4615381019
 10
-11.3750478101
 20
7.4826098063
 10
-11.3758076165
 20
9.9339657846
  0
LWPOLYLINE
  5
275
100
AcDbEntity
  8
RACCORDO
100
AcDbPolyline
 62
253
  6
CONTINUOUS
 90
3
 70
0
 10
-10.8746679863
 20
5.4678579427
 10
-10.8751240755
 20
7.4905256006
 10
-10.8758837687
 20
9.9458528536
  0
LINE
  5
276
100
AcDbEntity
  8
DRAFT
100
AcDbLine
 62
7
  6
CONTINUOUS
 10
-11.4876831359
 20
-4.0869077307
 11
-11.4876831359
 21
-13.1755628025
  0
LINE
  5
277
100
AcDbEntity
  8
RACCORDO
100
AcDbLine
 62
7
  6
CONTINUOUS
 10
-11.4876831359
 20
-13.1755628025
 11
-11.4876831359
 21
-21.7366788786
  0
LINE
  5
278
100
AcDbEntity
  8
DRAFT
100
AcDbLine
 62
7
  6
CONTINUOUS
 10
-11.4876831359
 20
4.1130922693
 11
-11.4876831359
 21
13.2017473412
  0
LINE
  5
279
100
AcDbEntity
  8
RACCORDO
100
AcDbLine
 62
7
  6
CONTINUOUS
 10
-11.4876831359
 20
13.2017473412
 11
-11.4876831359
 21
21.7628634173
  0
LINE
  5
27A
100
AcDbEntity
  8
RACCORDO
100
AcDbLine
 62
7
  6
CONTINUOUS
 10
-11.4475364866
 20
-0.3456060418
 11
-11.4475364866
 21
-4.0869077307
  0
LINE
  5
27B
100
AcDbEntity
  8
RACCORDO
100
AcDbLine
 62
7
  6
CONTINUOUS
 10
-11.4475364866
 20
0.3717905805
 11
-11.4475364866
 21
4.1130922693
  0
LWPOLYLINE
  5
27C
100
AcDbEntity
  8
RACCORDO
100
AcDbPolyline
 62
253
  6
CONTINUOUS
 90
3
 70
0
 10
-11.3740756661
 20
0.4085181934
 10
-11.3741749529
 20
2.4297780279
 10
-11.3745915932
 20
5.4615381019
  0
LWPOLYLINE
  5
27D
100
AcDbEntity
  8
RACCORDO
100
AcDbPolyline
 62
253
  6
CONTINUOUS
 90
3
 70
0
 10
-10.8741518088
 20
0.1606713575
 10
-10.8742507791
 20
2.4337080513
 10
-10.8746679863
 20
5.4678579427
  0
LINE
  5
27E
100
AcDbEntity
  8
RACCORDO
100
AcDbLine
 62
253
  6
CONTINUOUS
 10
-11.3742781377
 20
-3.4141968999
 11
-11.3740756661
 21
-0.3823336548
  0
LINE
  5
27F
100
AcDbEntity
  8
RACCORDO
100
AcDbLine
 62
253
  6
CONTINUOUS
 10
-11.3748018576
 20
-6.4459011059
 11
-11.3742781377
 21
-3.4141968999
  0
LINE
  5
280
100
AcDbEntity
  8
RACCORDO
100
AcDbLine
 62
253
  6
CONTINUOUS
 10
-10.8742507791
 20
-2.4075235127
 11
-10.8741518088
 21
-0.1344868189
  0
LINE
  5
281
100
AcDbEntity
  8
RACCORDO
100
AcDbLine
 62
253
  6
CONTINUOUS
 10
-10.8746679863
 20
-5.4416734041
 11
-10.8742507791
 21
-2.4075235127
  0
LWPOLYLINE
  5
282
100
AcDbEntity
  8
RACCORDO
100
AcDbPolyline
 62
253
  6
CONTINUOUS
 90
3
 70
0
 10
-11.3756467838
 20
-9.4774077307
 10
-11.3753294522
 20
-8.4669274759
 10
-11.3748018576
 20
-6.4459011059
  0
LWPOLYLINE
  5
283
100
AcDbEntity
  8
RACCORDO
100
AcDbPolyline
 62
253
  6
CONTINUOUS
 90
3
 70
0
 10
-10.8757229359
 20
-9.4869065474
 10
-10.8754056686
 20
-8.475638998
 10
-10.8746679863
 20
-5.4416734041
  0
LINE
  5
284
100
AcDbEntity
  8
RACCORDO
100
AcDbLine
 62
253
  6
CONTINUOUS
 10
-11.3760045661
 20
-10.3380858575
 11
-11.3756467838
 21
-9.4774077307
  0
LINE
  5
285
100
AcDbEntity
  8
RACCORDO
100
AcDbLine
 62
253
  6
CONTINUOUS
 10
-10.8760807185
 20
-10.3523806542
 11
-10.8757229357
 21
-9.4869065474
  0
LINE
  5
286
100
AcDbEntity
  8
RACCORDO
100
AcDbLine
 62
253
  6
CONTINUOUS
 10
-11.3765068227
 20
-11.1984984097
 11
-11.3760045661
 21
-10.3380858575
  0
LINE
  5
287
100
AcDbEntity
  8
RACCORDO
100
AcDbLine
 62
253
  6
CONTINUOUS
 10
-10.8765829753
 20
-11.2176170509
 11
-10.8760807185
 21
-10.3523806542
  0
LINE
  5
288
100
AcDbEntity
  8
RACCORDO
100
AcDbLine
 62
253
  6
CONTINUOUS
 10
-11.3771535323
 20
-12.0586152664
 11
-11.3765068227
 21
-11.1984984097
  0
LINE
  5
289
100
AcDbEntity
  8
RACCORDO
100
AcDbLine
 62
253
  6
CONTINUOUS
 10
-10.8772296848
 20
-12.0825355594
 11
-10.8765829753
 21
-11.2176170509
  0
LINE
  5
28A
100
AcDbEntity
  8
RACCORDO
100
AcDbLine
 62
253
  6
CONTINUOUS
 10
-11.3779446289
 20
-12.9183358281
 11
-11.3771535323
 21
-12.0586152664
  0
LINE
  5
28B
100
AcDbEntity
  8
RACCORDO
100
AcDbLine
 62
253
  6
CONTINUOUS
 10
-10.8780207814
 20
-12.9470556731
 11
-10.8772296848
 21
-12.0825355594
  0
LINE
  5
28C
100
AcDbEntity
  8
RACCORDO
100
AcDbLine
 62
253
  6
CONTINUOUS
 10
-11.3788800241
 20
-13.7775708017
 11
-11.3779446289
 21
-12.9183358281
  0
LINE
  5
28D
100
AcDbEntity
  8
RACCORDO
100
AcDbLine
 62
253
  6
CONTINUOUS
 10
-10.8789561766
 20
-13.811097477
 11
-10.8780207814
 21
-12.9470556731
  0
LINE
  5
28E
100
AcDbEntity
  8
RACCORDO
100
AcDbLine
 62
253
  6
CONTINUOUS
 10
-11.3799596529
 20
-14.6362605671
 11
-11.3788800241
 21
-13.7775708017
  0
LINE
  5
28F
100
AcDbEntity
  8
RACCORDO
100
AcDbLine
 62
253
  6
CONTINUOUS
 10
-10.8800358054
 20
-14.6745810286
 11
-10.8789561766
 21
-13.811097477
  0
LINE
  5
290
100
AcDbEntity
  8
RACCORDO
100
AcDbLine
 62
253
  6
CONTINUOUS
 10
-11.3811834094
 20
-15.4943157303
 11
-11.3799596529
 21
-14.6362605671
  0
LINE
  5
291
100
AcDbEntity
  8
RACCORDO
100
AcDbLine
 62
253
  6
CONTINUOUS
 10
-10.8812595619
 20
-15.5374264486
 11
-10.8800358054
 21
-14.6745810286
  0
LINE
  5
292
100
AcDbEntity
  8
RACCORDO
100
AcDbLine
 62
253
  6
CONTINUOUS
 10
-11.3825511599
 20
-16.351647019
 11
-11.3811834094
 21
-15.4943157303
  0
LINE
  5
293
100
AcDbEntity
  8
RACCORDO
100
AcDbLine
 62
253
  6
CONTINUOUS
 10
-10.8826273124
 20
-16.3995539175
 11
-10.8812595619
 21
-15.5374264486
  0
LINE
  5
294
100
AcDbEntity
  8
RACCORDO
100
AcDbLine
 62
253
  6
CONTINUOUS
 10
-11.3840628097
 20
-17.2081949504
 11
-11.3825511599
 21
-16.351647019
  0
LWPOLYLINE
  5
295
100
AcDbEntity
  8
RACCORDO
100
AcDbPolyline
 62
253
  6
CONTINUOUS
 90
3
 70
0
 10
-10.8849486931
 20
-17.6912245116
 10
-10.884138962
 20
-17.2608836753
 10
-10.8826273124
 20
-16.3995539175
  0
LINE
  5
296
100
AcDbEntity
  8
RACCORDO
100
AcDbLine
 62
253
  6
CONTINUOUS
 10
-11.3857182076
 20
-18.0638703449
 11
-11.3840628097
 21
-17.2081949504
  0
LINE
  5
297
100
AcDbEntity
  8
RACCORDO
100
AcDbLine
 62
253
  6
CONTINUOUS
 10
-10.8866759039
 20
-18.551208322
 11
-10.8849486931
 21
-17.6912245116
  0
LINE
  5
298
100
AcDbEntity
  8
RACCORDO
100
AcDbLine
 62
253
  6
CONTINUOUS
 10
-11.3875171752
 20
-18.9185841693
 11
-11.3857182076
 21
-18.0638703449
  0
LINE
  5
299
100
AcDbEntity
  8
RACCORDO
100
AcDbLine
 62
253
  6
CONTINUOUS
 10
-10.8885466286
 20
-19.410195504
 11
-10.8866759039
 21
-18.551208322
  0
LWPOLYLINE
  5
29A
100
AcDbEntity
  8
RACCORDO
100
AcDbPolyline
 62
253
  6
CONTINUOUS
 90
3
 70
0
 10
-11.3904844885
 20
-20.1986975143
 10
-11.3894595878
 20
-19.7722771019
 10
-11.3875171752
 20
-18.9185841693
  0
LINE
  5
29B
100
AcDbEntity
  8
RACCORDO
100
AcDbLine
 62
253
  6
CONTINUOUS
 10
-10.8905606395
 20
-20.2681056371
 11
-10.8885466286
 21
-19.410195504
  0
LINE
  5
29C
100
AcDbEntity
  8
RACCORDO
100
AcDbLine
 62
253
  6
CONTINUOUS
 10
-11.3931204443
 20
-21.1550708624
 11
-11.3904844885
 21
-20.1986975143
  0
LINE
  5
29D
100
AcDbEntity
  8
RACCORDO
100
AcDbLine
 62
253
  6
CONTINUOUS
 10
-10.8944191988
 20
-21.5844644914
 11
-10.8905606395
 21
-20.2681056371
  0
LINE
  5
29E
100
AcDbEntity
  8
RACCORDO
100
AcDbLine
 62
253
  6
CONTINUOUS
 10
-11.3939789227
 20
-21.2511251045
 11
-11.3931204443
 21
-21.1550708624
  0
LINE
  5
29F
100
AcDbEntity
  8
RACCORDO
100
AcDbLine
 62
253
  6
CONTINUOUS
 10
-10.8960459
 20
-21.7707786212
 11
-10.8944191988
 21
-21.5844644914
  0
LINE
  5
2A0
100
AcDbEntity
  8
RACCORDO
100
AcDbLine
 62
253
  6
CONTINUOUS
 10
-10.8970967824
 20
-21.8498352859
 11
-10.8960459
 21
-21.7707786212
  0
LWPOLYLINE
  5
2A1
100
AcDbEntity
  8
RACCORDO
100
AcDbPolyline
 62
253
  6
CONTINUOUS
 90
55
 70
0
 10
-11.4008159723
 20
21.5020499998
 10
-11.4005914524
 20
21.5165639933
 10
-11.3999446284
 20
21.5310657208
 10
-11.3988760471
 20
21.5455429266
 10
-11.3973866115
 20
21.5599833759
 10
-11.3954775804
 20
21.5743748647
 10
-11.393150567
 20
21.5887052306
 10
-11.3904075381
 20
21.6029623627
 10
-11.3872508118
 20
21.6171342122
 10
-11.3836830559
 20
21.6312088022
 10
-11.3797072855
 20
21.6451742379
 10
-11.3753268607
 20
21.659018717
 10
-11.3705454833
 20
21.6727305394
 10
-11.3653671944
 20
21.6862981168
 10
-11.35979637
 20
21.6997099832
 10
-11.3538377182
 20
21.7129548039
 10
-11.3474962747
 20
21.7260213855
 10
-11.3407773988
 20
21.7388986853
 10
-11.3336867688
 20
21.7515758205
 10
-11.326230377
 20
21.7640420773
 10
-11.3184145249
 20
21.7762869203
 10
-11.3102458179
 20
21.7883000013
 10
-11.3017311594
 20
21.8000711678
 10
-11.2928777454
 20
21.8115904718
 10
-11.283693058
 20
21.8228481781
 10
-11.2741848593
 20
21.8338347726
 10
-11.2643611848
 20
21.8445409705
 10
-11.2542303368
 20
21.8549577237
 10
-11.2438008769
 20
21.8650762288
 10
-11.2330816193
 20
21.8748879346
 10
-11.2220816229
 20
21.8843845491
 10
-11.2108101841
 20
21.8935580464
 10
-11.1992768285
 20
21.9024006739
 10
-11.1874913032
 20
21.9109049585
 10
-11.1754635683
 20
21.9190637132
 10
-11.1632037885
 20
21.9268700429
 10
-11.150722325
 20
21.9343173503
 10
-11.1380297259
 20
21.9413993415
 10
-11.1251367179
 20
21.9481100314
 10
-11.1120541973
 20
21.9544437488
 10
-11.0987932201
 20
21.9603951409
 10
-11.0853649935
 20
21.9659591781
 10
-11.0717808659
 20
21.9711311582
 10
-11.0580523174
 20
21.9759067101
 10
-11.0441909504
 20
21.9802817981
 10
-11.0302084791
 20
21.9842527246
 10
-11.0161167206
 20
21.9878161337
 10
-11.0019275838
 20
21.9909690141
 10
-10.9876530603
 20
21.993708701
 10
-10.9733052138
 20
21.9960328793
 10
-10.9588961698
 20
21.9979395845
 10
-10.9444381056
 20
21.9994272055
 10
-10.92994324
 20
22.0004944849
 10
-10.9154238229
 20
22.0011405208
 10
-10.9008921248
 20
22.0013647672
  0
LINE
  5
2A2
100
AcDbEntity
  8
RACCORDO
100
AcDbLine
 62
253
  6
CONTINUOUS
 10
-11.3948841362
 20
-21.3171998016
 11
-11.3939789227
 21
-21.2511251045
  0
LWPOLYLINE
  5
2A3
100
AcDbEntity
  8
RACCORDO
100
AcDbPolyline
 62
253
  6
CONTINUOUS
 90
46
 70
0
 10
-11.3740756295
 20
-0.3823336731
 10
-11.3739220605
 20
-0.3736099766
 10
-11.3734641975
 20
-0.3648969065
 10
-11.3727025983
 20
-0.3562050763
 10
-11.3716381905
 20
-0.3475450736
 10
-11.3702722707
 20
-0.3389274473
 10
-11.3686065028
 20
-0.3303626944
 10
-11.3666429158
 20
-0.321861248
 10
-11.3643839016
 20
-0.3134334636
 10
-11.361832212
 20
-0.3050896072
 10
-11.3589909551
 20
-0.2968398426
 10
-11.3558635919
 20
-0.2886942188
 10
-11.352453932
 20
-0.2806626582
 10
-11.3487661286
 20
-0.272754944
 10
-11.3448046739
 20
-0.2649807087
 10
-11.3405743934
 20
-0.2573494222
 10
-11.33608044
 20
-0.2498703803
 10
-11.3313282879
 20
-0.2425526932
 10
-11.3263237257
 20
-0.2354052746
 10
-11.3210728494
 20
-0.228436831
 10
-11.3155820553
 20
-0.2216558506
 10
-11.3098580318
 20
-0.2150705934
 10
-11.3039077513
 20
-0.2086890811
 10
-11.2977384619
 20
-0.2025190869
 10
-11.2913576785
 20
-0.1965681265
 10
-11.2847731736
 20
-0.1908434491
 10
-11.2779929678
 20
-0.1853520277
 10
-11.2710253202
 20
-0.1801005516
 10
-11.2638787181
 20
-0.1750954176
 10
-11.2565618669
 20
-0.1703427225
 10
-11.2490836793
 20
-0.1658482557
 10
-11.2414532646
 20
-0.1616174919
 10
-11.2336799174
 20
-0.1576555847
 10
-11.2257731065
 20
-0.15396736
 10
-11.2177424633
 20
-0.1505573105
 10
-11.20959777
 20
-0.1474295901
 10
-11.2013489478
 20
-0.1445880086
 10
-11.1930060445
 20
-0.1420360274
 10
-11.1845792229
 20
-0.1397767552
 10
-11.1760787476
 20
-0.1378129438
 10
-11.1675149731
 20
-0.1361469856
 10
-11.1588983312
 20
-0.1347809098
 10
-11.1502393177
 20
-0.1337163804
 10
-11.1415484804
 20
-0.1329546941
 10
-11.1328364057
 20
-0.1324967788
 10
-11.1241137057
 20
-0.1323431923
  0
LINE
  5
2A4
100
AcDbEntity
  8
RACCORDO
100
AcDbLine
 62
253
  6
CONTINUOUS
 10
-10.897847776
 20
-21.892559793
 11
-10.8970967824
 21
-21.8498352859
  0
LINE
  5
2A5
100
AcDbEntity
  8
RACCORDO
100
AcDbLine
 62
253
  6
CONTINUOUS
 10
-11.3956428539
 20
-21.3586118114
 11
-11.3948841362
 21
-21.3171998016
  0
LINE
  5
2A6
100
AcDbEntity
  8
RACCORDO
100
AcDbLine
 62
253
  6
CONTINUOUS
 10
-10.898432651
 20
-21.9190731565
 11
-10.897847776
 21
-21.892559793
  0
LINE
  5
2A7
100
AcDbEntity
  8
RACCORDO
100
AcDbLine
 62
253
  6
CONTINUOUS
 10
-11.3963087836
 20
-21.3877989412
 11
-11.3956428539
 21
-21.3586118114
  0
LINE
  5
2A8
100
AcDbEntity
  8
RACCORDO
100
AcDbLine
 62
253
  6
CONTINUOUS
 10
-10.8988312097
 20
-21.9340365336
 11
-10.898432651
 21
-21.9190731565
  0
LINE
  5
2A9
100
AcDbEntity
  8
RACCORDO
100
AcDbLine
 62
253
  6
CONTINUOUS
 10
-11.3968386753
 20
-21.4072129105
 11
-11.3963087836
 21
-21.3877989412
  0
LINE
  5
2AA
100
AcDbEntity
  8
RACCORDO
100
AcDbLine
 62
253
  6
CONTINUOUS
 10
-11.3973915992
 20
-21.4243901126
 11
-11.3968386753
 21
-21.4072129105
  0
LINE
  5
2AB
100
AcDbEntity
  8
RACCORDO
100
AcDbLine
 62
253
  6
CONTINUOUS
 10
-11.397771632
 20
-21.4345555169
 11
-11.3973915992
 21
-21.4243901126
  0
LINE
  5
2AC
100
AcDbEntity
  8
RACCORDO
100
AcDbLine
 62
253
  6
CONTINUOUS
 10
-11.3981597543
 20
-21.4436627403
 11
-11.397771632
 21
-21.4345555169
  0
LINE
  5
2AD
100
AcDbEntity
  8
RACCORDO
100
AcDbLine
 62
253
  6
CONTINUOUS
 10
10.5727468345
 20
-9.480364282
 11
10.5625438489
 21
-9.4808785972
  0
LINE
  5
2AE
100
AcDbEntity
  8
RACCORDO
100
AcDbLine
 62
253
  6
CONTINUOUS
 10
10.5625438489
 20
-9.4808785972
 11
10.5508115126
 21
-9.4813814276
  0
LINE
  5
2AF
100
AcDbEntity
  8
RACCORDO
100
AcDbLine
 62
253
  6
CONTINUOUS
 10
10.5508115126
 20
-9.4813814276
 11
10.5375886472
 21
-9.4818711092
  0
LINE
  5
2B0
100
AcDbEntity
  8
RACCORDO
100
AcDbLine
 62
253
  6
CONTINUOUS
 10
10.5375886472
 20
-9.4818711092
 11
10.5150566316
 21
-9.4825774466
  0
LINE
  5
2B1
100
AcDbEntity
  8
RACCORDO
100
AcDbLine
 62
253
  6
CONTINUOUS
 10
10.5150566316
 20
-9.4825774466
 11
10.4894381893
 21
-9.483245308
  0
LINE
  5
2B2
100
AcDbEntity
  8
RACCORDO
100
AcDbLine
 62
253
  6
CONTINUOUS
 10
10.4894381893
 20
-9.483245308
 11
10.4707377991
 21
-9.4836667059
  0
LINE
  5
2B3
100
AcDbEntity
  8
RACCORDO
100
AcDbLine
 62
253
  6
CONTINUOUS
 10
-11.2822174031
 20
-9.4828045939
 11
-11.2461040709
 21
-9.4836667059
  0
LINE
  5
2B4
100
AcDbEntity
  8
RACCORDO
100
AcDbLine
 62
253
  6
CONTINUOUS
 10
-11.3057980222
 20
-9.4821105111
 11
-11.2822174031
 21
-9.4828045939
  0
LINE
  5
2B5
100
AcDbEntity
  8
RACCORDO
100
AcDbLine
 62
253
  6
CONTINUOUS
 10
-11.3197500473
 20
-9.4816280144
 11
-11.3057980222
 21
-9.4821105111
  0
LINE
  5
2B6
100
AcDbEntity
  8
RACCORDO
100
AcDbLine
 62
253
  6
CONTINUOUS
 10
-11.3322328123
 20
-9.481131553
 11
-11.3197500473
 21
-9.4816280144
  0
LWPOLYLINE
  5
2B7
100
AcDbEntity
  8
RACCORDO
100
AcDbPolyline
 62
253
  6
CONTINUOUS
 90
11
 70
0
 10
-11.3987550724
 20
21.4814788805
 10
-11.3989565327
 20
21.484805749
 10
-11.3991593325
 20
21.4878539325
 10
-11.3993634693
 20
21.4906239105
 10
-11.3995685893
 20
21.4931108853
 10
-11.3997746962
 20
21.4953143716
 10
-11.3999817863
 20
21.4972348547
 10
-11.4001894954
 20
21.4988689932
 10
-11.400397702
 20
21.5002156733
 10
-11.4006065277
 20
21.5012760089
 10
-11.4008159723
 20
21.5020499998
  0
LWPOLYLINE
  5
2B8
100
AcDbEntity
  8
RACCORDO
100
AcDbPolyline
 62
253
  6
CONTINUOUS
 90
9
 70
0
 10
-10.8992354707
 20
21.972973677
 10
-10.8994396111
 20
21.9785115339
 10
-10.8996447317
 20
21.9834860397
 10
-10.8998508306
 20
21.9878943275
 10
-10.9000579097
 20
21.9917338494
 10
-10.9002656155
 20
21.9950023755
 10
-10.9004738302
 20
21.997698025
 10
-10.9006826718
 20
21.9998192576
 10
-10.90089214
 20
22.0013648592
  0
LINE
  5
2B9
100
AcDbEntity
  8
RACCORDO
100
AcDbLine
 62
253
  6
CONTINUOUS
 10
10.4707377991
 20
-9.4836667059
 11
10.4297262431
 21
-9.4844460442
  0
LINE
  5
2BA
100
AcDbEntity
  8
RACCORDO
100
AcDbLine
 62
253
  6
CONTINUOUS
 10
10.4297262431
 20
-9.4844460442
 11
10.3724055336
 21
-9.4852882303
  0
LINE
  5
2BB
100
AcDbEntity
  8
RACCORDO
100
AcDbLine
 62
253
  6
CONTINUOUS
 10
10.3724055336
 20
-9.4852882303
 11
10.3094667544
 21
-9.4859676765
  0
LINE
  5
2BC
100
AcDbEntity
  8
RACCORDO
100
AcDbLine
 62
253
  6
CONTINUOUS
 10
10.3094667544
 20
-9.4859676765
 11
10.2422096516
 21
-9.4864703517
  0
LINE
  5
2BD
100
AcDbEntity
  8
RACCORDO
100
AcDbLine
 62
253
  6
CONTINUOUS
 10
10.2422096516
 20
-9.4864703517
 11
10.1720231488
 21
-9.486785875
  0
LINE
  5
2BE
100
AcDbEntity
  8
RACCORDO
100
AcDbLine
 62
253
  6
CONTINUOUS
 10
10.1720231488
 20
-9.486785875
 11
10.1003566644
 21
-9.4869077307
  0
LINE
  5
2BF
100
AcDbEntity
  8
RACCORDO
100
AcDbLine
 62
253
  6
CONTINUOUS
 10
-10.9757237978
 20
-9.4866826294
 11
10.1003566638
 21
-9.4869065474
  0
LINE
  5
2C0
100
AcDbEntity
  8
RACCORDO
100
AcDbLine
 62
253
  6
CONTINUOUS
 10
-11.0848330263
 20
-9.4859676765
 11
-10.9757237978
 21
-9.4866826294
  0
LINE
  5
2C1
100
AcDbEntity
  8
RACCORDO
100
AcDbLine
 62
253
  6
CONTINUOUS
 10
-11.1597251056
 20
-9.485132302
 11
-11.0848330263
 21
-9.4859676765
  0
LINE
  5
2C2
100
AcDbEntity
  8
RACCORDO
100
AcDbLine
 62
253
  6
CONTINUOUS
 10
-11.215775994
 20
-9.4842595534
 11
-11.1597251056
 21
-9.485132302
  0
LINE
  5
2C3
100
AcDbEntity
  8
RACCORDO
100
AcDbLine
 62
253
  6
CONTINUOUS
 10
-11.2461040709
 20
-9.4836667059
 11
-11.215775994
 21
-9.4842595534
  0
LWPOLYLINE
  5
2C4
100
AcDbEntity
  8
RACCORDO
100
AcDbPolyline
 62
253
  6
CONTINUOUS
 90
10
 70
0
 10
-10.90089214
 20
-21.9751803205
 10
-10.9006826718
 20
-21.973634719
 10
-10.9004738302
 20
-21.9715134863
 10
-10.9002656155
 20
-21.9688178369
 10
-10.9000579097
 20
-21.9655493108
 10
-10.8998508306
 20
-21.9617097889
 10
-10.8996447317
 20
-21.957301501
 10
-10.8994396111
 20
-21.9523269953
 10
-10.8992354707
 20
-21.9467891384
 10
-10.8988312097
 20
-21.9340365336
  0
LWPOLYLINE
  5
2C5
100
AcDbEntity
  8
RACCORDO
100
AcDbPolyline
 62
253
  6
CONTINUOUS
 90
13
 70
0
 10
-11.4008159723
 20
-21.4758654612
 10
-11.4006065277
 20
-21.4750914702
 10
-11.400397702
 20
-21.4740311347
 10
-11.4001894954
 20
-21.4726844546
 10
-11.3999817863
 20
-21.471050316
 10
-11.3997746962
 20
-21.469129833
 10
-11.3995685893
 20
-21.4669263467
 10
-11.3993634693
 20
-21.4644393719
 10
-11.3991593325
 20
-21.4616693939
 10
-11.3989565327
 20
-21.4586212104
 10
-11.3987550724
 20
-21.4552943419
 10
-11.3985549491
 20
-21.4516892679
 10
-11.3981597543
 20
-21.4436627403
  0
LINE
  5
2C6
100
AcDbEntity
  8
RACCORDO
100
AcDbLine
 62
253
  6
CONTINUOUS
 10
-11.4475364866
 20
0.3717905805
 11
-11.3740756661
 21
0.4085181934
  0
LINE
  5
2C7
100
AcDbEntity
  8
RACCORDO
100
AcDbLine
 62
253
  6
CONTINUOUS
 10
-11.1975364851
 20
0.1218191371
 11
-11.1241137057
 21
0.158527731
  0
LINE
  5
2C8
100
AcDbEntity
  8
RACCORDO
100
AcDbLine
 62
253
  6
CONTINUOUS
 10
-11.3740756661
 20
-0.3823336548
 11
-11.4475364866
 21
-0.3456060418
  0
LINE
  5
2C9
100
AcDbEntity
  8
RACCORDO
100
AcDbLine
 62
253
  6
CONTINUOUS
 10
-11.1241137057
 20
-0.1323431923
 11
-11.1975364851
 21
-0.0956345985
  0
LINE
  5
2CA
100
AcDbEntity
  8
RACCORDO
100
AcDbLine
 62
253
  6
CONTINUOUS
 10
-11.4876831359
 20
-21.7366788786
 11
-11.4008159723
 21
-21.4758654612
  0
LINE
  5
2CB
100
AcDbEntity
  8
DRAFT
100
AcDbLine
 62
7
  6
CONTINUOUS
 10
10.6721702148
 20
-4.0869077307
 11
10.7123168641
 21
-4.0869077307
  0
LINE
  5
2CC
100
AcDbEntity
  8
DRAFT
100
AcDbLine
 62
7
  6
CONTINUOUS
 10
-11.4475364866
 20
-4.0869077307
 11
-11.4876831359
 21
-4.0869077307
  0
LINE
  5
2CD
100
AcDbEntity
  8
RACCORDO
100
AcDbLine
 62
253
  6
CONTINUOUS
 10
-11.4008159723
 20
21.5020499998
 11
-11.4876831359
 21
21.7628634173
  0
LINE
  5
2CE
100
AcDbEntity
  8
RACCORDO
100
AcDbLine
 62
253
  6
CONTINUOUS
 10
-10.9880637356
 20
-22.2369077307
 11
-10.9008921554
 21
-21.9751803205
  0
LWPOLYLINE
  5
2CF
100
AcDbEntity
  8
RACCORDO
100
AcDbPolyline
 62
253
  6
CONTINUOUS
 90
8
 70
0
 10
10.3487474339
 20
-0.1323431923
 10
10.3485177773
 20
-0.13240599
 10
10.3480824812
 20
-0.1324686041
 10
10.3474415454
 20
-0.1325310348
 10
10.3465940984
 20
-0.1325933343
 10
10.3455410118
 20
-0.1326554503
 10
10.3442849004
 20
-0.1327172258
 10
10.3428252609
 20
-0.1327786589
  0
LWPOLYLINE
  5
2D0
100
AcDbEntity
  8
RACCORDO
100
AcDbPolyline
 62
253
  6
CONTINUOUS
 90
6
 70
0
 10
10.5987093943
 20
-0.3823336631
 10
10.5982516576
 20
-0.3824021604
 10
10.5973806627
 20
-0.3824704763
 10
10.5960971303
 20
-0.3825386015
 10
10.5944021264
 20
-0.3826065724
 10
10.5922970511
 20
-0.3826743337
  0
LINE
  5
2D1
100
AcDbEntity
  8
RACCORDO
100
AcDbLine
 62
253
  6
CONTINUOUS
 10
-10.9008921554
 20
22.0013648592
 11
-10.9880637356
 21
22.2630922693
  0
LINE
  5
2D2
100
AcDbEntity
  8
DRAFT
100
AcDbLine
 62
7
  6
CONTINUOUS
 10
7.7872941911
 20
-0.0956345985
 11
7.6123168641
 21
-0.113088334
  0
LINE
  5
2D3
100
AcDbEntity
  8
RACCORDO
100
AcDbLine
 62
253
  6
CONTINUOUS
 10
10.3428252609
 20
-0.1327786589
 11
10.3393010319
 21
-0.1329003518
  0
LINE
  5
2D4
100
AcDbEntity
  8
RACCORDO
100
AcDbLine
 62
253
  6
CONTINUOUS
 10
10.3393010319
 20
-0.1329003518
 11
10.3349802186
 21
-0.1330200725
  0
LINE
  5
2D5
100
AcDbEntity
  8
RACCORDO
100
AcDbLine
 62
253
  6
CONTINUOUS
 10
10.5922970511
 20
-0.3826743337
 11
10.5868639161
 21
-0.3828087782
  0
LINE
  5
2D6
100
AcDbEntity
  8
RACCORDO
100
AcDbLine
 62
253
  6
CONTINUOUS
 10
10.3349802186
 20
-0.1330200725
 11
10.3270398898
 21
-0.1331950719
  0
LINE
  5
2D7
100
AcDbEntity
  8
RACCORDO
100
AcDbLine
 62
253
  6
CONTINUOUS
 10
10.5868639161
 20
-0.3828087782
 11
10.5756929837
 21
-0.3830071878
  0
LINE
  5
2D8
100
AcDbEntity
  8
RACCORDO
100
AcDbLine
 62
253
  6
CONTINUOUS
 10
10.3270398898
 20
-0.1331950719
 11
10.3138233418
 21
-0.1334178697
  0
LINE
  5
2D9
100
AcDbEntity
  8
RACCORDO
100
AcDbLine
 62
253
  6
CONTINUOUS
 10
10.5756929837
 20
-0.3830071878
 11
10.5492402067
 21
-0.3833254255
  0
LINE
  5
2DA
100
AcDbEntity
  8
RACCORDO
100
AcDbLine
 62
253
  6
CONTINUOUS
 10
10.3138233418
 20
-0.1334178697
 11
10.2839768977
 21
-0.1337707017
  0
LINE
  5
2DB
100
AcDbEntity
  8
RACCORDO
100
AcDbLine
 62
253
  6
CONTINUOUS
 10
10.5492402067
 20
-0.3833254255
 11
10.4878661263
 21
-0.3837878426
  0
LINE
  5
2DC
100
AcDbEntity
  8
RACCORDO
100
AcDbLine
 62
253
  6
CONTINUOUS
 10
10.2839768977
 20
-0.1337707017
 11
10.2287172969
 21
-0.1341690128
  0
LINE
  5
2DD
100
AcDbEntity
  8
RACCORDO
100
AcDbLine
 62
253
  6
CONTINUOUS
 10
-11.0333576167
 20
0.1601717691
 11
-10.9721316012
 21
0.1604968181
  0
LINE
  5
2DE
100
AcDbEntity
  8
RACCORDO
100
AcDbLine
 62
253
  6
CONTINUOUS
 10
10.4878661263
 20
-0.3837878426
 11
10.3945041858
 21
-0.384212989
  0
LINE
  5
2DF
100
AcDbEntity
  8
RACCORDO
100
AcDbLine
 62
253
  6
CONTINUOUS
 10
10.2287172969
 20
-0.1341690128
 11
10.1627848846
 21
-0.134414119
  0
LINE
  5
2E0
100
AcDbEntity
  8
RACCORDO
100
AcDbLine
 62
253
  6
CONTINUOUS
 10
10.3945041858
 20
-0.384212989
 11
10.2679696401
 21
-0.3845345349
  0
LINE
  5
2E1
100
AcDbEntity
  8
RACCORDO
100
AcDbLine
 62
253
  6
CONTINUOUS
 10
10.2679696401
 20
-0.3845345349
 11
10.226787106
 21
-0.3845959342
  0
LINE
  5
2E2
100
AcDbEntity
  8
RACCORDO
100
AcDbLine
 62
253
  6
CONTINUOUS
 10
-10.9721316012
 20
0.1604968181
 11
-10.8956960608
 21
0.1606632413
  0
LINE
  5
2E3
100
AcDbEntity
  8
RACCORDO
100
AcDbLine
 62
253
  6
CONTINUOUS
 10
10.226787106
 20
-0.3845959342
 11
10.1561872336
 21
-0.3846600399
  0
LINE
  5
2E4
100
AcDbEntity
  8
RACCORDO
100
AcDbLine
 62
253
  6
CONTINUOUS
 10
10.1561872336
 20
-0.3846600399
 11
10.0987835294
 21
-0.3846761847
  0
LINE
  5
2E5
100
AcDbEntity
  8
RACCORDO
100
AcDbLine
 62
253
  6
CONTINUOUS
 10
10.1627848846
 20
-0.134414119
 11
10.098785537
 21
-0.1344868189
  0
LINE
  5
2E6
100
AcDbEntity
  8
DRAFT
100
AcDbLine
 62
7
  6
CONTINUOUS
 10
7.6123168641
 20
-0.113088334
 11
-8.3876831359
 21
-0.113088334
  0
LINE
  5
2E7
100
AcDbEntity
  8
RACCORDO
100
AcDbLine
 62
7
  6
CONTINUOUS
 10
-11.1975364851
 20
-0.0956345985
 11
-8.562660463
 21
-0.0956345985
  0
LINE
  5
2E8
100
AcDbEntity
  8
RACCORDO
100
AcDbLine
 62
7
  6
CONTINUOUS
 10
7.7872941911
 20
-0.0956345985
 11
10.4221702133
 21
-0.0956345985
  0
LINE
  5
2E9
100
AcDbEntity
  8
RACCORDO
100
AcDbLine
 62
7
  6
CONTINUOUS
 10
10.4221702133
 20
0.1218191371
 11
7.7872941911
 21
0.1218191371
  0
LINE
  5
2EA
100
AcDbEntity
  8
RACCORDO
100
AcDbLine
 62
7
  6
CONTINUOUS
 10
-8.562660463
 20
0.1218191371
 11
-11.1975364851
 21
0.1218191371
  0
LINE
  5
2EB
100
AcDbEntity
  8
DRAFT
100
AcDbLine
 62
7
  6
CONTINUOUS
 10
-8.3876831359
 20
0.1392728727
 11
7.6123168641
 21
0.1392728727
  0
LINE
  5
2EC
100
AcDbEntity
  8
RACCORDO
100
AcDbLine
 62
253
  6
CONTINUOUS
 10
-10.8956960608
 20
0.1606632413
 11
10.1059844075
 21
0.1606704496
  0
LINE
  5
2ED
100
AcDbEntity
  8
RACCORDO
100
AcDbLine
 62
253
  6
CONTINUOUS
 10
10.0987835294
 20
-0.3846761841
 11
-11.0160020609
 21
-0.384577353
  0
LINE
  5
2EE
100
AcDbEntity
  8
RACCORDO
100
AcDbLine
 62
253
  6
CONTINUOUS
 10
10.098785537
 20
-0.1344868189
 11
-10.9450736
 21
-0.1343971854
  0
LINE
  5
2EF
100
AcDbEntity
  8
RACCORDO
100
AcDbLine
 62
253
  6
CONTINUOUS
 10
-11.0160020609
 20
-0.384577353
 11
-11.1461986538
 21
-0.3842909381
  0
LINE
  5
2F0
100
AcDbEntity
  8
RACCORDO
100
AcDbLine
 62
253
  6
CONTINUOUS
 10
10.1059844075
 20
0.1606704496
 11
10.1833763977
 21
0.1605426709
  0
LINE
  5
2F1
100
AcDbEntity
  8
RACCORDO
100
AcDbLine
 62
253
  6
CONTINUOUS
 10
-11.1461986538
 20
-0.3842909381
 11
-11.2445318103
 21
-0.383892005
  0
LINE
  5
2F2
100
AcDbEntity
  8
RACCORDO
100
AcDbLine
 62
253
  6
CONTINUOUS
 10
-10.9450736
 20
-0.1343971854
 11
-11.0101762597
 21
-0.1341356096
  0
LINE
  5
2F3
100
AcDbEntity
  8
RACCORDO
100
AcDbLine
 62
253
  6
CONTINUOUS
 10
10.1833763977
 20
0.1605426709
 11
10.2466427861
 21
0.1602488835
  0
LINE
  5
2F4
100
AcDbEntity
  8
RACCORDO
100
AcDbLine
 62
253
  6
CONTINUOUS
 10
10.2466427861
 20
0.1602488835
 11
10.2579913449
 21
0.1601717691
  0
LINE
  5
2F5
100
AcDbEntity
  8
RACCORDO
100
AcDbLine
 62
253
  6
CONTINUOUS
 10
-11.2445318103
 20
-0.383892005
 11
-11.3113834365
 21
-0.3834471362
  0
LINE
  5
2F6
100
AcDbEntity
  8
RACCORDO
100
AcDbLine
 62
253
  6
CONTINUOUS
 10
-11.0101762597
 20
-0.1341356096
 11
-11.0640958126
 21
-0.1337236263
  0
LINE
  5
2F7
100
AcDbEntity
  8
RACCORDO
100
AcDbLine
 62
253
  6
CONTINUOUS
 10
-11.3113834365
 20
-0.3834471362
 11
-11.3465419927
 21
-0.38307225
  0
LINE
  5
2F8
100
AcDbEntity
  8
RACCORDO
100
AcDbLine
 62
253
  6
CONTINUOUS
 10
-11.0640958126
 20
-0.1337236263
 11
-11.0891896136
 21
-0.1334178697
  0
LINE
  5
2F9
100
AcDbEntity
  8
RACCORDO
100
AcDbLine
 62
253
  6
CONTINUOUS
 10
-11.3465419927
 20
-0.38307225
 11
-11.3589066041
 21
-0.3828754427
  0
LINE
  5
2FA
100
AcDbEntity
  8
RACCORDO
100
AcDbLine
 62
253
  6
CONTINUOUS
 10
-11.0891896136
 20
-0.1334178697
 11
-11.1024061616
 21
-0.1331950719
  0
LWPOLYLINE
  5
2FB
100
AcDbEntity
  8
RACCORDO
100
AcDbPolyline
 62
253
  6
CONTINUOUS
 90
8
 70
0
 10
-11.3589066041
 20
-0.3828754427
 10
-11.3651499008
 20
-0.3827417385
 10
-11.3676633229
 20
-0.3826743337
 10
-11.3697683982
 20
-0.3826065724
 10
-11.3714634022
 20
-0.3825386015
 10
-11.3727469346
 20
-0.3824704763
 10
-11.3736179294
 20
-0.3824021604
 10
-11.3740756661
 20
-0.3823336631
  0
LINE
  5
2FC
100
AcDbEntity
  8
RACCORDO
100
AcDbLine
 62
253
  6
CONTINUOUS
 10
-11.1024061616
 20
-0.1331950719
 11
-11.1103464904
 21
-0.1330200725
  0
LINE
  5
2FD
100
AcDbEntity
  8
RACCORDO
100
AcDbLine
 62
253
  6
CONTINUOUS
 10
-11.1103464904
 20
-0.1330200725
 11
-11.1146673037
 21
-0.1329003518
  0
LWPOLYLINE
  5
2FE
100
AcDbEntity
  8
RACCORDO
100
AcDbPolyline
 62
253
  6
CONTINUOUS
 90
9
 70
0
 10
-11.1146673037
 20
-0.1329003518
 10
-11.1181915327
 20
-0.1327786589
 10
-11.1196511722
 20
-0.1327172258
 10
-11.1209072837
 20
-0.1326554503
 10
-11.1219603702
 20
-0.1325933343
 10
-11.1228078172
 20
-0.1325310348
 10
-11.123448753
 20
-0.1324686041
 10
-11.1238840491
 20
-0.13240599
 10
-11.1241137057
 20
-0.1323431923
  0
LINE
  5
2FF
100
AcDbEntity
  8
DRAFT
100
AcDbLine
 62
7
  6
CONTINUOUS
 10
-8.562660463
 20
-0.0956345985
 11
-8.3876831359
 21
-0.113088334
  0
LINE
  5
300
100
AcDbEntity
  8
DRAFT
100
AcDbLine
 62
7
  6
CONTINUOUS
 10
-8.562660463
 20
0.1218191371
 11
-8.3876831359
 21
0.1392728727
  0
LINE
  5
301
100
AcDbEntity
  8
RACCORDO
100
AcDbLine
 62
253
  6
CONTINUOUS
 10
-11.1181915327
 20
0.1589631976
 11
-11.1146673037
 21
0.1590848904
  0
LINE
  5
302
100
AcDbEntity
  8
RACCORDO
100
AcDbLine
 62
253
  6
CONTINUOUS
 10
-11.1146673037
 20
0.1590848904
 11
-11.1103464904
 21
0.1592046111
  0
LINE
  5
303
100
AcDbEntity
  8
RACCORDO
100
AcDbLine
 62
253
  6
CONTINUOUS
 10
-11.3676633229
 20
0.4088588723
 11
-11.3622301879
 21
0.4089933169
  0
LINE
  5
304
100
AcDbEntity
  8
RACCORDO
100
AcDbLine
 62
253
  6
CONTINUOUS
 10
-11.1103464904
 20
0.1592046111
 11
-11.1024061616
 21
0.1593796106
  0
LINE
  5
305
100
AcDbEntity
  8
RACCORDO
100
AcDbLine
 62
253
  6
CONTINUOUS
 10
-11.3622301879
 20
0.4089933169
 11
-11.3510592555
 21
0.4091917265
  0
LINE
  5
306
100
AcDbEntity
  8
RACCORDO
100
AcDbLine
 62
253
  6
CONTINUOUS
 10
-11.1024061616
 20
0.1593796106
 11
-11.0891896136
 21
0.1596024084
  0
LINE
  5
307
100
AcDbEntity
  8
RACCORDO
100
AcDbLine
 62
253
  6
CONTINUOUS
 10
-11.3510592555
 20
0.4091917265
 11
-11.3246064786
 21
0.4095099642
  0
LINE
  5
308
100
AcDbEntity
  8
RACCORDO
100
AcDbLine
 62
253
  6
CONTINUOUS
 10
-11.0891896136
 20
0.1596024084
 11
-11.0593431695
 21
0.1599552403
  0
LINE
  5
309
100
AcDbEntity
  8
RACCORDO
100
AcDbLine
 62
253
  6
CONTINUOUS
 10
-11.0593431695
 20
0.1599552403
 11
-11.0333576167
 21
0.1601717691
  0
LINE
  5
30A
100
AcDbEntity
  8
RACCORDO
100
AcDbLine
 62
253
  6
CONTINUOUS
 10
-11.3246064786
 20
0.4095099642
 11
-11.2632323981
 21
0.4099723813
  0
LINE
  5
30B
100
AcDbEntity
  8
RACCORDO
100
AcDbLine
 62
253
  6
CONTINUOUS
 10
-11.2632323981
 20
0.4099723813
 11
-11.1698704576
 21
0.4103975276
  0
LINE
  5
30C
100
AcDbEntity
  8
RACCORDO
100
AcDbLine
 62
253
  6
CONTINUOUS
 10
-11.1698704576
 20
0.4103975276
 11
-11.0433359119
 21
0.4107190735
  0
LINE
  5
30D
100
AcDbEntity
  8
RACCORDO
100
AcDbLine
 62
253
  6
CONTINUOUS
 10
-11.0433359119
 20
0.4107190735
 11
-10.9028992251
 21
0.4108565793
  0
LINE
  5
30E
100
AcDbEntity
  8
RACCORDO
100
AcDbLine
 62
253
  6
CONTINUOUS
 10
-10.9028992251
 20
0.4108565793
 11
10.1131641887
 21
0.410859633
  0
LINE
  5
30F
100
AcDbEntity
  8
RACCORDO
100
AcDbLine
 62
253
  6
CONTINUOUS
 10
10.1131641887
 20
0.410859633
 11
10.1846516464
 21
0.4108247469
  0
LINE
  5
310
100
AcDbEntity
  8
RACCORDO
100
AcDbLine
 62
253
  6
CONTINUOUS
 10
10.1846516464
 20
0.4108247469
 11
10.2814322358
 21
0.4106948805
  0
LINE
  5
311
100
AcDbEntity
  8
RACCORDO
100
AcDbLine
 62
253
  6
CONTINUOUS
 10
10.2814322358
 20
0.4106948805
 11
10.4059779075
 21
0.4103561291
  0
LINE
  5
312
100
AcDbEntity
  8
RACCORDO
100
AcDbLine
 62
253
  6
CONTINUOUS
 10
10.4059779075
 20
0.4103561291
 11
10.4967373239
 21
0.4099183906
  0
LINE
  5
313
100
AcDbEntity
  8
RACCORDO
100
AcDbLine
 62
253
  6
CONTINUOUS
 10
10.4967373239
 20
0.4099183906
 11
10.5552952976
 21
0.4094478269
  0
LINE
  5
314
100
AcDbEntity
  8
RACCORDO
100
AcDbLine
 62
253
  6
CONTINUOUS
 10
10.2579913449
 20
0.1601717691
 11
10.2977627979
 21
0.1598104893
  0
LINE
  5
315
100
AcDbEntity
  8
RACCORDO
100
AcDbLine
 62
253
  6
CONTINUOUS
 10
10.5552952976
 20
0.4094478269
 11
10.5756929837
 21
0.4091917265
  0
LINE
  5
316
100
AcDbEntity
  8
RACCORDO
100
AcDbLine
 62
253
  6
CONTINUOUS
 10
10.2977627979
 20
0.1598104893
 11
10.3174006672
 21
0.1595479868
  0
LINE
  5
317
100
AcDbEntity
  8
RACCORDO
100
AcDbLine
 62
253
  6
CONTINUOUS
 10
10.5756929837
 20
0.4091917265
 11
10.5868639161
 21
0.4089933169
  0
LINE
  5
318
100
AcDbEntity
  8
RACCORDO
100
AcDbLine
 62
253
  6
CONTINUOUS
 10
10.3174006672
 20
0.1595479868
 11
10.3298801258
 21
0.159321918
  0
LINE
  5
319
100
AcDbEntity
  8
RACCORDO
100
AcDbLine
 62
253
  6
CONTINUOUS
 10
10.3298801258
 20
0.159321918
 11
10.3372400753
 21
0.159144997
  0
LWPOLYLINE
  5
31A
100
AcDbEntity
  8
RACCORDO
100
AcDbPolyline
 62
253
  6
CONTINUOUS
 90
7
 70
0
 10
10.5868639161
 20
0.4089933169
 10
10.5922970511
 20
0.4088588723
 10
10.5944021264
 20
0.408791111
 10
10.5960971303
 20
0.4087231402
 10
10.5973806627
 20
0.408655015
 10
10.5982516576
 20
0.408586699
 10
10.5987093943
 20
0.4085182018
  0
LWPOLYLINE
  5
31B
100
AcDbEntity
  8
RACCORDO
100
AcDbPolyline
 62
253
  6
CONTINUOUS
 90
10
 70
0
 10
10.3372400753
 20
0.159144997
 10
10.3411625965
 20
0.1590242902
 10
10.3428252609
 20
0.1589631976
 10
10.3442849004
 20
0.1589017644
 10
10.3455410118
 20
0.158839989
 10
10.3465940984
 20
0.158777873
 10
10.3474415454
 20
0.1587155735
 10
10.3480824812
 20
0.1586531428
 10
10.3485177773
 20
0.1585905286
 10
10.3487474339
 20
0.158527731
  0
LINE
  5
31C
100
AcDbEntity
  8
DRAFT
100
AcDbLine
 62
7
  6
CONTINUOUS
 10
7.7872941911
 20
0.1218191371
 11
7.6123168641
 21
0.1392728727
  0
LINE
  5
31D
100
AcDbEntity
  8
RACCORDO
100
AcDbLine
 62
253
  6
CONTINUOUS
 10
10.2126974638
 20
22.2630922693
 11
10.1255258836
 21
22.0013648592
  0
LWPOLYLINE
  5
31E
100
AcDbEntity
  8
RACCORDO
100
AcDbPolyline
 62
253
  6
CONTINUOUS
 90
8
 70
0
 10
-11.1241137057
 20
0.158527731
 10
-11.1238840491
 20
0.1585905286
 10
-11.123448753
 20
0.1586531428
 10
-11.1228078172
 20
0.1587155735
 10
-11.1219603702
 20
0.158777873
 10
-11.1209072837
 20
0.158839989
 10
-11.1196511722
 20
0.1589017644
 10
-11.1181915327
 20
0.1589631976
  0
LWPOLYLINE
  5
31F
100
AcDbEntity
  8
RACCORDO
100
AcDbPolyline
 62
253
  6
CONTINUOUS
 90
6
 70
0
 10
-11.3740756661
 20
0.4085182018
 10
-11.3736179294
 20
0.408586699
 10
-11.3727469346
 20
0.408655015
 10
-11.3714634022
 20
0.4087231402
 10
-11.3697683982
 20
0.408791111
 10
-11.3676633229
 20
0.4088588723
  0
LINE
  5
320
100
AcDbEntity
  8
RACCORDO
100
AcDbLine
 62
253
  6
CONTINUOUS
 10
10.1255258836
 20
-21.9751803205
 11
10.2126974638
 21
-22.2369077307
  0
LWPOLYLINE
  5
321
100
AcDbEntity
  8
RACCORDO
100
AcDbPolyline
 62
253
  6
CONTINUOUS
 90
13
 70
0
 10
10.6254497005
 20
21.5020499998
 10
10.6252402559
 20
21.5012760089
 10
10.6250314302
 20
21.5002156733
 10
10.6248232236
 20
21.4988689932
 10
10.6246155145
 20
21.4972348547
 10
10.6244084244
 20
21.4953143716
 10
10.6242023175
 20
21.4931108853
 10
10.6239971975
 20
21.4906239105
 10
10.6237930607
 20
21.4878539325
 10
10.6235902609
 20
21.484805749
 10
10.6233888006
 20
21.4814788805
 10
10.6231886773
 20
21.4778738065
 10
10.6227934825
 20
21.469847279
  0
LINE
  5
322
100
AcDbEntity
  8
RACCORDO
100
AcDbLine
 62
253
  6
CONTINUOUS
 10
10.7123168641
 20
21.7628634173
 11
10.6254497005
 21
21.5020499998
  0
LINE
  5
323
100
AcDbEntity
  8
RACCORDO
100
AcDbLine
 62
253
  6
CONTINUOUS
 10
10.4221702133
 20
-0.0956345985
 11
10.3487474339
 21
-0.1323431923
  0
LINE
  5
324
100
AcDbEntity
  8
DRAFT
100
AcDbLine
 62
7
  6
CONTINUOUS
 10
10.6721702148
 20
4.1130922693
 11
10.7123168641
 21
4.1130922693
  0
LINE
  5
325
100
AcDbEntity
  8
DRAFT
100
AcDbLine
 62
7
  6
CONTINUOUS
 10
-11.4475364866
 20
4.1130922693
 11
-11.4876831359
 21
4.1130922693
  0
LINE
  5
326
100
AcDbEntity
  8
RACCORDO
100
AcDbLine
 62
253
  6
CONTINUOUS
 10
10.3487474339
 20
0.158527731
 11
10.4221702133
 21
0.1218191371
  0
LINE
  5
327
100
AcDbEntity
  8
RACCORDO
100
AcDbLine
 62
253
  6
CONTINUOUS
 10
10.6254497005
 20
-21.4758654612
 11
10.7123168641
 21
-21.7366788786
  0
LINE
  5
328
100
AcDbEntity
  8
RACCORDO
100
AcDbLine
 62
253
  6
CONTINUOUS
 10
10.6721702148
 20
-0.3456060418
 11
10.5987093943
 21
-0.3823336548
  0
LINE
  5
329
100
AcDbEntity
  8
RACCORDO
100
AcDbLine
 62
253
  6
CONTINUOUS
 10
10.5987093943
 20
0.4085181934
 11
10.6721702148
 21
0.3717905805
  0
LWPOLYLINE
  5
32A
100
AcDbEntity
  8
RACCORDO
100
AcDbPolyline
 62
253
  6
CONTINUOUS
 90
10
 70
0
 10
10.1255258682
 20
22.0013648592
 10
10.1253163999
 20
21.9998192576
 10
10.1251075584
 20
21.997698025
 10
10.1248993437
 20
21.9950023755
 10
10.1246916379
 20
21.9917338494
 10
10.1244845588
 20
21.9878943275
 10
10.1242784598
 20
21.9834860397
 10
10.1240733393
 20
21.9785115339
 10
10.1238691989
 20
21.972973677
 10
10.1234649379
 20
21.9602210722
  0
LWPOLYLINE
  5
32B
100
AcDbEntity
  8
RACCORDO
100
AcDbPolyline
 62
253
  6
CONTINUOUS
 90
11
 70
0
 10
10.6233888006
 20
-21.4552943419
 10
10.6235902609
 20
-21.4586212104
 10
10.6237930607
 20
-21.4616693939
 10
10.6239971975
 20
-21.4644393719
 10
10.6242023175
 20
-21.4669263467
 10
10.6244084244
 20
-21.4691298329
 10
10.6246155145
 20
-21.471050316
 10
10.6248232236
 20
-21.4726844546
 10
10.6250314302
 20
-21.4740311347
 10
10.6252402559
 20
-21.4750914702
 10
10.6254497005
 20
-21.4758654612
  0
LINE
  5
32C
100
AcDbEntity
  8
RACCORDO
100
AcDbLine
 62
253
  6
CONTINUOUS
 10
10.622990237
 20
-21.4478122248
 11
10.6233888006
 21
-21.4552943419
  0
LWPOLYLINE
  5
32D
100
AcDbEntity
  8
RACCORDO
100
AcDbPolyline
 62
253
  6
CONTINUOUS
 90
8
 70
0
 10
10.1240733393
 20
-21.9523269953
 10
10.1242784598
 20
-21.957301501
 10
10.1244845588
 20
-21.9617097889
 10
10.1246916379
 20
-21.9655493108
 10
10.1248993437
 20
-21.9688178369
 10
10.1251075584
 20
-21.9715134863
 10
10.1253163999
 20
-21.973634719
 10
10.1255258682
 20
-21.9751803205
  0
LWPOLYLINE
  5
32E
100
AcDbEntity
  8
RACCORDO
100
AcDbPolyline
 62
253
  6
CONTINUOUS
 90
3
 70
0
 10
10.6224053602
 20
-21.4345555169
 10
10.622598411
 20
-21.4392412867
 10
10.622990237
 20
-21.4478122248
  0
LINE
  5
32F
100
AcDbEntity
  8
RACCORDO
100
AcDbLine
 62
253
  6
CONTINUOUS
 10
10.1236663968
 20
-21.9406911408
 11
10.1240733393
 21
-21.9523269953
  0
LINE
  5
330
100
AcDbEntity
  8
RACCORDO
100
AcDbLine
 62
253
  6
CONTINUOUS
 10
10.1232648173
 20
-21.9268291541
 11
10.1236663968
 21
-21.9406911408
  0
LINE
  5
331
100
AcDbEntity
  8
RACCORDO
100
AcDbLine
 62
253
  6
CONTINUOUS
 10
10.1226745545
 20
-21.9019335241
 11
10.1232648173
 21
-21.9268291541
  0
LWPOLYLINE
  5
332
100
AcDbEntity
  8
RACCORDO
100
AcDbPolyline
 62
253
  6
CONTINUOUS
 90
3
 70
0
 10
10.1217305106
 20
-21.8498352859
 10
10.1219148163
 20
-21.861288809
 10
10.1226745545
 20
-21.9019335241
  0
LINE
  5
333
100
AcDbEntity
  8
RACCORDO
100
AcDbLine
 62
253
  6
CONTINUOUS
 10
10.1224815041
 20
21.9187443316
 11
10.1217305106
 21
21.8760198246
  0
LINE
  5
334
100
AcDbEntity
  8
RACCORDO
100
AcDbLine
 62
253
  6
CONTINUOUS
 10
10.1230663792
 20
21.9452576952
 11
10.1224815041
 21
21.9187443316
  0
LINE
  5
335
100
AcDbEntity
  8
RACCORDO
100
AcDbLine
 62
253
  6
CONTINUOUS
 10
10.1234649379
 20
21.9602210722
 11
10.1230663792
 21
21.9452576952
  0
LINE
  5
336
100
AcDbEntity
  8
RACCORDO
100
AcDbLine
 62
253
  6
CONTINUOUS
 10
10.6227934825
 20
21.469847279
 11
10.6224053602
 21
21.4607400556
  0
LINE
  5
337
100
AcDbEntity
  8
RACCORDO
100
AcDbLine
 62
253
  6
CONTINUOUS
 10
-11.3481131064
 20
9.5065488206
 11
-11.3379101208
 21
9.5070631359
  0
LINE
  5
338
100
AcDbEntity
  8
RACCORDO
100
AcDbLine
 62
253
  6
CONTINUOUS
 10
-11.3379101208
 20
9.5070631359
 11
-11.3261777845
 21
9.5075659663
  0
LINE
  5
339
100
AcDbEntity
  8
RACCORDO
100
AcDbLine
 62
253
  6
CONTINUOUS
 10
-11.3261777845
 20
9.5075659663
 11
-11.312954919
 21
9.5080556479
  0
LINE
  5
33A
100
AcDbEntity
  8
RACCORDO
100
AcDbLine
 62
253
  6
CONTINUOUS
 10
-11.312954919
 20
9.5080556479
 11
-11.2904229034
 21
9.5087619852
  0
LINE
  5
33B
100
AcDbEntity
  8
RACCORDO
100
AcDbLine
 62
253
  6
CONTINUOUS
 10
-11.2904229034
 20
9.5087619852
 11
-11.2648044611
 21
9.5094298467
  0
LINE
  5
33C
100
AcDbEntity
  8
RACCORDO
100
AcDbLine
 62
253
  6
CONTINUOUS
 10
-11.2648044611
 20
9.5094298467
 11
-11.2261781109
 21
9.5102519319
  0
LINE
  5
33D
100
AcDbEntity
  8
RACCORDO
100
AcDbLine
 62
253
  6
CONTINUOUS
 10
-11.2261781109
 20
9.5102519319
 11
-11.1714434203
 21
9.5111545211
  0
LINE
  5
33E
100
AcDbEntity
  8
RACCORDO
100
AcDbLine
 62
253
  6
CONTINUOUS
 10
-11.1714434203
 20
9.5111545211
 11
-11.1106018186
 21
9.5119009425
  0
LINE
  5
33F
100
AcDbEntity
  8
RACCORDO
100
AcDbLine
 62
253
  6
CONTINUOUS
 10
-11.1106018186
 20
9.5119009425
 11
-11.044909743
 21
9.5124757818
  0
LINE
  5
340
100
AcDbEntity
  8
RACCORDO
100
AcDbLine
 62
253
  6
CONTINUOUS
 10
-11.044909743
 20
9.5124757818
 11
-10.9757237977
 21
9.5128671681
  0
LINE
  5
341
100
AcDbEntity
  8
RACCORDO
100
AcDbLine
 62
253
  6
CONTINUOUS
 10
-10.9757237977
 20
9.5128671681
 11
-10.904472739
 21
9.5130670188
  0
LINE
  5
342
100
AcDbEntity
  8
RACCORDO
100
AcDbLine
 62
253
  6
CONTINUOUS
 10
-10.904472739
 20
9.5130670188
 11
10.1003566638
 21
9.513091086
  0
LINE
  5
343
100
AcDbEntity
  8
RACCORDO
100
AcDbLine
 62
253
  6
CONTINUOUS
 10
10.2144064488
 20
9.5128040111
 11
10.1003566644
 21
9.5130922693
  0
LINE
  5
344
100
AcDbEntity
  8
RACCORDO
100
AcDbLine
 62
253
  6
CONTINUOUS
 10
10.3224430285
 20
9.5120300696
 11
10.2144064488
 21
9.5128040111
  0
LINE
  5
345
100
AcDbEntity
  8
RACCORDO
100
AcDbLine
 62
253
  6
CONTINUOUS
 10
10.3960771486
 20
9.5111545211
 11
10.3224430285
 21
9.5120300696
  0
LINE
  5
346
100
AcDbEntity
  8
RACCORDO
100
AcDbLine
 62
253
  6
CONTINUOUS
 10
10.4508118391
 20
9.5102519319
 11
10.3960771486
 21
9.5111545211
  0
LINE
  5
347
100
AcDbEntity
  8
RACCORDO
100
AcDbLine
 62
253
  6
CONTINUOUS
 10
10.4894381894
 20
9.5094298467
 11
10.4508118391
 21
9.5102519319
  0
LINE
  5
348
100
AcDbEntity
  8
RACCORDO
100
AcDbLine
 62
253
  6
CONTINUOUS
 10
10.5150566316
 20
9.5087619852
 11
10.4894381894
 21
9.5094298467
  0
LINE
  5
349
100
AcDbEntity
  8
RACCORDO
100
AcDbLine
 62
253
  6
CONTINUOUS
 10
10.5375886473
 20
9.5080556479
 11
10.5150566316
 21
9.5087619852
  0
LINE
  5
34A
100
AcDbEntity
  8
RACCORDO
100
AcDbLine
 62
253
  6
CONTINUOUS
 10
10.5508115127
 20
9.5075659663
 11
10.5375886473
 21
9.5080556479
  0
LINE
  5
34B
100
AcDbEntity
  8
RACCORDO
100
AcDbLine
 62
253
  6
CONTINUOUS
 10
10.562543849
 20
9.5070631359
 11
10.5508115127
 21
9.5075659663
  0
LINE
  5
34C
100
AcDbEntity
  8
RACCORDO
100
AcDbLine
 62
253
  6
CONTINUOUS
 10
10.6220253274
 20
-21.4243901126
 11
10.6224053602
 21
-21.4345555169
  0
LINE
  5
34D
100
AcDbEntity
  8
RACCORDO
100
AcDbLine
 62
253
  6
CONTINUOUS
 10
10.6214724035
 20
-21.4072129105
 11
10.6220253274
 21
-21.4243901126
  0
LINE
  5
34E
100
AcDbEntity
  8
RACCORDO
100
AcDbLine
 62
253
  6
CONTINUOUS
 10
10.6207715088
 20
-21.3808492267
 11
10.6214724035
 21
-21.4072129105
  0
LINE
  5
34F
100
AcDbEntity
  8
RACCORDO
100
AcDbLine
 62
253
  6
CONTINUOUS
 10
10.6199626978
 20
-21.3426751741
 11
10.6207715088
 21
-21.3808492267
  0
LWPOLYLINE
  5
350
100
AcDbEntity
  8
RACCORDO
100
AcDbPolyline
 62
253
  6
CONTINUOUS
 90
46
 70
0
 10
10.5987093577
 20
-0.3823336731
 10
10.5985557887
 20
-0.3736099762
 10
10.5980979256
 20
-0.3648969058
 10
10.5973363263
 20
-0.3562050752
 10
10.5962719185
 20
-0.3475450722
 10
10.5949059986
 20
-0.3389274456
 10
10.5932402305
 20
-0.3303626924
 10
10.5912766434
 20
-0.3218612457
 10
10.589017629
 20
-0.313433461
 10
10.5864659392
 20
-0.3050896044
 10
10.5836246822
 20
-0.2968398395
 10
10.5804973188
 20
-0.2886942155
 10
10.5770876587
 20
-0.2806626547
 10
10.573399855
 20
-0.2727549404
 10
10.5694384001
 20
-0.264980705
 10
10.5652081194
 20
-0.2573494184
 10
10.5607141658
 20
-0.2498703764
 10
10.5559620134
 20
-0.2425526892
 10
10.5509574509
 20
-0.2354052706
 10
10.5457065745
 20
-0.228436827
 10
10.5402157802
 20
-0.2216558466
 10
10.5344917565
 20
-0.2150705895
 10
10.5285414758
 20
-0.2086890772
 10
10.5223721862
 20
-0.2025190831
 10
10.5159914027
 20
-0.1965681229
 10
10.5094068976
 20
-0.1908434456
 10
10.5026266917
 20
-0.1853520244
 10
10.4956590441
 20
-0.1801005484
 10
10.4885124419
 20
-0.1750954146
 10
10.4811955907
 20
-0.1703427198
 10
10.4737174031
 20
-0.1658482532
 10
10.4660869884
 20
-0.1616174896
 10
10.4583136413
 20
-0.1576555826
 10
10.4504068306
 20
-0.1539673581
 10
10.4423761875
 20
-0.1505573089
 10
10.4342314944
 20
-0.1474295887
 10
10.4259826724
 20
-0.1445880074
 10
10.4176397694
 20
-0.1420360265
 10
10.409212948
 20
-0.1397767544
 10
10.400712473
 20
-0.1378129433
 10
10.392148699
 20
-0.1361469852
 10
10.3835320574
 20
-0.1347809095
 10
10.3748730444
 20
-0.1337163802
 10
10.3661822076
 20
-0.1329546941
 10
10.3574701333
 20
-0.1324967788
 10
10.3487474339
 20
-0.1323431923
  0
LWPOLYLINE
  5
351
100
AcDbEntity
  8
RACCORDO
100
AcDbPolyline
 62
253
  6
CONTINUOUS
 90
55
 70
0
 10
10.6254497005
 20
21.5020499998
 10
10.6252251806
 20
21.5165639931
 10
10.6245783566
 20
21.5310657204
 10
10.6235097753
 20
21.545542926
 10
10.6220203398
 20
21.5599833751
 10
10.6201113087
 20
21.5743748637
 10
10.6177842954
 20
21.5887052295
 10
10.6150412666
 20
21.6029623615
 10
10.6118845403
 20
21.6171342108
 10
10.6083167844
 20
21.6312088006
 10
10.6043410142
 20
21.6451742363
 10
10.5999605894
 20
21.6590187153
 10
10.5951792122
 20
21.6727305376
 10
10.5900009233
 20
21.6862981149
 10
10.584430099
 20
21.6997099812
 10
10.5784714473
 20
21.7129548019
 10
10.5721300039
 20
21.7260213835
 10
10.5654111281
 20
21.7388986832
 10
10.5583204982
 20
21.7515758183
 10
10.5508641065
 20
21.7640420751
 10
10.5430482545
 20
21.7762869182
 10
10.5348795475
 20
21.7882999992
 10
10.5263648892
 20
21.8000711657
 10
10.5175114752
 20
21.8115904697
 10
10.5083267878
 20
21.8228481761
 10
10.4988185892
 20
21.8338347707
 10
10.4889949148
 20
21.8445409686
 10
10.4788640668
 20
21.8549577218
 10
10.468434607
 20
21.8650762271
 10
10.4577153494
 20
21.8748879329
 10
10.446715353
 20
21.8843845474
 10
10.4354439143
 20
21.8935580448
 10
10.4239105587
 20
21.9024006724
 10
10.4121250333
 20
21.9109049572
 10
10.4000972984
 20
21.919063712
 10
10.3878375186
 20
21.9268700417
 10
10.375356055
 20
21.9343173492
 10
10.3626634559
 20
21.9413993405
 10
10.3497704479
 20
21.9481100305
 10
10.3366879272
 20
21.954443748
 10
10.3234269499
 20
21.9603951402
 10
10.3099987232
 20
21.9659591775
 10
10.2964145956
 20
21.9711311576
 10
10.282686047
 20
21.9759067096
 10
10.2688246798
 20
21.9802817977
 10
10.2548422085
 20
21.9842527242
 10
10.2407504498
 20
21.9878161335
 10
10.2265613129
 20
21.9909690139
 10
10.2122867893
 20
21.9937087009
 10
10.1979389427
 20
21.9960328792
 10
10.1835298985
 20
21.9979395845
 10
10.1690718342
 20
21.9994272055
 10
10.1545769685
 20
22.0004944849
 10
10.1400575512
 20
22.0011405208
 10
10.1255258529
 20
22.0013647672
  0
LINE
  5
352
100
AcDbEntity
  8
RACCORDO
100
AcDbLine
 62
253
  6
CONTINUOUS
 10
10.619106214
 20
-21.2899552833
 11
10.6199626978
 21
-21.3426751741
  0
LINE
  5
353
100
AcDbEntity
  8
RACCORDO
100
AcDbLine
 62
253
  6
CONTINUOUS
 10
10.1205145582
 20
-21.7559509294
 11
10.1217305106
 21
-21.8498352859
  0
LINE
  5
354
100
AcDbEntity
  8
RACCORDO
100
AcDbLine
 62
253
  6
CONTINUOUS
 10
10.6181864136
 20
-21.2097606995
 11
10.619106214
 21
-21.2899552833
  0
LINE
  5
355
100
AcDbEntity
  8
RACCORDO
100
AcDbLine
 62
253
  6
CONTINUOUS
 10
10.1189274861
 20
-21.5652128616
 11
10.1205145582
 21
-21.7559509294
  0
LINE
  5
356
100
AcDbEntity
  8
RACCORDO
100
AcDbLine
 62
253
  6
CONTINUOUS
 10
10.6174394692
 20
-21.0978070867
 11
10.6181864136
 21
-21.2097606995
  0
LINE
  5
357
100
AcDbEntity
  8
RACCORDO
100
AcDbLine
 62
253
  6
CONTINUOUS
 10
10.6151182167
 20
-20.1986975143
 11
10.6174394692
 21
-21.0978070867
  0
LINE
  5
358
100
AcDbEntity
  8
RACCORDO
100
AcDbLine
 62
253
  6
CONTINUOUS
 10
10.6131042042
 20
-19.3455693602
 11
10.6151182167
 21
-20.1986975143
  0
LWPOLYLINE
  5
359
100
AcDbEntity
  8
RACCORDO
100
AcDbPolyline
 62
253
  6
CONTINUOUS
 90
3
 70
0
 10
10.111309632
 20
-18.551208322
 10
10.1122270558
 20
-18.980831481
 10
10.1141694681
 20
-19.839290224
  0
LINE
  5
35A
100
AcDbEntity
  8
RACCORDO
100
AcDbLine
 62
253
  6
CONTINUOUS
 10
10.1174672294
 20
-21.1956948669
 11
10.1189274861
 21
-21.5652128616
  0
LINE
  5
35B
100
AcDbEntity
  8
RACCORDO
100
AcDbLine
 62
253
  6
CONTINUOUS
 10
10.6112334798
 20
-18.4913511689
 11
10.6131042042
 21
-19.3455693602
  0
LINE
  5
35C
100
AcDbEntity
  8
RACCORDO
100
AcDbLine
 62
253
  6
CONTINUOUS
 10
10.1095824212
 20
-17.6912245116
 11
10.111309632
 21
-18.551208322
  0
LINE
  5
35D
100
AcDbEntity
  8
RACCORDO
100
AcDbLine
 62
253
  6
CONTINUOUS
 10
10.6095062689
 20
-17.6361417115
 11
10.6112334798
 21
-18.4913511689
  0
LINE
  5
35E
100
AcDbEntity
  8
RACCORDO
100
AcDbLine
 62
253
  6
CONTINUOUS
 10
10.1079988975
 20
-16.8303234912
 11
10.1095824212
 21
-17.6912245116
  0
LINE
  5
35F
100
AcDbEntity
  8
RACCORDO
100
AcDbLine
 62
253
  6
CONTINUOUS
 10
10.6079227451
 20
-16.7800300485
 11
10.6095062689
 21
-17.6361417115
  0
LINE
  5
360
100
AcDbEntity
  8
RACCORDO
100
AcDbLine
 62
253
  6
CONTINUOUS
 10
10.1065591706
 20
-15.9685849135
 11
10.1079988975
 21
-16.8303234912
  0
LINE
  5
361
100
AcDbEntity
  8
RACCORDO
100
AcDbLine
 62
253
  6
CONTINUOUS
 10
10.6064830181
 20
-15.9230755839
 11
10.6079227451
 21
-16.7800300485
  0
LINE
  5
362
100
AcDbEntity
  8
RACCORDO
100
AcDbLine
 62
253
  6
CONTINUOUS
 10
10.1052633965
 20
-15.1060884963
 11
10.1065591706
 21
-15.9685849135
  0
LINE
  5
363
100
AcDbEntity
  8
RACCORDO
100
AcDbLine
 62
253
  6
CONTINUOUS
 10
10.1141694681
 20
-19.839290224
 11
10.1174672294
 21
-21.1956948669
  0
LINE
  5
364
100
AcDbEntity
  8
RACCORDO
100
AcDbLine
 62
253
  6
CONTINUOUS
 10
10.605187244
 20
-15.0653674712
 11
10.6064830181
 21
-15.9230755839
  0
LINE
  5
365
100
AcDbEntity
  8
RACCORDO
100
AcDbLine
 62
253
  6
CONTINUOUS
 10
10.1041117039
 20
-14.242914027
 11
10.1052633965
 21
-15.1060884963
  0
LINE
  5
366
100
AcDbEntity
  8
RACCORDO
100
AcDbLine
 62
253
  6
CONTINUOUS
 10
10.6040355514
 20
-14.2069950069
 11
10.605187244
 21
-15.0653674712
  0
LINE
  5
367
100
AcDbEntity
  8
RACCORDO
100
AcDbLine
 62
253
  6
CONTINUOUS
 10
10.1031041725
 20
-13.3791413623
 11
10.1041117039
 21
-14.242914027
  0
LINE
  5
368
100
AcDbEntity
  8
RACCORDO
100
AcDbLine
 62
253
  6
CONTINUOUS
 10
10.60302802
 20
-13.3480177457
 11
10.6040355514
 21
-14.2069950069
  0
LINE
  5
369
100
AcDbEntity
  8
RACCORDO
100
AcDbLine
 62
253
  6
CONTINUOUS
 10
10.1022409135
 20
-12.5148504061
 11
10.1031041725
 21
-13.3791413623
  0
LINE
  5
36A
100
AcDbEntity
  8
RACCORDO
100
AcDbLine
 62
253
  6
CONTINUOUS
 10
10.602164761
 20
-12.4885250596
 11
10.60302802
 21
-13.3480177457
  0
LINE
  5
36B
100
AcDbEntity
  8
RACCORDO
100
AcDbLine
 62
253
  6
CONTINUOUS
 10
10.1015220105
 20
-11.6501210936
 11
10.1022409135
 21
-12.5148504061
  0
LINE
  5
36C
100
AcDbEntity
  8
RACCORDO
100
AcDbLine
 62
253
  6
CONTINUOUS
 10
10.6014458579
 20
-11.6286063504
 11
10.602164761
 21
-12.4885250596
  0
LINE
  5
36D
100
AcDbEntity
  8
RACCORDO
100
AcDbLine
 62
253
  6
CONTINUOUS
 10
10.1009475132
 20
-10.7850335556
 11
10.1015220105
 21
-11.6501210936
  0
LINE
  5
36E
100
AcDbEntity
  8
RACCORDO
100
AcDbLine
 62
253
  6
CONTINUOUS
 10
10.6008713606
 20
-10.7683215653
 11
10.6014458579
 21
-11.6286063504
  0
LWPOLYLINE
  5
36F
100
AcDbEntity
  8
RACCORDO
100
AcDbPolyline
 62
253
  6
CONTINUOUS
 90
3
 70
0
 10
10.1003566638
 20
-9.4869065474
 10
10.1005174969
 20
-9.9196683149
 10
10.1009475132
 20
-10.7850335556
  0
LWPOLYLINE
  5
370
100
AcDbEntity
  8
RACCORDO
100
AcDbPolyline
 62
253
  6
CONTINUOUS
 90
3
 70
0
 10
10.600280512
 20
-9.4774077307
 10
10.6004413447
 20
-9.9077812459
 10
10.6008713606
 20
-10.7683215653
  0
LINE
  5
371
100
AcDbEntity
  8
RACCORDO
100
AcDbLine
 62
253
  6
CONTINUOUS
 10
10.0995118849
 20
-6.4530168778
 11
10.1003566641
 21
-9.4869065474
  0
LINE
  5
372
100
AcDbEntity
  8
RACCORDO
100
AcDbLine
 62
253
  6
CONTINUOUS
 10
10.0989881739
 20
-3.418928223
 11
10.0995118849
 21
-6.4530168778
  0
LINE
  5
373
100
AcDbEntity
  8
RACCORDO
100
AcDbLine
 62
253
  6
CONTINUOUS
 10
10.5994355858
 20
-6.4459011059
 11
10.600280512
 21
-9.4774077307
  0
LINE
  5
374
100
AcDbEntity
  8
RACCORDO
100
AcDbLine
 62
253
  6
CONTINUOUS
 10
10.5989118659
 20
-3.4141968999
 11
10.5994355858
 21
-6.4459011059
  0
LINE
  5
375
100
AcDbEntity
  8
RACCORDO
100
AcDbLine
 62
253
  6
CONTINUOUS
 10
10.0989881739
 20
-3.418928223
 11
10.098785537
 21
-0.1344868189
  0
LINE
  5
376
100
AcDbEntity
  8
RACCORDO
100
AcDbLine
 62
253
  6
CONTINUOUS
 10
10.5987093943
 20
-0.3823336548
 11
10.5989118659
 21
-3.4141968999
  0
LINE
  5
377
100
AcDbEntity
  8
RACCORDO
100
AcDbLine
 62
7
  6
CONTINUOUS
 10
10.6721702148
 20
-0.3456060418
 11
10.6721702148
 21
-4.0869077307
  0
LINE
  5
378
100
AcDbEntity
  8
RACCORDO
100
AcDbLine
 62
7
  6
CONTINUOUS
 10
10.6721702148
 20
0.3717905805
 11
10.6721702148
 21
4.1130922693
  0
LINE
  5
379
100
AcDbEntity
  8
DRAFT
100
AcDbLine
 62
7
  6
CONTINUOUS
 10
10.7123168641
 20
-4.0869077307
 11
10.7123168641
 21
-13.1755628025
  0
LINE
  5
37A
100
AcDbEntity
  8
RACCORDO
100
AcDbLine
 62
7
  6
CONTINUOUS
 10
10.7123168641
 20
-13.1755628025
 11
10.7123168641
 21
-21.7366788786
  0
LINE
  5
37B
100
AcDbEntity
  8
DRAFT
100
AcDbLine
 62
7
  6
CONTINUOUS
 10
10.7123168641
 20
4.1130922693
 11
10.7123168641
 21
13.2017473412
  0
LINE
  5
37C
100
AcDbEntity
  8
RACCORDO
100
AcDbLine
 62
7
  6
CONTINUOUS
 10
10.7123168641
 20
13.2017473412
 11
10.7123168641
 21
21.7628634173
  0
LWPOLYLINE
  5
37D
100
AcDbEntity
  8
RACCORDO
100
AcDbPolyline
 62
253
  6
CONTINUOUS
 90
3
 70
0
 10
10.0991272183
 20
4.4564964982
 10
10.0988845073
 20
2.4337080513
 10
10.098785537
 20
0.1606713575
  0
LWPOLYLINE
  5
37E
100
AcDbEntity
  8
RACCORDO
100
AcDbPolyline
 62
253
  6
CONTINUOUS
 90
3
 70
0
 10
10.5990507465
 20
4.4509686057
 10
10.5988086811
 20
2.4297780279
 10
10.5987093943
 20
0.4085181934
  0
LINE
  5
37F
100
AcDbEntity
  8
RACCORDO
100
AcDbLine
 62
253
  6
CONTINUOUS
 10
10.1000393968
 20
8.5018235366
 11
10.0991272183
 21
4.4564964982
  0
LINE
  5
380
100
AcDbEntity
  8
RACCORDO
100
AcDbLine
 62
253
  6
CONTINUOUS
 10
10.5999631803
 20
8.4931120145
 11
10.5990507465
 21
4.4509686057
  0
LINE
  5
381
100
AcDbEntity
  8
RACCORDO
100
AcDbLine
 62
253
  6
CONTINUOUS
 10
10.1007144467
 20
10.3785651928
 11
10.1000393968
 21
8.5018235366
  0
LINE
  5
382
100
AcDbEntity
  8
RACCORDO
100
AcDbLine
 62
253
  6
CONTINUOUS
 10
10.6006382943
 20
10.3642703961
 11
10.5999631803
 21
8.4931120145
  0
LINE
  5
383
100
AcDbEntity
  8
RACCORDO
100
AcDbLine
 62
253
  6
CONTINUOUS
 10
10.101863413
 20
12.1087200981
 11
10.1007144467
 21
10.3785651928
  0
LINE
  5
384
100
AcDbEntity
  8
RACCORDO
100
AcDbLine
 62
253
  6
CONTINUOUS
 10
10.6017872605
 20
12.0847998051
 11
10.6006382943
 21
10.3642703961
  0
LINE
  5
385
100
AcDbEntity
  8
RACCORDO
100
AcDbLine
 62
253
  6
CONTINUOUS
 10
10.1035899048
 20
13.8372820157
 11
10.101863413
 21
12.1087200981
  0
LINE
  5
386
100
AcDbEntity
  8
RACCORDO
100
AcDbLine
 62
253
  6
CONTINUOUS
 10
10.6035137523
 20
13.8037553404
 11
10.6017872605
 21
12.0847998051
  0
LINE
  5
387
100
AcDbEntity
  8
RACCORDO
100
AcDbLine
 62
253
  6
CONTINUOUS
 10
10.1058932901
 20
15.5636109872
 11
10.1035899048
 21
13.8372820157
  0
LINE
  5
388
100
AcDbEntity
  8
RACCORDO
100
AcDbLine
 62
253
  6
CONTINUOUS
 10
10.6058171376
 20
15.520500269
 11
10.6035137523
 21
13.8037553404
  0
LINE
  5
389
100
AcDbEntity
  8
RACCORDO
100
AcDbLine
 62
253
  6
CONTINUOUS
 10
10.1087726902
 20
17.2870682139
 11
10.1058932901
 21
15.5636109872
  0
LINE
  5
38A
100
AcDbEntity
  8
RACCORDO
100
AcDbLine
 62
253
  6
CONTINUOUS
 10
10.6086965378
 20
17.2343794891
 11
10.6058171376
 21
15.520500269
  0
LINE
  5
38B
100
AcDbEntity
  8
RACCORDO
100
AcDbLine
 62
253
  6
CONTINUOUS
 10
10.111309632
 20
18.5773928607
 11
10.1087726902
 21
17.2870682139
  0
LINE
  5
38C
100
AcDbEntity
  8
RACCORDO
100
AcDbLine
 62
253
  6
CONTINUOUS
 10
10.6121509034
 20
18.944768708
 11
10.6086965378
 21
17.2343794891
  0
LINE
  5
38D
100
AcDbEntity
  8
RACCORDO
100
AcDbLine
 62
253
  6
CONTINUOUS
 10
10.1151943677
 20
20.2942901757
 11
10.111309632
 21
18.5773928607
  0
LINE
  5
38E
100
AcDbEntity
  8
RACCORDO
100
AcDbLine
 62
253
  6
CONTINUOUS
 10
10.614093316
 20
19.7984616405
 11
10.6121509034
 21
18.944768708
  0
LINE
  5
38F
100
AcDbEntity
  8
RACCORDO
100
AcDbLine
 62
253
  6
CONTINUOUS
 10
10.1175689439
 20
21.2684945977
 11
10.1151943677
 21
20.2942901757
  0
LINE
  5
390
100
AcDbEntity
  8
RACCORDO
100
AcDbLine
 62
253
  6
CONTINUOUS
 10
10.6177541725
 20
21.1812554011
 11
10.614093316
 21
19.7984616405
  0
LINE
  5
391
100
AcDbEntity
  8
RACCORDO
100
AcDbLine
 62
253
  6
CONTINUOUS
 10
10.1191823737
 20
21.62954972
 11
10.1175689439
 21
21.2684945977
  0
LINE
  5
392
100
AcDbEntity
  8
RACCORDO
100
AcDbLine
 62
253
  6
CONTINUOUS
 10
10.1206796282
 20
21.7969631598
 11
10.1191823737
 21
21.62954972
  0
LINE
  5
393
100
AcDbEntity
  8
RACCORDO
100
AcDbLine
 62
253
  6
CONTINUOUS
 10
10.6186126509
 20
21.2773096431
 11
10.6177541725
 21
21.1812554011
  0
LINE
  5
394
100
AcDbEntity
  8
RACCORDO
100
AcDbLine
 62
253
  6
CONTINUOUS
 10
10.1217305106
 20
21.8760198246
 11
10.1206796282
 21
21.7969631598
  0
LWPOLYLINE
  5
395
100
AcDbEntity
  8
RACCORDO
100
AcDbPolyline
 62
253
  6
CONTINUOUS
 90
55
 70
0
 10
10.6254497005
 20
-21.4758654612
 10
10.6252251806
 20
-21.4903794547
 10
10.6245783566
 20
-21.5048811822
 10
10.6235097753
 20
-21.519358388
 10
10.6220203397
 20
-21.5337988372
 10
10.6201113085
 20
-21.548190326
 10
10.6177842952
 20
-21.5625206919
 10
10.6150412663
 20
-21.5767778241
 10
10.61188454
 20
-21.5909496736
 10
10.608316784
 20
-21.6050242635
 10
10.6043410137
 20
-21.6189896993
 10
10.5999605888
 20
-21.6328341784
 10
10.5951792115
 20
-21.6465460007
 10
10.5900009225
 20
-21.6601135782
 10
10.5844300982
 20
-21.6735254445
 10
10.5784714463
 20
-21.6867702652
 10
10.5721300029
 20
-21.6998368469
 10
10.565411127
 20
-21.7127141467
 10
10.558320497
 20
-21.7253912818
 10
10.5508641051
 20
-21.7378575386
 10
10.5430482531
 20
-21.7501023817
 10
10.534879546
 20
-21.7621154627
 10
10.5263648876
 20
-21.7738866292
 10
10.5175114736
 20
-21.7854059331
 10
10.5083267861
 20
-21.7966636394
 10
10.4988185874
 20
-21.807650234
 10
10.488994913
 20
-21.8183564318
 10
10.478864065
 20
-21.828773185
 10
10.4684346051
 20
-21.8388916902
 10
10.4577153475
 20
-21.848703396
 10
10.4467153511
 20
-21.8582000104
 10
10.4354439123
 20
-21.8673735077
 10
10.4239105567
 20
-21.8762161352
 10
10.4121250314
 20
-21.8847204199
 10
10.4000972964
 20
-21.8928791746
 10
10.3878375167
 20
-21.9006855042
 10
10.3753560532
 20
-21.9081328116
 10
10.3626634541
 20
-21.9152148028
 10
10.3497704461
 20
-21.9219254928
 10
10.3366879254
 20
-21.9282592102
 10
10.3234269483
 20
-21.9342106023
 10
10.3099987217
 20
-21.9397746395
 10
10.2964145941
 20
-21.9449466195
 10
10.2826860456
 20
-21.9497221714
 10
10.2688246785
 20
-21.9540972594
 10
10.2548422073
 20
-21.9580681859
 10
10.2407504487
 20
-21.9616315951
 10
10.226561312
 20
-21.9647844754
 10
10.2122867885
 20
-21.9675241624
 10
10.197938942
 20
-21.9698483406
 10
10.183529898
 20
-21.9717550459
 10
10.1690718338
 20
-21.9732426668
 10
10.1545769682
 20
-21.9743099463
 10
10.1400575511
 20
-21.9749559822
 10
10.1255258529
 20
-21.9751802286
  0
LINE
  5
396
100
AcDbEntity
  8
RACCORDO
100
AcDbLine
 62
253
  6
CONTINUOUS
 10
10.6195178644
 20
21.3433843402
 11
10.6186126509
 21
21.2773096431
  0
LWPOLYLINE
  5
397
100
AcDbEntity
  8
RACCORDO
100
AcDbPolyline
 62
253
  6
CONTINUOUS
 90
46
 70
0
 10
10.5987093577
 20
0.4085182117
 10
10.5985557887
 20
0.3997945152
 10
10.5980979257
 20
0.3910814451
 10
10.5973363265
 20
0.382389615
 10
10.5962719187
 20
0.3737296123
 10
10.5949059989
 20
0.3651119859
 10
10.593240231
 20
0.3565472331
 10
10.591276644
 20
0.3480457866
 10
10.5890176298
 20
0.3396180022
 10
10.5864659401
 20
0.3312741459
 10
10.5836246833
 20
0.3230243812
 10
10.5804973201
 20
0.3148787574
 10
10.5770876602
 20
0.3068471968
 10
10.5733998568
 20
0.2989394826
 10
10.5694384021
 20
0.2911652474
 10
10.5652081216
 20
0.2835339609
 10
10.5607141682
 20
0.2760549189
 10
10.5559620161
 20
0.2687372318
 10
10.5509574538
 20
0.2615898133
 10
10.5457065776
 20
0.2546213696
 10
10.5402157835
 20
0.2478403893
 10
10.53449176
 20
0.2412551321
 10
10.5285414795
 20
0.2348736197
 10
10.5223721901
 20
0.2287036255
 10
10.5159914067
 20
0.2227526652
 10
10.5094069017
 20
0.2170279877
 10
10.502626696
 20
0.2115365663
 10
10.4956590484
 20
0.2062850902
 10
10.4885124463
 20
0.2012799562
 10
10.4811955951
 20
0.1965272612
 10
10.4737174075
 20
0.1920327944
 10
10.4660869927
 20
0.1878020306
 10
10.4583136455
 20
0.1838401233
 10
10.4504068347
 20
0.1801518986
 10
10.4423761915
 20
0.1767418491
 10
10.4342314982
 20
0.1736141287
 10
10.425982676
 20
0.1707725472
 10
10.4176397727
 20
0.1682205661
 10
10.409212951
 20
0.1659612938
 10
10.4007124757
 20
0.1639974825
 10
10.3921487013
 20
0.1623315243
 10
10.3835320593
 20
0.1609654484
 10
10.3748730459
 20
0.159900919
 10
10.3661822086
 20
0.1591392328
 10
10.3574701338
 20
0.1586813175
 10
10.3487474339
 20
0.158527731
  0
LINE
  5
398
100
AcDbEntity
  8
RACCORDO
100
AcDbLine
 62
253
  6
CONTINUOUS
 10
10.620276582
 20
21.38479635
 11
10.6195178644
 21
21.3433843402
  0
LINE
  5
399
100
AcDbEntity
  8
RACCORDO
100
AcDbLine
 62
253
  6
CONTINUOUS
 10
10.6209425118
 20
21.4139834798
 11
10.620276582
 21
21.38479635
  0
LINE
  5
39A
100
AcDbEntity
  8
RACCORDO
100
AcDbLine
 62
253
  6
CONTINUOUS
 10
10.6214724035
 20
21.4333974492
 11
10.6209425118
 21
21.4139834798
  0
LINE
  5
39B
100
AcDbEntity
  8
RACCORDO
100
AcDbLine
 62
253
  6
CONTINUOUS
 10
10.6220253274
 20
21.4505746512
 11
10.6214724035
 21
21.4333974492
  0
LINE
  5
39C
100
AcDbEntity
  8
RACCORDO
100
AcDbLine
 62
253
  6
CONTINUOUS
 10
10.6224053602
 20
21.4607400556
 11
10.6220253274
 21
21.4505746512
  0
LWPOLYLINE
  5
39D
100
AcDbEntity
  8
RACCORDO
100
AcDbPolyline
 62
253
  6
CONTINUOUS
 90
12
 70
0
 10
10.600280512
 20
-9.4774077307
 10
10.5998227566
 20
-9.4776810085
 10
10.5989517397
 20
-9.4779540601
 10
10.5976681819
 20
-9.4782266598
 10
10.5959731451
 20
-9.4784985818
 10
10.593868032
 20
-9.4787696013
 10
10.5913545842
 20
-9.4790394939
 10
10.5884348815
 20
-9.4793080365
 10
10.5851113396
 20
-9.4795750067
 10
10.5813867083
 20
-9.4798401836
 10
10.5772640696
 20
-9.480103348
 10
10.5727468345
 20
-9.480364282
  0
LWPOLYLINE
  5
39E
100
AcDbEntity
  8
RACCORDO
100
AcDbPolyline
 62
253
  6
CONTINUOUS
 90
13
 70
0
 10
10.600280512
 20
9.5035922693
 10
10.5998227566
 20
9.5038655471
 10
10.5989517397
 20
9.5041385988
 10
10.5976681819
 20
9.5044111984
 10
10.5959731451
 20
9.5046831205
 10
10.593868032
 20
9.5049541399
 10
10.5913545842
 20
9.5052240326
 10
10.5884348815
 20
9.5054925751
 10
10.5851113396
 20
9.5057595453
 10
10.5813867084
 20
9.5060247223
 10
10.5772640697
 20
9.5062878866
 10
10.5727468346
 20
9.5065488206
 10
10.562543849
 20
9.5070631359
  0
LWPOLYLINE
  5
39F
100
AcDbEntity
  8
RACCORDO
100
AcDbPolyline
 62
253
  6
CONTINUOUS
 90
49
 70
0
 10
10.6172754511
 20
-21.0507059914
 10
10.6168203456
 20
-21.0528394024
 10
10.6159518754
 20
-21.0549710478
 10
10.614670759
 20
-21.0570991634
 10
10.6129780569
 20
-21.059221988
 10
10.6108751699
 20
-21.0613377646
 10
10.6083638383
 20
-21.0634447423
 10
10.6054461406
 20
-21.0655411773
 10
10.6021244915
 20
-21.0676253345
 10
10.5984016399
 20
-21.0696954892
 10
10.5942806671
 20
-21.0717499279
 10
10.5897649835
 20
-21.0737869506
 10
10.5848583263
 20
-21.0758048712
 10
10.5795647563
 20
-21.0778020197
 10
10.5738886546
 20
-21.0797767433
 10
10.5678347188
 20
-21.0817274077
 10
10.561407959
 20
-21.0836523985
 10
10.5546136943
 20
-21.0855501226
 10
10.5474575475
 20
-21.0874190093
 10
10.5399454411
 20
-21.089257512
 10
10.5320835923
 20
-21.0910641092
 10
10.5238785076
 20
-21.0928373055
 10
10.5153369776
 20
-21.0945756337
 10
10.5064660713
 20
-21.0962776549
 10
10.4972731304
 20
-21.0979419606
 10
10.487765763
 20
-21.0995671734
 10
10.4779518375
 20
-21.1011519482
 10
10.467839476
 20
-21.1026949735
 10
10.4574370477
 20
-21.1041949722
 10
10.4467531615
 20
-21.105650703
 10
10.4357966597
 20
-21.1070609611
 10
10.4245766098
 20
-21.1084245793
 10
10.4131022978
 20
-21.109740429
 10
10.4013832199
 20
-21.1110074213
 10
10.3894290749
 20
-21.1122245076
 10
10.3772497561
 20
-21.1133906806
 10
10.3648553432
 20
-21.1145049752
 10
10.3522560941
 20
-21.1155664692
 10
10.3394624358
 20
-21.1165742841
 10
10.3264849567
 20
-21.1175275858
 10
10.3133343969
 20
-21.1184255854
 10
10.30002164
 20
-21.1192675396
 10
10.2865577037
 20
-21.1200527516
 10
10.2729537309
 20
-21.1207805716
 10
10.2592209805
 20
-21.1214503973
 10
10.2453708176
 20
-21.1220616743
 10
10.2314147049
 20
-21.1226138966
 10
10.2173641926
 20
-21.1231066074
 10
10.2032309089
 20
-21.1235393987
  0
LWPOLYLINE
  5
3A0
100
AcDbEntity
  8
RACCORDO
100
AcDbPolyline
 62
253
  6
CONTINUOUS
 90
50
 70
0
 10
10.6172754511
 20
21.07689053
 10
10.616820346
 20
21.0790239411
 10
10.6159518761
 20
21.0811555866
 10
10.6146707601
 20
21.0832837022
 10
10.6129780583
 20
21.0854065268
 10
10.6108751716
 20
21.0875223035
 10
10.6083638403
 20
21.0896292813
 10
10.6054461429
 20
21.0917257163
 10
10.602124494
 20
21.0938098736
 10
10.5984016428
 20
21.0958800284
 10
10.5942806702
 20
21.0979344672
 10
10.5897649868
 20
21.0999714899
 10
10.5848583298
 20
21.1019894105
 10
10.57956476
 20
21.1039865591
 10
10.5738886585
 20
21.1059612828
 10
10.5678347228
 20
21.1079119473
 10
10.5614079632
 20
21.1098369382
 10
10.5546136985
 20
21.1117346623
 10
10.5474575519
 20
21.1136035491
 10
10.5399454456
 20
21.1154420519
 10
10.5320835969
 20
21.117248649
 10
10.5238785122
 20
21.1190218455
 10
10.5153369823
 20
21.1207601737
 10
10.506466076
 20
21.122462195
 10
10.4972731351
 20
21.1241265007
 10
10.4877657677
 20
21.1257517136
 10
10.4779518422
 20
21.1273364885
 10
10.4678394807
 20
21.1288795138
 10
10.4574370523
 20
21.1303795126
 10
10.4467531661
 20
21.1318352435
 10
10.4357966642
 20
21.1332455016
 10
10.4245766142
 20
21.1346091198
 10
10.4131023022
 20
21.1359249696
 10
10.4013832241
 20
21.137191962
 10
10.389429079
 20
21.1384090483
 10
10.37724976
 20
21.1395752214
 10
10.364855347
 20
21.1406895161
 10
10.3522560977
 20
21.1417510101
 10
10.3394624393
 20
21.142758825
 10
10.32648496
 20
21.1437121268
 10
10.3133344
 20
21.1446101263
 10
10.3000216429
 20
21.1454520806
 10
10.2865577064
 20
21.1462372926
 10
10.2729537335
 20
21.1469651127
 10
10.2592209828
 20
21.1476349384
 10
10.2453708197
 20
21.1482462154
 10
10.2314147068
 20
21.1487984378
 10
10.2173641942
 20
21.1492911486
 10
10.2032309103
 20
21.1497239399
 10
10.1747628747
 20
21.1504083816
  0
LINE
  5
3A1
100
AcDbEntity
  8
RACCORDO
100
AcDbLine
 62
7
  6
CONTINUOUS
 10
8.4056925371
 20
22.2630922693
 11
7.020051891
 21
22.137313599
  0
LINE
  5
3A2
100
AcDbEntity
  8
RACCORDO
100
AcDbLine
 62
253
  6
CONTINUOUS
 10
-10.9785971807
 20
21.1497239374
 11
-10.9501291456
 21
21.150408379
  0
LINE
  5
3A3
100
AcDbEntity
  8
RACCORDO
100
AcDbLine
 62
253
  6
CONTINUOUS
 10
-10.9501291456
 20
21.150408379
 11
-10.9214710934
 21
21.1508494948
  0
LINE
  5
3A4
100
AcDbEntity
  8
RACCORDO
100
AcDbLine
 62
253
  6
CONTINUOUS
 10
-10.9214710934
 20
21.1508494948
 11
-10.8927178753
 21
21.1510458249
  0
LINE
  5
3A5
100
AcDbEntity
  8
RACCORDO
100
AcDbLine
 62
253
  6
CONTINUOUS
 10
-10.8927178718
 20
21.1510436476
 11
10.1173516
 21
21.1510436476
  0
LINE
  5
3A6
100
AcDbEntity
  8
RACCORDO
100
AcDbLine
 62
253
  6
CONTINUOUS
 10
10.1461048221
 20
21.1508494975
 11
10.1173516035
 21
21.1510458276
  0
LINE
  5
3A7
100
AcDbEntity
  8
RACCORDO
100
AcDbLine
 62
253
  6
CONTINUOUS
 10
10.1747628747
 20
21.1504083816
 11
10.1461048221
 21
21.1508494975
  0
LINE
  5
3A8
100
AcDbEntity
  8
RACCORDO
100
AcDbLine
 62
7
  6
CONTINUOUS
 10
-9.1810588089
 20
22.2630922693
 11
-7.7954181628
 21
22.137313599
  0
LINE
  5
3A9
100
AcDbEntity
  8
RACCORDO
100
AcDbLine
 62
7
  6
CONTINUOUS
 10
-2.7943074629
 20
22.2630922693
 11
-4.179948109
 21
22.137313599
  0
LINE
  5
3AA
100
AcDbEntity
  8
RACCORDO
100
AcDbLine
 62
253
  6
CONTINUOUS
 10
-10.9008921554
 20
22.0013648592
 11
10.1255258836
 21
22.0013648592
  0
LINE
  5
3AB
100
AcDbEntity
  8
RACCORDO
100
AcDbLine
 62
7
  6
CONTINUOUS
 10
6.8468468103
 20
22.1320728211
 11
3.5777869179
 21
22.1320728211
  0
LINE
  5
3AC
100
AcDbEntity
  8
RACCORDO
100
AcDbLine
 62
7
  6
CONTINUOUS
 10
-4.3531531897
 20
22.1320728211
 11
-7.6222130821
 21
22.1320728211
  0
LINE
  5
3AD
100
AcDbEntity
  8
RACCORDO
100
AcDbLine
 62
7
  6
CONTINUOUS
 10
-10.9880637356
 20
22.2630922693
 11
-9.1810588089
 21
22.2630922693
  0
LINE
  5
3AE
100
AcDbEntity
  8
DRAFT
100
AcDbLine
 62
7
  6
CONTINUOUS
 10
-2.7943074629
 20
22.2630922693
 11
2.0189411911
 21
22.2630922693
  0
LINE
  5
3AF
100
AcDbEntity
  8
RACCORDO
100
AcDbLine
 62
7
  6
CONTINUOUS
 10
8.4056925371
 20
22.2630922693
 11
10.2126974638
 21
22.2630922693
  0
LINE
  5
3B0
100
AcDbEntity
  8
RACCORDO
100
AcDbLine
 62
7
  6
CONTINUOUS
 10
2.0189411911
 20
22.2630922693
 11
3.4045818372
 21
22.137313599
  0
LINE
  5
3B1
100
AcDbEntity
  8
RACCORDO
100
AcDbLine
 62
7
  6
CONTINUOUS
 10
-35.8509714455
 20
-21.9751803205
 11
-30.8569149575
 21
-22.2369077307
  0
LINE
  5
3B2
100
AcDbEntity
  8
RACCORDO
100
AcDbLine
 62
253
  6
CONTINUOUS
 10
-35.8335314251
 20
-21.4758654612
 11
-30.8569149575
 21
-21.7366788786
  0
LWPOLYLINE
  5
3B3
100
AcDbEntity
  8
RACCORDO
100
AcDbPolyline
 62
253
  6
CONTINUOUS
 90
5
 70
0
 10
-36.7843296602
 20
-21.1242238403
 10
-36.7857540943
 20
-21.1244749242
 10
-36.7867708097
 20
-21.1246649562
 10
-36.7873789651
 20
-21.1247937791
 10
-36.7875780571
 20
-21.1248612863
  0
LINE
  5
3B4
100
AcDbEntity
  8
RACCORDO
100
AcDbLine
 62
253
  6
CONTINUOUS
 10
-36.7802626881
 20
-21.1235393987
 11
-36.7843296602
 21
-21.1242238403
  0
LINE
  5
3B5
100
AcDbEntity
  8
RACCORDO
100
AcDbLine
 62
253
  6
CONTINUOUS
 10
-36.7711447187
 20
-21.1220616743
 11
-36.7802626881
 21
-21.1235393987
  0
LINE
  5
3B6
100
AcDbEntity
  8
RACCORDO
100
AcDbLine
 62
253
  6
CONTINUOUS
 10
-36.7297001277
 20
-21.1155664692
 11
-36.7711447187
 21
-21.1220616743
  0
LINE
  5
3B7
100
AcDbEntity
  8
RACCORDO
100
AcDbLine
 62
253
  6
CONTINUOUS
 10
-36.4818529931
 20
-21.0778020197
 11
-36.7297001277
 21
-21.1155664692
  0
LINE
  5
3B8
100
AcDbEntity
  8
RACCORDO
100
AcDbLine
 62
253
  6
CONTINUOUS
 10
-36.3018338625
 20
-21.0507059914
 11
-36.4818529931
 21
-21.0778020197
  0
LINE
  5
3B9
100
AcDbEntity
  8
0
100
AcDbLine
 62
7
  6
CONTINUOUS
 10
-27.910504796
 20
-13.1498498706
 11
-30.8569149575
 21
-13.1755628025
  0
LINE
  5
3BA
100
AcDbEntity
  8
RACCORDO
100
AcDbLine
 62
253
  6
CONTINUOUS
 10
-37.7664500871
 20
-9.486899032
 11
-37.7666568108
 21
-9.4869077307
  0
LINE
  5
3BB
100
AcDbEntity
  8
RACCORDO
100
AcDbLine
 62
253
  6
CONTINUOUS
 10
-37.7647967799
 20
-9.4868580888
 11
-37.7664500871
 21
-9.486899032
  0
LINE
  5
3BC
100
AcDbEntity
  8
RACCORDO
100
AcDbLine
 62
253
  6
CONTINUOUS
 10
-37.2754732723
 20
-9.4774077307
 11
-37.7647967799
 21
-9.4868580888
  0
LINE
  5
3BD
100
AcDbEntity
  8
0
100
AcDbLine
 62
7
  6
CONTINUOUS
 10
-27.910504796
 20
-9.0239655907
 11
-30.8569149575
 21
-8.9982526588
  0
LWPOLYLINE
  5
3BE
100
AcDbEntity
  8
RACCORDO
100
AcDbPolyline
 62
253
  6
CONTINUOUS
 90
28
 70
0
 10
-36.3018338625
 20
21.07689053
 10
-36.3646536053
 20
20.6510250161
 10
-36.425421738
 20
20.224882053
 10
-36.4841382604
 20
19.7984616405
 10
-36.5408044359
 20
19.3717538989
 10
-36.5954190012
 20
18.944768708
 10
-36.6479781665
 20
18.5175357076
 10
-36.6984817887
 20
18.0900548836
 10
-36.7469300108
 20
17.6623262501
 10
-36.7933194722
 20
17.2343794891
 10
-36.8376500301
 20
16.8062145871
 10
-36.8799218273
 20
16.3778315576
 10
-36.9201319324
 20
15.9492601225
 10
-36.9582802023
 20
15.520500269
 10
-36.9943667801
 20
15.0915520098
 10
-37.0283891632
 20
14.6624451058
 10
-37.0603472085
 20
14.2331795456
 10
-37.090241059
 20
13.8037553404
 10
-37.1180686416
 20
13.3742022844
 10
-37.1438298131
 20
12.9445203667
 10
-37.1675247167
 20
12.5147095982
 10
-37.1891517089
 20
12.0847998051
 10
-37.208710648
 20
11.654790889
 10
-37.2262016757
 20
11.2246829484
 10
-37.2416235739
 20
10.7945061039
 10
-37.2549759363
 20
10.3642703961
 10
-37.2662591691
 20
9.9339657846
 10
-37.2754732723
 20
9.5035922693
  0
LWPOLYLINE
  5
3BF
100
AcDbEntity
  8
RACCORDO
100
AcDbPolyline
 62
253
  6
CONTINUOUS
 90
58
 70
0
 10
-36.3018338625
 20
-21.0507059914
 10
-36.299907543
 20
-21.0625737032
 10
-36.2976996346
 20
-21.0743786481
 10
-36.2952101372
 20
-21.0861208262
 10
-36.2924372677
 20
-21.0978070867
 10
-36.2893828093
 20
-21.1094305803
 10
-36.2860521114
 20
-21.1209707595
 10
-36.2824447164
 20
-21.1324273429
 10
-36.2785610818
 20
-21.1438006119
 10
-36.2744079296
 20
-21.1550708624
 10
-36.2699847964
 20
-21.1662379026
 10
-36.2652921456
 20
-21.1773019244
 10
-36.2603380895
 20
-21.1882437996
 10
-36.2551221739
 20
-21.1990633228
 10
-36.249644853
 20
-21.2097606995
 10
-36.2439156012
 20
-21.2203174172
 10
-36.2379339821
 20
-21.2307332324
 10
-36.2317004322
 20
-21.2410083886
 10
-36.2252257353
 20
-21.2511251045
 10
-36.2185094737
 20
-21.261083106
 10
-36.2115520651
 20
-21.2708826671
 10
-36.2043655473
 20
-21.2805068284
 10
-36.196949526
 20
-21.2899552833
 10
-36.1893043956
 20
-21.2992283384
 10
-36.1814433758
 20
-21.3083099536
 10
-36.1733660897
 20
-21.3171998016
 10
-36.1650729143
 20
-21.3258982098
 10
-36.156578201
 20
-21.3343901206
 10
-36.1478816033
 20
-21.3426751741
 10
-36.1389834676
 20
-21.3507537303
 10
-36.1298991851
 20
-21.3586118114
 10
-36.1206284302
 20
-21.3662490383
 10
-36.1111715283
 20
-21.3736657901
 10
-36.1015448473
 20
-21.3808492267
 10
-36.091748097
 20
-21.3877989412
 10
-36.0817815676
 20
-21.3945153404
 10
-36.0716624976
 20
-21.4009868042
 10
-36.0613906199
 20
-21.4072129105
 10
-36.0509662018
 20
-21.4131940814
 10
-36.0404072833
 20
-21.4189199629
 10
-36.0297136315
 20
-21.4243901126
 10
-36.0188854794
 20
-21.4296049729
 10
-36.0079415659
 20
-21.4345555169
 10
-35.9968816903
 20
-21.4392412867
 10
-35.9857060534
 20
-21.4436627403
 10
-35.9744339969
 20
-21.4478122248
 10
-35.9630653598
 20
-21.4516892679
 10
-35.951600303
 20
-21.4552943419
 10
-35.9400586511
 20
-21.4586212104
 10
-35.9284402576
 20
-21.4616693939
 10
-35.9167452689
 20
-21.4644393719
 10
-35.904993949
 20
-21.4669263467
 10
-35.8931860963
 20
-21.4691298329
 10
-35.8813219123
 20
-21.471050316
 10
-35.8694222663
 20
-21.4726844546
 10
-35.8574941146
 20
-21.4740311347
 10
-35.8455305009
 20
-21.4750914702
 10
-35.8335314251
 20
-21.4758654612
  0
LWPOLYLINE
  5
3C0
100
AcDbEntity
  8
RACCORDO
100
AcDbPolyline
 62
253
  6
CONTINUOUS
 90
11
 70
0
 10
-37.3646636472
 20
0.1736141287
 10
-37.3645444616
 20
0.1707725472
 10
-37.3644211065
 20
0.1682205661
 10
-37.3642937321
 20
0.1659612938
 10
-37.3641624937
 20
0.1639974825
 10
-37.364027551
 20
0.1623315243
 10
-37.3638890686
 20
0.1609654484
 10
-37.3637472149
 20
0.159900919
 10
-37.3636021629
 20
0.1591392328
 10
-37.3634540893
 20
0.1586813175
 10
-37.3633031743
 20
0.158527731
  0
LINE
  5
3C1
100
AcDbEntity
  8
RACCORDO
100
AcDbLine
 62
253
  6
CONTINUOUS
 10
-37.3648889345
 20
0.1801518986
 11
-37.3646636472
 21
0.1736141287
  0
LINE
  5
3C2
100
AcDbEntity
  8
RACCORDO
100
AcDbLine
 62
253
  6
CONTINUOUS
 10
-37.365095871
 20
0.1878020306
 11
-37.3648889345
 21
0.1801518986
  0
LWPOLYLINE
  5
3C3
100
AcDbEntity
  8
RACCORDO
100
AcDbPolyline
 62
253
  6
CONTINUOUS
 90
28
 70
0
 10
-37.2754732723
 20
-9.4774077307
 10
-37.2662591691
 20
-9.9077812459
 10
-37.2549759363
 20
-10.3380858575
 10
-37.2416235739
 20
-10.7683215653
 10
-37.2262016757
 20
-11.1984984097
 10
-37.208710648
 20
-11.6286063504
 10
-37.1891517089
 20
-12.0586152664
 10
-37.1675247167
 20
-12.4885250596
 10
-37.1438298131
 20
-12.9183358281
 10
-37.1180686416
 20
-13.3480177457
 10
-37.090241059
 20
-13.7775708017
 10
-37.0603472085
 20
-14.2069950069
 10
-37.0283891632
 20
-14.6362605671
 10
-36.9943667801
 20
-15.0653674712
 10
-36.9582802023
 20
-15.4943157303
 10
-36.9201319324
 20
-15.9230755839
 10
-36.8799218273
 20
-16.351647019
 10
-36.8376500301
 20
-16.7800300485
 10
-36.7933194722
 20
-17.2081949504
 10
-36.7469300108
 20
-17.6361417115
 10
-36.6984817887
 20
-18.0638703449
 10
-36.6479781665
 20
-18.4913511689
 10
-36.5954190012
 20
-18.9185841693
 10
-36.5408044359
 20
-19.3455693602
 10
-36.4841382604
 20
-19.7722771019
 10
-36.425421738
 20
-20.1986975143
 10
-36.3646536053
 20
-20.6248404775
 10
-36.3018338625
 20
-21.0507059914
  0
LINE
  5
3C4
100
AcDbEntity
  8
RACCORDO
100
AcDbLine
 62
253
  6
CONTINUOUS
 10
-37.3652834487
 20
0.1965272612
 11
-37.365095871
 21
0.1878020306
  0
LINE
  5
3C5
100
AcDbEntity
  8
RACCORDO
100
AcDbLine
 62
253
  6
CONTINUOUS
 10
-37.3655265457
 20
0.2115365663
 11
-37.3652834487
 21
0.1965272612
  0
LINE
  5
3C6
100
AcDbEntity
  8
RACCORDO
100
AcDbLine
 62
253
  6
CONTINUOUS
 10
-37.3657752306
 20
0.2348736197
 11
-37.3655265457
 21
0.2115365663
  0
LINE
  5
3C7
100
AcDbEntity
  8
RACCORDO
100
AcDbLine
 62
253
  6
CONTINUOUS
 10
-37.365484642
 20
-0.3823336731
 11
-37.365842722
 21
-0.3303626924
  0
LINE
  5
3C8
100
AcDbEntity
  8
RACCORDO
100
AcDbLine
 62
253
  6
CONTINUOUS
 10
-37.3659583345
 20
0.2687372318
 11
-37.3657752306
 21
0.2348736197
  0
LWPOLYLINE
  5
3C9
100
AcDbEntity
  8
RACCORDO
100
AcDbPolyline
 62
253
  6
CONTINUOUS
 90
10
 70
0
 10
-37.3654825439
 20
-0.3823336548
 10
-37.3636609366
 20
-1.3929724075
 10
-37.3597944065
 20
-2.4035934892
 10
-37.3538829536
 20
-3.4141968999
 10
-37.3459264887
 20
-4.4247840671
 10
-37.3359251011
 20
-5.4353535632
 10
-37.3238790588
 20
-6.4459011059
 10
-37.3097884513
 20
-7.4564252676
 10
-37.2936531891
 20
-8.4669274759
 10
-37.2754732723
 20
-9.4774077307
  0
LINE
  5
3CA
100
AcDbEntity
  8
RACCORDO
100
AcDbLine
 62
253
  6
CONTINUOUS
 10
-37.365842722
 20
-0.3303626924
 11
-37.3659945035
 21
-0.2806626547
  0
LINE
  5
3CB
100
AcDbEntity
  8
RACCORDO
100
AcDbLine
 62
253
  6
CONTINUOUS
 10
-37.3659839289
 20
0.3148787574
 11
-37.3659583345
 21
0.2687372318
  0
LINE
  5
3CC
100
AcDbEntity
  8
RACCORDO
100
AcDbLine
 62
253
  6
CONTINUOUS
 10
-37.3659945035
 20
-0.2806626547
 11
-37.3659333542
 21
-0.2354052706
  0
LINE
  5
3CD
100
AcDbEntity
  8
RACCORDO
100
AcDbLine
 62
253
  6
CONTINUOUS
 10
-37.3657456919
 20
0.3737296123
 11
-37.3659839289
 21
0.3148787574
  0
LINE
  5
3CE
100
AcDbEntity
  8
RACCORDO
100
AcDbLine
 62
253
  6
CONTINUOUS
 10
-37.365484642
 20
0.4085182117
 11
-37.3657456919
 21
0.3737296123
  0
LINE
  5
3CF
100
AcDbEntity
  8
RACCORDO
100
AcDbLine
 62
253
  6
CONTINUOUS
 10
-37.3659333542
 20
-0.2354052706
 11
-37.36572139
 21
-0.2025190831
  0
LINE
  5
3D0
100
AcDbEntity
  8
RACCORDO
100
AcDbLine
 62
253
  6
CONTINUOUS
 10
-37.36572139
 20
-0.2025190831
 11
-37.3655265457
 21
-0.1853520244
  0
LWPOLYLINE
  5
3D1
100
AcDbEntity
  8
RACCORDO
100
AcDbPolyline
 62
253
  6
CONTINUOUS
 90
10
 70
0
 10
-37.2754732723
 20
9.5035922693
 10
-37.2936531891
 20
8.4931120145
 10
-37.3097884513
 20
7.4826098063
 10
-37.3238790588
 20
6.4720856445
 10
-37.3359251011
 20
5.4615381019
 10
-37.3459264887
 20
4.4509686057
 10
-37.3538829536
 20
3.4403814386
 10
-37.3597944065
 20
2.4297780279
 10
-37.3636609366
 20
1.4191569462
 10
-37.3654825439
 20
0.4085181934
  0
LINE
  5
3D2
100
AcDbEntity
  8
RACCORDO
100
AcDbLine
 62
253
  6
CONTINUOUS
 10
-37.3655265457
 20
-0.1853520244
 11
-37.3652834487
 21
-0.1703427198
  0
LINE
  5
3D3
100
AcDbEntity
  8
RACCORDO
100
AcDbLine
 62
253
  6
CONTINUOUS
 10
-37.3652834487
 20
-0.1703427198
 11
-37.365095871
 21
-0.1616174896
  0
LINE
  5
3D4
100
AcDbEntity
  8
RACCORDO
100
AcDbLine
 62
253
  6
CONTINUOUS
 10
-37.365095871
 20
-0.1616174896
 11
-37.3648889345
 21
-0.1539673581
  0
LWPOLYLINE
  5
3D5
100
AcDbEntity
  8
RACCORDO
100
AcDbPolyline
 62
253
  6
CONTINUOUS
 90
12
 70
0
 10
-37.3648889345
 20
-0.1539673581
 10
-37.3646636472
 20
-0.1474295887
 10
-37.3645444616
 20
-0.1445880074
 10
-37.3644211064
 20
-0.1420360265
 10
-37.3642937321
 20
-0.1397767544
 10
-37.3641624937
 20
-0.1378129433
 10
-37.364027551
 20
-0.1361469852
 10
-37.3638890685
 20
-0.1347809095
 10
-37.3637472149
 20
-0.1337163802
 10
-37.3636021629
 20
-0.1329546941
 10
-37.3634540893
 20
-0.1324967788
 10
-37.3633031743
 20
-0.1323431923
  0
LWPOLYLINE
  5
3D6
100
AcDbEntity
  8
RACCORDO
100
AcDbPolyline
 62
253
  6
CONTINUOUS
 90
13
 70
0
 10
-35.8523715977
 20
-21.9449466195
 10
-35.8523822411
 20
-21.9497221714
 10
-35.8523695787
 20
-21.9540972594
 10
-35.8523336212
 20
-21.9580681859
 10
-35.852274399
 20
-21.9616315951
 10
-35.8521919621
 20
-21.9647844754
 10
-35.8520863803
 20
-21.9675241624
 10
-35.8519577427
 20
-21.9698483406
 10
-35.8518061581
 20
-21.9717550459
 10
-35.8516317546
 20
-21.9732426668
 10
-35.8514346795
 20
-21.9743099463
 10
-35.8512150994
 20
-21.9749559822
 10
-35.8509732
 20
-21.9751802286
  0
LINE
  5
3D7
100
AcDbEntity
  8
DRAFT
100
AcDbLine
 62
7
  6
CONTINUOUS
 10
-33.1569149575
 20
-4.0869077307
 11
-30.8569149575
 21
-4.0869077307
  0
LINE
  5
3D8
100
AcDbEntity
  8
RACCORDO
100
AcDbLine
 62
253
  6
CONTINUOUS
 10
-35.8335314251
 20
21.5020499998
 11
-35.8372286286
 21
21.5743748637
  0
LINE
  5
3D9
100
AcDbEntity
  8
RACCORDO
100
AcDbLine
 62
253
  6
CONTINUOUS
 10
-35.8372286286
 20
21.5743748637
 11
-35.840663795
 21
21.6451742363
  0
LINE
  5
3DA
100
AcDbEntity
  8
RACCORDO
100
AcDbLine
 62
253
  6
CONTINUOUS
 10
-35.840663795
 20
21.6451742363
 11
-35.843764469
 21
21.7129548019
  0
LINE
  5
3DB
100
AcDbEntity
  8
RACCORDO
100
AcDbLine
 62
253
  6
CONTINUOUS
 10
-35.843764469
 20
21.7129548019
 11
-35.8464652504
 21
21.7762869182
  0
LINE
  5
3DC
100
AcDbEntity
  8
RACCORDO
100
AcDbLine
 62
253
  6
CONTINUOUS
 10
-35.8464652504
 20
21.7762869182
 11
-35.8487091739
 21
21.8338347707
  0
LINE
  5
3DD
100
AcDbEntity
  8
RACCORDO
100
AcDbLine
 62
253
  6
CONTINUOUS
 10
-35.8487091739
 20
21.8338347707
 11
-35.8501432192
 21
21.8748879329
  0
LINE
  5
3DE
100
AcDbEntity
  8
RACCORDO
100
AcDbLine
 62
253
  6
CONTINUOUS
 10
-35.8501432192
 20
21.8748879329
 11
-35.8512350096
 21
21.9109049572
  0
LINE
  5
3DF
100
AcDbEntity
  8
RACCORDO
100
AcDbLine
 62
253
  6
CONTINUOUS
 10
-35.8512350096
 20
21.9109049572
 11
-35.8518201961
 21
21.9343173492
  0
LINE
  5
3E0
100
AcDbEntity
  8
RACCORDO
100
AcDbLine
 62
253
  6
CONTINUOUS
 10
-35.8518201961
 20
21.9343173492
 11
-35.8520964415
 21
21.9481100305
  0
LINE
  5
3E1
100
AcDbEntity
  8
RACCORDO
100
AcDbLine
 62
253
  6
CONTINUOUS
 10
-35.8520964415
 20
21.9481100305
 11
-35.8522804493
 21
21.9603951402
  0
LWPOLYLINE
  5
3E2
100
AcDbEntity
  8
RACCORDO
100
AcDbPolyline
 62
253
  6
CONTINUOUS
 90
14
 70
0
 10
-35.8522804493
 20
21.9603951402
 10
-35.8523715978
 20
21.9711311576
 10
-35.8523822411
 20
21.9759067096
 10
-35.8523695787
 20
21.9802817977
 10
-35.8523336212
 20
21.9842527242
 10
-35.852274399
 20
21.9878161335
 10
-35.8521919622
 20
21.9909690139
 10
-35.8520863803
 20
21.9937087009
 10
-35.8519577428
 20
21.9960328792
 10
-35.8518061581
 20
21.9979395845
 10
-35.8516317546
 20
21.9994272055
 10
-35.8514346795
 20
22.0004944849
 10
-35.8512150994
 20
22.0011405208
 10
-35.8509732
 20
22.0013647672
  0
LINE
  5
3E3
100
AcDbEntity
  8
RACCORDO
100
AcDbLine
 62
253
  6
CONTINUOUS
 10
-35.8522804493
 20
-21.9342106023
 11
-35.8523715977
 21
-21.9449466195
  0
LINE
  5
3E4
100
AcDbEntity
  8
RACCORDO
100
AcDbLine
 62
253
  6
CONTINUOUS
 10
-35.8520964415
 20
-21.9219254928
 11
-35.8522804493
 21
-21.9342106023
  0
LINE
  5
3E5
100
AcDbEntity
  8
RACCORDO
100
AcDbLine
 62
253
  6
CONTINUOUS
 10
-35.851647764
 20
-21.9006855042
 11
-35.8520964415
 21
-21.9219254928
  0
LINE
  5
3E6
100
AcDbEntity
  8
RACCORDO
100
AcDbLine
 62
253
  6
CONTINUOUS
 10
-35.850995036
 20
-21.8762161352
 11
-35.851647764
 21
-21.9006855042
  0
LINE
  5
3E7
100
AcDbEntity
  8
RACCORDO
100
AcDbLine
 62
253
  6
CONTINUOUS
 10
-35.8498161149
 20
-21.8388916902
 11
-35.850995036
 21
-21.8762161352
  0
LINE
  5
3E8
100
AcDbEntity
  8
RACCORDO
100
AcDbLine
 62
253
  6
CONTINUOUS
 10
-35.847869685
 20
-21.7854059331
 11
-35.8498161149
 21
-21.8388916902
  0
LINE
  5
3E9
100
AcDbEntity
  8
RACCORDO
100
AcDbLine
 62
253
  6
CONTINUOUS
 10
-35.8443385692
 20
-21.6998368469
 11
-35.847869685
 21
-21.7854059331
  0
LINE
  5
3EA
100
AcDbEntity
  8
RACCORDO
100
AcDbLine
 62
253
  6
CONTINUOUS
 10
-35.8393259523
 20
-21.5909496736
 11
-35.8443385692
 21
-21.6998368469
  0
LINE
  5
3EB
100
AcDbEntity
  8
RACCORDO
100
AcDbLine
 62
253
  6
CONTINUOUS
 10
-35.8335314251
 20
-21.4758654612
 11
-35.8393259523
 21
-21.5909496736
  0
LINE
  5
3EC
100
AcDbEntity
  8
RACCORDO
100
AcDbLine
 62
7
  6
CONTINUOUS
 10
-33.1569149575
 20
-0.0956345985
 11
-33.1569149575
 21
-4.0869077307
  0
LINE
  5
3ED
100
AcDbEntity
  8
RACCORDO
100
AcDbLine
 62
7
  6
CONTINUOUS
 10
-33.1569149575
 20
0.1218191371
 11
-33.1569149575
 21
4.1130922693
  0
LINE
  5
3EE
100
AcDbEntity
  8
RACCORDO
100
AcDbLine
 62
253
  6
CONTINUOUS
 10
-33.1569149575
 20
-0.3456060418
 11
-37.3654825439
 21
-0.3823336548
  0
LINE
  5
3EF
100
AcDbEntity
  8
RACCORDO
100
AcDbLine
 62
7
  6
CONTINUOUS
 10
-33.1569149575
 20
-0.0956345985
 11
-37.6089384505
 21
-0.1344868189
  0
LINE
  5
3F0
100
AcDbEntity
  8
RACCORDO
100
AcDbLine
 62
253
  6
CONTINUOUS
 10
-37.3654825439
 20
-0.3823336631
 11
-37.8567567373
 21
-0.3846761847
  0
LINE
  5
3F1
100
AcDbEntity
  8
RACCORDO
100
AcDbLine
 62
7
  6
CONTINUOUS
 10
-37.6089384505
 20
0.1606713575
 11
-33.1569149575
 21
0.1218191371
  0
LINE
  5
3F2
100
AcDbEntity
  8
RACCORDO
100
AcDbLine
 62
253
  6
CONTINUOUS
 10
-37.8567567373
 20
0.4108607234
 11
-37.3654825439
 21
0.4085182018
  0
LINE
  5
3F3
100
AcDbEntity
  8
RACCORDO
100
AcDbLine
 62
253
  6
CONTINUOUS
 10
-37.3654825439
 20
0.4085181934
 11
-33.1569149575
 21
0.3717905805
  0
LINE
  5
3F4
100
AcDbEntity
  8
DRAFT
100
AcDbLine
 62
7
  6
CONTINUOUS
 10
-30.8569149575
 20
-4.0869077307
 11
-30.8569149575
 21
-13.1755628025
  0
LINE
  5
3F5
100
AcDbEntity
  8
RACCORDO
100
AcDbLine
 62
7
  6
CONTINUOUS
 10
-30.8569149575
 20
-13.1755628025
 11
-30.8569149575
 21
-22.2369077307
  0
LINE
  5
3F6
100
AcDbEntity
  8
DRAFT
100
AcDbLine
 62
7
  6
CONTINUOUS
 10
-30.8569149575
 20
4.1130922693
 11
-30.8569149575
 21
13.2017473412
  0
LINE
  5
3F7
100
AcDbEntity
  8
RACCORDO
100
AcDbLine
 62
7
  6
CONTINUOUS
 10
-30.8569149575
 20
13.2017473412
 11
-30.8569149575
 21
22.2630922693
  0
LINE
  5
3F8
100
AcDbEntity
  8
0
100
AcDbLine
 62
253
  6
CONTINUOUS
 10
-28.5373348717
 20
13.1815046725
 11
-28.5373348717
 21
9.0446798662
  0
LINE
  5
3F9
100
AcDbEntity
  8
0
100
AcDbLine
 62
253
  6
CONTINUOUS
 10
-28.5373348717
 20
-13.1553201338
 11
-28.5373348717
 21
-9.0184953275
  0
LINE
  5
3FA
100
AcDbEntity
  8
DRAFT
100
AcDbLine
 62
7
  6
CONTINUOUS
 10
-33.1569149575
 20
4.1130922693
 11
-30.8569149575
 21
4.1130922693
  0
LINE
  5
3FB
100
AcDbEntity
  8
0
100
AcDbLine
 62
7
  6
CONTINUOUS
 10
-27.910504796
 20
13.1760344093
 11
-27.910504796
 21
9.0501501294
  0
LINE
  5
3FC
100
AcDbEntity
  8
0
100
AcDbLine
 62
7
  6
CONTINUOUS
 10
-27.910504796
 20
-13.1498498706
 11
-27.910504796
 21
-9.0239655907
  0
LINE
  5
3FD
100
AcDbEntity
  8
0
100
AcDbLine
 62
7
  6
CONTINUOUS
 10
-27.910504796
 20
9.0501501294
 11
-30.8569149575
 21
9.0244371975
  0
LINE
  5
3FE
100
AcDbEntity
  8
RACCORDO
100
AcDbLine
 62
253
  6
CONTINUOUS
 10
-37.2754732723
 20
9.5035922693
 11
-37.7011297483
 21
9.5117649407
  0
LWPOLYLINE
  5
3FF
100
AcDbEntity
  8
RACCORDO
100
AcDbPolyline
 62
253
  6
CONTINUOUS
 90
4
 70
0
 10
-37.7011297483
 20
9.5117649407
 10
-37.7658299059
 20
9.5130670188
 10
-37.7664500872
 20
9.5130835707
 10
-37.7666568109
 20
9.5130922693
  0
LINE
  5
400
100
AcDbEntity
  8
0
100
AcDbLine
 62
7
  6
CONTINUOUS
 10
-30.8569149575
 20
13.2017473412
 11
-27.910504796
 21
13.1760344093
  0
LWPOLYLINE
  5
401
100
AcDbEntity
  8
RACCORDO
100
AcDbPolyline
 62
253
  6
CONTINUOUS
 90
58
 70
0
 10
-35.8335314251
 20
21.5020499998
 10
-35.8455305009
 20
21.5012760089
 10
-35.8574941146
 20
21.5002156733
 10
-35.8694222663
 20
21.4988689932
 10
-35.8813219123
 20
21.4972348547
 10
-35.8931860963
 20
21.4953143716
 10
-35.904993949
 20
21.4931108853
 10
-35.9167452689
 20
21.4906239105
 10
-35.9284402575
 20
21.4878539325
 10
-35.9400586511
 20
21.484805749
 10
-35.951600303
 20
21.4814788805
 10
-35.9630653598
 20
21.4778738065
 10
-35.9744339969
 20
21.4739967634
 10
-35.9857060534
 20
21.469847279
 10
-35.9968816903
 20
21.4654258254
 10
-36.0079415659
 20
21.4607400556
 10
-36.0188854793
 20
21.4557895115
 10
-36.0297136315
 20
21.4505746512
 10
-36.0404072833
 20
21.4451045015
 10
-36.0509662018
 20
21.4393786201
 10
-36.0613906199
 20
21.4333974492
 10
-36.0716624976
 20
21.4271713429
 10
-36.0817815676
 20
21.4206998791
 10
-36.091748097
 20
21.4139834798
 10
-36.1015448473
 20
21.4070337653
 10
-36.1111715283
 20
21.3998503288
 10
-36.1206284302
 20
21.3924335769
 10
-36.1298991851
 20
21.38479635
 10
-36.1389834676
 20
21.3769382689
 10
-36.1478816033
 20
21.3688597128
 10
-36.156578201
 20
21.3605746593
 10
-36.1650729143
 20
21.3520827484
 10
-36.1733660897
 20
21.3433843402
 10
-36.1814433758
 20
21.3344944922
 10
-36.1893043956
 20
21.325412877
 10
-36.196949526
 20
21.316139822
 10
-36.2043655472
 20
21.3066913671
 10
-36.2115520651
 20
21.2970672058
 10
-36.2185094737
 20
21.2872676446
 10
-36.2252257353
 20
21.2773096431
 10
-36.2317004322
 20
21.2671929273
 10
-36.2379339821
 20
21.256917771
 10
-36.2439156012
 20
21.2465019559
 10
-36.249644853
 20
21.2359452381
 10
-36.2551221739
 20
21.2252478615
 10
-36.2603380895
 20
21.2144283382
 10
-36.2652921456
 20
21.2034864631
 10
-36.2699847964
 20
21.1924224413
 10
-36.2744079296
 20
21.1812554011
 10
-36.2785610818
 20
21.1699851506
 10
-36.2824447164
 20
21.1586118816
 10
-36.2860521114
 20
21.1471552981
 10
-36.2893828093
 20
21.135615119
 10
-36.2924372677
 20
21.1239916254
 10
-36.2952101372
 20
21.1123053649
 10
-36.2976996346
 20
21.1005631868
 10
-36.299907543
 20
21.0887582418
 10
-36.3018338625
 20
21.07689053
  0
LINE
  5
402
100
AcDbEntity
  8
RACCORDO
100
AcDbLine
 62
253
  6
CONTINUOUS
 10
-30.8569149575
 20
21.7628634173
 11
-35.8335314251
 21
21.5020499998
  0
LINE
  5
403
100
AcDbEntity
  8
RACCORDO
100
AcDbLine
 62
7
  6
CONTINUOUS
 10
-30.8569149575
 20
22.2630922693
 11
-35.8509714455
 21
22.0013648592
  0
LINE
  5
404
100
AcDbEntity
  8
RACCORDO
100
AcDbLine
 62
253
  6
CONTINUOUS
 10
-36.3018338625
 20
21.07689053
 11
-36.4949214564
 21
21.1059612828
  0
LINE
  5
405
100
AcDbEntity
  8
RACCORDO
100
AcDbLine
 62
253
  6
CONTINUOUS
 10
-36.4949214564
 20
21.1059612828
 11
-36.6458900191
 21
21.1288795138
  0
LINE
  5
406
100
AcDbEntity
  8
RACCORDO
100
AcDbLine
 62
253
  6
CONTINUOUS
 10
-36.6458900191
 20
21.1288795138
 11
-36.7361969778
 21
21.142758825
  0
LINE
  5
407
100
AcDbEntity
  8
RACCORDO
100
AcDbLine
 62
253
  6
CONTINUOUS
 10
-36.7361969778
 20
21.142758825
 11
-36.7711447356
 21
21.1482462154
  0
LINE
  5
408
100
AcDbEntity
  8
RACCORDO
100
AcDbLine
 62
253
  6
CONTINUOUS
 10
-36.7711447356
 20
21.1482462154
 11
-36.7802627054
 21
21.1497239399
  0
LWPOLYLINE
  5
409
100
AcDbEntity
  8
RACCORDO
100
AcDbPolyline
 62
253
  6
CONTINUOUS
 90
6
 70
0
 10
-36.7802627054
 20
21.1497239399
 10
-36.7843296777
 20
21.1504083816
 10
-36.7857541118
 20
21.1506594654
 10
-36.7867708273
 20
21.1508494975
 10
-36.7873789827
 20
21.1509783204
 10
-36.7875780747
 20
21.1510458276
  0
ARC
  5
40A
100
AcDbEntity
  8
RACCORDO
100
AcDbCircle
 62
7
  6
CONTINUOUS
 10
462.1430850425
 20
0.0130922693
 40
500.0
100
AcDbArc
 50
178.9113148156
 51
179.954419088
  0
ARC
  5
40B
100
AcDbEntity
  8
RACCORDO
100
AcDbCircle
 62
7
  6
CONTINUOUS
 10
462.1430850425
 20
0.0130922693
 40
500.0
100
AcDbArc
 50
180.045580912
 51
181.0886851844
  0
ARC
  5
40C
100
AcDbEntity
  8
RACCORDO
100
AcDbCircle
 62
7
  6
CONTINUOUS
 10
52.2170967227
 20
7.8030922693
 40
90.0
100
AcDbArc
 50
171.4709656563
 51
178.9113154334
  0
ARC
  5
40D
100
AcDbEntity
  8
RACCORDO
100
AcDbCircle
 62
7
  6
CONTINUOUS
 10
52.2170967227
 20
-7.7769077307
 40
90.0
100
AcDbArc
 50
181.0886845666
 51
188.5290343437
  0
ARC
  5
40E
100
AcDbEntity
  8
RACCORDO
100
AcDbCircle
 62
7
  6
CONTINUOUS
 10
-35.7986372437
 20
21.0027352325
 40
1.0
100
AcDbArc
 50
92.9998993369
 51
171.471090555
  0
ARC
  5
40F
100
AcDbEntity
  8
RACCORDO
100
AcDbCircle
 62
7
  6
CONTINUOUS
 10
-35.7986372437
 20
-20.9765506938
 40
1.0
100
AcDbArc
 50
188.528909445
 51
267.0001006631
  0
ARC
  5
410
100
AcDbEntity
  8
RACCORDO
100
AcDbCircle
 62
7
  6
CONTINUOUS
 10
-37.6067567997
 20
0.4106618382
 40
0.25
100
AcDbArc
 50
179.954419003
 51
269.4999961336
  0
ARC
  5
411
100
AcDbEntity
  8
RACCORDO
100
AcDbCircle
 62
7
  6
CONTINUOUS
 10
-37.6067567997
 20
-0.3844772995
 40
0.25
100
AcDbArc
 50
90.5000038664
 51
180.045580997
  0
ELLIPSE
  5
412
100
AcDbEntity
  8
RACCORDO
100
AcDbEllipse
 62
7
  6
CONTINUOUS
 10
3.5777869179
 20
-22.1163698383
 30
0.0
 11
0.2
 21
-0.0
 31
0.0
 40
0.0524077793
 41
1.5707963268
 42
2.617993878
  0
ELLIPSE
  5
413
100
AcDbEntity
  8
RACCORDO
100
AcDbEllipse
 62
7
  6
CONTINUOUS
 10
6.8468468103
 20
-22.1163698383
 30
0.0
 11
0.2
 21
0.0
 31
0.0
 40
0.0524077793
 41
0.5235987756
 42
1.5707963268
  0
ELLIPSE
  5
414
100
AcDbEntity
  8
RACCORDO
100
AcDbEllipse
 62
7
  6
CONTINUOUS
 10
-4.3531531897
 20
-22.1163698383
 30
0.0
 11
0.2
 21
0.0
 31
0.0
 40
0.0524077793
 41
0.5235987756
 42
1.5707963268
  0
ELLIPSE
  5
415
100
AcDbEntity
  8
RACCORDO
100
AcDbEllipse
 62
7
  6
CONTINUOUS
 10
-7.6222130821
 20
-22.1163698383
 30
0.0
 11
0.2
 21
-0.0
 31
0.0
 40
0.0524077793
 41
1.5707963268
 42
2.617993878
  0
ELLIPSE
  5
416
100
AcDbEntity
  8
RACCORDO
100
AcDbEllipse
 62
7
  6
CONTINUOUS
 10
10.2122407001
 20
-21.7362215577
 30
0.0
 11
-0.1582391023
 21
0.4751033573
 31
0.0
 40
0.9984778551
 41
-3.4626430041
 42
-1.8927600658
  0
ELLIPSE
  5
417
100
AcDbEntity
  8
RACCORDO
100
AcDbEllipse
 62
7
  6
CONTINUOUS
 10
-10.9876069719
 20
-21.7362215577
 30
0.0
 11
0.1582391023
 21
0.4751033573
 31
0.0
 40
0.9984778551
 41
-4.3904252414
 42
-2.8205423031
  0
ELLIPSE
  5
418
100
AcDbEntity
  8
RACCORDO
100
AcDbEllipse
 62
7
  6
CONTINUOUS
 10
-11.1974984046
 20
-0.3456441181
 30
0.0
 11
0.2236527791
 21
-0.1118178731
 31
0.0
 40
0.9998096356
 41
2.0344896259
 42
3.6051336537
  0
ELLIPSE
  5
419
100
AcDbEntity
  8
RACCORDO
100
AcDbEllipse
 62
7
  6
CONTINUOUS
 10
10.4221321327
 20
-0.3456441181
 30
0.0
 11
0.2236527791
 21
0.1118178731
 31
0.0
 40
0.9998096356
 41
-0.4635410001
 42
1.1071030277
  0
ELLIPSE
  5
41A
100
AcDbEntity
  8
RACCORDO
100
AcDbEllipse
 62
7
  6
CONTINUOUS
 10
-4.3531531897
 20
22.142554377
 30
0.0
 11
0.2
 21
0.0
 31
0.0
 40
0.0524077793
 41
-1.5707963268
 42
-0.5235987756
  0
ELLIPSE
  5
41B
100
AcDbEntity
  8
RACCORDO
100
AcDbEllipse
 62
7
  6
CONTINUOUS
 10
-7.6222130821
 20
22.142554377
 30
0.0
 11
0.2
 21
-0.0
 31
0.0
 40
0.0524077793
 41
-2.617993878
 42
-1.5707963268
  0
ELLIPSE
  5
41C
100
AcDbEntity
  8
RACCORDO
100
AcDbEllipse
 62
7
  6
CONTINUOUS
 10
3.5777869179
 20
22.142554377
 30
0.0
 11
0.2
 21
0.0
 31
0.0
 40
0.0524077793
 41
-2.617993878
 42
-1.5707963268
  0
ELLIPSE
  5
41D
100
AcDbEntity
  8
RACCORDO
100
AcDbEllipse
 62
7
  6
CONTINUOUS
 10
6.8468468103
 20
22.142554377
 30
0.0
 11
0.2
 21
-0.0
 31
0.0
 40
0.0524077793
 41
-1.5707963268
 42
-0.5235987756
  0
ELLIPSE
  5
41E
100
AcDbEntity
  8
RACCORDO
100
AcDbEllipse
 62
7
  6
CONTINUOUS
 10
-10.9876069719
 20
21.7624060963
 30
0.0
 11
-0.1582391023
 21
0.4751033573
 31
0.0
 40
0.9984778551
 41
-0.3210503505
 42
1.2488325878
  0
ELLIPSE
  5
41F
100
AcDbEntity
  8
RACCORDO
100
AcDbEllipse
 62
7
  6
CONTINUOUS
 10
10.2122407001
 20
21.7624060963
 30
0.0
 11
0.1582391023
 21
0.4751033573
 31
0.0
 40
0.9984778551
 41
-1.2488325878
 42
0.3210503505
  0
ELLIPSE
  5
420
100
AcDbEntity
  8
RACCORDO
100
AcDbEllipse
 62
7
  6
CONTINUOUS
 10
10.4221321327
 20
0.3718286567
 30
0.0
 11
0.2236527791
 21
-0.1118178731
 31
0.0
 40
0.9998096356
 41
-1.1071030277
 42
0.4635410001
  0
ELLIPSE
  5
421
100
AcDbEntity
  8
RACCORDO
100
AcDbEllipse
 62
7
  6
CONTINUOUS
 10
-11.1974984046
 20
0.3718286567
 30
0.0
 11
0.2236527791
 21
0.1118178731
 31
0.0
 40
0.9998096356
 41
2.6780516535
 42
4.2486956813
  0
ENDSEC
  0
SECTION
  2
OBJECTS
  0
DICTIONARY
  5
C
100
AcDbDictionary
280
0
281
1
  3
ACAD_GROUP
350
D
  3
ACAD_MLINESTYLE
350
17
  3
ACAD_LAYOUT
350
1A
  3
ACAD_PLOTSETTINGS
350
19
  3
ACAD_PLOTSTYLENAME
350
E
  0
DICTIONARY
  5
D
102
{ACAD_REACTORS
330
C
102
}
100
AcDbDictionary
280
0
281
1
  0
ACDBDICTIONARYWDFLT
  5
E
102
{ACAD_REACTORS
330
C
102
}
100
AcDbDictionary
281
1
  3
Normal
350
F
100
AcDbDictionaryWithDefault
340
F
  0
DICTIONARY
  5
17
102
{ACAD_REACTORS
330
C
102
}
100
AcDbDictionary
280
0
281
1
  3
Standard
350
18
  0
DICTIONARY
  5
19
102
{ACAD_REACTORS
330
C
102
}
100
AcDbDictionary
281
1
  0
DICTIONARY
  5
1A
102
{ACAD_REACTORS
330
C
102
}
100
AcDbDictionary
281
1
  3
Model
350
422
  3
Layout1
350
423
  0
ACDBPLACEHOLDER
  5
F
102
{ACAD_REACTORS
330
E
102
}
  0
MLINESTYLE
  5
18
102
{ACAD_REACTORS
330
17
102
}
100
AcDbMlineStyle
  2
STANDARD
 70
0
  3

 62
256
 51
90.0
 52
90.0
 71
2
 49
0.5
 62
256
  6
BYLAYER
 49
-0.5
 62
256
  6
BYLAYER
  0
LAYOUT
  5
422
102
{ACAD_REACTORS
330
1A
102
}
100
AcDbPlotSettings
  1

  2
none_device
  4
ISO_A4_(297.00_x_210.00_MM)
  6

 40
0.0
 41
0.0
 42
0.0
 43
0.0
 44
297.0
 45
210.0
 46
0.0
 47
0.0
 48
0.0
 49
0.0
140
0.0
141
0.0
142
1.0
143
1.0
 70
1024
 72
1
 73
0
 74
0
  7

 75
0
147
1.0
148
0.0
149
0.0
100
AcDbLayout
  1
Model
 70
0
 71
0
 10
0.0
 20
0.0
 11
297.0
 21
210.0
 12
0.0
 22
0.0
 32
0.0
 14
0.0
 24
0.0
 34
0.0
 15
0.0
 25
0.0
 35
0.0
146
0.0
 13
0.0
 23
0.0
 33
0.0
 16
1.0
 26
0.0
 36
0.0
 17
0.0
 27
1.0
 37
0.0
 76
0
330
214
345
0
346
0
  0
LAYOUT
  5
423
102
{ACAD_REACTORS
330
1A
102
}
100
AcDbPlotSettings
  1

  2
none_device
  4
ISO_A4_(297.00_x_210.00_MM)
  6

 40
0.0
 41
0.0
 42
0.0
 43
0.0
 44
297.0
 45
210.0
 46
0.0
 47
0.0
 48
0.0
 49
0.0
140
0.0
141
0.0
142
1.0
143
1.0
 70
0
 72
1
 73
0
 74
0
  7

 75
0
147
1.0
148
0.0
149
0.0
100
AcDbLayout
  1
Layout1
 70
0
 71
1
 10
0.0
 20
0.0
 11
297.0
 21
210.0
 12
0.0
 22
0.0
 32
0.0
 14
0.0
 24
0.0
 34
0.0
 15
0.0
 25
0.0
 35
0.0
146
0.0
 13
0.0
 23
0.0
 33
0.0
 16
1.0
 26
0.0
 36
0.0
 17
0.0
 27
1.0
 37
0.0
 76
0
330
215
345
0
346
0
  0
ENDSEC
  0
EOF
