  0
SECTION
  2
HEADER
  9
$ACADVER
  1
AC1021
  9
$DWGCODEPAGE
  3
ANSI_1252
  9
$EXTMAX
 10
297.0
 20
210.0
 30
0.0
  9
$EXTMIN
 10
0.0
 20
0.0
 30
0.0
  9
$LIMMIN
 10
0.0
 20
0.0
  9
$LIMMAX
 10
297.0
 20
210.0
  9
$VIEWCTR
 10
148.5
 20
105.0
  9
$VIEWSIZE
 40
210.0
  9
$CLAYER
  8
0
  9
$LTSCALE
 40
16.335
  9
$CELTYPE
  6
BYLAYER
  9
$DIMSCALE
 40
1.0
  9
$DIMASZ
 40
3.0
  9
$DIMEXO
 40
0.5
  9
$DIMDLI
 40
11.286
  9
$DIMEXE
 40
1.5
  9
$DIMCEN
 40
2.673
  9
$DIMLFAC
 40
1.0
  9
$DIMBLK
  1
_FILLED
  9
$DIMALT
 70
0
  9
$DIMALTF
 40
25.4
  9
$DIMTXT
 40
3.0
  9
$DIMTOL
 70
1
  9
$DIMLIM
 70
0
  9
$DIMTFAC
 40
1.0
  9
$DIMTP
 40
0.01
  9
$DIMTM
 40
0.01
  9
$DIMGAP
 40
0.625
  9
$DIMDSEP
 70
44
  9
$AUNITS
 70
0
  9
$PDMODE
 70
3
  9
$PDSIZE
 40
3.0
  9
$HANDSEED
  5
439
  9
$TILEMODE
 70
1
  9
$MEASUREMENT
 70
1
  9
$INSUNITS
 70
4
  0
ENDSEC
  0
SECTION
  2
CLASSES
  0
CLASS
  1
ACDBDICTIONARYWDFLT
  2
AcDbDictionaryWithDefault
  3
AutoCAD 2000
 90
0
 91
1
280
0
281
0
  0
CLASS
  1
ACDBPLACEHOLDER
  2
AcDbPlaceHolder
  3
AutoCAD 2000
 90
0
 91
1
280
0
281
0
  0
CLASS
  1
LAYOUT
  2
AcDbLayout
  3
AutoCAD 2000
 90
0
 91
0
280
0
281
0
  0
ENDSEC
  0
SECTION
  2
TABLES
  0
TABLE
  2
VPORT
  5
8
100
AcDbSymbolTable
 70
2
  0
VPORT
  5
1F4
100
AcDbSymbolTableRecord
100
AcDbViewportTableRecord
  2
*ACTIVE
 70
0
 10
0.0
 20
0.0
 11
1.0
 21
1.0
 12
148.5
 22
105.0
 13
0.0
 23
0.0
 14
1.0
 24
1.0
 15
0.0
 25
0.0
 16
0.0
 26
0.0
 36
1.0
 17
0.0
 27
0.0
 37
0.0
 40
210.0
 41
1.4142857143
 42
50.0
 43
0.0
 44
0.0
 50
0.0
 51
0.0
 71
0
 72
100
 73
1
 74
1
 75
0
 76
0
 77
0
 78
0
  0
ENDTAB
  0
TABLE
  2
LTYPE
  5
5
100
AcDbSymbolTable
 70
6
  0
LTYPE
  5
14
100
AcDbSymbolTableRecord
100
AcDbLinetypeTableRecord
  2
BYBLOCK
 70
0
  3

 72
65
 73
0
 40
0.0
  0
LTYPE
  5
15
100
AcDbSymbolTableRecord
100
AcDbLinetypeTableRecord
  2
BYLAYER
 70
0
  3

 72
65
 73
0
 40
0.0
  0
LTYPE
  5
16
100
AcDbSymbolTableRecord
100
AcDbLinetypeTableRecord
  2
CONTINUOUS
 70
64
  3
Solid line
 72
65
 73
0
 40
0.0
  0
LTYPE
  5
1F5
100
AcDbSymbolTableRecord
100
AcDbLinetypeTableRecord
  2
CENTER
 70
64
  3
____ _ ____ _ ____ _ ____ _ ____ _ ____ _ ____
 72
65
 73
4
 40
0.6
 49
0.375
 74
0
 49
-0.075
 74
0
 49
0.075
 74
0
 49
-0.075
 74
0
  0
LTYPE
  5
1F6
100
AcDbSymbolTableRecord
100
AcDbLinetypeTableRecord
  2
HIDDEN
 70
64
  3
- - - - - - - - - - - - - - - - - - - -
 72
65
 73
2
 40
0.2
 49
0.1
 74
0
 49
-0.1
 74
0
  0
LTYPE
  5
1F7
100
AcDbSymbolTableRecord
100
AcDbLinetypeTableRecord
  2
PHANTOM
 70
64
  3
_____ _ _ _____ _ _ _____ _ _ _____
 72
65
 73
6
 40
0.8
 49
0.45
 74
0
 49
-0.05
 74
0
 49
0.1
 74
0
 49
-0.05
 74
0
 49
0.1
 74
0
 49
-0.05
 74
0
  0
LTYPE
  5
1F8
100
AcDbSymbolTableRecord
100
AcDbLinetypeTableRecord
  2
DOT
 70
64
  3
. . . . . . . . . . . . . . . . . . . .
 72
65
 73
2
 40
0.2
 49
0.1
 74
0
 49
-0.1
 74
0
  0
LTYPE
  5
1F9
100
AcDbSymbolTableRecord
100
AcDbLinetypeTableRecord
  2
DASHED
 70
64
  3
- - - - - - - - - - - - - - - - - - - -
 72
65
 73
2
 40
0.2
 49
0.1
 74
0
 49
-0.1
 74
0
  0
ENDTAB
  0
TABLE
  2
LAYER
  5
2
100
AcDbSymbolTable
 70
36
  0
LAYER
  5
10
100
AcDbSymbolTableRecord
100
AcDbLayerTableRecord
  2
0
 70
0
 62
7
  6
CONTINUOUS
370
-3
390
F
  0
LAYER
  5
1FA
100
AcDbSymbolTableRecord
100
AcDbLayerTableRecord
  2
DEFAULT_1
 70
0
 62
7
  6
CENTER
370
-3
390
F
  0
LAYER
  5
1FB
100
AcDbSymbolTableRecord
100
AcDbLayerTableRecord
  2
DEFAULT_2
 70
0
 62
7
  6
HIDDEN
370
-3
390
F
  0
LAYER
  5
1FC
100
AcDbSymbolTableRecord
100
AcDbLayerTableRecord
  2
DEFAULT_3
 70
0
 62
7
  6
PHANTOM
370
-3
390
F
  0
LAYER
  5
1FD
100
AcDbSymbolTableRecord
100
AcDbLayerTableRecord
  2
ASSI
 70
0
 62
7
  6
CONTINUOUS
370
-3
390
F
  0
LAYER
  5
1FE
100
AcDbSymbolTableRecord
100
AcDbLayerTableRecord
  2
COLOR9
 70
0
 62
7
  6
CONTINUOUS
370
-3
390
F
  0
LAYER
  5
1FF
100
AcDbSymbolTableRecord
100
AcDbLayerTableRecord
  2
COORDINATE
 70
0
 62
7
  6
CONTINUOUS
370
-3
390
F
  0
LAYER
  5
200
100
AcDbSymbolTableRecord
100
AcDbLayerTableRecord
  2
COORD_ORIGINE
 70
0
 62
7
  6
CONTINUOUS
370
-3
390
F
  0
LAYER
  5
201
100
AcDbSymbolTableRecord
100
AcDbLayerTableRecord
  2
COPY_PUBLISH
 70
0
 62
7
  6
CONTINUOUS
370
-3
390
F
  0
LAYER
  5
202
100
AcDbSymbolTableRecord
100
AcDbLayerTableRecord
  2
COSMETICI
 70
0
 62
7
  6
CONTINUOUS
370
-3
390
F
  0
LAYER
  5
203
100
AcDbSymbolTableRecord
100
AcDbLayerTableRecord
  2
CURVE
 70
0
 62
7
  6
CONTINUOUS
370
-3
390
F
  0
LAYER
  5
204
100
AcDbSymbolTableRecord
100
AcDbLayerTableRecord
  2
DRAFT
 70
0
 62
7
  6
CONTINUOUS
370
-3
390
F
  0
LAYER
  5
205
100
AcDbSymbolTableRecord
100
AcDbLayerTableRecord
  2
IGES
 70
0
 62
7
  6
CONTINUOUS
370
-3
390
F
  0
LAYER
  5
206
100
AcDbSymbolTableRecord
100
AcDbLayerTableRecord
  2
IGS_SCRITTE
 70
0
 62
7
  6
CONTINUOUS
370
-3
390
F
  0
LAYER
  5
207
100
AcDbSymbolTableRecord
100
AcDbLayerTableRecord
  2
IMPORT_IGES
 70
0
 62
7
  6
CONTINUOUS
370
-3
390
F
  0
LAYER
  5
208
100
AcDbSymbolTableRecord
100
AcDbLayerTableRecord
  2
INTF_YELLOW
 70
0
 62
7
  6
CONTINUOUS
370
-3
390
F
  0
LAYER
  5
209
100
AcDbSymbolTableRecord
100
AcDbLayerTableRecord
  2
LIVELLO_1
 70
0
 62
7
  6
CONTINUOUS
370
-3
390
F
  0
LAYER
  5
20A
100
AcDbSymbolTableRecord
100
AcDbLayerTableRecord
  2
NOTE
 70
0
 62
7
  6
CONTINUOUS
370
-3
390
F
  0
LAYER
  5
20B
100
AcDbSymbolTableRecord
100
AcDbLayerTableRecord
  2
PIANI
 70
0
 62
7
  6
CONTINUOUS
370
-3
390
F
  0
LAYER
  5
20C
100
AcDbSymbolTableRecord
100
AcDbLayerTableRecord
  2
PIANI_ORIGINE
 70
0
 62
7
  6
CONTINUOUS
370
-3
390
F
  0
LAYER
  5
20D
100
AcDbSymbolTableRecord
100
AcDbLayerTableRecord
  2
PIANI_RIFERIMENTO
 70
0
 62
7
  6
CONTINUOUS
370
-3
390
F
  0
LAYER
  5
20E
100
AcDbSymbolTableRecord
100
AcDbLayerTableRecord
  2
PUNTI
 70
0
 62
7
  6
CONTINUOUS
370
-3
390
F
  0
LAYER
  5
20F
100
AcDbSymbolTableRecord
100
AcDbLayerTableRecord
  2
RACCORDO
 70
0
 62
7
  6
CONTINUOUS
370
-3
390
F
  0
LAYER
  5
210
100
AcDbSymbolTableRecord
100
AcDbLayerTableRecord
  2
SIMBOLI
 70
0
 62
7
  6
CONTINUOUS
370
-3
390
F
  0
LAYER
  5
211
100
AcDbSymbolTableRecord
100
AcDbLayerTableRecord
  2
SMUSSO
 70
0
 62
7
  6
CONTINUOUS
370
-3
390
F
  0
LAYER
  5
212
100
AcDbSymbolTableRecord
100
AcDbLayerTableRecord
  2
SNAPLINE
 70
0
 62
7
  6
CONTINUOUS
370
-3
390
F
  0
LAYER
  5
213
100
AcDbSymbolTableRecord
100
AcDbLayerTableRecord
  2
SOLIDO
 70
0
 62
7
  6
CONTINUOUS
370
-3
390
F
  0
LAYER
  5
214
100
AcDbSymbolTableRecord
100
AcDbLayerTableRecord
  2
SUPERFICI
 70
0
 62
7
  6
CONTINUOUS
370
-3
390
F
  0
LAYER
  5
215
100
AcDbSymbolTableRecord
100
AcDbLayerTableRecord
  2
TRASH
 70
0
 62
7
  6
CONTINUOUS
370
-3
390
F
  0
LAYER
  5
216
100
AcDbSymbolTableRecord
100
AcDbLayerTableRecord
  2
WHITE
 70
0
 62
7
  6
CONTINUOUS
370
-3
390
F
  0
ENDTAB
  0
TABLE
  2
STYLE
  5
3
100
AcDbSymbolTable
 70
1
  0
STYLE
  5
11
100
AcDbSymbolTableRecord
100
AcDbTextStyleTableRecord
  2
STANDARD
 70
0
 40
0.0
 41
0.8
 50
0.0
 71
0
 42
0.2
  3
txt
  4

  0
STYLE
  5
217
100
AcDbSymbolTableRecord
100
AcDbTextStyleTableRecord
  2
TEXTSTYLE_1
 70
0
 40
0.0
 41
0.8
 50
0.0
 71
0
 42
0.2
  3
gdt
  4

  0
ENDTAB
  0
TABLE
  2
VIEW
  5
6
100
AcDbSymbolTable
 70
0
  0
ENDTAB
  0
TABLE
  2
UCS
  5
7
100
AcDbSymbolTable
 70
0
  0
ENDTAB
  0
TABLE
  2
APPID
  5
9
100
AcDbSymbolTable
 70
1
  0
APPID
  5
218
100
AcDbSymbolTableRecord
100
AcDbRegAppTableRecord
  2
ACAD
 70
0
  0
ENDTAB
  0
TABLE
  2
BLOCK_RECORD
  5
1
100
AcDbSymbolTable
 70
0
  0
BLOCK_RECORD
  5
219
100
AcDbSymbolTableRecord
100
AcDbBlockTableRecord
  2
*Model_Space
  0
BLOCK_RECORD
  5
21A
100
AcDbSymbolTableRecord
100
AcDbBlockTableRecord
  2
*Paper_Space
  0
BLOCK_RECORD
  5
21B
100
AcDbSymbolTableRecord
100
AcDbBlockTableRecord
  2
_FILLED
  0
BLOCK_RECORD
  5
21C
100
AcDbSymbolTableRecord
100
AcDbBlockTableRecord
  2
*D0
  0
BLOCK_RECORD
  5
21D
100
AcDbSymbolTableRecord
100
AcDbBlockTableRecord
  2
*D1
  0
BLOCK_RECORD
  5
21E
100
AcDbSymbolTableRecord
100
AcDbBlockTableRecord
  2
*D2
  0
ENDTAB
  0
TABLE
  2
DIMSTYLE
  5
A
100
AcDbSymbolTable
 70
1
100
AcDbDimStyleTable
 71
0
  0
DIMSTYLE
105
21F
100
AcDbSymbolTableRecord
100
AcDbDimStyleTableRecord
  2
STANDARD
 70
0
  3

  4

 40
1.0
 41
3.0
 42
0.5
 43
0.38
 44
1.5
 45
0.0
 46
0.0
 47
0.01
 48
0.01
140
3.0
141
0.09
142
0.0
143
25.4
144
1.0
145
0.0
146
1.0
147
0.625
 71
1.0
 72
0.0
 73
0
 74
0
 75
0
 76
0
 77
1
 78
8
170
0
171
1
172
0
173
0
174
0
175
0
176
0
177
0
178
0
270
2
271
2
272
2
273
2
274
2
275
0
280
0
281
0
282
0
283
1
284
8
285
0
286
0
287
3
288
0
340
11
278
44
341
21B
342
21B
343
21B
344
21B
  0
DIMSTYLE
105
220
100
AcDbSymbolTableRecord
100
AcDbDimStyleTableRecord
  2
DIMSTYLE_1
 70
0
  3

  4

 40
1.0
 41
3.0
 42
0.5
 43
0.38
 44
1.5
 45
0.0
 46
0.0
 47
0.0
 48
0.0
140
3.0
141
0.09
142
0.0
143
25.4
144
1.0
145
0.0
146
1.0
147
0.75
 71
0.0
 72
0.0
 73
0
 74
0
 75
0
 76
0
 77
1
 78
8
170
0
171
1
172
0
173
0
174
0
175
0
176
0
177
0
178
0
270
2
271
2
272
2
273
2
274
2
275
0
280
0
281
0
282
0
283
1
284
8
285
0
286
0
287
3
288
0
340
11
278
44
341
21B
342
21B
343
21B
344
21B
  0
DIMSTYLE
105
221
100
AcDbSymbolTableRecord
100
AcDbDimStyleTableRecord
  2
DIMSTYLE_2
 70
0
  3

  4

 40
1.0
 41
3.0
 42
0.5
 43
0.38
 44
1.5
 45
0.0
 46
0.0
 47
0.0
 48
0.0
140
3.0
141
0.09
142
0.0
143
25.4
144
1.0
145
0.0
146
1.0
147
0.75
 71
0.0
 72
0.0
 73
0
 74
0
 75
0
 76
0
 77
1
 78
8
170
0
171
1
172
0
173
0
174
0
175
0
176
0
177
0
178
0
270
2
271
1
272
1
273
2
274
2
275
0
280
0
281
0
282
0
283
1
284
8
285
0
286
0
287
3
288
0
340
11
278
44
341
21B
342
21B
343
21B
344
21B
  0
ENDTAB
  0
ENDSEC
  0
SECTION
  2
BLOCKS
  0
BLOCK
  5
20
100
AcDbEntity
  8
0
100
AcDbBlockBegin
  2
*Model_Space
 70
0
 10
0.0
 20
0.0
 30
0.0
  3
*Model_Space
  1

  0
ENDBLK
  5
21
100
AcDbEntity
  8
0
100
AcDbBlockEnd
  0
BLOCK
  5
1C
100
AcDbEntity
  8
0
100
AcDbBlockBegin
  2
*Paper_Space
 70
0
 10
0.0
 20
0.0
 30
0.0
  3
*Paper_Space
  1

  0
ENDBLK
  5
1D
100
AcDbEntity
  8
0
100
AcDbBlockEnd
  0
BLOCK
  5
222
100
AcDbEntity
  8
0
100
AcDbBlockBegin
  2
_FILLED
 70
64
 10
0.0
 20
0.0
  3
_FILLED
  1

  0
SOLID
  5
223
100
AcDbEntity
  8
0
  6
BYBLOCK
 62
0
100
AcDbTrace
 10
0.0
 20
0.0
 11
-1.0
 21
0.3166666667
 12
-1.0
 22
-0.3166666667
 13
-1.0
 23
-0.3166666667
  0
ENDBLK
  5
224
100
AcDbEntity
  8
0
  6
BYBLOCK
 62
0
100
AcDbBlockEnd
  0
BLOCK
  5
225
100
AcDbEntity
  8
0
100
AcDbBlockBegin
 62
7
  6
CONTINUOUS
  2
*D0
 70
65
 10
0.0
 20
0.0
  3
*D0
  1

  0
MTEXT
  5
226
100
AcDbEntity
  8
0
100
AcDbMText
 62
7
  6
CONTINUOUS
  7
STANDARD
 71
2
 72
1
 10
-0.075222101
 20
33.658869175
 30
0.0
 11
1.0
 21
0.0
 31
0.0
 44
0.9
  1
22,3
 40
3.0
 41
12.8571428571
  0
LINE
  5
227
100
AcDbEntity
  8
0
100
AcDbLine
 62
7
  6
CONTINUOUS
 10
-11.225222101
 20
13.3006312344
 11
-11.225222101
 21
31.408869175
  0
LINE
  5
228
100
AcDbEntity
  8
0
100
AcDbLine
 62
7
  6
CONTINUOUS
 10
11.074777899
 20
13.3006312344
 11
11.074777899
 21
31.408869175
  0
LINE
  5
229
100
AcDbEntity
  8
0
100
AcDbLine
 62
7
  6
CONTINUOUS
 10
-11.225222101
 20
29.908869175
 11
-0.075222101
 21
29.908869175
  0
LINE
  5
22A
100
AcDbEntity
  8
0
100
AcDbLine
 62
7
  6
CONTINUOUS
 10
11.074777899
 20
29.908869175
 11
-0.075222101
 21
29.908869175
  0
INSERT
  5
22B
100
AcDbEntity
  8
0
100
AcDbBlockReference
 62
7
  6
CONTINUOUS
  2
_FILLED
 10
-11.225222101
 20
29.908869175
 41
3.0
 42
3.0
 43
3.0
 50
180.0
  0
INSERT
  5
22C
100
AcDbEntity
  8
0
100
AcDbBlockReference
 62
7
  6
CONTINUOUS
  2
_FILLED
 10
11.074777899
 20
29.908869175
 41
3.0
 42
3.0
 43
3.0
  0
ENDBLK
  5
22D
100
AcDbEntity
  8
0
  6
BYBLOCK
 62
0
100
AcDbBlockEnd
  0
BLOCK
  5
22E
100
AcDbEntity
  8
0
100
AcDbBlockBegin
 62
7
  6
CONTINUOUS
  2
*D1
 70
65
 10
0.0
 20
0.0
  3
*D1
  1

  0
MTEXT
  5
22F
100
AcDbEntity
  8
0
100
AcDbMText
 62
7
  6
CONTINUOUS
  7
STANDARD
 71
2
 72
1
 10
15.324777899
 20
-0.2993687656
 30
0.0
 11
0.0
 21
1.0
 31
0.0
 44
0.9
  1
44,4
 40
3.0
 41
13.1785714286
  0
LINE
  5
230
100
AcDbEntity
  8
0
100
AcDbLine
 62
7
  6
CONTINUOUS
 10
11.0475597042
 20
21.908869175
 11
20.574777899
 21
21.908869175
  0
LINE
  5
231
100
AcDbEntity
  8
0
100
AcDbLine
 62
7
  6
CONTINUOUS
 10
11.0475597042
 20
-22.5076067061
 11
20.574777899
 21
-22.5076067061
  0
LINE
  5
232
100
AcDbEntity
  8
0
100
AcDbLine
 62
7
  6
CONTINUOUS
 10
19.074777899
 20
21.908869175
 11
19.074777899
 21
-0.2993687656
  0
LINE
  5
233
100
AcDbEntity
  8
0
100
AcDbLine
 62
7
  6
CONTINUOUS
 10
19.074777899
 20
-22.5076067061
 11
19.074777899
 21
-0.2993687656
  0
INSERT
  5
234
100
AcDbEntity
  8
0
100
AcDbBlockReference
 62
7
  6
CONTINUOUS
  2
_FILLED
 10
19.074777899
 20
21.908869175
 41
3.0
 42
3.0
 43
3.0
 50
90.0
  0
INSERT
  5
235
100
AcDbEntity
  8
0
100
AcDbBlockReference
 62
7
  6
CONTINUOUS
  2
_FILLED
 10
19.074777899
 20
-22.5076067061
 41
3.0
 42
3.0
 43
3.0
 50
270.0
  0
ENDBLK
  5
236
100
AcDbEntity
  8
0
  6
BYBLOCK
 62
0
100
AcDbBlockEnd
  0
BLOCK
  5
237
100
AcDbEntity
  8
0
100
AcDbBlockBegin
 62
7
  6
CONTINUOUS
  2
*D2
 70
65
 10
0.0
 20
0.0
  3
*D2
  1

  0
MTEXT
  5
238
100
AcDbEntity
  8
0
100
AcDbMText
 62
7
  6
CONTINUOUS
  7
STANDARD
 71
1
 72
1
 10
-26.7378082436
 20
33.658869175
 30
0.0
 11
1.0
 21
0.0
 31
0.0
 44
0.9
  1
5,7
 40
3.0
 41
9.3214285714
  0
LINE
  5
239
100
AcDbEntity
  8
0
100
AcDbLine
 62
7
  6
CONTINUOUS
 10
-31.308713697
 20
13.3006312344
 11
-31.308713697
 21
31.408869175
  0
LINE
  5
23A
100
AcDbEntity
  8
0
100
AcDbLine
 62
7
  6
CONTINUOUS
 10
-37.0085554768
 20
0.5983996884
 11
-37.0085554768
 21
31.408869175
  0
LINE
  5
23B
100
AcDbEntity
  8
0
100
AcDbLine
 62
7
  6
CONTINUOUS
 10
-31.308713697
 20
29.908869175
 11
-20.5235225293
 21
29.908869175
  0
LINE
  5
23C
100
AcDbEntity
  8
0
100
AcDbLine
 62
7
  6
CONTINUOUS
 10
-20.5235225293
 20
29.908869175
 11
-34.1586345869
 21
29.908869175
  0
LINE
  5
23D
100
AcDbEntity
  8
0
100
AcDbLine
 62
7
  6
CONTINUOUS
 10
-37.0085554768
 20
29.908869175
 11
-41.0085554768
 21
29.908869175
  0
LINE
  5
23E
100
AcDbEntity
  8
0
100
AcDbLine
 62
7
  6
CONTINUOUS
 10
-41.0085554768
 20
29.908869175
 11
-34.1586345869
 21
29.908869175
  0
INSERT
  5
23F
100
AcDbEntity
  8
0
100
AcDbBlockReference
 62
7
  6
CONTINUOUS
  2
_FILLED
 10
-31.308713697
 20
29.908869175
 41
3.0
 42
3.0
 43
3.0
 50
180.0
  0
INSERT
  5
240
100
AcDbEntity
  8
0
100
AcDbBlockReference
 62
7
  6
CONTINUOUS
  2
_FILLED
 10
-37.0085554768
 20
29.908869175
 41
3.0
 42
3.0
 43
3.0
  0
ENDBLK
  5
241
100
AcDbEntity
  8
0
  6
BYBLOCK
 62
0
100
AcDbBlockEnd
  0
ENDSEC
  0
SECTION
  2
ENTITIES
  0
DIMENSION
  5
242
100
AcDbEntity
  8
0
100
AcDbDimension
 62
7
  6
CONTINUOUS
  2
*D0
 10
11.074777899
 20
29.908869175
 11
-0.5037936029
 21
29.908869175
 70
160
 71
2
 42
22.3
  3
DIMSTYLE_1
100
AcDbAlignedDimension
 13
-11.225222101
 23
12.8006312344
 14
11.074777899
 24
12.8006312344
100
AcDbRotatedDimension
  0
DIMENSION
  5
243
100
AcDbEntity
  8
0
100
AcDbDimension
 62
7
  6
CONTINUOUS
  2
*D1
 10
19.074777899
 20
-22.5076067061
 11
19.074777899
 21
-0.7279397453
 70
160
 71
2
 42
44.4164758811
  3
DIMSTYLE_2
100
AcDbAlignedDimension
 13
10.5475597042
 23
21.908869175
 14
10.5475597042
 24
-22.5076067061
 50
270.0
100
AcDbRotatedDimension
  0
DIMENSION
  5
244
100
AcDbEntity
  8
0
100
AcDbDimension
 62
7
  6
CONTINUOUS
  2
*D2
 10
-37.0085554768
 20
29.908869175
 11
-24.0592364731
 21
29.908869175
 70
160
 71
1
 42
5.6998417798
  3
DIMSTYLE_1
100
AcDbAlignedDimension
 13
-31.308713697
 23
12.8006312344
 14
-37.0085554768
 24
0.0983996884
 50
180.0
100
AcDbRotatedDimension
  0
LINE
  5
245
100
AcDbEntity
  8
ASSI
100
AcDbLine
 62
7
  6
CONTINUOUS
 10
3.3188241981
 20
-22.5076067061
 11
3.6670428721
 21
-22.4759978746
  0
LINE
  5
246
100
AcDbEntity
  8
ASSI
100
AcDbLine
 62
7
  6
CONTINUOUS
 10
-7.8811758019
 20
-22.5076067061
 11
-7.5329571279
 21
-22.4759978746
  0
LINE
  5
247
100
AcDbEntity
  8
ASSI
100
AcDbLine
 62
253
  6
CONTINUOUS
 10
10.5153305723
 20
-21.5052446094
 11
10.4871724712
 21
-21.5059907721
  0
LWPOLYLINE
  5
248
100
AcDbEntity
  8
ASSI
100
AcDbPolyline
 62
253
  6
CONTINUOUS
 90
4
 70
0
 10
10.4871724712
 20
-21.5059907721
 10
10.4588306066
 20
-21.5064981777
 10
10.4446194144
 20
-21.506661803
 10
10.4303967114
 20
-21.5067651839
  0
LINE
  5
249
100
AcDbEntity
  8
ASSI
100
AcDbLine
 62
7
  6
CONTINUOUS
 10
10.5475597042
 20
-22.5076067061
 11
7.7307315999
 21
-22.5076067061
  0
LINE
  5
24A
100
AcDbEntity
  8
ASSI
100
AcDbLine
 62
7
  6
CONTINUOUS
 10
3.3188241981
 20
-22.5076067061
 11
-3.4692684001
 21
-22.5076067061
  0
LINE
  5
24B
100
AcDbEntity
  8
ASSI
100
AcDbLine
 62
7
  6
CONTINUOUS
 10
-7.8811758019
 20
-22.5076067061
 11
-10.6980039062
 21
-22.5076067061
  0
LINE
  5
24C
100
AcDbEntity
  8
ASSI
100
AcDbLine
 62
7
  6
CONTINUOUS
 10
-7.3597520472
 20
-22.4707570967
 11
-3.9906921548
 21
-22.4707570967
  0
LINE
  5
24D
100
AcDbEntity
  8
ASSI
100
AcDbLine
 62
7
  6
CONTINUOUS
 10
3.8402479528
 20
-22.4707570967
 11
7.2093078452
 21
-22.4707570967
  0
LINE
  5
24E
100
AcDbEntity
  8
ASSI
100
AcDbLine
 62
253
  6
CONTINUOUS
 10
-10.5971923691
 20
-22.3563125375
 11
10.4467481671
 21
-22.3563125375
  0
LINE
  5
24F
100
AcDbEntity
  8
ASSI
100
AcDbLine
 62
253
  6
CONTINUOUS
 10
-10.6234629889
 20
-21.5062744416
 11
-10.5950636165
 21
-21.5066618043
  0
LINE
  5
250
100
AcDbEntity
  8
ASSI
100
AcDbLine
 62
7
  6
CONTINUOUS
 10
-3.4692684001
 20
-22.5076067061
 11
-3.8174870741
 21
-22.4759978746
  0
LINE
  5
251
100
AcDbEntity
  8
ASSI
100
AcDbLine
 62
7
  6
CONTINUOUS
 10
7.7307315999
 20
-22.5076067061
 11
7.3825129259
 21
-22.4759978746
  0
LINE
  5
252
100
AcDbEntity
  8
ASSI
100
AcDbLine
 62
253
  6
CONTINUOUS
 10
-10.5808409134
 20
-21.5067651852
 11
10.4303967114
 21
-21.5067651852
  0
LINE
  5
253
100
AcDbEntity
  8
ASSI
100
AcDbLine
 62
253
  6
CONTINUOUS
 10
-10.5950636165
 20
-21.5066618043
 11
-10.5808409134
 21
-21.5067651852
  0
LWPOLYLINE
  5
254
100
AcDbEntity
  8
ASSI
100
AcDbPolyline
 62
253
  6
CONTINUOUS
 90
49
 70
0
 10
-11.0805363269
 20
20.8334865628
 10
-11.0798433001
 20
20.8356082068
 10
-11.0787464172
 20
20.8377281338
 10
-11.0772465661
 20
20.8398446279
 10
-11.0753449605
 20
20.8419559763
 10
-11.0730431396
 20
20.8440604701
 10
-11.0703429662
 20
20.8461564062
 10
-11.0672466257
 20
20.8482420883
 10
-11.063756624
 20
20.8503158283
 10
-11.0598757857
 20
20.8523759479
 10
-11.0556072517
 20
20.8544207799
 10
-11.0509544765
 20
20.8564486692
 10
-11.0459212257
 20
20.8584579747
 10
-11.0405115731
 20
20.8604470701
 10
-11.0347298966
 20
20.8624143457
 10
-11.0285808756
 20
20.8643582093
 10
-11.0220694867
 20
20.8662770876
 10
-11.0152009997
 20
20.8681694276
 10
-11.0079809733
 20
20.8700336979
 10
-11.0004152511
 20
20.8718683896
 10
-10.9925099562
 20
20.8736720178
 10
-10.9842714864
 20
20.8754431229
 10
-10.9757065095
 20
20.8771802714
 10
-10.9668219573
 20
20.8788820575
 10
-10.9576250202
 20
20.8805471037
 10
-10.9481231417
 20
20.8821740626
 10
-10.9383240118
 20
20.8837616173
 10
-10.9282355613
 20
20.8853084832
 10
-10.9178659549
 20
20.8868134081
 10
-10.9072235852
 20
20.8882751742
 10
-10.8963170652
 20
20.8896925985
 10
-10.8851552219
 20
20.8910645336
 10
-10.8737470889
 20
20.8923898694
 10
-10.8621018991
 20
20.8936675331
 10
-10.8502290772
 20
20.8948964908
 10
-10.8381382323
 20
20.8960757478
 10
-10.8258391497
 20
20.8972043496
 10
-10.8133417835
 20
20.898281383
 10
-10.8006562481
 20
20.8993059761
 10
-10.7877928103
 20
20.9002772999
 10
-10.7747618807
 20
20.9011945681
 10
-10.7615740058
 20
20.9020570384
 10
-10.7482398586
 20
20.9028640128
 10
-10.7347702311
 20
20.9036148381
 10
-10.7211760244
 20
20.9043089068
 10
-10.7074682407
 20
20.904945657
 10
-10.6936579741
 20
20.9055245735
 10
-10.6797564017
 20
20.9060451877
 10
-10.6657747743
 20
20.9065070782
  0
LWPOLYLINE
  5
255
100
AcDbEntity
  8
ASSI
100
AcDbPolyline
 62
253
  6
CONTINUOUS
 90
51
 70
0
 10
-11.0805363269
 20
-21.432224094
 10
-11.0798433003
 20
-21.434345738
 10
-11.0787464176
 20
-21.436465665
 10
-11.0772465666
 20
-21.4385821592
 10
-11.0753449613
 20
-21.4406935076
 10
-11.0730431405
 20
-21.4427980014
 10
-11.0703429673
 20
-21.4448939376
 10
-11.067246627
 20
-21.4469796196
 10
-11.0637566254
 20
-21.4490533597
 10
-11.0598757872
 20
-21.4511134794
 10
-11.0556072533
 20
-21.4531583113
 10
-11.0509544782
 20
-21.4551862007
 10
-11.0459212276
 20
-21.4571955062
 10
-11.040511575
 20
-21.4591846017
 10
-11.0347298987
 20
-21.4611518773
 10
-11.0285808778
 20
-21.4630957409
 10
-11.0220694889
 20
-21.4650146192
 10
-11.0152010019
 20
-21.4669069593
 10
-11.0079809757
 20
-21.4687712296
 10
-11.0004152535
 20
-21.4706059213
 10
-10.9925099586
 20
-21.4724095496
 10
-10.9842714889
 20
-21.4741806547
 10
-10.975706512
 20
-21.4759178032
 10
-10.9668219597
 20
-21.4776195893
 10
-10.9576250227
 20
-21.4792846356
 10
-10.9481231442
 20
-21.4809115945
 10
-10.9383240143
 20
-21.4824991493
 10
-10.9282355637
 20
-21.4840460151
 10
-10.9178659574
 20
-21.4855509401
 10
-10.9072235876
 20
-21.4870127062
 10
-10.8963170676
 20
-21.4884301305
 10
-10.8851552243
 20
-21.4898020657
 10
-10.8737470912
 20
-21.4911274015
 10
-10.8621019013
 20
-21.4924050652
 10
-10.8502290794
 20
-21.4936340229
 10
-10.8381382344
 20
-21.4948132799
 10
-10.8258391517
 20
-21.4959418818
 10
-10.8133417854
 20
-21.4970189152
 10
-10.80065625
 20
-21.4980435084
 10
-10.7877928121
 20
-21.4990148321
 10
-10.7747618824
 20
-21.4999321004
 10
-10.7615740073
 20
-21.5007945707
 10
-10.7482398601
 20
-21.5016015451
 10
-10.7347702324
 20
-21.5023523704
 10
-10.7211760256
 20
-21.5030464391
 10
-10.7074682418
 20
-21.5036831894
 10
-10.6936579752
 20
-21.5042621059
 10
-10.6797564026
 20
-21.50478272
 10
-10.6657747751
 20
-21.5052446106
 10
-10.6517244083
 20
-21.5056474037
 10
-10.6234629889
 20
-21.5062744416
  0
LWPOLYLINE
  5
256
100
AcDbEntity
  8
0
100
AcDbPolyline
 62
253
  6
CONTINUOUS
 90
15
 70
0
 10
-2.2311160628
 20
-14.4381270482
 10
-2.2229683566
 20
-14.4368680223
 10
-2.2148035062
 20
-14.4355225308
 10
-2.2066214231
 20
-14.4340916077
 10
-2.1984220187
 20
-14.432576287
 10
-2.1902052043
 20
-14.4309776025
 10
-2.1819708915
 20
-14.4292965883
 10
-2.1737189915
 20
-14.4275342782
 10
-2.1654493705
 20
-14.4256917079
 10
-2.1571617126
 20
-14.4237699201
 10
-2.1488556568
 20
-14.4217699592
 10
-2.140530842
 20
-14.4196928693
 10
-2.1321869071
 20
-14.417539695
 10
-2.1238234909
 20
-14.4153114806
 10
-2.1154402324
 20
-14.4130092704
  0
LWPOLYLINE
  5
257
100
AcDbEntity
  8
0
100
AcDbPolyline
 62
253
  6
CONTINUOUS
 90
22
 70
0
 10
-2.2862905059
 20
-14.0740956594
 10
-2.3196651158
 20
-14.0788891248
 10
-2.3530736878
 20
-14.0831966703
 10
-2.3865211399
 20
-14.0870202258
 10
-2.4200123898
 20
-14.0903617209
 10
-2.4535523556
 20
-14.0932230856
 10
-2.4871459549
 20
-14.0956062497
 10
-2.5207981058
 20
-14.0975131429
 10
-2.5545103111
 20
-14.0989453113
 10
-2.5882704142
 20
-14.0999027653
 10
-2.6220628435
 20
-14.1003851318
 10
-2.6558720273
 20
-14.1003920374
 10
-2.6896823942
 20
-14.0999231089
 10
-2.7234783725
 20
-14.098977973
 10
-2.7572443906
 20
-14.0975562563
 10
-2.7909682662
 20
-14.095657198
 10
-2.8246513744
 20
-14.0932784865
 10
-2.8582984794
 20
-14.0904174226
 10
-2.8919143456
 20
-14.0870713071
 10
-2.9255037373
 20
-14.0832374409
 10
-2.9590714188
 20
-14.0789131247
 10
-2.9926221545
 20
-14.0740956594
  0
LINE
  5
258
100
AcDbEntity
  8
0
100
AcDbLine
 62
253
  6
CONTINUOUS
 10
-2.2847382837
 20
-14.4455353815
 11
-2.2311160628
 21
-14.4381270482
  0
LWPOLYLINE
  5
259
100
AcDbEntity
  8
0
100
AcDbPolyline
 62
253
  6
CONTINUOUS
 90
22
 70
0
 10
-2.9938568767
 20
-14.4455353815
 10
-2.9602850822
 20
-14.4497060832
 10
-2.9266879418
 20
-14.4534554014
 10
-2.8930616835
 20
-14.4567846023
 10
-2.8594025354
 20
-14.4596949518
 10
-2.8257067254
 20
-14.4621877161
 10
-2.7919704816
 20
-14.4642641613
 10
-2.758190032
 20
-14.4659255533
 10
-2.7243641966
 20
-14.4671729065
 10
-2.6905021637
 20
-14.4680062276
 10
-2.6566157137
 20
-14.4684252717
 10
-2.6227166267
 20
-14.4684297939
 10
-2.588816683
 20
-14.468019549
 10
-2.5549276631
 20
-14.4671942921
 10
-2.5210613472
 20
-14.4659537782
 10
-2.487226938
 20
-14.4642975086
 10
-2.4534233279
 20
-14.4622239697
 10
-2.4196468317
 20
-14.4597313943
 10
-2.3858937644
 20
-14.4568180151
 10
-2.3521604407
 20
-14.4534820647
 10
-2.3184431756
 20
-14.4497217759
 10
-2.2847382837
 20
-14.4455353815
  0
LINE
  5
25A
100
AcDbEntity
  8
0
100
AcDbLine
 62
253
  6
CONTINUOUS
 10
-3.0475143753
 20
-14.4381270482
 11
-2.9938568767
 21
-14.4455353815
  0
LWPOLYLINE
  5
25B
100
AcDbEntity
  8
0
100
AcDbPolyline
 62
253
  6
CONTINUOUS
 90
45
 70
0
 10
-2.9926221545
 20
-14.0740956594
 10
-3.0057613317
 20
-14.0719740907
 10
-3.018783862
 20
-14.0695179909
 10
-3.0316936297
 20
-14.0667311676
 10
-3.0444945187
 20
-14.0636174289
 10
-3.0571904131
 20
-14.0601805824
 10
-3.0697851969
 20
-14.0564244359
 10
-3.0822827542
 20
-14.0523527972
 10
-3.096742054
 20
-14.0472090196
 10
-3.1110595808
 20
-14.0416478583
 10
-3.1252206111
 20
-14.0356761668
 10
-3.1392104215
 20
-14.0293007984
 10
-3.1530142884
 20
-14.0225286066
 10
-3.1666174884
 20
-14.0153664448
 10
-3.180005799
 20
-14.0078206544
 10
-3.1931670021
 20
-13.9998955293
 10
-3.2060893805
 20
-13.9915948514
 10
-3.2187612172
 20
-13.9829224028
 10
-3.231170795
 20
-13.9738819653
 10
-3.2433063969
 20
-13.9644773209
 10
-3.2551565619
 20
-13.9547132418
 10
-3.2667108541
 20
-13.9445984609
 10
-3.2779590939
 20
-13.9341427015
 10
-3.2888911013
 20
-13.9233556866
 10
-3.2994966968
 20
-13.9122471395
 10
-3.3097657006
 20
-13.9008267833
 10
-3.3196889258
 20
-13.8891045071
 10
-3.3292611568
 20
-13.877090863
 10
-3.3384781705
 20
-13.8647965689
 10
-3.3473357442
 20
-13.8522323429
 10
-3.3558296549
 20
-13.8394089029
 10
-3.3639556798
 20
-13.8263369669
 10
-3.3717088795
 20
-13.8130282943
 10
-3.3790814488
 20
-13.79949881
 10
-3.386064866
 20
-13.7857654804
 10
-3.3926506096
 20
-13.7718452718
 10
-3.3988301579
 20
-13.7577551506
 10
-3.4045949892
 20
-13.743512083
 10
-3.4092001392
 20
-13.7311923403
 10
-3.4134914111
 20
-13.7187682153
 10
-3.4174658776
 20
-13.7062352294
 10
-3.4211206114
 20
-13.6935889039
 10
-3.4244526851
 20
-13.6808247602
 10
-3.4274591716
 20
-13.6679383198
 10
-3.4301371434
 20
-13.6549251039
  0
LWPOLYLINE
  5
25C
100
AcDbEntity
  8
0
100
AcDbPolyline
 62
253
  6
CONTINUOUS
 90
31
 70
0
 10
-0.7589744337
 20
-14.3751562148
 10
-0.7467585259
 20
-14.3778444639
 10
-0.7345679814
 20
-14.380297536
 10
-0.7223845444
 20
-14.3825183891
 10
-0.710189959
 20
-14.3845099813
 10
-0.6979659693
 20
-14.3862752706
 10
-0.6856943193
 20
-14.387817215
 10
-0.6733567532
 20
-14.3891387726
 10
-0.6609392088
 20
-14.3902414493
 10
-0.648444398
 20
-14.391120942
 10
-0.6358792265
 20
-14.3917714957
 10
-0.6232506001
 20
-14.3921873551
 10
-0.6105654244
 20
-14.392362765
 10
-0.597830605
 20
-14.3922919704
 10
-0.5850530477
 20
-14.3919692161
 10
-0.573843067
 20
-14.391475695
 10
-0.5626103486
 20
-14.390781599
 10
-0.5513595888
 20
-14.3898836665
 10
-0.5400954839
 20
-14.3887786355
 10
-0.5288227302
 20
-14.3874632443
 10
-0.5175460242
 20
-14.385934231
 10
-0.5062700621
 20
-14.3841883338
 10
-0.4949995402
 20
-14.3822222909
 10
-0.4837371611
 20
-14.3800333429
 10
-0.4724776513
 20
-14.3776207403
 10
-0.4612137438
 20
-14.3749842363
 10
-0.4499381712
 20
-14.3721235837
 10
-0.4386436665
 20
-14.3690385356
 10
-0.4273229624
 20
-14.365728845
 10
-0.4159687917
 20
-14.3621942648
 10
-0.4045738872
 20
-14.3584345482
  0
LWPOLYLINE
  5
25D
100
AcDbEntity
  8
0
100
AcDbPolyline
 62
253
  6
CONTINUOUS
 90
31
 70
0
 10
1.8477004998
 20
-14.3751562148
 10
1.8599136456
 20
-14.3778437519
 10
1.8721017654
 20
-14.3802960397
 10
1.8842830821
 20
-14.3825160395
 10
1.8964758184
 20
-14.3845067123
 10
1.9086981972
 20
-14.3862710191
 10
1.9209684411
 20
-14.3878119213
 10
1.933304773
 20
-14.3891323797
 10
1.9457212278
 20
-14.3902339049
 10
1.9582150884
 20
-14.3911122043
 10
1.9707794501
 20
-14.3917615346
 10
1.9834074079
 20
-14.3921761526
 10
1.9960920571
 20
-14.392350315
 10
2.0088264928
 20
-14.3922782784
 10
2.02160381
 20
-14.3919542997
 10
2.0328136984
 20
-14.3914597322
 10
2.0440464311
 20
-14.3907646272
 10
2.0552973078
 20
-14.3898657378
 10
2.0665616282
 20
-14.3887598171
 10
2.0778346919
 20
-14.387443618
 10
2.0891117986
 20
-14.3859138935
 10
2.1003882478
 20
-14.3841673966
 10
2.1116593393
 20
-14.3822008804
 10
2.1229223842
 20
-14.3800116372
 10
2.1341827397
 20
-14.3775991165
 10
2.1454477746
 20
-14.3749633074
 10
2.1567248577
 20
-14.3721041988
 10
2.1680213577
 20
-14.3690217797
 10
2.1793446432
 20
-14.3657160389
 10
2.1907020832
 20
-14.3621869654
 10
2.2021010463
 20
-14.3584345482
  0
LWPOLYLINE
  5
25E
100
AcDbEntity
  8
ASSI
100
AcDbPolyline
 62
253
  6
CONTINUOUS
 90
12
 70
0
 10
-11.046173473
 20
9.1911312344
 10
-11.0454752074
 20
9.1914015665
 10
-11.0443732919
 20
9.19167168
 10
-11.0428686177
 20
9.1919413563
 10
-11.0409624022
 20
9.1922103772
 10
-11.0386561871
 20
9.1924785252
 10
-11.0359518382
 20
9.1927455833
 10
-11.032851543
 20
9.1930113356
 10
-11.0293578094
 20
9.193275567
 10
-11.0254734635
 20
9.1935380638
 10
-11.0212016476
 20
9.1937986137
 10
-11.0165458171
 20
9.1940570058
  0
LINE
  5
25F
100
AcDbEntity
  8
0
100
AcDbLine
 62
253
  6
CONTINUOUS
 10
2.2042529907
 20
-12.9786501041
 11
3.7890012836
 21
-12.9631631596
  0
LINE
  5
260
100
AcDbEntity
  8
0
100
AcDbLine
 62
253
  6
CONTINUOUS
 10
-0.402386665
 20
-12.9786501041
 11
1.1823263501
 21
-12.9631631596
  0
LINE
  5
261
100
AcDbEntity
  8
0
100
AcDbLine
 62
253
  6
CONTINUOUS
 10
1.1656046838
 20
-12.6087626042
 11
-0.402386665
 21
-12.606575382
  0
LINE
  5
262
100
AcDbEntity
  8
0
100
AcDbLine
 62
253
  6
CONTINUOUS
 10
3.7722443396
 20
-12.6087626042
 11
2.2042529907
 21
-12.606575382
  0
LINE
  5
263
100
AcDbEntity
  8
0
100
AcDbLine
 62
253
  6
CONTINUOUS
 10
-2.3694049482
 20
-11.50806066
 11
-2.2859730059
 21
-11.5192084378
  0
LWPOLYLINE
  5
264
100
AcDbEntity
  8
0
100
AcDbPolyline
 62
253
  6
CONTINUOUS
 90
44
 70
0
 10
-2.2859730059
 20
-11.5192084378
 10
-2.2728344066
 20
-11.5213345898
 10
-2.2598123885
 20
-11.5237955408
 10
-2.2469030616
 20
-11.5265874846
 10
-2.234102536
 20
-11.5297066151
 10
-2.2214069218
 20
-11.5331491261
 10
-2.208812329
 20
-11.5369112115
 10
-2.1963148677
 20
-11.5409890653
 10
-2.1818555594
 20
-11.5461404442
 10
-2.1675379222
 20
-11.5517095825
 10
-2.1533767148
 20
-11.5576896243
 10
-2.1393866962
 20
-11.5640737137
 10
-2.1255826253
 20
-11.5708549949
 10
-2.1119792608
 20
-11.578026612
 10
-2.0985908688
 20
-11.5855822196
 10
-2.0854297438
 20
-11.5935175134
 10
-2.0725076874
 20
-11.6018286999
 10
-2.0598365013
 20
-11.610511985
 10
-2.0474279871
 20
-11.6195635752
 10
-2.0352939463
 20
-11.6289796766
 10
-2.0234459057
 20
-11.6387555
 10
-2.0118942914
 20
-11.6488822751
 10
-2.0006492548
 20
-11.659350236
 10
-1.9897209471
 20
-11.670149617
 10
-1.9791195194
 20
-11.6812706521
 10
-1.9688551232
 20
-11.6927035756
 10
-1.9589369025
 20
-11.7044384379
 10
-1.9493699742
 20
-11.7164645541
 10
-1.9401584479
 20
-11.7287710556
 10
-1.9313064333
 20
-11.7413470738
 10
-1.92281804
 20
-11.7541817399
 10
-1.9146973778
 20
-11.7672641854
 10
-1.9069492536
 20
-11.7805825247
 10
-1.8995812636
 20
-11.7941208053
 10
-1.892601701
 20
-11.8078620575
 10
-1.8860188592
 20
-11.8217893121
 10
-1.8798410316
 20
-11.8358855994
 10
-1.8740765116
 20
-11.85013395
 10
-1.8687329444
 20
-11.8645213977
 10
-1.863815383
 20
-11.8790509885
 10
-1.8593282324
 20
-11.8937297719
 10
-1.8552758975
 20
-11.9085647972
 10
-1.8516627833
 20
-11.9235631138
 10
-1.8484932948
 20
-11.938731771
  0
LWPOLYLINE
  5
265
100
AcDbEntity
  8
ASSI
100
AcDbPolyline
 62
253
  6
CONTINUOUS
 90
14
 70
0
 10
-11.046173473
 20
-9.7898687656
 10
-11.0454752074
 20
-9.7901390977
 10
-11.0443732919
 20
-9.7904092112
 10
-11.0428686177
 20
-9.7906788874
 10
-11.0409624022
 20
-9.7909479084
 10
-11.0386561871
 20
-9.7912160564
 10
-11.0359518382
 20
-9.7914831145
 10
-11.032851543
 20
-9.7917488668
 10
-11.0293578094
 20
-9.7920130982
 10
-11.0254734636
 20
-9.792275595
 10
-11.0212016476
 20
-9.7925361449
 10
-11.0165458172
 20
-9.792794537
 10
-11.0115097384
 20
-9.7930505625
 10
-11.0003134353
 20
-9.7935546869
  0
LINE
  5
266
100
AcDbEntity
  8
ASSI
100
AcDbLine
 62
253
  6
CONTINUOUS
 10
-11.0882227696
 20
21.1769866738
 11
-11.0889345709
 21
21.1896719691
  0
LINE
  5
267
100
AcDbEntity
  8
ASSI
100
AcDbLine
 62
253
  6
CONTINUOUS
 10
-11.0875328583
 20
21.1633337959
 11
-11.0882227696
 21
21.1769866738
  0
LINE
  5
268
100
AcDbEntity
  8
ASSI
100
AcDbLine
 62
253
  6
CONTINUOUS
 10
-11.0868666502
 20
21.1487477364
 11
-11.0875328583
 21
21.1633337959
  0
LINE
  5
269
100
AcDbEntity
  8
ASSI
100
AcDbLine
 62
253
  6
CONTINUOUS
 10
-11.0859151913
 20
21.1251966487
 11
-11.0868666502
 21
21.1487477364
  0
LINE
  5
26A
100
AcDbEntity
  8
ASSI
100
AcDbLine
 62
253
  6
CONTINUOUS
 10
-11.0850254105
 20
21.0997457649
 11
-11.0859151913
 21
21.1251966487
  0
LINE
  5
26B
100
AcDbEntity
  8
ASSI
100
AcDbLine
 62
253
  6
CONTINUOUS
 10
-10.5892390835
 20
21.6203985126
 11
-10.5903448004
 21
21.6547193821
  0
LINE
  5
26C
100
AcDbEntity
  8
ASSI
100
AcDbLine
 62
253
  6
CONTINUOUS
 10
-11.0839429488
 20
21.0630877472
 11
-11.0850254105
 21
21.0997457649
  0
LINE
  5
26D
100
AcDbEntity
  8
ASSI
100
AcDbLine
 62
253
  6
CONTINUOUS
 10
-10.5878373963
 20
21.5677198986
 11
-10.5892390835
 21
21.6203985126
  0
LINE
  5
26E
100
AcDbEntity
  8
ASSI
100
AcDbLine
 62
253
  6
CONTINUOUS
 10
-11.0829882733
 20
21.0236262967
 11
-11.0839429488
 21
21.0630877472
  0
LINE
  5
26F
100
AcDbEntity
  8
ASSI
100
AcDbLine
 62
253
  6
CONTINUOUS
 10
-10.5862197578
 20
21.4914501598
 11
-10.5878373963
 21
21.5677198986
  0
LWPOLYLINE
  5
270
100
AcDbEntity
  8
ASSI
100
AcDbPolyline
 62
253
  6
CONTINUOUS
 90
46
 70
0
 10
-11.0430302078
 20
0.0960952412
 10
-11.0428754113
 20
0.0873723893
 10
-11.0424165203
 20
0.0786601607
 10
-11.0416540938
 20
0.0699691659
 10
-11.0405890603
 20
0.0613099893
 10
-11.0392227168
 20
0.0526931768
 10
-11.0375567274
 20
0.0441292225
 10
-11.035593121
 20
0.0356285563
 10
-11.0333342891
 20
0.0272015309
 10
-11.0307829827
 20
0.0188584094
 10
-11.0279423089
 20
0.0106093525
 10
-11.0248157273
 20
0.0024644067
 10
-11.0214070458
 20
-0.0055665086
 10
-11.0177204155
 20
-0.0134736127
 10
-11.0137603264
 20
-0.0212472757
 10
-11.0095316014
 20
-0.0288780304
 10
-11.0050393906
 20
-0.0363565833
 10
-11.0002891648
 20
-0.0436738267
 10
-10.9952867093
 20
-0.050820849
 10
-10.9900381164
 20
-0.057788946
 10
-10.9845497783
 20
-0.0645696315
 10
-10.978828379
 20
-0.0711546475
 10
-10.9728808865
 20
-0.0775359743
 10
-10.9667145441
 20
-0.0837058401
 10
-10.9603368616
 20
-0.0896567309
 10
-10.9537556062
 20
-0.0953813993
 10
-10.9469787932
 20
-0.1008728733
 10
-10.9400146757
 20
-0.106124465
 10
-10.9328717352
 20
-0.1111297787
 10
-10.9255586709
 20
-0.1158827184
 10
-10.9180843891
 20
-0.1203774958
 10
-10.9104579927
 20
-0.1246086368
 10
-10.9026887696
 20
-0.1285709883
 10
-10.8947861817
 20
-0.1322597248
 10
-10.8867598535
 20
-0.1356703538
 10
-10.8786195598
 20
-0.1387987215
 10
-10.8703752147
 20
-0.1416410182
 10
-10.8620368586
 20
-0.1441937821
 10
-10.8536146466
 20
-0.1464539043
 10
-10.845118836
 20
-0.1484186324
 10
-10.8365597735
 20
-0.1500855735
 10
-10.8279478829
 20
-0.1514526976
 10
-10.8192936526
 20
-0.1525183395
 10
-10.8106076222
 20
-0.1532812016
 10
-10.8019003703
 20
-0.1537403547
 10
-10.7931825011
 20
-0.1538952396
  0
LINE
  5
271
100
AcDbEntity
  8
ASSI
100
AcDbLine
 62
253
  6
CONTINUOUS
 10
-11.0819877948
 20
20.9709097747
 11
-11.0829882733
 21
21.0236262967
  0
LWPOLYLINE
  5
272
100
AcDbEntity
  8
ASSI
100
AcDbPolyline
 62
253
  6
CONTINUOUS
 90
55
 70
0
 10
-11.0968877826
 20
-21.8569977701
 10
-11.0966503632
 20
-21.8715033419
 10
-11.0959913346
 20
-21.885996669
 10
-11.0949112531
 20
-21.9004655172
 10
-11.0934110305
 20
-21.9148976728
 10
-11.0914919332
 20
-21.9292809532
 10
-11.089155581
 20
-21.943603217
 10
-11.0864039463
 20
-21.9578523742
 10
-11.0832393517
 20
-21.9720163966
 10
-11.0796644686
 20
-21.9860833281
 10
-11.0756823147
 20
-22.0000412941
 10
-11.0712962514
 20
-22.0138785123
 10
-11.0665099812
 20
-22.0275833022
 10
-11.0613275442
 20
-22.0411440952
 10
-11.0557533153
 20
-22.0545494441
 10
-11.0497919997
 20
-22.0677880331
 10
-11.0434486296
 20
-22.0808486869
 10
-11.0367285597
 20
-22.0937203808
 10
-11.0296374626
 20
-22.1063922492
 10
-11.0221813242
 20
-22.1188535953
 10
-11.0143664383
 20
-22.1310939002
 10
-11.0061994018
 20
-22.1431028315
 10
-10.9976871088
 20
-22.1548702518
 10
-10.9888367448
 20
-22.1663862281
 10
-10.9796557807
 20
-22.1776410392
 10
-10.9701519664
 20
-22.1886251847
 10
-10.9603333244
 20
-22.1993293923
 10
-10.950208143
 20
-22.2097446264
 10
-10.9397849692
 20
-22.2198620951
 10
-10.9290726014
 20
-22.2296732578
 10
-10.9180800825
 20
-22.2391698328
 10
-10.9068166915
 20
-22.2483438035
 10
-10.8952919362
 20
-22.2571874259
 10
-10.8835155451
 20
-22.2656932348
 10
-10.871497459
 20
-22.2738540503
 10
-10.8592478228
 20
-22.2816629834
 10
-10.8467769768
 20
-22.2891134424
 10
-10.8340954481
 20
-22.2961991381
 10
-10.8212139416
 20
-22.3029140892
 10
-10.8081433309
 20
-22.3092526275
 10
-10.7948946495
 20
-22.3152094023
 10
-10.781479081
 20
-22.3207793853
 10
-10.7679079498
 20
-22.3259578747
 10
-10.7541927119
 20
-22.3307404992
 10
-10.7403449448
 20
-22.3351232217
 10
-10.7263763378
 20
-22.3391023424
 10
-10.7122986823
 20
-22.3426745025
 10
-10.6981238616
 20
-22.3458366866
 10
-10.6838638413
 20
-22.3485862255
 10
-10.6695306588
 20
-22.350920798
 10
-10.655136413
 20
-22.3528384337
 10
-10.6406932547
 20
-22.3543375136
 10
-10.6262133759
 20
-22.3554167723
 10
-10.6117089995
 20
-22.3560752989
 10
-10.5971923691
 20
-22.3563125375
  0
LINE
  5
273
100
AcDbEntity
  8
ASSI
100
AcDbLine
 62
253
  6
CONTINUOUS
 10
-10.5845065174
 20
21.3861135541
 11
-10.5862197578
 21
21.4914501598
  0
LINE
  5
274
100
AcDbEntity
  8
ASSI
100
AcDbLine
 62
253
  6
CONTINUOUS
 10
-11.0812150532
 20
20.9151419102
 11
-11.0819877948
 21
20.9709097747
  0
LINE
  5
275
100
AcDbEntity
  8
ASSI
100
AcDbLine
 62
253
  6
CONTINUOUS
 10
-10.5826660383
 20
21.225868873
 11
-10.5845065174
 21
21.3861135541
  0
LINE
  5
276
100
AcDbEntity
  8
ASSI
100
AcDbLine
 62
253
  6
CONTINUOUS
 10
-11.0806812354
 20
20.8571407259
 11
-11.0812150532
 21
20.9151419102
  0
LINE
  5
277
100
AcDbEntity
  8
ASSI
100
AcDbLine
 62
253
  6
CONTINUOUS
 10
-10.5811701069
 20
21.0021683516
 11
-10.5826660383
 21
21.225868873
  0
LINE
  5
278
100
AcDbEntity
  8
ASSI
100
AcDbLine
 62
7
  6
CONTINUOUS
 10
-11.1989147916
 20
-22.0101160733
 11
-11.225222101
 21
-13.3993687656
  0
LINE
  5
279
100
AcDbEntity
  8
ASSI
100
AcDbLine
 62
253
  6
CONTINUOUS
 10
-10.5563903352
 20
14.8535045121
 11
-10.5811701069
 21
21.0021683516
  0
LINE
  5
27A
100
AcDbEntity
  8
ASSI
100
AcDbLine
 62
253
  6
CONTINUOUS
 10
-11.046173473
 20
9.1911312344
 11
-11.0806812354
 21
20.8571407259
  0
LINE
  5
27B
100
AcDbEntity
  8
ASSI
100
AcDbLine
 62
253
  6
CONTINUOUS
 10
-10.5464780595
 20
9.2006312344
 11
-10.5563903352
 21
14.8535045121
  0
LINE
  5
27C
100
AcDbEntity
  8
ASSI
100
AcDbLine
 62
7
  6
CONTINUOUS
 10
-11.225222101
 20
-0.6493021444
 11
-11.225222101
 21
-13.3993687656
  0
LINE
  5
27D
100
AcDbEntity
  8
ASSI
100
AcDbLine
 62
7
  6
CONTINUOUS
 10
-11.225222101
 20
0.0505646132
 11
-11.225222101
 21
12.8006312344
  0
LINE
  5
27E
100
AcDbEntity
  8
ASSI
100
AcDbLine
 62
253
  6
CONTINUOUS
 10
-11.0430302747
 20
0.0960952244
 11
-11.046173473
 21
9.1911312344
  0
LINE
  5
27F
100
AcDbEntity
  8
ASSI
100
AcDbLine
 62
253
  6
CONTINUOUS
 10
-10.5433348471
 20
-0.1517896774
 11
-10.5464780595
 21
9.2006312344
  0
LINE
  5
280
100
AcDbEntity
  8
ASSI
100
AcDbLine
 62
7
  6
CONTINUOUS
 10
-11.1989147916
 20
21.4113785422
 11
-11.225222101
 21
12.8006312344
  0
LINE
  5
281
100
AcDbEntity
  8
ASSI
100
AcDbLine
 62
253
  6
CONTINUOUS
 10
-11.0648200973
 20
-17.9974383266
 11
-11.0430302747
 21
-0.6948327556
  0
LINE
  5
282
100
AcDbEntity
  8
ASSI
100
AcDbLine
 62
253
  6
CONTINUOUS
 10
-10.5651246834
 20
-18.052793935
 11
-10.5433348471
 21
-0.4469478538
  0
LINE
  5
283
100
AcDbEntity
  8
ASSI
100
AcDbLine
 62
253
  6
CONTINUOUS
 10
-10.5819552837
 20
-21.7376485442
 11
-10.5651246834
 21
-18.052793935
  0
LINE
  5
284
100
AcDbEntity
  8
ASSI
100
AcDbLine
 62
253
  6
CONTINUOUS
 10
-11.0808654843
 20
-21.4792878917
 11
-11.0648200973
 21
-17.9974383266
  0
LINE
  5
285
100
AcDbEntity
  8
ASSI
100
AcDbLine
 62
253
  6
CONTINUOUS
 10
-10.583519031
 20
-21.9072613457
 11
-10.5819552837
 21
-21.7376485442
  0
LINE
  5
286
100
AcDbEntity
  8
ASSI
100
AcDbLine
 62
253
  6
CONTINUOUS
 10
-11.0814960497
 20
-21.536503598
 11
-11.0808654843
 21
-21.4792878917
  0
LINE
  5
287
100
AcDbEntity
  8
ASSI
100
AcDbLine
 62
253
  6
CONTINUOUS
 10
-10.585329992
 20
-22.0392869662
 11
-10.583519031
 21
-21.9072613457
  0
LWPOLYLINE
  5
288
100
AcDbEntity
  8
ASSI
100
AcDbPolyline
 62
253
  6
CONTINUOUS
 90
55
 70
0
 10
-11.0968877826
 20
21.258260239
 10
-11.0966503632
 20
21.272765811
 10
-11.0959913346
 20
21.2872591384
 10
-11.0949112531
 20
21.3017279869
 10
-11.0934110304
 20
21.3161601428
 10
-11.091491933
 20
21.3305434234
 10
-11.0891555807
 20
21.3448656874
 10
-11.0864039459
 20
21.3591148449
 10
-11.0832393512
 20
21.3732788675
 10
-11.079664468
 20
21.3873457992
 10
-11.0756823139
 20
21.4013037653
 10
-11.0712962505
 20
21.4151409837
 10
-11.0665099802
 20
21.4288457737
 10
-11.0613275431
 20
21.4424065669
 10
-11.055753314
 20
21.4558119159
 10
-11.0497919983
 20
21.4690505049
 10
-11.0434486281
 20
21.4821111589
 10
-11.036728558
 20
21.4949828528
 10
-11.0296374608
 20
21.5076547212
 10
-11.0221813222
 20
21.5201160674
 10
-11.0143664362
 20
21.5323563723
 10
-11.0061993996
 20
21.5443653035
 10
-10.9976871065
 20
21.5561327239
 10
-10.9888367424
 20
21.5676487001
 10
-10.9796557781
 20
21.5789035112
 10
-10.9701519637
 20
21.5898876565
 10
-10.9603333217
 20
21.6005918641
 10
-10.9502081402
 20
21.6110070981
 10
-10.9397849663
 20
21.6211245666
 10
-10.9290725985
 20
21.6309357293
 10
-10.9180800795
 20
21.6404323041
 10
-10.9068166885
 20
21.6496062747
 10
-10.8952919332
 20
21.6584498969
 10
-10.8835155421
 20
21.6669557058
 10
-10.8714974561
 20
21.6751165211
 10
-10.8592478199
 20
21.682925454
 10
-10.846776974
 20
21.6903759129
 10
-10.8340954453
 20
21.6974616084
 10
-10.8212139389
 20
21.7041765594
 10
-10.8081433283
 20
21.7105150975
 10
-10.794894647
 20
21.7164718722
 10
-10.7814790786
 20
21.7220418551
 10
-10.7679079475
 20
21.7272203444
 10
-10.7541927098
 20
21.7320029688
 10
-10.7403449428
 20
21.7363856911
 10
-10.726376336
 20
21.7403648117
 10
-10.7122986806
 20
21.7439369717
 10
-10.6981238602
 20
21.7470991558
 10
-10.6838638401
 20
21.7498486945
 10
-10.6695306577
 20
21.752183267
 10
-10.6551364122
 20
21.7541009026
 10
-10.6406932541
 20
21.7555999824
 10
-10.6262133755
 20
21.7566792412
 10
-10.6117089993
 20
21.7573377678
 10
-10.5971923691
 20
21.7575750063
  0
LWPOLYLINE
  5
289
100
AcDbEntity
  8
ASSI
100
AcDbPolyline
 62
253
  6
CONTINUOUS
 90
46
 70
0
 10
-11.0430302078
 20
-0.6948327723
 10
-11.0428754113
 20
-0.6861099208
 10
-11.0424165204
 20
-0.6773976927
 10
-11.0416540939
 20
-0.6687066982
 10
-11.0405890605
 20
-0.660047522
 10
-11.0392227171
 20
-0.6514307099
 10
-11.0375567278
 20
-0.6428667559
 10
-11.0355931216
 20
-0.63436609
 10
-11.03333429
 20
-0.6259390649
 10
-11.0307829837
 20
-0.6175959437
 10
-11.0279423102
 20
-0.6093468871
 10
-11.0248157288
 20
-0.6012019415
 10
-11.0214070475
 20
-0.5931710264
 10
-11.0177204174
 20
-0.5852639225
 10
-11.0137603286
 20
-0.5774902596
 10
-11.0095316039
 20
-0.5698595051
 10
-11.0050393933
 20
-0.5623809522
 10
-11.0002891678
 20
-0.5550637089
 10
-10.9952867125
 20
-0.5479166866
 10
-10.9900381199
 20
-0.5409485896
 10
-10.984549782
 20
-0.534167904
 10
-10.9788283829
 20
-0.527582888
 10
-10.9728808906
 20
-0.5212015612
 10
-10.9667145483
 20
-0.5150316952
 10
-10.960336866
 20
-0.5090808043
 10
-10.9537556108
 20
-0.5033561357
 10
-10.9469787978
 20
-0.4978646615
 10
-10.9400146804
 20
-0.4926130696
 10
-10.9328717399
 20
-0.4876077557
 10
-10.9255586756
 20
-0.4828548157
 10
-10.9180843938
 20
-0.4783600381
 10
-10.9104579974
 20
-0.4741288968
 10
-10.9026887741
 20
-0.4701665451
 10
-10.8947861861
 20
-0.4664778083
 10
-10.8867598577
 20
-0.4630671791
 10
-10.8786195638
 20
-0.4599388111
 10
-10.8703752184
 20
-0.4570965142
 10
-10.862036862
 20
-0.4545437501
 10
-10.8536146497
 20
-0.4522836276
 10
-10.8451188387
 20
-0.4503188993
 10
-10.8365597758
 20
-0.448651958
 10
-10.8279478849
 20
-0.4472848339
 10
-10.8192936541
 20
-0.4462191918
 10
-10.8106076232
 20
-0.4454563297
 10
-10.8019003708
 20
-0.4449971765
 10
-10.7931825011
 20
-0.4448422916
  0
LINE
  5
28A
100
AcDbEntity
  8
ASSI
100
AcDbLine
 62
253
  6
CONTINUOUS
 10
-11.0823614212
 20
-21.5911448153
 11
-11.0814960497
 21
-21.536503598
  0
LINE
  5
28B
100
AcDbEntity
  8
ASSI
100
AcDbLine
 62
253
  6
CONTINUOUS
 10
-10.5868475537
 20
-22.1220261985
 11
-10.585329992
 21
-22.0392869662
  0
LINE
  5
28C
100
AcDbEntity
  8
ASSI
100
AcDbLine
 62
253
  6
CONTINUOUS
 10
-11.0832144229
 20
-21.6324711434
 11
-11.0823614212
 21
-21.5911448153
  0
LINE
  5
28D
100
AcDbEntity
  8
ASSI
100
AcDbLine
 62
253
  6
CONTINUOUS
 10
-10.5881793853
 20
-22.1803462802
 11
-10.5868475537
 21
-22.1220261985
  0
LINE
  5
28E
100
AcDbEntity
  8
ASSI
100
AcDbLine
 62
253
  6
CONTINUOUS
 10
-11.0842019227
 20
-21.6712647786
 11
-11.0832144229
 21
-21.6324711434
  0
LINE
  5
28F
100
AcDbEntity
  8
ASSI
100
AcDbLine
 62
253
  6
CONTINUOUS
 10
-10.5892390835
 20
-22.2191360438
 11
-10.5881793853
 21
-22.1803462802
  0
LINE
  5
290
100
AcDbEntity
  8
ASSI
100
AcDbLine
 62
253
  6
CONTINUOUS
 10
-11.0850254105
 20
-21.6984832961
 11
-11.0842019227
 21
-21.6712647786
  0
LINE
  5
291
100
AcDbEntity
  8
ASSI
100
AcDbLine
 62
253
  6
CONTINUOUS
 10
-10.5903448004
 20
-22.2534569133
 11
-10.5892390835
 21
-22.2191360438
  0
LINE
  5
292
100
AcDbEntity
  8
ASSI
100
AcDbLine
 62
253
  6
CONTINUOUS
 10
-11.0859151913
 20
-21.7239341798
 11
-11.0850254105
 21
-21.6984832961
  0
LINE
  5
293
100
AcDbEntity
  8
ASSI
100
AcDbLine
 62
253
  6
CONTINUOUS
 10
-11.0868666502
 20
-21.7474852676
 11
-11.0859151913
 21
-21.7239341798
  0
LINE
  5
294
100
AcDbEntity
  8
ASSI
100
AcDbLine
 62
253
  6
CONTINUOUS
 10
-11.0875328583
 20
-21.7620713271
 11
-11.0868666502
 21
-21.7474852676
  0
LINE
  5
295
100
AcDbEntity
  8
ASSI
100
AcDbLine
 62
253
  6
CONTINUOUS
 10
-11.0882227696
 20
-21.775724205
 11
-11.0875328583
 21
-21.7620713271
  0
LINE
  5
296
100
AcDbEntity
  8
ASSI
100
AcDbLine
 62
253
  6
CONTINUOUS
 10
-11.0889345709
 20
-21.7884095003
 11
-11.0882227696
 21
-21.775724205
  0
LWPOLYLINE
  5
297
100
AcDbEntity
  8
0
100
AcDbPolyline
 62
253
  6
CONTINUOUS
 90
43
 70
0
 10
-3.0478318753
 20
-11.1555298268
 10
-3.0737777623
 20
-11.1598118548
 10
-3.0994675709
 20
-11.1648611547
 10
-3.1249127612
 20
-11.1706695184
 10
-3.1501247934
 20
-11.1772287373
 10
-3.1751151277
 20
-11.1845306032
 10
-3.199895224
 20
-11.1925669077
 10
-3.2244698409
 20
-11.2013287267
 10
-3.24881693
 20
-11.210804273
 10
-3.2729077413
 20
-11.2209810434
 10
-3.2967135248
 20
-11.2318465352
 10
-3.3202055303
 20
-11.2433882451
 10
-3.343355008
 20
-11.2555936703
 10
-3.3661347878
 20
-11.2684513914
 10
-3.38852402
 20
-11.2819543236
 10
-3.4105034349
 20
-11.2960964657
 10
-3.4320537629
 20
-11.3108718167
 10
-3.4531557343
 20
-11.3262743754
 10
-3.4737900794
 20
-11.3422981406
 10
-3.4939377947
 20
-11.3589352963
 10
-3.5135809408
 20
-11.3761707665
 10
-3.5327018443
 20
-11.3939876601
 10
-3.551282832
 20
-11.4123690863
 10
-3.5693062306
 20
-11.431298154
 10
-3.5867543668
 20
-11.4507579723
 10
-3.6036113718
 20
-11.4707313269
 10
-3.6198685952
 20
-11.4911997099
 10
-3.6355191911
 20
-11.51214429
 10
-3.6505563136
 20
-11.533546236
 10
-3.6649731169
 20
-11.5553867167
 10
-3.6787627551
 20
-11.5776469009
 10
-3.6919171879
 20
-11.6003061194
 10
-3.7044235976
 20
-11.6233363521
 10
-3.7162679721
 20
-11.6467077408
 10
-3.7274362993
 20
-11.6703904274
 10
-3.737914567
 20
-11.6943545537
 10
-3.7476887632
 20
-11.7185702618
 10
-3.7567461028
 20
-11.743014693
 10
-3.7650787088
 20
-11.7676929879
 10
-3.7726799315
 20
-11.7926172864
 10
-3.779543121
 20
-11.8177997286
 10
-3.7856616273
 20
-11.8432524546
 10
-3.7910288008
 20
-11.8689876044
  0
LINE
  5
298
100
AcDbEntity
  8
0
100
AcDbLine
 62
253
  6
CONTINUOUS
 10
-2.9941743767
 20
-11.1480862157
 11
-3.0478318753
 21
-11.1555298268
  0
LINE
  5
299
100
AcDbEntity
  8
0
100
AcDbLine
 62
253
  6
CONTINUOUS
 10
-2.9926221545
 20
-11.5192084378
 11
-2.9091902122
 21
-11.50806066
  0
LINE
  5
29A
100
AcDbEntity
  8
0
100
AcDbLine
 62
253
  6
CONTINUOUS
 10
-2.9091902122
 20
-11.1384553823
 11
-2.9941743767
 21
-11.1480862157
  0
LWPOLYLINE
  5
29B
100
AcDbEntity
  8
0
100
AcDbPolyline
 62
253
  6
CONTINUOUS
 90
92
 70
0
 10
-2.3694049482
 20
-11.1384553823
 10
-2.3706535812
 20
-11.1385712866
 10
-2.3718692186
 20
-11.1388782702
 10
-2.3730522473
 20
-11.1393447114
 10
-2.3747693915
 20
-11.1402779752
 10
-2.3764327178
 20
-11.1414148932
 10
-2.3780566926
 20
-11.1426854846
 10
-2.3796389267
 20
-11.1440757535
 10
-2.3811726469
 20
-11.1455843104
 10
-2.3826504018
 20
-11.1472042054
 10
-2.3845249006
 20
-11.1495243062
 10
-2.3862946207
 20
-11.1520165263
 10
-2.3879678259
 20
-11.1546698778
 10
-2.3895541013
 20
-11.1574737153
 10
-2.3910683173
 20
-11.1604187642
 10
-2.3925266654
 20
-11.1634960925
 10
-2.3939420842
 20
-11.1666993752
 10
-2.3953144988
 20
-11.1700327152
 10
-2.3966405812
 20
-11.1735028224
 10
-2.3979173182
 20
-11.1771157487
 10
-2.3991429561
 20
-11.1808749143
 10
-2.4003160559
 20
-11.1847830813
 10
-2.4014354754
 20
-11.188843511
 10
-2.4025012587
 20
-11.1930614609
 10
-2.4035137466
 20
-11.197442688
 10
-2.4044740424
 20
-11.2019924852
 10
-2.405386299
 20
-11.2067142899
 10
-2.4062554321
 20
-11.2116110758
 10
-2.4070859055
 20
-11.2166867721
 10
-2.407880376
 20
-11.2219491292
 10
-2.4086410487
 20
-11.2274068532
 10
-2.4093691895
 20
-11.2330707393
 10
-2.4100623066
 20
-11.238959941
 10
-2.4107169691
 20
-11.2450957007
 10
-2.4111806517
 20
-11.2498712324
 10
-2.4116192395
 20
-11.2548011391
 10
-2.4120311986
 20
-11.259889158
 10
-2.4124149948
 20
-11.2651390261
 10
-2.4127689791
 20
-11.2705526373
 10
-2.4130910414
 20
-11.2761245125
 10
-2.4133789569
 20
-11.2818473292
 10
-2.4136305004
 20
-11.2877137651
 10
-2.4139065347
 20
-11.2957358768
 10
-2.4141150801
 20
-11.3039196099
 10
-2.4142572646
 20
-11.3121842804
 10
-2.4143346359
 20
-11.3204509814
 10
-2.414350421
 20
-11.3286479158
 10
-2.4143082667
 20
-11.3367050638
 10
-2.4142108228
 20
-11.3445647583
 10
-2.4140567503
 20
-11.3522187432
 10
-2.4138437132
 20
-11.3596711153
 10
-2.4135699521
 20
-11.3669257233
 10
-2.4132360147
 20
-11.3739854242
 10
-2.4128430253
 20
-11.3808528269
 10
-2.4123920349
 20
-11.38753142
 10
-2.4118838016
 20
-11.3940282102
 10
-2.4113190101
 20
-11.4003510837
 10
-2.4106987063
 20
-11.4065069013
 10
-2.4100253814
 20
-11.4124984215
 10
-2.4093018875
 20
-11.4183273773
 10
-2.4085305627
 20
-11.423995946
 10
-2.4077116871
 20
-11.4295080809
 10
-2.4068450264
 20
-11.4348681793
 10
-2.4059289267
 20
-11.4400792919
 10
-2.4049560554
 20
-11.4451390816
 10
-2.4039176604
 20
-11.4500438646
 10
-2.4028057761
 20
-11.4547911411
 10
-2.401615584
 20
-11.4593831473
 10
-2.4003430523
 20
-11.4638233037
 10
-2.398985301
 20
-11.4681140001
 10
-2.3975440577
 20
-11.4722535039
 10
-2.3960222017
 20
-11.476239052
 10
-2.3944218695
 20
-11.4800685315
 10
-2.3927422254
 20
-11.4837424304
 10
-2.390981691
 20
-11.4872618872
 10
-2.3896056293
 20
-11.4897979314
 10
-2.3881727506
 20
-11.4922309396
 10
-2.3866716865
 20
-11.4945474963
 10
-2.3850873086
 20
-11.4967477342
 10
-2.3834071778
 20
-11.4988308837
 10
-2.3816333745
 20
-11.5007790178
 10
-2.3797762241
 20
-11.5025685998
 10
-2.3778593984
 20
-11.5041787371
 10
-2.3758848916
 20
-11.5056143042
 10
-2.3748680259
 20
-11.5062618445
 10
-2.3738256388
 20
-11.506843217
 10
-2.3727539486
 20
-11.507337121
 10
-2.3716529969
 20
-11.5077208653
 10
-2.371093514
 20
-11.5078635342
 10
-2.3705304056
 20
-11.5079692974
 10
-2.3699664134
 20
-11.5080355902
 10
-2.3694049482
 20
-11.50806066
  0
LWPOLYLINE
  5
29C
100
AcDbEntity
  8
0
100
AcDbPolyline
 62
253
  6
CONTINUOUS
 90
94
 70
0
 10
-2.9091902122
 20
-11.50806066
 10
-2.9078971463
 20
-11.5079411509
 10
-2.9066397712
 20
-11.5076240243
 10
-2.9054146141
 20
-11.5071420138
 10
-2.9045152883
 20
-11.5066920345
 10
-2.9036335943
 20
-11.5061817846
 10
-2.9019202361
 20
-11.5050285127
 10
-2.9002497489
 20
-11.5037405061
 10
-2.89861994
 20
-11.5023206912
 10
-2.8970446836
 20
-11.5007780305
 10
-2.8955293256
 20
-11.4991183815
 10
-2.893604471
 20
-11.4967315544
 10
-2.8917853999
 20
-11.4941615208
 10
-2.8900670131
 20
-11.4914263826
 10
-2.8888396693
 20
-11.4892767955
 10
-2.8876545785
 20
-11.487047518
 10
-2.8865018612
 20
-11.4847411354
 10
-2.8853781757
 20
-11.4823585784
 10
-2.8842823988
 20
-11.479899902
 10
-2.8832157449
 20
-11.4773633121
 10
-2.8821798228
 20
-11.4747465404
 10
-2.8811754816
 20
-11.4720472698
 10
-2.8798865977
 20
-11.4683164813
 10
-2.8786564263
 20
-11.4644329419
 10
-2.8774863637
 20
-11.4603947055
 10
-2.8763772017
 20
-11.4561991211
 10
-2.8753273129
 20
-11.4518407178
 10
-2.8743344652
 20
-11.4473133197
 10
-2.8733956721
 20
-11.442611519
 10
-2.8725049288
 20
-11.4377329797
 10
-2.8716554761
 20
-11.432676134
 10
-2.8708419731
 20
-11.4274375454
 10
-2.8700647507
 20
-11.4220063031
 10
-2.869325558
 20
-11.4163696275
 10
-2.8686263652
 20
-11.4105127749
 10
-2.867970027
 20
-11.4044131444
 10
-2.8673596191
 20
-11.3980461708
 10
-2.8667985578
 20
-11.3913918478
 10
-2.8662916221
 20
-11.3844484036
 10
-2.865843932
 20
-11.3772186255
 10
-2.8654602098
 20
-11.3697097692
 10
-2.8651435885
 20
-11.3619469654
 10
-2.8648968035
 20
-11.3539598136
 10
-2.8647212261
 20
-11.3457900569
 10
-2.8646127706
 20
-11.3375280144
 10
-2.8645659869
 20
-11.329276149
 10
-2.8645763467
 20
-11.3211256187
 10
-2.8646430092
 20
-11.3131223623
 10
-2.8647660553
 20
-11.3053010136
 10
-2.8649454614
 20
-11.2976887813
 10
-2.8651807856
 20
-11.2902831723
 10
-2.8654714817
 20
-11.2830742683
 10
-2.8658168448
 20
-11.2760533377
 10
-2.8662155372
 20
-11.2692163975
 10
-2.8666660629
 20
-11.2625606516
 10
-2.867167072
 20
-11.2560829059
 10
-2.8677177991
 20
-11.2497783743
 10
-2.8683176248
 20
-11.2436418732
 10
-2.8689654949
 20
-11.2376685488
 10
-2.8696586167
 20
-11.2318548688
 10
-2.8703937626
 20
-11.2261976311
 10
-2.8711689519
 20
-11.2206936644
 10
-2.8719871916
 20
-11.2153399204
 10
-2.8728527352
 20
-11.2101333816
 10
-2.8737701105
 20
-11.2050720293
 10
-2.8747449402
 20
-11.2001578407
 10
-2.8757831209
 20
-11.1953937921
 10
-2.8768899103
 20
-11.19078166
 10
-2.8780680091
 20
-11.1863184233
 10
-2.8793194791
 20
-11.1819998615
 10
-2.8806456822
 20
-11.1778229742
 10
-2.8820451796
 20
-11.1737896431
 10
-2.8835158328
 20
-11.1699029699
 10
-2.8846639115
 20
-11.1670854031
 10
-2.8858479852
 20
-11.1643493517
 10
-2.8870672771
 20
-11.1616928283
 10
-2.8883292108
 20
-11.1591167955
 10
-2.8896429175
 20
-11.1566253769
 10
-2.8910161579
 20
-11.154232391
 10
-2.8924573705
 20
-11.1519511014
 10
-2.8939790751
 20
-11.1497828565
 10
-2.8955918547
 20
-11.1477292115
 10
-2.8972944643
 20
-11.1458044633
 10
-2.8990790161
 20
-11.1440274107
 10
-2.9009269798
 20
-11.1424147727
 10
-2.9028382905
 20
-11.1409617682
 10
-2.9038260153
 20
-11.1403023335
 10
-2.9048418346
 20
-11.1397081225
 10
-2.9058904586
 20
-11.1392012682
 10
-2.9069722559
 20
-11.138806043
 10
-2.9075235304
 20
-11.138658827
 10
-2.9080791045
 20
-11.1385496518
 10
-2.9086359273
 20
-11.1384812461
 10
-2.9091902122
 20
-11.1384553823
  0
LINE
  5
29D
100
AcDbEntity
  8
ASSI
100
AcDbLine
 62
253
  6
CONTINUOUS
 10
10.8661016151
 20
-9.792794537
 11
10.855653283
 21
-9.7933040141
  0
LINE
  5
29E
100
AcDbEntity
  8
ASSI
100
AcDbLine
 62
253
  6
CONTINUOUS
 10
10.855653283
 20
-9.7933040141
 11
10.8437180659
 21
-9.793802378
  0
LINE
  5
29F
100
AcDbEntity
  8
ASSI
100
AcDbLine
 62
253
  6
CONTINUOUS
 10
10.8437180659
 20
-9.793802378
 11
10.8303345747
 21
-9.7942880165
  0
LINE
  5
2A0
100
AcDbEntity
  8
ASSI
100
AcDbLine
 62
253
  6
CONTINUOUS
 10
10.8303345747
 20
-9.7942880165
 11
10.8076397809
 21
-9.7949891901
  0
LINE
  5
2A1
100
AcDbEntity
  8
ASSI
100
AcDbLine
 62
253
  6
CONTINUOUS
 10
10.8076397809
 20
-9.7949891901
 11
10.7727528741
 21
-9.7958652876
  0
LINE
  5
2A2
100
AcDbEntity
  8
ASSI
100
AcDbLine
 62
253
  6
CONTINUOUS
 10
10.7727528741
 20
-9.7958652876
 11
10.7534521238
 21
-9.7962749319
  0
LWPOLYLINE
  5
2A3
100
AcDbEntity
  8
0
100
AcDbPolyline
 62
253
  6
CONTINUOUS
 90
51
 70
0
 10
2.7273518662
 20
-11.1905606601
 10
2.7002215895
 20
-11.1910021694
 10
2.6731714135
 20
-11.1923236892
 10
2.6461281687
 20
-11.1945207074
 10
2.6190186861
 20
-11.197588712
 10
2.591781637
 20
-11.201528087
 10
2.5644030551
 20
-11.2063588017
 10
2.536880815
 20
-11.2121057214
 10
2.5092127909
 20
-11.2187937115
 10
2.4814126124
 20
-11.2264421633
 10
2.4535569292
 20
-11.2350485716
 10
2.4257381465
 20
-11.2446049572
 10
2.3980486691
 20
-11.2551033408
 10
2.3705726114
 20
-11.2665363857
 10
2.3433609245
 20
-11.2788993252
 10
2.3164562691
 20
-11.2921880351
 10
2.2899013058
 20
-11.3063983913
 10
2.2666258862
 20
-11.3197992544
 10
2.2436960523
 20
-11.3339164266
 10
2.221147383
 20
-11.3487412614
 10
2.1990154571
 20
-11.3642651122
 10
2.1773358532
 20
-11.3804793324
 10
2.1561441502
 20
-11.3973752753
 10
2.1354759269
 20
-11.4149442945
 10
2.1153667619
 20
-11.4331777432
 10
2.0958522341
 20
-11.452066975
 10
2.0769639789
 20
-11.4715983389
 10
2.0587178582
 20
-11.4917381664
 10
2.0411257904
 20
-11.5124477848
 10
2.0241996941
 20
-11.5336885213
 10
2.0079514878
 20
-11.555421703
 10
1.9923930901
 20
-11.5776086573
 10
1.9775364194
 20
-11.6002107113
 10
1.9633933942
 20
-11.6231891923
 10
1.9499759332
 20
-11.6465054274
 10
1.9357605916
 20
-11.6730942127
 10
1.9224787141
 20
-11.7000211664
 10
1.9101303884
 20
-11.7272459323
 10
1.8987157023
 20
-11.7547281537
 10
1.8882361131
 20
-11.782418611
 10
1.8786985565
 20
-11.8102326307
 10
1.870111338
 20
-11.8380766759
 10
1.862482763
 20
-11.86585721
 10
1.8558154469
 20
-11.8934967235
 10
1.8500892452
 20
-11.9209818176
 10
1.8452783232
 20
-11.9483151208
 10
1.8413568465
 20
-11.9754992617
 10
1.8383039305
 20
-12.002548592
 10
1.8361184905
 20
-12.0295243554
 10
1.8348043919
 20
-12.0564995187
 10
1.8343655001
 20
-12.0835470488
  0
LWPOLYLINE
  5
2A4
100
AcDbEntity
  8
0
100
AcDbPolyline
 62
253
  6
CONTINUOUS
 90
51
 70
0
 10
0.1206769327
 20
-11.1905606601
 10
0.093546656
 20
-11.1910021694
 10
0.06649648
 20
-11.1923236892
 10
0.0394532352
 20
-11.1945207074
 10
0.0123437526
 20
-11.197588712
 10
-0.0148932965
 20
-11.201528087
 10
-0.0422718784
 20
-11.2063588017
 10
-0.0697941185
 20
-11.2121057214
 10
-0.0974621426
 20
-11.2187937115
 10
-0.1252623211
 20
-11.2264421633
 10
-0.1531180043
 20
-11.2350485716
 10
-0.180936787
 20
-11.2446049572
 10
-0.2086262644
 20
-11.2551033408
 10
-0.2361023221
 20
-11.2665363857
 10
-0.263314009
 20
-11.2788993252
 10
-0.2902186644
 20
-11.2921880351
 10
-0.3167736277
 20
-11.3063983913
 10
-0.3400490473
 20
-11.3197992544
 10
-0.3629788812
 20
-11.3339164266
 10
-0.3855275505
 20
-11.3487412614
 10
-0.4076594764
 20
-11.3642651122
 10
-0.4293390803
 20
-11.3804793324
 10
-0.4505307833
 20
-11.3973752753
 10
-0.4711990066
 20
-11.4149442945
 10
-0.4913081716
 20
-11.4331777432
 10
-0.5108226994
 20
-11.452066975
 10
-0.5297109546
 20
-11.4715983389
 10
-0.5479570753
 20
-11.4917381664
 10
-0.5655491431
 20
-11.5124477848
 10
-0.5824752394
 20
-11.5336885213
 10
-0.5987234457
 20
-11.555421703
 10
-0.6142818434
 20
-11.5776086573
 10
-0.6291385141
 20
-11.6002107113
 10
-0.6432815393
 20
-11.6231891923
 10
-0.6566990003
 20
-11.6465054274
 10
-0.6709143419
 20
-11.6730942127
 10
-0.6841962194
 20
-11.7000211664
 10
-0.6965445451
 20
-11.7272459323
 10
-0.7079592312
 20
-11.7547281537
 10
-0.7184388204
 20
-11.782418611
 10
-0.727976377
 20
-11.8102326307
 10
-0.7365635955
 20
-11.8380766759
 10
-0.7441921705
 20
-11.86585721
 10
-0.7508594866
 20
-11.8934967235
 10
-0.7565856883
 20
-11.9209818176
 10
-0.7613966103
 20
-11.9483151208
 10
-0.765318087
 20
-11.9754992617
 10
-0.768371003
 20
-12.002548592
 10
-0.770556443
 20
-12.0295243554
 10
-0.7718705416
 20
-12.0564995187
 10
-0.7723094334
 20
-12.0835470488
  0
LINE
  5
2A5
100
AcDbEntity
  8
0
100
AcDbLine
 62
253
  6
CONTINUOUS
 10
0.1206769327
 20
-11.5582962156
 11
1.1656046838
 21
-11.5582962156
  0
LINE
  5
2A6
100
AcDbEntity
  8
0
100
AcDbLine
 62
253
  6
CONTINUOUS
 10
2.7273518662
 20
-11.5582962156
 11
3.7722443396
 21
-11.5582962156
  0
LINE
  5
2A7
100
AcDbEntity
  8
0
100
AcDbLine
 62
253
  6
CONTINUOUS
 10
3.7722443396
 20
-11.1905606601
 11
2.7273518662
 21
-11.1905606601
  0
LINE
  5
2A8
100
AcDbEntity
  8
0
100
AcDbLine
 62
253
  6
CONTINUOUS
 10
1.1656046838
 20
-11.1905606601
 11
0.1206769327
 21
-11.1905606601
  0
LINE
  5
2A9
100
AcDbEntity
  8
ASSI
100
AcDbLine
 62
253
  6
CONTINUOUS
 10
-10.9412791272
 20
-9.7954362443
 11
-10.9038963258
 21
-9.7962749319
  0
LINE
  5
2AA
100
AcDbEntity
  8
ASSI
100
AcDbLine
 62
253
  6
CONTINUOUS
 10
-10.9659903074
 20
-9.7947593586
 11
-10.9412791272
 21
-9.7954362443
  0
LINE
  5
2AB
100
AcDbEntity
  8
ASSI
100
AcDbLine
 62
253
  6
CONTINUOUS
 10
-10.9876489588
 20
-9.7940468872
 11
-10.9659903074
 21
-9.7947593586
  0
LINE
  5
2AC
100
AcDbEntity
  8
ASSI
100
AcDbLine
 62
253
  6
CONTINUOUS
 10
-11.0003134353
 20
-9.7935546869
 11
-10.9876489588
 21
-9.7940468872
  0
LINE
  5
2AD
100
AcDbEntity
  8
0
100
AcDbLine
 62
253
  6
CONTINUOUS
 10
-2.2847382837
 20
-11.1480862157
 11
-2.3694049482
 21
-11.1384553823
  0
LINE
  5
2AE
100
AcDbEntity
  8
0
100
AcDbLine
 62
253
  6
CONTINUOUS
 10
-2.2311160628
 20
-11.1555298268
 11
-2.2847382837
 21
-11.1480862157
  0
LWPOLYLINE
  5
2AF
100
AcDbEntity
  8
ASSI
100
AcDbPolyline
 62
253
  6
CONTINUOUS
 90
17
 70
0
 10
-11.0904182742
 20
21.2120424938
 10
-11.0908002779
 20
21.2169883034
 10
-11.091186326
 20
21.2216696048
 10
-11.0915764115
 20
21.2260868556
 10
-11.0919698598
 20
21.2302324105
 10
-11.0923666764
 20
21.2341057968
 10
-11.0927668558
 20
21.2377074872
 10
-11.0931697071
 20
21.2410312545
 10
-11.0935752358
 20
21.2440766218
 10
-11.0939834364
 20
21.246844066
 10
-11.0943936014
 20
21.24932879
 10
-11.0948057414
 20
21.2515303127
 10
-11.0952198457
 20
21.2534491153
 10
-11.0956351759
 20
21.2550818446
 10
-11.0960514857
 20
21.2564273827
 10
-11.0964690212
 20
21.2574868475
 10
-11.0968877826
 20
21.258260239
  0
LINE
  5
2B0
100
AcDbEntity
  8
ASSI
100
AcDbLine
 62
253
  6
CONTINUOUS
 10
-11.0896670326
 20
21.2013677399
 11
-11.0904182742
 21
21.2120424938
  0
LINE
  5
2B1
100
AcDbEntity
  8
ASSI
100
AcDbLine
 62
253
  6
CONTINUOUS
 10
-11.0889345709
 20
21.1896719691
 11
-11.0896670326
 21
21.2013677399
  0
LWPOLYLINE
  5
2B2
100
AcDbEntity
  8
ASSI
100
AcDbPolyline
 62
253
  6
CONTINUOUS
 90
11
 70
0
 10
-10.5930712961
 20
21.7164659787
 10
-10.5934741398
 20
21.7231144852
 10
-10.5938796676
 20
21.7292069652
 10
-10.59428787
 20
21.7347398844
 10
-10.5946980309
 20
21.7397100244
 10
-10.5951101456
 20
21.7441145066
 10
-10.5955242188
 20
21.7479508089
 10
-10.595939548
 20
21.7512167355
 10
-10.5963558991
 20
21.7539103993
 10
-10.5967735061
 20
21.756030233
 10
-10.5971923691
 20
21.7575750063
  0
LINE
  5
2B3
100
AcDbEntity
  8
ASSI
100
AcDbLine
 62
253
  6
CONTINUOUS
 10
-10.5922743197
 20
21.7015165169
 11
-10.5930712961
 21
21.7164659787
  0
LINE
  5
2B4
100
AcDbEntity
  8
ASSI
100
AcDbLine
 62
253
  6
CONTINUOUS
 10
-10.5914907983
 20
21.6843930274
 11
-10.5922743197
 21
21.7015165169
  0
LWPOLYLINE
  5
2B5
100
AcDbEntity
  8
ASSI
100
AcDbPolyline
 62
253
  6
CONTINUOUS
 90
3
 70
0
 10
-10.5903448004
 20
21.6547193821
 10
-10.5907227595
 20
21.6651350754
 10
-10.5914907983
 20
21.6843930274
  0
LINE
  5
2B6
100
AcDbEntity
  8
ASSI
100
AcDbLine
 62
253
  6
CONTINUOUS
 10
-10.5911047562
 20
-22.2737657249
 11
-10.5903448004
 21
-22.2534569133
  0
LINE
  5
2B7
100
AcDbEntity
  8
ASSI
100
AcDbLine
 62
253
  6
CONTINUOUS
 10
-10.5918808781
 20
-22.2919617016
 11
-10.5911047562
 21
-22.2737657249
  0
LINE
  5
2B8
100
AcDbEntity
  8
ASSI
100
AcDbLine
 62
253
  6
CONTINUOUS
 10
-11.0896670326
 20
-21.800105271
 11
-11.0889345709
 21
-21.7884095003
  0
LINE
  5
2B9
100
AcDbEntity
  8
ASSI
100
AcDbLine
 62
253
  6
CONTINUOUS
 10
10.7534521238
 20
-9.7962749319
 11
10.7002873449
 21
-9.7972056415
  0
LINE
  5
2BA
100
AcDbEntity
  8
ASSI
100
AcDbLine
 62
253
  6
CONTINUOUS
 10
10.7002873449
 20
-9.7972056415
 11
10.628484324
 21
-9.798125509
  0
LINE
  5
2BB
100
AcDbEntity
  8
ASSI
100
AcDbLine
 62
253
  6
CONTINUOUS
 10
10.628484324
 20
-9.798125509
 11
10.5363367193
 21
-9.7988940117
  0
LINE
  5
2BC
100
AcDbEntity
  8
ASSI
100
AcDbLine
 62
253
  6
CONTINUOUS
 10
10.5363367193
 20
-9.7988940117
 11
10.4244610336
 21
-9.7993345413
  0
LINE
  5
2BD
100
AcDbEntity
  8
ASSI
100
AcDbLine
 62
253
  6
CONTINUOUS
 10
10.4244610336
 20
-9.7993345413
 11
-10.5464780595
 21
-9.7993687656
  0
LINE
  5
2BE
100
AcDbEntity
  8
ASSI
100
AcDbLine
 62
253
  6
CONTINUOUS
 10
-10.6592689186
 20
-9.7990490732
 11
-10.5464780595
 21
-9.7993687656
  0
LINE
  5
2BF
100
AcDbEntity
  8
ASSI
100
AcDbLine
 62
253
  6
CONTINUOUS
 10
-10.7662452369
 20
-9.798256122
 11
-10.6592689186
 21
-9.7990490732
  0
LINE
  5
2C0
100
AcDbEntity
  8
ASSI
100
AcDbLine
 62
253
  6
CONTINUOUS
 10
-10.8393247541
 20
-9.7973745582
 11
-10.7662452369
 21
-9.798256122
  0
LWPOLYLINE
  5
2C1
100
AcDbEntity
  8
ASSI
100
AcDbPolyline
 62
253
  6
CONTINUOUS
 90
3
 70
0
 10
-10.9038963258
 20
-9.7962749319
 10
-10.8938083019
 20
-9.7964720627
 10
-10.8393247541
 20
-9.7973745582
  0
LWPOLYLINE
  5
2C2
100
AcDbEntity
  8
0
100
AcDbPolyline
 62
253
  6
CONTINUOUS
 90
25
 70
0
 10
-2.9718779687
 20
13.1427592388
 10
-2.9860821141
 20
13.0659283724
 10
-2.9990083133
 20
12.9890303656
 10
-3.010665975
 20
12.9120549097
 10
-3.0210645076
 20
12.8349916964
 10
-3.0302133198
 20
12.7578304172
 10
-3.0381218202
 20
12.6805607635
 10
-3.0447994173
 20
12.603172427
 10
-3.0502555196
 20
12.5256550991
 10
-3.0544979659
 20
12.4480062752
 10
-3.057528315
 20
12.3702546662
 10
-3.0593465559
 20
12.2924367868
 10
-3.0599526775
 20
12.2145891518
 10
-3.0593466689
 20
12.1367482757
 10
-3.0575285191
 20
12.0589506735
 10
-3.0544982169
 20
11.9812328597
 10
-3.0502557514
 20
11.9036313492
 10
-3.0447995513
 20
11.826174858
 10
-3.0381218042
 20
11.748860908
 10
-3.0302131376
 20
11.6716792223
 10
-3.0210641787
 20
11.5946195243
 10
-3.010665555
 20
11.5176715371
 10
-2.9990078938
 20
11.4408249839
 10
-2.9860818226
 20
11.364069588
 10
-2.9718779687
 20
11.2873950726
  0
LWPOLYLINE
  5
2C3
100
AcDbEntity
  8
0
100
AcDbPolyline
 62
253
  6
CONTINUOUS
 90
44
 70
0
 10
-2.6103513021
 20
13.0733325722
 10
-2.607690415
 20
13.0863851732
 10
-2.6046923948
 20
13.0993047796
 10
-2.6013618794
 20
13.1120955204
 10
-2.5977035065
 20
13.1247615243
 10
-2.593721914
 20
13.1373069201
 10
-2.5894217398
 20
13.1497358367
 10
-2.5848076217
 20
13.1620524029
 10
-2.5790340305
 20
13.1762818445
 10
-2.5728477009
 20
13.1903501679
 10
-2.5662568944
 20
13.2042435567
 10
-2.5592698726
 20
13.2179481944
 10
-2.5518948968
 20
13.2314502645
 10
-2.5441402287
 20
13.2447359506
 10
-2.536013563
 20
13.25779196
 10
-2.5275203276
 20
13.270607096
 10
-2.5186653834
 20
13.2831706857
 10
-2.5094535916
 20
13.2954720563
 10
-2.4998898133
 20
13.3075005348
 10
-2.4899789095
 20
13.3192454484
 10
-2.4797263355
 20
13.3306959263
 10
-2.469139923
 20
13.3418403063
 10
-2.458228098
 20
13.3526667282
 10
-2.4469992866
 20
13.3631633317
 10
-2.4354619146
 20
13.3733182567
 10
-2.423624408
 20
13.3831196431
 10
-2.4114957353
 20
13.3925570128
 10
-2.3990870339
 20
13.4016254168
 10
-2.3864099839
 20
13.4103212882
 10
-2.3734762653
 20
13.4186410602
 10
-2.3602975581
 20
13.4265811659
 10
-2.3468855422
 20
13.4341380385
 10
-2.3332529171
 20
13.4413075932
 10
-2.3194164594
 20
13.448083674
 10
-2.3053939653
 20
13.4544596068
 10
-2.2912032309
 20
13.4604287178
 10
-2.2768620522
 20
13.4659843329
 10
-2.2623882253
 20
13.4711197781
 10
-2.2477954507
 20
13.4758289387
 10
-2.2330810465
 20
13.480107936
 10
-2.2182382349
 20
13.4839534507
 10
-2.2032602384
 20
13.4873621634
 10
-2.1881402793
 20
13.4903307548
 10
-2.17287158
 20
13.4928559054
  0
LWPOLYLINE
  5
2C4
100
AcDbEntity
  8
0
100
AcDbPolyline
 62
253
  6
CONTINUOUS
 90
43
 70
0
 10
-3.791311023
 20
-13.7246692706
 10
-3.7859410266
 20
-13.7504020413
 10
-3.7798188231
 20
-13.7758495281
 10
-3.7729517606
 20
-13.801023458
 10
-3.7653471871
 20
-13.8259355578
 10
-3.7570124507
 20
-13.8505975546
 10
-3.7479548995
 20
-13.8750211752
 10
-3.7381828901
 20
-13.8992114843
 10
-3.7277088132
 20
-13.9231468967
 10
-3.7165460683
 20
-13.9467991647
 10
-3.7047080546
 20
-13.9701400408
 10
-3.6922081716
 20
-13.9931412775
 10
-3.6790598186
 20
-14.015774627
 10
-3.6652752637
 20
-14.0380133608
 10
-3.6508622508
 20
-14.0598368256
 10
-3.6358273926
 20
-14.0812258871
 10
-3.6201773017
 20
-14.1021614108
 10
-3.6039185907
 20
-14.1226242625
 10
-3.5870578723
 20
-14.1425953078
 10
-3.5696035887
 20
-14.1620557479
 10
-3.5515715
 20
-14.1809881259
 10
-3.5329791956
 20
-14.1993753205
 10
-3.5138442652
 20
-14.2172002106
 10
-3.4941842982
 20
-14.2344456747
 10
-3.4740168843
 20
-14.2510945916
 10
-3.4533598544
 20
-14.267131664
 10
-3.4322320054
 20
-14.2825488907
 10
-3.4106523754
 20
-14.2973400946
 10
-3.3886400027
 20
-14.3114990985
 10
-3.3662139255
 20
-14.3250197253
 10
-3.343393182
 20
-14.3378957977
 10
-3.3201987559
 20
-14.3501200004
 10
-3.296659413
 20
-14.361680464
 10
-3.2728058645
 20
-14.3725641812
 10
-3.2486688216
 20
-14.3827581442
 10
-3.2242789955
 20
-14.3922493457
 10
-3.1996670974
 20
-14.4010247781
 10
-3.1748567197
 20
-14.4090724025
 10
-3.14984298
 20
-14.4163840552
 10
-3.124613877
 20
-14.4229525412
 10
-3.0991574094
 20
-14.4287706654
 10
-3.0734615759
 20
-14.4338312327
 10
-3.0475143753
 20
-14.4381270482
  0
LWPOLYLINE
  5
2C5
100
AcDbEntity
  8
0
100
AcDbPolyline
 62
253
  6
CONTINUOUS
 90
25
 70
0
 10
-3.4301371434
 20
-13.6549251039
 10
-3.4432358267
 20
-13.5841174466
 10
-3.4551606751
 20
-13.5132257895
 10
-3.4659196942
 20
-13.4422403276
 10
-3.4755208897
 20
-13.3711512555
 10
-3.4839722671
 20
-13.2999487679
 10
-3.4912818321
 20
-13.2286230598
 10
-3.4974575903
 20
-13.1571643257
 10
-3.5025075474
 20
-13.0855627606
 10
-3.5064382795
 20
-13.013815867
 10
-3.5092506456
 20
-12.9419503795
 10
-3.5109440752
 20
-12.8700003406
 10
-3.5115179978
 20
-12.7979997928
 10
-3.5109718429
 20
-12.7259827785
 10
-3.5093050402
 20
-12.6539833401
 10
-3.5065170191
 20
-12.5820355202
 10
-3.5026072092
 20
-12.5101733611
 10
-3.4975735972
 20
-12.4384236531
 10
-3.4914083983
 20
-12.3667841768
 10
-3.4841023852
 20
-12.2952454605
 10
-3.4756463303
 20
-12.2237980326
 10
-3.4660310062
 20
-12.1524324213
 10
-3.4552471853
 20
-12.0811391551
 10
-3.4432856402
 20
-12.0099087622
 10
-3.4301371434
 20
-11.938731771
  0
LWPOLYLINE
  5
2C6
100
AcDbEntity
  8
0
100
AcDbPolyline
 62
253
  6
CONTINUOUS
 90
43
 70
0
 10
-1.0293433231
 20
11.3574567393
 10
-1.0325510308
 20
11.3422662576
 10
-1.0361998153
 20
11.3272496058
 10
-1.0402838478
 20
11.3124004028
 10
-1.0447972996
 20
11.2977122675
 10
-1.0497343418
 20
11.2831788186
 10
-1.0550891457
 20
11.2687936751
 10
-1.0608556706
 20
11.254553903
 10
-1.0670270281
 20
11.2404703571
 10
-1.0735961179
 20
11.2265573394
 10
-1.0805558397
 20
11.212829152
 10
-1.0878990931
 20
11.1993000968
 10
-1.0956187778
 20
11.1859844759
 10
-1.1037083649
 20
11.1728960942
 10
-1.1121636109
 20
11.1600467686
 10
-1.1209808439
 20
11.1474478187
 10
-1.1301563919
 20
11.1351105643
 10
-1.1396865827
 20
11.1230463251
 10
-1.1495677443
 20
11.1112664209
 10
-1.1597954361
 20
11.0997823848
 10
-1.1703621421
 20
11.088606603
 10
-1.1812595777
 20
11.0777516752
 10
-1.1924794584
 20
11.0672302011
 10
-1.2040134996
 20
11.0570547805
 10
-1.2158534167
 20
11.0472380128
 10
-1.2279901839
 20
11.0377909005
 10
-1.240411811
 20
11.0287180563
 10
-1.2531055664
 20
11.0200224956
 10
-1.2660587187
 20
11.0117072339
 10
-1.2792585365
 20
11.0037752865
 10
-1.2926922882
 20
10.9962296689
 10
-1.3063463474
 20
10.9890738903
 10
-1.3202035081
 20
10.9823134354
 10
-1.3342456692
 20
10.9759542826
 10
-1.3484547295
 20
10.9700024104
 10
-1.3628125881
 20
10.9644637973
 10
-1.3773011439
 20
10.9593444216
 10
-1.3919064387
 20
10.954649726
 10
-1.4066310854
 20
10.9503830091
 10
-1.4214818402
 20
10.9465470336
 10
-1.4364654589
 20
10.9431445625
 10
-1.4515886975
 20
10.9401783583
 10
-1.4668583119
 20
10.9376511838
  0
LWPOLYLINE
  5
2C7
100
AcDbEntity
  8
ASSI
100
AcDbPolyline
 62
253
  6
CONTINUOUS
 90
13
 70
0
 10
-10.5971923691
 20
-22.3563125375
 10
-10.5967735061
 20
-22.3547677641
 10
-10.5963558991
 20
-22.3526479304
 10
-10.595939548
 20
-22.3499542667
 10
-10.5955242188
 20
-22.3466883401
 10
-10.5951101456
 20
-22.3428520377
 10
-10.5946980309
 20
-22.3384475555
 10
-10.59428787
 20
-22.3334774156
 10
-10.5938796676
 20
-22.3279444964
 10
-10.5934741398
 20
-22.3218520163
 10
-10.5930712961
 20
-22.3152035099
 10
-10.592671127
 20
-22.3080028056
 10
-10.5918808781
 20
-22.2919617016
  0
LINE
  5
2C8
100
AcDbEntity
  8
ASSI
100
AcDbLine
 62
253
  6
CONTINUOUS
 10
10.5475597042
 20
21.908869175
 11
10.4467481671
 21
21.7575750063
  0
LINE
  5
2C9
100
AcDbEntity
  8
ASSI
100
AcDbLine
 62
253
  6
CONTINUOUS
 10
10.4467481671
 20
-22.3563125375
 11
10.5475597042
 21
-22.5076067061
  0
LWPOLYLINE
  5
2CA
100
AcDbEntity
  8
0
100
AcDbPolyline
 62
253
  6
CONTINUOUS
 90
43
 70
0
 10
-1.4872841374
 20
-11.8689876044
 10
-1.4926530326
 20
-11.8432484997
 10
-1.4987742237
 20
-11.8177946716
 10
-1.5056403686
 20
-11.792614414
 10
-1.5132441251
 20
-11.7676960211
 10
-1.5215781509
 20
-11.7430277868
 10
-1.530635104
 20
-11.7185980053
 10
-1.5404066332
 20
-11.6944016331
 10
-1.5508803515
 20
-11.6704602766
 10
-1.562042863
 20
-11.6468022049
 10
-1.5738807715
 20
-11.623455687
 10
-1.5863806812
 20
-11.6004489916
 10
-1.5995291961
 20
-11.5778103879
 10
-1.613314048
 20
-11.5555666242
 10
-1.6277274798
 20
-11.533738366
 10
-1.6427628623
 20
-11.5123447584
 10
-1.6584135664
 20
-11.4914049464
 10
-1.6746729627
 20
-11.4709380751
 10
-1.6915344221
 20
-11.4509632893
 10
-1.7089894885
 20
-11.4314994025
 10
-1.7270223992
 20
-11.412563901
 10
-1.7456155646
 20
-11.3941739397
 10
-1.7647513953
 20
-11.3763466733
 10
-1.7844123015
 20
-11.3590992565
 10
-1.8045806939
 20
-11.3424488442
 10
-1.8252387424
 20
-11.3264107696
 10
-1.8463676553
 20
-11.3109930801
 10
-1.8679484004
 20
-11.2962020016
 10
-1.8899619457
 20
-11.2820437601
 10
-1.912389259
 20
-11.2685245814
 10
-1.935211308
 20
-11.2556506915
 10
-1.9584071171
 20
-11.2434294586
 10
-1.9819479361
 20
-11.2318728205
 10
-2.0058030712
 20
-11.2209938571
 10
-2.0299418286
 20
-11.2108056484
 10
-2.0543335146
 20
-11.2013212746
 10
-2.0789474353
 20
-11.1925538156
 10
-2.1037600129
 20
-11.1845153935
 10
-2.1287761328
 20
-11.1772142982
 10
-2.1540077964
 20
-11.1706578619
 10
-2.1794670051
 20
-11.1648534165
 10
-2.2051657601
 20
-11.1598082941
 10
-2.2311160628
 20
-11.1555298268
  0
LWPOLYLINE
  5
2CB
100
AcDbEntity
  8
0
100
AcDbPolyline
 62
253
  6
CONTINUOUS
 90
25
 70
0
 10
-1.8484932948
 20
-11.938731771
 10
-1.8354747723
 20
-12.0093994128
 10
-1.8236203112
 20
-12.0801626129
 10
-1.8129224964
 20
-12.1510312119
 10
-1.8033739126
 20
-12.2220150509
 10
-1.7949671446
 20
-12.2931239707
 10
-1.7876947771
 20
-12.3643678121
 10
-1.781549395
 20
-12.435756416
 10
-1.7765235829
 20
-12.5072996233
 10
-1.7726113306
 20
-12.5789999988
 10
-1.7698122471
 20
-12.6508310028
 10
-1.7681273464
 20
-12.7227588196
 10
-1.7675576425
 20
-12.7947496337
 10
-1.7681041495
 20
-12.8667696293
 10
-1.7697678814
 20
-12.9387849908
 10
-1.772549852
 20
-13.0107619025
 10
-1.7764510755
 20
-13.0826665487
 10
-1.7814740017
 20
-13.1544723029
 10
-1.7876268237
 20
-13.2261812949
 10
-1.7949191706
 20
-13.2978028437
 10
-1.8033606715
 20
-13.3693462682
 10
-1.8129609553
 20
-13.4408208876
 10
-1.8237296511
 20
-13.5122360206
 10
-1.8356763879
 20
-13.5836009864
 10
-1.8488107948
 20
-13.6549251039
  0
LWPOLYLINE
  5
2CC
100
AcDbEntity
  8
0
100
AcDbPolyline
 62
253
  6
CONTINUOUS
 90
25
 70
0
 10
-0.6665819435
 20
11.2957911837
 10
-0.6526280656
 20
11.3721948947
 10
-0.6399319479
 20
11.4486715091
 10
-0.6284848487
 20
11.5252312529
 10
-0.6182780263
 20
11.601884352
 10
-0.609302739
 20
11.6786410324
 10
-0.6015502453
 20
11.7555115202
 10
-0.5950118033
 20
11.8325060413
 10
-0.5896786715
 20
11.9096348216
 10
-0.5855436249
 20
11.9869004076
 10
-0.5826055054
 20
12.0642746268
 10
-0.5808646719
 20
12.1417216269
 10
-0.5803214831
 20
12.2192055559
 10
-0.5809762977
 20
12.2966905615
 10
-0.5828294743
 20
12.3741407917
 10
-0.5858813719
 20
12.4515203943
 10
-0.590132349
 20
12.5287935171
 10
-0.5955842958
 20
12.605931957
 10
-0.6022452282
 20
12.6829381066
 10
-0.6101246934
 20
12.7598220075
 10
-0.6192322387
 20
12.8365937013
 10
-0.6295774113
 20
12.9132632298
 10
-0.6411697585
 20
12.9898406344
 10
-0.6540188275
 20
13.0663359569
 10
-0.6681341657
 20
13.1427592388
  0
LWPOLYLINE
  5
2CD
100
AcDbEntity
  8
0
100
AcDbPolyline
 62
253
  6
CONTINUOUS
 90
25
 70
0
 10
-3.7910288008
 20
-11.8689876044
 10
-3.8052006603
 20
-11.9454706361
 10
-3.8181057612
 20
-12.0220512073
 10
-3.8297524774
 20
-12.0987398383
 10
-3.8401491826
 20
-12.1755470499
 10
-3.8493042509
 20
-12.2524833627
 10
-3.8572260561
 20
-12.3295592971
 10
-3.863922972
 20
-12.4067853739
 10
-3.8694033726
 20
-12.4841721136
 10
-3.8736740792
 20
-12.5617222004
 10
-3.8767357025
 20
-12.6394069728
 10
-3.8785873009
 20
-12.7171899327
 10
-3.8792279325
 20
-12.7950345823
 10
-3.8786566556
 20
-12.8729044236
 10
-3.8768725284
 20
-12.9507629587
 10
-3.8738746092
 20
-13.0285736896
 10
-3.8696619563
 20
-13.1063001183
 10
-3.864232053
 20
-13.1839135054
 10
-3.8575760838
 20
-13.2614161455
 10
-3.8496836583
 20
-13.3388180916
 10
-3.8405443862
 20
-13.4161293969
 10
-3.8301478769
 20
-13.4933601143
 10
-3.8184837402
 20
-13.570520297
 10
-3.8055415857
 20
-13.6476199981
 10
-3.791311023
 20
-13.7246692706
  0
LINE
  5
2CE
100
AcDbEntity
  8
ASSI
100
AcDbLine
 62
253
  6
CONTINUOUS
 10
11.0484705896
 20
21.4113785422
 11
10.9464435806
 21
21.258260239
  0
LINE
  5
2CF
100
AcDbEntity
  8
ASSI
100
AcDbLine
 62
253
  6
CONTINUOUS
 10
11.074777899
 20
-0.6493021444
 11
10.8925860727
 21
-0.6948327556
  0
LINE
  5
2D0
100
AcDbEntity
  8
ASSI
100
AcDbLine
 62
253
  6
CONTINUOUS
 10
10.8247016973
 20
-0.3993687656
 11
10.6427382991
 21
-0.4448422916
  0
LWPOLYLINE
  5
2D1
100
AcDbEntity
  8
ASSI
100
AcDbPolyline
 62
253
  6
CONTINUOUS
 90
8
 70
0
 10
10.6427382991
 20
-0.4448422916
 10
10.6423882476
 20
-0.4449043393
 10
10.6418375161
 20
-0.4449661785
 10
10.6410861045
 20
-0.4450278092
 10
10.6401330779
 20
-0.4450892817
 10
10.6389793712
 20
-0.4451505457
 10
10.6376277897
 20
-0.44521145
 10
10.6360778554
 20
-0.4452719927
  0
LWPOLYLINE
  5
2D2
100
AcDbEntity
  8
ASSI
100
AcDbPolyline
 62
253
  6
CONTINUOUS
 90
6
 70
0
 10
10.8925860727
 20
-0.6948327632
 10
10.8918877791
 20
-0.6949004489
 10
10.8907858402
 20
-0.6949679283
 10
10.8892811473
 20
-0.6950351924
 10
10.8873749218
 20
-0.6951022761
 10
10.8850687028
 20
-0.6951691263
  0
LINE
  5
2D3
100
AcDbEntity
  8
ASSI
100
AcDbLine
 62
253
  6
CONTINUOUS
 10
-11.0430302747
 20
-0.6948327556
 11
-11.225222101
 21
-0.6493021444
  0
LINE
  5
2D4
100
AcDbEntity
  8
ASSI
100
AcDbLine
 62
253
  6
CONTINUOUS
 10
-10.7931825011
 20
-0.4448422916
 11
-10.9751458993
 21
-0.3993687656
  0
LINE
  5
2D5
100
AcDbEntity
  8
ASSI
100
AcDbLine
 62
253
  6
CONTINUOUS
 10
10.9464435806
 20
-21.8569977701
 11
11.0484705896
 21
-22.0101160733
  0
LINE
  5
2D6
100
AcDbEntity
  8
0
100
AcDbLine
 62
253
  6
CONTINUOUS
 10
-0.7723094334
 20
-12.0835470488
 11
-0.7589744337
 21
-14.3751562148
  0
LINE
  5
2D7
100
AcDbEntity
  8
0
100
AcDbLine
 62
253
  6
CONTINUOUS
 10
-0.402386665
 20
-12.606575382
 11
-0.4045738872
 21
-12.0835470488
  0
LINE
  5
2D8
100
AcDbEntity
  8
0
100
AcDbLine
 62
253
  6
CONTINUOUS
 10
-0.4045738872
 20
-14.3584345482
 11
-0.402386665
 21
-12.9786501041
  0
LWPOLYLINE
  5
2D9
100
AcDbEntity
  8
0
100
AcDbPolyline
 62
253
  6
CONTINUOUS
 90
55
 70
0
 10
-0.4045738872
 20
-12.0835470488
 10
-0.404327942
 20
-12.0679551784
 10
-0.4035931294
 20
-12.0524773594
 10
-0.4023739842
 20
-12.0370723918
 10
-0.400675041
 20
-12.0216990756
 10
-0.3985008345
 20
-12.0063162107
 10
-0.3958533857
 20
-11.990890183
 10
-0.3927246612
 20
-11.975417722
 10
-0.3891041138
 20
-11.9599031431
 10
-0.3849811964
 20
-11.9443507618
 10
-0.3803453619
 20
-11.9287648936
 10
-0.3751874947
 20
-11.9131547192
 10
-0.3695042052
 20
-11.8975488813
 10
-0.3632935354
 20
-11.8819808876
 10
-0.3565535272
 20
-11.8664842461
 10
-0.3492822226
 20
-11.8510924648
 10
-0.3428201936
 20
-11.8383755453
 10
-0.3360146496
 20
-11.8258058416
 10
-0.3288923914
 20
-11.8134344803
 10
-0.3214719059
 20
-11.8012993968
 10
-0.3137384264
 20
-11.7893857605
 10
-0.3056688726
 20
-11.7776655494
 10
-0.2972454696
 20
-11.7661193946
 10
-0.2884716644
 20
-11.7547625389
 10
-0.2793562095
 20
-11.7436188786
 10
-0.2699078574
 20
-11.7327123095
 10
-0.2601353606
 20
-11.7220667278
 10
-0.2500474715
 20
-11.7117060295
 10
-0.2396553923
 20
-11.7016514804
 10
-0.2289801234
 20
-11.6919138262
 10
-0.218045115
 20
-11.6825011821
 10
-0.2068738172
 20
-11.6734216635
 10
-0.19548968
 20
-11.6646833857
 10
-0.1839161537
 20
-11.6562944641
 10
-0.1721679851
 20
-11.6482578646
 10
-0.1602251091
 20
-11.6405559545
 10
-0.1480587571
 20
-11.6331659518
 10
-0.1356540225
 20
-11.6260736045
 10
-0.1230514449
 20
-11.6192987809
 10
-0.1103054254
 20
-11.6128698795
 10
-0.0948878125
 20
-11.6056431893
 10
-0.0793781269
 20
-11.5989529299
 10
-0.0638125147
 20
-11.5927965103
 10
-0.0482271216
 20
-11.5871713399
 10
-0.0326580934
 20
-11.5820748277
 10
-0.0171359877
 20
-11.5775027372
 10
-0.0016690084
 20
-11.5734442484
 10
0.0137402289
 20
-11.5698868958
 10
0.0290891086
 20
-11.5668182137
 10
0.0443750152
 20
-11.5642257363
 10
0.0596026013
 20
-11.5620996069
 10
0.0748055923
 20
-11.5604404033
 10
0.0900249821
 20
-11.5592513124
 10
0.1053017643
 20
-11.5585355209
 10
0.1206769327
 20
-11.5582962156
  0
LWPOLYLINE
  5
2DA
100
AcDbEntity
  8
0
100
AcDbPolyline
 62
253
  6
CONTINUOUS
 90
44
 70
0
 10
-3.4301371434
 20
-11.938731771
 10
-3.4274137382
 20
-11.9257043237
 10
-3.4243612317
 20
-11.9128076799
 10
-3.4209837135
 20
-11.9000377969
 10
-3.4172852734
 20
-11.8873906324
 10
-3.413270001
 20
-11.8748621438
 10
-3.4089419859
 20
-11.8624482887
 10
-3.4043053178
 20
-11.8501450247
 10
-3.3985114299
 20
-11.8359289837
 10
-3.3923107225
 20
-11.8218718603
 10
-3.385710921
 20
-11.8079875475
 10
-3.3787197502
 20
-11.7942899385
 10
-3.3713449355
 20
-11.7807929263
 10
-3.3635942018
 20
-11.767510404
 10
-3.3554747087
 20
-11.7544557282
 10
-3.3469913532
 20
-11.7416401089
 10
-3.3381484665
 20
-11.7290742196
 10
-3.3289503802
 20
-11.7167687339
 10
-3.3194014255
 20
-11.7047343253
 10
-3.3095059339
 20
-11.6929816673
 10
-3.2992689072
 20
-11.6815216658
 10
-3.2886980306
 20
-11.6703661568
 10
-3.2778016595
 20
-11.6595272091
 10
-3.2665881496
 20
-11.6490168909
 10
-3.2550658564
 20
-11.638847271
 10
-3.2432431356
 20
-11.6290304177
 10
-3.2311288723
 20
-11.6195770194
 10
-3.2187340699
 20
-11.6104922426
 10
-3.2060702613
 20
-11.6017798736
 10
-3.1931489795
 20
-11.5934436989
 10
-3.1799817575
 20
-11.5854875046
 10
-3.1665801281
 20
-11.5779150771
 10
-3.1529566899
 20
-11.5707307649
 10
-3.1391283036
 20
-11.5639411649
 10
-3.1251128952
 20
-11.5575534362
 10
-3.1109283912
 20
-11.5515747379
 10
-3.0965927177
 20
-11.546012229
 10
-3.0821238008
 20
-11.5408730688
 10
-3.0675354284
 20
-11.5361638564
 10
-3.0528248345
 20
-11.5318889526
 10
-3.0379851147
 20
-11.528052158
 10
-3.0230093643
 20
-11.5246572735
 10
-3.0078906791
 20
-11.5217080998
 10
-2.9926221545
 20
-11.5192084378
  0
LWPOLYLINE
  5
2DB
100
AcDbEntity
  8
ASSI
100
AcDbPolyline
 62
253
  6
CONTINUOUS
 90
19
 70
0
 10
10.9464435806
 20
21.258260239
 10
10.9460248192
 20
21.2574868475
 10
10.9456072837
 20
21.2564273827
 10
10.9451909739
 20
21.2550818446
 10
10.9447756437
 20
21.2534491153
 10
10.9443615394
 20
21.2515303127
 10
10.9439493995
 20
21.24932879
 10
10.9435392344
 20
21.246844066
 10
10.9431310338
 20
21.2440766218
 10
10.9427255052
 20
21.2410312545
 10
10.9423226538
 20
21.2377074872
 10
10.9419224744
 20
21.2341057968
 10
10.9415256578
 20
21.2302324105
 10
10.9411322095
 20
21.2260868556
 10
10.940742124
 20
21.2216696048
 10
10.9403560759
 20
21.2169883034
 10
10.9399740722
 20
21.2120424938
 10
10.939596106
 20
21.2068326335
 10
10.9388542543
 20
21.1956473712
  0
LINE
  5
2DC
100
AcDbEntity
  8
ASSI
100
AcDbLine
 62
7
  6
CONTINUOUS
 10
8.4372438896
 20
-0.3993687656
 11
8.174777899
 21
-0.425549369
  0
LINE
  5
2DD
100
AcDbEntity
  8
ASSI
100
AcDbLine
 62
253
  6
CONTINUOUS
 10
10.6360778554
 20
-0.4452719927
 11
10.6323886023
 21
-0.4453918526
  0
LINE
  5
2DE
100
AcDbEntity
  8
ASSI
100
AcDbLine
 62
253
  6
CONTINUOUS
 10
10.6323886023
 20
-0.4453918526
 11
10.6279238739
 21
-0.4455096858
  0
LINE
  5
2DF
100
AcDbEntity
  8
ASSI
100
AcDbLine
 62
253
  6
CONTINUOUS
 10
10.8850687028
 20
-0.6951691263
 11
10.8792639956
 21
-0.6953016926
  0
LINE
  5
2E0
100
AcDbEntity
  8
ASSI
100
AcDbLine
 62
253
  6
CONTINUOUS
 10
10.6279238739
 20
-0.4455096858
 11
10.6198074665
 21
-0.4456817853
  0
LINE
  5
2E1
100
AcDbEntity
  8
ASSI
100
AcDbLine
 62
253
  6
CONTINUOUS
 10
10.8792639956
 20
-0.6953016926
 11
10.8676138832
 21
-0.6954971656
  0
LINE
  5
2E2
100
AcDbEntity
  8
ASSI
100
AcDbLine
 62
253
  6
CONTINUOUS
 10
10.6198074665
 20
-0.4456817853
 11
10.6026474719
 21
-0.445953188
  0
LINE
  5
2E3
100
AcDbEntity
  8
ASSI
100
AcDbLine
 62
253
  6
CONTINUOUS
 10
10.8676138832
 20
-0.6954971656
 11
10.8405741714
 21
-0.6958103293
  0
LINE
  5
2E4
100
AcDbEntity
  8
ASSI
100
AcDbLine
 62
253
  6
CONTINUOUS
 10
10.6026474719
 20
-0.445953188
 11
10.5715975097
 21
-0.4462918145
  0
LINE
  5
2E5
100
AcDbEntity
  8
ASSI
100
AcDbLine
 62
253
  6
CONTINUOUS
 10
10.8405741714
 20
-0.6958103293
 11
10.750307148
 21
-0.6964162104
  0
LINE
  5
2E6
100
AcDbEntity
  8
ASSI
100
AcDbLine
 62
253
  6
CONTINUOUS
 10
10.5715975097
 20
-0.4462918145
 11
10.502770286
 21
-0.4467258272
  0
LINE
  5
2E7
100
AcDbEntity
  8
ASSI
100
AcDbLine
 62
253
  6
CONTINUOUS
 10
-10.7010407289
 20
-0.1522785395
 11
-10.6134817464
 21
-0.151877322
  0
LINE
  5
2E8
100
AcDbEntity
  8
ASSI
100
AcDbLine
 62
253
  6
CONTINUOUS
 10
10.750307148
 20
-0.6964162104
 11
10.4355002108
 21
-0.6971279643
  0
LINE
  5
2E9
100
AcDbEntity
  8
ASSI
100
AcDbLine
 62
253
  6
CONTINUOUS
 10
10.4355002108
 20
-0.6971279643
 11
-10.5433330167
 21
-0.697137219
  0
LINE
  5
2EA
100
AcDbEntity
  8
ASSI
100
AcDbLine
 62
253
  6
CONTINUOUS
 10
10.502770286
 20
-0.4467258272
 11
10.3928906451
 21
-0.4469478538
  0
LINE
  5
2EB
100
AcDbEntity
  8
ASSI
100
AcDbLine
 62
7
  6
CONTINUOUS
 10
10.3928906451
 20
-0.4469478538
 11
-10.5433348471
 21
-0.4469478538
  0
LINE
  5
2EC
100
AcDbEntity
  8
ASSI
100
AcDbLine
 62
7
  6
CONTINUOUS
 10
8.174777899
 20
-0.425549369
 11
-8.325222101
 21
-0.425549369
  0
LINE
  5
2ED
100
AcDbEntity
  8
ASSI
100
AcDbLine
 62
7
  6
CONTINUOUS
 10
10.8247016973
 20
-0.3993687656
 11
8.4372438896
 21
-0.3993687656
  0
LINE
  5
2EE
100
AcDbEntity
  8
ASSI
100
AcDbLine
 62
7
  6
CONTINUOUS
 10
-8.5876880916
 20
-0.3993687656
 11
-10.9751458993
 21
-0.3993687656
  0
LINE
  5
2EF
100
AcDbEntity
  8
ASSI
100
AcDbLine
 62
7
  6
CONTINUOUS
 10
-10.9751458993
 20
-0.1993687656
 11
-8.5876880916
 21
-0.1993687656
  0
LINE
  5
2F0
100
AcDbEntity
  8
ASSI
100
AcDbLine
 62
7
  6
CONTINUOUS
 10
8.4372438896
 20
-0.1993687656
 11
10.8247016973
 21
-0.1993687656
  0
LINE
  5
2F1
100
AcDbEntity
  8
ASSI
100
AcDbLine
 62
7
  6
CONTINUOUS
 10
-8.325222101
 20
-0.1731881622
 11
8.174777899
 21
-0.1731881622
  0
LINE
  5
2F2
100
AcDbEntity
  8
ASSI
100
AcDbLine
 62
7
  6
CONTINUOUS
 10
-10.5433348471
 20
-0.1517896774
 11
10.3928906451
 21
-0.1517896774
  0
LINE
  5
2F3
100
AcDbEntity
  8
ASSI
100
AcDbLine
 62
253
  6
CONTINUOUS
 10
-10.6134817464
 20
-0.151877322
 11
-10.5433348471
 21
-0.1517896774
  0
LINE
  5
2F4
100
AcDbEntity
  8
ASSI
100
AcDbLine
 62
253
  6
CONTINUOUS
 10
-10.5433348471
 20
-0.4469478538
 11
-10.6595596687
 21
-0.4466977488
  0
LINE
  5
2F5
100
AcDbEntity
  8
ASSI
100
AcDbLine
 62
253
  6
CONTINUOUS
 10
10.3928906451
 20
-0.1517896774
 11
10.5091154667
 21
-0.1520397824
  0
LINE
  5
2F6
100
AcDbEntity
  8
ASSI
100
AcDbLine
 62
253
  6
CONTINUOUS
 10
-10.5433330167
 20
-0.6971372196
 11
-10.9381345224
 21
-0.6962116935
  0
LINE
  5
2F7
100
AcDbEntity
  8
ASSI
100
AcDbLine
 62
253
  6
CONTINUOUS
 10
10.5091154667
 20
-0.1520397824
 11
10.5505965269
 21
-0.1522785395
  0
LINE
  5
2F8
100
AcDbEntity
  8
ASSI
100
AcDbLine
 62
253
  6
CONTINUOUS
 10
-10.6595596687
 20
-0.4466977488
 11
-10.7220417117
 21
-0.4462918145
  0
LINE
  5
2F9
100
AcDbEntity
  8
ASSI
100
AcDbLine
 62
253
  6
CONTINUOUS
 10
-10.9381345224
 20
-0.6962116935
 11
-10.9971696208
 21
-0.6957492147
  0
LINE
  5
2FA
100
AcDbEntity
  8
ASSI
100
AcDbLine
 62
253
  6
CONTINUOUS
 10
-10.7220417117
 20
-0.4462918145
 11
-10.7530916739
 21
-0.445953188
  0
LINE
  5
2FB
100
AcDbEntity
  8
ASSI
100
AcDbLine
 62
253
  6
CONTINUOUS
 10
-10.9971696208
 20
-0.6957492147
 11
-11.0180580852
 21
-0.6954971656
  0
LINE
  5
2FC
100
AcDbEntity
  8
ASSI
100
AcDbLine
 62
253
  6
CONTINUOUS
 10
-10.7530916739
 20
-0.445953188
 11
-10.7702516684
 21
-0.4456817853
  0
LINE
  5
2FD
100
AcDbEntity
  8
ASSI
100
AcDbLine
 62
253
  6
CONTINUOUS
 10
-11.0180580852
 20
-0.6954971656
 11
-11.0297081976
 21
-0.6953016926
  0
LINE
  5
2FE
100
AcDbEntity
  8
ASSI
100
AcDbLine
 62
253
  6
CONTINUOUS
 10
-10.7702516684
 20
-0.4456817853
 11
-10.7783680759
 21
-0.4455096858
  0
LWPOLYLINE
  5
2FF
100
AcDbEntity
  8
ASSI
100
AcDbPolyline
 62
253
  6
CONTINUOUS
 90
7
 70
0
 10
-11.0297081976
 20
-0.6953016926
 10
-11.0355129048
 20
-0.6951691263
 10
-11.0378191238
 20
-0.6951022761
 10
-11.0397253493
 20
-0.6950351924
 10
-11.0412300422
 20
-0.6949679283
 10
-11.0423319811
 20
-0.6949004489
 10
-11.0430302747
 20
-0.6948327632
  0
LINE
  5
300
100
AcDbEntity
  8
ASSI
100
AcDbLine
 62
253
  6
CONTINUOUS
 10
-10.7783680759
 20
-0.4455096858
 11
-10.7828328043
 21
-0.4453918526
  0
LWPOLYLINE
  5
301
100
AcDbEntity
  8
ASSI
100
AcDbPolyline
 62
253
  6
CONTINUOUS
 90
9
 70
0
 10
-10.7828328043
 20
-0.4453918526
 10
-10.7865220574
 20
-0.4452719927
 10
-10.7880719917
 20
-0.44521145
 10
-10.7894235731
 20
-0.4451505457
 10
-10.7905772798
 20
-0.4450892817
 10
-10.7915303065
 20
-0.4450278092
 10
-10.7922817181
 20
-0.4449661785
 10
-10.7928324496
 20
-0.4449043393
 10
-10.7931825011
 20
-0.4448422916
  0
LINE
  5
302
100
AcDbEntity
  8
ASSI
100
AcDbLine
 62
7
  6
CONTINUOUS
 10
-8.5876880916
 20
-0.3993687656
 11
-8.325222101
 21
-0.425549369
  0
LWPOLYLINE
  5
303
100
AcDbEntity
  8
0
100
AcDbPolyline
 62
253
  6
CONTINUOUS
 90
43
 70
0
 10
-2.9718779687
 20
11.2873950726
 10
-2.9665068515
 20
11.261665091
 10
-2.9603839838
 20
11.2362202536
 10
-2.9535167067
 20
11.2110488671
 10
-2.9459123609
 20
11.1861392387
 10
-2.9375782874
 20
11.1614796751
 10
-2.9285218271
 20
11.1370584835
 10
-2.9187513301
 20
11.1128706238
 10
-2.9082791823
 20
11.0889376686
 10
-2.8971187791
 20
11.0652878433
 10
-2.8852835156
 20
11.0419493736
 10
-2.8727867869
 20
11.0189504851
 10
-2.8596419882
 20
10.9963194033
 10
-2.8458613884
 20
10.9740828347
 10
-2.8314527507
 20
10.9522614098
 10
-2.8164227122
 20
10.9308742398
 10
-2.8007779098
 20
10.9099404359
 10
-2.7845249804
 20
10.8894791095
 10
-2.767670561
 20
10.8695093718
 10
-2.7502231104
 20
10.8500499992
 10
-2.7321983747
 20
10.8311184283
 10
-2.7136139218
 20
10.8127317608
 10
-2.6944873198
 20
10.7949070982
 10
-2.6748361365
 20
10.7776615423
 10
-2.6546779398
 20
10.7610121947
 10
-2.6340305372
 20
10.7449743406
 10
-2.612912693
 20
10.7295559991
 10
-2.5913434111
 20
10.7147633728
 10
-2.5693416956
 20
10.7006026642
 10
-2.5469265501
 20
10.687080076
 10
-2.5241169787
 20
10.6742018107
 10
-2.5009339192
 20
10.6619752093
 10
-2.4774060459
 20
10.6504121663
 10
-2.4535639672
 20
10.6395257144
 10
-2.4294382914
 20
10.6293288863
 10
-2.4050596267
 20
10.619834715
 10
-2.3804585817
 20
10.6110562332
 10
-2.3556586679
 20
10.6030055138
 10
-2.3306550108
 20
10.5956907893
 10
-2.3054356392
 20
10.5891193324
 10
-2.2799885817
 20
10.583298416
 10
-2.2543018672
 20
10.5782353126
 10
-2.2283635244
 20
10.573937295
  0
LWPOLYLINE
  5
304
100
AcDbEntity
  8
0
100
AcDbPolyline
 62
253
  6
CONTINUOUS
 90
25
 70
0
 10
-2.6106688021
 20
11.3574567393
 10
-2.6237550663
 20
11.428122226
 10
-2.6356705662
 20
11.4988826581
 10
-2.6464228788
 20
11.5697479487
 10
-2.6560195809
 20
11.6407280111
 10
-2.6644682494
 20
11.7118327583
 10
-2.6717764613
 20
11.7830721035
 10
-2.6779517935
 20
11.8544559599
 10
-2.6830018228
 20
11.9259942406
 10
-2.6869326989
 20
11.9976895146
 10
-2.6897448619
 20
12.0695149742
 10
-2.6914373247
 20
12.1414364675
 10
-2.6920091
 20
12.2134198428
 10
-2.6914592007
 20
12.2854309481
 10
-2.6897866397
 20
12.3574356317
 10
-2.6869904297
 20
12.4293997417
 10
-2.6830695835
 20
12.5012891262
 10
-2.6780216568
 20
12.5730768927
 10
-2.6718383756
 20
12.6447651851
 10
-2.6645100089
 20
12.7163634069
 10
-2.6560268254
 20
12.7878809613
 10
-2.6463790942
 20
12.8593272518
 10
-2.6355570839
 20
12.9307116815
 10
-2.6235510636
 20
13.0020436539
 10
-2.6103513021
 20
13.0733325722
  0
LINE
  5
305
100
AcDbEntity
  8
0
100
AcDbLine
 62
253
  6
CONTINUOUS
 10
1.8343655001
 20
-12.0835470488
 11
1.8477004998
 21
-14.3751562148
  0
LINE
  5
306
100
AcDbEntity
  8
0
100
AcDbLine
 62
253
  6
CONTINUOUS
 10
0.0874805373
 20
13.7703509053
 11
0.1042022035
 21
10.6300642394
  0
LINE
  5
307
100
AcDbEntity
  8
0
100
AcDbLine
 62
253
  6
CONTINUOUS
 10
0.4573677431
 20
10.6511603505
 11
0.4573677431
 21
13.1976514031
  0
LWPOLYLINE
  5
308
100
AcDbEntity
  8
0
100
AcDbPolyline
 62
253
  6
CONTINUOUS
 90
25
 70
0
 10
-1.4860494152
 20
-13.7165906595
 10
-1.4720935181
 20
-13.6401358991
 10
-1.4593959338
 20
-13.563610351
 10
-1.4479477233
 20
-13.4870038449
 10
-1.4377399479
 20
-13.4103062106
 10
-1.4287636688
 20
-13.3335072778
 10
-1.4210099472
 20
-13.2565968761
 10
-1.4144698441
 20
-13.1795648353
 10
-1.4091344208
 20
-13.1024009852
 10
-1.4049962512
 20
-13.0251028067
 10
-1.4020539597
 20
-12.9476983867
 10
-1.4003076837
 20
-12.8702234633
 10
-1.3997575605
 20
-12.7927137745
 10
-1.4004037271
 20
-12.7152050585
 10
-1.402246321
 20
-12.6377330533
 10
-1.4052854793
 20
-12.5603334972
 10
-1.4095213394
 20
-12.4830421282
 10
-1.4149555582
 20
-12.4058870537
 10
-1.4215958727
 20
-12.3288658588
 10
-1.4294515393
 20
-12.2519684979
 10
-1.4385318148
 20
-12.1751849252
 10
-1.4488459557
 20
-12.0985050952
 10
-1.4604032187
 20
-12.0219189622
 10
-1.4732128604
 20
-11.9454164804
 10
-1.4872841374
 20
-11.8689876044
  0
LWPOLYLINE
  5
309
100
AcDbEntity
  8
0
100
AcDbPolyline
 62
253
  6
CONTINUOUS
 90
44
 70
0
 10
-1.8488107948
 20
-13.6549251039
 10
-1.8515020152
 20
-13.6679603749
 10
-1.8545249555
 20
-13.6808644845
 10
-1.8578753848
 20
-13.6936415167
 10
-1.8615490725
 20
-13.7062955551
 10
-1.8655417876
 20
-13.7188306839
 10
-1.8698492996
 20
-13.7312509868
 10
-1.8744673777
 20
-13.7435605478
 10
-1.8802418308
 20
-13.7577837722
 10
-1.8864254347
 20
-13.7718478316
 10
-1.8930103836
 20
-13.7857387341
 10
-1.8999888717
 20
-13.7994424882
 10
-1.9073530936
 20
-13.8129451022
 10
-1.9150952433
 20
-13.8262325845
 10
-1.9232080855
 20
-13.8392914686
 10
-1.9316866652
 20
-13.8521103897
 10
-1.9405265977
 20
-13.8646785079
 10
-1.9497234982
 20
-13.8769849835
 10
-1.959272982
 20
-13.8890189769
 10
-1.9691706643
 20
-13.9007696483
 10
-1.9794114972
 20
-13.9122259308
 10
-1.9899877795
 20
-13.923375849
 10
-2.0008911469
 20
-13.9342072
 10
-2.0121132349
 20
-13.9447077812
 10
-2.0236456794
 20
-13.9548653898
 10
-2.0354801158
 20
-13.9646678233
 10
-2.0476075881
 20
-13.9741043231
 10
-2.0600167735
 20
-13.9831699077
 10
-2.0726957575
 20
-13.9918610399
 10
-2.0856326255
 20
-14.0001741823
 10
-2.098815463
 20
-14.0081057977
 10
-2.1122323555
 20
-14.0156523488
 10
-2.1258703702
 20
-14.0228097705
 10
-2.1397125014
 20
-14.0295718861
 10
-2.1537407253
 20
-14.0359319912
 10
-2.1679370178
 20
-14.0418833812
 10
-2.1822833552
 20
-14.0474193516
 10
-2.1967617134
 20
-14.0525331979
 10
-2.2113582147
 20
-14.0572187687
 10
-2.2260755652
 20
-14.0614721241
 10
-2.2409206172
 20
-14.0652898776
 10
-2.2559002232
 20
-14.0686686424
 10
-2.2710212353
 20
-14.0716050319
 10
-2.2862905059
 20
-14.0740956594
  0
LWPOLYLINE
  5
30A
100
AcDbEntity
  8
ASSI
100
AcDbPolyline
 62
253
  6
CONTINUOUS
 90
18
 70
0
 10
-11.0968877826
 20
-21.8569977701
 10
-11.0964690212
 20
-21.8562243787
 10
-11.0960514857
 20
-21.8551649139
 10
-11.0956351759
 20
-21.8538193757
 10
-11.0952198457
 20
-21.8521866465
 10
-11.0948057414
 20
-21.8502678439
 10
-11.0943936014
 20
-21.8480663212
 10
-11.0939834364
 20
-21.8455815972
 10
-11.0935752358
 20
-21.842814153
 10
-11.0931697071
 20
-21.8397687857
 10
-11.0927668558
 20
-21.8364450184
 10
-11.0923666764
 20
-21.832843328
 10
-11.0919698598
 20
-21.8289699416
 10
-11.0915764115
 20
-21.8248243868
 10
-11.091186326
 20
-21.820407136
 10
-11.0908002779
 20
-21.8157258345
 10
-11.0904182742
 20
-21.810780025
 10
-11.0896670326
 20
-21.800105271
  0
LINE
  5
30B
100
AcDbEntity
  8
ASSI
100
AcDbLine
 62
7
  6
CONTINUOUS
 10
-8.5876880916
 20
-0.1993687656
 11
-8.325222101
 21
-0.1731881622
  0
LWPOLYLINE
  5
30C
100
AcDbEntity
  8
ASSI
100
AcDbPolyline
 62
253
  6
CONTINUOUS
 90
6
 70
0
 10
-11.0430302747
 20
0.0960952321
 10
-11.0423319811
 20
0.0961629177
 10
-11.0412300422
 20
0.0962303972
 10
-11.0397253493
 20
0.0962976612
 10
-11.0378191238
 20
0.0963647449
 10
-11.0355129048
 20
0.0964315951
  0
LINE
  5
30D
100
AcDbEntity
  8
ASSI
100
AcDbLine
 62
253
  6
CONTINUOUS
 10
-10.7865220574
 20
-0.1534655385
 11
-10.7828328043
 21
-0.1533456786
  0
LINE
  5
30E
100
AcDbEntity
  8
ASSI
100
AcDbLine
 62
253
  6
CONTINUOUS
 10
-10.7828328043
 20
-0.1533456786
 11
-10.7783680759
 21
-0.1532278454
  0
LINE
  5
30F
100
AcDbEntity
  8
ASSI
100
AcDbLine
 62
253
  6
CONTINUOUS
 10
-11.0355129048
 20
0.0964315951
 11
-11.0297081976
 21
0.0965641614
  0
LINE
  5
310
100
AcDbEntity
  8
ASSI
100
AcDbLine
 62
253
  6
CONTINUOUS
 10
-10.7783680759
 20
-0.1532278454
 11
-10.7702516684
 21
-0.1530557458
  0
LINE
  5
311
100
AcDbEntity
  8
ASSI
100
AcDbLine
 62
253
  6
CONTINUOUS
 10
-11.0297081976
 20
0.0965641614
 11
-11.0180580852
 21
0.0967596344
  0
LINE
  5
312
100
AcDbEntity
  8
ASSI
100
AcDbLine
 62
253
  6
CONTINUOUS
 10
-10.7702516684
 20
-0.1530557458
 11
-10.7530916739
 21
-0.1527843431
  0
LINE
  5
313
100
AcDbEntity
  8
ASSI
100
AcDbLine
 62
253
  6
CONTINUOUS
 10
-11.0180580852
 20
0.0967596344
 11
-10.9910183734
 21
0.0970727981
  0
LINE
  5
314
100
AcDbEntity
  8
ASSI
100
AcDbLine
 62
253
  6
CONTINUOUS
 10
-10.7530916739
 20
-0.1527843431
 11
-10.7220417117
 21
-0.1524457166
  0
LINE
  5
315
100
AcDbEntity
  8
ASSI
100
AcDbLine
 62
253
  6
CONTINUOUS
 10
-10.7220417117
 20
-0.1524457166
 11
-10.7010407289
 21
-0.1522785395
  0
LINE
  5
316
100
AcDbEntity
  8
ASSI
100
AcDbLine
 62
253
  6
CONTINUOUS
 10
-10.9910183734
 20
0.0970727981
 11
-10.90075135
 21
0.0976786792
  0
LINE
  5
317
100
AcDbEntity
  8
ASSI
100
AcDbLine
 62
253
  6
CONTINUOUS
 10
-10.90075135
 20
0.0976786792
 11
10.7298499515
 21
0.0977730163
  0
LINE
  5
318
100
AcDbEntity
  8
ASSI
100
AcDbLine
 62
253
  6
CONTINUOUS
 10
10.7298499515
 20
0.0977730163
 11
10.8340607671
 21
0.0971330601
  0
LINE
  5
319
100
AcDbEntity
  8
ASSI
100
AcDbLine
 62
253
  6
CONTINUOUS
 10
10.5505965269
 20
-0.1522785395
 11
10.5945736746
 21
-0.1526821743
  0
LINE
  5
31A
100
AcDbEntity
  8
ASSI
100
AcDbLine
 62
253
  6
CONTINUOUS
 10
10.8340607671
 20
0.0971330601
 11
10.8629579973
 21
0.0968236933
  0
LINE
  5
31B
100
AcDbEntity
  8
ASSI
100
AcDbLine
 62
253
  6
CONTINUOUS
 10
10.5945736746
 20
-0.1526821743
 11
10.613476849
 21
-0.1529446682
  0
LINE
  5
31C
100
AcDbEntity
  8
ASSI
100
AcDbLine
 62
253
  6
CONTINUOUS
 10
10.8629579973
 20
0.0968236933
 11
10.8757701854
 21
0.0966298596
  0
LINE
  5
31D
100
AcDbEntity
  8
ASSI
100
AcDbLine
 62
253
  6
CONTINUOUS
 10
10.613476849
 20
-0.1529446682
 11
10.6254067002
 21
-0.1531698298
  0
LWPOLYLINE
  5
31E
100
AcDbEntity
  8
ASSI
100
AcDbPolyline
 62
253
  6
CONTINUOUS
 90
8
 70
0
 10
10.8757701854
 20
0.0966298596
 10
10.882364339
 20
0.09649807
 10
10.8850687028
 20
0.0964315951
 10
10.8873749218
 20
0.0963647449
 10
10.8892811473
 20
0.0962976612
 10
10.8907858402
 20
0.0962303972
 10
10.8918877791
 20
0.0961629177
 10
10.8925860727
 20
0.0960952321
  0
LINE
  5
31F
100
AcDbEntity
  8
ASSI
100
AcDbLine
 62
253
  6
CONTINUOUS
 10
10.6254067002
 20
-0.1531698298
 11
10.6302530555
 21
-0.153286509
  0
LWPOLYLINE
  5
320
100
AcDbEntity
  8
ASSI
100
AcDbPolyline
 62
253
  6
CONTINUOUS
 90
10
 70
0
 10
10.6302530555
 20
-0.153286509
 10
10.6343300463
 20
-0.1534053556
 10
10.6360778554
 20
-0.1534655385
 10
10.6376277897
 20
-0.1535260812
 10
10.6389793711
 20
-0.1535869854
 10
10.6401330779
 20
-0.1536482495
 10
10.6410861045
 20
-0.153709722
 10
10.6418375161
 20
-0.1537713527
 10
10.6423882476
 20
-0.1538331919
 10
10.6427382991
 20
-0.1538952396
  0
LINE
  5
321
100
AcDbEntity
  8
ASSI
100
AcDbLine
 62
7
  6
CONTINUOUS
 10
8.4372438896
 20
-0.1993687656
 11
8.174777899
 21
-0.1731881622
  0
LWPOLYLINE
  5
322
100
AcDbEntity
  8
0
100
AcDbPolyline
 62
253
  6
CONTINUOUS
 90
25
 70
0
 10
-1.0290258231
 20
13.0733325722
 10
-1.0159925847
 20
13.0025416952
 10
-1.004128073
 20
12.9316667726
 10
-0.9934243993
 20
12.8606980523
 10
-0.9838736749
 20
12.7896257824
 10
-0.9754680113
 20
12.7184402108
 10
-0.9681995199
 20
12.6471315857
 10
-0.9620603121
 20
12.5756901548
 10
-0.9570424992
 20
12.5041061663
 10
-0.9531396042
 20
12.4323771255
 10
-0.9503507965
 20
12.3605295674
 10
-0.9486766568
 20
12.2885972842
 10
-0.9481177662
 20
12.2166140683
 10
-0.9486747054
 20
12.1446137119
 10
-0.9503480555
 20
12.0726300074
 10
-0.9531383971
 20
12.000696747
 10
-0.9570463114
 20
11.9288477232
 10
-0.9620738076
 20
11.8571095281
 10
-0.9682286089
 20
11.7854799543
 10
-0.9755198672
 20
11.7139495943
 10
-0.9839567341
 20
11.6425090407
 10
-0.9935483614
 20
11.5711488858
 10
-1.0043039009
 20
11.4998597223
 10
-1.0162325042
 20
11.4286321426
 10
-1.0293433231
 20
11.3574567393
  0
LINE
  5
323
100
AcDbEntity
  8
0
100
AcDbLine
 62
253
  6
CONTINUOUS
 10
2.3918249229
 20
10.6598386839
 11
2.3750679789
 21
13.8001253498
  0
LINE
  5
324
100
AcDbEntity
  8
0
100
AcDbLine
 62
253
  6
CONTINUOUS
 10
2.2042529907
 20
-12.606575382
 11
2.2021010463
 21
-12.0835470488
  0
LINE
  5
325
100
AcDbEntity
  8
0
100
AcDbLine
 62
253
  6
CONTINUOUS
 10
2.0217607706
 20
13.7796289609
 11
2.0217607706
 21
11.2328202957
  0
LINE
  5
326
100
AcDbEntity
  8
0
100
AcDbLine
 62
253
  6
CONTINUOUS
 10
2.2021010463
 20
-14.3584345482
 11
2.2042529907
 21
-12.9786501041
  0
LWPOLYLINE
  5
327
100
AcDbEntity
  8
0
100
AcDbPolyline
 62
253
  6
CONTINUOUS
 90
55
 70
0
 10
2.2021010463
 20
-12.0835470488
 10
2.2023469708
 20
-12.0679547071
 10
2.2030817219
 20
-12.052476452
 10
2.2043007665
 20
-12.037071074
 10
2.2059995712
 20
-12.0216973635
 10
2.2081736026
 20
-12.0063141109
 10
2.2108208412
 20
-11.9908876953
 10
2.213949321
 20
-11.9754148497
 10
2.21756959
 20
-11.9598998961
 10
2.2216921959
 20
-11.944347156
 10
2.2263276866
 20
-11.9287609513
 10
2.2314851791
 20
-11.9131504678
 10
2.237168067
 20
-11.8975443486
 10
2.2433783132
 20
-11.8819761007
 10
2.2501178805
 20
-11.8664792312
 10
2.257388732
 20
-11.8510872473
 10
2.2638503781
 20
-11.8383701777
 10
2.2706555416
 20
-11.8258003383
 10
2.2777774291
 20
-11.8134288533
 10
2.2851975608
 20
-11.8012936561
 10
2.2929307092
 20
-11.7893799161
 10
2.3009999599
 20
-11.7776596122
 10
2.3094230925
 20
-11.7661133767
 10
2.3181966625
 20
-11.754756457
 10
2.3273119194
 20
-11.7436127541
 10
2.3367601124
 20
-11.7327061692
 10
2.3465324911
 20
-11.7220606033
 10
2.3566203048
 20
-11.7116999575
 10
2.3670123518
 20
-11.7016455014
 10
2.377687626
 20
-11.6919079797
 10
2.3886226699
 20
-11.6824955055
 10
2.3997940261
 20
-11.673416192
 10
2.4111782374
 20
-11.6646781525
 10
2.4227518464
 20
-11.6562895001
 10
2.4345000999
 20
-11.6482531981
 10
2.4464430613
 20
-11.6405516098
 10
2.4586094984
 20
-11.6331619484
 10
2.4710143185
 20
-11.6260699566
 10
2.483616988
 20
-11.6192954935
 10
2.4963631129
 20
-11.6128669472
 10
2.5117808793
 20
-11.6056406644
 10
2.5272907536
 20
-11.598950787
 10
2.5428565949
 20
-11.5927947208
 10
2.5584422623
 20
-11.5871698719
 10
2.5740116151
 20
-11.5820736461
 10
2.5895340984
 20
-11.5775018045
 10
2.6050015022
 20
-11.5734435291
 10
2.6204112022
 20
-11.569886357
 10
2.6357605743
 20
-11.5668178252
 10
2.6510469945
 20
-11.564225471
 10
2.6662751098
 20
-11.5620994397
 10
2.6814786518
 20
-11.5604403108
 10
2.6966986233
 20
-11.559251272
 10
2.7119760272
 20
-11.558535511
 10
2.7273518662
 20
-11.5582962156
  0
LINE
  5
328
100
AcDbEntity
  8
ASSI
100
AcDbLine
 62
253
  6
CONTINUOUS
 10
-11.1989147916
 20
-22.0101160733
 11
-11.0968877826
 21
-21.8569977701
  0
LINE
  5
329
100
AcDbEntity
  8
ASSI
100
AcDbLine
 62
253
  6
CONTINUOUS
 10
-10.6980039062
 20
-22.5076067061
 11
-10.5971923691
 21
-22.3563125375
  0
LINE
  5
32A
100
AcDbEntity
  8
ASSI
100
AcDbLine
 62
253
  6
CONTINUOUS
 10
-10.9751458993
 20
-0.1993687656
 11
-10.7931825011
 21
-0.1538952396
  0
LINE
  5
32B
100
AcDbEntity
  8
ASSI
100
AcDbLine
 62
253
  6
CONTINUOUS
 10
-11.225222101
 20
0.0505646132
 11
-11.0430302747
 21
0.0960952244
  0
LWPOLYLINE
  5
32C
100
AcDbEntity
  8
ASSI
100
AcDbPolyline
 62
253
  6
CONTINUOUS
 90
8
 70
0
 10
-10.7931825011
 20
-0.1538952396
 10
-10.7928324496
 20
-0.1538331919
 10
-10.7922817181
 20
-0.1537713527
 10
-10.7915303065
 20
-0.153709722
 10
-10.7905772798
 20
-0.1536482495
 10
-10.7894235731
 20
-0.1535869854
 10
-10.7880719917
 20
-0.1535260812
 10
-10.7865220574
 20
-0.1534655385
  0
LINE
  5
32D
100
AcDbEntity
  8
ASSI
100
AcDbLine
 62
253
  6
CONTINUOUS
 10
10.6427382991
 20
-0.1538952396
 11
10.8247016973
 21
-0.1993687656
  0
LINE
  5
32E
100
AcDbEntity
  8
ASSI
100
AcDbLine
 62
253
  6
CONTINUOUS
 10
10.8925860727
 20
0.0960952244
 11
11.074777899
 21
0.0505646132
  0
LINE
  5
32F
100
AcDbEntity
  8
ASSI
100
AcDbLine
 62
253
  6
CONTINUOUS
 10
-11.0968877826
 20
21.258260239
 11
-11.1989147916
 21
21.4113785422
  0
LINE
  5
330
100
AcDbEntity
  8
ASSI
100
AcDbLine
 62
253
  6
CONTINUOUS
 10
-10.5971923691
 20
21.7575750063
 11
-10.6980039062
 21
21.908869175
  0
LWPOLYLINE
  5
331
100
AcDbEntity
  8
0
100
AcDbPolyline
 62
253
  6
CONTINUOUS
 90
43
 70
0
 10
-0.6681341657
 20
13.1427592388
 10
-0.6735055355
 20
13.1685024612
 10
-0.6796278467
 20
13.1939610536
 10
-0.6864938697
 20
13.2191467099
 10
-0.6940963749
 20
13.2440711238
 10
-0.7024281326
 20
13.2687459892
 10
-0.7114819133
 20
13.2931829999
 10
-0.7212494793
 20
13.3173871936
 10
-0.7317185613
 20
13.3413369846
 10
-0.7428758817
 20
13.365004131
 10
-0.7547081632
 20
13.3883603911
 10
-0.7672021285
 20
13.4113775229
 10
-0.7803444999
 20
13.4340272848
 10
-0.7941231262
 20
13.4562829469
 10
-0.8085303596
 20
13.4781238273
 10
-0.8235596785
 20
13.499530756
 10
-0.8392045613
 20
13.5204845631
 10
-0.8554584861
 20
13.5409660787
 10
-0.8723149314
 20
13.5609561328
 10
-0.889765535
 20
13.5804358848
 10
-0.9077945726
 20
13.5993878108
 10
-0.9263844795
 20
13.6177947164
 10
-0.945517691
 20
13.6356394069
 10
-0.9651766423
 20
13.6529046879
 10
-0.9853437687
 20
13.6695733647
 10
-1.0060012633
 20
13.6856300668
 10
-1.0271303511
 20
13.70106672
 10
-1.0487120147
 20
13.715877074
 10
-1.0707272371
 20
13.7300548785
 10
-1.0931570009
 20
13.7435938831
 10
-1.115982289
 20
13.7564878377
 10
-1.1391821214
 20
13.7687293432
 10
-1.1627276674
 20
13.7803064057
 10
-1.1865881336
 20
13.7912058822
 10
-1.2107327265
 20
13.8014146302
 10
-1.2351306528
 20
13.8109195067
 10
-1.259751119
 20
13.8197073691
 10
-1.2845704724
 20
13.8277660504
 10
-1.3095936223
 20
13.8350872865
 10
-1.3348326191
 20
13.8416637894
 10
-1.3602995127
 20
13.8474882708
 10
-1.3860063534
 20
13.8525534425
 10
-1.4119651913
 20
13.8568520164
  0
LWPOLYLINE
  5
332
100
AcDbEntity
  8
0
100
AcDbPolyline
 62
253
  6
CONTINUOUS
 90
31
 70
0
 10
1.1823263501
 20
-12.9631631596
 10
1.1849830355
 20
-12.9509091351
 10
1.1874069883
 20
-12.9386816855
 10
1.1896010021
 20
-12.9264630304
 10
1.19156787
 20
-12.9142353892
 10
1.1933103856
 20
-12.9019809815
 10
1.1948313423
 20
-12.8896820267
 10
1.1961335332
 20
-12.8773207444
 10
1.1972183496
 20
-12.8648834475
 10
1.1980815723
 20
-12.8523728218
 10
1.1987175802
 20
-12.8397956469
 10
1.199120752
 20
-12.8271587021
 10
1.1992854664
 20
-12.8144687668
 10
1.1992061019
 20
-12.8017326204
 10
1.1988770375
 20
-12.7889570421
 10
1.1983799554
 20
-12.7777513993
 10
1.1976842302
 20
-12.7665253288
 10
1.1967866992
 20
-12.7552834023
 10
1.1956841995
 20
-12.7440301917
 10
1.1943735685
 20
-12.7327702688
 10
1.1928516435
 20
-12.7215082053
 10
1.1911152617
 20
-12.710248573
 10
1.1891612604
 20
-12.6989959437
 10
1.1869870417
 20
-12.6877529107
 10
1.184592268
 20
-12.6765141529
 10
1.1819771662
 20
-12.6652723706
 10
1.1791419633
 20
-12.6540202641
 10
1.1760868866
 20
-12.6427505339
 10
1.172812163
 20
-12.6314558803
 10
1.1693180198
 20
-12.6201290036
 10
1.1656046838
 20
-12.6087626042
  0
LWPOLYLINE
  5
333
100
AcDbEntity
  8
0
100
AcDbPolyline
 62
253
  6
CONTINUOUS
 90
31
 70
0
 10
1.1823263501
 20
-11.5446437156
 10
1.1849811336
 20
-11.5324308691
 10
1.187402917
 20
-11.5202422219
 10
1.1895945283
 20
-11.5080600258
 10
1.1915587955
 20
-11.4958665323
 10
1.1932985466
 20
-11.4836439931
 10
1.1948166097
 20
-11.4713746597
 10
1.1961158127
 20
-11.4590407837
 10
1.1971975793
 20
-11.4466287066
 10
1.198057716
 20
-11.4341411287
 10
1.198690625
 20
-11.4215848403
 10
1.1990907083
 20
-11.4089666315
 10
1.1992523681
 20
-11.3962932924
 10
1.1991700066
 20
-11.3835716134
 10
1.198838026
 20
-11.3708083846
 10
1.1983384798
 20
-11.3596118226
 10
1.1976404032
 20
-11.3483932515
 10
1.1967406658
 20
-11.337157275
 10
1.1956361379
 20
-11.3259084967
 10
1.1943236893
 20
-11.3146515202
 10
1.1928001899
 20
-11.3033909494
 10
1.1910625098
 20
-11.2921313879
 10
1.1891075189
 20
-11.2808774394
 10
1.1869327432
 20
-11.2696316769
 10
1.1845383328
 20
-11.2583885508
 10
1.1819250938
 20
-11.2471404807
 10
1.1790938323
 20
-11.2358798863
 10
1.1760453545
 20
-11.2245991874
 10
1.1727804664
 20
-11.2132908036
 10
1.1692999741
 20
-11.2019471546
 10
1.1656046838
 20
-11.1905606601
  0
LWPOLYLINE
  5
334
100
AcDbEntity
  8
ASSI
100
AcDbPolyline
 62
253
  6
CONTINUOUS
 90
13
 70
0
 10
10.4467481671
 20
21.7575750063
 10
10.4463293041
 20
21.756030233
 10
10.4459116971
 20
21.7539103993
 10
10.445495346
 20
21.7512167355
 10
10.4450800168
 20
21.7479508089
 10
10.4446659436
 20
21.7441145066
 10
10.4442538289
 20
21.7397100244
 10
10.443843668
 20
21.7347398844
 10
10.4434354657
 20
21.7292069652
 10
10.4430299378
 20
21.7231144852
 10
10.4426270941
 20
21.7164659787
 10
10.442226925
 20
21.7092652744
 10
10.4414366761
 20
21.6932241704
  0
LWPOLYLINE
  5
335
100
AcDbEntity
  8
0
100
AcDbPolyline
 62
253
  6
CONTINUOUS
 90
31
 70
0
 10
3.7890012836
 20
-12.9631631596
 10
3.7916550267
 20
-12.9509055277
 10
3.7940761734
 20
-12.9386746586
 10
3.7962675068
 20
-12.926452795
 10
3.7982318099
 20
-12.9142221794
 10
3.7999718659
 20
-12.9019650544
 10
3.801490458
 20
-12.8896636627
 10
3.802790369
 20
-12.877300247
 10
3.8038729829
 20
-12.8648611381
 10
3.8047340858
 20
-12.8523490213
 10
3.8053680646
 20
-12.8397706699
 10
3.8057693061
 20
-12.8271328574
 10
3.8059321973
 20
-12.8144423572
 10
3.8058511248
 20
-12.8017059429
 10
3.8055204757
 20
-12.7889303879
 10
3.805022115
 20
-12.777724999
 10
3.8043252191
 20
-12.7664993936
 10
3.8034266328
 20
-12.7552581363
 10
3.8023232005
 20
-12.7440057918
 10
3.801011767
 20
-12.7327469248
 10
3.7994891768
 20
-12.7214860999
 10
3.7977522746
 20
-12.7102278818
 10
3.7957979049
 20
-12.6989768352
 10
3.7936234766
 20
-12.6877355485
 10
3.7912286552
 20
-12.6764987056
 10
3.7886136705
 20
-12.6652590144
 10
3.7857787522
 20
-12.6540091826
 10
3.7827241303
 20
-12.6427419179
 10
3.7794500343
 20
-12.6314499281
 10
3.7759566942
 20
-12.6201259209
 10
3.7722443396
 20
-12.6087626042
  0
LWPOLYLINE
  5
336
100
AcDbEntity
  8
0
100
AcDbPolyline
 62
253
  6
CONTINUOUS
 90
31
 70
0
 10
3.7890012836
 20
-11.5446437156
 10
3.7916531161
 20
-11.5324273228
 10
3.794072086
 20
-11.5202353134
 10
3.796261011
 20
-11.508049962
 10
3.798222709
 20
-11.4958535433
 10
3.7999599977
 20
-11.4836283318
 10
3.8014756948
 20
-11.471356602
 10
3.802772618
 20
-11.4590206287
 10
3.8038521839
 20
-11.4466067713
 10
3.8047102039
 20
-11.4341177292
 10
3.805341088
 20
-11.4215602865
 10
3.8057392465
 20
-11.4089412275
 10
3.8058990895
 20
-11.3962673365
 10
3.805815027
 20
-11.3835453977
 10
3.8054814694
 20
-11.3707821953
 10
3.8049806517
 20
-11.3595858861
 10
3.8042814116
 20
-11.3483677751
 10
3.8033806262
 20
-11.3371324589
 10
3.8022751727
 20
-11.325884534
 10
3.8009619281
 20
-11.3146285968
 10
3.7994377697
 20
-11.3033692438
 10
3.7976995745
 20
-11.2921110716
 10
3.7957442197
 20
-11.2808586766
 10
3.7935692375
 20
-11.2696146272
 10
3.7911747811
 20
-11.258373379
 10
3.7885616584
 20
-11.2471273598
 10
3.7857306778
 20
-11.2358689968
 10
3.7826826475
 20
-11.2245907179
 10
3.7794183755
 20
-11.2132849504
 10
3.7759386702
 20
-11.2019441219
 10
3.7722443396
 20
-11.1905606601
  0
LINE
  5
337
100
AcDbEntity
  8
0
100
AcDbLine
 62
253
  6
CONTINUOUS
 10
0.4564508057
 20
13.197651461
 11
1.9596016006
 21
10.6393775728
  0
LINE
  5
338
100
AcDbEntity
  8
0
100
AcDbLine
 62
253
  6
CONTINUOUS
 10
2.0225371546
 20
11.2328203504
 11
0.5193863596
 21
13.7917292386
  0
LWPOLYLINE
  5
339
100
AcDbEntity
  8
ASSI
100
AcDbPolyline
 62
253
  6
CONTINUOUS
 90
17
 70
0
 10
10.9399740722
 20
-21.810780025
 10
10.9403560759
 20
-21.8157258345
 10
10.940742124
 20
-21.820407136
 10
10.9411322095
 20
-21.8248243868
 10
10.9415256578
 20
-21.8289699416
 10
10.9419224744
 20
-21.832843328
 10
10.9423226538
 20
-21.8364450184
 10
10.9427255052
 20
-21.8397687857
 10
10.9431310338
 20
-21.842814153
 10
10.9435392344
 20
-21.8455815972
 10
10.9439493995
 20
-21.8480663212
 10
10.9443615394
 20
-21.8502678439
 10
10.9447756437
 20
-21.8521866465
 10
10.9451909739
 20
-21.8538193757
 10
10.9456072837
 20
-21.8551649139
 10
10.9460248192
 20
-21.8562243787
 10
10.9464435806
 20
-21.8569977701
  0
LINE
  5
33A
100
AcDbEntity
  8
ASSI
100
AcDbLine
 62
253
  6
CONTINUOUS
 10
10.9392228306
 20
-21.800105271
 11
10.9399740722
 21
-21.810780025
  0
LINE
  5
33B
100
AcDbEntity
  8
ASSI
100
AcDbLine
 62
253
  6
CONTINUOUS
 10
10.938490369
 20
-21.7884095003
 11
10.9392228306
 21
-21.800105271
  0
LWPOLYLINE
  5
33C
100
AcDbEntity
  8
ASSI
100
AcDbPolyline
 62
253
  6
CONTINUOUS
 90
11
 70
0
 10
10.4426270941
 20
-22.3152035099
 10
10.4430299378
 20
-22.3218520163
 10
10.4434354657
 20
-22.3279444964
 10
10.443843668
 20
-22.3334774156
 10
10.4442538289
 20
-22.3384475555
 10
10.4446659436
 20
-22.3428520377
 10
10.4450800168
 20
-22.3466883401
 10
10.445495346
 20
-22.3499542667
 10
10.4459116971
 20
-22.3526479304
 10
10.4463293041
 20
-22.3547677641
 10
10.4467481671
 20
-22.3563125375
  0
LINE
  5
33D
100
AcDbEntity
  8
ASSI
100
AcDbLine
 62
253
  6
CONTINUOUS
 10
10.9377785676
 20
-21.775724205
 11
10.938490369
 21
-21.7884095003
  0
LINE
  5
33E
100
AcDbEntity
  8
ASSI
100
AcDbLine
 62
253
  6
CONTINUOUS
 10
10.4418301177
 20
-22.3002540481
 11
10.4426270941
 21
-22.3152035099
  0
LINE
  5
33F
100
AcDbEntity
  8
ASSI
100
AcDbLine
 62
253
  6
CONTINUOUS
 10
10.9370886564
 20
-21.7620713271
 11
10.9377785676
 21
-21.775724205
  0
LINE
  5
340
100
AcDbEntity
  8
ASSI
100
AcDbLine
 62
253
  6
CONTINUOUS
 10
10.9364224483
 20
-21.7474852676
 11
10.9370886564
 21
-21.7620713271
  0
LINE
  5
341
100
AcDbEntity
  8
ASSI
100
AcDbLine
 62
253
  6
CONTINUOUS
 10
10.4410465963
 20
-22.2831305586
 11
10.4418301177
 21
-22.3002540481
  0
LINE
  5
342
100
AcDbEntity
  8
ASSI
100
AcDbLine
 62
253
  6
CONTINUOUS
 10
10.935781647
 20
-21.732004936
 11
10.9364224483
 21
-21.7474852676
  0
LINE
  5
343
100
AcDbEntity
  8
ASSI
100
AcDbLine
 62
253
  6
CONTINUOUS
 10
10.4402785575
 20
-22.2638726066
 11
10.4410465963
 21
-22.2831305586
  0
LINE
  5
344
100
AcDbEntity
  8
ASSI
100
AcDbLine
 62
253
  6
CONTINUOUS
 10
10.4391587605
 20
-22.2310821743
 11
10.4402785575
 21
-22.2638726066
  0
LINE
  5
345
100
AcDbEntity
  8
ASSI
100
AcDbLine
 62
253
  6
CONTINUOUS
 10
10.438083093
 20
-22.1937607728
 11
10.4391587605
 21
-22.2310821743
  0
LINE
  5
346
100
AcDbEntity
  8
ASSI
100
AcDbLine
 62
253
  6
CONTINUOUS
 10
10.4367269981
 20
-22.1372889599
 11
10.438083093
 21
-22.1937607728
  0
LWPOLYLINE
  5
347
100
AcDbEntity
  8
ASSI
100
AcDbPolyline
 62
253
  6
CONTINUOUS
 90
3
 70
0
 10
10.43488579
 20
-22.0392869662
 10
10.4351753468
 20
-22.0566601236
 10
10.4367269981
 20
-22.1372889599
  0
LINE
  5
348
100
AcDbEntity
  8
ASSI
100
AcDbLine
 62
253
  6
CONTINUOUS
 10
10.4364033517
 20
21.5232886673
 11
10.43488579
 21
21.4405494351
  0
LINE
  5
349
100
AcDbEntity
  8
ASSI
100
AcDbLine
 62
253
  6
CONTINUOUS
 10
10.4377351833
 20
21.581608749
 11
10.4364033517
 21
21.5232886673
  0
LINE
  5
34A
100
AcDbEntity
  8
ASSI
100
AcDbLine
 62
253
  6
CONTINUOUS
 10
10.4387948815
 20
21.6203985126
 11
10.4377351833
 21
21.581608749
  0
LINE
  5
34B
100
AcDbEntity
  8
ASSI
100
AcDbLine
 62
253
  6
CONTINUOUS
 10
10.4399005984
 20
21.6547193821
 11
10.4387948815
 21
21.6203985126
  0
LINE
  5
34C
100
AcDbEntity
  8
ASSI
100
AcDbLine
 62
253
  6
CONTINUOUS
 10
10.4406605542
 20
21.6750281937
 11
10.4399005984
 21
21.6547193821
  0
LINE
  5
34D
100
AcDbEntity
  8
ASSI
100
AcDbLine
 62
253
  6
CONTINUOUS
 10
10.4414366761
 20
21.6932241704
 11
10.4406605542
 21
21.6750281937
  0
LINE
  5
34E
100
AcDbEntity
  8
ASSI
100
AcDbLine
 62
253
  6
CONTINUOUS
 10
10.9367525919
 20
21.1561573119
 11
10.935781647
 21
21.1332674048
  0
LINE
  5
34F
100
AcDbEntity
  8
ASSI
100
AcDbLine
 62
253
  6
CONTINUOUS
 10
10.9374306516
 20
21.1702767806
 11
10.9367525919
 21
21.1561573119
  0
LINE
  5
350
100
AcDbEntity
  8
ASSI
100
AcDbLine
 62
253
  6
CONTINUOUS
 10
10.9381318035
 20
21.1834518763
 11
10.9374306516
 21
21.1702767806
  0
LINE
  5
351
100
AcDbEntity
  8
ASSI
100
AcDbLine
 62
253
  6
CONTINUOUS
 10
10.9388542543
 20
21.1956473712
 11
10.9381318035
 21
21.1834518763
  0
LINE
  5
352
100
AcDbEntity
  8
ASSI
100
AcDbLine
 62
253
  6
CONTINUOUS
 10
-11.0165458171
 20
9.1940570058
 11
-11.006097485
 21
9.1945664829
  0
LINE
  5
353
100
AcDbEntity
  8
ASSI
100
AcDbLine
 62
253
  6
CONTINUOUS
 10
-11.006097485
 20
9.1945664829
 11
-10.9941622679
 21
9.1950648468
  0
LINE
  5
354
100
AcDbEntity
  8
ASSI
100
AcDbLine
 62
253
  6
CONTINUOUS
 10
-10.9941622679
 20
9.1950648468
 11
-10.9807787767
 21
9.1955504854
  0
LINE
  5
355
100
AcDbEntity
  8
ASSI
100
AcDbLine
 62
253
  6
CONTINUOUS
 10
-10.9807787767
 20
9.1955504854
 11
-10.9580839829
 21
9.1962516589
  0
LINE
  5
356
100
AcDbEntity
  8
ASSI
100
AcDbLine
 62
253
  6
CONTINUOUS
 10
-10.9580839829
 20
9.1962516589
 11
-10.9231970761
 21
9.1971277564
  0
LINE
  5
357
100
AcDbEntity
  8
ASSI
100
AcDbLine
 62
253
  6
CONTINUOUS
 10
-10.9231970761
 20
9.1971277564
 11
-10.8727977523
 21
9.1981126134
  0
LINE
  5
358
100
AcDbEntity
  8
ASSI
100
AcDbLine
 62
253
  6
CONTINUOUS
 10
-10.8727977523
 20
9.1981126134
 11
-10.8037208932
 21
9.1991068256
  0
LINE
  5
359
100
AcDbEntity
  8
ASSI
100
AcDbLine
 62
253
  6
CONTINUOUS
 10
-10.8037208932
 20
9.1991068256
 11
-10.7138390393
 21
9.199972222
  0
LINE
  5
35A
100
AcDbEntity
  8
ASSI
100
AcDbLine
 62
253
  6
CONTINUOUS
 10
-10.7138390393
 20
9.199972222
 11
-10.6032404487
 21
9.2005321637
  0
LINE
  5
35B
100
AcDbEntity
  8
ASSI
100
AcDbLine
 62
253
  6
CONTINUOUS
 10
-10.6032404487
 20
9.2005321637
 11
10.3960338575
 21
9.2006312344
  0
LINE
  5
35C
100
AcDbEntity
  8
ASSI
100
AcDbLine
 62
253
  6
CONTINUOUS
 10
10.5088247166
 20
9.2003115421
 11
10.3960338575
 21
9.2006312344
  0
LINE
  5
35D
100
AcDbEntity
  8
ASSI
100
AcDbLine
 62
253
  6
CONTINUOUS
 10
10.6158010349
 20
9.1995185909
 11
10.5088247166
 21
9.2003115421
  0
LINE
  5
35E
100
AcDbEntity
  8
ASSI
100
AcDbLine
 62
253
  6
CONTINUOUS
 10
10.6888805521
 20
9.198637027
 11
10.6158010349
 21
9.1995185909
  0
LINE
  5
35F
100
AcDbEntity
  8
ASSI
100
AcDbLine
 62
253
  6
CONTINUOUS
 10
10.7433641
 20
9.1977345316
 11
10.6888805521
 21
9.198637027
  0
LINE
  5
360
100
AcDbEntity
  8
ASSI
100
AcDbLine
 62
253
  6
CONTINUOUS
 10
10.7819499878
 20
9.1969155743
 11
10.7433641
 21
9.1977345316
  0
LINE
  5
361
100
AcDbEntity
  8
ASSI
100
AcDbLine
 62
253
  6
CONTINUOUS
 10
10.8076397809
 20
9.1962516589
 11
10.7819499878
 21
9.1969155743
  0
LINE
  5
362
100
AcDbEntity
  8
ASSI
100
AcDbLine
 62
253
  6
CONTINUOUS
 10
10.8303345747
 20
9.1955504854
 11
10.8076397809
 21
9.1962516589
  0
LINE
  5
363
100
AcDbEntity
  8
ASSI
100
AcDbLine
 62
253
  6
CONTINUOUS
 10
10.8437180659
 20
9.1950648468
 11
10.8303345747
 21
9.1955504854
  0
LINE
  5
364
100
AcDbEntity
  8
ASSI
100
AcDbLine
 62
253
  6
CONTINUOUS
 10
10.8556532831
 20
9.1945664829
 11
10.8437180659
 21
9.1950648468
  0
LINE
  5
365
100
AcDbEntity
  8
ASSI
100
AcDbLine
 62
253
  6
CONTINUOUS
 10
10.9348707701
 20
-21.7071733599
 11
10.935781647
 21
-21.732004936
  0
LINE
  5
366
100
AcDbEntity
  8
ASSI
100
AcDbLine
 62
253
  6
CONTINUOUS
 10
10.9340246838
 20
-21.6805290055
 11
10.9348707701
 21
-21.7071733599
  0
LINE
  5
367
100
AcDbEntity
  8
ASSI
100
AcDbLine
 62
253
  6
CONTINUOUS
 10
10.9330047939
 20
-21.6424198422
 11
10.9340246838
 21
-21.6805290055
  0
LINE
  5
368
100
AcDbEntity
  8
ASSI
100
AcDbLine
 62
253
  6
CONTINUOUS
 10
10.9321173749
 20
-21.6016919116
 11
10.9330047939
 21
-21.6424198422
  0
LWPOLYLINE
  5
369
100
AcDbEntity
  8
ASSI
100
AcDbPolyline
 62
253
  6
CONTINUOUS
 90
46
 70
0
 10
10.8925860058
 20
-0.6948327723
 10
10.8924312093
 20
-0.6861099204
 10
10.8919723183
 20
-0.6773976919
 10
10.8912098918
 20
-0.6687066971
 10
10.8901448583
 20
-0.6600475205
 10
10.8887785148
 20
-0.651430708
 10
10.8871125254
 20
-0.6428667537
 10
10.885148919
 20
-0.6343660875
 10
10.8828900871
 20
-0.6259390621
 10
10.8803387807
 20
-0.6175959405
 10
10.8774981069
 20
-0.6093468837
 10
10.8743715254
 20
-0.6012019379
 10
10.8709628438
 20
-0.5931710226
 10
10.8672762135
 20
-0.5852639185
 10
10.8633161244
 20
-0.5774902555
 10
10.8590873994
 20
-0.5698595008
 10
10.8545951886
 20
-0.5623809478
 10
10.8498449628
 20
-0.5550637045
 10
10.8448425073
 20
-0.5479166822
 10
10.8395939144
 20
-0.5409485851
 10
10.8341055763
 20
-0.5341678996
 10
10.828384177
 20
-0.5275828836
 10
10.8224366845
 20
-0.5212015569
 10
10.8162703421
 20
-0.5150316911
 10
10.8098926596
 20
-0.5090808003
 10
10.8033114042
 20
-0.5033561319
 10
10.7965345912
 20
-0.4978646579
 10
10.7895704737
 20
-0.4926130662
 10
10.7824275332
 20
-0.4876077525
 10
10.7751144689
 20
-0.4828548127
 10
10.7676401871
 20
-0.4783600353
 10
10.7600137907
 20
-0.4741288944
 10
10.7522445676
 20
-0.4701665428
 10
10.7443419797
 20
-0.4664778064
 10
10.7363156515
 20
-0.4630671774
 10
10.7281753578
 20
-0.4599388096
 10
10.7199310127
 20
-0.457096513
 10
10.7115926566
 20
-0.4545437491
 10
10.7031704446
 20
-0.4522836268
 10
10.694674634
 20
-0.4503188987
 10
10.6861155715
 20
-0.4486519576
 10
10.6775036809
 20
-0.4472848336
 10
10.6688494506
 20
-0.4462191917
 10
10.6601634202
 20
-0.4454563296
 10
10.6514561683
 20
-0.4449971765
 10
10.6427382991
 20
-0.4448422916
  0
LWPOLYLINE
  5
36A
100
AcDbEntity
  8
ASSI
100
AcDbPolyline
 62
253
  6
CONTINUOUS
 90
55
 70
0
 10
10.9464435806
 20
21.258260239
 10
10.9462061612
 20
21.2727658107
 10
10.9455471326
 20
21.2872591378
 10
10.9444670512
 20
21.301727986
 10
10.9429668285
 20
21.3161601416
 10
10.9410477312
 20
21.330543422
 10
10.938711379
 20
21.3448656858
 10
10.9359597443
 20
21.359114843
 10
10.9327951497
 20
21.3732788655
 10
10.9292202666
 20
21.3873457969
 10
10.9252381127
 20
21.4013037629
 10
10.9208520494
 20
21.4151409811
 10
10.9160657792
 20
21.428845771
 10
10.9108833422
 20
21.442406564
 10
10.9053091133
 20
21.4558119129
 10
10.8993477977
 20
21.4690505019
 10
10.8930044277
 20
21.4821111558
 10
10.8862843577
 20
21.4949828496
 10
10.8791932606
 20
21.507654718
 10
10.8717371222
 20
21.5201160642
 10
10.8639222363
 20
21.5323563691
 10
10.8557551998
 20
21.5443653003
 10
10.8472429068
 20
21.5561327207
 10
10.8383925428
 20
21.5676486969
 10
10.8292115787
 20
21.5789035081
 10
10.8197077644
 20
21.5898876535
 10
10.8098891224
 20
21.6005918612
 10
10.799763941
 20
21.6110070952
 10
10.7893407672
 20
21.6211245639
 10
10.7786283995
 20
21.6309357267
 10
10.7676358805
 20
21.6404323016
 10
10.7563724895
 20
21.6496062723
 10
10.7448477342
 20
21.6584498947
 10
10.7330713431
 20
21.6669557037
 10
10.721053257
 20
21.6751165191
 10
10.7088036208
 20
21.6829254522
 10
10.6963327748
 20
21.6903759112
 10
10.6836512461
 20
21.6974616069
 10
10.6707697396
 20
21.7041765581
 10
10.6576991289
 20
21.7105150963
 10
10.6444504475
 20
21.7164718711
 10
10.631034879
 20
21.7220418541
 10
10.6174637478
 20
21.7272203435
 10
10.6037485099
 20
21.7320029681
 10
10.5899007428
 20
21.7363856905
 10
10.5759321358
 20
21.7403648112
 10
10.5618544803
 20
21.7439369713
 10
10.5476796596
 20
21.7470991555
 10
10.5334196393
 20
21.7498486943
 10
10.5190864568
 20
21.7521832669
 10
10.504692211
 20
21.7541009025
 10
10.4902490527
 20
21.7555999824
 10
10.4757691739
 20
21.7566792412
 10
10.4612647975
 20
21.7573377678
 10
10.4467481671
 20
21.7575750063
  0
LINE
  5
36B
100
AcDbEntity
  8
ASSI
100
AcDbLine
 62
253
  6
CONTINUOUS
 10
10.931206459
 20
-21.5476609054
 11
10.9321173749
 21
-21.6016919116
  0
LINE
  5
36C
100
AcDbEntity
  8
ASSI
100
AcDbLine
 62
253
  6
CONTINUOUS
 10
10.433074829
 20
-21.9072613457
 11
10.43488579
 21
-22.0392869662
  0
LINE
  5
36D
100
AcDbEntity
  8
ASSI
100
AcDbLine
 62
253
  6
CONTINUOUS
 10
10.9305281671
 20
-21.4909018659
 11
10.931206459
 21
-21.5476609054
  0
LINE
  5
36E
100
AcDbEntity
  8
ASSI
100
AcDbLine
 62
253
  6
CONTINUOUS
 10
10.4313564711
 20
-21.7153298895
 11
10.433074829
 21
-21.9072613457
  0
LINE
  5
36F
100
AcDbEntity
  8
ASSI
100
AcDbLine
 62
253
  6
CONTINUOUS
 10
10.9257279112
 20
-20.5751878602
 11
10.9305281671
 21
-21.4909018659
  0
LINE
  5
370
100
AcDbEntity
  8
ASSI
100
AcDbLine
 62
7
  6
CONTINUOUS
 10
11.0484705896
 20
21.4113785422
 11
11.074777899
 21
12.8006312344
  0
LINE
  5
371
100
AcDbEntity
  8
ASSI
100
AcDbLine
 62
253
  6
CONTINUOUS
 10
10.4303967114
 20
-21.5067651852
 11
10.4313564711
 21
-21.7153298895
  0
LINE
  5
372
100
AcDbEntity
  8
ASSI
100
AcDbLine
 62
253
  6
CONTINUOUS
 10
10.397768291
 20
-11.5404728521
 11
10.4303967114
 21
-21.5067651852
  0
LINE
  5
373
100
AcDbEntity
  8
ASSI
100
AcDbLine
 62
253
  6
CONTINUOUS
 10
10.8964502284
 20
-10.6557175686
 11
10.9257279112
 21
-20.5751878602
  0
LINE
  5
374
100
AcDbEntity
  8
ASSI
100
AcDbLine
 62
253
  6
CONTINUOUS
 10
10.397768291
 20
-11.5404728521
 11
10.3928906451
 21
-0.4469478538
  0
LINE
  5
375
100
AcDbEntity
  8
ASSI
100
AcDbLine
 62
253
  6
CONTINUOUS
 10
10.8925860727
 20
-0.6948327556
 11
10.8964502284
 21
-10.6557175686
  0
LINE
  5
376
100
AcDbEntity
  8
ASSI
100
AcDbLine
 62
7
  6
CONTINUOUS
 10
11.074777899
 20
-0.6493021444
 11
11.074777899
 21
-13.3993687656
  0
LINE
  5
377
100
AcDbEntity
  8
ASSI
100
AcDbLine
 62
7
  6
CONTINUOUS
 10
11.074777899
 20
0.0505646132
 11
11.074777899
 21
12.8006312344
  0
LINE
  5
378
100
AcDbEntity
  8
ASSI
100
AcDbLine
 62
7
  6
CONTINUOUS
 10
11.0484705896
 20
-22.0101160733
 11
11.074777899
 21
-13.3993687656
  0
LINE
  5
379
100
AcDbEntity
  8
ASSI
100
AcDbLine
 62
253
  6
CONTINUOUS
 10
10.4219582422
 20
19.1832306531
 11
10.3928906451
 21
-0.1517896774
  0
LINE
  5
37A
100
AcDbEntity
  8
ASSI
100
AcDbLine
 62
253
  6
CONTINUOUS
 10
10.9236545562
 20
19.5475089811
 11
10.8925860727
 21
0.0960952244
  0
LINE
  5
37B
100
AcDbEntity
  8
ASSI
100
AcDbLine
 62
253
  6
CONTINUOUS
 10
10.9304212823
 20
20.8805503605
 11
10.9236545562
 21
19.5475089811
  0
LINE
  5
37C
100
AcDbEntity
  8
ASSI
100
AcDbLine
 62
253
  6
CONTINUOUS
 10
10.4322218363
 20
21.225868873
 11
10.4219582422
 21
19.1832306531
  0
LINE
  5
37D
100
AcDbEntity
  8
ASSI
100
AcDbLine
 62
253
  6
CONTINUOUS
 10
10.9310518477
 20
20.9377660668
 11
10.9304212823
 21
20.8805503605
  0
LINE
  5
37E
100
AcDbEntity
  8
ASSI
100
AcDbLine
 62
253
  6
CONTINUOUS
 10
10.4340623154
 20
21.3861135541
 11
10.4322218363
 21
21.225868873
  0
LINE
  5
37F
100
AcDbEntity
  8
ASSI
100
AcDbLine
 62
253
  6
CONTINUOUS
 10
10.43488579
 20
21.4405494351
 11
10.4340623154
 21
21.3861135541
  0
LWPOLYLINE
  5
380
100
AcDbEntity
  8
ASSI
100
AcDbPolyline
 62
253
  6
CONTINUOUS
 90
55
 70
0
 10
10.9464435806
 20
-21.8569977701
 10
10.9462061612
 20
-21.8715033422
 10
10.9455471326
 20
-21.8859966696
 10
10.9444670511
 20
-21.9004655181
 10
10.9429668284
 20
-21.914897674
 10
10.941047731
 20
-21.9292809546
 10
10.9387113787
 20
-21.9436032186
 10
10.9359597439
 20
-21.957852376
 10
10.9327951492
 20
-21.9720163987
 10
10.929220266
 20
-21.9860833303
 10
10.9252381119
 20
-22.0000412965
 10
10.9208520485
 20
-22.0138785149
 10
10.9160657782
 20
-22.0275833049
 10
10.9108833411
 20
-22.041144098
 10
10.905309112
 20
-22.0545494471
 10
10.8993477963
 20
-22.0677880361
 10
10.8930044261
 20
-22.0808486901
 10
10.886284356
 20
-22.0937203839
 10
10.8791932588
 20
-22.1063922524
 10
10.8717371202
 20
-22.1188535986
 10
10.8639222342
 20
-22.1310939035
 10
10.8557551976
 20
-22.1431028347
 10
10.8472429045
 20
-22.154870255
 10
10.8383925404
 20
-22.1663862313
 10
10.8292115761
 20
-22.1776410423
 10
10.8197077617
 20
-22.1886251877
 10
10.8098891197
 20
-22.1993293953
 10
10.7997639382
 20
-22.2097446292
 10
10.7893407643
 20
-22.2198620978
 10
10.7786283965
 20
-22.2296732605
 10
10.7676358775
 20
-22.2391698353
 10
10.7563724865
 20
-22.2483438058
 10
10.7448477312
 20
-22.2571874281
 10
10.7330713401
 20
-22.2656932369
 10
10.7210532541
 20
-22.2738540522
 10
10.7088036179
 20
-22.2816629852
 10
10.696332772
 20
-22.2891134441
 10
10.6836512433
 20
-22.2961991396
 10
10.6707697369
 20
-22.3029140906
 10
10.6576991263
 20
-22.3092526287
 10
10.644450445
 20
-22.3152094034
 10
10.6310348766
 20
-22.3207793862
 10
10.6174637456
 20
-22.3259578755
 10
10.6037485078
 20
-22.3307404999
 10
10.5899007408
 20
-22.3351232222
 10
10.575932134
 20
-22.3391023429
 10
10.5618544786
 20
-22.3426745029
 10
10.5476796582
 20
-22.3458366869
 10
10.5334196381
 20
-22.3485862257
 10
10.5190864557
 20
-22.3509207982
 10
10.5046922102
 20
-22.3528384338
 10
10.4902490521
 20
-22.3543375136
 10
10.4757691735
 20
-22.3554167724
 10
10.4612647973
 20
-22.356075299
 10
10.4467481671
 20
-22.3563125375
  0
LWPOLYLINE
  5
381
100
AcDbEntity
  8
ASSI
100
AcDbPolyline
 62
253
  6
CONTINUOUS
 90
46
 70
0
 10
10.8925860058
 20
0.0960952412
 10
10.8924312093
 20
0.0873723897
 10
10.8919723184
 20
0.0786601615
 10
10.8912098919
 20
0.069969167
 10
10.8901448585
 20
0.0613099908
 10
10.8887785151
 20
0.0526931787
 10
10.8871125258
 20
0.0441292248
 10
10.8851489197
 20
0.0356285589
 10
10.882890088
 20
0.0272015338
 10
10.8803387817
 20
0.0188584125
 10
10.8774981082
 20
0.0106093559
 10
10.8743715268
 20
0.0024644103
 10
10.8709628455
 20
-0.0055665047
 10
10.8672762155
 20
-0.0134736086
 10
10.8633161266
 20
-0.0212472715
 10
10.8590874019
 20
-0.0288780261
 10
10.8545951913
 20
-0.036356579
 10
10.8498449658
 20
-0.0436738223
 10
10.8448425105
 20
-0.0508208446
 10
10.8395939179
 20
-0.0577889416
 10
10.83410558
 20
-0.0645696271
 10
10.8283841809
 20
-0.0711546432
 10
10.8224366886
 20
-0.07753597
 10
10.8162703464
 20
-0.083705836
 10
10.809892664
 20
-0.0896567269
 10
10.8033114088
 20
-0.0953813955
 10
10.7965345958
 20
-0.1008728697
 10
10.7895704784
 20
-0.1061244616
 10
10.7824275379
 20
-0.1111297755
 10
10.7751144736
 20
-0.1158827155
 10
10.7676401918
 20
-0.1203774931
 10
10.7600137954
 20
-0.1246086343
 10
10.7522445722
 20
-0.1285709861
 10
10.7443419841
 20
-0.1322597228
 10
10.7363156557
 20
-0.135670352
 10
10.7281753618
 20
-0.1387987201
 10
10.7199310164
 20
-0.1416410169
 10
10.71159266
 20
-0.1441937811
 10
10.7031704478
 20
-0.1464539036
 10
10.6946746367
 20
-0.1484186318
 10
10.6861155738
 20
-0.1500855731
 10
10.6775036829
 20
-0.1514526973
 10
10.6688494521
 20
-0.1525183394
 10
10.6601634212
 20
-0.1532812015
 10
10.6514561688
 20
-0.1537403546
 10
10.6427382991
 20
-0.1538952396
  0
LINE
  5
382
100
AcDbEntity
  8
ASSI
100
AcDbLine
 62
253
  6
CONTINUOUS
 10
10.9319172192
 20
20.9924072841
 11
10.9310518477
 21
20.9377660668
  0
LINE
  5
383
100
AcDbEntity
  8
ASSI
100
AcDbLine
 62
253
  6
CONTINUOUS
 10
10.9327702209
 20
21.0337336122
 11
10.9319172192
 21
20.9924072841
  0
LINE
  5
384
100
AcDbEntity
  8
ASSI
100
AcDbLine
 62
253
  6
CONTINUOUS
 10
10.9337577207
 20
21.0725272474
 11
10.9327702209
 21
21.0337336122
  0
LINE
  5
385
100
AcDbEntity
  8
ASSI
100
AcDbLine
 62
253
  6
CONTINUOUS
 10
10.9345812085
 20
21.0997457649
 11
10.9337577207
 21
21.0725272474
  0
LWPOLYLINE
  5
386
100
AcDbEntity
  8
ASSI
100
AcDbPolyline
 62
253
  6
CONTINUOUS
 90
3
 70
0
 10
10.935781647
 20
21.1332674048
 10
10.9354709893
 20
21.1251966487
 10
10.9345812085
 20
21.0997457649
  0
LWPOLYLINE
  5
387
100
AcDbEntity
  8
0
100
AcDbPolyline
 62
253
  6
CONTINUOUS
 90
43
 70
0
 10
-1.4116485911
 20
10.573937295
 10
-1.3856956703
 20
10.5782152566
 10
-1.3599929552
 20
10.5832041242
 10
-1.3345318958
 20
10.5889148315
 10
-1.3093039422
 20
10.5953583122
 10
-1.2843005442
 20
10.6025455002
 10
-1.2595131518
 20
10.6104873291
 10
-1.2349392855
 20
10.6191899109
 10
-1.210600747
 20
10.6286400711
 10
-1.1865254084
 20
10.6388198134
 10
-1.1627411418
 20
10.6497111416
 10
-1.1392758193
 20
10.6612960594
 10
-1.116157313
 20
10.6735565705
 10
-1.0934115838
 20
10.6864760167
 10
-1.0710569479
 20
10.7000430917
 10
-1.04910981
 20
10.7142478273
 10
-1.027586575
 20
10.7290802554
 10
-1.0065036479
 20
10.7445304075
 10
-0.9858774336
 20
10.7605883156
 10
-0.9657249374
 20
10.7772433852
 10
-0.9460655675
 20
10.7944825175
 10
-0.9269193325
 20
10.8122919874
 10
-0.908306241
 20
10.83065807
 10
-0.8902463018
 20
10.8495670402
 10
-0.8727595235
 20
10.869005173
 10
-0.8558638168
 20
10.8889579818
 10
-0.8395687012
 20
10.9094079326
 10
-0.8238815981
 20
10.9303367303
 10
-0.808809929
 20
10.9517260793
 10
-0.7943611155
 20
10.9735576841
 10
-0.7805425789
 20
10.9958132494
 10
-0.7673627892
 20
11.0184725011
 10
-0.7548344094
 20
11.0415072506
 10
-0.7429711506
 20
11.0648873307
 10
-0.7317867244
 20
11.088582574
 10
-0.721294842
 20
11.1125628135
 10
-0.7115092146
 20
11.1367978818
 10
-0.7024423478
 20
11.1612646707
 10
-0.6941019233
 20
11.1859683079
 10
-0.6864944169
 20
11.2109209801
 10
-0.6796263047
 20
11.2361348738
 10
-0.6735040623
 20
11.2616221758
 10
-0.6681341657
 20
11.2873950726
  0
LWPOLYLINE
  5
388
100
AcDbEntity
  8
0
100
AcDbPolyline
 62
253
  6
CONTINUOUS
 90
22
 70
0
 10
-1.4668583119
 20
10.9376511838
 10
-1.5002733197
 20
10.9328942354
 10
-1.5337181458
 20
10.9286199333
 10
-1.5671976022
 20
10.9248263057
 10
-1.6007165011
 20
10.9215113812
 10
-1.6342796545
 20
10.9186731881
 10
-1.6678918746
 20
10.9163097549
 10
-1.7015579734
 20
10.91441911
 10
-1.7352794146
 20
10.9129996581
 10
-1.7690442679
 20
10.9120513095
 10
-1.8028372545
 20
10.9115743508
 10
-1.8366430957
 20
10.9115690685
 10
-1.8704465125
 20
10.9120357492
 10
-1.9042322264
 20
10.9129746796
 10
-1.9379849585
 20
10.9143861461
 10
-1.9716927591
 20
10.9162708134
 10
-2.0053569954
 20
10.9186308587
 10
-2.0389823636
 20
10.921468837
 10
-2.0725735599
 20
10.9247873035
 10
-2.1061352806
 20
10.9285888134
 10
-2.1396722219
 20
10.9328759218
 10
-2.17318908
 20
10.9376511838
  0
LINE
  5
389
100
AcDbEntity
  8
0
100
AcDbLine
 62
253
  6
CONTINUOUS
 10
-1.4653060898
 20
10.5668464617
 11
-1.4116485911
 21
10.573937295
  0
LWPOLYLINE
  5
38A
100
AcDbEntity
  8
0
100
AcDbPolyline
 62
253
  6
CONTINUOUS
 90
22
 70
0
 10
-2.1744238022
 20
10.5668464617
 10
-2.1408921551
 20
10.5626383919
 10
-2.107331099
 20
10.5588551003
 10
-2.0737367969
 20
10.5554953574
 10
-2.0401054119
 20
10.5525579342
 10
-2.0064331073
 20
10.5500416013
 10
-1.9727160462
 20
10.5479451296
 10
-1.9389503915
 20
10.5462672898
 10
-1.9051349385
 20
10.5450071118
 10
-1.8712790097
 20
10.5441646618
 10
-1.8373945595
 20
10.543740265
 10
-1.8034935423
 20
10.5437342468
 10
-1.7695879127
 20
10.5441469324
 10
-1.7356896252
 20
10.5449786471
 10
-1.7018106341
 20
10.5462297161
 10
-1.6679602815
 20
10.5479007273
 10
-1.6341374594
 20
10.549993318
 10
-1.6003384473
 20
10.5525093882
 10
-1.5665595247
 20
10.5554508378
 10
-1.5327969713
 20
10.5588195666
 10
-1.4990470664
 20
10.5626174746
 10
-1.4653060898
 20
10.5668464617
  0
LINE
  5
38B
100
AcDbEntity
  8
0
100
AcDbLine
 62
253
  6
CONTINUOUS
 10
-2.2283635244
 20
10.573937295
 11
-2.1744238022
 21
10.5668464617
  0
LWPOLYLINE
  5
38C
100
AcDbEntity
  8
0
100
AcDbPolyline
 62
253
  6
CONTINUOUS
 90
44
 70
0
 10
-2.17318908
 20
10.9376511838
 10
-2.1863285895
 20
10.939788683
 10
-2.1993516202
 20
10.9422601247
 10
-2.212262059
 20
10.9450617665
 10
-2.2250637929
 20
10.9481898663
 10
-2.2377607088
 20
10.9516406818
 10
-2.2503566936
 20
10.9554104707
 10
-2.2628556344
 20
10.9594954907
 10
-2.2773167725
 20
10.9646546316
 10
-2.2916363331
 20
10.9702309583
 10
-2.3057995356
 20
10.9762176858
 10
-2.3197915997
 20
10.9826080291
 10
-2.3335977449
 20
10.9893952031
 10
-2.3472031908
 20
10.9965724227
 10
-2.3605936464
 20
11.004133414
 10
-2.3737567781
 20
11.0120739476
 10
-2.3866807414
 20
11.0203903054
 10
-2.3993536922
 20
11.0290787692
 10
-2.4117637861
 20
11.0381356209
 10
-2.4238991788
 20
11.0475571423
 10
-2.435748303
 20
11.0573386081
 10
-2.4473006998
 20
11.0674712648
 10
-2.4585461869
 20
11.0779453518
 10
-2.4694745825
 20
11.0887511087
 10
-2.4800757043
 20
11.0998787747
 10
-2.4903393704
 20
11.1113185894
 10
-2.5002564194
 20
11.1230605937
 10
-2.5098217733
 20
11.1350940357
 10
-2.5190313744
 20
11.1474079649
 10
-2.5278811653
 20
11.1599914308
 10
-2.5363670887
 20
11.1728334831
 10
-2.544485087
 20
11.1859231713
 10
-2.5522304102
 20
11.1992485398
 10
-2.5595955378
 20
11.2127936124
 10
-2.5665722567
 20
11.2265414079
 10
-2.5731523537
 20
11.2404749449
 10
-2.5793276157
 20
11.2545772421
 10
-2.5850898296
 20
11.2688313182
 10
-2.5904314287
 20
11.2832241944
 10
-2.5953474323
 20
11.2977589024
 10
-2.5998335058
 20
11.3124424767
 10
-2.6038853148
 20
11.3272819513
 10
-2.6074985251
 20
11.3422843608
 10
-2.6106688021
 20
11.3574567393
  0
LWPOLYLINE
  5
38D
100
AcDbEntity
  8
0
100
AcDbPolyline
 62
253
  6
CONTINUOUS
 90
31
 70
0
 10
0.1042022035
 20
10.6300642394
 10
0.1165752234
 20
10.6274132048
 10
0.1289078395
 20
10.6250069808
 10
0.1412192678
 20
10.6228423858
 10
0.1535287243
 20
10.6209162382
 10
0.1658554248
 20
10.6192253564
 10
0.1782185853
 20
10.6177665587
 10
0.1906374218
 20
10.6165366635
 10
0.2031266983
 20
10.6155340424
 10
0.2156833715
 20
10.6147632802
 10
0.2282999461
 20
10.614230515
 10
0.2409689268
 20
10.6139418849
 10
0.2536828185
 20
10.6139035279
 10
0.2664341258
 20
10.6141215821
 10
0.2792153535
 20
10.6146021855
 10
0.2904175782
 20
10.6152427483
 10
0.3016319421
 20
10.6160921592
 10
0.3128534156
 20
10.6171535522
 10
0.3240769685
 20
10.6184300618
 10
0.335297571
 20
10.6199248221
 10
0.3465101931
 20
10.6216409675
 10
0.3577098049
 20
10.623581632
 10
0.3688913765
 20
10.6257499502
 10
0.3800522107
 20
10.6281480643
 10
0.391198941
 20
10.6307741498
 10
0.4023405336
 20
10.6336253906
 10
0.4134859548
 20
10.6366989701
 10
0.4246441708
 20
10.6399920722
 10
0.4358241479
 20
10.6435018805
 10
0.4470348522
 20
10.6472255787
 10
0.4582852501
 20
10.6511603505
  0
LWPOLYLINE
  5
38E
100
AcDbEntity
  8
0
100
AcDbPolyline
 62
253
  6
CONTINUOUS
 90
33
 70
0
 10
1.9596016006
 20
10.6393775728
 10
1.9733655625
 20
10.6354187287
 10
1.9871931824
 20
10.6317841568
 10
2.0010842474
 20
10.6284694779
 10
2.0150385446
 20
10.625470313
 10
2.0290558611
 20
10.622782283
 10
2.043135482
 20
10.6204017788
 10
2.0572746842
 20
10.618328271
 10
2.0714702423
 20
10.6165620005
 10
2.0857189313
 20
10.6151032078
 10
2.1000175258
 20
10.6139521337
 10
2.1143627925
 20
10.6131092778
 10
2.1287514648
 20
10.6125761745
 10
2.1431802682
 20
10.6123546174
 10
2.157645928
 20
10.6124463998
 10
2.1721451695
 20
10.6128533152
 10
2.1842514856
 20
10.6134351624
 10
2.1963789006
 20
10.6142425193
 10
2.208527467
 20
10.6152808079
 10
2.2206972369
 20
10.61655545
 10
2.2328882628
 20
10.6180718676
 10
2.2451005969
 20
10.6198354826
 10
2.2573331652
 20
10.6218504368
 10
2.2695803874
 20
10.6241157505
 10
2.2818355567
 20
10.626629164
 10
2.2940919664
 20
10.6293884174
 10
2.3063429097
 20
10.632391251
 10
2.31858168
 20
10.635635405
 10
2.3332462274
 20
10.6398421282
 10
2.3478932066
 20
10.6443794582
 10
2.3625322365
 20
10.6492337545
 10
2.3771729356
 20
10.6543913766
 10
2.3918249229
 20
10.6598386839
  0
LWPOLYLINE
  5
38F
100
AcDbEntity
  8
ASSI
100
AcDbPolyline
 62
253
  6
CONTINUOUS
 90
12
 70
0
 10
10.8957292711
 20
-9.7898687656
 10
10.8950310054
 20
-9.7901390977
 10
10.8939290899
 20
-9.7904092112
 10
10.8924244157
 20
-9.7906788874
 10
10.8905182002
 20
-9.7909479084
 10
10.8882119851
 20
-9.7912160564
 10
10.8855076362
 20
-9.7914831145
 10
10.882407341
 20
-9.7917488668
 10
10.8789136074
 20
-9.7920130982
 10
10.8750292615
 20
-9.792275595
 10
10.8707574456
 20
-9.7925361449
 10
10.8661016151
 20
-9.792794537
  0
LWPOLYLINE
  5
390
100
AcDbEntity
  8
0
100
AcDbPolyline
 62
253
  6
CONTINUOUS
 90
43
 70
0
 10
-2.1154402324
 20
-14.4130092704
 10
-2.0930115015
 20
-14.4061505521
 10
-2.0708549368
 20
-14.3987185686
 10
-2.0489620095
 20
-14.3907172553
 10
-2.0273241907
 20
-14.382150548
 10
-2.0059329517
 20
-14.3730223823
 10
-1.9847797636
 20
-14.3633366938
 10
-1.963860674
 20
-14.3530985572
 10
-1.9431900359
 20
-14.3423176045
 10
-1.9227867789
 20
-14.3310046065
 10
-1.9026698324
 20
-14.3191703343
 10
-1.8828581258
 20
-14.3068255588
 10
-1.8633705886
 20
-14.2939810511
 10
-1.844225144
 20
-14.2806467452
 10
-1.8254356903
 20
-14.2668292282
 10
-1.8070151197
 20
-14.2525342501
 10
-1.7889763242
 20
-14.237767561
 10
-1.7713321959
 20
-14.222534911
 10
-1.7540956269
 20
-14.2068420501
 10
-1.7372792625
 20
-14.1906958848
 10
-1.7208947597
 20
-14.1741079462
 10
-1.7049535291
 20
-14.1570909218
 10
-1.689466981
 20
-14.1396574992
 10
-1.6744465258
 20
-14.1218203659
 10
-1.6599035737
 20
-14.1035922093
 10
-1.6458484319
 20
-14.0849857541
 10
-1.6322869938
 20
-14.0660138741
 10
-1.6192240496
 20
-14.0466894799
 10
-1.6066643894
 20
-14.0270254823
 10
-1.5946128035
 20
-14.0070347923
 10
-1.583074082
 20
-13.9867303206
 10
-1.5720538491
 20
-13.9661263955
 10
-1.5615610654
 20
-13.9452430162
 10
-1.5516055254
 20
-13.9241015991
 10
-1.5421970238
 20
-13.9027235607
 10
-1.5333453551
 20
-13.8811303178
 10
-1.525060314
 20
-13.8593432867
 10
-1.5173507872
 20
-13.8373788767
 10
-1.5102220297
 20
-13.815233467
 10
-1.5036783887
 20
-13.7928984297
 10
-1.4977242115
 20
-13.7703651365
 10
-1.4923638454
 20
-13.7476249595
 10
-1.4876016374
 20
-13.7246692706
  0
LWPOLYLINE
  5
391
100
AcDbEntity
  8
0
100
AcDbPolyline
 62
253
  6
CONTINUOUS
 90
43
 70
0
 10
-1.4668583119
 20
13.4928559054
 10
-1.451535297
 20
13.4903313443
 10
-1.4363688655
 20
13.4873560618
 10
-1.4213528644
 20
13.4839357098
 10
-1.406481141
 20
13.4800759404
 10
-1.3917475422
 20
13.4757824056
 10
-1.377145915
 20
13.4710607576
 10
-1.3626736124
 20
13.465916796
 10
-1.3483420099
 20
13.4603569119
 10
-1.3341659888
 20
13.4543876437
 10
-1.3201604304
 20
13.44801553
 10
-1.3063402161
 20
13.4412471096
 10
-1.2927202272
 20
13.4340889209
 10
-1.2793148601
 20
13.4265469887
 10
-1.2661365714
 20
13.4186252816
 10
-1.253197333
 20
13.4103272543
 10
-1.2405091164
 20
13.4016563616
 10
-1.2280838935
 20
13.3926160583
 10
-1.215933636
 20
13.3832097989
 10
-1.2040700341
 20
13.3734420914
 10
-1.192503652
 20
13.3633216549
 10
-1.1812447724
 20
13.3528582621
 10
-1.1703036781
 20
13.3420616853
 10
-1.1596906519
 20
13.3309416969
 10
-1.1494159763
 20
13.3195080692
 10
-1.1394888887
 20
13.3077707934
 10
-1.1299144447
 20
13.2957407353
 10
-1.1206966545
 20
13.2834289793
 10
-1.1118395283
 20
13.2708466097
 10
-1.1033470763
 20
13.2580047112
 10
-1.0952233087
 20
13.244914368
 10
-1.0874729351
 20
13.2315876565
 10
-1.0801034627
 20
13.2180406204
 10
-1.0731230982
 20
13.2042902951
 10
-1.0665400482
 20
13.1903537163
 10
-1.0603625193
 20
13.1762479193
 10
-1.0545987182
 20
13.1619899397
 10
-1.049256213
 20
13.1475927962
 10
-1.044340017
 20
13.1330534398
 10
-1.0398545051
 20
13.118364805
 10
-1.0358040523
 20
13.1035198259
 10
-1.0321930333
 20
13.0885114369
 10
-1.0290258231
 20
13.0733325722
  0
LWPOLYLINE
  5
392
100
AcDbEntity
  8
ASSI
100
AcDbPolyline
 62
253
  6
CONTINUOUS
 90
13
 70
0
 10
10.8957292711
 20
9.1911312344
 10
10.8950310055
 20
9.1914015665
 10
10.8939290899
 20
9.19167168
 10
10.8924244157
 20
9.1919413563
 10
10.8905182002
 20
9.1922103772
 10
10.8882119851
 20
9.1924785252
 10
10.8855076362
 20
9.1927455833
 10
10.882407341
 20
9.1930113356
 10
10.8789136074
 20
9.193275567
 10
10.8750292616
 20
9.1935380638
 10
10.8707574456
 20
9.1937986137
 10
10.8661016152
 20
9.1940570058
 10
10.8556532831
 20
9.1945664829
  0
LWPOLYLINE
  5
393
100
AcDbEntity
  8
0
100
AcDbPolyline
 62
253
  6
CONTINUOUS
 90
43
 70
0
 10
-2.2283635244
 20
13.8568520164
 10
-2.2543296048
 20
13.8525441774
 10
-2.2800376484
 20
13.8474682448
 10
-2.3054991343
 20
13.8416325953
 10
-2.3307255415
 20
13.8350456058
 10
-2.355728349
 20
13.8277156531
 10
-2.3805190359
 20
13.8196511138
 10
-2.4051023951
 20
13.8108610815
 10
-2.4294564765
 20
13.8013575169
 10
-2.4535526438
 20
13.7911530976
 10
-2.4773622608
 20
13.7802605009
 10
-2.5008566912
 20
13.7686924045
 10
-2.5240072989
 20
13.7564614857
 10
-2.5467870419
 20
13.7435793282
 10
-2.5691752562
 20
13.7300531407
 10
-2.591152872
 20
13.7158890378
 10
-2.6127008193
 20
13.7010931343
 10
-2.6338000285
 20
13.685671545
 10
-2.6544314298
 20
13.6696303846
 10
-2.6745762153
 20
13.6529775509
 10
-2.6942166252
 20
13.6357280741
 10
-2.7133351615
 20
13.6178987672
 10
-2.7319143264
 20
13.5995064432
 10
-2.749936622
 20
13.5805679155
 10
-2.7673845503
 20
13.5610999969
 10
-2.784242397
 20
13.5411198082
 10
-2.8005015817
 20
13.520645699
 10
-2.8161553074
 20
13.4996963268
 10
-2.8311967775
 20
13.4782903487
 10
-2.8456191949
 20
13.456446422
 10
-2.8594157627
 20
13.434183204
 10
-2.8725784876
 20
13.4115211743
 10
-2.8850945893
 20
13.3884881013
 10
-2.896950091
 20
13.3651135759
 10
-2.9081310159
 20
13.3414271888
 10
-2.9186233873
 20
13.3174585309
 10
-2.9284132283
 20
13.2932371929
 10
-2.9374877729
 20
13.2687858178
 10
-2.9458390984
 20
13.2440992574
 10
-2.9534604927
 20
13.2191654154
 10
-2.9603452439
 20
13.1939721958
 10
-2.9664866398
 20
13.1685075023
 10
-2.9718779687
 20
13.1427592388
  0
LINE
  5
394
100
AcDbEntity
  8
0
100
AcDbLine
 62
253
  6
CONTINUOUS
 10
-2.1744238022
 20
13.8639781275
 11
-2.2283635244
 21
13.8568520164
  0
LINE
  5
395
100
AcDbEntity
  8
0
100
AcDbLine
 62
253
  6
CONTINUOUS
 10
-2.17287158
 20
13.4928559054
 11
-2.0900393578
 21
13.5037214609
  0
LINE
  5
396
100
AcDbEntity
  8
0
100
AcDbLine
 62
253
  6
CONTINUOUS
 10
-2.0900393578
 20
13.8736089608
 11
-2.1744238022
 21
13.8639781275
  0
LWPOLYLINE
  5
397
100
AcDbEntity
  8
0
100
AcDbPolyline
 62
253
  6
CONTINUOUS
 90
90
 70
0
 10
-1.5499727543
 20
13.8736089608
 10
-1.551223563
 20
13.8734941776
 10
-1.5524419549
 20
13.8731900241
 10
-1.5536283468
 20
13.8727275111
 10
-1.5553516646
 20
13.8718010117
 10
-1.5570222393
 20
13.8706707889
 10
-1.5586542021
 20
13.8694059459
 10
-1.5602449307
 20
13.868020753
 10
-1.5617874494
 20
13.8665170968
 10
-1.5632741219
 20
13.8649021628
 10
-1.5651604684
 20
13.8625889622
 10
-1.5669420077
 20
13.8601038436
 10
-1.5686270841
 20
13.8574575871
 10
-1.5702253058
 20
13.8546606719
 10
-1.5717513352
 20
13.8517223734
 10
-1.573221099
 20
13.8486516662
 10
-1.5746473183
 20
13.8454549426
 10
-1.5760298947
 20
13.8421282668
 10
-1.5773655245
 20
13.8386651211
 10
-1.5786512157
 20
13.8350596291
 10
-1.5798852233
 20
13.8313084798
 10
-1.5810661138
 20
13.8274090035
 10
-1.582192758
 20
13.8233580303
 10
-1.5832652444
 20
13.8191503889
 10
-1.5842839655
 20
13.8147804076
 10
-1.585250075
 20
13.8102428673
 10
-1.5861677693
 20
13.8055343591
 10
-1.5870420058
 20
13.8006519271
 10
-1.5878772919
 20
13.7955917131
 10
-1.5886763364
 20
13.7903462521
 10
-1.5894413983
 20
13.7849071771
 10
-1.5901737841
 20
13.7792640681
 10
-1.5908709907
 20
13.7733982929
 10
-1.5915295624
 20
13.7672891662
 10
-1.5921460234
 20
13.7609178784
 10
-1.5927168167
 20
13.7542731218
 10
-1.5932383653
 20
13.7473454643
 10
-1.5937068196
 20
13.7401296101
 10
-1.5941172405
 20
13.7326368085
 10
-1.5944644164
 20
13.7248824452
 10
-1.5947441593
 20
13.7168922405
 10
-1.5949563763
 20
13.7087332537
 10
-1.5951019979
 20
13.7004828789
 10
-1.5951824108
 20
13.6922177624
 10
-1.5952008264
 20
13.6840115608
 10
-1.5951609118
 20
13.6759371831
 10
-1.5950653323
 20
13.6680549889
 10
-1.5949127444
 20
13.6603751401
 10
-1.5947008025
 20
13.6528952494
 10
-1.5944277446
 20
13.6456129327
 10
-1.5940941433
 20
13.6385258191
 10
-1.5937011546
 20
13.6316315409
 10
-1.5932498503
 20
13.6249267404
 10
-1.5927409637
 20
13.6184040988
 10
-1.5921751438
 20
13.6120553073
 10
-1.5915533955
 20
13.6058731785
 10
-1.590878148
 20
13.5998550115
 10
-1.5901521867
 20
13.5939992268
 10
-1.5893778201
 20
13.5883037671
 10
-1.5885554492
 20
13.5827646634
 10
-1.587684998
 20
13.5773774685
 10
-1.5867649214
 20
13.5721391099
 10
-1.5857877983
 20
13.5670520133
 10
-1.584744738
 20
13.5621199786
 10
-1.5836276484
 20
13.5573456339
 10
-1.58243163
 20
13.5527269194
 10
-1.5811525818
 20
13.5482606033
 10
-1.5797875227
 20
13.5439444193
 10
-1.5783379535
 20
13.5397799646
 10
-1.5768064952
 20
13.5357698016
 10
-1.5751951101
 20
13.5319158958
 10
-1.5735031255
 20
13.5282178222
 10
-1.5717292102
 20
13.5246745586
 10
-1.5703425577
 20
13.5221209689
 10
-1.5688986205
 20
13.5196707271
 10
-1.5673858983
 20
13.5173372239
 10
-1.5657886883
 20
13.5151200443
 10
-1.5640940254
 20
13.5130198255
 10
-1.5623040982
 20
13.5110552189
 10
-1.5604297172
 20
13.5092507703
 10
-1.5584956876
 20
13.5076284267
 10
-1.5565042996
 20
13.506183253
 10
-1.5554789633
 20
13.5055315598
 10
-1.5544280413
 20
13.5049464977
 10
-1.5533477435
 20
13.5044494915
 10
-1.5522381018
 20
13.5040633537
 10
-1.5516742574
 20
13.5039197985
 10
-1.5511067953
 20
13.5038133806
 10
-1.5505384806
 20
13.5037466803
 10
-1.5499727543
 20
13.5037214609
  0
LWPOLYLINE
  5
398
100
AcDbEntity
  8
0
100
AcDbPolyline
 62
253
  6
CONTINUOUS
 90
94
 70
0
 10
-2.0900393578
 20
13.5037214609
 10
-2.088749353
 20
13.5038392844
 10
-2.0874940706
 20
13.5041521304
 10
-2.0862700182
 20
13.5046282403
 10
-2.0853708873
 20
13.5050733096
 10
-2.0844889734
 20
13.505578651
 10
-2.0827742295
 20
13.5067229867
 10
-2.0811007591
 20
13.5080028814
 10
-2.0794664335
 20
13.5094146112
 10
-2.077886033
 20
13.5109487101
 10
-2.0763653698
 20
13.512598843
 10
-2.0744335362
 20
13.5149710241
 10
-2.0726074092
 20
13.5175249505
 10
-2.0708815674
 20
13.5202436347
 10
-2.069648287
 20
13.5223812201
 10
-2.068457382
 20
13.5245987743
 10
-2.0672993381
 20
13.5268935051
 10
-2.066170528
 20
13.5292640587
 10
-2.0650694628
 20
13.5317099989
 10
-2.0639973225
 20
13.5342331212
 10
-2.0629557558
 20
13.5368357622
 10
-2.0619456183
 20
13.5395201911
 10
-2.0606487712
 20
13.5432299835
 10
-2.0594103853
 20
13.5470911296
 10
-2.0582318789
 20
13.5511055777
 10
-2.0571140977
 20
13.5552759581
 10
-2.0560555967
 20
13.5596076293
 10
-2.0550543583
 20
13.5641066319
 10
-2.0541075742
 20
13.5687782826
 10
-2.0532092731
 20
13.5736250031
 10
-2.0523526929
 20
13.5786484911
 10
-2.0515324241
 20
13.5838521289
 10
-2.0507484685
 20
13.5892460356
 10
-2.0500021805
 20
13.594842015
 10
-2.0492952101
 20
13.6006538296
 10
-2.048630389
 20
13.6067030782
 10
-2.0480108448
 20
13.6130133185
 10
-2.0474399924
 20
13.6196041784
 10
-2.0469223976
 20
13.6264795663
 10
-2.046462914
 20
13.633639461
 10
-2.0460661236
 20
13.6410795968
 10
-2.0457355238
 20
13.648778731
 10
-2.0454743404
 20
13.6567113768
 10
-2.0452844179
 20
13.6648399532
 10
-2.0451620751
 20
13.6730785035
 10
-2.0451022491
 20
13.6813289771
 10
-2.0451006846
 20
13.6895025007
 10
-2.0451563548
 20
13.6975469108
 10
-2.0452690405
 20
13.7054192213
 10
-2.0454385154
 20
13.7130850734
 10
-2.0456645262
 20
13.7205446177
 10
-2.0459468128
 20
13.7278066322
 10
-2.0462849006
 20
13.734878936
 10
-2.046677457
 20
13.7417655121
 10
-2.0471229349
 20
13.7484693846
 10
-2.0476199504
 20
13.7549940155
 10
-2.0481677715
 20
13.7613446173
 10
-2.0487658296
 20
13.7675268404
 10
-2.0494131117
 20
13.7735458623
 10
-2.0501068276
 20
13.7794049697
 10
-2.0508437431
 20
13.7851069766
 10
-2.0516217909
 20
13.7906547886
 10
-2.0524435705
 20
13.7960516788
 10
-2.0533128483
 20
13.801301012
 10
-2.0542338323
 20
13.8064050415
 10
-2.0552124959
 20
13.8113615741
 10
-2.0562552545
 20
13.8161673051
 10
-2.0573678386
 20
13.8208201832
 10
-2.0585532418
 20
13.8253231696
 10
-2.0598137732
 20
13.8296804791
 10
-2.0611510266
 20
13.8338950883
 10
-2.0625637351
 20
13.8379650226
 10
-2.0640499163
 20
13.8418870694
 10
-2.0652112465
 20
13.8447302827
 10
-2.0664099755
 20
13.847491118
 10
-2.0676451771
 20
13.8501714651
 10
-2.068923479
 20
13.8527703088
 10
-2.07025329
 20
13.8552835122
 10
-2.0716425914
 20
13.8576973547
 10
-2.0731003556
 20
13.8599987689
 10
-2.0746399482
 20
13.8621868826
 10
-2.0762726741
 20
13.8642603785
 10
-2.0779972003
 20
13.8662039627
 10
-2.0798051629
 20
13.8679975451
 10
-2.0816770474
 20
13.8696233043
 10
-2.0836125826
 20
13.8710860436
 10
-2.0846125764
 20
13.8717497179
 10
-2.0856407641
 20
13.8723477864
 10
-2.0867018459
 20
13.8728579696
 10
-2.0877962032
 20
13.8732558475
 10
-2.088353789
 20
13.8734040787
 10
-2.0889156824
 20
13.8735140235
 10
-2.089478812
 20
13.8735829195
 10
-2.0900393578
 20
13.8736089608
  0
LINE
  5
399
100
AcDbEntity
  8
0
100
AcDbLine
 62
253
  6
CONTINUOUS
 10
-1.4655874135
 20
13.8639781275
 11
-1.5499727543
 21
13.8736089608
  0
LINE
  5
39A
100
AcDbEntity
  8
0
100
AcDbLine
 62
253
  6
CONTINUOUS
 10
-1.5499727543
 20
13.5037214609
 11
-1.4668583119
 21
13.4928559054
  0
LINE
  5
39B
100
AcDbEntity
  8
0
100
AcDbLine
 62
253
  6
CONTINUOUS
 10
-1.4119651913
 20
13.8568520164
 11
-1.4655874135
 21
13.8639781275
  0
LWPOLYLINE
  5
39C
100
AcDbEntity
  8
0
100
AcDbPolyline
 62
253
  6
CONTINUOUS
 90
31
 70
0
 10
2.3750679789
 20
13.8001253498
 10
2.3627498416
 20
13.8028284897
 10
2.3504695628
 20
13.805284293
 10
2.3382074882
 20
13.807496148
 10
2.3259439635
 20
13.809467443
 10
2.3136593343
 20
13.8112015664
 10
2.3013339462
 20
13.8127019066
 10
2.288948145
 20
13.8139718518
 10
2.2764868179
 20
13.8150131789
 10
2.263953019
 20
13.8158212185
 10
2.2513543439
 20
13.8163896896
 10
2.2386983884
 20
13.8167123112
 10
2.2259927481
 20
13.8167828025
 10
2.2132450187
 20
13.8165948824
 10
2.200462796
 20
13.81614227
 10
2.1892560396
 20
13.81552432
 10
2.1780338544
 20
13.8146956216
 10
2.1668014052
 20
13.8136528903
 10
2.1555638566
 20
13.8123928418
 10
2.1443263735
 20
13.8109121914
 10
2.1330941206
 20
13.8092076547
 10
2.1218722625
 20
13.8072759472
 10
2.1106659641
 20
13.8051137845
 10
2.0994780258
 20
13.8027188645
 10
2.0883017903
 20
13.8000928149
 10
2.0771282361
 20
13.7972382457
 10
2.0659483418
 20
13.7941577672
 10
2.0547530858
 20
13.7908539893
 10
2.0435334466
 20
13.7873295223
 10
2.0322804026
 20
13.7835869761
 10
2.0209849324
 20
13.7796289609
  0
LWPOLYLINE
  5
39D
100
AcDbEntity
  8
0
100
AcDbPolyline
 62
253
  6
CONTINUOUS
 90
33
 70
0
 10
0.5193863596
 20
13.7917292386
 10
0.5056237614
 20
13.7956560501
 10
0.4917980214
 20
13.7992586505
 10
0.4779093325
 20
13.8025414118
 10
0.4639578876
 20
13.8055087058
 10
0.4499438795
 20
13.8081649044
 10
0.4358680124
 20
13.8105136109
 10
0.4217330347
 20
13.8125553546
 10
0.4075422062
 20
13.8142898961
 10
0.3932987866
 20
13.8157169963
 10
0.3790060355
 20
13.8168364158
 10
0.3646672205
 20
13.8176476591
 10
0.3502856397
 20
13.8181492064
 10
0.3358645993
 20
13.8183392814
 10
0.3214074053
 20
13.8182161081
 10
0.3069173636
 20
13.8177779103
 10
0.2948192965
 20
13.8171700906
 10
0.2827006741
 20
13.8163368637
 10
0.2705614562
 20
13.8152728228
 10
0.2584016024
 20
13.8139725613
 10
0.2462210726
 20
13.8124306723
 10
0.2340198263
 20
13.810641749
 10
0.2217989517
 20
13.8086016651
 10
0.2095640505
 20
13.8063114151
 10
0.1973218528
 20
13.8037732742
 10
0.1850790886
 20
13.8009895173
 10
0.172842488
 20
13.7979624195
 10
0.1606187811
 20
13.7946942557
 10
0.1459732792
 20
13.7904590602
 10
0.1313463696
 20
13.7858935667
 10
0.1167283867
 20
13.7810113358
 10
0.1021096645
 20
13.7758259284
 10
0.0874805373
 20
13.7703509053
  0
LWPOLYLINE
  5
39E
100
AcDbEntity
  8
ASSI
100
AcDbPolyline
 62
253
  6
CONTINUOUS
 90
49
 70
0
 10
10.9300921249
 20
-21.432224094
 10
10.9293990981
 20
-21.434345738
 10
10.9283022152
 20
-21.436465665
 10
10.9268023641
 20
-21.4385821591
 10
10.9249007585
 20
-21.4406935075
 10
10.9225989376
 20
-21.4427980013
 10
10.9198987642
 20
-21.4448939374
 10
10.9168024237
 20
-21.4469796195
 10
10.9133124221
 20
-21.4490533595
 10
10.9094315837
 20
-21.4511134791
 10
10.9051630497
 20
-21.4531583111
 10
10.9005102745
 20
-21.4551862004
 10
10.8954770237
 20
-21.4571955059
 10
10.8900673711
 20
-21.4591846013
 10
10.8842856946
 20
-21.4611518769
 10
10.8781366736
 20
-21.4630957404
 10
10.8716252847
 20
-21.4650146187
 10
10.8647567977
 20
-21.4669069588
 10
10.8575367714
 20
-21.4687712291
 10
10.8499710491
 20
-21.4706059208
 10
10.8420657542
 20
-21.472409549
 10
10.8338272844
 20
-21.4741806541
 10
10.8252623075
 20
-21.4759178026
 10
10.8163777553
 20
-21.4776195886
 10
10.8071808182
 20
-21.4792846349
 10
10.7976789397
 20
-21.4809115937
 10
10.7878798098
 20
-21.4824991485
 10
10.7777913593
 20
-21.4840460143
 10
10.7674217529
 20
-21.4855509393
 10
10.7567793832
 20
-21.4870127054
 10
10.7458728632
 20
-21.4884301296
 10
10.73471102
 20
-21.4898020648
 10
10.7233028869
 20
-21.4911274006
 10
10.7116576971
 20
-21.4924050643
 10
10.6997848752
 20
-21.493634022
 10
10.6876940303
 20
-21.4948132789
 10
10.6753949477
 20
-21.4959418808
 10
10.6628975815
 20
-21.4970189141
 10
10.6502120461
 20
-21.4980435073
 10
10.6373486083
 20
-21.499014831
 10
10.6243176787
 20
-21.4999320993
 10
10.6111298038
 20
-21.5007945696
 10
10.5977956566
 20
-21.5016015439
 10
10.5843260291
 20
-21.5023523693
 10
10.5707318224
 20
-21.5030464379
 10
10.5570240387
 20
-21.5036831882
 10
10.5432137722
 20
-21.5042621047
 10
10.5293121997
 20
-21.5047827188
 10
10.5153305723
 20
-21.5052446094
  0
LWPOLYLINE
  5
39F
100
AcDbEntity
  8
ASSI
100
AcDbPolyline
 62
253
  6
CONTINUOUS
 90
50
 70
0
 10
10.9300921249
 20
20.8334865628
 10
10.9293990983
 20
20.8356082069
 10
10.9283022156
 20
20.8377281338
 10
10.9268023646
 20
20.839844628
 10
10.9249007593
 20
20.8419559764
 10
10.9225989385
 20
20.8440604703
 10
10.9198987653
 20
20.8461564064
 10
10.916802425
 20
20.8482420885
 10
10.9133124234
 20
20.8503158285
 10
10.9094315852
 20
20.8523759482
 10
10.9051630513
 20
20.8544207802
 10
10.9005102762
 20
20.8564486695
 10
10.8954770256
 20
20.858457975
 10
10.890067373
 20
20.8604470705
 10
10.8842856967
 20
20.8624143461
 10
10.8781366758
 20
20.8643582097
 10
10.8716252869
 20
20.866277088
 10
10.8647567999
 20
20.8681694281
 10
10.8575367737
 20
20.8700336984
 10
10.8499710515
 20
20.8718683901
 10
10.8420657566
 20
20.8736720184
 10
10.8338272869
 20
20.8754431235
 10
10.82526231
 20
20.8771802721
 10
10.8163777577
 20
20.8788820581
 10
10.8071808207
 20
20.8805471044
 10
10.7976789422
 20
20.8821740633
 10
10.7878798123
 20
20.8837616181
 10
10.7777913617
 20
20.8853084839
 10
10.7674217554
 20
20.8868134089
 10
10.7567793856
 20
20.8882751751
 10
10.7458728656
 20
20.8896925993
 10
10.7347110223
 20
20.8910645345
 10
10.7233028892
 20
20.8923898703
 10
10.7116576993
 20
20.8936675341
 10
10.6997848774
 20
20.8948964918
 10
10.6876940324
 20
20.8960757488
 10
10.6753949497
 20
20.8972043506
 10
10.6628975835
 20
20.898281384
 10
10.650212048
 20
20.8993059772
 10
10.6373486101
 20
20.900277301
 10
10.6243176804
 20
20.9011945692
 10
10.6111298053
 20
20.9020570395
 10
10.5977956581
 20
20.9028640139
 10
10.5843260304
 20
20.9036148393
 10
10.5707318236
 20
20.9043089079
 10
10.5570240398
 20
20.9049456582
 10
10.5432137732
 20
20.9055245747
 10
10.5293122006
 20
20.9060451889
 10
10.5153305731
 20
20.9065070794
 10
10.4871724717
 20
20.9072532421
  0
LINE
  5
3A0
100
AcDbEntity
  8
ASSI
100
AcDbLine
 62
7
  6
CONTINUOUS
 10
7.7307315999
 20
21.908869175
 11
7.3825129259
 21
21.8772603434
  0
LINE
  5
3A1
100
AcDbEntity
  8
ASSI
100
AcDbLine
 62
253
  6
CONTINUOUS
 10
-10.6657747743
 20
20.9065070782
 11
-10.6376166732
 21
20.9072532409
  0
LINE
  5
3A2
100
AcDbEntity
  8
ASSI
100
AcDbLine
 62
253
  6
CONTINUOUS
 10
-10.6376166732
 20
20.9072532409
 11
-10.6092748086
 21
20.9077606465
  0
LINE
  5
3A3
100
AcDbEntity
  8
ASSI
100
AcDbLine
 62
253
  6
CONTINUOUS
 10
-10.6092748086
 20
20.9077606465
 11
-10.5808409134
 21
20.9080276527
  0
LINE
  5
3A4
100
AcDbEntity
  8
ASSI
100
AcDbLine
 62
253
  6
CONTINUOUS
 10
10.4303967114
 20
20.908027654
 11
-10.5808409134
 21
20.908027654
  0
LINE
  5
3A5
100
AcDbEntity
  8
ASSI
100
AcDbLine
 62
253
  6
CONTINUOUS
 10
10.4588306069
 20
20.9077606478
 11
10.4303967114
 21
20.908027654
  0
LINE
  5
3A6
100
AcDbEntity
  8
ASSI
100
AcDbLine
 62
253
  6
CONTINUOUS
 10
10.4871724717
 20
20.9072532421
 11
10.4588306069
 21
20.9077606478
  0
LINE
  5
3A7
100
AcDbEntity
  8
ASSI
100
AcDbLine
 62
7
  6
CONTINUOUS
 10
-7.8811758019
 20
21.908869175
 11
-7.5329571279
 21
21.8772603434
  0
LINE
  5
3A8
100
AcDbEntity
  8
ASSI
100
AcDbLine
 62
7
  6
CONTINUOUS
 10
-3.4692684001
 20
21.908869175
 11
-3.8174870741
 21
21.8772603434
  0
LINE
  5
3A9
100
AcDbEntity
  8
ASSI
100
AcDbLine
 62
253
  6
CONTINUOUS
 10
10.4467481671
 20
21.7575750063
 11
-10.5971923691
 21
21.7575750063
  0
LINE
  5
3AA
100
AcDbEntity
  8
ASSI
100
AcDbLine
 62
7
  6
CONTINUOUS
 10
7.2093078452
 20
21.8720195655
 11
3.8402479528
 21
21.8720195655
  0
LINE
  5
3AB
100
AcDbEntity
  8
ASSI
100
AcDbLine
 62
7
  6
CONTINUOUS
 10
-3.9906921548
 20
21.8720195655
 11
-7.3597520472
 21
21.8720195655
  0
LINE
  5
3AC
100
AcDbEntity
  8
ASSI
100
AcDbLine
 62
7
  6
CONTINUOUS
 10
-10.6980039062
 20
21.908869175
 11
-7.8811758019
 21
21.908869175
  0
LINE
  5
3AD
100
AcDbEntity
  8
ASSI
100
AcDbLine
 62
7
  6
CONTINUOUS
 10
-3.4692684001
 20
21.908869175
 11
3.3188241981
 21
21.908869175
  0
LINE
  5
3AE
100
AcDbEntity
  8
ASSI
100
AcDbLine
 62
7
  6
CONTINUOUS
 10
7.7307315999
 20
21.908869175
 11
10.5475597042
 21
21.908869175
  0
LINE
  5
3AF
100
AcDbEntity
  8
ASSI
100
AcDbLine
 62
7
  6
CONTINUOUS
 10
3.3188241981
 20
21.908869175
 11
3.6670428721
 21
21.8772603434
  0
LINE
  5
3B0
100
AcDbEntity
  8
ASSI
100
AcDbLine
 62
7
  6
CONTINUOUS
 10
-34.9924459734
 20
-22.3563125375
 11
-32.1055812615
 21
-22.5076067061
  0
LINE
  5
3B1
100
AcDbEntity
  8
ASSI
100
AcDbLine
 62
253
  6
CONTINUOUS
 10
-34.9837277436
 20
-21.8569977701
 11
-32.0620564709
 21
-22.0101160733
  0
LWPOLYLINE
  5
3B2
100
AcDbEntity
  8
ASSI
100
AcDbPolyline
 62
253
  6
CONTINUOUS
 90
7
 70
0
 10
-35.9218151829
 20
-21.5052446094
 10
-35.923996159
 20
-21.5056474024
 10
-35.9257809908
 20
-21.5059907721
 10
-35.9271682339
 20
-21.5062744403
 10
-35.9281567656
 20
-21.5064981777
 10
-35.9287457857
 20
-21.506661803
 10
-35.9289348176
 20
-21.5067651839
  0
LINE
  5
3B3
100
AcDbEntity
  8
ASSI
100
AcDbLine
 62
253
  6
CONTINUOUS
 10
-35.9162721778
 20
-21.5042621047
 11
-35.9218151829
 21
-21.5052446094
  0
LINE
  5
3B4
100
AcDbEntity
  8
ASSI
100
AcDbLine
 62
253
  6
CONTINUOUS
 10
-35.9050410527
 20
-21.5023523693
 11
-35.9162721778
 21
-21.5042621047
  0
LINE
  5
3B5
100
AcDbEntity
  8
ASSI
100
AcDbLine
 62
253
  6
CONTINUOUS
 10
-35.8787622397
 20
-21.4980435073
 11
-35.9050410527
 21
-21.5023523693
  0
LINE
  5
3B6
100
AcDbEntity
  8
ASSI
100
AcDbLine
 62
253
  6
CONTINUOUS
 10
-35.8093191046
 20
-21.4870127054
 11
-35.8787622397
 21
-21.4980435073
  0
LINE
  5
3B7
100
AcDbEntity
  8
ASSI
100
AcDbLine
 62
253
  6
CONTINUOUS
 10
-35.45197217
 20
-21.432224094
 11
-35.8093191046
 21
-21.4870127054
  0
LINE
  5
3B8
100
AcDbEntity
  8
ASSI
100
AcDbLine
 62
253
  6
CONTINUOUS
 10
-31.7315894174
 20
-18.2328603668
 11
-31.708713697
 21
-18.2328603668
  0
LWPOLYLINE
  5
3B9
100
AcDbEntity
  8
ASSI
100
AcDbPolyline
 62
253
  6
CONTINUOUS
 90
3
 70
0
 10
-36.9176472959
 20
-9.7993345413
 10
-36.9182535355
 20
-9.7993554905
 10
-36.9184555504
 20
-9.7993687656
  0
LINE
  5
3BA
100
AcDbEntity
  8
ASSI
100
AcDbLine
 62
253
  6
CONTINUOUS
 10
-36.9134097649
 20
-9.7992258501
 11
-36.9176472959
 21
-9.7993345413
  0
LINE
  5
3BB
100
AcDbEntity
  8
ASSI
100
AcDbLine
 62
253
  6
CONTINUOUS
 10
-36.435995557
 20
-9.7898687656
 11
-36.9134097649
 21
-9.7992258501
  0
LWPOLYLINE
  5
3BC
100
AcDbEntity
  8
ASSI
100
AcDbPolyline
 62
253
  6
CONTINUOUS
 90
28
 70
0
 10
-35.45197217
 20
20.8334865628
 10
-35.5154976152
 20
20.4051095229
 10
-35.5769468984
 20
19.976450329
 10
-35.6363200198
 20
19.5475089811
 10
-35.6936182719
 20
19.1182754119
 10
-35.7488403621
 20
18.6887596886
 10
-35.801982413
 20
18.2589920128
 10
-35.8530442765
 20
17.8289723804
 10
-35.9020261006
 20
17.3987007954
 10
-35.948924452
 20
16.9682074717
 10
-35.993739184
 20
16.5374923978
 10
-36.0364704433
 20
16.1065555851
 10
-36.077115236
 20
15.6754272811
 10
-36.1156734159
 20
15.2441074753
 10
-36.1521451293
 20
14.8125961782
 10
-36.1865278215
 20
14.380923669
 10
-36.2188213467
 20
13.9490899337
 10
-36.2490258507
 20
13.5170949863
 10
-36.2771392173
 20
13.0849691481
 10
-36.3031613
 20
12.6527124058
 10
-36.3270922452
 20
12.2203247728
 10
-36.3489303758
 20
11.7878366106
 10
-36.3686755452
 20
11.3552478918
 10
-36.3863279
 20
10.9225586439
 10
-36.4018862024
 20
10.4897993098
 10
-36.4153500397
 20
10.0569800374
 10
-36.4267198246
 20
9.6240906789
 10
-36.4541754156
 20
8.1806540815
  0
LWPOLYLINE
  5
3BD
100
AcDbEntity
  8
ASSI
100
AcDbPolyline
 62
253
  6
CONTINUOUS
 90
58
 70
0
 10
-35.45197217
 20
-21.432224094
 10
-35.4500379484
 20
-21.4440825967
 10
-35.4478225326
 20
-21.4558782571
 10
-35.4453259227
 20
-21.4676110752
 10
-35.4425463364
 20
-21.4792878917
 10
-35.439485556
 20
-21.4909018659
 10
-35.436148928
 20
-21.5024324758
 10
-35.4325359933
 20
-21.5138794414
 10
-35.428647211
 20
-21.5252430427
 10
-35.4244893051
 20
-21.536503598
 10
-35.4200618177
 20
-21.5476609054
 10
-35.4153652067
 20
-21.5587151668
 10
-35.4104075695
 20
-21.5696473058
 10
-35.4051884519
 20
-21.5804571218
 10
-35.3997083081
 20
-21.5911448153
 10
-35.3939765986
 20
-21.6016919116
 10
-35.387992888
 20
-21.6120981683
 10
-35.3817576116
 20
-21.6223638279
 10
-35.3752815361
 20
-21.6324711434
 10
-35.3685642442
 20
-21.6424198422
 10
-35.3616061533
 20
-21.652210197
 10
-35.3544192825
 20
-21.6618252783
 10
-35.3470032403
 20
-21.6712647786
 10
-35.3393584184
 20
-21.6805290055
 10
-35.3314980102
 20
-21.6896019525
 10
-35.3234216367
 20
-21.6984832961
 10
-35.3151296771
 20
-21.7071733599
 10
-35.3066364617
 20
-21.7156571082
 10
-35.2979416467
 20
-21.7239341798
 10
-35.289045576
 20
-21.732004936
 10
-35.2799636121
 20
-21.739855424
 10
-35.2706954277
 20
-21.7474852676
 10
-35.2612413501
 20
-21.7548948431
 10
-35.2516177238
 20
-21.7620713271
 10
-35.2418242621
 20
-21.7690143118
 10
-35.2318612516
 20
-21.775724205
 10
-35.2217458966
 20
-21.7821894075
 10
-35.2114779269
 20
-21.7884095003
 10
-35.2010576126
 20
-21.7943849023
 10
-35.1905029684
 20
-21.800105271
 10
-35.1798137612
 20
-21.8055701647
 10
-35.1689902239
 20
-21.810780025
 10
-35.1580510704
 20
-21.8157258345
 10
-35.1469960994
 20
-21.820407136
 10
-35.1358255121
 20
-21.8248243868
 10
-35.1245586261
 20
-21.8289699416
 10
-35.1131952854
 20
-21.832843328
 10
-35.101735646
 20
-21.8364450184
 10
-35.0901994938
 20
-21.8397687857
 10
-35.0785866716
 20
-21.842814153
 10
-35.0668973365
 20
-21.8455815972
 10
-35.0551517467
 20
-21.8480663212
 10
-35.0433496038
 20
-21.8502678439
 10
-35.0314912061
 20
-21.8521866465
 10
-35.019597706
 20
-21.8538193757
 10
-35.0076761542
 20
-21.8551649139
 10
-34.9957195001
 20
-21.8562243787
 10
-34.9837277436
 20
-21.8569977701
  0
LINE
  5
3BE
100
AcDbEntity
  8
0
100
AcDbLine
 62
253
  6
CONTINUOUS
 10
-36.7099722529
 20
-14.4455353815
 11
-36.708348407
 21
-14.4684297939
  0
LINE
  5
3BF
100
AcDbEntity
  8
0
100
AcDbLine
 62
253
  6
CONTINUOUS
 10
-36.7375317557
 20
-14.04350777
 11
-36.7104964621
 21
-14.4381270482
  0
LINE
  5
3C0
100
AcDbEntity
  8
0
100
AcDbLine
 62
253
  6
CONTINUOUS
 10
-36.7637237062
 20
-13.6343583446
 11
-36.7372862756
 21
-14.0472090196
  0
LINE
  5
3C1
100
AcDbEntity
  8
0
100
AcDbLine
 62
253
  6
CONTINUOUS
 10
-36.7624515303
 20
-13.6549251039
 11
-36.7872038003
 21
-13.2399190001
  0
LINE
  5
3C2
100
AcDbEntity
  8
0
100
AcDbLine
 62
253
  6
CONTINUOUS
 10
-36.7870231547
 20
-13.2430703543
 11
-36.8094429339
 21
-12.8360447046
  0
LINE
  5
3C3
100
AcDbEntity
  8
0
100
AcDbLine
 62
253
  6
CONTINUOUS
 10
-36.8094429339
 20
-12.8360447046
 11
-36.821268557
 21
-12.606575382
  0
LINE
  5
3C4
100
AcDbEntity
  8
0
100
AcDbLine
 62
253
  6
CONTINUOUS
 10
-36.8507598272
 20
-11.975568434
 11
-36.830915974
 21
-12.4103504619
  0
LINE
  5
3C5
100
AcDbEntity
  8
0
100
AcDbLine
 62
253
  6
CONTINUOUS
 10
-36.8661349477
 20
-11.6018286999
 11
-36.8489238684
 21
-12.0178312765
  0
LINE
  5
3C6
100
AcDbEntity
  8
0
100
AcDbLine
 62
253
  6
CONTINUOUS
 10
-36.8804669827
 20
-11.2133672381
 11
-36.8659402349
 21
-11.6068103156
  0
LINE
  5
3C7
100
AcDbEntity
  8
0
100
AcDbLine
 62
253
  6
CONTINUOUS
 10
-36.8812464569
 20
-11.1908433223
 11
-36.8804669827
 21
-11.2133672381
  0
LWPOLYLINE
  5
3C8
100
AcDbEntity
  8
ASSI
100
AcDbPolyline
 62
253
  6
CONTINUOUS
 90
27
 70
0
 10
-36.4267198246
 20
-10.2228282101
 10
-36.4153500397
 20
-10.6557175686
 10
-36.4018862024
 20
-11.088536841
 10
-36.3863279
 20
-11.521296175
 10
-36.3686755452
 20
-11.953985423
 10
-36.3489303758
 20
-12.3865741417
 10
-36.3270922452
 20
-12.819062304
 10
-36.3031613
 20
-13.251449937
 10
-36.2771392173
 20
-13.6837066793
 10
-36.2490258507
 20
-14.1158325174
 10
-36.2188213467
 20
-14.5478274648
 10
-36.1865278215
 20
-14.9796612002
 10
-36.1521451293
 20
-15.4113337094
 10
-36.1156734159
 20
-15.8428450065
 10
-36.077115236
 20
-16.2741648123
 10
-36.0364704433
 20
-16.7052931163
 10
-35.993739184
 20
-17.136229929
 10
-35.948924452
 20
-17.5669450028
 10
-35.9020261006
 20
-17.9974383266
 10
-35.8530442765
 20
-18.4277099116
 10
-35.801982413
 20
-18.857729544
 10
-35.7488403621
 20
-19.2874972198
 10
-35.6936182719
 20
-19.717012943
 10
-35.6363200198
 20
-20.1462465122
 10
-35.5769468984
 20
-20.5751878602
 10
-35.5154976152
 20
-21.0038470541
 10
-35.45197217
 20
-21.432224094
  0
LINE
  5
3C9
100
AcDbEntity
  8
0
100
AcDbLine
 62
253
  6
CONTINUOUS
 10
-36.8821138744
 20
10.5668464617
 11
-36.8829013754
 21
10.5437342468
  0
LINE
  5
3CA
100
AcDbEntity
  8
0
100
AcDbLine
 62
253
  6
CONTINUOUS
 10
-36.881871087
 20
10.573937295
 11
-36.8521538809
 21
11.3444412731
  0
LINE
  5
3CB
100
AcDbEntity
  8
0
100
AcDbLine
 62
253
  6
CONTINUOUS
 10
-36.8342577974
 20
11.7415283153
 11
-36.8545807109
 21
11.2873950726
  0
LINE
  5
3CC
100
AcDbEntity
  8
0
100
AcDbLine
 62
253
  6
CONTINUOUS
 10
-36.8345988382
 20
11.7343128637
 11
-36.8307887283
 21
11.8142640802
  0
LINE
  5
3CD
100
AcDbEntity
  8
0
100
AcDbLine
 62
253
  6
CONTINUOUS
 10
-36.8086840777
 20
12.2515885731
 11
-36.7844636479
 21
12.6887660172
  0
LINE
  5
3CE
100
AcDbEntity
  8
0
100
AcDbLine
 62
253
  6
CONTINUOUS
 10
-36.7847433841
 20
12.6839271122
 11
-36.7589107746
 21
13.1130441484
  0
LINE
  5
3CF
100
AcDbEntity
  8
0
100
AcDbLine
 62
253
  6
CONTINUOUS
 10
-36.7622258559
 20
13.0598324403
 11
-36.7176852354
 21
13.7369046214
  0
LINE
  5
3D0
100
AcDbEntity
  8
0
100
AcDbLine
 62
253
  6
CONTINUOUS
 10
-36.7184035267
 20
13.7265716806
 11
-36.7092598434
 21
13.8568520164
  0
LWPOLYLINE
  5
3D1
100
AcDbEntity
  8
ASSI
100
AcDbPolyline
 62
253
  6
CONTINUOUS
 90
16
 70
0
 10
-36.5235328215
 20
-0.1203774931
 10
-36.5233034265
 20
-0.1246086343
 10
-36.5230666982
 20
-0.1285709861
 10
-36.5228229248
 20
-0.1322597228
 10
-36.5225724034
 20
-0.135670352
 10
-36.5223154389
 20
-0.1387987201
 10
-36.5220523444
 20
-0.1416410169
 10
-36.5217834402
 20
-0.1441937811
 10
-36.5215090538
 20
-0.1464539036
 10
-36.5212295195
 20
-0.1484186318
 10
-36.5209451776
 20
-0.1500855731
 10
-36.5206563745
 20
-0.1514526973
 10
-36.5203634618
 20
-0.1525183394
 10
-36.5200667963
 20
-0.1532812015
 10
-36.5197667393
 20
-0.1537403546
 10
-36.5194636563
 20
-0.1538952396
  0
LINE
  5
3D2
100
AcDbEntity
  8
ASSI
100
AcDbLine
 62
253
  6
CONTINUOUS
 10
-36.5239685034
 20
-0.1111297755
 11
-36.5235328215
 21
-0.1203774931
  0
LINE
  5
3D3
100
AcDbEntity
  8
ASSI
100
AcDbLine
 62
253
  6
CONTINUOUS
 10
-36.5243716221
 20
-0.1008728697
 11
-36.5239685034
 21
-0.1111297755
  0
LINE
  5
3D4
100
AcDbEntity
  8
ASSI
100
AcDbLine
 62
253
  6
CONTINUOUS
 10
-36.5247402143
 20
-0.0896567269
 11
-36.5243716221
 21
-0.1008728697
  0
LINE
  5
3D5
100
AcDbEntity
  8
ASSI
100
AcDbLine
 62
253
  6
CONTINUOUS
 10
-36.525072485
 20
-0.07753597
 11
-36.5247402143
 21
-0.0896567269
  0
LINE
  5
3D6
100
AcDbEntity
  8
ASSI
100
AcDbLine
 62
253
  6
CONTINUOUS
 10
-36.525499299
 20
-0.0577889416
 11
-36.525072485
 21
-0.07753597
  0
LWPOLYLINE
  5
3D7
100
AcDbEntity
  8
ASSI
100
AcDbPolyline
 62
253
  6
CONTINUOUS
 90
18
 70
0
 10
-34.9975684014
 20
-22.2961991396
 10
-34.997470485
 20
-22.3029140906
 10
-34.9973462379
 20
-22.3092526287
 10
-34.9971957651
 20
-22.3152094034
 10
-34.9970191936
 20
-22.3207793862
 10
-34.9968166724
 20
-22.3259578755
 10
-34.9965883724
 20
-22.3307404999
 10
-34.9963344865
 20
-22.3351232222
 10
-34.9960552289
 20
-22.3391023429
 10
-34.9957508353
 20
-22.3426745029
 10
-34.9954215627
 20
-22.3458366869
 10
-34.995067689
 20
-22.3485862257
 10
-34.994689513
 20
-22.3509207982
 10
-34.9942873539
 20
-22.3528384338
 10
-34.9938615512
 20
-22.3543375136
 10
-34.9934124642
 20
-22.3554167724
 10
-34.9929404722
 20
-22.356075299
 10
-34.9924459734
 20
-22.3563125375
  0
LINE
  5
3D8
100
AcDbEntity
  8
ASSI
100
AcDbLine
 62
253
  6
CONTINUOUS
 10
-36.5258361176
 20
-0.036356579
 11
-36.525499299
 21
-0.0577889416
  0
LINE
  5
3D9
100
AcDbEntity
  8
ASSI
100
AcDbLine
 62
253
  6
CONTINUOUS
 10
-36.5260792521
 20
-0.0134736086
 11
-36.5258361176
 21
-0.036356579
  0
LINE
  5
3DA
100
AcDbEntity
  8
ASSI
100
AcDbLine
 62
253
  6
CONTINUOUS
 10
-34.9976849342
 20
-22.2816629852
 11
-34.9975684014
 21
-22.2961991396
  0
LINE
  5
3DB
100
AcDbEntity
  8
ASSI
100
AcDbLine
 62
253
  6
CONTINUOUS
 10
-36.5260068966
 20
-0.6948327723
 11
-36.5262252161
 21
-0.6600475205
  0
LINE
  5
3DC
100
AcDbEntity
  8
ASSI
100
AcDbLine
 62
253
  6
CONTINUOUS
 10
-36.5262532497
 20
0.0188584125
 11
-36.5260792521
 21
-0.0134736086
  0
LWPOLYLINE
  5
3DD
100
AcDbEntity
  8
ASSI
100
AcDbPolyline
 62
253
  6
CONTINUOUS
 90
10
 70
0
 10
-36.5260049799
 20
-0.6948327556
 10
-36.5241832187
 20
-1.7054682788
 10
-36.5203165768
 20
-2.7160856151
 10
-36.5144050542
 20
-3.7266847643
 10
-36.5064485718
 20
-4.7372667995
 10
-36.4964472086
 20
-5.7478306476
 10
-36.4844012019
 20
-6.7583730901
 10
-36.4703106305
 20
-7.7688930542
 10
-36.4541754156
 20
-8.7793916127
 10
-36.4267198246
 20
-10.2228282101
  0
LINE
  5
3DE
100
AcDbEntity
  8
ASSI
100
AcDbLine
 62
253
  6
CONTINUOUS
 10
-36.5262252161
 20
-0.6600475205
 11
-36.526269534
 21
-0.6259390621
  0
LINE
  5
3DF
100
AcDbEntity
  8
ASSI
100
AcDbLine
 62
253
  6
CONTINUOUS
 10
-36.5262527001
 20
0.0526931787
 11
-36.5262532497
 21
0.0188584125
  0
LINE
  5
3E0
100
AcDbEntity
  8
ASSI
100
AcDbLine
 62
253
  6
CONTINUOUS
 10
-36.526269534
 20
-0.6259390621
 11
-36.5261389878
 21
-0.5931710226
  0
LWPOLYLINE
  5
3E1
100
AcDbEntity
  8
ASSI
100
AcDbPolyline
 62
253
  6
CONTINUOUS
 90
3
 70
0
 10
-36.5260068966
 20
0.0960952412
 10
-36.5260776141
 20
0.0873723897
 10
-36.5262527001
 20
0.0526931787
  0
LWPOLYLINE
  5
3E2
100
AcDbEntity
  8
ASSI
100
AcDbPolyline
 62
253
  6
CONTINUOUS
 90
19
 70
0
 10
-34.9976849342
 20
21.6829254522
 10
-34.9975684015
 20
21.6974616069
 10
-34.9974704851
 20
21.7041765581
 10
-34.997346238
 20
21.7105150963
 10
-34.9971957652
 20
21.7164718711
 10
-34.9970191936
 20
21.7220418541
 10
-34.9968166724
 20
21.7272203435
 10
-34.9965883725
 20
21.7320029681
 10
-34.9963344866
 20
21.7363856905
 10
-34.9960552289
 20
21.7403648112
 10
-34.9957508353
 20
21.7439369713
 10
-34.9954215627
 20
21.7470991555
 10
-34.9950676891
 20
21.7498486943
 10
-34.9946895131
 20
21.7521832669
 10
-34.994287354
 20
21.7541009025
 10
-34.9938615512
 20
21.7555999824
 10
-34.9934124643
 20
21.7566792412
 10
-34.9929404722
 20
21.7573377678
 10
-34.9924459734
 20
21.7575750063
  0
LINE
  5
3E3
100
AcDbEntity
  8
ASSI
100
AcDbLine
 62
253
  6
CONTINUOUS
 10
-36.5261389878
 20
-0.5931710226
 11
-36.5259277247
 21
-0.5698595008
  0
LINE
  5
3E4
100
AcDbEntity
  8
ASSI
100
AcDbLine
 62
253
  6
CONTINUOUS
 10
-36.5259277247
 20
-0.5698595008
 11
-36.5256217742
 21
-0.5479166822
  0
LWPOLYLINE
  5
3E5
100
AcDbEntity
  8
ASSI
100
AcDbPolyline
 62
253
  6
CONTINUOUS
 90
9
 70
0
 10
-36.4541754156
 20
8.1806540815
 10
-36.4703106305
 20
7.170155523
 10
-36.4844012019
 20
6.159635559
 10
-36.4964472086
 20
5.1490931164
 10
-36.5064485718
 20
4.1385292683
 10
-36.5144050542
 20
3.1279472332
 10
-36.5203165769
 20
2.1173480839
 10
-36.5241832188
 20
1.1067307477
 10
-36.5260049799
 20
0.0960952244
  0
LINE
  5
3E6
100
AcDbEntity
  8
ASSI
100
AcDbLine
 62
253
  6
CONTINUOUS
 10
-36.5256217742
 20
-0.5479166822
 11
-36.525224487
 21
-0.5275828836
  0
LINE
  5
3E7
100
AcDbEntity
  8
ASSI
100
AcDbLine
 62
253
  6
CONTINUOUS
 10
-36.525224487
 20
-0.5275828836
 11
-36.5249109952
 21
-0.5150316911
  0
LINE
  5
3E8
100
AcDbEntity
  8
ASSI
100
AcDbLine
 62
253
  6
CONTINUOUS
 10
-36.5249109952
 20
-0.5150316911
 11
-36.5245603502
 21
-0.5033561319
  0
LINE
  5
3E9
100
AcDbEntity
  8
ASSI
100
AcDbLine
 62
253
  6
CONTINUOUS
 10
-36.5245603502
 20
-0.5033561319
 11
-36.5241742596
 21
-0.4926130662
  0
LWPOLYLINE
  5
3EA
100
AcDbEntity
  8
ASSI
100
AcDbPolyline
 62
253
  6
CONTINUOUS
 90
18
 70
0
 10
-36.5241742596
 20
-0.4926130662
 10
-36.5237546038
 20
-0.4828548127
 10
-36.5235328214
 20
-0.4783600353
 10
-36.5233034264
 20
-0.4741288944
 10
-36.5230666981
 20
-0.4701665428
 10
-36.5228229247
 20
-0.4664778064
 10
-36.5225724033
 20
-0.4630671774
 10
-36.5223154388
 20
-0.4599388096
 10
-36.5220523443
 20
-0.457096513
 10
-36.5217834401
 20
-0.4545437491
 10
-36.5215090538
 20
-0.4522836268
 10
-36.5212295194
 20
-0.4503188987
 10
-36.5209451776
 20
-0.4486519576
 10
-36.5206563744
 20
-0.4472848336
 10
-36.5203634618
 20
-0.4462191917
 10
-36.5200667963
 20
-0.4454563296
 10
-36.5197667393
 20
-0.4449971765
 10
-36.5194636563
 20
-0.4448422916
  0
LINE
  5
3EB
100
AcDbEntity
  8
ASSI
100
AcDbLine
 62
253
  6
CONTINUOUS
 10
-34.9837277436
 20
21.258260239
 11
-34.9873275176
 21
21.330543422
  0
LINE
  5
3EC
100
AcDbEntity
  8
ASSI
100
AcDbLine
 62
253
  6
CONTINUOUS
 10
-34.9873275176
 20
21.330543422
 11
-34.9904838259
 21
21.4013037629
  0
LINE
  5
3ED
100
AcDbEntity
  8
ASSI
100
AcDbLine
 62
253
  6
CONTINUOUS
 10
-34.9904838259
 20
21.4013037629
 11
-34.992644541
 21
21.4558119129
  0
LINE
  5
3EE
100
AcDbEntity
  8
ASSI
100
AcDbLine
 62
253
  6
CONTINUOUS
 10
-34.992644541
 20
21.4558119129
 11
-34.9944495216
 21
21.507654718
  0
LINE
  5
3EF
100
AcDbEntity
  8
ASSI
100
AcDbLine
 62
253
  6
CONTINUOUS
 10
-34.9944495216
 20
21.507654718
 11
-34.9958744151
 21
21.5561327207
  0
LINE
  5
3F0
100
AcDbEntity
  8
ASSI
100
AcDbLine
 62
253
  6
CONTINUOUS
 10
-34.9958744151
 20
21.5561327207
 11
-34.9966818878
 21
21.5898876535
  0
LINE
  5
3F1
100
AcDbEntity
  8
ASSI
100
AcDbLine
 62
253
  6
CONTINUOUS
 10
-34.9966818878
 20
21.5898876535
 11
-34.997258506
 21
21.6211245639
  0
LINE
  5
3F2
100
AcDbEntity
  8
ASSI
100
AcDbLine
 62
253
  6
CONTINUOUS
 10
-34.997258506
 20
21.6211245639
 11
-34.9975124303
 21
21.6404323016
  0
LINE
  5
3F3
100
AcDbEntity
  8
ASSI
100
AcDbLine
 62
253
  6
CONTINUOUS
 10
-34.9975124303
 20
21.6404323016
 11
-34.9976609128
 21
21.6584498947
  0
LWPOLYLINE
  5
3F4
100
AcDbEntity
  8
ASSI
100
AcDbPolyline
 62
253
  6
CONTINUOUS
 90
3
 70
0
 10
-34.9976609128
 20
21.6584498947
 10
-34.9977034521
 20
21.6751165191
 10
-34.9976849342
 20
21.6829254522
  0
LINE
  5
3F5
100
AcDbEntity
  8
ASSI
100
AcDbLine
 62
253
  6
CONTINUOUS
 10
-34.9976954426
 20
-22.2656932369
 11
-34.9976849342
 21
-22.2816629852
  0
LINE
  5
3F6
100
AcDbEntity
  8
ASSI
100
AcDbLine
 62
253
  6
CONTINUOUS
 10
-34.9975998914
 20
-22.2483438058
 11
-34.9976954426
 21
-22.2656932369
  0
LINE
  5
3F7
100
AcDbEntity
  8
ASSI
100
AcDbLine
 62
253
  6
CONTINUOUS
 10
-34.9973986031
 20
-22.2296732605
 11
-34.9975998914
 21
-22.2483438058
  0
LINE
  5
3F8
100
AcDbEntity
  8
ASSI
100
AcDbLine
 62
253
  6
CONTINUOUS
 10
-34.996899997
 20
-22.1993293953
 11
-34.9973986031
 21
-22.2296732605
  0
LINE
  5
3F9
100
AcDbEntity
  8
ASSI
100
AcDbLine
 62
253
  6
CONTINUOUS
 10
-34.9961688804
 20
-22.1663862313
 11
-34.996899997
 21
-22.1993293953
  0
LINE
  5
3FA
100
AcDbEntity
  8
ASSI
100
AcDbLine
 62
253
  6
CONTINUOUS
 10
-34.9952108044
 20
-22.1310939035
 11
-34.9961688804
 21
-22.1663862313
  0
LINE
  5
3FB
100
AcDbEntity
  8
ASSI
100
AcDbLine
 62
253
  6
CONTINUOUS
 10
-34.9935931369
 20
-22.0808486901
 11
-34.9952108044
 21
-22.1310939035
  0
LINE
  5
3FC
100
AcDbEntity
  8
ASSI
100
AcDbLine
 62
253
  6
CONTINUOUS
 10
-34.9916069365
 20
-22.0275833049
 11
-34.9935931369
 21
-22.0808486901
  0
LINE
  5
3FD
100
AcDbEntity
  8
ASSI
100
AcDbLine
 62
253
  6
CONTINUOUS
 10
-34.9892790008
 20
-21.9720163987
 11
-34.9916069365
 21
-22.0275833049
  0
LINE
  5
3FE
100
AcDbEntity
  8
ASSI
100
AcDbLine
 62
253
  6
CONTINUOUS
 10
-34.9859367699
 20
-21.9004655181
 11
-34.9892790008
 21
-21.9720163987
  0
LINE
  5
3FF
100
AcDbEntity
  8
ASSI
100
AcDbLine
 62
253
  6
CONTINUOUS
 10
-34.9837277436
 20
-21.8569977701
 11
-34.9859367699
 21
-21.9004655181
  0
LINE
  5
400
100
AcDbEntity
  8
ASSI
100
AcDbLine
 62
253
  6
CONTINUOUS
 10
-31.308713697
 20
-0.6493021444
 11
-36.5260049799
 21
-0.6948327556
  0
LINE
  5
401
100
AcDbEntity
  8
ASSI
100
AcDbLine
 62
7
  6
CONTINUOUS
 10
-31.308713697
 20
-0.3993687656
 11
-36.76073719
 21
-0.4469478538
  0
LINE
  5
402
100
AcDbEntity
  8
ASSI
100
AcDbLine
 62
253
  6
CONTINUOUS
 10
-36.5260049799
 20
-0.6948327632
 11
-37.0085554768
 21
-0.6971372196
  0
LINE
  5
403
100
AcDbEntity
  8
ASSI
100
AcDbLine
 62
7
  6
CONTINUOUS
 10
-36.76073719
 20
-0.1517896774
 11
-31.308713697
 21
-0.1993687656
  0
LINE
  5
404
100
AcDbEntity
  8
ASSI
100
AcDbLine
 62
7
  6
CONTINUOUS
 10
-31.708713697
 20
-18.2328585744
 11
-31.708713697
 21
-17.9713896867
  0
LINE
  5
405
100
AcDbEntity
  8
ASSI
100
AcDbLine
 62
7
  6
CONTINUOUS
 10
-31.708713697
 20
17.3726521555
 11
-31.708713697
 21
17.6341210433
  0
LINE
  5
406
100
AcDbEntity
  8
ASSI
100
AcDbLine
 62
7
  6
CONTINUOUS
 10
-31.308713697
 20
-0.3993687656
 11
-31.308713697
 21
-13.3993687656
  0
LINE
  5
407
100
AcDbEntity
  8
ASSI
100
AcDbLine
 62
7
  6
CONTINUOUS
 10
-31.308713697
 20
-0.1993687656
 11
-31.308713697
 21
12.8006312344
  0
LINE
  5
408
100
AcDbEntity
  8
ASSI
100
AcDbLine
 62
253
  6
CONTINUOUS
 10
-37.0085554768
 20
0.0983996884
 11
-36.5260049799
 21
0.0960952321
  0
LINE
  5
409
100
AcDbEntity
  8
ASSI
100
AcDbLine
 62
253
  6
CONTINUOUS
 10
-36.5260049799
 20
0.0960952244
 11
-31.308713697
 21
0.0505646132
  0
LINE
  5
40A
100
AcDbEntity
  8
ASSI
100
AcDbLine
 62
7
  6
CONTINUOUS
 10
-32.1055812615
 20
21.908869175
 11
-31.308713697
 21
12.8006312344
  0
LINE
  5
40B
100
AcDbEntity
  8
ASSI
100
AcDbLine
 62
7
  6
CONTINUOUS
 10
-31.308713697
 20
-13.3993687656
 11
-32.1055812615
 21
-22.5076067061
  0
LWPOLYLINE
  5
40C
100
AcDbEntity
  8
ASSI
100
AcDbPolyline
 62
253
  6
CONTINUOUS
 90
3
 70
0
 10
-36.435995557
 20
9.1911312344
 10
-36.9152244308
 20
9.2005321637
 10
-36.9166373221
 20
9.2005684039
  0
LWPOLYLINE
  5
40D
100
AcDbEntity
  8
ASSI
100
AcDbPolyline
 62
253
  6
CONTINUOUS
 90
3
 70
0
 10
-36.917647296
 20
9.2005970101
 10
-36.9182535356
 20
9.2006179593
 10
-36.9184555505
 20
9.2006312344
  0
LINE
  5
40E
100
AcDbEntity
  8
ASSI
100
AcDbLine
 62
253
  6
CONTINUOUS
 10
-31.7315894174
 20
17.6341228358
 11
-31.708713697
 21
17.6341228356
  0
LWPOLYLINE
  5
40F
100
AcDbEntity
  8
ASSI
100
AcDbPolyline
 62
253
  6
CONTINUOUS
 90
58
 70
0
 10
-34.9837277436
 20
21.258260239
 10
-34.9957195001
 20
21.2574868475
 10
-35.0076761542
 20
21.2564273827
 10
-35.019597706
 20
21.2550818446
 10
-35.0314912061
 20
21.2534491153
 10
-35.0433496038
 20
21.2515303127
 10
-35.0551517467
 20
21.24932879
 10
-35.0668973365
 20
21.246844066
 10
-35.0785866716
 20
21.2440766218
 10
-35.0901994938
 20
21.2410312545
 10
-35.101735646
 20
21.2377074872
 10
-35.1131952854
 20
21.2341057968
 10
-35.1245586261
 20
21.2302324105
 10
-35.1358255121
 20
21.2260868556
 10
-35.1469960994
 20
21.2216696048
 10
-35.1580510704
 20
21.2169883034
 10
-35.1689902239
 20
21.2120424938
 10
-35.1798137612
 20
21.2068326335
 10
-35.1905029684
 20
21.2013677399
 10
-35.2010576126
 20
21.1956473712
 10
-35.2114779269
 20
21.1896719691
 10
-35.2217458966
 20
21.1834518763
 10
-35.2318612516
 20
21.1769866738
 10
-35.2418242621
 20
21.1702767806
 10
-35.2516177238
 20
21.1633337959
 10
-35.2612413501
 20
21.1561573119
 10
-35.2706954277
 20
21.1487477364
 10
-35.2799636121
 20
21.1411178929
 10
-35.289045576
 20
21.1332674048
 10
-35.2979416467
 20
21.1251966487
 10
-35.3066364617
 20
21.116919577
 10
-35.3151296771
 20
21.1084358287
 10
-35.3234216367
 20
21.0997457649
 10
-35.3314980102
 20
21.0908644213
 10
-35.3393584184
 20
21.0817914743
 10
-35.3470032403
 20
21.0725272474
 10
-35.3544192825
 20
21.0630877472
 10
-35.3616061533
 20
21.0534726658
 10
-35.3685642442
 20
21.0436823111
 10
-35.3752815361
 20
21.0337336122
 10
-35.3817576116
 20
21.0236262967
 10
-35.387992888
 20
21.0133606372
 10
-35.3939765986
 20
21.0029543805
 10
-35.3997083081
 20
20.9924072841
 10
-35.4051884519
 20
20.9817195906
 10
-35.4104075695
 20
20.9709097747
 10
-35.4153652067
 20
20.9599776357
 10
-35.4200618177
 20
20.9489233742
 10
-35.4244893051
 20
20.9377660668
 10
-35.428647211
 20
20.9265055115
 10
-35.4325359933
 20
20.9151419102
 10
-35.436148928
 20
20.9036949446
 10
-35.439485556
 20
20.8921643347
 10
-35.4425463364
 20
20.8805503605
 10
-35.4453259227
 20
20.868873544
 10
-35.4478225326
 20
20.8571407259
 10
-35.4500379484
 20
20.8453450655
 10
-35.45197217
 20
20.8334865628
  0
LINE
  5
410
100
AcDbEntity
  8
ASSI
100
AcDbLine
 62
253
  6
CONTINUOUS
 10
-32.0620564709
 20
21.4113785422
 11
-34.9837277436
 21
21.258260239
  0
LINE
  5
411
100
AcDbEntity
  8
ASSI
100
AcDbLine
 62
7
  6
CONTINUOUS
 10
-32.1055812615
 20
21.908869175
 11
-34.9924459734
 21
21.7575750063
  0
LINE
  5
412
100
AcDbEntity
  8
ASSI
100
AcDbLine
 62
253
  6
CONTINUOUS
 10
-35.45197217
 20
20.8334865628
 11
-35.7804678673
 21
20.8837616181
  0
LINE
  5
413
100
AcDbEntity
  8
ASSI
100
AcDbLine
 62
253
  6
CONTINUOUS
 10
-35.7804678673
 20
20.8837616181
 11
-35.8724093655
 21
20.898281384
  0
LINE
  5
414
100
AcDbEntity
  8
ASSI
100
AcDbLine
 62
253
  6
CONTINUOUS
 10
-35.8724093655
 20
20.898281384
 11
-35.9005313935
 21
20.9028640139
  0
LINE
  5
415
100
AcDbEntity
  8
ASSI
100
AcDbLine
 62
253
  6
CONTINUOUS
 10
-35.9005313935
 20
20.9028640139
 11
-35.9129146429
 21
20.9049456582
  0
LWPOLYLINE
  5
416
100
AcDbEntity
  8
ASSI
100
AcDbPolyline
 62
253
  6
CONTINUOUS
 90
9
 70
0
 10
-35.9129146429
 20
20.9049456582
 10
-35.9192398359
 20
20.9060451889
 10
-35.9218151912
 20
20.9065070794
 10
-35.9239961673
 20
20.9069098725
 10
-35.9257809992
 20
20.9072532421
 10
-35.9271682423
 20
20.9075369104
 10
-35.928156774
 20
20.9077606478
 10
-35.9287457942
 20
20.9079242731
 10
-35.9289348261
 20
20.908027654
  0
ARC
  5
417
100
AcDbEntity
  8
ASSI
100
AcDbCircle
 62
7
  6
CONTINUOUS
 10
53.0652979832
 20
-8.0893687656
 40
90.0
100
AcDbArc
 50
181.08868532
 51
188.5737414447
  0
ARC
  5
418
100
AcDbEntity
  8
ASSI
100
AcDbCircle
 62
7
  6
CONTINUOUS
 10
-34.9401100172
 20
-21.3576830028
 40
1.0
100
AcDbArc
 50
188.5737414447
 51
267.0
  0
ARC
  5
419
100
AcDbEntity
  8
ASSI
100
AcDbCircle
 62
7
  6
CONTINUOUS
 10
-32.008713697
 20
-18.2328603668
 40
0.3
100
AcDbArc
 50
334.9997013218
 51
0.0003423163
  0
ARC
  5
41A
100
AcDbEntity
  8
ASSI
100
AcDbCircle
 62
7
  6
CONTINUOUS
 10
-36.758555542
 20
-0.6969383344
 40
0.25
100
AcDbArc
 50
90.5000032275
 51
180.045580992
  0
ARC
  5
41B
100
AcDbEntity
  8
ASSI
100
AcDbCircle
 62
7
  6
CONTINUOUS
 10
53.0652979832
 20
7.4906312344
 40
90.0
100
AcDbArc
 50
171.4262585553
 51
178.91131468
  0
ARC
  5
41C
100
AcDbEntity
  8
0
100
AcDbCircle
 62
253
  6
CONTINUOUS
 10
53.0652979832
 20
7.4906312344
 40
90.0
100
AcDbArc
 50
176.2000122959
 51
177.9875308984
  0
ARC
  5
41D
100
AcDbEntity
  8
ASSI
100
AcDbCircle
 62
7
  6
CONTINUOUS
 10
-34.9401100172
 20
20.7589454716
 40
1.0
100
AcDbArc
 50
93.0
 51
171.4262585553
  0
ARC
  5
41E
100
AcDbEntity
  8
ASSI
100
AcDbCircle
 62
7
  6
CONTINUOUS
 10
-32.008713697
 20
17.6341228356
 40
0.3
100
AcDbArc
 50
359.9996576837
 51
25.0002986779
  0
ARC
  5
41F
100
AcDbEntity
  8
ASSI
100
AcDbCircle
 62
7
  6
CONTINUOUS
 10
-36.758555542
 20
0.0982008033
 40
0.25
100
AcDbArc
 50
179.954419008
 51
269.4999967725
  0
ARC
  5
420
100
AcDbEntity
  8
ASSI
100
AcDbCircle
 62
7
  6
CONTINUOUS
 10
462.991286303
 20
-0.2993687656
 40
500.0
100
AcDbArc
 50
178.91131468
 51
179.954419088
  0
ARC
  5
421
100
AcDbEntity
  8
ASSI
100
AcDbCircle
 62
7
  6
CONTINUOUS
 10
462.991286303
 20
-0.2993687656
 40
500.0
100
AcDbArc
 50
180.045580912
 51
181.08868532
  0
ELLIPSE
  5
422
100
AcDbEntity
  8
ASSI
100
AcDbEllipse
 62
7
  6
CONTINUOUS
 10
-7.3597520472
 20
-22.4812386525
 30
0.0
 11
0.2
 21
-0.0
 31
0.0
 40
0.0524077793
 41
1.5707963268
 42
2.617993878
  0
ELLIPSE
  5
423
100
AcDbEntity
  8
ASSI
100
AcDbEllipse
 62
7
  6
CONTINUOUS
 10
3.8402479528
 20
-22.4812386525
 30
0.0
 11
0.2
 21
-0.0
 31
0.0
 40
0.0524077793
 41
1.5707963268
 42
2.617993878
  0
ELLIPSE
  5
424
100
AcDbEntity
  8
ASSI
100
AcDbEllipse
 62
7
  6
CONTINUOUS
 10
-3.9906921548
 20
-22.4812386525
 30
0.0
 11
0.2
 21
0.0
 31
0.0
 40
0.0524077793
 41
0.5235987756
 42
1.5707963268
  0
ELLIPSE
  5
425
100
AcDbEntity
  8
ASSI
100
AcDbEllipse
 62
7
  6
CONTINUOUS
 10
7.2093078452
 20
-22.4812386525
 30
0.0
 11
0.2
 21
0.0
 31
0.0
 40
0.0524077793
 41
0.5235987756
 42
1.5707963268
  0
ELLIPSE
  5
426
100
AcDbEntity
  8
ASSI
100
AcDbEllipse
 62
7
  6
CONTINUOUS
 10
10.5481685987
 20
-22.0092057447
 30
0.0
 11
0.4943891341
 21
0.0770133648
 31
0.0
 40
0.9960067742
 41
-1.7259388368
 42
-0.1569690096
  0
ELLIPSE
  5
427
100
AcDbEntity
  8
ASSI
100
AcDbEllipse
 62
7
  6
CONTINUOUS
 10
-10.6986128007
 20
-22.0092057447
 30
0.0
 11
0.4943891341
 21
-0.0770133648
 31
0.0
 40
0.9960067742
 41
-2.984623644
 42
-1.4156538168
  0
ELLIPSE
  5
428
100
AcDbEntity
  8
ASSI
100
AcDbEllipse
 62
7
  6
CONTINUOUS
 10
10.8246255129
 20
-0.6493782852
 30
0.0
 11
0.2426981267
 21
0.0606514259
 31
0.0
 40
0.9993528196
 41
-0.2447368254
 42
1.3257549497
  0
ELLIPSE
  5
429
100
AcDbEntity
  8
ASSI
100
AcDbEllipse
 62
7
  6
CONTINUOUS
 10
-10.9750697149
 20
-0.6493782852
 30
0.0
 11
0.2426981267
 21
-0.0606514259
 31
0.0
 40
0.9993528196
 41
1.8158377039
 42
3.386329479
  0
ELLIPSE
  5
42A
100
AcDbEntity
  8
ASSI
100
AcDbEllipse
 62
7
  6
CONTINUOUS
 10
7.2093078452
 20
21.8825011213
 30
0.0
 11
0.2
 21
0.0
 31
0.0
 40
0.0524077793
 41
-1.5707963268
 42
-0.5235987756
  0
ELLIPSE
  5
42B
100
AcDbEntity
  8
ASSI
100
AcDbEllipse
 62
7
  6
CONTINUOUS
 10
-3.9906921548
 20
21.8825011213
 30
0.0
 11
0.2
 21
0.0
 31
0.0
 40
0.0524077793
 41
-1.5707963268
 42
-0.5235987756
  0
ELLIPSE
  5
42C
100
AcDbEntity
  8
ASSI
100
AcDbEllipse
 62
7
  6
CONTINUOUS
 10
3.8402479528
 20
21.8825011213
 30
0.0
 11
0.2
 21
0.0
 31
0.0
 40
0.0524077793
 41
-2.617993878
 42
-1.5707963268
  0
ELLIPSE
  5
42D
100
AcDbEntity
  8
ASSI
100
AcDbEllipse
 62
7
  6
CONTINUOUS
 10
-7.3597520472
 20
21.8825011213
 30
0.0
 11
0.2
 21
0.0
 31
0.0
 40
0.0524077793
 41
-2.617993878
 42
-1.5707963268
  0
ELLIPSE
  5
42E
100
AcDbEntity
  8
ASSI
100
AcDbEllipse
 62
7
  6
CONTINUOUS
 10
-10.6986128007
 20
21.4104682135
 30
0.0
 11
0.4943891341
 21
0.0770133648
 31
0.0
 40
0.9960067742
 41
1.4156538168
 42
2.984623644
  0
ELLIPSE
  5
42F
100
AcDbEntity
  8
ASSI
100
AcDbEllipse
 62
7
  6
CONTINUOUS
 10
10.5481685987
 20
21.4104682135
 30
0.0
 11
0.4943891341
 21
-0.0770133648
 31
0.0
 40
0.9960067742
 41
0.1569690096
 42
1.7259388368
  0
ELLIPSE
  5
430
100
AcDbEntity
  8
ASSI
100
AcDbEllipse
 62
7
  6
CONTINUOUS
 10
-10.9750697149
 20
0.050640754
 30
0.0
 11
0.2426981267
 21
0.0606514259
 31
0.0
 40
0.9993528196
 41
2.8968558282
 42
4.4673476033
  0
ELLIPSE
  5
431
100
AcDbEntity
  8
ASSI
100
AcDbEllipse
 62
7
  6
CONTINUOUS
 10
10.8246255129
 20
0.050640754
 30
0.0
 11
0.2426981267
 21
-0.0606514259
 31
0.0
 40
0.9993528196
 41
-1.3257549497
 42
0.2447368254
  0
ELLIPSE
  5
432
100
AcDbEntity
  8
0
100
AcDbEllipse
 62
253
  6
CONTINUOUS
 10
53.0652979832
 20
7.4906312344
 30
0.0
 11
0.0
 21
90.0
 31
0.0
 40
1.0
 41
1.5365306655
 42
1.5366094987
  0
ELLIPSE
  5
433
100
AcDbEntity
  8
0
100
AcDbEllipse
 62
253
  6
CONTINUOUS
 10
53.0652979832
 20
7.4906312344
 30
0.0
 11
-0.0
 21
90.0
 31
0.0
 40
1.0
 41
7.7876096847
 42
7.819091967
  0
ELLIPSE
  5
434
100
AcDbEntity
  8
0
100
AcDbEllipse
 62
253
  6
CONTINUOUS
 10
53.0652979832
 20
-8.0893687656
 30
0.0
 11
0.0
 21
90.0
 31
0.0
 40
1.0
 41
-4.641788586
 42
-4.6417060654
  0
ELLIPSE
  5
435
100
AcDbEntity
  8
0
100
AcDbEllipse
 62
253
  6
CONTINUOUS
 10
53.0652979832
 20
-8.0893687656
 30
0.0
 11
90.0
 21
0.0
 31
0.0
 40
1.0
 41
-3.1035980473
 42
-3.1034740934
  0
ELLIPSE
  5
436
100
AcDbEntity
  8
0
100
AcDbEllipse
 62
253
  6
CONTINUOUS
 10
53.0652979832
 20
-8.0893687656
 30
0.0
 11
0.0
 21
90.0
 31
0.0
 40
1.0
 41
-4.6679946406
 42
-4.642489992
  0
ENDSEC
  0
SECTION
  2
OBJECTS
  0
DICTIONARY
  5
C
100
AcDbDictionary
280
0
281
1
  3
ACAD_GROUP
350
D
  3
ACAD_MLINESTYLE
350
17
  3
ACAD_LAYOUT
350
1A
  3
ACAD_PLOTSETTINGS
350
19
  3
ACAD_PLOTSTYLENAME
350
E
  0
DICTIONARY
  5
D
102
{ACAD_REACTORS
330
C
102
}
100
AcDbDictionary
280
0
281
1
  0
ACDBDICTIONARYWDFLT
  5
E
102
{ACAD_REACTORS
330
C
102
}
100
AcDbDictionary
281
1
  3
Normal
350
F
100
AcDbDictionaryWithDefault
340
F
  0
DICTIONARY
  5
17
102
{ACAD_REACTORS
330
C
102
}
100
AcDbDictionary
280
0
281
1
  3
Standard
350
18
  0
DICTIONARY
  5
19
102
{ACAD_REACTORS
330
C
102
}
100
AcDbDictionary
281
1
  0
DICTIONARY
  5
1A
102
{ACAD_REACTORS
330
C
102
}
100
AcDbDictionary
281
1
  3
Model
350
437
  3
Layout1
350
438
  0
ACDBPLACEHOLDER
  5
F
102
{ACAD_REACTORS
330
E
102
}
  0
MLINESTYLE
  5
18
102
{ACAD_REACTORS
330
17
102
}
100
AcDbMlineStyle
  2
STANDARD
 70
0
  3

 62
256
 51
90.0
 52
90.0
 71
2
 49
0.5
 62
256
  6
BYLAYER
 49
-0.5
 62
256
  6
BYLAYER
  0
LAYOUT
  5
437
102
{ACAD_REACTORS
330
1A
102
}
100
AcDbPlotSettings
  1

  2
none_device
  4
ISO_A4_(297.00_x_210.00_MM)
  6

 40
0.0
 41
0.0
 42
0.0
 43
0.0
 44
297.0
 45
210.0
 46
0.0
 47
0.0
 48
0.0
 49
0.0
140
0.0
141
0.0
142
1.0
143
1.0
 70
1024
 72
1
 73
0
 74
0
  7

 75
0
147
1.0
148
0.0
149
0.0
100
AcDbLayout
  1
Model
 70
0
 71
0
 10
0.0
 20
0.0
 11
297.0
 21
210.0
 12
0.0
 22
0.0
 32
0.0
 14
0.0
 24
0.0
 34
0.0
 15
0.0
 25
0.0
 35
0.0
146
0.0
 13
0.0
 23
0.0
 33
0.0
 16
1.0
 26
0.0
 36
0.0
 17
0.0
 27
1.0
 37
0.0
 76
0
330
219
345
0
346
0
  0
LAYOUT
  5
438
102
{ACAD_REACTORS
330
1A
102
}
100
AcDbPlotSettings
  1

  2
none_device
  4
ISO_A4_(297.00_x_210.00_MM)
  6

 40
0.0
 41
0.0
 42
0.0
 43
0.0
 44
297.0
 45
210.0
 46
0.0
 47
0.0
 48
0.0
 49
0.0
140
0.0
141
0.0
142
1.0
143
1.0
 70
0
 72
1
 73
0
 74
0
  7

 75
0
147
1.0
148
0.0
149
0.0
100
AcDbLayout
  1
Layout1
 70
0
 71
1
 10
0.0
 20
0.0
 11
297.0
 21
210.0
 12
0.0
 22
0.0
 32
0.0
 14
0.0
 24
0.0
 34
0.0
 15
0.0
 25
0.0
 35
0.0
146
0.0
 13
0.0
 23
0.0
 33
0.0
 16
1.0
 26
0.0
 36
0.0
 17
0.0
 27
1.0
 37
0.0
 76
0
330
21A
345
0
346
0
  0
ENDSEC
  0
EOF
