  0
SECTION
  2
HEADER
  9
$ACADVER
  1
AC1021
  9
$DWGCODEPAGE
  3
ANSI_1252
  9
$EXTMAX
 10
297.0
 20
210.0
 30
0.0
  9
$EXTMIN
 10
0.0
 20
0.0
 30
0.0
  9
$LIMMIN
 10
0.0
 20
0.0
  9
$LIMMAX
 10
297.0
 20
210.0
  9
$VIEWCTR
 10
148.5
 20
105.0
  9
$VIEWSIZE
 40
210.0
  9
$CLAYER
  8
0
  9
$LTSCALE
 40
16.335
  9
$CELTYPE
  6
BYLAYER
  9
$DIMSCALE
 40
1.0
  9
$DIMASZ
 40
3.0
  9
$DIMEXO
 40
0.5
  9
$DIMDLI
 40
11.286
  9
$DIMEXE
 40
1.5
  9
$DIMCEN
 40
2.673
  9
$DIMLFAC
 40
1.0
  9
$DIMBLK
  1
_FILLED
  9
$DIMALT
 70
0
  9
$DIMALTF
 40
25.4
  9
$DIMTXT
 40
3.0
  9
$DIMTOL
 70
1
  9
$DIMLIM
 70
0
  9
$DIMTFAC
 40
1.0
  9
$DIMTP
 40
0.01
  9
$DIMTM
 40
0.01
  9
$DIMGAP
 40
0.625
  9
$DIMDSEP
 70
44
  9
$AUNITS
 70
0
  9
$PDMODE
 70
3
  9
$PDSIZE
 40
3.0
  9
$HANDSEED
  5
3EC
  9
$TILEMODE
 70
1
  9
$MEASUREMENT
 70
1
  9
$INSUNITS
 70
4
  0
ENDSEC
  0
SECTION
  2
CLASSES
  0
CLASS
  1
ACDBDICTIONARYWDFLT
  2
AcDbDictionaryWithDefault
  3
AutoCAD 2000
 90
0
 91
1
280
0
281
0
  0
CLASS
  1
ACDBPLACEHOLDER
  2
AcDbPlaceHolder
  3
AutoCAD 2000
 90
0
 91
1
280
0
281
0
  0
CLASS
  1
LAYOUT
  2
AcDbLayout
  3
AutoCAD 2000
 90
0
 91
0
280
0
281
0
  0
ENDSEC
  0
SECTION
  2
TABLES
  0
TABLE
  2
VPORT
  5
8
100
AcDbSymbolTable
 70
2
  0
VPORT
  5
1F4
100
AcDbSymbolTableRecord
100
AcDbViewportTableRecord
  2
*ACTIVE
 70
0
 10
0.0
 20
0.0
 11
1.0
 21
1.0
 12
148.5
 22
105.0
 13
0.0
 23
0.0
 14
1.0
 24
1.0
 15
0.0
 25
0.0
 16
0.0
 26
0.0
 36
1.0
 17
0.0
 27
0.0
 37
0.0
 40
210.0
 41
1.4142857143
 42
50.0
 43
0.0
 44
0.0
 50
0.0
 51
0.0
 71
0
 72
100
 73
1
 74
1
 75
0
 76
0
 77
0
 78
0
  0
ENDTAB
  0
TABLE
  2
LTYPE
  5
5
100
AcDbSymbolTable
 70
6
  0
LTYPE
  5
14
100
AcDbSymbolTableRecord
100
AcDbLinetypeTableRecord
  2
BYBLOCK
 70
0
  3

 72
65
 73
0
 40
0.0
  0
LTYPE
  5
15
100
AcDbSymbolTableRecord
100
AcDbLinetypeTableRecord
  2
BYLAYER
 70
0
  3

 72
65
 73
0
 40
0.0
  0
LTYPE
  5
16
100
AcDbSymbolTableRecord
100
AcDbLinetypeTableRecord
  2
CONTINUOUS
 70
64
  3
Solid line
 72
65
 73
0
 40
0.0
  0
LTYPE
  5
1F5
100
AcDbSymbolTableRecord
100
AcDbLinetypeTableRecord
  2
CENTER
 70
64
  3
____ _ ____ _ ____ _ ____ _ ____ _ ____ _ ____
 72
65
 73
4
 40
0.6
 49
0.375
 74
0
 49
-0.075
 74
0
 49
0.075
 74
0
 49
-0.075
 74
0
  0
LTYPE
  5
1F6
100
AcDbSymbolTableRecord
100
AcDbLinetypeTableRecord
  2
HIDDEN
 70
64
  3
- - - - - - - - - - - - - - - - - - - -
 72
65
 73
2
 40
0.2
 49
0.1
 74
0
 49
-0.1
 74
0
  0
LTYPE
  5
1F7
100
AcDbSymbolTableRecord
100
AcDbLinetypeTableRecord
  2
PHANTOM
 70
64
  3
_____ _ _ _____ _ _ _____ _ _ _____
 72
65
 73
6
 40
0.8
 49
0.45
 74
0
 49
-0.05
 74
0
 49
0.1
 74
0
 49
-0.05
 74
0
 49
0.1
 74
0
 49
-0.05
 74
0
  0
LTYPE
  5
1F8
100
AcDbSymbolTableRecord
100
AcDbLinetypeTableRecord
  2
DOT
 70
64
  3
. . . . . . . . . . . . . . . . . . . .
 72
65
 73
2
 40
0.2
 49
0.1
 74
0
 49
-0.1
 74
0
  0
LTYPE
  5
1F9
100
AcDbSymbolTableRecord
100
AcDbLinetypeTableRecord
  2
DASHED
 70
64
  3
- - - - - - - - - - - - - - - - - - - -
 72
65
 73
2
 40
0.2
 49
0.1
 74
0
 49
-0.1
 74
0
  0
ENDTAB
  0
TABLE
  2
LAYER
  5
2
100
AcDbSymbolTable
 70
36
  0
LAYER
  5
10
100
AcDbSymbolTableRecord
100
AcDbLayerTableRecord
  2
0
 70
0
 62
7
  6
CONTINUOUS
370
-3
390
F
  0
LAYER
  5
1FA
100
AcDbSymbolTableRecord
100
AcDbLayerTableRecord
  2
DEFAULT_1
 70
0
 62
7
  6
CENTER
370
-3
390
F
  0
LAYER
  5
1FB
100
AcDbSymbolTableRecord
100
AcDbLayerTableRecord
  2
DEFAULT_2
 70
0
 62
7
  6
HIDDEN
370
-3
390
F
  0
LAYER
  5
1FC
100
AcDbSymbolTableRecord
100
AcDbLayerTableRecord
  2
DEFAULT_3
 70
0
 62
7
  6
PHANTOM
370
-3
390
F
  0
LAYER
  5
1FD
100
AcDbSymbolTableRecord
100
AcDbLayerTableRecord
  2
ASSI
 70
0
 62
7
  6
CONTINUOUS
370
-3
390
F
  0
LAYER
  5
1FE
100
AcDbSymbolTableRecord
100
AcDbLayerTableRecord
  2
COLOR9
 70
0
 62
7
  6
CONTINUOUS
370
-3
390
F
  0
LAYER
  5
1FF
100
AcDbSymbolTableRecord
100
AcDbLayerTableRecord
  2
COORDINATE
 70
0
 62
7
  6
CONTINUOUS
370
-3
390
F
  0
LAYER
  5
200
100
AcDbSymbolTableRecord
100
AcDbLayerTableRecord
  2
COORD_ORIGINE
 70
0
 62
7
  6
CONTINUOUS
370
-3
390
F
  0
LAYER
  5
201
100
AcDbSymbolTableRecord
100
AcDbLayerTableRecord
  2
COPY_PUBLISH
 70
0
 62
7
  6
CONTINUOUS
370
-3
390
F
  0
LAYER
  5
202
100
AcDbSymbolTableRecord
100
AcDbLayerTableRecord
  2
COSMETICI
 70
0
 62
7
  6
CONTINUOUS
370
-3
390
F
  0
LAYER
  5
203
100
AcDbSymbolTableRecord
100
AcDbLayerTableRecord
  2
CURVE
 70
0
 62
7
  6
CONTINUOUS
370
-3
390
F
  0
LAYER
  5
204
100
AcDbSymbolTableRecord
100
AcDbLayerTableRecord
  2
DRAFT
 70
0
 62
7
  6
CONTINUOUS
370
-3
390
F
  0
LAYER
  5
205
100
AcDbSymbolTableRecord
100
AcDbLayerTableRecord
  2
IGES
 70
0
 62
7
  6
CONTINUOUS
370
-3
390
F
  0
LAYER
  5
206
100
AcDbSymbolTableRecord
100
AcDbLayerTableRecord
  2
IGS_SCRITTE
 70
0
 62
7
  6
CONTINUOUS
370
-3
390
F
  0
LAYER
  5
207
100
AcDbSymbolTableRecord
100
AcDbLayerTableRecord
  2
IMPORT_IGES
 70
0
 62
7
  6
CONTINUOUS
370
-3
390
F
  0
LAYER
  5
208
100
AcDbSymbolTableRecord
100
AcDbLayerTableRecord
  2
INTF_YELLOW
 70
0
 62
7
  6
CONTINUOUS
370
-3
390
F
  0
LAYER
  5
209
100
AcDbSymbolTableRecord
100
AcDbLayerTableRecord
  2
LIVELLO_1
 70
0
 62
7
  6
CONTINUOUS
370
-3
390
F
  0
LAYER
  5
20A
100
AcDbSymbolTableRecord
100
AcDbLayerTableRecord
  2
NOTE
 70
0
 62
7
  6
CONTINUOUS
370
-3
390
F
  0
LAYER
  5
20B
100
AcDbSymbolTableRecord
100
AcDbLayerTableRecord
  2
PIANI
 70
0
 62
7
  6
CONTINUOUS
370
-3
390
F
  0
LAYER
  5
20C
100
AcDbSymbolTableRecord
100
AcDbLayerTableRecord
  2
PIANI_ORIGINE
 70
0
 62
7
  6
CONTINUOUS
370
-3
390
F
  0
LAYER
  5
20D
100
AcDbSymbolTableRecord
100
AcDbLayerTableRecord
  2
PIANI_RIFERIMENTO
 70
0
 62
7
  6
CONTINUOUS
370
-3
390
F
  0
LAYER
  5
20E
100
AcDbSymbolTableRecord
100
AcDbLayerTableRecord
  2
PUNTI
 70
0
 62
7
  6
CONTINUOUS
370
-3
390
F
  0
LAYER
  5
20F
100
AcDbSymbolTableRecord
100
AcDbLayerTableRecord
  2
RACCORDO
 70
0
 62
7
  6
CONTINUOUS
370
-3
390
F
  0
LAYER
  5
210
100
AcDbSymbolTableRecord
100
AcDbLayerTableRecord
  2
SIMBOLI
 70
0
 62
7
  6
CONTINUOUS
370
-3
390
F
  0
LAYER
  5
211
100
AcDbSymbolTableRecord
100
AcDbLayerTableRecord
  2
SMUSSO
 70
0
 62
7
  6
CONTINUOUS
370
-3
390
F
  0
LAYER
  5
212
100
AcDbSymbolTableRecord
100
AcDbLayerTableRecord
  2
SNAPLINE
 70
0
 62
7
  6
CONTINUOUS
370
-3
390
F
  0
LAYER
  5
213
100
AcDbSymbolTableRecord
100
AcDbLayerTableRecord
  2
SOLIDO
 70
0
 62
7
  6
CONTINUOUS
370
-3
390
F
  0
LAYER
  5
214
100
AcDbSymbolTableRecord
100
AcDbLayerTableRecord
  2
SUPERFICI
 70
0
 62
7
  6
CONTINUOUS
370
-3
390
F
  0
LAYER
  5
215
100
AcDbSymbolTableRecord
100
AcDbLayerTableRecord
  2
TRASH
 70
0
 62
7
  6
CONTINUOUS
370
-3
390
F
  0
LAYER
  5
216
100
AcDbSymbolTableRecord
100
AcDbLayerTableRecord
  2
WHITE
 70
0
 62
7
  6
CONTINUOUS
370
-3
390
F
  0
ENDTAB
  0
TABLE
  2
STYLE
  5
3
100
AcDbSymbolTable
 70
1
  0
STYLE
  5
11
100
AcDbSymbolTableRecord
100
AcDbTextStyleTableRecord
  2
STANDARD
 70
0
 40
0.0
 41
0.8
 50
0.0
 71
0
 42
0.2
  3
txt
  4

  0
STYLE
  5
217
100
AcDbSymbolTableRecord
100
AcDbTextStyleTableRecord
  2
TEXTSTYLE_1
 70
0
 40
0.0
 41
0.8
 50
0.0
 71
0
 42
0.2
  3
gdt
  4

  0
ENDTAB
  0
TABLE
  2
VIEW
  5
6
100
AcDbSymbolTable
 70
0
  0
ENDTAB
  0
TABLE
  2
UCS
  5
7
100
AcDbSymbolTable
 70
0
  0
ENDTAB
  0
TABLE
  2
APPID
  5
9
100
AcDbSymbolTable
 70
1
  0
APPID
  5
218
100
AcDbSymbolTableRecord
100
AcDbRegAppTableRecord
  2
ACAD
 70
0
  0
ENDTAB
  0
TABLE
  2
BLOCK_RECORD
  5
1
100
AcDbSymbolTable
 70
0
  0
BLOCK_RECORD
  5
219
100
AcDbSymbolTableRecord
100
AcDbBlockTableRecord
  2
*Model_Space
  0
BLOCK_RECORD
  5
21A
100
AcDbSymbolTableRecord
100
AcDbBlockTableRecord
  2
*Paper_Space
  0
BLOCK_RECORD
  5
21B
100
AcDbSymbolTableRecord
100
AcDbBlockTableRecord
  2
_FILLED
  0
BLOCK_RECORD
  5
21C
100
AcDbSymbolTableRecord
100
AcDbBlockTableRecord
  2
*D0
  0
BLOCK_RECORD
  5
21D
100
AcDbSymbolTableRecord
100
AcDbBlockTableRecord
  2
*D1
  0
BLOCK_RECORD
  5
21E
100
AcDbSymbolTableRecord
100
AcDbBlockTableRecord
  2
*D2
  0
ENDTAB
  0
TABLE
  2
DIMSTYLE
  5
A
100
AcDbSymbolTable
 70
1
100
AcDbDimStyleTable
 71
0
  0
DIMSTYLE
105
21F
100
AcDbSymbolTableRecord
100
AcDbDimStyleTableRecord
  2
STANDARD
 70
0
  3

  4

 40
1.0
 41
3.0
 42
0.5
 43
0.38
 44
1.5
 45
0.0
 46
0.0
 47
0.01
 48
0.01
140
3.0
141
0.09
142
0.0
143
25.4
144
1.0
145
0.0
146
1.0
147
0.625
 71
1.0
 72
0.0
 73
0
 74
0
 75
0
 76
0
 77
1
 78
8
170
0
171
1
172
0
173
0
174
0
175
0
176
0
177
0
178
0
270
2
271
2
272
2
273
2
274
2
275
0
280
0
281
0
282
0
283
1
284
8
285
0
286
0
287
3
288
0
340
11
278
44
341
21B
342
21B
343
21B
344
21B
  0
DIMSTYLE
105
220
100
AcDbSymbolTableRecord
100
AcDbDimStyleTableRecord
  2
DIMSTYLE_1
 70
0
  3

  4

 40
1.0
 41
3.0
 42
0.5
 43
0.38
 44
1.5
 45
0.0
 46
0.0
 47
0.0
 48
0.0
140
3.0
141
0.09
142
0.0
143
25.4
144
1.0
145
0.0
146
1.0
147
0.75
 71
0.0
 72
0.0
 73
0
 74
0
 75
0
 76
0
 77
1
 78
8
170
0
171
1
172
0
173
0
174
0
175
0
176
0
177
0
178
0
270
2
271
2
272
2
273
2
274
2
275
0
280
0
281
0
282
0
283
1
284
8
285
0
286
0
287
3
288
0
340
11
278
44
341
21B
342
21B
343
21B
344
21B
  0
DIMSTYLE
105
221
100
AcDbSymbolTableRecord
100
AcDbDimStyleTableRecord
  2
DIMSTYLE_2
 70
0
  3

  4

 40
1.0
 41
3.0
 42
0.5
 43
0.38
 44
1.5
 45
0.0
 46
0.0
 47
0.0
 48
0.0
140
3.0
141
0.09
142
0.0
143
25.4
144
1.0
145
0.0
146
1.0
147
0.75
 71
0.0
 72
0.0
 73
0
 74
0
 75
0
 76
0
 77
1
 78
8
170
0
171
1
172
0
173
0
174
0
175
0
176
0
177
0
178
0
270
2
271
1
272
1
273
2
274
2
275
0
280
0
281
0
282
0
283
1
284
8
285
0
286
0
287
3
288
0
340
11
278
44
341
21B
342
21B
343
21B
344
21B
  0
ENDTAB
  0
ENDSEC
  0
SECTION
  2
BLOCKS
  0
BLOCK
  5
20
100
AcDbEntity
  8
0
100
AcDbBlockBegin
  2
*Model_Space
 70
0
 10
0.0
 20
0.0
 30
0.0
  3
*Model_Space
  1

  0
ENDBLK
  5
21
100
AcDbEntity
  8
0
100
AcDbBlockEnd
  0
BLOCK
  5
1C
100
AcDbEntity
  8
0
100
AcDbBlockBegin
  2
*Paper_Space
 70
0
 10
0.0
 20
0.0
 30
0.0
  3
*Paper_Space
  1

  0
ENDBLK
  5
1D
100
AcDbEntity
  8
0
100
AcDbBlockEnd
  0
BLOCK
  5
222
100
AcDbEntity
  8
0
100
AcDbBlockBegin
  2
_FILLED
 70
64
 10
0.0
 20
0.0
  3
_FILLED
  1

  0
SOLID
  5
223
100
AcDbEntity
  8
0
  6
BYBLOCK
 62
0
100
AcDbTrace
 10
0.0
 20
0.0
 11
-1.0
 21
0.3166666667
 12
-1.0
 22
-0.3166666667
 13
-1.0
 23
-0.3166666667
  0
ENDBLK
  5
224
100
AcDbEntity
  8
0
  6
BYBLOCK
 62
0
100
AcDbBlockEnd
  0
BLOCK
  5
225
100
AcDbEntity
  8
0
100
AcDbBlockBegin
 62
7
  6
CONTINUOUS
  2
*D0
 70
65
 10
0.0
 20
0.0
  3
*D0
  1

  0
MTEXT
  5
226
100
AcDbEntity
  8
0
100
AcDbMText
 62
7
  6
CONTINUOUS
  7
STANDARD
 71
2
 72
1
 10
-0.075222101
 20
33.658869175
 30
0.0
 11
1.0
 21
0.0
 31
0.0
 44
0.9
  1
22,3
 40
3.0
 41
12.8571428571
  0
LINE
  5
227
100
AcDbEntity
  8
0
100
AcDbLine
 62
7
  6
CONTINUOUS
 10
11.074777899
 20
13.3006312344
 11
11.074777899
 21
31.408869175
  0
LINE
  5
228
100
AcDbEntity
  8
0
100
AcDbLine
 62
7
  6
CONTINUOUS
 10
-11.225222101
 20
13.3006312344
 11
-11.225222101
 21
31.408869175
  0
LINE
  5
229
100
AcDbEntity
  8
0
100
AcDbLine
 62
7
  6
CONTINUOUS
 10
11.074777899
 20
29.908869175
 11
-0.075222101
 21
29.908869175
  0
LINE
  5
22A
100
AcDbEntity
  8
0
100
AcDbLine
 62
7
  6
CONTINUOUS
 10
-11.225222101
 20
29.908869175
 11
-0.075222101
 21
29.908869175
  0
INSERT
  5
22B
100
AcDbEntity
  8
0
100
AcDbBlockReference
 62
7
  6
CONTINUOUS
  2
_FILLED
 10
11.074777899
 20
29.908869175
 41
3.0
 42
3.0
 43
3.0
  0
INSERT
  5
22C
100
AcDbEntity
  8
0
100
AcDbBlockReference
 62
7
  6
CONTINUOUS
  2
_FILLED
 10
-11.225222101
 20
29.908869175
 41
3.0
 42
3.0
 43
3.0
 50
180.0
  0
ENDBLK
  5
22D
100
AcDbEntity
  8
0
  6
BYBLOCK
 62
0
100
AcDbBlockEnd
  0
BLOCK
  5
22E
100
AcDbEntity
  8
0
100
AcDbBlockBegin
 62
7
  6
CONTINUOUS
  2
*D1
 70
65
 10
0.0
 20
0.0
  3
*D1
  1

  0
MTEXT
  5
22F
100
AcDbEntity
  8
0
100
AcDbMText
 62
7
  6
CONTINUOUS
  7
STANDARD
 71
2
 72
1
 10
15.324777899
 20
-0.2993687656
 30
0.0
 11
0.0
 21
1.0
 31
0.0
 44
0.9
  1
44,4
 40
3.0
 41
13.1785714286
  0
LINE
  5
230
100
AcDbEntity
  8
0
100
AcDbLine
 62
7
  6
CONTINUOUS
 10
11.0475597042
 20
21.908869175
 11
20.574777899
 21
21.908869175
  0
LINE
  5
231
100
AcDbEntity
  8
0
100
AcDbLine
 62
7
  6
CONTINUOUS
 10
11.0475597042
 20
-22.5076067061
 11
20.574777899
 21
-22.5076067061
  0
LINE
  5
232
100
AcDbEntity
  8
0
100
AcDbLine
 62
7
  6
CONTINUOUS
 10
19.074777899
 20
21.908869175
 11
19.074777899
 21
-0.2993687656
  0
LINE
  5
233
100
AcDbEntity
  8
0
100
AcDbLine
 62
7
  6
CONTINUOUS
 10
19.074777899
 20
-22.5076067061
 11
19.074777899
 21
-0.2993687656
  0
INSERT
  5
234
100
AcDbEntity
  8
0
100
AcDbBlockReference
 62
7
  6
CONTINUOUS
  2
_FILLED
 10
19.074777899
 20
21.908869175
 41
3.0
 42
3.0
 43
3.0
 50
90.0
  0
INSERT
  5
235
100
AcDbEntity
  8
0
100
AcDbBlockReference
 62
7
  6
CONTINUOUS
  2
_FILLED
 10
19.074777899
 20
-22.5076067061
 41
3.0
 42
3.0
 43
3.0
 50
270.0
  0
ENDBLK
  5
236
100
AcDbEntity
  8
0
  6
BYBLOCK
 62
0
100
AcDbBlockEnd
  0
BLOCK
  5
237
100
AcDbEntity
  8
0
100
AcDbBlockBegin
 62
7
  6
CONTINUOUS
  2
*D2
 70
65
 10
0.0
 20
0.0
  3
*D2
  1

  0
MTEXT
  5
238
100
AcDbEntity
  8
0
100
AcDbMText
 62
7
  6
CONTINUOUS
  7
STANDARD
 71
1
 72
1
 10
-24.6808128423
 20
33.658869175
 30
0.0
 11
1.0
 21
0.0
 31
0.0
 44
0.9
  1
5,7
 40
3.0
 41
9.3214285714
  0
LINE
  5
239
100
AcDbEntity
  8
0
100
AcDbLine
 62
7
  6
CONTINUOUS
 10
-29.1214864526
 20
13.3006312344
 11
-29.1214864526
 21
31.408869175
  0
LINE
  5
23A
100
AcDbEntity
  8
0
100
AcDbLine
 62
7
  6
CONTINUOUS
 10
-34.8213282324
 20
0.5983996884
 11
-34.8213282324
 21
31.408869175
  0
LINE
  5
23B
100
AcDbEntity
  8
0
100
AcDbLine
 62
7
  6
CONTINUOUS
 10
-29.1214864526
 20
29.908869175
 11
-18.466527128
 21
29.908869175
  0
LINE
  5
23C
100
AcDbEntity
  8
0
100
AcDbLine
 62
7
  6
CONTINUOUS
 10
-18.466527128
 20
29.908869175
 11
-31.9714073425
 21
29.908869175
  0
LINE
  5
23D
100
AcDbEntity
  8
0
100
AcDbLine
 62
7
  6
CONTINUOUS
 10
-34.8213282324
 20
29.908869175
 11
-38.8213282324
 21
29.908869175
  0
LINE
  5
23E
100
AcDbEntity
  8
0
100
AcDbLine
 62
7
  6
CONTINUOUS
 10
-38.8213282324
 20
29.908869175
 11
-31.9714073425
 21
29.908869175
  0
INSERT
  5
23F
100
AcDbEntity
  8
0
100
AcDbBlockReference
 62
7
  6
CONTINUOUS
  2
_FILLED
 10
-29.1214864526
 20
29.908869175
 41
3.0
 42
3.0
 43
3.0
 50
180.0
  0
INSERT
  5
240
100
AcDbEntity
  8
0
100
AcDbBlockReference
 62
7
  6
CONTINUOUS
  2
_FILLED
 10
-34.8213282324
 20
29.908869175
 41
3.0
 42
3.0
 43
3.0
  0
ENDBLK
  5
241
100
AcDbEntity
  8
0
  6
BYBLOCK
 62
0
100
AcDbBlockEnd
  0
ENDSEC
  0
SECTION
  2
ENTITIES
  0
DIMENSION
  5
242
100
AcDbEntity
  8
0
100
AcDbDimension
 62
7
  6
CONTINUOUS
  2
*D0
 10
-11.225222101
 20
29.908869175
 11
-0.5037936029
 21
29.908869175
 70
160
 71
2
 42
22.3
  3
DIMSTYLE_1
100
AcDbAlignedDimension
 13
11.074777899
 23
12.8006312344
 14
-11.225222101
 24
12.8006312344
 50
180.0
100
AcDbRotatedDimension
  0
DIMENSION
  5
243
100
AcDbEntity
  8
0
100
AcDbDimension
 62
7
  6
CONTINUOUS
  2
*D1
 10
19.074777899
 20
-22.5076067061
 11
19.074777899
 21
-0.7279397453
 70
160
 71
2
 42
44.4164758811
  3
DIMSTYLE_2
100
AcDbAlignedDimension
 13
10.5475597042
 23
21.908869175
 14
10.5475597042
 24
-22.5076067061
 50
270.0
100
AcDbRotatedDimension
  0
DIMENSION
  5
244
100
AcDbEntity
  8
0
100
AcDbDimension
 62
7
  6
CONTINUOUS
  2
*D2
 10
-34.8213282324
 20
29.908869175
 11
-22.002240921
 21
29.908869175
 70
160
 71
1
 42
5.6998417798
  3
DIMSTYLE_1
100
AcDbAlignedDimension
 13
-29.1214864526
 23
12.8006312344
 14
-34.8213282324
 24
0.0983996884
 50
180.0
100
AcDbRotatedDimension
  0
LINE
  5
245
100
AcDbEntity
  8
ASSI
100
AcDbLine
 62
7
  6
CONTINUOUS
 10
3.3188241981
 20
-22.5076067061
 11
3.6670428721
 21
-22.4759978746
  0
LINE
  5
246
100
AcDbEntity
  8
ASSI
100
AcDbLine
 62
7
  6
CONTINUOUS
 10
-7.8811758019
 20
-22.5076067061
 11
-7.5329571279
 21
-22.4759978746
  0
LINE
  5
247
100
AcDbEntity
  8
ASSI
100
AcDbLine
 62
253
  6
CONTINUOUS
 10
10.5153305723
 20
-21.5052446094
 11
10.4871724712
 21
-21.5059907721
  0
LWPOLYLINE
  5
248
100
AcDbEntity
  8
ASSI
100
AcDbPolyline
 62
253
  6
CONTINUOUS
 90
4
 70
0
 10
10.4871724712
 20
-21.5059907721
 10
10.4588306066
 20
-21.5064981777
 10
10.4446194144
 20
-21.506661803
 10
10.4303967114
 20
-21.5067651839
  0
LINE
  5
249
100
AcDbEntity
  8
ASSI
100
AcDbLine
 62
7
  6
CONTINUOUS
 10
10.5475597042
 20
-22.5076067061
 11
7.7307315999
 21
-22.5076067061
  0
LINE
  5
24A
100
AcDbEntity
  8
ASSI
100
AcDbLine
 62
7
  6
CONTINUOUS
 10
3.3188241981
 20
-22.5076067061
 11
-3.4692684001
 21
-22.5076067061
  0
LINE
  5
24B
100
AcDbEntity
  8
ASSI
100
AcDbLine
 62
7
  6
CONTINUOUS
 10
-7.8811758019
 20
-22.5076067061
 11
-10.6980039062
 21
-22.5076067061
  0
LINE
  5
24C
100
AcDbEntity
  8
ASSI
100
AcDbLine
 62
7
  6
CONTINUOUS
 10
-7.3597520472
 20
-22.4707570967
 11
-3.9906921548
 21
-22.4707570967
  0
LINE
  5
24D
100
AcDbEntity
  8
ASSI
100
AcDbLine
 62
7
  6
CONTINUOUS
 10
3.8402479528
 20
-22.4707570967
 11
7.2093078452
 21
-22.4707570967
  0
LINE
  5
24E
100
AcDbEntity
  8
ASSI
100
AcDbLine
 62
253
  6
CONTINUOUS
 10
-10.5971923691
 20
-22.3563125375
 11
10.4467481671
 21
-22.3563125375
  0
LINE
  5
24F
100
AcDbEntity
  8
ASSI
100
AcDbLine
 62
253
  6
CONTINUOUS
 10
-10.6234629889
 20
-21.5062744416
 11
-10.5950636165
 21
-21.5066618043
  0
LINE
  5
250
100
AcDbEntity
  8
ASSI
100
AcDbLine
 62
7
  6
CONTINUOUS
 10
-3.4692684001
 20
-22.5076067061
 11
-3.8174870741
 21
-22.4759978746
  0
LINE
  5
251
100
AcDbEntity
  8
ASSI
100
AcDbLine
 62
7
  6
CONTINUOUS
 10
7.7307315999
 20
-22.5076067061
 11
7.3825129259
 21
-22.4759978746
  0
LINE
  5
252
100
AcDbEntity
  8
ASSI
100
AcDbLine
 62
253
  6
CONTINUOUS
 10
-10.5808409134
 20
-21.5067651852
 11
10.4303967114
 21
-21.5067651852
  0
LINE
  5
253
100
AcDbEntity
  8
ASSI
100
AcDbLine
 62
253
  6
CONTINUOUS
 10
-10.5950636165
 20
-21.5066618043
 11
-10.5808409134
 21
-21.5067651852
  0
LWPOLYLINE
  5
254
100
AcDbEntity
  8
ASSI
100
AcDbPolyline
 62
253
  6
CONTINUOUS
 90
49
 70
0
 10
-11.0805363269
 20
20.8334865628
 10
-11.0798433001
 20
20.8356082068
 10
-11.0787464172
 20
20.8377281338
 10
-11.0772465661
 20
20.8398446279
 10
-11.0753449605
 20
20.8419559763
 10
-11.0730431396
 20
20.8440604701
 10
-11.0703429662
 20
20.8461564062
 10
-11.0672466257
 20
20.8482420883
 10
-11.063756624
 20
20.8503158283
 10
-11.0598757857
 20
20.8523759479
 10
-11.0556072517
 20
20.8544207799
 10
-11.0509544765
 20
20.8564486692
 10
-11.0459212257
 20
20.8584579747
 10
-11.0405115731
 20
20.8604470701
 10
-11.0347298966
 20
20.8624143457
 10
-11.0285808756
 20
20.8643582093
 10
-11.0220694867
 20
20.8662770876
 10
-11.0152009997
 20
20.8681694276
 10
-11.0079809733
 20
20.8700336979
 10
-11.0004152511
 20
20.8718683896
 10
-10.9925099562
 20
20.8736720178
 10
-10.9842714864
 20
20.8754431229
 10
-10.9757065095
 20
20.8771802714
 10
-10.9668219573
 20
20.8788820575
 10
-10.9576250202
 20
20.8805471037
 10
-10.9481231417
 20
20.8821740626
 10
-10.9383240118
 20
20.8837616173
 10
-10.9282355613
 20
20.8853084832
 10
-10.9178659549
 20
20.8868134081
 10
-10.9072235852
 20
20.8882751742
 10
-10.8963170652
 20
20.8896925985
 10
-10.8851552219
 20
20.8910645336
 10
-10.8737470889
 20
20.8923898694
 10
-10.8621018991
 20
20.8936675331
 10
-10.8502290772
 20
20.8948964908
 10
-10.8381382323
 20
20.8960757478
 10
-10.8258391497
 20
20.8972043496
 10
-10.8133417835
 20
20.898281383
 10
-10.8006562481
 20
20.8993059761
 10
-10.7877928103
 20
20.9002772999
 10
-10.7747618807
 20
20.9011945681
 10
-10.7615740058
 20
20.9020570384
 10
-10.7482398586
 20
20.9028640128
 10
-10.7347702311
 20
20.9036148381
 10
-10.7211760244
 20
20.9043089068
 10
-10.7074682407
 20
20.904945657
 10
-10.6936579741
 20
20.9055245735
 10
-10.6797564017
 20
20.9060451877
 10
-10.6657747743
 20
20.9065070782
  0
LWPOLYLINE
  5
255
100
AcDbEntity
  8
ASSI
100
AcDbPolyline
 62
253
  6
CONTINUOUS
 90
51
 70
0
 10
-11.0805363269
 20
-21.432224094
 10
-11.0798433003
 20
-21.434345738
 10
-11.0787464176
 20
-21.436465665
 10
-11.0772465666
 20
-21.4385821592
 10
-11.0753449613
 20
-21.4406935076
 10
-11.0730431405
 20
-21.4427980014
 10
-11.0703429673
 20
-21.4448939376
 10
-11.067246627
 20
-21.4469796196
 10
-11.0637566254
 20
-21.4490533597
 10
-11.0598757872
 20
-21.4511134794
 10
-11.0556072533
 20
-21.4531583113
 10
-11.0509544782
 20
-21.4551862007
 10
-11.0459212276
 20
-21.4571955062
 10
-11.040511575
 20
-21.4591846017
 10
-11.0347298987
 20
-21.4611518773
 10
-11.0285808778
 20
-21.4630957409
 10
-11.0220694889
 20
-21.4650146192
 10
-11.0152010019
 20
-21.4669069593
 10
-11.0079809757
 20
-21.4687712296
 10
-11.0004152535
 20
-21.4706059213
 10
-10.9925099586
 20
-21.4724095496
 10
-10.9842714889
 20
-21.4741806547
 10
-10.975706512
 20
-21.4759178032
 10
-10.9668219597
 20
-21.4776195893
 10
-10.9576250227
 20
-21.4792846356
 10
-10.9481231442
 20
-21.4809115945
 10
-10.9383240143
 20
-21.4824991493
 10
-10.9282355637
 20
-21.4840460151
 10
-10.9178659574
 20
-21.4855509401
 10
-10.9072235876
 20
-21.4870127062
 10
-10.8963170676
 20
-21.4884301305
 10
-10.8851552243
 20
-21.4898020657
 10
-10.8737470912
 20
-21.4911274015
 10
-10.8621019013
 20
-21.4924050652
 10
-10.8502290794
 20
-21.4936340229
 10
-10.8381382344
 20
-21.4948132799
 10
-10.8258391517
 20
-21.4959418818
 10
-10.8133417854
 20
-21.4970189152
 10
-10.80065625
 20
-21.4980435084
 10
-10.7877928121
 20
-21.4990148321
 10
-10.7747618824
 20
-21.4999321004
 10
-10.7615740073
 20
-21.5007945707
 10
-10.7482398601
 20
-21.5016015451
 10
-10.7347702324
 20
-21.5023523704
 10
-10.7211760256
 20
-21.5030464391
 10
-10.7074682418
 20
-21.5036831894
 10
-10.6936579752
 20
-21.5042621059
 10
-10.6797564026
 20
-21.50478272
 10
-10.6657747751
 20
-21.5052446106
 10
-10.6517244083
 20
-21.5056474037
 10
-10.6234629889
 20
-21.5062744416
  0
LWPOLYLINE
  5
256
100
AcDbEntity
  8
ASSI
100
AcDbPolyline
 62
253
  6
CONTINUOUS
 90
12
 70
0
 10
-11.046173473
 20
9.1911312344
 10
-11.0454752074
 20
9.1914015665
 10
-11.0443732919
 20
9.19167168
 10
-11.0428686177
 20
9.1919413563
 10
-11.0409624022
 20
9.1922103772
 10
-11.0386561871
 20
9.1924785252
 10
-11.0359518382
 20
9.1927455833
 10
-11.032851543
 20
9.1930113356
 10
-11.0293578094
 20
9.193275567
 10
-11.0254734635
 20
9.1935380638
 10
-11.0212016476
 20
9.1937986137
 10
-11.0165458171
 20
9.1940570058
  0
LINE
  5
257
100
AcDbEntity
  8
0
100
AcDbLine
 62
253
  6
CONTINUOUS
 10
-2.3962420033
 20
-12.0638915417
 11
2.2263462121
 21
-12.0643501528
  0
LWPOLYLINE
  5
258
100
AcDbEntity
  8
ASSI
100
AcDbPolyline
 62
253
  6
CONTINUOUS
 90
14
 70
0
 10
-11.046173473
 20
-9.7898687656
 10
-11.0454752074
 20
-9.7901390977
 10
-11.0443732919
 20
-9.7904092112
 10
-11.0428686177
 20
-9.7906788874
 10
-11.0409624022
 20
-9.7909479084
 10
-11.0386561871
 20
-9.7912160564
 10
-11.0359518382
 20
-9.7914831145
 10
-11.032851543
 20
-9.7917488668
 10
-11.0293578094
 20
-9.7920130982
 10
-11.0254734636
 20
-9.792275595
 10
-11.0212016476
 20
-9.7925361449
 10
-11.0165458172
 20
-9.792794537
 10
-11.0115097384
 20
-9.7930505625
 10
-11.0003134353
 20
-9.7935546869
  0
LINE
  5
259
100
AcDbEntity
  8
ASSI
100
AcDbLine
 62
253
  6
CONTINUOUS
 10
-11.0882227696
 20
21.1769866738
 11
-11.0889345709
 21
21.1896719691
  0
LINE
  5
25A
100
AcDbEntity
  8
ASSI
100
AcDbLine
 62
253
  6
CONTINUOUS
 10
-11.0875328583
 20
21.1633337959
 11
-11.0882227696
 21
21.1769866738
  0
LINE
  5
25B
100
AcDbEntity
  8
ASSI
100
AcDbLine
 62
253
  6
CONTINUOUS
 10
-11.0868666502
 20
21.1487477364
 11
-11.0875328583
 21
21.1633337959
  0
LINE
  5
25C
100
AcDbEntity
  8
ASSI
100
AcDbLine
 62
253
  6
CONTINUOUS
 10
-11.0859151913
 20
21.1251966487
 11
-11.0868666502
 21
21.1487477364
  0
LINE
  5
25D
100
AcDbEntity
  8
ASSI
100
AcDbLine
 62
253
  6
CONTINUOUS
 10
-11.0850254105
 20
21.0997457649
 11
-11.0859151913
 21
21.1251966487
  0
LINE
  5
25E
100
AcDbEntity
  8
ASSI
100
AcDbLine
 62
253
  6
CONTINUOUS
 10
-10.5892390835
 20
21.6203985126
 11
-10.5903448004
 21
21.6547193821
  0
LINE
  5
25F
100
AcDbEntity
  8
ASSI
100
AcDbLine
 62
253
  6
CONTINUOUS
 10
-11.0839429488
 20
21.0630877472
 11
-11.0850254105
 21
21.0997457649
  0
LINE
  5
260
100
AcDbEntity
  8
ASSI
100
AcDbLine
 62
253
  6
CONTINUOUS
 10
-10.5878373963
 20
21.5677198986
 11
-10.5892390835
 21
21.6203985126
  0
LINE
  5
261
100
AcDbEntity
  8
ASSI
100
AcDbLine
 62
253
  6
CONTINUOUS
 10
-11.0829882733
 20
21.0236262967
 11
-11.0839429488
 21
21.0630877472
  0
LINE
  5
262
100
AcDbEntity
  8
ASSI
100
AcDbLine
 62
253
  6
CONTINUOUS
 10
-10.5862197578
 20
21.4914501598
 11
-10.5878373963
 21
21.5677198986
  0
LWPOLYLINE
  5
263
100
AcDbEntity
  8
ASSI
100
AcDbPolyline
 62
253
  6
CONTINUOUS
 90
46
 70
0
 10
-11.0430302078
 20
0.0960952412
 10
-11.0428754113
 20
0.0873723893
 10
-11.0424165203
 20
0.0786601607
 10
-11.0416540938
 20
0.0699691659
 10
-11.0405890603
 20
0.0613099893
 10
-11.0392227168
 20
0.0526931768
 10
-11.0375567274
 20
0.0441292225
 10
-11.035593121
 20
0.0356285563
 10
-11.0333342891
 20
0.0272015309
 10
-11.0307829827
 20
0.0188584094
 10
-11.0279423089
 20
0.0106093525
 10
-11.0248157273
 20
0.0024644067
 10
-11.0214070458
 20
-0.0055665086
 10
-11.0177204155
 20
-0.0134736127
 10
-11.0137603264
 20
-0.0212472757
 10
-11.0095316014
 20
-0.0288780304
 10
-11.0050393906
 20
-0.0363565833
 10
-11.0002891648
 20
-0.0436738267
 10
-10.9952867093
 20
-0.050820849
 10
-10.9900381164
 20
-0.057788946
 10
-10.9845497783
 20
-0.0645696315
 10
-10.978828379
 20
-0.0711546475
 10
-10.9728808865
 20
-0.0775359743
 10
-10.9667145441
 20
-0.0837058401
 10
-10.9603368616
 20
-0.0896567309
 10
-10.9537556062
 20
-0.0953813993
 10
-10.9469787932
 20
-0.1008728733
 10
-10.9400146757
 20
-0.106124465
 10
-10.9328717352
 20
-0.1111297787
 10
-10.9255586709
 20
-0.1158827184
 10
-10.9180843891
 20
-0.1203774958
 10
-10.9104579927
 20
-0.1246086368
 10
-10.9026887696
 20
-0.1285709883
 10
-10.8947861817
 20
-0.1322597248
 10
-10.8867598535
 20
-0.1356703538
 10
-10.8786195598
 20
-0.1387987215
 10
-10.8703752147
 20
-0.1416410182
 10
-10.8620368586
 20
-0.1441937821
 10
-10.8536146466
 20
-0.1464539043
 10
-10.845118836
 20
-0.1484186324
 10
-10.8365597735
 20
-0.1500855735
 10
-10.8279478829
 20
-0.1514526976
 10
-10.8192936526
 20
-0.1525183395
 10
-10.8106076222
 20
-0.1532812016
 10
-10.8019003703
 20
-0.1537403547
 10
-10.7931825011
 20
-0.1538952396
  0
LINE
  5
264
100
AcDbEntity
  8
ASSI
100
AcDbLine
 62
253
  6
CONTINUOUS
 10
-11.0819877948
 20
20.9709097747
 11
-11.0829882733
 21
21.0236262967
  0
LWPOLYLINE
  5
265
100
AcDbEntity
  8
ASSI
100
AcDbPolyline
 62
253
  6
CONTINUOUS
 90
55
 70
0
 10
-11.0968877826
 20
-21.8569977701
 10
-11.0966503632
 20
-21.8715033419
 10
-11.0959913346
 20
-21.885996669
 10
-11.0949112531
 20
-21.9004655172
 10
-11.0934110305
 20
-21.9148976728
 10
-11.0914919332
 20
-21.9292809532
 10
-11.089155581
 20
-21.943603217
 10
-11.0864039463
 20
-21.9578523742
 10
-11.0832393517
 20
-21.9720163966
 10
-11.0796644686
 20
-21.9860833281
 10
-11.0756823147
 20
-22.0000412941
 10
-11.0712962514
 20
-22.0138785123
 10
-11.0665099812
 20
-22.0275833022
 10
-11.0613275442
 20
-22.0411440952
 10
-11.0557533153
 20
-22.0545494441
 10
-11.0497919997
 20
-22.0677880331
 10
-11.0434486296
 20
-22.0808486869
 10
-11.0367285597
 20
-22.0937203808
 10
-11.0296374626
 20
-22.1063922492
 10
-11.0221813242
 20
-22.1188535953
 10
-11.0143664383
 20
-22.1310939002
 10
-11.0061994018
 20
-22.1431028315
 10
-10.9976871088
 20
-22.1548702518
 10
-10.9888367448
 20
-22.1663862281
 10
-10.9796557807
 20
-22.1776410392
 10
-10.9701519664
 20
-22.1886251847
 10
-10.9603333244
 20
-22.1993293923
 10
-10.950208143
 20
-22.2097446264
 10
-10.9397849692
 20
-22.2198620951
 10
-10.9290726014
 20
-22.2296732578
 10
-10.9180800825
 20
-22.2391698328
 10
-10.9068166915
 20
-22.2483438035
 10
-10.8952919362
 20
-22.2571874259
 10
-10.8835155451
 20
-22.2656932348
 10
-10.871497459
 20
-22.2738540503
 10
-10.8592478228
 20
-22.2816629834
 10
-10.8467769768
 20
-22.2891134424
 10
-10.8340954481
 20
-22.2961991381
 10
-10.8212139416
 20
-22.3029140892
 10
-10.8081433309
 20
-22.3092526275
 10
-10.7948946495
 20
-22.3152094023
 10
-10.781479081
 20
-22.3207793853
 10
-10.7679079498
 20
-22.3259578747
 10
-10.7541927119
 20
-22.3307404992
 10
-10.7403449448
 20
-22.3351232217
 10
-10.7263763378
 20
-22.3391023424
 10
-10.7122986823
 20
-22.3426745025
 10
-10.6981238616
 20
-22.3458366866
 10
-10.6838638413
 20
-22.3485862255
 10
-10.6695306588
 20
-22.350920798
 10
-10.655136413
 20
-22.3528384337
 10
-10.6406932547
 20
-22.3543375136
 10
-10.6262133759
 20
-22.3554167723
 10
-10.6117089995
 20
-22.3560752989
 10
-10.5971923691
 20
-22.3563125375
  0
LINE
  5
266
100
AcDbEntity
  8
ASSI
100
AcDbLine
 62
253
  6
CONTINUOUS
 10
-10.5845065174
 20
21.3861135541
 11
-10.5862197578
 21
21.4914501598
  0
LINE
  5
267
100
AcDbEntity
  8
ASSI
100
AcDbLine
 62
253
  6
CONTINUOUS
 10
-11.0812150532
 20
20.9151419102
 11
-11.0819877948
 21
20.9709097747
  0
LINE
  5
268
100
AcDbEntity
  8
ASSI
100
AcDbLine
 62
253
  6
CONTINUOUS
 10
-10.5826660383
 20
21.225868873
 11
-10.5845065174
 21
21.3861135541
  0
LINE
  5
269
100
AcDbEntity
  8
ASSI
100
AcDbLine
 62
253
  6
CONTINUOUS
 10
-11.0806812354
 20
20.8571407259
 11
-11.0812150532
 21
20.9151419102
  0
LINE
  5
26A
100
AcDbEntity
  8
ASSI
100
AcDbLine
 62
253
  6
CONTINUOUS
 10
-10.5811701069
 20
21.0021683516
 11
-10.5826660383
 21
21.225868873
  0
LINE
  5
26B
100
AcDbEntity
  8
ASSI
100
AcDbLine
 62
7
  6
CONTINUOUS
 10
-11.1989147916
 20
-22.0101160733
 11
-11.225222101
 21
-13.3993687656
  0
LINE
  5
26C
100
AcDbEntity
  8
ASSI
100
AcDbLine
 62
253
  6
CONTINUOUS
 10
-10.5563903352
 20
14.8535045121
 11
-10.5811701069
 21
21.0021683516
  0
LINE
  5
26D
100
AcDbEntity
  8
ASSI
100
AcDbLine
 62
253
  6
CONTINUOUS
 10
-11.046173473
 20
9.1911312344
 11
-11.0806812354
 21
20.8571407259
  0
LINE
  5
26E
100
AcDbEntity
  8
ASSI
100
AcDbLine
 62
253
  6
CONTINUOUS
 10
-10.5464780595
 20
9.2006312344
 11
-10.5563903352
 21
14.8535045121
  0
LINE
  5
26F
100
AcDbEntity
  8
ASSI
100
AcDbLine
 62
7
  6
CONTINUOUS
 10
-11.225222101
 20
-0.6493021444
 11
-11.225222101
 21
-13.3993687656
  0
LINE
  5
270
100
AcDbEntity
  8
ASSI
100
AcDbLine
 62
7
  6
CONTINUOUS
 10
-11.225222101
 20
0.0505646132
 11
-11.225222101
 21
12.8006312344
  0
LINE
  5
271
100
AcDbEntity
  8
ASSI
100
AcDbLine
 62
253
  6
CONTINUOUS
 10
-11.0430302747
 20
0.0960952244
 11
-11.046173473
 21
9.1911312344
  0
LINE
  5
272
100
AcDbEntity
  8
ASSI
100
AcDbLine
 62
253
  6
CONTINUOUS
 10
-10.5433348471
 20
-0.1517896774
 11
-10.5464780595
 21
9.2006312344
  0
LINE
  5
273
100
AcDbEntity
  8
ASSI
100
AcDbLine
 62
7
  6
CONTINUOUS
 10
-11.1989147916
 20
21.4113785422
 11
-11.225222101
 21
12.8006312344
  0
LINE
  5
274
100
AcDbEntity
  8
ASSI
100
AcDbLine
 62
253
  6
CONTINUOUS
 10
-11.0648200973
 20
-17.9974383266
 11
-11.0430302747
 21
-0.6948327556
  0
LINE
  5
275
100
AcDbEntity
  8
ASSI
100
AcDbLine
 62
253
  6
CONTINUOUS
 10
-10.5651246834
 20
-18.052793935
 11
-10.5433348471
 21
-0.4469478538
  0
LINE
  5
276
100
AcDbEntity
  8
ASSI
100
AcDbLine
 62
253
  6
CONTINUOUS
 10
-10.5819552837
 20
-21.7376485442
 11
-10.5651246834
 21
-18.052793935
  0
LINE
  5
277
100
AcDbEntity
  8
ASSI
100
AcDbLine
 62
253
  6
CONTINUOUS
 10
-11.0808654843
 20
-21.4792878917
 11
-11.0648200973
 21
-17.9974383266
  0
LINE
  5
278
100
AcDbEntity
  8
ASSI
100
AcDbLine
 62
253
  6
CONTINUOUS
 10
-10.583519031
 20
-21.9072613457
 11
-10.5819552837
 21
-21.7376485442
  0
LINE
  5
279
100
AcDbEntity
  8
ASSI
100
AcDbLine
 62
253
  6
CONTINUOUS
 10
-11.0814960497
 20
-21.536503598
 11
-11.0808654843
 21
-21.4792878917
  0
LINE
  5
27A
100
AcDbEntity
  8
ASSI
100
AcDbLine
 62
253
  6
CONTINUOUS
 10
-10.585329992
 20
-22.0392869662
 11
-10.583519031
 21
-21.9072613457
  0
LWPOLYLINE
  5
27B
100
AcDbEntity
  8
ASSI
100
AcDbPolyline
 62
253
  6
CONTINUOUS
 90
55
 70
0
 10
-11.0968877826
 20
21.258260239
 10
-11.0966503632
 20
21.272765811
 10
-11.0959913346
 20
21.2872591384
 10
-11.0949112531
 20
21.3017279869
 10
-11.0934110304
 20
21.3161601428
 10
-11.091491933
 20
21.3305434234
 10
-11.0891555807
 20
21.3448656874
 10
-11.0864039459
 20
21.3591148449
 10
-11.0832393512
 20
21.3732788675
 10
-11.079664468
 20
21.3873457992
 10
-11.0756823139
 20
21.4013037653
 10
-11.0712962505
 20
21.4151409837
 10
-11.0665099802
 20
21.4288457737
 10
-11.0613275431
 20
21.4424065669
 10
-11.055753314
 20
21.4558119159
 10
-11.0497919983
 20
21.4690505049
 10
-11.0434486281
 20
21.4821111589
 10
-11.036728558
 20
21.4949828528
 10
-11.0296374608
 20
21.5076547212
 10
-11.0221813222
 20
21.5201160674
 10
-11.0143664362
 20
21.5323563723
 10
-11.0061993996
 20
21.5443653035
 10
-10.9976871065
 20
21.5561327239
 10
-10.9888367424
 20
21.5676487001
 10
-10.9796557781
 20
21.5789035112
 10
-10.9701519637
 20
21.5898876565
 10
-10.9603333217
 20
21.6005918641
 10
-10.9502081402
 20
21.6110070981
 10
-10.9397849663
 20
21.6211245666
 10
-10.9290725985
 20
21.6309357293
 10
-10.9180800795
 20
21.6404323041
 10
-10.9068166885
 20
21.6496062747
 10
-10.8952919332
 20
21.6584498969
 10
-10.8835155421
 20
21.6669557058
 10
-10.8714974561
 20
21.6751165211
 10
-10.8592478199
 20
21.682925454
 10
-10.846776974
 20
21.6903759129
 10
-10.8340954453
 20
21.6974616084
 10
-10.8212139389
 20
21.7041765594
 10
-10.8081433283
 20
21.7105150975
 10
-10.794894647
 20
21.7164718722
 10
-10.7814790786
 20
21.7220418551
 10
-10.7679079475
 20
21.7272203444
 10
-10.7541927098
 20
21.7320029688
 10
-10.7403449428
 20
21.7363856911
 10
-10.726376336
 20
21.7403648117
 10
-10.7122986806
 20
21.7439369717
 10
-10.6981238602
 20
21.7470991558
 10
-10.6838638401
 20
21.7498486945
 10
-10.6695306577
 20
21.752183267
 10
-10.6551364122
 20
21.7541009026
 10
-10.6406932541
 20
21.7555999824
 10
-10.6262133755
 20
21.7566792412
 10
-10.6117089993
 20
21.7573377678
 10
-10.5971923691
 20
21.7575750063
  0
LWPOLYLINE
  5
27C
100
AcDbEntity
  8
ASSI
100
AcDbPolyline
 62
253
  6
CONTINUOUS
 90
46
 70
0
 10
-11.0430302078
 20
-0.6948327723
 10
-11.0428754113
 20
-0.6861099208
 10
-11.0424165204
 20
-0.6773976927
 10
-11.0416540939
 20
-0.6687066982
 10
-11.0405890605
 20
-0.660047522
 10
-11.0392227171
 20
-0.6514307099
 10
-11.0375567278
 20
-0.6428667559
 10
-11.0355931216
 20
-0.63436609
 10
-11.03333429
 20
-0.6259390649
 10
-11.0307829837
 20
-0.6175959437
 10
-11.0279423102
 20
-0.6093468871
 10
-11.0248157288
 20
-0.6012019415
 10
-11.0214070475
 20
-0.5931710264
 10
-11.0177204174
 20
-0.5852639225
 10
-11.0137603286
 20
-0.5774902596
 10
-11.0095316039
 20
-0.5698595051
 10
-11.0050393933
 20
-0.5623809522
 10
-11.0002891678
 20
-0.5550637089
 10
-10.9952867125
 20
-0.5479166866
 10
-10.9900381199
 20
-0.5409485896
 10
-10.984549782
 20
-0.534167904
 10
-10.9788283829
 20
-0.527582888
 10
-10.9728808906
 20
-0.5212015612
 10
-10.9667145483
 20
-0.5150316952
 10
-10.960336866
 20
-0.5090808043
 10
-10.9537556108
 20
-0.5033561357
 10
-10.9469787978
 20
-0.4978646615
 10
-10.9400146804
 20
-0.4926130696
 10
-10.9328717399
 20
-0.4876077557
 10
-10.9255586756
 20
-0.4828548157
 10
-10.9180843938
 20
-0.4783600381
 10
-10.9104579974
 20
-0.4741288968
 10
-10.9026887741
 20
-0.4701665451
 10
-10.8947861861
 20
-0.4664778083
 10
-10.8867598577
 20
-0.4630671791
 10
-10.8786195638
 20
-0.4599388111
 10
-10.8703752184
 20
-0.4570965142
 10
-10.862036862
 20
-0.4545437501
 10
-10.8536146497
 20
-0.4522836276
 10
-10.8451188387
 20
-0.4503188993
 10
-10.8365597758
 20
-0.448651958
 10
-10.8279478849
 20
-0.4472848339
 10
-10.8192936541
 20
-0.4462191918
 10
-10.8106076232
 20
-0.4454563297
 10
-10.8019003708
 20
-0.4449971765
 10
-10.7931825011
 20
-0.4448422916
  0
LINE
  5
27D
100
AcDbEntity
  8
ASSI
100
AcDbLine
 62
253
  6
CONTINUOUS
 10
-11.0823614212
 20
-21.5911448153
 11
-11.0814960497
 21
-21.536503598
  0
LINE
  5
27E
100
AcDbEntity
  8
ASSI
100
AcDbLine
 62
253
  6
CONTINUOUS
 10
-10.5868475537
 20
-22.1220261985
 11
-10.585329992
 21
-22.0392869662
  0
LINE
  5
27F
100
AcDbEntity
  8
ASSI
100
AcDbLine
 62
253
  6
CONTINUOUS
 10
-11.0832144229
 20
-21.6324711434
 11
-11.0823614212
 21
-21.5911448153
  0
LINE
  5
280
100
AcDbEntity
  8
ASSI
100
AcDbLine
 62
253
  6
CONTINUOUS
 10
-10.5881793853
 20
-22.1803462802
 11
-10.5868475537
 21
-22.1220261985
  0
LINE
  5
281
100
AcDbEntity
  8
ASSI
100
AcDbLine
 62
253
  6
CONTINUOUS
 10
-11.0842019227
 20
-21.6712647786
 11
-11.0832144229
 21
-21.6324711434
  0
LINE
  5
282
100
AcDbEntity
  8
ASSI
100
AcDbLine
 62
253
  6
CONTINUOUS
 10
-10.5892390835
 20
-22.2191360438
 11
-10.5881793853
 21
-22.1803462802
  0
LINE
  5
283
100
AcDbEntity
  8
ASSI
100
AcDbLine
 62
253
  6
CONTINUOUS
 10
-11.0850254105
 20
-21.6984832961
 11
-11.0842019227
 21
-21.6712647786
  0
LINE
  5
284
100
AcDbEntity
  8
ASSI
100
AcDbLine
 62
253
  6
CONTINUOUS
 10
-10.5903448004
 20
-22.2534569133
 11
-10.5892390835
 21
-22.2191360438
  0
LINE
  5
285
100
AcDbEntity
  8
ASSI
100
AcDbLine
 62
253
  6
CONTINUOUS
 10
-11.0859151913
 20
-21.7239341798
 11
-11.0850254105
 21
-21.6984832961
  0
LINE
  5
286
100
AcDbEntity
  8
ASSI
100
AcDbLine
 62
253
  6
CONTINUOUS
 10
-11.0868666502
 20
-21.7474852676
 11
-11.0859151913
 21
-21.7239341798
  0
LINE
  5
287
100
AcDbEntity
  8
ASSI
100
AcDbLine
 62
253
  6
CONTINUOUS
 10
-11.0875328583
 20
-21.7620713271
 11
-11.0868666502
 21
-21.7474852676
  0
LINE
  5
288
100
AcDbEntity
  8
ASSI
100
AcDbLine
 62
253
  6
CONTINUOUS
 10
-11.0882227696
 20
-21.775724205
 11
-11.0875328583
 21
-21.7620713271
  0
LINE
  5
289
100
AcDbEntity
  8
ASSI
100
AcDbLine
 62
253
  6
CONTINUOUS
 10
-11.0889345709
 20
-21.7884095003
 11
-11.0882227696
 21
-21.775724205
  0
LWPOLYLINE
  5
28A
100
AcDbEntity
  8
0
100
AcDbPolyline
 62
253
  6
CONTINUOUS
 90
54
 70
0
 10
-2.773806515
 20
11.7548903993
 10
-2.7828816473
 20
11.7460479639
 10
-2.7916363781
 20
11.7370274851
 10
-2.8000926858
 20
11.7278140727
 10
-2.8082725489
 20
11.7183928365
 10
-2.8161932041
 20
11.7087521986
 10
-2.8238529203
 20
11.6988938311
 10
-2.8312452248
 20
11.6888227186
 10
-2.8383636447
 20
11.6785438455
 10
-2.8452010419
 20
11.668063201
 10
-2.8517476169
 20
11.6573907925
 10
-2.8579929048
 20
11.6465376318
 10
-2.8639264409
 20
11.635514731
 10
-2.8695389339
 20
11.6243324886
 10
-2.8748257864
 20
11.6129988497
 10
-2.8797835749
 20
11.6015211462
 10
-2.8844088754
 20
11.5899067098
 10
-2.8892840084
 20
11.5764757539
 10
-2.8937188593
 20
11.5628909804
 10
-2.8977118881
 20
11.5491675853
 10
-2.9012615542
 20
11.5353207645
 10
-2.9043663176
 20
11.5213657142
 10
-2.9070246379
 20
11.5073176302
 10
-2.9092349747
 20
11.4931917088
 10
-2.9109960367
 20
11.4790029935
 10
-2.9123075274
 20
11.4647659186
 10
-2.9131693993
 20
11.450494766
 10
-2.9135816048
 20
11.4362038176
 10
-2.9135440965
 20
11.4219073555
 10
-2.9130568268
 20
11.4076196614
 10
-2.9121197482
 20
11.3933550173
 10
-2.9107330475
 20
11.3791275918
 10
-2.9088978501
 20
11.3649511007
 10
-2.9066155157
 20
11.3508391462
 10
-2.903887404
 20
11.3368053308
 10
-2.9007148748
 20
11.3228632568
 10
-2.8970992878
 20
11.3090265267
 10
-2.8930420028
 20
11.2953087427
 10
-2.8891308402
 20
11.283413991
 10
-2.8848847945
 20
11.2716300918
 10
-2.8803061165
 20
11.259966415
 10
-2.875397057
 20
11.2484323305
 10
-2.8701608616
 20
11.2370380008
 10
-2.8646047548
 20
11.2257967576
 10
-2.8587369558
 20
11.2147227251
 10
-2.8525656836
 20
11.2038300275
 10
-2.8460984474
 20
11.1931314461
 10
-2.8393399159
 20
11.1826343905
 10
-2.8322940479
 20
11.1723449274
 10
-2.8249648021
 20
11.1622691235
 10
-2.8173517052
 20
11.1524098278
 10
-2.8094365562
 20
11.1427570183
 10
-2.8011967221
 20
11.1332974554
 10
-2.7926095701
 20
11.1240178995
  0
LINE
  5
28B
100
AcDbEntity
  8
0
100
AcDbLine
 62
253
  6
CONTINUOUS
 10
-0.3747391256
 20
14.0319298432
 11
-2.773806515
 21
11.7548903993
  0
LINE
  5
28C
100
AcDbEntity
  8
0
100
AcDbLine
 62
253
  6
CONTINUOUS
 10
-2.3767904141
 20
11.4656126216
 11
-0.0662018619
 21
13.6584792878
  0
LINE
  5
28D
100
AcDbEntity
  8
ASSI
100
AcDbLine
 62
253
  6
CONTINUOUS
 10
10.8661016151
 20
-9.792794537
 11
10.855653283
 21
-9.7933040141
  0
LINE
  5
28E
100
AcDbEntity
  8
ASSI
100
AcDbLine
 62
253
  6
CONTINUOUS
 10
10.855653283
 20
-9.7933040141
 11
10.8437180659
 21
-9.793802378
  0
LINE
  5
28F
100
AcDbEntity
  8
ASSI
100
AcDbLine
 62
253
  6
CONTINUOUS
 10
10.8437180659
 20
-9.793802378
 11
10.8303345747
 21
-9.7942880165
  0
LINE
  5
290
100
AcDbEntity
  8
ASSI
100
AcDbLine
 62
253
  6
CONTINUOUS
 10
10.8303345747
 20
-9.7942880165
 11
10.8076397809
 21
-9.7949891901
  0
LINE
  5
291
100
AcDbEntity
  8
ASSI
100
AcDbLine
 62
253
  6
CONTINUOUS
 10
10.8076397809
 20
-9.7949891901
 11
10.7727528741
 21
-9.7958652876
  0
LINE
  5
292
100
AcDbEntity
  8
ASSI
100
AcDbLine
 62
253
  6
CONTINUOUS
 10
10.7727528741
 20
-9.7958652876
 11
10.7534521238
 21
-9.7962749319
  0
LWPOLYLINE
  5
293
100
AcDbEntity
  8
0
100
AcDbPolyline
 62
253
  6
CONTINUOUS
 90
55
 70
0
 10
-2.4833075567
 20
-11.5805154307
 10
-2.4968719047
 20
-11.5807298471
 10
-2.5103106029
 20
-11.5813689231
 10
-2.5236581971
 20
-11.5824263987
 10
-2.5369492331
 20
-11.5838960138
 10
-2.5502182569
 20
-11.5857715086
 10
-2.5634927699
 20
-11.5880483934
 10
-2.5767720958
 20
-11.5907292593
 10
-2.5900485139
 20
-11.593818468
 10
-2.6033143034
 20
-11.597320381
 10
-2.6165617435
 20
-11.6012393599
 10
-2.6297808666
 20
-11.6055791323
 10
-2.642952718
 20
-11.6103408903
 10
-2.6560560957
 20
-11.6155251917
 10
-2.6690697981
 20
-11.6211325949
 10
-2.6819726233
 20
-11.6271636577
 10
-2.6926214178
 20
-11.6325107584
 10
-2.7031448243
 20
-11.6381358783
 10
-2.7135091764
 20
-11.6440224409
 10
-2.7236896725
 20
-11.6501594828
 10
-2.7336969707
 20
-11.6565584941
 10
-2.7435505939
 20
-11.6632365778
 10
-2.7532635606
 20
-11.6702069661
 10
-2.762822873
 20
-11.6774674064
 10
-2.7722090288
 20
-11.6850117749
 10
-2.7814025257
 20
-11.6928339478
 10
-2.7903838616
 20
-11.7009278015
 10
-2.7991335341
 20
-11.7092872122
 10
-2.8076341509
 20
-11.7179040817
 10
-2.8158767594
 20
-11.7267624133
 10
-2.8238545167
 20
-11.7358442359
 10
-2.83156058
 20
-11.7451315786
 10
-2.8389881065
 20
-11.7546064701
 10
-2.8461302534
 20
-11.7642509394
 10
-2.8529841025
 20
-11.7740532404
 10
-2.8595624337
 20
-11.7840265267
 10
-2.8658819516
 20
-11.7941901772
 10
-2.8719533949
 20
-11.8045543857
 10
-2.8777636381
 20
-11.8150926061
 10
-2.8832935899
 20
-11.8257691076
 10
-2.8895380974
 20
-11.8387196584
 10
-2.8953510883
 20
-11.851795301
 10
-2.900732157
 20
-11.8649734551
 10
-2.905680898
 20
-11.8782315403
 10
-2.9101969058
 20
-11.891546976
 10
-2.9142805202
 20
-11.9048997273
 10
-2.9179350623
 20
-11.9182799408
 10
-2.9211645984
 20
-11.9316803083
 10
-2.9239731949
 20
-11.9450935217
 10
-2.9263649181
 20
-11.958512273
 10
-2.9283418949
 20
-11.9719363532
 10
-2.9298984943
 20
-11.9853939501
 10
-2.9310271458
 20
-11.9989203503
 10
-2.9317202788
 20
-12.0125508408
 10
-2.931970323
 20
-12.0263207084
  0
LINE
  5
294
100
AcDbEntity
  8
0
100
AcDbLine
 62
253
  6
CONTINUOUS
 10
2.3157753764
 20
-11.5805154307
 11
-2.4833075567
 21
-11.5805154307
  0
LINE
  5
295
100
AcDbEntity
  8
ASSI
100
AcDbLine
 62
253
  6
CONTINUOUS
 10
-10.9412791272
 20
-9.7954362443
 11
-10.9038963258
 21
-9.7962749319
  0
LINE
  5
296
100
AcDbEntity
  8
ASSI
100
AcDbLine
 62
253
  6
CONTINUOUS
 10
-10.9659903074
 20
-9.7947593586
 11
-10.9412791272
 21
-9.7954362443
  0
LINE
  5
297
100
AcDbEntity
  8
ASSI
100
AcDbLine
 62
253
  6
CONTINUOUS
 10
-10.9876489588
 20
-9.7940468872
 11
-10.9659903074
 21
-9.7947593586
  0
LINE
  5
298
100
AcDbEntity
  8
ASSI
100
AcDbLine
 62
253
  6
CONTINUOUS
 10
-11.0003134353
 20
-9.7935546869
 11
-10.9876489588
 21
-9.7940468872
  0
LWPOLYLINE
  5
299
100
AcDbEntity
  8
0
100
AcDbPolyline
 62
253
  6
CONTINUOUS
 90
51
 70
0
 10
-0.3934873322
 20
-14.6302087633
 10
-0.3840280328
 20
-14.6390117095
 10
-0.374332226
 20
-14.6474412354
 10
-0.3643860413
 20
-14.6555198919
 10
-0.3541756086
 20
-14.66327023
 10
-0.3436870575
 20
-14.6707148003
 10
-0.3329078515
 20
-14.6778717078
 10
-0.3218307891
 20
-14.6847412727
 10
-0.3104500024
 20
-14.6913193695
 10
-0.2987596238
 20
-14.6976018725
 10
-0.2867537855
 20
-14.7035846559
 10
-0.2744326822
 20
-14.7092614195
 10
-0.2618207582
 20
-14.714617164
 10
-0.2489485203
 20
-14.7196347158
 10
-0.2358464753
 20
-14.7242969009
 10
-0.22254513
 20
-14.7285865455
 10
-0.2090723495
 20
-14.7324885391
 10
-0.1954454327
 20
-14.7359960239
 10
-0.1816790367
 20
-14.7391042052
 10
-0.1677878185
 20
-14.7418082884
 10
-0.1537864353
 20
-14.744103479
 10
-0.1396905078
 20
-14.7459849456
 10
-0.125519511
 20
-14.7474477101
 10
-0.1112938835
 20
-14.7484867577
 10
-0.0970340638
 20
-14.7490970735
 10
-0.0827604905
 20
-14.7492736426
 10
-0.0684932251
 20
-14.7490131872
 10
-0.054250821
 20
-14.748319377
 10
-0.0400514548
 20
-14.7471976184
 10
-0.0259133027
 20
-14.7456533183
 10
-0.0118545412
 20
-14.7436918831
 10
0.0021067888
 20
-14.7413187483
 10
0.015953189
 20
-14.7385394648
 10
0.0296672965
 20
-14.7353596122
 10
0.0432317484
 20
-14.7317847703
 10
0.0566291819
 20
-14.7278205187
 10
0.0698396891
 20
-14.7234749246
 10
0.0828331824
 20
-14.7187660043
 10
0.0955770291
 20
-14.7137142617
 10
0.1080385964
 20
-14.7083402006
 10
0.1201852516
 20
-14.7026643248
 10
0.1319913827
 20
-14.6967045176
 10
0.14345946
 20
-14.690468179
 10
0.1545989744
 20
-14.6839600888
 10
0.1654194169
 20
-14.6771850265
 10
0.1759302784
 20
-14.6701477717
 10
0.1861420248
 20
-14.6628488758
 10
0.1960690218
 20
-14.6552719775
 10
0.2057266102
 20
-14.6473964875
 10
0.2151301305
 20
-14.6392018163
 10
0.2242949236
 20
-14.6306673744
  0
LINE
  5
29A
100
AcDbEntity
  8
0
100
AcDbLine
 62
253
  6
CONTINUOUS
 10
-0.0842423401
 20
-14.257216819
 11
-2.3962420033
 21
-12.0638915417
  0
LINE
  5
29B
100
AcDbEntity
  8
0
100
AcDbLine
 62
253
  6
CONTINUOUS
 10
-2.7920939377
 20
-12.3541218194
 11
-0.3934873322
 21
-14.6302087633
  0
LWPOLYLINE
  5
29C
100
AcDbEntity
  8
ASSI
100
AcDbPolyline
 62
253
  6
CONTINUOUS
 90
17
 70
0
 10
-11.0904182742
 20
21.2120424938
 10
-11.0908002779
 20
21.2169883034
 10
-11.091186326
 20
21.2216696048
 10
-11.0915764115
 20
21.2260868556
 10
-11.0919698598
 20
21.2302324105
 10
-11.0923666764
 20
21.2341057968
 10
-11.0927668558
 20
21.2377074872
 10
-11.0931697071
 20
21.2410312545
 10
-11.0935752358
 20
21.2440766218
 10
-11.0939834364
 20
21.246844066
 10
-11.0943936014
 20
21.24932879
 10
-11.0948057414
 20
21.2515303127
 10
-11.0952198457
 20
21.2534491153
 10
-11.0956351759
 20
21.2550818446
 10
-11.0960514857
 20
21.2564273827
 10
-11.0964690212
 20
21.2574868475
 10
-11.0968877826
 20
21.258260239
  0
LINE
  5
29D
100
AcDbEntity
  8
ASSI
100
AcDbLine
 62
253
  6
CONTINUOUS
 10
-11.0896670326
 20
21.2013677399
 11
-11.0904182742
 21
21.2120424938
  0
LINE
  5
29E
100
AcDbEntity
  8
ASSI
100
AcDbLine
 62
253
  6
CONTINUOUS
 10
-11.0889345709
 20
21.1896719691
 11
-11.0896670326
 21
21.2013677399
  0
LWPOLYLINE
  5
29F
100
AcDbEntity
  8
ASSI
100
AcDbPolyline
 62
253
  6
CONTINUOUS
 90
11
 70
0
 10
-10.5930712961
 20
21.7164659787
 10
-10.5934741398
 20
21.7231144852
 10
-10.5938796676
 20
21.7292069652
 10
-10.59428787
 20
21.7347398844
 10
-10.5946980309
 20
21.7397100244
 10
-10.5951101456
 20
21.7441145066
 10
-10.5955242188
 20
21.7479508089
 10
-10.595939548
 20
21.7512167355
 10
-10.5963558991
 20
21.7539103993
 10
-10.5967735061
 20
21.756030233
 10
-10.5971923691
 20
21.7575750063
  0
LINE
  5
2A0
100
AcDbEntity
  8
ASSI
100
AcDbLine
 62
253
  6
CONTINUOUS
 10
-10.5922743197
 20
21.7015165169
 11
-10.5930712961
 21
21.7164659787
  0
LINE
  5
2A1
100
AcDbEntity
  8
ASSI
100
AcDbLine
 62
253
  6
CONTINUOUS
 10
-10.5914907983
 20
21.6843930274
 11
-10.5922743197
 21
21.7015165169
  0
LWPOLYLINE
  5
2A2
100
AcDbEntity
  8
ASSI
100
AcDbPolyline
 62
253
  6
CONTINUOUS
 90
3
 70
0
 10
-10.5903448004
 20
21.6547193821
 10
-10.5907227595
 20
21.6651350754
 10
-10.5914907983
 20
21.6843930274
  0
LINE
  5
2A3
100
AcDbEntity
  8
ASSI
100
AcDbLine
 62
253
  6
CONTINUOUS
 10
-10.5911047562
 20
-22.2737657249
 11
-10.5903448004
 21
-22.2534569133
  0
LINE
  5
2A4
100
AcDbEntity
  8
ASSI
100
AcDbLine
 62
253
  6
CONTINUOUS
 10
-10.5918808781
 20
-22.2919617016
 11
-10.5911047562
 21
-22.2737657249
  0
LINE
  5
2A5
100
AcDbEntity
  8
ASSI
100
AcDbLine
 62
253
  6
CONTINUOUS
 10
-11.0896670326
 20
-21.800105271
 11
-11.0889345709
 21
-21.7884095003
  0
LINE
  5
2A6
100
AcDbEntity
  8
ASSI
100
AcDbLine
 62
253
  6
CONTINUOUS
 10
10.7534521238
 20
-9.7962749319
 11
10.7002873449
 21
-9.7972056415
  0
LINE
  5
2A7
100
AcDbEntity
  8
ASSI
100
AcDbLine
 62
253
  6
CONTINUOUS
 10
10.7002873449
 20
-9.7972056415
 11
10.628484324
 21
-9.798125509
  0
LINE
  5
2A8
100
AcDbEntity
  8
ASSI
100
AcDbLine
 62
253
  6
CONTINUOUS
 10
10.628484324
 20
-9.798125509
 11
10.5363367193
 21
-9.7988940117
  0
LINE
  5
2A9
100
AcDbEntity
  8
ASSI
100
AcDbLine
 62
253
  6
CONTINUOUS
 10
10.5363367193
 20
-9.7988940117
 11
10.4244610336
 21
-9.7993345413
  0
LINE
  5
2AA
100
AcDbEntity
  8
ASSI
100
AcDbLine
 62
253
  6
CONTINUOUS
 10
10.4244610336
 20
-9.7993345413
 11
-10.5464780595
 21
-9.7993687656
  0
LINE
  5
2AB
100
AcDbEntity
  8
ASSI
100
AcDbLine
 62
253
  6
CONTINUOUS
 10
-10.6592689186
 20
-9.7990490732
 11
-10.5464780595
 21
-9.7993687656
  0
LINE
  5
2AC
100
AcDbEntity
  8
ASSI
100
AcDbLine
 62
253
  6
CONTINUOUS
 10
-10.7662452369
 20
-9.798256122
 11
-10.6592689186
 21
-9.7990490732
  0
LINE
  5
2AD
100
AcDbEntity
  8
ASSI
100
AcDbLine
 62
253
  6
CONTINUOUS
 10
-10.8393247541
 20
-9.7973745582
 11
-10.7662452369
 21
-9.798256122
  0
LWPOLYLINE
  5
2AE
100
AcDbEntity
  8
ASSI
100
AcDbPolyline
 62
253
  6
CONTINUOUS
 90
3
 70
0
 10
-10.9038963258
 20
-9.7962749319
 10
-10.8938083019
 20
-9.7964720627
 10
-10.8393247541
 20
-9.7973745582
  0
LWPOLYLINE
  5
2AF
100
AcDbEntity
  8
0
100
AcDbPolyline
 62
253
  6
CONTINUOUS
 90
39
 70
0
 10
2.6421653681
 20
-11.7227554307
 10
2.6366856844
 20
-11.7163796988
 10
2.6310070394
 20
-11.7101707243
 10
2.625134392
 20
-11.7041214553
 10
2.6190727011
 20
-11.69822484
 10
2.6128269256
 20
-11.6924738264
 10
2.6064020246
 20
-11.6868613629
 10
2.599802957
 20
-11.6813803975
 10
2.5930346818
 20
-11.6760238785
 10
2.5861021578
 20
-11.6707847539
 10
2.579010344
 20
-11.665655972
 10
2.5709495697
 20
-11.6600809109
 10
2.5627039177
 20
-11.6546401853
 10
2.5542790423
 20
-11.6493406111
 10
2.5456805977
 20
-11.6441890043
 10
2.5369142381
 20
-11.6391921809
 10
2.5279856178
 20
-11.6343569566
 10
2.518900391
 20
-11.6296901476
 10
2.5096642118
 20
-11.6251985697
 10
2.5002827345
 20
-11.6208890389
 10
2.4907623707
 20
-11.6167680831
 10
2.4811125608
 20
-11.6128410782
 10
2.4713435027
 20
-11.6091131122
 10
2.4614653942
 20
-11.6055892728
 10
2.4514884331
 20
-11.602274648
 10
2.4414228172
 20
-11.5991743257
 10
2.4312787443
 20
-11.5962933938
 10
2.4210664123
 20
-11.5936369401
 10
2.4107960189
 20
-11.5912100525
 10
2.4015097939
 20
-11.5892263153
 10
2.3921822918
 20
-11.5874362212
 10
2.3828110048
 20
-11.5858433437
 10
2.3733934254
 20
-11.5844512562
 10
2.3639270458
 20
-11.583263532
 10
2.3544093583
 20
-11.5822837446
 10
2.3448378553
 20
-11.5815154674
 10
2.3352100291
 20
-11.5809622737
 10
2.325523372
 20
-11.580627737
 10
2.3157753764
 20
-11.5805154307
  0
LWPOLYLINE
  5
2B0
100
AcDbEntity
  8
ASSI
100
AcDbPolyline
 62
253
  6
CONTINUOUS
 90
13
 70
0
 10
-10.5971923691
 20
-22.3563125375
 10
-10.5967735061
 20
-22.3547677641
 10
-10.5963558991
 20
-22.3526479304
 10
-10.595939548
 20
-22.3499542667
 10
-10.5955242188
 20
-22.3466883401
 10
-10.5951101456
 20
-22.3428520377
 10
-10.5946980309
 20
-22.3384475555
 10
-10.59428787
 20
-22.3334774156
 10
-10.5938796676
 20
-22.3279444964
 10
-10.5934741398
 20
-22.3218520163
 10
-10.5930712961
 20
-22.3152035099
 10
-10.592671127
 20
-22.3080028056
 10
-10.5918808781
 20
-22.2919617016
  0
LINE
  5
2B1
100
AcDbEntity
  8
ASSI
100
AcDbLine
 62
253
  6
CONTINUOUS
 10
10.5475597042
 20
21.908869175
 11
10.4467481671
 21
21.7575750063
  0
LINE
  5
2B2
100
AcDbEntity
  8
ASSI
100
AcDbLine
 62
253
  6
CONTINUOUS
 10
10.4467481671
 20
-22.3563125375
 11
10.5475597042
 21
-22.5076067061
  0
LWPOLYLINE
  5
2B3
100
AcDbEntity
  8
0
100
AcDbPolyline
 62
253
  6
CONTINUOUS
 90
39
 70
0
 10
-2.931970323
 20
-12.0263207084
 10
-2.9323634304
 20
-12.0351269013
 10
-2.9325290883
 20
-12.043908615
 10
-2.9324729542
 20
-12.0526666858
 10
-2.9322006857
 20
-12.0614019503
 10
-2.9317179404
 20
-12.0701152449
 10
-2.9310303757
 20
-12.0788074061
 10
-2.9301436493
 20
-12.0874792705
 10
-2.92886427
 20
-12.0975707429
 10
-2.927326326
 20
-12.1076300623
 10
-2.9255346332
 20
-12.1176515635
 10
-2.9234940076
 20
-12.1276295812
 10
-2.9212092652
 20
-12.1375584502
 10
-2.918685222
 20
-12.1474325053
 10
-2.9159264097
 20
-12.1572462184
 10
-2.9129362238
 20
-12.1669946109
 10
-2.9097177757
 20
-12.1766728414
 10
-2.9062741766
 20
-12.1862760683
 10
-2.9026085378
 20
-12.1957994502
 10
-2.8987239707
 20
-12.2052381458
 10
-2.8946231686
 20
-12.2145872748
 10
-2.8903071532
 20
-12.2238418025
 10
-2.8857765282
 20
-12.2329966556
 10
-2.8810318972
 20
-12.2420467606
 10
-2.8760738639
 20
-12.2509870441
 10
-2.8709030321
 20
-12.2598124328
 10
-2.8655199549
 20
-12.2685173618
 10
-2.8599249837
 20
-12.2770943013
 10
-2.8541184193
 20
-12.2855352299
 10
-2.8481005626
 20
-12.2938321262
 10
-2.8418717144
 20
-12.301976969
 10
-2.8354321756
 20
-12.309961737
 10
-2.8297442512
 20
-12.3166725184
 10
-2.8238968128
 20
-12.3232558381
 10
-2.8178849181
 20
-12.3297077334
 10
-2.8117036254
 20
-12.3360242417
 10
-2.8053479924
 20
-12.3422014006
 10
-2.7988130772
 20
-12.3482352473
 10
-2.7920939377
 20
-12.3541218194
  0
LINE
  5
2B4
100
AcDbEntity
  8
ASSI
100
AcDbLine
 62
253
  6
CONTINUOUS
 10
11.0484705896
 20
21.4113785422
 11
10.9464435806
 21
21.258260239
  0
LINE
  5
2B5
100
AcDbEntity
  8
ASSI
100
AcDbLine
 62
253
  6
CONTINUOUS
 10
11.074777899
 20
-0.6493021444
 11
10.8925860727
 21
-0.6948327556
  0
LINE
  5
2B6
100
AcDbEntity
  8
ASSI
100
AcDbLine
 62
253
  6
CONTINUOUS
 10
10.8247016973
 20
-0.3993687656
 11
10.6427382991
 21
-0.4448422916
  0
LWPOLYLINE
  5
2B7
100
AcDbEntity
  8
ASSI
100
AcDbPolyline
 62
253
  6
CONTINUOUS
 90
8
 70
0
 10
10.6427382991
 20
-0.4448422916
 10
10.6423882476
 20
-0.4449043393
 10
10.6418375161
 20
-0.4449661785
 10
10.6410861045
 20
-0.4450278092
 10
10.6401330779
 20
-0.4450892817
 10
10.6389793712
 20
-0.4451505457
 10
10.6376277897
 20
-0.44521145
 10
10.6360778554
 20
-0.4452719927
  0
LWPOLYLINE
  5
2B8
100
AcDbEntity
  8
ASSI
100
AcDbPolyline
 62
253
  6
CONTINUOUS
 90
6
 70
0
 10
10.8925860727
 20
-0.6948327632
 10
10.8918877791
 20
-0.6949004489
 10
10.8907858402
 20
-0.6949679283
 10
10.8892811473
 20
-0.6950351924
 10
10.8873749218
 20
-0.6951022761
 10
10.8850687028
 20
-0.6951691263
  0
LINE
  5
2B9
100
AcDbEntity
  8
ASSI
100
AcDbLine
 62
253
  6
CONTINUOUS
 10
-11.0430302747
 20
-0.6948327556
 11
-11.225222101
 21
-0.6493021444
  0
LINE
  5
2BA
100
AcDbEntity
  8
ASSI
100
AcDbLine
 62
253
  6
CONTINUOUS
 10
-10.7931825011
 20
-0.4448422916
 11
-10.9751458993
 21
-0.3993687656
  0
LINE
  5
2BB
100
AcDbEntity
  8
ASSI
100
AcDbLine
 62
253
  6
CONTINUOUS
 10
10.9464435806
 20
-21.8569977701
 11
11.0484705896
 21
-22.0101160733
  0
LWPOLYLINE
  5
2BC
100
AcDbEntity
  8
ASSI
100
AcDbPolyline
 62
253
  6
CONTINUOUS
 90
19
 70
0
 10
10.9464435806
 20
21.258260239
 10
10.9460248192
 20
21.2574868475
 10
10.9456072837
 20
21.2564273827
 10
10.9451909739
 20
21.2550818446
 10
10.9447756437
 20
21.2534491153
 10
10.9443615394
 20
21.2515303127
 10
10.9439493995
 20
21.24932879
 10
10.9435392344
 20
21.246844066
 10
10.9431310338
 20
21.2440766218
 10
10.9427255052
 20
21.2410312545
 10
10.9423226538
 20
21.2377074872
 10
10.9419224744
 20
21.2341057968
 10
10.9415256578
 20
21.2302324105
 10
10.9411322095
 20
21.2260868556
 10
10.940742124
 20
21.2216696048
 10
10.9403560759
 20
21.2169883034
 10
10.9399740722
 20
21.2120424938
 10
10.939596106
 20
21.2068326335
 10
10.9388542543
 20
21.1956473712
  0
LINE
  5
2BD
100
AcDbEntity
  8
ASSI
100
AcDbLine
 62
7
  6
CONTINUOUS
 10
8.4372438896
 20
-0.3993687656
 11
8.174777899
 21
-0.425549369
  0
LINE
  5
2BE
100
AcDbEntity
  8
ASSI
100
AcDbLine
 62
253
  6
CONTINUOUS
 10
10.6360778554
 20
-0.4452719927
 11
10.6323886023
 21
-0.4453918526
  0
LINE
  5
2BF
100
AcDbEntity
  8
ASSI
100
AcDbLine
 62
253
  6
CONTINUOUS
 10
10.6323886023
 20
-0.4453918526
 11
10.6279238739
 21
-0.4455096858
  0
LINE
  5
2C0
100
AcDbEntity
  8
ASSI
100
AcDbLine
 62
253
  6
CONTINUOUS
 10
10.8850687028
 20
-0.6951691263
 11
10.8792639956
 21
-0.6953016926
  0
LINE
  5
2C1
100
AcDbEntity
  8
ASSI
100
AcDbLine
 62
253
  6
CONTINUOUS
 10
10.6279238739
 20
-0.4455096858
 11
10.6198074665
 21
-0.4456817853
  0
LINE
  5
2C2
100
AcDbEntity
  8
ASSI
100
AcDbLine
 62
253
  6
CONTINUOUS
 10
10.8792639956
 20
-0.6953016926
 11
10.8676138832
 21
-0.6954971656
  0
LINE
  5
2C3
100
AcDbEntity
  8
ASSI
100
AcDbLine
 62
253
  6
CONTINUOUS
 10
10.6198074665
 20
-0.4456817853
 11
10.6026474719
 21
-0.445953188
  0
LINE
  5
2C4
100
AcDbEntity
  8
ASSI
100
AcDbLine
 62
253
  6
CONTINUOUS
 10
10.8676138832
 20
-0.6954971656
 11
10.8405741714
 21
-0.6958103293
  0
LINE
  5
2C5
100
AcDbEntity
  8
ASSI
100
AcDbLine
 62
253
  6
CONTINUOUS
 10
10.6026474719
 20
-0.445953188
 11
10.5715975097
 21
-0.4462918145
  0
LINE
  5
2C6
100
AcDbEntity
  8
ASSI
100
AcDbLine
 62
253
  6
CONTINUOUS
 10
10.8405741714
 20
-0.6958103293
 11
10.750307148
 21
-0.6964162104
  0
LINE
  5
2C7
100
AcDbEntity
  8
ASSI
100
AcDbLine
 62
253
  6
CONTINUOUS
 10
10.5715975097
 20
-0.4462918145
 11
10.502770286
 21
-0.4467258272
  0
LINE
  5
2C8
100
AcDbEntity
  8
ASSI
100
AcDbLine
 62
253
  6
CONTINUOUS
 10
-10.7010407289
 20
-0.1522785395
 11
-10.6134817464
 21
-0.151877322
  0
LINE
  5
2C9
100
AcDbEntity
  8
ASSI
100
AcDbLine
 62
253
  6
CONTINUOUS
 10
10.750307148
 20
-0.6964162104
 11
10.4355002108
 21
-0.6971279643
  0
LINE
  5
2CA
100
AcDbEntity
  8
ASSI
100
AcDbLine
 62
253
  6
CONTINUOUS
 10
10.4355002108
 20
-0.6971279643
 11
-10.5433330167
 21
-0.697137219
  0
LINE
  5
2CB
100
AcDbEntity
  8
ASSI
100
AcDbLine
 62
253
  6
CONTINUOUS
 10
10.502770286
 20
-0.4467258272
 11
10.3928906451
 21
-0.4469478538
  0
LINE
  5
2CC
100
AcDbEntity
  8
ASSI
100
AcDbLine
 62
7
  6
CONTINUOUS
 10
10.3928906451
 20
-0.4469478538
 11
-10.5433348471
 21
-0.4469478538
  0
LINE
  5
2CD
100
AcDbEntity
  8
ASSI
100
AcDbLine
 62
7
  6
CONTINUOUS
 10
8.174777899
 20
-0.425549369
 11
-8.325222101
 21
-0.425549369
  0
LINE
  5
2CE
100
AcDbEntity
  8
ASSI
100
AcDbLine
 62
7
  6
CONTINUOUS
 10
10.8247016973
 20
-0.3993687656
 11
8.4372438896
 21
-0.3993687656
  0
LINE
  5
2CF
100
AcDbEntity
  8
ASSI
100
AcDbLine
 62
7
  6
CONTINUOUS
 10
-8.5876880916
 20
-0.3993687656
 11
-10.9751458993
 21
-0.3993687656
  0
LINE
  5
2D0
100
AcDbEntity
  8
ASSI
100
AcDbLine
 62
7
  6
CONTINUOUS
 10
-10.9751458993
 20
-0.1993687656
 11
-8.5876880916
 21
-0.1993687656
  0
LINE
  5
2D1
100
AcDbEntity
  8
ASSI
100
AcDbLine
 62
7
  6
CONTINUOUS
 10
8.4372438896
 20
-0.1993687656
 11
10.8247016973
 21
-0.1993687656
  0
LINE
  5
2D2
100
AcDbEntity
  8
ASSI
100
AcDbLine
 62
7
  6
CONTINUOUS
 10
-8.325222101
 20
-0.1731881622
 11
8.174777899
 21
-0.1731881622
  0
LINE
  5
2D3
100
AcDbEntity
  8
ASSI
100
AcDbLine
 62
7
  6
CONTINUOUS
 10
-10.5433348471
 20
-0.1517896774
 11
10.3928906451
 21
-0.1517896774
  0
LINE
  5
2D4
100
AcDbEntity
  8
ASSI
100
AcDbLine
 62
253
  6
CONTINUOUS
 10
-10.6134817464
 20
-0.151877322
 11
-10.5433348471
 21
-0.1517896774
  0
LINE
  5
2D5
100
AcDbEntity
  8
ASSI
100
AcDbLine
 62
253
  6
CONTINUOUS
 10
-10.5433348471
 20
-0.4469478538
 11
-10.6595596687
 21
-0.4466977488
  0
LINE
  5
2D6
100
AcDbEntity
  8
ASSI
100
AcDbLine
 62
253
  6
CONTINUOUS
 10
10.3928906451
 20
-0.1517896774
 11
10.5091154667
 21
-0.1520397824
  0
LINE
  5
2D7
100
AcDbEntity
  8
ASSI
100
AcDbLine
 62
253
  6
CONTINUOUS
 10
-10.5433330167
 20
-0.6971372196
 11
-10.9381345224
 21
-0.6962116935
  0
LINE
  5
2D8
100
AcDbEntity
  8
ASSI
100
AcDbLine
 62
253
  6
CONTINUOUS
 10
10.5091154667
 20
-0.1520397824
 11
10.5505965269
 21
-0.1522785395
  0
LINE
  5
2D9
100
AcDbEntity
  8
ASSI
100
AcDbLine
 62
253
  6
CONTINUOUS
 10
-10.6595596687
 20
-0.4466977488
 11
-10.7220417117
 21
-0.4462918145
  0
LINE
  5
2DA
100
AcDbEntity
  8
ASSI
100
AcDbLine
 62
253
  6
CONTINUOUS
 10
-10.9381345224
 20
-0.6962116935
 11
-10.9971696208
 21
-0.6957492147
  0
LINE
  5
2DB
100
AcDbEntity
  8
ASSI
100
AcDbLine
 62
253
  6
CONTINUOUS
 10
-10.7220417117
 20
-0.4462918145
 11
-10.7530916739
 21
-0.445953188
  0
LINE
  5
2DC
100
AcDbEntity
  8
ASSI
100
AcDbLine
 62
253
  6
CONTINUOUS
 10
-10.9971696208
 20
-0.6957492147
 11
-11.0180580852
 21
-0.6954971656
  0
LINE
  5
2DD
100
AcDbEntity
  8
ASSI
100
AcDbLine
 62
253
  6
CONTINUOUS
 10
-10.7530916739
 20
-0.445953188
 11
-10.7702516684
 21
-0.4456817853
  0
LINE
  5
2DE
100
AcDbEntity
  8
ASSI
100
AcDbLine
 62
253
  6
CONTINUOUS
 10
-11.0180580852
 20
-0.6954971656
 11
-11.0297081976
 21
-0.6953016926
  0
LINE
  5
2DF
100
AcDbEntity
  8
ASSI
100
AcDbLine
 62
253
  6
CONTINUOUS
 10
-10.7702516684
 20
-0.4456817853
 11
-10.7783680759
 21
-0.4455096858
  0
LWPOLYLINE
  5
2E0
100
AcDbEntity
  8
ASSI
100
AcDbPolyline
 62
253
  6
CONTINUOUS
 90
7
 70
0
 10
-11.0297081976
 20
-0.6953016926
 10
-11.0355129048
 20
-0.6951691263
 10
-11.0378191238
 20
-0.6951022761
 10
-11.0397253493
 20
-0.6950351924
 10
-11.0412300422
 20
-0.6949679283
 10
-11.0423319811
 20
-0.6949004489
 10
-11.0430302747
 20
-0.6948327632
  0
LINE
  5
2E1
100
AcDbEntity
  8
ASSI
100
AcDbLine
 62
253
  6
CONTINUOUS
 10
-10.7783680759
 20
-0.4455096858
 11
-10.7828328043
 21
-0.4453918526
  0
LWPOLYLINE
  5
2E2
100
AcDbEntity
  8
ASSI
100
AcDbPolyline
 62
253
  6
CONTINUOUS
 90
9
 70
0
 10
-10.7828328043
 20
-0.4453918526
 10
-10.7865220574
 20
-0.4452719927
 10
-10.7880719917
 20
-0.44521145
 10
-10.7894235731
 20
-0.4451505457
 10
-10.7905772798
 20
-0.4450892817
 10
-10.7915303065
 20
-0.4450278092
 10
-10.7922817181
 20
-0.4449661785
 10
-10.7928324496
 20
-0.4449043393
 10
-10.7931825011
 20
-0.4448422916
  0
LINE
  5
2E3
100
AcDbEntity
  8
ASSI
100
AcDbLine
 62
7
  6
CONTINUOUS
 10
-8.5876880916
 20
-0.3993687656
 11
-8.325222101
 21
-0.425549369
  0
LWPOLYLINE
  5
2E4
100
AcDbEntity
  8
ASSI
100
AcDbPolyline
 62
253
  6
CONTINUOUS
 90
18
 70
0
 10
-11.0968877826
 20
-21.8569977701
 10
-11.0964690212
 20
-21.8562243787
 10
-11.0960514857
 20
-21.8551649139
 10
-11.0956351759
 20
-21.8538193757
 10
-11.0952198457
 20
-21.8521866465
 10
-11.0948057414
 20
-21.8502678439
 10
-11.0943936014
 20
-21.8480663212
 10
-11.0939834364
 20
-21.8455815972
 10
-11.0935752358
 20
-21.842814153
 10
-11.0931697071
 20
-21.8397687857
 10
-11.0927668558
 20
-21.8364450184
 10
-11.0923666764
 20
-21.832843328
 10
-11.0919698598
 20
-21.8289699416
 10
-11.0915764115
 20
-21.8248243868
 10
-11.091186326
 20
-21.820407136
 10
-11.0908002779
 20
-21.8157258345
 10
-11.0904182742
 20
-21.810780025
 10
-11.0896670326
 20
-21.800105271
  0
LINE
  5
2E5
100
AcDbEntity
  8
ASSI
100
AcDbLine
 62
7
  6
CONTINUOUS
 10
-8.5876880916
 20
-0.1993687656
 11
-8.325222101
 21
-0.1731881622
  0
LWPOLYLINE
  5
2E6
100
AcDbEntity
  8
ASSI
100
AcDbPolyline
 62
253
  6
CONTINUOUS
 90
6
 70
0
 10
-11.0430302747
 20
0.0960952321
 10
-11.0423319811
 20
0.0961629177
 10
-11.0412300422
 20
0.0962303972
 10
-11.0397253493
 20
0.0962976612
 10
-11.0378191238
 20
0.0963647449
 10
-11.0355129048
 20
0.0964315951
  0
LINE
  5
2E7
100
AcDbEntity
  8
ASSI
100
AcDbLine
 62
253
  6
CONTINUOUS
 10
-10.7865220574
 20
-0.1534655385
 11
-10.7828328043
 21
-0.1533456786
  0
LINE
  5
2E8
100
AcDbEntity
  8
ASSI
100
AcDbLine
 62
253
  6
CONTINUOUS
 10
-10.7828328043
 20
-0.1533456786
 11
-10.7783680759
 21
-0.1532278454
  0
LINE
  5
2E9
100
AcDbEntity
  8
ASSI
100
AcDbLine
 62
253
  6
CONTINUOUS
 10
-11.0355129048
 20
0.0964315951
 11
-11.0297081976
 21
0.0965641614
  0
LINE
  5
2EA
100
AcDbEntity
  8
ASSI
100
AcDbLine
 62
253
  6
CONTINUOUS
 10
-10.7783680759
 20
-0.1532278454
 11
-10.7702516684
 21
-0.1530557458
  0
LINE
  5
2EB
100
AcDbEntity
  8
ASSI
100
AcDbLine
 62
253
  6
CONTINUOUS
 10
-11.0297081976
 20
0.0965641614
 11
-11.0180580852
 21
0.0967596344
  0
LINE
  5
2EC
100
AcDbEntity
  8
ASSI
100
AcDbLine
 62
253
  6
CONTINUOUS
 10
-10.7702516684
 20
-0.1530557458
 11
-10.7530916739
 21
-0.1527843431
  0
LINE
  5
2ED
100
AcDbEntity
  8
ASSI
100
AcDbLine
 62
253
  6
CONTINUOUS
 10
-11.0180580852
 20
0.0967596344
 11
-10.9910183734
 21
0.0970727981
  0
LINE
  5
2EE
100
AcDbEntity
  8
ASSI
100
AcDbLine
 62
253
  6
CONTINUOUS
 10
-10.7530916739
 20
-0.1527843431
 11
-10.7220417117
 21
-0.1524457166
  0
LINE
  5
2EF
100
AcDbEntity
  8
ASSI
100
AcDbLine
 62
253
  6
CONTINUOUS
 10
-10.7220417117
 20
-0.1524457166
 11
-10.7010407289
 21
-0.1522785395
  0
LINE
  5
2F0
100
AcDbEntity
  8
ASSI
100
AcDbLine
 62
253
  6
CONTINUOUS
 10
-10.9910183734
 20
0.0970727981
 11
-10.90075135
 21
0.0976786792
  0
LINE
  5
2F1
100
AcDbEntity
  8
ASSI
100
AcDbLine
 62
253
  6
CONTINUOUS
 10
-10.90075135
 20
0.0976786792
 11
10.7298499515
 21
0.0977730163
  0
LINE
  5
2F2
100
AcDbEntity
  8
ASSI
100
AcDbLine
 62
253
  6
CONTINUOUS
 10
10.7298499515
 20
0.0977730163
 11
10.8340607671
 21
0.0971330601
  0
LINE
  5
2F3
100
AcDbEntity
  8
ASSI
100
AcDbLine
 62
253
  6
CONTINUOUS
 10
10.5505965269
 20
-0.1522785395
 11
10.5945736746
 21
-0.1526821743
  0
LINE
  5
2F4
100
AcDbEntity
  8
ASSI
100
AcDbLine
 62
253
  6
CONTINUOUS
 10
10.8340607671
 20
0.0971330601
 11
10.8629579973
 21
0.0968236933
  0
LINE
  5
2F5
100
AcDbEntity
  8
ASSI
100
AcDbLine
 62
253
  6
CONTINUOUS
 10
10.5945736746
 20
-0.1526821743
 11
10.613476849
 21
-0.1529446682
  0
LINE
  5
2F6
100
AcDbEntity
  8
ASSI
100
AcDbLine
 62
253
  6
CONTINUOUS
 10
10.8629579973
 20
0.0968236933
 11
10.8757701854
 21
0.0966298596
  0
LINE
  5
2F7
100
AcDbEntity
  8
ASSI
100
AcDbLine
 62
253
  6
CONTINUOUS
 10
10.613476849
 20
-0.1529446682
 11
10.6254067002
 21
-0.1531698298
  0
LWPOLYLINE
  5
2F8
100
AcDbEntity
  8
ASSI
100
AcDbPolyline
 62
253
  6
CONTINUOUS
 90
8
 70
0
 10
10.8757701854
 20
0.0966298596
 10
10.882364339
 20
0.09649807
 10
10.8850687028
 20
0.0964315951
 10
10.8873749218
 20
0.0963647449
 10
10.8892811473
 20
0.0962976612
 10
10.8907858402
 20
0.0962303972
 10
10.8918877791
 20
0.0961629177
 10
10.8925860727
 20
0.0960952321
  0
LINE
  5
2F9
100
AcDbEntity
  8
ASSI
100
AcDbLine
 62
253
  6
CONTINUOUS
 10
10.6254067002
 20
-0.1531698298
 11
10.6302530555
 21
-0.153286509
  0
LWPOLYLINE
  5
2FA
100
AcDbEntity
  8
ASSI
100
AcDbPolyline
 62
253
  6
CONTINUOUS
 90
10
 70
0
 10
10.6302530555
 20
-0.153286509
 10
10.6343300463
 20
-0.1534053556
 10
10.6360778554
 20
-0.1534655385
 10
10.6376277897
 20
-0.1535260812
 10
10.6389793711
 20
-0.1535869854
 10
10.6401330779
 20
-0.1536482495
 10
10.6410861045
 20
-0.153709722
 10
10.6418375161
 20
-0.1537713527
 10
10.6423882476
 20
-0.1538331919
 10
10.6427382991
 20
-0.1538952396
  0
LINE
  5
2FB
100
AcDbEntity
  8
ASSI
100
AcDbLine
 62
7
  6
CONTINUOUS
 10
8.4372438896
 20
-0.1993687656
 11
8.174777899
 21
-0.1731881622
  0
LWPOLYLINE
  5
2FC
100
AcDbEntity
  8
0
100
AcDbPolyline
 62
253
  6
CONTINUOUS
 90
39
 70
0
 10
2.781526121
 20
11.4275831772
 10
2.7819192284
 20
11.4363893702
 10
2.7820848863
 20
11.4451710838
 10
2.7820287522
 20
11.4539291546
 10
2.7817564837
 20
11.4626644191
 10
2.7812737384
 20
11.4713777137
 10
2.7805861737
 20
11.4800698749
 10
2.7796994473
 20
11.4887417393
 10
2.778420068
 20
11.4988332117
 10
2.776882124
 20
11.5088925311
 10
2.7750904312
 20
11.5189140323
 10
2.7730498056
 20
11.5288920501
 10
2.7707650632
 20
11.5388209191
 10
2.76824102
 20
11.5486949741
 10
2.7654822077
 20
11.5585086873
 10
2.7624920218
 20
11.5682570798
 10
2.7592735737
 20
11.5779353102
 10
2.7558299746
 20
11.5875385371
 10
2.7521643358
 20
11.5970619191
 10
2.7482797687
 20
11.6065006146
 10
2.7441789667
 20
11.6158497436
 10
2.7398629512
 20
11.6251042713
 10
2.7353323262
 20
11.6342591244
 10
2.7305876952
 20
11.6433092294
 10
2.7256296619
 20
11.6522495129
 10
2.7204588301
 20
11.6610749016
 10
2.7150757529
 20
11.6697798307
 10
2.7094807817
 20
11.6783567701
 10
2.7036742173
 20
11.6867976987
 10
2.6976563606
 20
11.6950945951
 10
2.6914275124
 20
11.7032394379
 10
2.6849879736
 20
11.7112242058
 10
2.6793000492
 20
11.7179349873
 10
2.6734526108
 20
11.7245183069
 10
2.6674407161
 20
11.7309702022
 10
2.6612594234
 20
11.7372867106
 10
2.6549037904
 20
11.7434638694
 10
2.6483688752
 20
11.7494977161
 10
2.6416497357
 20
11.7553842882
  0
LINE
  5
2FD
100
AcDbEntity
  8
ASSI
100
AcDbLine
 62
253
  6
CONTINUOUS
 10
-11.1989147916
 20
-22.0101160733
 11
-11.0968877826
 21
-21.8569977701
  0
LINE
  5
2FE
100
AcDbEntity
  8
ASSI
100
AcDbLine
 62
253
  6
CONTINUOUS
 10
-10.6980039062
 20
-22.5076067061
 11
-10.5971923691
 21
-22.3563125375
  0
LINE
  5
2FF
100
AcDbEntity
  8
ASSI
100
AcDbLine
 62
253
  6
CONTINUOUS
 10
-10.9751458993
 20
-0.1993687656
 11
-10.7931825011
 21
-0.1538952396
  0
LINE
  5
300
100
AcDbEntity
  8
ASSI
100
AcDbLine
 62
253
  6
CONTINUOUS
 10
-11.225222101
 20
0.0505646132
 11
-11.0430302747
 21
0.0960952244
  0
LWPOLYLINE
  5
301
100
AcDbEntity
  8
ASSI
100
AcDbPolyline
 62
253
  6
CONTINUOUS
 90
8
 70
0
 10
-10.7931825011
 20
-0.1538952396
 10
-10.7928324496
 20
-0.1538331919
 10
-10.7922817181
 20
-0.1537713527
 10
-10.7915303065
 20
-0.153709722
 10
-10.7905772798
 20
-0.1536482495
 10
-10.7894235731
 20
-0.1535869854
 10
-10.7880719917
 20
-0.1535260812
 10
-10.7865220574
 20
-0.1534655385
  0
LINE
  5
302
100
AcDbEntity
  8
ASSI
100
AcDbLine
 62
253
  6
CONTINUOUS
 10
10.6427382991
 20
-0.1538952396
 11
10.8247016973
 21
-0.1993687656
  0
LINE
  5
303
100
AcDbEntity
  8
ASSI
100
AcDbLine
 62
253
  6
CONTINUOUS
 10
10.8925860727
 20
0.0960952244
 11
11.074777899
 21
0.0505646132
  0
LINE
  5
304
100
AcDbEntity
  8
ASSI
100
AcDbLine
 62
253
  6
CONTINUOUS
 10
-11.0968877826
 20
21.258260239
 11
-11.1989147916
 21
21.4113785422
  0
LINE
  5
305
100
AcDbEntity
  8
ASSI
100
AcDbLine
 62
253
  6
CONTINUOUS
 10
-10.5971923691
 20
21.7575750063
 11
-10.6980039062
 21
21.908869175
  0
LWPOLYLINE
  5
306
100
AcDbEntity
  8
ASSI
100
AcDbPolyline
 62
253
  6
CONTINUOUS
 90
13
 70
0
 10
10.4467481671
 20
21.7575750063
 10
10.4463293041
 20
21.756030233
 10
10.4459116971
 20
21.7539103993
 10
10.445495346
 20
21.7512167355
 10
10.4450800168
 20
21.7479508089
 10
10.4446659436
 20
21.7441145066
 10
10.4442538289
 20
21.7397100244
 10
10.443843668
 20
21.7347398844
 10
10.4434354657
 20
21.7292069652
 10
10.4430299378
 20
21.7231144852
 10
10.4426270941
 20
21.7164659787
 10
10.442226925
 20
21.7092652744
 10
10.4414366761
 20
21.6932241704
  0
LWPOLYLINE
  5
307
100
AcDbEntity
  8
0
100
AcDbPolyline
 62
253
  6
CONTINUOUS
 90
39
 70
0
 10
-2.7926095701
 20
11.1240178995
 10
-2.7871298864
 20
11.1176421677
 10
-2.7814512414
 20
11.1114331932
 10
-2.775578594
 20
11.1053839241
 10
-2.769516903
 20
11.0994873088
 10
-2.7632711276
 20
11.0937362953
 10
-2.7568462266
 20
11.0881238317
 10
-2.750247159
 20
11.0826428663
 10
-2.7434788838
 20
11.0772863473
 10
-2.7365463598
 20
11.0720472227
 10
-2.729454546
 20
11.0669184408
 10
-2.7213937717
 20
11.0613433798
 10
-2.7131481197
 20
11.0559026541
 10
-2.7047232443
 20
11.05060308
 10
-2.6961247997
 20
11.0454514732
 10
-2.6873584401
 20
11.0404546497
 10
-2.6784298198
 20
11.0356194254
 10
-2.6693445929
 20
11.0309526164
 10
-2.6601084138
 20
11.0264610385
 10
-2.6507269365
 20
11.0221515077
 10
-2.6412065727
 20
11.0180305519
 10
-2.6315567628
 20
11.0141035471
 10
-2.6217877047
 20
11.010375581
 10
-2.6119095962
 20
11.0068517416
 10
-2.6019326351
 20
11.0035371169
 10
-2.5918670192
 20
11.0004367945
 10
-2.5817229463
 20
10.9975558626
 10
-2.5715106143
 20
10.9948994089
 10
-2.5612402209
 20
10.9924725213
 10
-2.5519539959
 20
10.9904887841
 10
-2.5426264938
 20
10.98869869
 10
-2.5332552068
 20
10.9871058125
 10
-2.5238376274
 20
10.985713725
 10
-2.5143712478
 20
10.9845260008
 10
-2.5048535603
 20
10.9835462134
 10
-2.4952820573
 20
10.9827779362
 10
-2.4856542311
 20
10.9822247425
 10
-2.475967574
 20
10.9818902058
 10
-2.4662195784
 20
10.9817778995
  0
LWPOLYLINE
  5
308
100
AcDbEntity
  8
ASSI
100
AcDbPolyline
 62
253
  6
CONTINUOUS
 90
17
 70
0
 10
10.9399740722
 20
-21.810780025
 10
10.9403560759
 20
-21.8157258345
 10
10.940742124
 20
-21.820407136
 10
10.9411322095
 20
-21.8248243868
 10
10.9415256578
 20
-21.8289699416
 10
10.9419224744
 20
-21.832843328
 10
10.9423226538
 20
-21.8364450184
 10
10.9427255052
 20
-21.8397687857
 10
10.9431310338
 20
-21.842814153
 10
10.9435392344
 20
-21.8455815972
 10
10.9439493995
 20
-21.8480663212
 10
10.9443615394
 20
-21.8502678439
 10
10.9447756437
 20
-21.8521866465
 10
10.9451909739
 20
-21.8538193757
 10
10.9456072837
 20
-21.8551649139
 10
10.9460248192
 20
-21.8562243787
 10
10.9464435806
 20
-21.8569977701
  0
LINE
  5
309
100
AcDbEntity
  8
ASSI
100
AcDbLine
 62
253
  6
CONTINUOUS
 10
10.9392228306
 20
-21.800105271
 11
10.9399740722
 21
-21.810780025
  0
LINE
  5
30A
100
AcDbEntity
  8
ASSI
100
AcDbLine
 62
253
  6
CONTINUOUS
 10
10.938490369
 20
-21.7884095003
 11
10.9392228306
 21
-21.800105271
  0
LWPOLYLINE
  5
30B
100
AcDbEntity
  8
ASSI
100
AcDbPolyline
 62
253
  6
CONTINUOUS
 90
11
 70
0
 10
10.4426270941
 20
-22.3152035099
 10
10.4430299378
 20
-22.3218520163
 10
10.4434354657
 20
-22.3279444964
 10
10.443843668
 20
-22.3334774156
 10
10.4442538289
 20
-22.3384475555
 10
10.4446659436
 20
-22.3428520377
 10
10.4450800168
 20
-22.3466883401
 10
10.445495346
 20
-22.3499542667
 10
10.4459116971
 20
-22.3526479304
 10
10.4463293041
 20
-22.3547677641
 10
10.4467481671
 20
-22.3563125375
  0
LINE
  5
30C
100
AcDbEntity
  8
ASSI
100
AcDbLine
 62
253
  6
CONTINUOUS
 10
10.9377785676
 20
-21.775724205
 11
10.938490369
 21
-21.7884095003
  0
LINE
  5
30D
100
AcDbEntity
  8
ASSI
100
AcDbLine
 62
253
  6
CONTINUOUS
 10
10.4418301177
 20
-22.3002540481
 11
10.4426270941
 21
-22.3152035099
  0
LINE
  5
30E
100
AcDbEntity
  8
ASSI
100
AcDbLine
 62
253
  6
CONTINUOUS
 10
10.9370886564
 20
-21.7620713271
 11
10.9377785676
 21
-21.775724205
  0
LINE
  5
30F
100
AcDbEntity
  8
ASSI
100
AcDbLine
 62
253
  6
CONTINUOUS
 10
10.9364224483
 20
-21.7474852676
 11
10.9370886564
 21
-21.7620713271
  0
LINE
  5
310
100
AcDbEntity
  8
ASSI
100
AcDbLine
 62
253
  6
CONTINUOUS
 10
10.4410465963
 20
-22.2831305586
 11
10.4418301177
 21
-22.3002540481
  0
LINE
  5
311
100
AcDbEntity
  8
ASSI
100
AcDbLine
 62
253
  6
CONTINUOUS
 10
10.935781647
 20
-21.732004936
 11
10.9364224483
 21
-21.7474852676
  0
LINE
  5
312
100
AcDbEntity
  8
ASSI
100
AcDbLine
 62
253
  6
CONTINUOUS
 10
10.4402785575
 20
-22.2638726066
 11
10.4410465963
 21
-22.2831305586
  0
LINE
  5
313
100
AcDbEntity
  8
ASSI
100
AcDbLine
 62
253
  6
CONTINUOUS
 10
10.4391587605
 20
-22.2310821743
 11
10.4402785575
 21
-22.2638726066
  0
LINE
  5
314
100
AcDbEntity
  8
ASSI
100
AcDbLine
 62
253
  6
CONTINUOUS
 10
10.438083093
 20
-22.1937607728
 11
10.4391587605
 21
-22.2310821743
  0
LINE
  5
315
100
AcDbEntity
  8
ASSI
100
AcDbLine
 62
253
  6
CONTINUOUS
 10
10.4367269981
 20
-22.1372889599
 11
10.438083093
 21
-22.1937607728
  0
LWPOLYLINE
  5
316
100
AcDbEntity
  8
ASSI
100
AcDbPolyline
 62
253
  6
CONTINUOUS
 90
3
 70
0
 10
10.43488579
 20
-22.0392869662
 10
10.4351753468
 20
-22.0566601236
 10
10.4367269981
 20
-22.1372889599
  0
LINE
  5
317
100
AcDbEntity
  8
ASSI
100
AcDbLine
 62
253
  6
CONTINUOUS
 10
10.4364033517
 20
21.5232886673
 11
10.43488579
 21
21.4405494351
  0
LINE
  5
318
100
AcDbEntity
  8
ASSI
100
AcDbLine
 62
253
  6
CONTINUOUS
 10
10.4377351833
 20
21.581608749
 11
10.4364033517
 21
21.5232886673
  0
LINE
  5
319
100
AcDbEntity
  8
ASSI
100
AcDbLine
 62
253
  6
CONTINUOUS
 10
10.4387948815
 20
21.6203985126
 11
10.4377351833
 21
21.581608749
  0
LINE
  5
31A
100
AcDbEntity
  8
ASSI
100
AcDbLine
 62
253
  6
CONTINUOUS
 10
10.4399005984
 20
21.6547193821
 11
10.4387948815
 21
21.6203985126
  0
LINE
  5
31B
100
AcDbEntity
  8
ASSI
100
AcDbLine
 62
253
  6
CONTINUOUS
 10
10.4406605542
 20
21.6750281937
 11
10.4399005984
 21
21.6547193821
  0
LINE
  5
31C
100
AcDbEntity
  8
ASSI
100
AcDbLine
 62
253
  6
CONTINUOUS
 10
10.4414366761
 20
21.6932241704
 11
10.4406605542
 21
21.6750281937
  0
LINE
  5
31D
100
AcDbEntity
  8
ASSI
100
AcDbLine
 62
253
  6
CONTINUOUS
 10
10.9367525919
 20
21.1561573119
 11
10.935781647
 21
21.1332674048
  0
LINE
  5
31E
100
AcDbEntity
  8
ASSI
100
AcDbLine
 62
253
  6
CONTINUOUS
 10
10.9374306516
 20
21.1702767806
 11
10.9367525919
 21
21.1561573119
  0
LINE
  5
31F
100
AcDbEntity
  8
ASSI
100
AcDbLine
 62
253
  6
CONTINUOUS
 10
10.9381318035
 20
21.1834518763
 11
10.9374306516
 21
21.1702767806
  0
LINE
  5
320
100
AcDbEntity
  8
ASSI
100
AcDbLine
 62
253
  6
CONTINUOUS
 10
10.9388542543
 20
21.1956473712
 11
10.9381318035
 21
21.1834518763
  0
LINE
  5
321
100
AcDbEntity
  8
0
100
AcDbLine
 62
253
  6
CONTINUOUS
 10
2.2263462121
 20
-12.0643501528
 11
-0.0842423401
 21
-14.257216819
  0
LINE
  5
322
100
AcDbEntity
  8
ASSI
100
AcDbLine
 62
253
  6
CONTINUOUS
 10
-11.0165458171
 20
9.1940570058
 11
-11.006097485
 21
9.1945664829
  0
LINE
  5
323
100
AcDbEntity
  8
ASSI
100
AcDbLine
 62
253
  6
CONTINUOUS
 10
-11.006097485
 20
9.1945664829
 11
-10.9941622679
 21
9.1950648468
  0
LINE
  5
324
100
AcDbEntity
  8
ASSI
100
AcDbLine
 62
253
  6
CONTINUOUS
 10
-10.9941622679
 20
9.1950648468
 11
-10.9807787767
 21
9.1955504854
  0
LINE
  5
325
100
AcDbEntity
  8
ASSI
100
AcDbLine
 62
253
  6
CONTINUOUS
 10
-10.9807787767
 20
9.1955504854
 11
-10.9580839829
 21
9.1962516589
  0
LINE
  5
326
100
AcDbEntity
  8
ASSI
100
AcDbLine
 62
253
  6
CONTINUOUS
 10
-10.9580839829
 20
9.1962516589
 11
-10.9231970761
 21
9.1971277564
  0
LINE
  5
327
100
AcDbEntity
  8
ASSI
100
AcDbLine
 62
253
  6
CONTINUOUS
 10
-10.9231970761
 20
9.1971277564
 11
-10.8727977523
 21
9.1981126134
  0
LINE
  5
328
100
AcDbEntity
  8
ASSI
100
AcDbLine
 62
253
  6
CONTINUOUS
 10
-10.8727977523
 20
9.1981126134
 11
-10.8037208932
 21
9.1991068256
  0
LINE
  5
329
100
AcDbEntity
  8
ASSI
100
AcDbLine
 62
253
  6
CONTINUOUS
 10
-10.8037208932
 20
9.1991068256
 11
-10.7138390393
 21
9.199972222
  0
LINE
  5
32A
100
AcDbEntity
  8
ASSI
100
AcDbLine
 62
253
  6
CONTINUOUS
 10
-10.7138390393
 20
9.199972222
 11
-10.6032404487
 21
9.2005321637
  0
LINE
  5
32B
100
AcDbEntity
  8
ASSI
100
AcDbLine
 62
253
  6
CONTINUOUS
 10
-10.6032404487
 20
9.2005321637
 11
10.3960338575
 21
9.2006312344
  0
LINE
  5
32C
100
AcDbEntity
  8
ASSI
100
AcDbLine
 62
253
  6
CONTINUOUS
 10
10.5088247166
 20
9.2003115421
 11
10.3960338575
 21
9.2006312344
  0
LINE
  5
32D
100
AcDbEntity
  8
ASSI
100
AcDbLine
 62
253
  6
CONTINUOUS
 10
10.6158010349
 20
9.1995185909
 11
10.5088247166
 21
9.2003115421
  0
LINE
  5
32E
100
AcDbEntity
  8
ASSI
100
AcDbLine
 62
253
  6
CONTINUOUS
 10
10.6888805521
 20
9.198637027
 11
10.6158010349
 21
9.1995185909
  0
LINE
  5
32F
100
AcDbEntity
  8
ASSI
100
AcDbLine
 62
253
  6
CONTINUOUS
 10
10.7433641
 20
9.1977345316
 11
10.6888805521
 21
9.198637027
  0
LINE
  5
330
100
AcDbEntity
  8
ASSI
100
AcDbLine
 62
253
  6
CONTINUOUS
 10
10.7819499878
 20
9.1969155743
 11
10.7433641
 21
9.1977345316
  0
LINE
  5
331
100
AcDbEntity
  8
ASSI
100
AcDbLine
 62
253
  6
CONTINUOUS
 10
10.8076397809
 20
9.1962516589
 11
10.7819499878
 21
9.1969155743
  0
LINE
  5
332
100
AcDbEntity
  8
ASSI
100
AcDbLine
 62
253
  6
CONTINUOUS
 10
10.8303345747
 20
9.1955504854
 11
10.8076397809
 21
9.1962516589
  0
LINE
  5
333
100
AcDbEntity
  8
ASSI
100
AcDbLine
 62
253
  6
CONTINUOUS
 10
10.8437180659
 20
9.1950648468
 11
10.8303345747
 21
9.1955504854
  0
LINE
  5
334
100
AcDbEntity
  8
ASSI
100
AcDbLine
 62
253
  6
CONTINUOUS
 10
10.8556532831
 20
9.1945664829
 11
10.8437180659
 21
9.1950648468
  0
LINE
  5
335
100
AcDbEntity
  8
0
100
AcDbLine
 62
253
  6
CONTINUOUS
 10
-0.0662018619
 20
13.6584792878
 11
2.2457978013
 21
11.4651540105
  0
LINE
  5
336
100
AcDbEntity
  8
ASSI
100
AcDbLine
 62
253
  6
CONTINUOUS
 10
10.9348707701
 20
-21.7071733599
 11
10.935781647
 21
-21.732004936
  0
LINE
  5
337
100
AcDbEntity
  8
ASSI
100
AcDbLine
 62
253
  6
CONTINUOUS
 10
10.9340246838
 20
-21.6805290055
 11
10.9348707701
 21
-21.7071733599
  0
LINE
  5
338
100
AcDbEntity
  8
ASSI
100
AcDbLine
 62
253
  6
CONTINUOUS
 10
10.9330047939
 20
-21.6424198422
 11
10.9340246838
 21
-21.6805290055
  0
LINE
  5
339
100
AcDbEntity
  8
ASSI
100
AcDbLine
 62
253
  6
CONTINUOUS
 10
10.9321173749
 20
-21.6016919116
 11
10.9330047939
 21
-21.6424198422
  0
LWPOLYLINE
  5
33A
100
AcDbEntity
  8
ASSI
100
AcDbPolyline
 62
253
  6
CONTINUOUS
 90
46
 70
0
 10
10.8925860058
 20
-0.6948327723
 10
10.8924312093
 20
-0.6861099204
 10
10.8919723183
 20
-0.6773976919
 10
10.8912098918
 20
-0.6687066971
 10
10.8901448583
 20
-0.6600475205
 10
10.8887785148
 20
-0.651430708
 10
10.8871125254
 20
-0.6428667537
 10
10.885148919
 20
-0.6343660875
 10
10.8828900871
 20
-0.6259390621
 10
10.8803387807
 20
-0.6175959405
 10
10.8774981069
 20
-0.6093468837
 10
10.8743715254
 20
-0.6012019379
 10
10.8709628438
 20
-0.5931710226
 10
10.8672762135
 20
-0.5852639185
 10
10.8633161244
 20
-0.5774902555
 10
10.8590873994
 20
-0.5698595008
 10
10.8545951886
 20
-0.5623809478
 10
10.8498449628
 20
-0.5550637045
 10
10.8448425073
 20
-0.5479166822
 10
10.8395939144
 20
-0.5409485851
 10
10.8341055763
 20
-0.5341678996
 10
10.828384177
 20
-0.5275828836
 10
10.8224366845
 20
-0.5212015569
 10
10.8162703421
 20
-0.5150316911
 10
10.8098926596
 20
-0.5090808003
 10
10.8033114042
 20
-0.5033561319
 10
10.7965345912
 20
-0.4978646579
 10
10.7895704737
 20
-0.4926130662
 10
10.7824275332
 20
-0.4876077525
 10
10.7751144689
 20
-0.4828548127
 10
10.7676401871
 20
-0.4783600353
 10
10.7600137907
 20
-0.4741288944
 10
10.7522445676
 20
-0.4701665428
 10
10.7443419797
 20
-0.4664778064
 10
10.7363156515
 20
-0.4630671774
 10
10.7281753578
 20
-0.4599388096
 10
10.7199310127
 20
-0.457096513
 10
10.7115926566
 20
-0.4545437491
 10
10.7031704446
 20
-0.4522836268
 10
10.694674634
 20
-0.4503188987
 10
10.6861155715
 20
-0.4486519576
 10
10.6775036809
 20
-0.4472848336
 10
10.6688494506
 20
-0.4462191917
 10
10.6601634202
 20
-0.4454563296
 10
10.6514561683
 20
-0.4449971765
 10
10.6427382991
 20
-0.4448422916
  0
LWPOLYLINE
  5
33B
100
AcDbEntity
  8
ASSI
100
AcDbPolyline
 62
253
  6
CONTINUOUS
 90
55
 70
0
 10
10.9464435806
 20
21.258260239
 10
10.9462061612
 20
21.2727658107
 10
10.9455471326
 20
21.2872591378
 10
10.9444670512
 20
21.301727986
 10
10.9429668285
 20
21.3161601416
 10
10.9410477312
 20
21.330543422
 10
10.938711379
 20
21.3448656858
 10
10.9359597443
 20
21.359114843
 10
10.9327951497
 20
21.3732788655
 10
10.9292202666
 20
21.3873457969
 10
10.9252381127
 20
21.4013037629
 10
10.9208520494
 20
21.4151409811
 10
10.9160657792
 20
21.428845771
 10
10.9108833422
 20
21.442406564
 10
10.9053091133
 20
21.4558119129
 10
10.8993477977
 20
21.4690505019
 10
10.8930044277
 20
21.4821111558
 10
10.8862843577
 20
21.4949828496
 10
10.8791932606
 20
21.507654718
 10
10.8717371222
 20
21.5201160642
 10
10.8639222363
 20
21.5323563691
 10
10.8557551998
 20
21.5443653003
 10
10.8472429068
 20
21.5561327207
 10
10.8383925428
 20
21.5676486969
 10
10.8292115787
 20
21.5789035081
 10
10.8197077644
 20
21.5898876535
 10
10.8098891224
 20
21.6005918612
 10
10.799763941
 20
21.6110070952
 10
10.7893407672
 20
21.6211245639
 10
10.7786283995
 20
21.6309357267
 10
10.7676358805
 20
21.6404323016
 10
10.7563724895
 20
21.6496062723
 10
10.7448477342
 20
21.6584498947
 10
10.7330713431
 20
21.6669557037
 10
10.721053257
 20
21.6751165191
 10
10.7088036208
 20
21.6829254522
 10
10.6963327748
 20
21.6903759112
 10
10.6836512461
 20
21.6974616069
 10
10.6707697396
 20
21.7041765581
 10
10.6576991289
 20
21.7105150963
 10
10.6444504475
 20
21.7164718711
 10
10.631034879
 20
21.7220418541
 10
10.6174637478
 20
21.7272203435
 10
10.6037485099
 20
21.7320029681
 10
10.5899007428
 20
21.7363856905
 10
10.5759321358
 20
21.7403648112
 10
10.5618544803
 20
21.7439369713
 10
10.5476796596
 20
21.7470991555
 10
10.5334196393
 20
21.7498486943
 10
10.5190864568
 20
21.7521832669
 10
10.504692211
 20
21.7541009025
 10
10.4902490527
 20
21.7555999824
 10
10.4757691739
 20
21.7566792412
 10
10.4612647975
 20
21.7573377678
 10
10.4467481671
 20
21.7575750063
  0
LINE
  5
33C
100
AcDbEntity
  8
ASSI
100
AcDbLine
 62
253
  6
CONTINUOUS
 10
10.931206459
 20
-21.5476609054
 11
10.9321173749
 21
-21.6016919116
  0
LINE
  5
33D
100
AcDbEntity
  8
ASSI
100
AcDbLine
 62
253
  6
CONTINUOUS
 10
10.433074829
 20
-21.9072613457
 11
10.43488579
 21
-22.0392869662
  0
LINE
  5
33E
100
AcDbEntity
  8
ASSI
100
AcDbLine
 62
253
  6
CONTINUOUS
 10
10.9305281671
 20
-21.4909018659
 11
10.931206459
 21
-21.5476609054
  0
LINE
  5
33F
100
AcDbEntity
  8
ASSI
100
AcDbLine
 62
253
  6
CONTINUOUS
 10
10.4313564711
 20
-21.7153298895
 11
10.433074829
 21
-21.9072613457
  0
LINE
  5
340
100
AcDbEntity
  8
ASSI
100
AcDbLine
 62
253
  6
CONTINUOUS
 10
10.9257279112
 20
-20.5751878602
 11
10.9305281671
 21
-21.4909018659
  0
LINE
  5
341
100
AcDbEntity
  8
ASSI
100
AcDbLine
 62
7
  6
CONTINUOUS
 10
11.0484705896
 20
21.4113785422
 11
11.074777899
 21
12.8006312344
  0
LINE
  5
342
100
AcDbEntity
  8
ASSI
100
AcDbLine
 62
253
  6
CONTINUOUS
 10
10.4303967114
 20
-21.5067651852
 11
10.4313564711
 21
-21.7153298895
  0
LINE
  5
343
100
AcDbEntity
  8
ASSI
100
AcDbLine
 62
253
  6
CONTINUOUS
 10
10.397768291
 20
-11.5404728521
 11
10.4303967114
 21
-21.5067651852
  0
LINE
  5
344
100
AcDbEntity
  8
ASSI
100
AcDbLine
 62
253
  6
CONTINUOUS
 10
10.8964502284
 20
-10.6557175686
 11
10.9257279112
 21
-20.5751878602
  0
LINE
  5
345
100
AcDbEntity
  8
ASSI
100
AcDbLine
 62
253
  6
CONTINUOUS
 10
10.397768291
 20
-11.5404728521
 11
10.3928906451
 21
-0.4469478538
  0
LINE
  5
346
100
AcDbEntity
  8
ASSI
100
AcDbLine
 62
253
  6
CONTINUOUS
 10
10.8925860727
 20
-0.6948327556
 11
10.8964502284
 21
-10.6557175686
  0
LINE
  5
347
100
AcDbEntity
  8
ASSI
100
AcDbLine
 62
7
  6
CONTINUOUS
 10
11.074777899
 20
-0.6493021444
 11
11.074777899
 21
-13.3993687656
  0
LINE
  5
348
100
AcDbEntity
  8
ASSI
100
AcDbLine
 62
7
  6
CONTINUOUS
 10
11.074777899
 20
0.0505646132
 11
11.074777899
 21
12.8006312344
  0
LINE
  5
349
100
AcDbEntity
  8
ASSI
100
AcDbLine
 62
7
  6
CONTINUOUS
 10
11.0484705896
 20
-22.0101160733
 11
11.074777899
 21
-13.3993687656
  0
LINE
  5
34A
100
AcDbEntity
  8
ASSI
100
AcDbLine
 62
253
  6
CONTINUOUS
 10
10.4219582422
 20
19.1832306531
 11
10.3928906451
 21
-0.1517896774
  0
LINE
  5
34B
100
AcDbEntity
  8
ASSI
100
AcDbLine
 62
253
  6
CONTINUOUS
 10
10.9236545562
 20
19.5475089811
 11
10.8925860727
 21
0.0960952244
  0
LINE
  5
34C
100
AcDbEntity
  8
ASSI
100
AcDbLine
 62
253
  6
CONTINUOUS
 10
10.9304212823
 20
20.8805503605
 11
10.9236545562
 21
19.5475089811
  0
LINE
  5
34D
100
AcDbEntity
  8
ASSI
100
AcDbLine
 62
253
  6
CONTINUOUS
 10
10.4322218363
 20
21.225868873
 11
10.4219582422
 21
19.1832306531
  0
LINE
  5
34E
100
AcDbEntity
  8
ASSI
100
AcDbLine
 62
253
  6
CONTINUOUS
 10
10.9310518477
 20
20.9377660668
 11
10.9304212823
 21
20.8805503605
  0
LINE
  5
34F
100
AcDbEntity
  8
ASSI
100
AcDbLine
 62
253
  6
CONTINUOUS
 10
10.4340623154
 20
21.3861135541
 11
10.4322218363
 21
21.225868873
  0
LINE
  5
350
100
AcDbEntity
  8
ASSI
100
AcDbLine
 62
253
  6
CONTINUOUS
 10
10.43488579
 20
21.4405494351
 11
10.4340623154
 21
21.3861135541
  0
LWPOLYLINE
  5
351
100
AcDbEntity
  8
ASSI
100
AcDbPolyline
 62
253
  6
CONTINUOUS
 90
55
 70
0
 10
10.9464435806
 20
-21.8569977701
 10
10.9462061612
 20
-21.8715033422
 10
10.9455471326
 20
-21.8859966696
 10
10.9444670511
 20
-21.9004655181
 10
10.9429668284
 20
-21.914897674
 10
10.941047731
 20
-21.9292809546
 10
10.9387113787
 20
-21.9436032186
 10
10.9359597439
 20
-21.957852376
 10
10.9327951492
 20
-21.9720163987
 10
10.929220266
 20
-21.9860833303
 10
10.9252381119
 20
-22.0000412965
 10
10.9208520485
 20
-22.0138785149
 10
10.9160657782
 20
-22.0275833049
 10
10.9108833411
 20
-22.041144098
 10
10.905309112
 20
-22.0545494471
 10
10.8993477963
 20
-22.0677880361
 10
10.8930044261
 20
-22.0808486901
 10
10.886284356
 20
-22.0937203839
 10
10.8791932588
 20
-22.1063922524
 10
10.8717371202
 20
-22.1188535986
 10
10.8639222342
 20
-22.1310939035
 10
10.8557551976
 20
-22.1431028347
 10
10.8472429045
 20
-22.154870255
 10
10.8383925404
 20
-22.1663862313
 10
10.8292115761
 20
-22.1776410423
 10
10.8197077617
 20
-22.1886251877
 10
10.8098891197
 20
-22.1993293953
 10
10.7997639382
 20
-22.2097446292
 10
10.7893407643
 20
-22.2198620978
 10
10.7786283965
 20
-22.2296732605
 10
10.7676358775
 20
-22.2391698353
 10
10.7563724865
 20
-22.2483438058
 10
10.7448477312
 20
-22.2571874281
 10
10.7330713401
 20
-22.2656932369
 10
10.7210532541
 20
-22.2738540522
 10
10.7088036179
 20
-22.2816629852
 10
10.696332772
 20
-22.2891134441
 10
10.6836512433
 20
-22.2961991396
 10
10.6707697369
 20
-22.3029140906
 10
10.6576991263
 20
-22.3092526287
 10
10.644450445
 20
-22.3152094034
 10
10.6310348766
 20
-22.3207793862
 10
10.6174637456
 20
-22.3259578755
 10
10.6037485078
 20
-22.3307404999
 10
10.5899007408
 20
-22.3351232222
 10
10.575932134
 20
-22.3391023429
 10
10.5618544786
 20
-22.3426745029
 10
10.5476796582
 20
-22.3458366869
 10
10.5334196381
 20
-22.3485862257
 10
10.5190864557
 20
-22.3509207982
 10
10.5046922102
 20
-22.3528384338
 10
10.4902490521
 20
-22.3543375136
 10
10.4757691735
 20
-22.3554167724
 10
10.4612647973
 20
-22.356075299
 10
10.4467481671
 20
-22.3563125375
  0
LWPOLYLINE
  5
352
100
AcDbEntity
  8
ASSI
100
AcDbPolyline
 62
253
  6
CONTINUOUS
 90
46
 70
0
 10
10.8925860058
 20
0.0960952412
 10
10.8924312093
 20
0.0873723897
 10
10.8919723184
 20
0.0786601615
 10
10.8912098919
 20
0.069969167
 10
10.8901448585
 20
0.0613099908
 10
10.8887785151
 20
0.0526931787
 10
10.8871125258
 20
0.0441292248
 10
10.8851489197
 20
0.0356285589
 10
10.882890088
 20
0.0272015338
 10
10.8803387817
 20
0.0188584125
 10
10.8774981082
 20
0.0106093559
 10
10.8743715268
 20
0.0024644103
 10
10.8709628455
 20
-0.0055665047
 10
10.8672762155
 20
-0.0134736086
 10
10.8633161266
 20
-0.0212472715
 10
10.8590874019
 20
-0.0288780261
 10
10.8545951913
 20
-0.036356579
 10
10.8498449658
 20
-0.0436738223
 10
10.8448425105
 20
-0.0508208446
 10
10.8395939179
 20
-0.0577889416
 10
10.83410558
 20
-0.0645696271
 10
10.8283841809
 20
-0.0711546432
 10
10.8224366886
 20
-0.07753597
 10
10.8162703464
 20
-0.083705836
 10
10.809892664
 20
-0.0896567269
 10
10.8033114088
 20
-0.0953813955
 10
10.7965345958
 20
-0.1008728697
 10
10.7895704784
 20
-0.1061244616
 10
10.7824275379
 20
-0.1111297755
 10
10.7751144736
 20
-0.1158827155
 10
10.7676401918
 20
-0.1203774931
 10
10.7600137954
 20
-0.1246086343
 10
10.7522445722
 20
-0.1285709861
 10
10.7443419841
 20
-0.1322597228
 10
10.7363156557
 20
-0.135670352
 10
10.7281753618
 20
-0.1387987201
 10
10.7199310164
 20
-0.1416410169
 10
10.71159266
 20
-0.1441937811
 10
10.7031704478
 20
-0.1464539036
 10
10.6946746367
 20
-0.1484186318
 10
10.6861155738
 20
-0.1500855731
 10
10.6775036829
 20
-0.1514526973
 10
10.6688494521
 20
-0.1525183394
 10
10.6601634212
 20
-0.1532812015
 10
10.6514561688
 20
-0.1537403546
 10
10.6427382991
 20
-0.1538952396
  0
LINE
  5
353
100
AcDbEntity
  8
ASSI
100
AcDbLine
 62
253
  6
CONTINUOUS
 10
10.9319172192
 20
20.9924072841
 11
10.9310518477
 21
20.9377660668
  0
LINE
  5
354
100
AcDbEntity
  8
ASSI
100
AcDbLine
 62
253
  6
CONTINUOUS
 10
10.9327702209
 20
21.0337336122
 11
10.9319172192
 21
20.9924072841
  0
LINE
  5
355
100
AcDbEntity
  8
ASSI
100
AcDbLine
 62
253
  6
CONTINUOUS
 10
10.9337577207
 20
21.0725272474
 11
10.9327702209
 21
21.0337336122
  0
LINE
  5
356
100
AcDbEntity
  8
ASSI
100
AcDbLine
 62
253
  6
CONTINUOUS
 10
10.9345812085
 20
21.0997457649
 11
10.9337577207
 21
21.0725272474
  0
LWPOLYLINE
  5
357
100
AcDbEntity
  8
ASSI
100
AcDbPolyline
 62
253
  6
CONTINUOUS
 90
3
 70
0
 10
10.935781647
 20
21.1332674048
 10
10.9354709893
 20
21.1251966487
 10
10.9345812085
 20
21.0997457649
  0
LWPOLYLINE
  5
358
100
AcDbEntity
  8
0
100
AcDbPolyline
 62
253
  6
CONTINUOUS
 90
54
 70
0
 10
2.623362313
 20
-12.3536279305
 10
2.6324374453
 20
-12.3447854951
 10
2.6411921761
 20
-12.3357650163
 10
2.6496484838
 20
-12.3265516039
 10
2.6578283469
 20
-12.3171303676
 10
2.6657490021
 20
-12.3074897297
 10
2.6734087183
 20
-12.2976313623
 10
2.6808010228
 20
-12.2875602497
 10
2.6879194427
 20
-12.2772813767
 10
2.6947568399
 20
-12.2668007322
 10
2.7013034149
 20
-12.2561283236
 10
2.7075487029
 20
-12.245275163
 10
2.713482239
 20
-12.2342522622
 10
2.7190947319
 20
-12.2230700198
 10
2.7243815844
 20
-12.2117363809
 10
2.7293393729
 20
-12.2002586774
 10
2.7339646734
 20
-12.1886442409
 10
2.7388398064
 20
-12.1752132851
 10
2.7432746573
 20
-12.1616285116
 10
2.7472676861
 20
-12.1479051165
 10
2.7508173523
 20
-12.1340582957
 10
2.7539221156
 20
-12.1201032453
 10
2.7565804359
 20
-12.1060551614
 10
2.7587907727
 20
-12.0919292399
 10
2.7605518347
 20
-12.0777405246
 10
2.7618633254
 20
-12.0635034497
 10
2.7627251973
 20
-12.0492322971
 10
2.7631374028
 20
-12.0349413488
 10
2.7630998945
 20
-12.0206448866
 10
2.7626126248
 20
-12.0063571925
 10
2.7616755462
 20
-11.9920925484
 10
2.7602888455
 20
-11.977865123
 10
2.7584536481
 20
-11.9636886319
 10
2.7561713137
 20
-11.9495766774
 10
2.7534432021
 20
-11.935542862
 10
2.7502706728
 20
-11.921600788
 10
2.7466550858
 20
-11.9077640578
 10
2.7425978008
 20
-11.8940462739
 10
2.7386866382
 20
-11.8821515222
 10
2.7344405925
 20
-11.8703676229
 10
2.7298619145
 20
-11.8587039461
 10
2.724952855
 20
-11.8471698617
 10
2.7197166596
 20
-11.8357755319
 10
2.7141605529
 20
-11.8245342887
 10
2.7082927538
 20
-11.8134602562
 10
2.7021214816
 20
-11.8025675586
 10
2.6956542454
 20
-11.7918689772
 10
2.6888957139
 20
-11.7813719217
 10
2.6818498459
 20
-11.7710824586
 10
2.6745206001
 20
-11.7610066547
 10
2.6669075032
 20
-11.7511473589
 10
2.6589923542
 20
-11.7414945495
 10
2.6507525201
 20
-11.7320349866
 10
2.6421653681
 20
-11.7227554307
  0
LINE
  5
359
100
AcDbEntity
  8
0
100
AcDbLine
 62
253
  6
CONTINUOUS
 10
0.2242949236
 20
-14.6306673744
 11
2.623362313
 21
-12.3536279305
  0
LWPOLYLINE
  5
35A
100
AcDbEntity
  8
0
100
AcDbPolyline
 62
253
  6
CONTINUOUS
 90
55
 70
0
 10
2.3328633547
 20
10.9817778995
 10
2.3464277027
 20
10.9819923159
 10
2.3598664009
 20
10.9826313919
 10
2.3732139951
 20
10.9836888675
 10
2.3865050311
 20
10.9851584827
 10
2.3997740549
 20
10.9870339775
 10
2.4130485679
 20
10.9893108622
 10
2.4263278939
 20
10.9919917281
 10
2.4396043119
 20
10.9950809368
 10
2.4528701014
 20
10.9985828499
 10
2.4661175415
 20
11.0025018288
 10
2.4793366647
 20
11.0068416012
 10
2.492508516
 20
11.0116033591
 10
2.5056118937
 20
11.0167876606
 10
2.5186255961
 20
11.0223950637
 10
2.5315284213
 20
11.0284261266
 10
2.5421772158
 20
11.0337732273
 10
2.5527006223
 20
11.0393983472
 10
2.5630649744
 20
11.0452849097
 10
2.5732454705
 20
11.0514219516
 10
2.5832527687
 20
11.0578209629
 10
2.5931063919
 20
11.0644990467
 10
2.6028193587
 20
11.071469435
 10
2.6123786711
 20
11.0787298752
 10
2.6217648268
 20
11.0862742437
 10
2.6309583237
 20
11.0940964166
 10
2.6399396596
 20
11.1021902703
 10
2.6486893321
 20
11.1105496811
 10
2.6571899489
 20
11.1191665505
 10
2.6654325574
 20
11.1280248821
 10
2.6734103147
 20
11.1371067048
 10
2.681116378
 20
11.1463940474
 10
2.6885439045
 20
11.155868939
 10
2.6956860514
 20
11.1655134083
 10
2.7025399005
 20
11.1753157092
 10
2.7091182317
 20
11.1852889956
 10
2.7154377496
 20
11.1954526461
 10
2.7215091929
 20
11.2058168545
 10
2.7273194361
 20
11.2163550749
 10
2.7328493879
 20
11.2270315764
 10
2.7390938954
 20
11.2399821272
 10
2.7449068863
 20
11.2530577699
 10
2.750287955
 20
11.266235924
 10
2.755236696
 20
11.2794940091
 10
2.7597527038
 20
11.2928094448
 10
2.7638363182
 20
11.3061621962
 10
2.7674908603
 20
11.3195424096
 10
2.7707203964
 20
11.3329427771
 10
2.7735289929
 20
11.3463559905
 10
2.7759207161
 20
11.3597747418
 10
2.7778976929
 20
11.3731988221
 10
2.7794542923
 20
11.3866564189
 10
2.7805829438
 20
11.4001828192
 10
2.7812760768
 20
11.4138133097
 10
2.781526121
 20
11.4275831772
  0
LINE
  5
35B
100
AcDbEntity
  8
0
100
AcDbLine
 62
253
  6
CONTINUOUS
 10
-2.4662195784
 20
10.9817778995
 11
2.3328633547
 21
10.9817778995
  0
LINE
  5
35C
100
AcDbEntity
  8
0
100
AcDbLine
 62
253
  6
CONTINUOUS
 10
2.2457978013
 20
11.4651540105
 11
-2.3767904141
 21
11.4656126216
  0
LWPOLYLINE
  5
35D
100
AcDbEntity
  8
0
100
AcDbPolyline
 62
253
  6
CONTINUOUS
 90
51
 70
0
 10
0.2430431302
 20
14.0314712321
 10
0.2335838308
 20
14.0402741783
 10
0.223888024
 20
14.0487037042
 10
0.2139418393
 20
14.0567823608
 10
0.2037314066
 20
14.0645326988
 10
0.1932428555
 20
14.0719772692
 10
0.1824636495
 20
14.0791341766
 10
0.1713865871
 20
14.0860037416
 10
0.1600058004
 20
14.0925818384
 10
0.1483154218
 20
14.0988643413
 10
0.1363095835
 20
14.1048471247
 10
0.1239884802
 20
14.1105238883
 10
0.1113765562
 20
14.1158796329
 10
0.0985043183
 20
14.1208971846
 10
0.0854022733
 20
14.1255593697
 10
0.072100928
 20
14.1298490144
 10
0.0586281475
 20
14.133751008
 10
0.0450012307
 20
14.1372584927
 10
0.0312348347
 20
14.140366674
 10
0.0173436165
 20
14.1430707572
 10
0.0033422333
 20
14.1453659478
 10
-0.0107536942
 20
14.1472474144
 10
-0.024924691
 20
14.1487101789
 10
-0.0391503185
 20
14.1497492265
 10
-0.0534101382
 20
14.1503595423
 10
-0.0676837115
 20
14.1505361115
 10
-0.0819509769
 20
14.150275656
 10
-0.096193381
 20
14.1495818458
 10
-0.1103927472
 20
14.1484600873
 10
-0.1245308993
 20
14.1469157871
 10
-0.1385896608
 20
14.1449543519
 10
-0.1525509908
 20
14.1425812171
 10
-0.166397391
 20
14.1398019336
 10
-0.1801114985
 20
14.136622081
 10
-0.1936759504
 20
14.1330472391
 10
-0.2070733839
 20
14.1290829876
 10
-0.2202838911
 20
14.1247373934
 10
-0.2332773844
 20
14.1200284731
 10
-0.2460212311
 20
14.1149767305
 10
-0.2584827984
 20
14.1096026694
 10
-0.2706294536
 20
14.1039267937
 10
-0.2824355847
 20
14.0979669864
 10
-0.293903662
 20
14.0917306478
 10
-0.3050431764
 20
14.0852225576
 10
-0.3158636189
 20
14.0784474953
 10
-0.3263744804
 20
14.0714102405
 10
-0.3365862268
 20
14.0641113446
 10
-0.3465132238
 20
14.0565344464
 10
-0.3561708122
 20
14.0486589563
 10
-0.3655743325
 20
14.0404642851
 10
-0.3747391256
 20
14.0319298432
  0
LINE
  5
35E
100
AcDbEntity
  8
0
100
AcDbLine
 62
253
  6
CONTINUOUS
 10
2.6416497357
 20
11.7553842882
 11
0.2430431302
 21
14.0314712321
  0
LWPOLYLINE
  5
35F
100
AcDbEntity
  8
ASSI
100
AcDbPolyline
 62
253
  6
CONTINUOUS
 90
12
 70
0
 10
10.8957292711
 20
-9.7898687656
 10
10.8950310054
 20
-9.7901390977
 10
10.8939290899
 20
-9.7904092112
 10
10.8924244157
 20
-9.7906788874
 10
10.8905182002
 20
-9.7909479084
 10
10.8882119851
 20
-9.7912160564
 10
10.8855076362
 20
-9.7914831145
 10
10.882407341
 20
-9.7917488668
 10
10.8789136074
 20
-9.7920130982
 10
10.8750292615
 20
-9.792275595
 10
10.8707574456
 20
-9.7925361449
 10
10.8661016151
 20
-9.792794537
  0
LWPOLYLINE
  5
360
100
AcDbEntity
  8
ASSI
100
AcDbPolyline
 62
253
  6
CONTINUOUS
 90
13
 70
0
 10
10.8957292711
 20
9.1911312344
 10
10.8950310055
 20
9.1914015665
 10
10.8939290899
 20
9.19167168
 10
10.8924244157
 20
9.1919413563
 10
10.8905182002
 20
9.1922103772
 10
10.8882119851
 20
9.1924785252
 10
10.8855076362
 20
9.1927455833
 10
10.882407341
 20
9.1930113356
 10
10.8789136074
 20
9.193275567
 10
10.8750292616
 20
9.1935380638
 10
10.8707574456
 20
9.1937986137
 10
10.8661016152
 20
9.1940570058
 10
10.8556532831
 20
9.1945664829
  0
LWPOLYLINE
  5
361
100
AcDbEntity
  8
ASSI
100
AcDbPolyline
 62
253
  6
CONTINUOUS
 90
49
 70
0
 10
10.9300921249
 20
-21.432224094
 10
10.9293990981
 20
-21.434345738
 10
10.9283022152
 20
-21.436465665
 10
10.9268023641
 20
-21.4385821591
 10
10.9249007585
 20
-21.4406935075
 10
10.9225989376
 20
-21.4427980013
 10
10.9198987642
 20
-21.4448939374
 10
10.9168024237
 20
-21.4469796195
 10
10.9133124221
 20
-21.4490533595
 10
10.9094315837
 20
-21.4511134791
 10
10.9051630497
 20
-21.4531583111
 10
10.9005102745
 20
-21.4551862004
 10
10.8954770237
 20
-21.4571955059
 10
10.8900673711
 20
-21.4591846013
 10
10.8842856946
 20
-21.4611518769
 10
10.8781366736
 20
-21.4630957404
 10
10.8716252847
 20
-21.4650146187
 10
10.8647567977
 20
-21.4669069588
 10
10.8575367714
 20
-21.4687712291
 10
10.8499710491
 20
-21.4706059208
 10
10.8420657542
 20
-21.472409549
 10
10.8338272844
 20
-21.4741806541
 10
10.8252623075
 20
-21.4759178026
 10
10.8163777553
 20
-21.4776195886
 10
10.8071808182
 20
-21.4792846349
 10
10.7976789397
 20
-21.4809115937
 10
10.7878798098
 20
-21.4824991485
 10
10.7777913593
 20
-21.4840460143
 10
10.7674217529
 20
-21.4855509393
 10
10.7567793832
 20
-21.4870127054
 10
10.7458728632
 20
-21.4884301296
 10
10.73471102
 20
-21.4898020648
 10
10.7233028869
 20
-21.4911274006
 10
10.7116576971
 20
-21.4924050643
 10
10.6997848752
 20
-21.493634022
 10
10.6876940303
 20
-21.4948132789
 10
10.6753949477
 20
-21.4959418808
 10
10.6628975815
 20
-21.4970189141
 10
10.6502120461
 20
-21.4980435073
 10
10.6373486083
 20
-21.499014831
 10
10.6243176787
 20
-21.4999320993
 10
10.6111298038
 20
-21.5007945696
 10
10.5977956566
 20
-21.5016015439
 10
10.5843260291
 20
-21.5023523693
 10
10.5707318224
 20
-21.5030464379
 10
10.5570240387
 20
-21.5036831882
 10
10.5432137722
 20
-21.5042621047
 10
10.5293121997
 20
-21.5047827188
 10
10.5153305723
 20
-21.5052446094
  0
LWPOLYLINE
  5
362
100
AcDbEntity
  8
ASSI
100
AcDbPolyline
 62
253
  6
CONTINUOUS
 90
50
 70
0
 10
10.9300921249
 20
20.8334865628
 10
10.9293990983
 20
20.8356082069
 10
10.9283022156
 20
20.8377281338
 10
10.9268023646
 20
20.839844628
 10
10.9249007593
 20
20.8419559764
 10
10.9225989385
 20
20.8440604703
 10
10.9198987653
 20
20.8461564064
 10
10.916802425
 20
20.8482420885
 10
10.9133124234
 20
20.8503158285
 10
10.9094315852
 20
20.8523759482
 10
10.9051630513
 20
20.8544207802
 10
10.9005102762
 20
20.8564486695
 10
10.8954770256
 20
20.858457975
 10
10.890067373
 20
20.8604470705
 10
10.8842856967
 20
20.8624143461
 10
10.8781366758
 20
20.8643582097
 10
10.8716252869
 20
20.866277088
 10
10.8647567999
 20
20.8681694281
 10
10.8575367737
 20
20.8700336984
 10
10.8499710515
 20
20.8718683901
 10
10.8420657566
 20
20.8736720184
 10
10.8338272869
 20
20.8754431235
 10
10.82526231
 20
20.8771802721
 10
10.8163777577
 20
20.8788820581
 10
10.8071808207
 20
20.8805471044
 10
10.7976789422
 20
20.8821740633
 10
10.7878798123
 20
20.8837616181
 10
10.7777913617
 20
20.8853084839
 10
10.7674217554
 20
20.8868134089
 10
10.7567793856
 20
20.8882751751
 10
10.7458728656
 20
20.8896925993
 10
10.7347110223
 20
20.8910645345
 10
10.7233028892
 20
20.8923898703
 10
10.7116576993
 20
20.8936675341
 10
10.6997848774
 20
20.8948964918
 10
10.6876940324
 20
20.8960757488
 10
10.6753949497
 20
20.8972043506
 10
10.6628975835
 20
20.898281384
 10
10.650212048
 20
20.8993059772
 10
10.6373486101
 20
20.900277301
 10
10.6243176804
 20
20.9011945692
 10
10.6111298053
 20
20.9020570395
 10
10.5977956581
 20
20.9028640139
 10
10.5843260304
 20
20.9036148393
 10
10.5707318236
 20
20.9043089079
 10
10.5570240398
 20
20.9049456582
 10
10.5432137732
 20
20.9055245747
 10
10.5293122006
 20
20.9060451889
 10
10.5153305731
 20
20.9065070794
 10
10.4871724717
 20
20.9072532421
  0
LINE
  5
363
100
AcDbEntity
  8
ASSI
100
AcDbLine
 62
7
  6
CONTINUOUS
 10
7.7307315999
 20
21.908869175
 11
7.3825129259
 21
21.8772603434
  0
LINE
  5
364
100
AcDbEntity
  8
ASSI
100
AcDbLine
 62
253
  6
CONTINUOUS
 10
-10.6657747743
 20
20.9065070782
 11
-10.6376166732
 21
20.9072532409
  0
LINE
  5
365
100
AcDbEntity
  8
ASSI
100
AcDbLine
 62
253
  6
CONTINUOUS
 10
-10.6376166732
 20
20.9072532409
 11
-10.6092748086
 21
20.9077606465
  0
LINE
  5
366
100
AcDbEntity
  8
ASSI
100
AcDbLine
 62
253
  6
CONTINUOUS
 10
-10.6092748086
 20
20.9077606465
 11
-10.5808409134
 21
20.9080276527
  0
LINE
  5
367
100
AcDbEntity
  8
ASSI
100
AcDbLine
 62
253
  6
CONTINUOUS
 10
10.4303967114
 20
20.908027654
 11
-10.5808409134
 21
20.908027654
  0
LINE
  5
368
100
AcDbEntity
  8
ASSI
100
AcDbLine
 62
253
  6
CONTINUOUS
 10
10.4588306069
 20
20.9077606478
 11
10.4303967114
 21
20.908027654
  0
LINE
  5
369
100
AcDbEntity
  8
ASSI
100
AcDbLine
 62
253
  6
CONTINUOUS
 10
10.4871724717
 20
20.9072532421
 11
10.4588306069
 21
20.9077606478
  0
LINE
  5
36A
100
AcDbEntity
  8
ASSI
100
AcDbLine
 62
7
  6
CONTINUOUS
 10
-7.8811758019
 20
21.908869175
 11
-7.5329571279
 21
21.8772603434
  0
LINE
  5
36B
100
AcDbEntity
  8
ASSI
100
AcDbLine
 62
7
  6
CONTINUOUS
 10
-3.4692684001
 20
21.908869175
 11
-3.8174870741
 21
21.8772603434
  0
LINE
  5
36C
100
AcDbEntity
  8
ASSI
100
AcDbLine
 62
253
  6
CONTINUOUS
 10
10.4467481671
 20
21.7575750063
 11
-10.5971923691
 21
21.7575750063
  0
LINE
  5
36D
100
AcDbEntity
  8
ASSI
100
AcDbLine
 62
7
  6
CONTINUOUS
 10
7.2093078452
 20
21.8720195655
 11
3.8402479528
 21
21.8720195655
  0
LINE
  5
36E
100
AcDbEntity
  8
ASSI
100
AcDbLine
 62
7
  6
CONTINUOUS
 10
-3.9906921548
 20
21.8720195655
 11
-7.3597520472
 21
21.8720195655
  0
LINE
  5
36F
100
AcDbEntity
  8
ASSI
100
AcDbLine
 62
7
  6
CONTINUOUS
 10
-10.6980039062
 20
21.908869175
 11
-7.8811758019
 21
21.908869175
  0
LINE
  5
370
100
AcDbEntity
  8
ASSI
100
AcDbLine
 62
7
  6
CONTINUOUS
 10
-3.4692684001
 20
21.908869175
 11
3.3188241981
 21
21.908869175
  0
LINE
  5
371
100
AcDbEntity
  8
ASSI
100
AcDbLine
 62
7
  6
CONTINUOUS
 10
7.7307315999
 20
21.908869175
 11
10.5475597042
 21
21.908869175
  0
LINE
  5
372
100
AcDbEntity
  8
ASSI
100
AcDbLine
 62
7
  6
CONTINUOUS
 10
3.3188241981
 20
21.908869175
 11
3.6670428721
 21
21.8772603434
  0
LINE
  5
373
100
AcDbEntity
  8
ASSI
100
AcDbLine
 62
7
  6
CONTINUOUS
 10
-32.805218729
 20
-22.3563125375
 11
-29.9183540171
 21
-22.5076067061
  0
LINE
  5
374
100
AcDbEntity
  8
ASSI
100
AcDbLine
 62
253
  6
CONTINUOUS
 10
-32.7965004993
 20
-21.8569977701
 11
-29.8748292265
 21
-22.0101160733
  0
LWPOLYLINE
  5
375
100
AcDbEntity
  8
ASSI
100
AcDbPolyline
 62
253
  6
CONTINUOUS
 90
7
 70
0
 10
-33.7345879385
 20
-21.5052446094
 10
-33.7367689146
 20
-21.5056474024
 10
-33.7385537464
 20
-21.5059907721
 10
-33.7399409896
 20
-21.5062744403
 10
-33.7409295212
 20
-21.5064981777
 10
-33.7415185413
 20
-21.506661803
 10
-33.7417075732
 20
-21.5067651839
  0
LINE
  5
376
100
AcDbEntity
  8
ASSI
100
AcDbLine
 62
253
  6
CONTINUOUS
 10
-33.7290449334
 20
-21.5042621047
 11
-33.7345879385
 21
-21.5052446094
  0
LINE
  5
377
100
AcDbEntity
  8
ASSI
100
AcDbLine
 62
253
  6
CONTINUOUS
 10
-33.7178138083
 20
-21.5023523693
 11
-33.7290449334
 21
-21.5042621047
  0
LINE
  5
378
100
AcDbEntity
  8
ASSI
100
AcDbLine
 62
253
  6
CONTINUOUS
 10
-33.6915349953
 20
-21.4980435073
 11
-33.7178138083
 21
-21.5023523693
  0
LINE
  5
379
100
AcDbEntity
  8
ASSI
100
AcDbLine
 62
253
  6
CONTINUOUS
 10
-33.6220918602
 20
-21.4870127054
 11
-33.6915349953
 21
-21.4980435073
  0
LINE
  5
37A
100
AcDbEntity
  8
ASSI
100
AcDbLine
 62
253
  6
CONTINUOUS
 10
-33.2647449256
 20
-21.432224094
 11
-33.6220918602
 21
-21.4870127054
  0
LINE
  5
37B
100
AcDbEntity
  8
ASSI
100
AcDbLine
 62
253
  6
CONTINUOUS
 10
-29.544362173
 20
-18.2328603668
 11
-29.5214864526
 21
-18.2328603668
  0
LWPOLYLINE
  5
37C
100
AcDbEntity
  8
ASSI
100
AcDbPolyline
 62
253
  6
CONTINUOUS
 90
3
 70
0
 10
-34.7304200515
 20
-9.7993345413
 10
-34.7310262911
 20
-9.7993554905
 10
-34.731228306
 20
-9.7993687656
  0
LINE
  5
37D
100
AcDbEntity
  8
ASSI
100
AcDbLine
 62
253
  6
CONTINUOUS
 10
-34.7261825205
 20
-9.7992258501
 11
-34.7304200515
 21
-9.7993345413
  0
LINE
  5
37E
100
AcDbEntity
  8
ASSI
100
AcDbLine
 62
253
  6
CONTINUOUS
 10
-34.2487683126
 20
-9.7898687656
 11
-34.7261825205
 21
-9.7992258501
  0
LWPOLYLINE
  5
37F
100
AcDbEntity
  8
ASSI
100
AcDbPolyline
 62
253
  6
CONTINUOUS
 90
28
 70
0
 10
-33.2647449256
 20
20.8334865628
 10
-33.3282703708
 20
20.4051095229
 10
-33.389719654
 20
19.976450329
 10
-33.4490927755
 20
19.5475089811
 10
-33.5063910275
 20
19.1182754119
 10
-33.5616131177
 20
18.6887596886
 10
-33.6147551686
 20
18.2589920128
 10
-33.6658170321
 20
17.8289723804
 10
-33.7147988563
 20
17.3987007954
 10
-33.7616972076
 20
16.9682074717
 10
-33.8065119396
 20
16.5374923978
 10
-33.8492431989
 20
16.1065555851
 10
-33.8898879916
 20
15.6754272811
 10
-33.9284461715
 20
15.2441074753
 10
-33.9649178849
 20
14.8125961782
 10
-33.9993005772
 20
14.380923669
 10
-34.0315941023
 20
13.9490899337
 10
-34.0617986063
 20
13.5170949863
 10
-34.0899119729
 20
13.0849691481
 10
-34.1159340556
 20
12.6527124058
 10
-34.1398650008
 20
12.2203247728
 10
-34.1617031314
 20
11.7878366106
 10
-34.1814483008
 20
11.3552478918
 10
-34.1991006556
 20
10.9225586439
 10
-34.214658958
 20
10.4897993098
 10
-34.2281227953
 20
10.0569800374
 10
-34.2394925802
 20
9.6240906789
 10
-34.2669481712
 20
8.1806540815
  0
LWPOLYLINE
  5
380
100
AcDbEntity
  8
ASSI
100
AcDbPolyline
 62
253
  6
CONTINUOUS
 90
58
 70
0
 10
-33.2647449256
 20
-21.432224094
 10
-33.262810704
 20
-21.4440825967
 10
-33.2605952882
 20
-21.4558782571
 10
-33.2580986783
 20
-21.4676110752
 10
-33.255319092
 20
-21.4792878917
 10
-33.2522583116
 20
-21.4909018659
 10
-33.2489216836
 20
-21.5024324758
 10
-33.2453087489
 20
-21.5138794414
 10
-33.2414199666
 20
-21.5252430427
 10
-33.2372620607
 20
-21.536503598
 10
-33.2328345733
 20
-21.5476609054
 10
-33.2281379623
 20
-21.5587151668
 10
-33.2231803251
 20
-21.5696473058
 10
-33.2179612075
 20
-21.5804571218
 10
-33.2124810637
 20
-21.5911448153
 10
-33.2067493542
 20
-21.6016919116
 10
-33.2007656436
 20
-21.6120981683
 10
-33.1945303672
 20
-21.6223638279
 10
-33.1880542918
 20
-21.6324711434
 10
-33.1813369998
 20
-21.6424198422
 10
-33.1743789089
 20
-21.652210197
 10
-33.1671920381
 20
-21.6618252783
 10
-33.159775996
 20
-21.6712647786
 10
-33.152131174
 20
-21.6805290055
 10
-33.1442707658
 20
-21.6896019525
 10
-33.1361943923
 20
-21.6984832961
 10
-33.1279024327
 20
-21.7071733599
 10
-33.1194092173
 20
-21.7156571082
 10
-33.1107144023
 20
-21.7239341798
 10
-33.1018183316
 20
-21.732004936
 10
-33.0927363677
 20
-21.739855424
 10
-33.0834681833
 20
-21.7474852676
 10
-33.0740141058
 20
-21.7548948431
 10
-33.0643904794
 20
-21.7620713271
 10
-33.0545970177
 20
-21.7690143118
 10
-33.0446340072
 20
-21.775724205
 10
-33.0345186522
 20
-21.7821894075
 10
-33.0242506825
 20
-21.7884095003
 10
-33.0138303682
 20
-21.7943849023
 10
-33.003275724
 20
-21.800105271
 10
-32.9925865168
 20
-21.8055701647
 10
-32.9817629795
 20
-21.810780025
 10
-32.9708238261
 20
-21.8157258345
 10
-32.959768855
 20
-21.820407136
 10
-32.9485982677
 20
-21.8248243868
 10
-32.9373313817
 20
-21.8289699416
 10
-32.925968041
 20
-21.832843328
 10
-32.9145084016
 20
-21.8364450184
 10
-32.9029722495
 20
-21.8397687857
 10
-32.8913594272
 20
-21.842814153
 10
-32.8796700922
 20
-21.8455815972
 10
-32.8679245023
 20
-21.8480663212
 10
-32.8561223594
 20
-21.8502678439
 10
-32.8442639617
 20
-21.8521866465
 10
-32.8323704616
 20
-21.8538193757
 10
-32.8204489099
 20
-21.8551649139
 10
-32.8084922558
 20
-21.8562243787
 10
-32.7965004993
 20
-21.8569977701
  0
LINE
  5
381
100
AcDbEntity
  8
0
100
AcDbLine
 62
253
  6
CONTINUOUS
 10
-34.5094790511
 20
-14.6302087633
 11
-34.500723555
 21
-14.7492736426
  0
LINE
  5
382
100
AcDbEntity
  8
0
100
AcDbLine
 62
253
  6
CONTINUOUS
 10
-34.6642681345
 20
-11.958512273
 11
-34.6463728825
 21
-12.3541218194
  0
LINE
  5
383
100
AcDbEntity
  8
0
100
AcDbLine
 62
253
  6
CONTINUOUS
 10
-34.6797044586
 20
-11.5813689231
 11
-34.6642681345
 21
-11.958512273
  0
LWPOLYLINE
  5
384
100
AcDbEntity
  8
ASSI
100
AcDbPolyline
 62
253
  6
CONTINUOUS
 90
27
 70
0
 10
-34.2394925802
 20
-10.2228282101
 10
-34.2281227953
 20
-10.6557175686
 10
-34.214658958
 20
-11.088536841
 10
-34.1991006556
 20
-11.521296175
 10
-34.1814483008
 20
-11.953985423
 10
-34.1617031314
 20
-12.3865741417
 10
-34.1398650008
 20
-12.819062304
 10
-34.1159340556
 20
-13.251449937
 10
-34.0899119729
 20
-13.6837066793
 10
-34.0617986063
 20
-14.1158325174
 10
-34.0315941023
 20
-14.5478274648
 10
-33.9993005772
 20
-14.9796612002
 10
-33.9649178849
 20
-15.4113337094
 10
-33.9284461715
 20
-15.8428450065
 10
-33.8898879916
 20
-16.2741648123
 10
-33.8492431989
 20
-16.7052931163
 10
-33.8065119396
 20
-17.136229929
 10
-33.7616972076
 20
-17.5669450028
 10
-33.7147988563
 20
-17.9974383266
 10
-33.6658170321
 20
-18.4277099116
 10
-33.6147551686
 20
-18.857729544
 10
-33.5616131177
 20
-19.2874972198
 10
-33.5063910275
 20
-19.717012943
 10
-33.4490927755
 20
-20.1462465122
 10
-33.389719654
 20
-20.5751878602
 10
-33.3282703708
 20
-21.0038470541
 10
-33.2647449256
 20
-21.432224094
  0
LINE
  5
385
100
AcDbEntity
  8
0
100
AcDbLine
 62
253
  6
CONTINUOUS
 10
-34.6797375871
 20
10.9817778995
 11
-34.6559399951
 21
11.5486949741
  0
LINE
  5
386
100
AcDbEntity
  8
0
100
AcDbLine
 62
253
  6
CONTINUOUS
 10
-34.656473094
 20
11.5368649228
 11
-34.656960134
 21
11.5260284851
  0
LINE
  5
387
100
AcDbEntity
  8
0
100
AcDbLine
 62
253
  6
CONTINUOUS
 10
-34.6559399951
 20
11.5486949741
 11
-34.6463728825
 21
11.7553842882
  0
LWPOLYLINE
  5
388
100
AcDbEntity
  8
ASSI
100
AcDbPolyline
 62
253
  6
CONTINUOUS
 90
16
 70
0
 10
-34.3363055771
 20
-0.1203774931
 10
-34.3360761821
 20
-0.1246086343
 10
-34.3358394538
 20
-0.1285709861
 10
-34.3355956804
 20
-0.1322597228
 10
-34.335345159
 20
-0.135670352
 10
-34.3350881945
 20
-0.1387987201
 10
-34.3348251
 20
-0.1416410169
 10
-34.3345561958
 20
-0.1441937811
 10
-34.3342818095
 20
-0.1464539036
 10
-34.3340022751
 20
-0.1484186318
 10
-34.3337179332
 20
-0.1500855731
 10
-34.3334291301
 20
-0.1514526973
 10
-34.3331362174
 20
-0.1525183394
 10
-34.3328395519
 20
-0.1532812015
 10
-34.3325394949
 20
-0.1537403546
 10
-34.3322364119
 20
-0.1538952396
  0
LINE
  5
389
100
AcDbEntity
  8
ASSI
100
AcDbLine
 62
253
  6
CONTINUOUS
 10
-34.336741259
 20
-0.1111297755
 11
-34.3363055771
 21
-0.1203774931
  0
LINE
  5
38A
100
AcDbEntity
  8
ASSI
100
AcDbLine
 62
253
  6
CONTINUOUS
 10
-34.3371443777
 20
-0.1008728697
 11
-34.336741259
 21
-0.1111297755
  0
LINE
  5
38B
100
AcDbEntity
  8
ASSI
100
AcDbLine
 62
253
  6
CONTINUOUS
 10
-34.3375129699
 20
-0.0896567269
 11
-34.3371443777
 21
-0.1008728697
  0
LINE
  5
38C
100
AcDbEntity
  8
ASSI
100
AcDbLine
 62
253
  6
CONTINUOUS
 10
-34.3378452407
 20
-0.07753597
 11
-34.3375129699
 21
-0.0896567269
  0
LINE
  5
38D
100
AcDbEntity
  8
ASSI
100
AcDbLine
 62
253
  6
CONTINUOUS
 10
-34.3382720546
 20
-0.0577889416
 11
-34.3378452407
 21
-0.07753597
  0
LWPOLYLINE
  5
38E
100
AcDbEntity
  8
ASSI
100
AcDbPolyline
 62
253
  6
CONTINUOUS
 90
18
 70
0
 10
-32.8103411571
 20
-22.2961991396
 10
-32.8102432406
 20
-22.3029140906
 10
-32.8101189935
 20
-22.3092526287
 10
-32.8099685207
 20
-22.3152094034
 10
-32.8097919492
 20
-22.3207793862
 10
-32.809589428
 20
-22.3259578755
 10
-32.809361128
 20
-22.3307404999
 10
-32.8091072421
 20
-22.3351232222
 10
-32.8088279845
 20
-22.3391023429
 10
-32.8085235909
 20
-22.3426745029
 10
-32.8081943183
 20
-22.3458366869
 10
-32.8078404446
 20
-22.3485862257
 10
-32.8074622686
 20
-22.3509207982
 10
-32.8070601095
 20
-22.3528384338
 10
-32.8066343068
 20
-22.3543375136
 10
-32.8061852198
 20
-22.3554167724
 10
-32.8057132278
 20
-22.356075299
 10
-32.805218729
 20
-22.3563125375
  0
LINE
  5
38F
100
AcDbEntity
  8
ASSI
100
AcDbLine
 62
253
  6
CONTINUOUS
 10
-34.3386088732
 20
-0.036356579
 11
-34.3382720546
 21
-0.0577889416
  0
LINE
  5
390
100
AcDbEntity
  8
ASSI
100
AcDbLine
 62
253
  6
CONTINUOUS
 10
-34.3388520077
 20
-0.0134736086
 11
-34.3386088732
 21
-0.036356579
  0
LINE
  5
391
100
AcDbEntity
  8
ASSI
100
AcDbLine
 62
253
  6
CONTINUOUS
 10
-32.8104576898
 20
-22.2816629852
 11
-32.8103411571
 21
-22.2961991396
  0
LINE
  5
392
100
AcDbEntity
  8
ASSI
100
AcDbLine
 62
253
  6
CONTINUOUS
 10
-34.3387796522
 20
-0.6948327723
 11
-34.3389979717
 21
-0.6600475205
  0
LINE
  5
393
100
AcDbEntity
  8
ASSI
100
AcDbLine
 62
253
  6
CONTINUOUS
 10
-34.3390260053
 20
0.0188584125
 11
-34.3388520077
 21
-0.0134736086
  0
LWPOLYLINE
  5
394
100
AcDbEntity
  8
ASSI
100
AcDbPolyline
 62
253
  6
CONTINUOUS
 90
10
 70
0
 10
-34.3387777355
 20
-0.6948327556
 10
-34.3369559744
 20
-1.7054682788
 10
-34.3330893325
 20
-2.7160856151
 10
-34.3271778098
 20
-3.7266847643
 10
-34.3192213274
 20
-4.7372667995
 10
-34.3092199643
 20
-5.7478306476
 10
-34.2971739575
 20
-6.7583730901
 10
-34.2830833861
 20
-7.7688930542
 10
-34.2669481712
 20
-8.7793916127
 10
-34.2394925802
 20
-10.2228282101
  0
LINE
  5
395
100
AcDbEntity
  8
ASSI
100
AcDbLine
 62
253
  6
CONTINUOUS
 10
-34.3389979717
 20
-0.6600475205
 11
-34.3390422896
 21
-0.6259390621
  0
LINE
  5
396
100
AcDbEntity
  8
ASSI
100
AcDbLine
 62
253
  6
CONTINUOUS
 10
-34.3390254557
 20
0.0526931787
 11
-34.3390260053
 21
0.0188584125
  0
LINE
  5
397
100
AcDbEntity
  8
ASSI
100
AcDbLine
 62
253
  6
CONTINUOUS
 10
-34.3390422896
 20
-0.6259390621
 11
-34.3389117434
 21
-0.5931710226
  0
LWPOLYLINE
  5
398
100
AcDbEntity
  8
ASSI
100
AcDbPolyline
 62
253
  6
CONTINUOUS
 90
3
 70
0
 10
-34.3387796522
 20
0.0960952412
 10
-34.3388503697
 20
0.0873723897
 10
-34.3390254557
 20
0.0526931787
  0
LWPOLYLINE
  5
399
100
AcDbEntity
  8
ASSI
100
AcDbPolyline
 62
253
  6
CONTINUOUS
 90
19
 70
0
 10
-32.8104576898
 20
21.6829254522
 10
-32.8103411571
 20
21.6974616069
 10
-32.8102432407
 20
21.7041765581
 10
-32.8101189936
 20
21.7105150963
 10
-32.8099685208
 20
21.7164718711
 10
-32.8097919493
 20
21.7220418541
 10
-32.809589428
 20
21.7272203435
 10
-32.8093611281
 20
21.7320029681
 10
-32.8091072422
 20
21.7363856905
 10
-32.8088279845
 20
21.7403648112
 10
-32.808523591
 20
21.7439369713
 10
-32.8081943184
 20
21.7470991555
 10
-32.8078404447
 20
21.7498486943
 10
-32.8074622687
 20
21.7521832669
 10
-32.8070601096
 20
21.7541009025
 10
-32.8066343068
 20
21.7555999824
 10
-32.8061852199
 20
21.7566792412
 10
-32.8057132278
 20
21.7573377678
 10
-32.805218729
 20
21.7575750063
  0
LINE
  5
39A
100
AcDbEntity
  8
ASSI
100
AcDbLine
 62
253
  6
CONTINUOUS
 10
-34.3389117434
 20
-0.5931710226
 11
-34.3387004803
 21
-0.5698595008
  0
LINE
  5
39B
100
AcDbEntity
  8
ASSI
100
AcDbLine
 62
253
  6
CONTINUOUS
 10
-34.3387004803
 20
-0.5698595008
 11
-34.3383945298
 21
-0.5479166822
  0
LWPOLYLINE
  5
39C
100
AcDbEntity
  8
ASSI
100
AcDbPolyline
 62
253
  6
CONTINUOUS
 90
9
 70
0
 10
-34.2669481712
 20
8.1806540815
 10
-34.2830833861
 20
7.170155523
 10
-34.2971739575
 20
6.159635559
 10
-34.3092199643
 20
5.1490931164
 10
-34.3192213274
 20
4.1385292683
 10
-34.3271778098
 20
3.1279472332
 10
-34.3330893325
 20
2.1173480839
 10
-34.3369559744
 20
1.1067307477
 10
-34.3387777355
 20
0.0960952244
  0
LINE
  5
39D
100
AcDbEntity
  8
ASSI
100
AcDbLine
 62
253
  6
CONTINUOUS
 10
-34.3383945298
 20
-0.5479166822
 11
-34.3379972426
 21
-0.5275828836
  0
LINE
  5
39E
100
AcDbEntity
  8
ASSI
100
AcDbLine
 62
253
  6
CONTINUOUS
 10
-34.3379972426
 20
-0.5275828836
 11
-34.3376837508
 21
-0.5150316911
  0
LINE
  5
39F
100
AcDbEntity
  8
ASSI
100
AcDbLine
 62
253
  6
CONTINUOUS
 10
-34.3376837508
 20
-0.5150316911
 11
-34.3373331058
 21
-0.5033561319
  0
LINE
  5
3A0
100
AcDbEntity
  8
ASSI
100
AcDbLine
 62
253
  6
CONTINUOUS
 10
-34.3373331058
 20
-0.5033561319
 11
-34.3369470152
 21
-0.4926130662
  0
LWPOLYLINE
  5
3A1
100
AcDbEntity
  8
ASSI
100
AcDbPolyline
 62
253
  6
CONTINUOUS
 90
18
 70
0
 10
-34.3369470152
 20
-0.4926130662
 10
-34.3365273594
 20
-0.4828548127
 10
-34.3363055771
 20
-0.4783600353
 10
-34.336076182
 20
-0.4741288944
 10
-34.3358394537
 20
-0.4701665428
 10
-34.3355956804
 20
-0.4664778064
 10
-34.3353451589
 20
-0.4630671774
 10
-34.3350881944
 20
-0.4599388096
 10
-34.3348250999
 20
-0.457096513
 10
-34.3345561957
 20
-0.4545437491
 10
-34.3342818094
 20
-0.4522836268
 10
-34.3340022751
 20
-0.4503188987
 10
-34.3337179332
 20
-0.4486519576
 10
-34.33342913
 20
-0.4472848336
 10
-34.3331362174
 20
-0.4462191917
 10
-34.3328395519
 20
-0.4454563296
 10
-34.3325394949
 20
-0.4449971765
 10
-34.3322364119
 20
-0.4448422916
  0
LINE
  5
3A2
100
AcDbEntity
  8
ASSI
100
AcDbLine
 62
253
  6
CONTINUOUS
 10
-32.7965004993
 20
21.258260239
 11
-32.8001002732
 21
21.330543422
  0
LINE
  5
3A3
100
AcDbEntity
  8
ASSI
100
AcDbLine
 62
253
  6
CONTINUOUS
 10
-32.8001002732
 20
21.330543422
 11
-32.8032565815
 21
21.4013037629
  0
LINE
  5
3A4
100
AcDbEntity
  8
ASSI
100
AcDbLine
 62
253
  6
CONTINUOUS
 10
-32.8032565815
 20
21.4013037629
 11
-32.8054172966
 21
21.4558119129
  0
LINE
  5
3A5
100
AcDbEntity
  8
ASSI
100
AcDbLine
 62
253
  6
CONTINUOUS
 10
-32.8054172966
 20
21.4558119129
 11
-32.8072222772
 21
21.507654718
  0
LINE
  5
3A6
100
AcDbEntity
  8
ASSI
100
AcDbLine
 62
253
  6
CONTINUOUS
 10
-32.8072222772
 20
21.507654718
 11
-32.8086471707
 21
21.5561327207
  0
LINE
  5
3A7
100
AcDbEntity
  8
ASSI
100
AcDbLine
 62
253
  6
CONTINUOUS
 10
-32.8086471707
 20
21.5561327207
 11
-32.8094546434
 21
21.5898876535
  0
LINE
  5
3A8
100
AcDbEntity
  8
ASSI
100
AcDbLine
 62
253
  6
CONTINUOUS
 10
-32.8094546434
 20
21.5898876535
 11
-32.8100312616
 21
21.6211245639
  0
LINE
  5
3A9
100
AcDbEntity
  8
ASSI
100
AcDbLine
 62
253
  6
CONTINUOUS
 10
-32.8100312616
 20
21.6211245639
 11
-32.8102851859
 21
21.6404323016
  0
LINE
  5
3AA
100
AcDbEntity
  8
ASSI
100
AcDbLine
 62
253
  6
CONTINUOUS
 10
-32.8102851859
 20
21.6404323016
 11
-32.8104336684
 21
21.6584498947
  0
LWPOLYLINE
  5
3AB
100
AcDbEntity
  8
ASSI
100
AcDbPolyline
 62
253
  6
CONTINUOUS
 90
3
 70
0
 10
-32.8104336684
 20
21.6584498947
 10
-32.8104762077
 20
21.6751165191
 10
-32.8104576898
 20
21.6829254522
  0
LINE
  5
3AC
100
AcDbEntity
  8
ASSI
100
AcDbLine
 62
253
  6
CONTINUOUS
 10
-32.8104681983
 20
-22.2656932369
 11
-32.8104576898
 21
-22.2816629852
  0
LINE
  5
3AD
100
AcDbEntity
  8
ASSI
100
AcDbLine
 62
253
  6
CONTINUOUS
 10
-32.8103726471
 20
-22.2483438058
 11
-32.8104681983
 21
-22.2656932369
  0
LINE
  5
3AE
100
AcDbEntity
  8
ASSI
100
AcDbLine
 62
253
  6
CONTINUOUS
 10
-32.8101713587
 20
-22.2296732605
 11
-32.8103726471
 21
-22.2483438058
  0
LINE
  5
3AF
100
AcDbEntity
  8
ASSI
100
AcDbLine
 62
253
  6
CONTINUOUS
 10
-32.8096727527
 20
-22.1993293953
 11
-32.8101713587
 21
-22.2296732605
  0
LINE
  5
3B0
100
AcDbEntity
  8
ASSI
100
AcDbLine
 62
253
  6
CONTINUOUS
 10
-32.808941636
 20
-22.1663862313
 11
-32.8096727527
 21
-22.1993293953
  0
LINE
  5
3B1
100
AcDbEntity
  8
ASSI
100
AcDbLine
 62
253
  6
CONTINUOUS
 10
-32.80798356
 20
-22.1310939035
 11
-32.808941636
 21
-22.1663862313
  0
LINE
  5
3B2
100
AcDbEntity
  8
ASSI
100
AcDbLine
 62
253
  6
CONTINUOUS
 10
-32.8063658925
 20
-22.0808486901
 11
-32.80798356
 21
-22.1310939035
  0
LINE
  5
3B3
100
AcDbEntity
  8
ASSI
100
AcDbLine
 62
253
  6
CONTINUOUS
 10
-32.8043796921
 20
-22.0275833049
 11
-32.8063658925
 21
-22.0808486901
  0
LINE
  5
3B4
100
AcDbEntity
  8
ASSI
100
AcDbLine
 62
253
  6
CONTINUOUS
 10
-32.8020517564
 20
-21.9720163987
 11
-32.8043796921
 21
-22.0275833049
  0
LINE
  5
3B5
100
AcDbEntity
  8
ASSI
100
AcDbLine
 62
253
  6
CONTINUOUS
 10
-32.7987095255
 20
-21.9004655181
 11
-32.8020517564
 21
-21.9720163987
  0
LINE
  5
3B6
100
AcDbEntity
  8
ASSI
100
AcDbLine
 62
253
  6
CONTINUOUS
 10
-32.7965004993
 20
-21.8569977701
 11
-32.7987095255
 21
-21.9004655181
  0
LINE
  5
3B7
100
AcDbEntity
  8
ASSI
100
AcDbLine
 62
253
  6
CONTINUOUS
 10
-29.1214864526
 20
-0.6493021444
 11
-34.3387777355
 21
-0.6948327556
  0
LINE
  5
3B8
100
AcDbEntity
  8
ASSI
100
AcDbLine
 62
7
  6
CONTINUOUS
 10
-29.1214864526
 20
-0.3993687656
 11
-34.5735099456
 21
-0.4469478538
  0
LINE
  5
3B9
100
AcDbEntity
  8
ASSI
100
AcDbLine
 62
253
  6
CONTINUOUS
 10
-34.3387777355
 20
-0.6948327632
 11
-34.8213282324
 21
-0.6971372196
  0
LINE
  5
3BA
100
AcDbEntity
  8
ASSI
100
AcDbLine
 62
7
  6
CONTINUOUS
 10
-34.5735099456
 20
-0.1517896774
 11
-29.1214864526
 21
-0.1993687656
  0
LINE
  5
3BB
100
AcDbEntity
  8
ASSI
100
AcDbLine
 62
7
  6
CONTINUOUS
 10
-29.5214864526
 20
-18.2328585744
 11
-29.5214864526
 21
-17.9713896867
  0
LINE
  5
3BC
100
AcDbEntity
  8
ASSI
100
AcDbLine
 62
7
  6
CONTINUOUS
 10
-29.5214864526
 20
17.3726521555
 11
-29.5214864526
 21
17.6341210433
  0
LINE
  5
3BD
100
AcDbEntity
  8
ASSI
100
AcDbLine
 62
7
  6
CONTINUOUS
 10
-29.1214864526
 20
-0.3993687656
 11
-29.1214864526
 21
-13.3993687656
  0
LINE
  5
3BE
100
AcDbEntity
  8
ASSI
100
AcDbLine
 62
7
  6
CONTINUOUS
 10
-29.1214864526
 20
-0.1993687656
 11
-29.1214864526
 21
12.8006312344
  0
LINE
  5
3BF
100
AcDbEntity
  8
ASSI
100
AcDbLine
 62
253
  6
CONTINUOUS
 10
-34.8213282324
 20
0.0983996884
 11
-34.3387777355
 21
0.0960952321
  0
LINE
  5
3C0
100
AcDbEntity
  8
ASSI
100
AcDbLine
 62
253
  6
CONTINUOUS
 10
-34.3387777355
 20
0.0960952244
 11
-29.1214864526
 21
0.0505646132
  0
LINE
  5
3C1
100
AcDbEntity
  8
ASSI
100
AcDbLine
 62
7
  6
CONTINUOUS
 10
-29.9183540171
 20
21.908869175
 11
-29.1214864526
 21
12.8006312344
  0
LINE
  5
3C2
100
AcDbEntity
  8
ASSI
100
AcDbLine
 62
7
  6
CONTINUOUS
 10
-29.9183540171
 20
-22.5076067061
 11
-29.1214864526
 21
-13.3993687656
  0
LWPOLYLINE
  5
3C3
100
AcDbEntity
  8
ASSI
100
AcDbPolyline
 62
253
  6
CONTINUOUS
 90
3
 70
0
 10
-34.2487683126
 20
9.1911312344
 10
-34.7279971864
 20
9.2005321637
 10
-34.7294100777
 20
9.2005684039
  0
LWPOLYLINE
  5
3C4
100
AcDbEntity
  8
ASSI
100
AcDbPolyline
 62
253
  6
CONTINUOUS
 90
3
 70
0
 10
-34.7304200517
 20
9.2005970101
 10
-34.7310262913
 20
9.2006179593
 10
-34.7312283061
 20
9.2006312344
  0
LINE
  5
3C5
100
AcDbEntity
  8
ASSI
100
AcDbLine
 62
253
  6
CONTINUOUS
 10
-29.544362173
 20
17.6341228358
 11
-29.5214864526
 21
17.6341228356
  0
LWPOLYLINE
  5
3C6
100
AcDbEntity
  8
ASSI
100
AcDbPolyline
 62
253
  6
CONTINUOUS
 90
58
 70
0
 10
-32.7965004993
 20
21.258260239
 10
-32.8084922558
 20
21.2574868475
 10
-32.8204489099
 20
21.2564273827
 10
-32.8323704616
 20
21.2550818446
 10
-32.8442639617
 20
21.2534491153
 10
-32.8561223594
 20
21.2515303127
 10
-32.8679245023
 20
21.24932879
 10
-32.8796700922
 20
21.246844066
 10
-32.8913594272
 20
21.2440766218
 10
-32.9029722495
 20
21.2410312545
 10
-32.9145084016
 20
21.2377074872
 10
-32.925968041
 20
21.2341057968
 10
-32.9373313817
 20
21.2302324105
 10
-32.9485982677
 20
21.2260868556
 10
-32.959768855
 20
21.2216696048
 10
-32.9708238261
 20
21.2169883034
 10
-32.9817629795
 20
21.2120424938
 10
-32.9925865168
 20
21.2068326335
 10
-33.003275724
 20
21.2013677399
 10
-33.0138303682
 20
21.1956473712
 10
-33.0242506825
 20
21.1896719691
 10
-33.0345186522
 20
21.1834518763
 10
-33.0446340072
 20
21.1769866738
 10
-33.0545970177
 20
21.1702767806
 10
-33.0643904794
 20
21.1633337959
 10
-33.0740141058
 20
21.1561573119
 10
-33.0834681833
 20
21.1487477364
 10
-33.0927363677
 20
21.1411178929
 10
-33.1018183316
 20
21.1332674048
 10
-33.1107144023
 20
21.1251966487
 10
-33.1194092173
 20
21.116919577
 10
-33.1279024327
 20
21.1084358287
 10
-33.1361943923
 20
21.0997457649
 10
-33.1442707658
 20
21.0908644213
 10
-33.152131174
 20
21.0817914743
 10
-33.159775996
 20
21.0725272474
 10
-33.1671920381
 20
21.0630877472
 10
-33.1743789089
 20
21.0534726658
 10
-33.1813369998
 20
21.0436823111
 10
-33.1880542918
 20
21.0337336122
 10
-33.1945303672
 20
21.0236262967
 10
-33.2007656436
 20
21.0133606372
 10
-33.2067493542
 20
21.0029543805
 10
-33.2124810637
 20
20.9924072841
 10
-33.2179612075
 20
20.9817195906
 10
-33.2231803251
 20
20.9709097747
 10
-33.2281379623
 20
20.9599776357
 10
-33.2328345733
 20
20.9489233742
 10
-33.2372620607
 20
20.9377660668
 10
-33.2414199666
 20
20.9265055115
 10
-33.2453087489
 20
20.9151419102
 10
-33.2489216836
 20
20.9036949446
 10
-33.2522583116
 20
20.8921643347
 10
-33.255319092
 20
20.8805503605
 10
-33.2580986783
 20
20.868873544
 10
-33.2605952882
 20
20.8571407259
 10
-33.262810704
 20
20.8453450655
 10
-33.2647449256
 20
20.8334865628
  0
LINE
  5
3C7
100
AcDbEntity
  8
ASSI
100
AcDbLine
 62
253
  6
CONTINUOUS
 10
-29.8748292265
 20
21.4113785422
 11
-32.7965004993
 21
21.258260239
  0
LINE
  5
3C8
100
AcDbEntity
  8
ASSI
100
AcDbLine
 62
7
  6
CONTINUOUS
 10
-29.9183540171
 20
21.908869175
 11
-32.805218729
 21
21.7575750063
  0
LINE
  5
3C9
100
AcDbEntity
  8
ASSI
100
AcDbLine
 62
253
  6
CONTINUOUS
 10
-33.2647449256
 20
20.8334865628
 11
-33.5932406229
 21
20.8837616181
  0
LINE
  5
3CA
100
AcDbEntity
  8
ASSI
100
AcDbLine
 62
253
  6
CONTINUOUS
 10
-33.5932406229
 20
20.8837616181
 11
-33.6851821211
 21
20.898281384
  0
LINE
  5
3CB
100
AcDbEntity
  8
ASSI
100
AcDbLine
 62
253
  6
CONTINUOUS
 10
-33.6851821211
 20
20.898281384
 11
-33.7133041491
 21
20.9028640139
  0
LINE
  5
3CC
100
AcDbEntity
  8
ASSI
100
AcDbLine
 62
253
  6
CONTINUOUS
 10
-33.7133041491
 20
20.9028640139
 11
-33.7256873985
 21
20.9049456582
  0
LWPOLYLINE
  5
3CD
100
AcDbEntity
  8
ASSI
100
AcDbPolyline
 62
253
  6
CONTINUOUS
 90
9
 70
0
 10
-33.7256873985
 20
20.9049456582
 10
-33.7320125916
 20
20.9060451889
 10
-33.7345879468
 20
20.9065070794
 10
-33.7367689229
 20
20.9069098725
 10
-33.7385537548
 20
20.9072532421
 10
-33.7399409979
 20
20.9075369104
 10
-33.7409295296
 20
20.9077606478
 10
-33.7415185498
 20
20.9079242731
 10
-33.7417075817
 20
20.908027654
  0
ARC
  5
3CE
100
AcDbEntity
  8
ASSI
100
AcDbCircle
 62
7
  6
CONTINUOUS
 10
465.1785135474
 20
-0.2993687656
 40
500.0
100
AcDbArc
 50
178.91131468
 51
179.954419088
  0
ARC
  5
3CF
100
AcDbEntity
  8
ASSI
100
AcDbCircle
 62
7
  6
CONTINUOUS
 10
465.1785135474
 20
-0.2993687656
 40
500.0
100
AcDbArc
 50
180.045580912
 51
181.08868532
  0
ARC
  5
3D0
100
AcDbEntity
  8
ASSI
100
AcDbCircle
 62
7
  6
CONTINUOUS
 10
55.2525252275
 20
7.4906312344
 40
90.0
100
AcDbArc
 50
171.4262585553
 51
178.91131468
  0
ARC
  5
3D1
100
AcDbEntity
  8
ASSI
100
AcDbCircle
 62
7
  6
CONTINUOUS
 10
55.2525252275
 20
-8.0893687656
 40
90.0
100
AcDbArc
 50
181.08868532
 51
188.5737414447
  0
ARC
  5
3D2
100
AcDbEntity
  8
ASSI
100
AcDbCircle
 62
7
  6
CONTINUOUS
 10
-32.7528827728
 20
20.7589454716
 40
1.0
100
AcDbArc
 50
93.0
 51
171.4262585553
  0
ARC
  5
3D3
100
AcDbEntity
  8
ASSI
100
AcDbCircle
 62
7
  6
CONTINUOUS
 10
-32.7528827728
 20
-21.3576830028
 40
1.0
100
AcDbArc
 50
188.5737414447
 51
267.0
  0
ARC
  5
3D4
100
AcDbEntity
  8
ASSI
100
AcDbCircle
 62
7
  6
CONTINUOUS
 10
-29.8214864526
 20
17.6341228356
 40
0.3
100
AcDbArc
 50
359.9996576837
 51
25.0002986779
  0
ARC
  5
3D5
100
AcDbEntity
  8
ASSI
100
AcDbCircle
 62
7
  6
CONTINUOUS
 10
-29.8214864526
 20
-18.2328603668
 40
0.3
100
AcDbArc
 50
334.9997013218
 51
0.0003423163
  0
ARC
  5
3D6
100
AcDbEntity
  8
ASSI
100
AcDbCircle
 62
7
  6
CONTINUOUS
 10
-34.5713282977
 20
0.0982008033
 40
0.25
100
AcDbArc
 50
179.954419008
 51
269.4999967725
  0
ARC
  5
3D7
100
AcDbEntity
  8
ASSI
100
AcDbCircle
 62
7
  6
CONTINUOUS
 10
-34.5713282977
 20
-0.6969383344
 40
0.25
100
AcDbArc
 50
90.5000032275
 51
180.045580992
  0
ELLIPSE
  5
3D8
100
AcDbEntity
  8
ASSI
100
AcDbEllipse
 62
7
  6
CONTINUOUS
 10
-7.3597520472
 20
-22.4812386525
 30
0.0
 11
0.2
 21
0.0
 31
0.0
 40
0.0524077793
 41
1.5707963268
 42
2.617993878
  0
ELLIPSE
  5
3D9
100
AcDbEntity
  8
ASSI
100
AcDbEllipse
 62
7
  6
CONTINUOUS
 10
3.8402479528
 20
-22.4812386525
 30
0.0
 11
0.2
 21
0.0
 31
0.0
 40
0.0524077793
 41
1.5707963268
 42
2.617993878
  0
ELLIPSE
  5
3DA
100
AcDbEntity
  8
ASSI
100
AcDbEllipse
 62
7
  6
CONTINUOUS
 10
-3.9906921548
 20
-22.4812386525
 30
0.0
 11
0.2
 21
-0.0
 31
0.0
 40
0.0524077793
 41
0.5235987756
 42
1.5707963268
  0
ELLIPSE
  5
3DB
100
AcDbEntity
  8
ASSI
100
AcDbEllipse
 62
7
  6
CONTINUOUS
 10
7.2093078452
 20
-22.4812386525
 30
0.0
 11
0.2
 21
0.0
 31
0.0
 40
0.0524077793
 41
0.5235987756
 42
1.5707963268
  0
ELLIPSE
  5
3DC
100
AcDbEntity
  8
ASSI
100
AcDbEllipse
 62
7
  6
CONTINUOUS
 10
10.5481685987
 20
-22.0092057447
 30
0.0
 11
0.4943891341
 21
0.0770133648
 31
0.0
 40
0.9960067742
 41
-1.7259388368
 42
-0.1569690096
  0
ELLIPSE
  5
3DD
100
AcDbEntity
  8
ASSI
100
AcDbEllipse
 62
7
  6
CONTINUOUS
 10
-10.6986128007
 20
-22.0092057447
 30
0.0
 11
0.4943891341
 21
-0.0770133648
 31
0.0
 40
0.9960067742
 41
-2.984623644
 42
-1.4156538168
  0
ELLIPSE
  5
3DE
100
AcDbEntity
  8
ASSI
100
AcDbEllipse
 62
7
  6
CONTINUOUS
 10
10.8246255129
 20
-0.6493782852
 30
0.0
 11
0.2426981267
 21
0.0606514259
 31
0.0
 40
0.9993528196
 41
-0.2447368254
 42
1.3257549497
  0
ELLIPSE
  5
3DF
100
AcDbEntity
  8
ASSI
100
AcDbEllipse
 62
7
  6
CONTINUOUS
 10
-10.9750697149
 20
-0.6493782852
 30
0.0
 11
0.2426981267
 21
-0.0606514259
 31
0.0
 40
0.9993528196
 41
1.8158377039
 42
3.386329479
  0
ELLIPSE
  5
3E0
100
AcDbEntity
  8
ASSI
100
AcDbEllipse
 62
7
  6
CONTINUOUS
 10
7.2093078452
 20
21.8825011213
 30
0.0
 11
0.2
 21
0.0
 31
0.0
 40
0.0524077793
 41
-1.5707963268
 42
-0.5235987756
  0
ELLIPSE
  5
3E1
100
AcDbEntity
  8
ASSI
100
AcDbEllipse
 62
7
  6
CONTINUOUS
 10
-3.9906921548
 20
21.8825011213
 30
0.0
 11
0.2
 21
-0.0
 31
0.0
 40
0.0524077793
 41
-1.5707963268
 42
-0.5235987756
  0
ELLIPSE
  5
3E2
100
AcDbEntity
  8
ASSI
100
AcDbEllipse
 62
7
  6
CONTINUOUS
 10
3.8402479528
 20
21.8825011213
 30
0.0
 11
0.2
 21
0.0
 31
0.0
 40
0.0524077793
 41
-2.617993878
 42
-1.5707963268
  0
ELLIPSE
  5
3E3
100
AcDbEntity
  8
ASSI
100
AcDbEllipse
 62
7
  6
CONTINUOUS
 10
-7.3597520472
 20
21.8825011213
 30
0.0
 11
0.2
 21
0.0
 31
0.0
 40
0.0524077793
 41
-2.617993878
 42
-1.5707963268
  0
ELLIPSE
  5
3E4
100
AcDbEntity
  8
ASSI
100
AcDbEllipse
 62
7
  6
CONTINUOUS
 10
-10.6986128007
 20
21.4104682135
 30
0.0
 11
0.4943891341
 21
0.0770133648
 31
0.0
 40
0.9960067742
 41
1.4156538168
 42
2.984623644
  0
ELLIPSE
  5
3E5
100
AcDbEntity
  8
ASSI
100
AcDbEllipse
 62
7
  6
CONTINUOUS
 10
10.5481685987
 20
21.4104682135
 30
0.0
 11
0.4943891341
 21
-0.0770133648
 31
0.0
 40
0.9960067742
 41
0.1569690096
 42
1.7259388368
  0
ELLIPSE
  5
3E6
100
AcDbEntity
  8
ASSI
100
AcDbEllipse
 62
7
  6
CONTINUOUS
 10
-10.9750697149
 20
0.050640754
 30
0.0
 11
0.2426981267
 21
0.0606514259
 31
0.0
 40
0.9993528196
 41
2.8968558282
 42
4.4673476033
  0
ELLIPSE
  5
3E7
100
AcDbEntity
  8
ASSI
100
AcDbEllipse
 62
7
  6
CONTINUOUS
 10
10.8246255129
 20
0.050640754
 30
0.0
 11
0.2426981267
 21
-0.0606514259
 31
0.0
 40
0.9993528196
 41
-1.3257549497
 42
0.2447368254
  0
ELLIPSE
  5
3E8
100
AcDbEntity
  8
0
100
AcDbEllipse
 62
253
  6
CONTINUOUS
 10
55.2525252275
 20
7.4906312344
 30
0.0
 11
0.0
 21
90.0
 31
0.0
 40
1.0
 41
1.5044956792
 42
1.5266205959
  0
ELLIPSE
  5
3E9
100
AcDbEntity
  8
0
100
AcDbEllipse
 62
253
  6
CONTINUOUS
 10
55.2525252275
 20
-8.0893687656
 30
0.0
 11
0.0
 21
90.0
 31
0.0
 40
1.0
 41
1.6149720577
 42
1.6435415652
  0
ENDSEC
  0
SECTION
  2
OBJECTS
  0
DICTIONARY
  5
C
100
AcDbDictionary
280
0
281
1
  3
ACAD_GROUP
350
D
  3
ACAD_MLINESTYLE
350
17
  3
ACAD_LAYOUT
350
1A
  3
ACAD_PLOTSETTINGS
350
19
  3
ACAD_PLOTSTYLENAME
350
E
  0
DICTIONARY
  5
D
102
{ACAD_REACTORS
330
C
102
}
100
AcDbDictionary
280
0
281
1
  0
ACDBDICTIONARYWDFLT
  5
E
102
{ACAD_REACTORS
330
C
102
}
100
AcDbDictionary
281
1
  3
Normal
350
F
100
AcDbDictionaryWithDefault
340
F
  0
DICTIONARY
  5
17
102
{ACAD_REACTORS
330
C
102
}
100
AcDbDictionary
280
0
281
1
  3
Standard
350
18
  0
DICTIONARY
  5
19
102
{ACAD_REACTORS
330
C
102
}
100
AcDbDictionary
281
1
  0
DICTIONARY
  5
1A
102
{ACAD_REACTORS
330
C
102
}
100
AcDbDictionary
281
1
  3
Model
350
3EA
  3
Layout1
350
3EB
  0
ACDBPLACEHOLDER
  5
F
102
{ACAD_REACTORS
330
E
102
}
  0
MLINESTYLE
  5
18
102
{ACAD_REACTORS
330
17
102
}
100
AcDbMlineStyle
  2
STANDARD
 70
0
  3

 62
256
 51
90.0
 52
90.0
 71
2
 49
0.5
 62
256
  6
BYLAYER
 49
-0.5
 62
256
  6
BYLAYER
  0
LAYOUT
  5
3EA
102
{ACAD_REACTORS
330
1A
102
}
100
AcDbPlotSettings
  1

  2
none_device
  4
ISO_A4_(297.00_x_210.00_MM)
  6

 40
0.0
 41
0.0
 42
0.0
 43
0.0
 44
297.0
 45
210.0
 46
0.0
 47
0.0
 48
0.0
 49
0.0
140
0.0
141
0.0
142
1.0
143
1.0
 70
1024
 72
1
 73
0
 74
0
  7

 75
0
147
1.0
148
0.0
149
0.0
100
AcDbLayout
  1
Model
 70
0
 71
0
 10
0.0
 20
0.0
 11
297.0
 21
210.0
 12
0.0
 22
0.0
 32
0.0
 14
0.0
 24
0.0
 34
0.0
 15
0.0
 25
0.0
 35
0.0
146
0.0
 13
0.0
 23
0.0
 33
0.0
 16
1.0
 26
0.0
 36
0.0
 17
0.0
 27
1.0
 37
0.0
 76
0
330
219
345
0
346
0
  0
LAYOUT
  5
3EB
102
{ACAD_REACTORS
330
1A
102
}
100
AcDbPlotSettings
  1

  2
none_device
  4
ISO_A4_(297.00_x_210.00_MM)
  6

 40
0.0
 41
0.0
 42
0.0
 43
0.0
 44
297.0
 45
210.0
 46
0.0
 47
0.0
 48
0.0
 49
0.0
140
0.0
141
0.0
142
1.0
143
1.0
 70
0
 72
1
 73
0
 74
0
  7

 75
0
147
1.0
148
0.0
149
0.0
100
AcDbLayout
  1
Layout1
 70
0
 71
1
 10
0.0
 20
0.0
 11
297.0
 21
210.0
 12
0.0
 22
0.0
 32
0.0
 14
0.0
 24
0.0
 34
0.0
 15
0.0
 25
0.0
 35
0.0
146
0.0
 13
0.0
 23
0.0
 33
0.0
 16
1.0
 26
0.0
 36
0.0
 17
0.0
 27
1.0
 37
0.0
 76
0
330
21A
345
0
346
0
  0
ENDSEC
  0
EOF
