  0
SECTION
  2
HEADER
  9
$ACADVER
  1
AC1021
  9
$DWGCODEPAGE
  3
ANSI_1252
  9
$EXTMAX
 10
297.0
 20
210.0
 30
0.0
  9
$EXTMIN
 10
0.0
 20
0.0
 30
0.0
  9
$LIMMIN
 10
0.0
 20
0.0
  9
$LIMMAX
 10
297.0
 20
210.0
  9
$VIEWCTR
 10
148.5
 20
105.0
  9
$VIEWSIZE
 40
210.0
  9
$CLAYER
  8
0
  9
$LTSCALE
 40
16.335
  9
$CELTYPE
  6
BYLAYER
  9
$DIMSCALE
 40
1.0
  9
$DIMASZ
 40
3.0
  9
$DIMEXO
 40
0.5
  9
$DIMDLI
 40
11.286
  9
$DIMEXE
 40
1.5
  9
$DIMCEN
 40
2.673
  9
$DIMLFAC
 40
1.0
  9
$DIMBLK
  1
_FILLED
  9
$DIMALT
 70
0
  9
$DIMALTF
 40
25.4
  9
$DIMTXT
 40
3.0
  9
$DIMTOL
 70
1
  9
$DIMLIM
 70
0
  9
$DIMTFAC
 40
1.0
  9
$DIMTP
 40
0.01
  9
$DIMTM
 40
0.01
  9
$DIMGAP
 40
0.625
  9
$DIMDSEP
 70
44
  9
$AUNITS
 70
0
  9
$PDMODE
 70
3
  9
$PDSIZE
 40
3.0
  9
$HANDSEED
  5
44B
  9
$TILEMODE
 70
1
  9
$MEASUREMENT
 70
1
  9
$INSUNITS
 70
4
  0
ENDSEC
  0
SECTION
  2
CLASSES
  0
CLASS
  1
ACDBDICTIONARYWDFLT
  2
AcDbDictionaryWithDefault
  3
AutoCAD 2000
 90
0
 91
1
280
0
281
0
  0
CLASS
  1
ACDBPLACEHOLDER
  2
AcDbPlaceHolder
  3
AutoCAD 2000
 90
0
 91
1
280
0
281
0
  0
CLASS
  1
LAYOUT
  2
AcDbLayout
  3
AutoCAD 2000
 90
0
 91
0
280
0
281
0
  0
ENDSEC
  0
SECTION
  2
TABLES
  0
TABLE
  2
VPORT
  5
8
100
AcDbSymbolTable
 70
2
  0
VPORT
  5
1F4
100
AcDbSymbolTableRecord
100
AcDbViewportTableRecord
  2
*ACTIVE
 70
0
 10
0.0
 20
0.0
 11
1.0
 21
1.0
 12
148.5
 22
105.0
 13
0.0
 23
0.0
 14
1.0
 24
1.0
 15
0.0
 25
0.0
 16
0.0
 26
0.0
 36
1.0
 17
0.0
 27
0.0
 37
0.0
 40
210.0
 41
1.4142857143
 42
50.0
 43
0.0
 44
0.0
 50
0.0
 51
0.0
 71
0
 72
100
 73
1
 74
1
 75
0
 76
0
 77
0
 78
0
  0
ENDTAB
  0
TABLE
  2
LTYPE
  5
5
100
AcDbSymbolTable
 70
6
  0
LTYPE
  5
14
100
AcDbSymbolTableRecord
100
AcDbLinetypeTableRecord
  2
BYBLOCK
 70
0
  3

 72
65
 73
0
 40
0.0
  0
LTYPE
  5
15
100
AcDbSymbolTableRecord
100
AcDbLinetypeTableRecord
  2
BYLAYER
 70
0
  3

 72
65
 73
0
 40
0.0
  0
LTYPE
  5
16
100
AcDbSymbolTableRecord
100
AcDbLinetypeTableRecord
  2
CONTINUOUS
 70
64
  3
Solid line
 72
65
 73
0
 40
0.0
  0
LTYPE
  5
1F5
100
AcDbSymbolTableRecord
100
AcDbLinetypeTableRecord
  2
CENTER
 70
64
  3
____ _ ____ _ ____ _ ____ _ ____ _ ____ _ ____
 72
65
 73
4
 40
0.6
 49
0.375
 74
0
 49
-0.075
 74
0
 49
0.075
 74
0
 49
-0.075
 74
0
  0
LTYPE
  5
1F6
100
AcDbSymbolTableRecord
100
AcDbLinetypeTableRecord
  2
HIDDEN
 70
64
  3
- - - - - - - - - - - - - - - - - - - -
 72
65
 73
2
 40
0.2
 49
0.1
 74
0
 49
-0.1
 74
0
  0
LTYPE
  5
1F7
100
AcDbSymbolTableRecord
100
AcDbLinetypeTableRecord
  2
PHANTOM
 70
64
  3
_____ _ _ _____ _ _ _____ _ _ _____
 72
65
 73
6
 40
0.8
 49
0.45
 74
0
 49
-0.05
 74
0
 49
0.1
 74
0
 49
-0.05
 74
0
 49
0.1
 74
0
 49
-0.05
 74
0
  0
LTYPE
  5
1F8
100
AcDbSymbolTableRecord
100
AcDbLinetypeTableRecord
  2
DOT
 70
64
  3
. . . . . . . . . . . . . . . . . . . .
 72
65
 73
2
 40
0.2
 49
0.1
 74
0
 49
-0.1
 74
0
  0
LTYPE
  5
1F9
100
AcDbSymbolTableRecord
100
AcDbLinetypeTableRecord
  2
DASHED
 70
64
  3
- - - - - - - - - - - - - - - - - - - -
 72
65
 73
2
 40
0.2
 49
0.1
 74
0
 49
-0.1
 74
0
  0
ENDTAB
  0
TABLE
  2
LAYER
  5
2
100
AcDbSymbolTable
 70
36
  0
LAYER
  5
10
100
AcDbSymbolTableRecord
100
AcDbLayerTableRecord
  2
0
 70
0
 62
7
  6
CONTINUOUS
370
-3
390
F
  0
LAYER
  5
1FA
100
AcDbSymbolTableRecord
100
AcDbLayerTableRecord
  2
DEFAULT_1
 70
0
 62
7
  6
CENTER
370
-3
390
F
  0
LAYER
  5
1FB
100
AcDbSymbolTableRecord
100
AcDbLayerTableRecord
  2
DEFAULT_2
 70
0
 62
7
  6
HIDDEN
370
-3
390
F
  0
LAYER
  5
1FC
100
AcDbSymbolTableRecord
100
AcDbLayerTableRecord
  2
DEFAULT_3
 70
0
 62
7
  6
PHANTOM
370
-3
390
F
  0
LAYER
  5
1FD
100
AcDbSymbolTableRecord
100
AcDbLayerTableRecord
  2
ASSI
 70
0
 62
7
  6
CONTINUOUS
370
-3
390
F
  0
LAYER
  5
1FE
100
AcDbSymbolTableRecord
100
AcDbLayerTableRecord
  2
COLOR9
 70
0
 62
7
  6
CONTINUOUS
370
-3
390
F
  0
LAYER
  5
1FF
100
AcDbSymbolTableRecord
100
AcDbLayerTableRecord
  2
COORDINATE
 70
0
 62
7
  6
CONTINUOUS
370
-3
390
F
  0
LAYER
  5
200
100
AcDbSymbolTableRecord
100
AcDbLayerTableRecord
  2
COORD_ORIGINE
 70
0
 62
7
  6
CONTINUOUS
370
-3
390
F
  0
LAYER
  5
201
100
AcDbSymbolTableRecord
100
AcDbLayerTableRecord
  2
COPY_PUBLISH
 70
0
 62
7
  6
CONTINUOUS
370
-3
390
F
  0
LAYER
  5
202
100
AcDbSymbolTableRecord
100
AcDbLayerTableRecord
  2
COSMETICI
 70
0
 62
7
  6
CONTINUOUS
370
-3
390
F
  0
LAYER
  5
203
100
AcDbSymbolTableRecord
100
AcDbLayerTableRecord
  2
CURVE
 70
0
 62
7
  6
CONTINUOUS
370
-3
390
F
  0
LAYER
  5
204
100
AcDbSymbolTableRecord
100
AcDbLayerTableRecord
  2
DRAFT
 70
0
 62
7
  6
CONTINUOUS
370
-3
390
F
  0
LAYER
  5
205
100
AcDbSymbolTableRecord
100
AcDbLayerTableRecord
  2
IGES
 70
0
 62
7
  6
CONTINUOUS
370
-3
390
F
  0
LAYER
  5
206
100
AcDbSymbolTableRecord
100
AcDbLayerTableRecord
  2
IGS_SCRITTE
 70
0
 62
7
  6
CONTINUOUS
370
-3
390
F
  0
LAYER
  5
207
100
AcDbSymbolTableRecord
100
AcDbLayerTableRecord
  2
IMPORT_IGES
 70
0
 62
7
  6
CONTINUOUS
370
-3
390
F
  0
LAYER
  5
208
100
AcDbSymbolTableRecord
100
AcDbLayerTableRecord
  2
INTF_YELLOW
 70
0
 62
7
  6
CONTINUOUS
370
-3
390
F
  0
LAYER
  5
209
100
AcDbSymbolTableRecord
100
AcDbLayerTableRecord
  2
LIVELLO_1
 70
0
 62
7
  6
CONTINUOUS
370
-3
390
F
  0
LAYER
  5
20A
100
AcDbSymbolTableRecord
100
AcDbLayerTableRecord
  2
NOTE
 70
0
 62
7
  6
CONTINUOUS
370
-3
390
F
  0
LAYER
  5
20B
100
AcDbSymbolTableRecord
100
AcDbLayerTableRecord
  2
PIANI
 70
0
 62
7
  6
CONTINUOUS
370
-3
390
F
  0
LAYER
  5
20C
100
AcDbSymbolTableRecord
100
AcDbLayerTableRecord
  2
PIANI_ORIGINE
 70
0
 62
7
  6
CONTINUOUS
370
-3
390
F
  0
LAYER
  5
20D
100
AcDbSymbolTableRecord
100
AcDbLayerTableRecord
  2
PIANI_RIFERIMENTO
 70
0
 62
7
  6
CONTINUOUS
370
-3
390
F
  0
LAYER
  5
20E
100
AcDbSymbolTableRecord
100
AcDbLayerTableRecord
  2
PUNTI
 70
0
 62
7
  6
CONTINUOUS
370
-3
390
F
  0
LAYER
  5
20F
100
AcDbSymbolTableRecord
100
AcDbLayerTableRecord
  2
RACCORDO
 70
0
 62
7
  6
CONTINUOUS
370
-3
390
F
  0
LAYER
  5
210
100
AcDbSymbolTableRecord
100
AcDbLayerTableRecord
  2
SIMBOLI
 70
0
 62
7
  6
CONTINUOUS
370
-3
390
F
  0
LAYER
  5
211
100
AcDbSymbolTableRecord
100
AcDbLayerTableRecord
  2
SMUSSO
 70
0
 62
7
  6
CONTINUOUS
370
-3
390
F
  0
LAYER
  5
212
100
AcDbSymbolTableRecord
100
AcDbLayerTableRecord
  2
SNAPLINE
 70
0
 62
7
  6
CONTINUOUS
370
-3
390
F
  0
LAYER
  5
213
100
AcDbSymbolTableRecord
100
AcDbLayerTableRecord
  2
SOLIDO
 70
0
 62
7
  6
CONTINUOUS
370
-3
390
F
  0
LAYER
  5
214
100
AcDbSymbolTableRecord
100
AcDbLayerTableRecord
  2
SUPERFICI
 70
0
 62
7
  6
CONTINUOUS
370
-3
390
F
  0
LAYER
  5
215
100
AcDbSymbolTableRecord
100
AcDbLayerTableRecord
  2
TRASH
 70
0
 62
7
  6
CONTINUOUS
370
-3
390
F
  0
LAYER
  5
216
100
AcDbSymbolTableRecord
100
AcDbLayerTableRecord
  2
WHITE
 70
0
 62
7
  6
CONTINUOUS
370
-3
390
F
  0
ENDTAB
  0
TABLE
  2
STYLE
  5
3
100
AcDbSymbolTable
 70
1
  0
STYLE
  5
11
100
AcDbSymbolTableRecord
100
AcDbTextStyleTableRecord
  2
STANDARD
 70
0
 40
0.0
 41
0.8
 50
0.0
 71
0
 42
0.2
  3
txt
  4

  0
STYLE
  5
217
100
AcDbSymbolTableRecord
100
AcDbTextStyleTableRecord
  2
TEXTSTYLE_1
 70
0
 40
0.0
 41
0.8
 50
0.0
 71
0
 42
0.2
  3
gdt
  4

  0
ENDTAB
  0
TABLE
  2
VIEW
  5
6
100
AcDbSymbolTable
 70
0
  0
ENDTAB
  0
TABLE
  2
UCS
  5
7
100
AcDbSymbolTable
 70
0
  0
ENDTAB
  0
TABLE
  2
APPID
  5
9
100
AcDbSymbolTable
 70
1
  0
APPID
  5
218
100
AcDbSymbolTableRecord
100
AcDbRegAppTableRecord
  2
ACAD
 70
0
  0
ENDTAB
  0
TABLE
  2
BLOCK_RECORD
  5
1
100
AcDbSymbolTable
 70
0
  0
BLOCK_RECORD
  5
219
100
AcDbSymbolTableRecord
100
AcDbBlockTableRecord
  2
*Model_Space
  0
BLOCK_RECORD
  5
21A
100
AcDbSymbolTableRecord
100
AcDbBlockTableRecord
  2
*Paper_Space
  0
BLOCK_RECORD
  5
21B
100
AcDbSymbolTableRecord
100
AcDbBlockTableRecord
  2
_FILLED
  0
BLOCK_RECORD
  5
21C
100
AcDbSymbolTableRecord
100
AcDbBlockTableRecord
  2
*D0
  0
BLOCK_RECORD
  5
21D
100
AcDbSymbolTableRecord
100
AcDbBlockTableRecord
  2
*D1
  0
BLOCK_RECORD
  5
21E
100
AcDbSymbolTableRecord
100
AcDbBlockTableRecord
  2
*D2
  0
ENDTAB
  0
TABLE
  2
DIMSTYLE
  5
A
100
AcDbSymbolTable
 70
1
100
AcDbDimStyleTable
 71
0
  0
DIMSTYLE
105
21F
100
AcDbSymbolTableRecord
100
AcDbDimStyleTableRecord
  2
STANDARD
 70
0
  3

  4

 40
1.0
 41
3.0
 42
0.5
 43
0.38
 44
1.5
 45
0.0
 46
0.0
 47
0.01
 48
0.01
140
3.0
141
0.09
142
0.0
143
25.4
144
1.0
145
0.0
146
1.0
147
0.625
 71
1.0
 72
0.0
 73
0
 74
0
 75
0
 76
0
 77
1
 78
8
170
0
171
1
172
0
173
0
174
0
175
0
176
0
177
0
178
0
270
2
271
2
272
2
273
2
274
2
275
0
280
0
281
0
282
0
283
1
284
8
285
0
286
0
287
3
288
0
340
11
278
44
341
21B
342
21B
343
21B
344
21B
  0
DIMSTYLE
105
220
100
AcDbSymbolTableRecord
100
AcDbDimStyleTableRecord
  2
DIMSTYLE_1
 70
0
  3

  4

 40
1.0
 41
3.0
 42
0.5
 43
0.38
 44
1.5
 45
0.0
 46
0.0
 47
0.0
 48
0.0
140
3.0
141
0.09
142
0.0
143
25.4
144
1.0
145
0.0
146
1.0
147
0.75
 71
0.0
 72
0.0
 73
0
 74
0
 75
0
 76
0
 77
1
 78
8
170
0
171
1
172
0
173
0
174
0
175
0
176
0
177
0
178
0
270
2
271
2
272
2
273
2
274
2
275
0
280
0
281
0
282
0
283
1
284
8
285
0
286
0
287
3
288
0
340
11
278
44
341
21B
342
21B
343
21B
344
21B
  0
DIMSTYLE
105
221
100
AcDbSymbolTableRecord
100
AcDbDimStyleTableRecord
  2
DIMSTYLE_2
 70
0
  3

  4

 40
1.0
 41
3.0
 42
0.5
 43
0.38
 44
1.5
 45
0.0
 46
0.0
 47
0.0
 48
0.0
140
3.0
141
0.09
142
0.0
143
25.4
144
1.0
145
0.0
146
1.0
147
0.75
 71
0.0
 72
0.0
 73
0
 74
0
 75
0
 76
0
 77
1
 78
8
170
0
171
1
172
0
173
0
174
0
175
0
176
0
177
0
178
0
270
2
271
1
272
1
273
2
274
2
275
0
280
0
281
0
282
0
283
1
284
8
285
0
286
0
287
3
288
0
340
11
278
44
341
21B
342
21B
343
21B
344
21B
  0
ENDTAB
  0
ENDSEC
  0
SECTION
  2
BLOCKS
  0
BLOCK
  5
20
100
AcDbEntity
  8
0
100
AcDbBlockBegin
  2
*Model_Space
 70
0
 10
0.0
 20
0.0
 30
0.0
  3
*Model_Space
  1

  0
ENDBLK
  5
21
100
AcDbEntity
  8
0
100
AcDbBlockEnd
  0
BLOCK
  5
1C
100
AcDbEntity
  8
0
100
AcDbBlockBegin
  2
*Paper_Space
 70
0
 10
0.0
 20
0.0
 30
0.0
  3
*Paper_Space
  1

  0
ENDBLK
  5
1D
100
AcDbEntity
  8
0
100
AcDbBlockEnd
  0
BLOCK
  5
222
100
AcDbEntity
  8
0
100
AcDbBlockBegin
  2
_FILLED
 70
64
 10
0.0
 20
0.0
  3
_FILLED
  1

  0
SOLID
  5
223
100
AcDbEntity
  8
0
  6
BYBLOCK
 62
0
100
AcDbTrace
 10
0.0
 20
0.0
 11
-1.0
 21
0.3166666667
 12
-1.0
 22
-0.3166666667
 13
-1.0
 23
-0.3166666667
  0
ENDBLK
  5
224
100
AcDbEntity
  8
0
  6
BYBLOCK
 62
0
100
AcDbBlockEnd
  0
BLOCK
  5
225
100
AcDbEntity
  8
0
100
AcDbBlockBegin
 62
7
  6
CONTINUOUS
  2
*D0
 70
65
 10
0.0
 20
0.0
  3
*D0
  1

  0
MTEXT
  5
226
100
AcDbEntity
  8
0
100
AcDbMText
 62
7
  6
CONTINUOUS
  7
STANDARD
 71
2
 72
1
 10
-0.3876831359
 20
33.658869175
 30
0.0
 11
1.0
 21
0.0
 31
0.0
 44
0.9
  1
22,3
 40
3.0
 41
12.8571428571
  0
LINE
  5
227
100
AcDbEntity
  8
0
100
AcDbLine
 62
7
  6
CONTINUOUS
 10
10.7623168641
 20
13.3006312344
 11
10.7623168641
 21
31.408869175
  0
LINE
  5
228
100
AcDbEntity
  8
0
100
AcDbLine
 62
7
  6
CONTINUOUS
 10
-11.5376831359
 20
13.3006312344
 11
-11.5376831359
 21
31.408869175
  0
LINE
  5
229
100
AcDbEntity
  8
0
100
AcDbLine
 62
7
  6
CONTINUOUS
 10
10.7623168641
 20
29.908869175
 11
-0.3876831359
 21
29.908869175
  0
LINE
  5
22A
100
AcDbEntity
  8
0
100
AcDbLine
 62
7
  6
CONTINUOUS
 10
-11.5376831359
 20
29.908869175
 11
-0.3876831359
 21
29.908869175
  0
INSERT
  5
22B
100
AcDbEntity
  8
0
100
AcDbBlockReference
 62
7
  6
CONTINUOUS
  2
_FILLED
 10
10.7623168641
 20
29.908869175
 41
3.0
 42
3.0
 43
3.0
  0
INSERT
  5
22C
100
AcDbEntity
  8
0
100
AcDbBlockReference
 62
7
  6
CONTINUOUS
  2
_FILLED
 10
-11.5376831359
 20
29.908869175
 41
3.0
 42
3.0
 43
3.0
 50
180.0
  0
ENDBLK
  5
22D
100
AcDbEntity
  8
0
  6
BYBLOCK
 62
0
100
AcDbBlockEnd
  0
BLOCK
  5
22E
100
AcDbEntity
  8
0
100
AcDbBlockBegin
 62
7
  6
CONTINUOUS
  2
*D1
 70
65
 10
0.0
 20
0.0
  3
*D1
  1

  0
MTEXT
  5
22F
100
AcDbEntity
  8
0
100
AcDbMText
 62
7
  6
CONTINUOUS
  7
STANDARD
 71
2
 72
1
 10
15.0123168641
 20
-0.2993687656
 30
0.0
 11
0.0
 21
1.0
 31
0.0
 44
0.9
  1
44,4
 40
3.0
 41
13.1785714286
  0
LINE
  5
230
100
AcDbEntity
  8
0
100
AcDbLine
 62
7
  6
CONTINUOUS
 10
10.7350986693
 20
21.908869175
 11
20.2623168641
 21
21.908869175
  0
LINE
  5
231
100
AcDbEntity
  8
0
100
AcDbLine
 62
7
  6
CONTINUOUS
 10
10.7350986693
 20
-22.5076067061
 11
20.2623168641
 21
-22.5076067061
  0
LINE
  5
232
100
AcDbEntity
  8
0
100
AcDbLine
 62
7
  6
CONTINUOUS
 10
18.7623168641
 20
21.908869175
 11
18.7623168641
 21
-0.2993687656
  0
LINE
  5
233
100
AcDbEntity
  8
0
100
AcDbLine
 62
7
  6
CONTINUOUS
 10
18.7623168641
 20
-22.5076067061
 11
18.7623168641
 21
-0.2993687656
  0
INSERT
  5
234
100
AcDbEntity
  8
0
100
AcDbBlockReference
 62
7
  6
CONTINUOUS
  2
_FILLED
 10
18.7623168641
 20
21.908869175
 41
3.0
 42
3.0
 43
3.0
 50
90.0
  0
INSERT
  5
235
100
AcDbEntity
  8
0
100
AcDbBlockReference
 62
7
  6
CONTINUOUS
  2
_FILLED
 10
18.7623168641
 20
-22.5076067061
 41
3.0
 42
3.0
 43
3.0
 50
270.0
  0
ENDBLK
  5
236
100
AcDbEntity
  8
0
  6
BYBLOCK
 62
0
100
AcDbBlockEnd
  0
BLOCK
  5
237
100
AcDbEntity
  8
0
100
AcDbBlockBegin
 62
7
  6
CONTINUOUS
  2
*D2
 70
65
 10
0.0
 20
0.0
  3
*D2
  1

  0
MTEXT
  5
238
100
AcDbEntity
  8
0
100
AcDbMText
 62
7
  6
CONTINUOUS
  7
STANDARD
 71
1
 72
1
 10
-23.3594943184
 20
33.658869175
 30
0.0
 11
1.0
 21
0.0
 31
0.0
 44
0.9
  1
5,7
 40
3.0
 41
9.3214285714
  0
LINE
  5
239
100
AcDbEntity
  8
0
100
AcDbLine
 62
7
  6
CONTINUOUS
 10
-28.1691052182
 20
13.3006312344
 11
-28.1691052182
 21
31.408869175
  0
LINE
  5
23A
100
AcDbEntity
  8
0
100
AcDbLine
 62
7
  6
CONTINUOUS
 10
-33.868946998
 20
0.5983996884
 11
-33.868946998
 21
31.408869175
  0
LINE
  5
23B
100
AcDbEntity
  8
0
100
AcDbLine
 62
7
  6
CONTINUOUS
 10
-28.1691052182
 20
29.908869175
 11
-17.1452086041
 21
29.908869175
  0
LINE
  5
23C
100
AcDbEntity
  8
0
100
AcDbLine
 62
7
  6
CONTINUOUS
 10
-17.1452086041
 20
29.908869175
 11
-31.0190261081
 21
29.908869175
  0
LINE
  5
23D
100
AcDbEntity
  8
0
100
AcDbLine
 62
7
  6
CONTINUOUS
 10
-33.868946998
 20
29.908869175
 11
-37.868946998
 21
29.908869175
  0
LINE
  5
23E
100
AcDbEntity
  8
0
100
AcDbLine
 62
7
  6
CONTINUOUS
 10
-37.868946998
 20
29.908869175
 11
-31.0190261081
 21
29.908869175
  0
INSERT
  5
23F
100
AcDbEntity
  8
0
100
AcDbBlockReference
 62
7
  6
CONTINUOUS
  2
_FILLED
 10
-28.1691052182
 20
29.908869175
 41
3.0
 42
3.0
 43
3.0
 50
180.0
  0
INSERT
  5
240
100
AcDbEntity
  8
0
100
AcDbBlockReference
 62
7
  6
CONTINUOUS
  2
_FILLED
 10
-33.868946998
 20
29.908869175
 41
3.0
 42
3.0
 43
3.0
  0
ENDBLK
  5
241
100
AcDbEntity
  8
0
  6
BYBLOCK
 62
0
100
AcDbBlockEnd
  0
ENDSEC
  0
SECTION
  2
ENTITIES
  0
DIMENSION
  5
242
100
AcDbEntity
  8
0
100
AcDbDimension
 62
7
  6
CONTINUOUS
  2
*D0
 10
-11.5376831359
 20
29.908869175
 11
-0.816254611
 21
29.908869175
 70
160
 71
2
 42
22.3
  3
DIMSTYLE_1
100
AcDbAlignedDimension
 13
10.7623168641
 23
12.8006312344
 14
-11.5376831359
 24
12.8006312344
 50
180.0
100
AcDbRotatedDimension
  0
DIMENSION
  5
243
100
AcDbEntity
  8
0
100
AcDbDimension
 62
7
  6
CONTINUOUS
  2
*D1
 10
18.7623168641
 20
-22.5076067061
 11
18.7623168641
 21
-0.727940285
 70
160
 71
2
 42
44.4164758811
  3
DIMSTYLE_2
100
AcDbAlignedDimension
 13
10.2350986693
 23
21.908869175
 14
10.2350986693
 24
-22.5076067061
 50
270.0
100
AcDbRotatedDimension
  0
DIMENSION
  5
244
100
AcDbEntity
  8
0
100
AcDbDimension
 62
7
  6
CONTINUOUS
  2
*D2
 10
-33.868946998
 20
29.908869175
 11
-20.6809232197
 21
29.908869175
 70
160
 71
1
 42
5.6998417798
  3
DIMSTYLE_1
100
AcDbAlignedDimension
 13
-28.1691052182
 23
12.8006312344
 14
-33.868946998
 24
0.0983996884
 50
180.0
100
AcDbRotatedDimension
  0
LINE
  5
245
100
AcDbEntity
  8
ASSI
100
AcDbLine
 62
7
  6
CONTINUOUS
 10
3.0063631632
 20
-22.5076067061
 11
3.3545818372
 21
-22.4759978746
  0
LINE
  5
246
100
AcDbEntity
  8
ASSI
100
AcDbLine
 62
7
  6
CONTINUOUS
 10
-8.1936368368
 20
-22.5076067061
 11
-7.8454181628
 21
-22.4759978746
  0
LINE
  5
247
100
AcDbEntity
  8
ASSI
100
AcDbLine
 62
253
  6
CONTINUOUS
 10
10.2028695374
 20
-21.5052446094
 11
10.1747114363
 21
-21.5059907721
  0
LWPOLYLINE
  5
248
100
AcDbEntity
  8
ASSI
100
AcDbPolyline
 62
253
  6
CONTINUOUS
 90
4
 70
0
 10
10.1747114363
 20
-21.5059907721
 10
10.1463695717
 20
-21.5064981777
 10
10.1321583795
 20
-21.506661803
 10
10.1179356765
 20
-21.5067651839
  0
LINE
  5
249
100
AcDbEntity
  8
ASSI
100
AcDbLine
 62
7
  6
CONTINUOUS
 10
10.2350986693
 20
-22.5076067061
 11
7.418270565
 21
-22.5076067061
  0
LINE
  5
24A
100
AcDbEntity
  8
ASSI
100
AcDbLine
 62
7
  6
CONTINUOUS
 10
3.0063631632
 20
-22.5076067061
 11
-3.781729435
 21
-22.5076067061
  0
LINE
  5
24B
100
AcDbEntity
  8
ASSI
100
AcDbLine
 62
7
  6
CONTINUOUS
 10
-8.1936368368
 20
-22.5076067061
 11
-11.0104649412
 21
-22.5076067061
  0
LINE
  5
24C
100
AcDbEntity
  8
ASSI
100
AcDbLine
 62
7
  6
CONTINUOUS
 10
-7.6722130821
 20
-22.4707570967
 11
-4.3031531897
 21
-22.4707570967
  0
LINE
  5
24D
100
AcDbEntity
  8
ASSI
100
AcDbLine
 62
7
  6
CONTINUOUS
 10
3.5277869179
 20
-22.4707570967
 11
6.8968468103
 21
-22.4707570967
  0
LINE
  5
24E
100
AcDbEntity
  8
ASSI
100
AcDbLine
 62
253
  6
CONTINUOUS
 10
-10.909653404
 20
-22.3563125375
 11
10.1342871322
 21
-22.3563125375
  0
LINE
  5
24F
100
AcDbEntity
  8
ASSI
100
AcDbLine
 62
253
  6
CONTINUOUS
 10
-10.9359240238
 20
-21.5062744416
 11
-10.9075246515
 21
-21.5066618043
  0
LINE
  5
250
100
AcDbEntity
  8
ASSI
100
AcDbLine
 62
7
  6
CONTINUOUS
 10
-3.781729435
 20
-22.5076067061
 11
-4.129948109
 21
-22.4759978746
  0
LINE
  5
251
100
AcDbEntity
  8
ASSI
100
AcDbLine
 62
7
  6
CONTINUOUS
 10
7.418270565
 20
-22.5076067061
 11
7.070051891
 21
-22.4759978746
  0
LINE
  5
252
100
AcDbEntity
  8
ASSI
100
AcDbLine
 62
253
  6
CONTINUOUS
 10
-10.8933019483
 20
-21.5067651852
 11
10.1179356765
 21
-21.5067651852
  0
LINE
  5
253
100
AcDbEntity
  8
ASSI
100
AcDbLine
 62
253
  6
CONTINUOUS
 10
-10.9075246515
 20
-21.5066618043
 11
-10.8933019483
 21
-21.5067651852
  0
LWPOLYLINE
  5
254
100
AcDbEntity
  8
ASSI
100
AcDbPolyline
 62
253
  6
CONTINUOUS
 90
49
 70
0
 10
-11.3929973618
 20
20.8334865628
 10
-11.392304335
 20
20.8356082068
 10
-11.3912074521
 20
20.8377281338
 10
-11.389707601
 20
20.8398446279
 10
-11.3878059954
 20
20.8419559763
 10
-11.3855041745
 20
20.8440604701
 10
-11.3828040011
 20
20.8461564062
 10
-11.3797076606
 20
20.8482420883
 10
-11.376217659
 20
20.8503158283
 10
-11.3723368206
 20
20.8523759479
 10
-11.3680682866
 20
20.8544207799
 10
-11.3634155114
 20
20.8564486692
 10
-11.3583822607
 20
20.8584579747
 10
-11.352972608
 20
20.8604470701
 10
-11.3471909315
 20
20.8624143457
 10
-11.3410419105
 20
20.8643582093
 10
-11.3345305216
 20
20.8662770876
 10
-11.3276620346
 20
20.8681694276
 10
-11.3204420083
 20
20.8700336979
 10
-11.3128762861
 20
20.8718683896
 10
-11.3049709911
 20
20.8736720178
 10
-11.2967325213
 20
20.8754431229
 10
-11.2881675444
 20
20.8771802714
 10
-11.2792829922
 20
20.8788820575
 10
-11.2700860551
 20
20.8805471037
 10
-11.2605841766
 20
20.8821740626
 10
-11.2507850467
 20
20.8837616173
 10
-11.2406965962
 20
20.8853084832
 10
-11.2303269899
 20
20.8868134081
 10
-11.2196846201
 20
20.8882751742
 10
-11.2087781001
 20
20.8896925985
 10
-11.1976162569
 20
20.8910645336
 10
-11.1862081239
 20
20.8923898694
 10
-11.174562934
 20
20.8936675331
 10
-11.1626901121
 20
20.8948964908
 10
-11.1505992672
 20
20.8960757478
 10
-11.1383001846
 20
20.8972043496
 10
-11.1258028184
 20
20.898281383
 10
-11.113117283
 20
20.8993059761
 10
-11.1002538452
 20
20.9002772999
 10
-11.0872229157
 20
20.9011945681
 10
-11.0740350407
 20
20.9020570384
 10
-11.0607008936
 20
20.9028640128
 10
-11.047231266
 20
20.9036148381
 10
-11.0336370593
 20
20.9043089068
 10
-11.0199292756
 20
20.904945657
 10
-11.0061190091
 20
20.9055245735
 10
-10.9922174366
 20
20.9060451877
 10
-10.9782358093
 20
20.9065070782
  0
LWPOLYLINE
  5
255
100
AcDbEntity
  8
ASSI
100
AcDbPolyline
 62
253
  6
CONTINUOUS
 90
51
 70
0
 10
-11.3929973618
 20
-21.432224094
 10
-11.3923043352
 20
-21.434345738
 10
-11.3912074525
 20
-21.436465665
 10
-11.3897076015
 20
-21.4385821592
 10
-11.3878059962
 20
-21.4406935076
 10
-11.3855041754
 20
-21.4427980014
 10
-11.3828040022
 20
-21.4448939376
 10
-11.3797076619
 20
-21.4469796196
 10
-11.3762176603
 20
-21.4490533597
 10
-11.3723368221
 20
-21.4511134794
 10
-11.3680682882
 20
-21.4531583113
 10
-11.3634155131
 20
-21.4551862007
 10
-11.3583822625
 20
-21.4571955062
 10
-11.3529726099
 20
-21.4591846017
 10
-11.3471909336
 20
-21.4611518773
 10
-11.3410419127
 20
-21.4630957409
 10
-11.3345305238
 20
-21.4650146192
 10
-11.3276620368
 20
-21.4669069593
 10
-11.3204420106
 20
-21.4687712296
 10
-11.3128762884
 20
-21.4706059213
 10
-11.3049709935
 20
-21.4724095496
 10
-11.2967325238
 20
-21.4741806547
 10
-11.2881675469
 20
-21.4759178032
 10
-11.2792829946
 20
-21.4776195893
 10
-11.2700860576
 20
-21.4792846356
 10
-11.2605841791
 20
-21.4809115945
 10
-11.2507850492
 20
-21.4824991493
 10
-11.2406965986
 20
-21.4840460151
 10
-11.2303269923
 20
-21.4855509401
 10
-11.2196846225
 20
-21.4870127062
 10
-11.2087781025
 20
-21.4884301305
 10
-11.1976162592
 20
-21.4898020657
 10
-11.1862081261
 20
-21.4911274015
 10
-11.1745629362
 20
-21.4924050652
 10
-11.1626901143
 20
-21.4936340229
 10
-11.1505992693
 20
-21.4948132799
 10
-11.1383001866
 20
-21.4959418818
 10
-11.1258028204
 20
-21.4970189152
 10
-11.1131172849
 20
-21.4980435084
 10
-11.100253847
 20
-21.4990148321
 10
-11.0872229173
 20
-21.4999321004
 10
-11.0740350422
 20
-21.5007945707
 10
-11.060700895
 20
-21.5016015451
 10
-11.0472312673
 20
-21.5023523704
 10
-11.0336370605
 20
-21.5030464391
 10
-11.0199292767
 20
-21.5036831894
 10
-11.0061190101
 20
-21.5042621059
 10
-10.9922174375
 20
-21.50478272
 10
-10.97823581
 20
-21.5052446106
 10
-10.9641854433
 20
-21.5056474037
 10
-10.9359240238
 20
-21.5062744416
  0
LWPOLYLINE
  5
256
100
AcDbEntity
  8
0
100
AcDbPolyline
 62
253
  6
CONTINUOUS
 90
29
 70
0
 10
1.2878582995
 20
-14.0132506196
 10
1.2831027634
 20
-14.0132050336
 10
1.2783573175
 20
-14.0130688415
 10
1.2736213257
 20
-14.0128428924
 10
1.2688941519
 20
-14.0125280352
 10
1.2641751601
 20
-14.0121251188
 10
1.2594637142
 20
-14.0116349923
 10
1.254759178
 20
-14.0110585045
 10
1.2500613391
 20
-14.0103964098
 10
1.2453716787
 20
-14.0096490833
 10
1.2406921015
 20
-14.0088168054
 10
1.2360245124
 20
-14.0078998566
 10
1.2313708162
 20
-14.0068985174
 10
1.2267329176
 20
-14.0058130681
 10
1.2221127213
 20
-14.0046437894
 10
1.2175121315
 20
-14.0033909469
 10
1.2129330495
 20
-14.0020547484
 10
1.2083773758
 20
-14.0006353871
 10
1.203847011
 20
-13.999133056
 10
1.1993438558
 20
-13.9975479483
 10
1.1948698107
 20
-13.995880257
 10
1.1904267763
 20
-13.9941301754
 10
1.1860163718
 20
-13.9922976075
 10
1.181639091
 20
-13.9903813018
 10
1.1772951463
 20
-13.9883797177
 10
1.1729847502
 20
-13.9862913146
 10
1.1687081149
 20
-13.984114552
 10
1.164465453
 20
-13.9818478894
 10
1.1602569768
 20
-13.9794897862
  0
LWPOLYLINE
  5
257
100
AcDbEntity
  8
0
100
AcDbPolyline
 62
253
  6
CONTINUOUS
 90
44
 70
0
 10
-2.0426829414
 20
-14.0132506196
 10
-2.0482622953
 20
-14.0131776442
 10
-2.053789707
 20
-14.0129611048
 10
-2.0592718142
 20
-14.0126045817
 10
-2.0647152545
 20
-14.0121116552
 10
-2.0701266655
 20
-14.0114859056
 10
-2.075512685
 20
-14.0107309132
 10
-2.0808799506
 20
-14.0098502582
 10
-2.0862350999
 20
-14.0088475209
 10
-2.0923471032
 20
-14.007555754
 10
-2.098450783
 20
-14.0061092388
 10
-2.1045449716
 20
-14.0045080051
 10
-2.1106285015
 20
-14.0027520827
 10
-2.1167002047
 20
-14.0008415016
 10
-2.1227589138
 20
-13.9987762915
 10
-2.1288034608
 20
-13.9965564822
 10
-2.1348313717
 20
-13.9941827021
 10
-2.1408349466
 20
-13.9916579745
 10
-2.1468051788
 20
-13.988985921
 10
-2.1527330621
 20
-13.9861701632
 10
-2.15860959
 20
-13.983214323
 10
-2.1644257561
 20
-13.9801220221
 10
-2.1701725538
 20
-13.9768968821
 10
-2.1758412137
 20
-13.9735429551
 10
-2.1814239137
 20
-13.9700660137
 10
-2.1869130686
 20
-13.9664722608
 10
-2.1923010932
 20
-13.9627678996
 10
-2.1975804024
 20
-13.9589591328
 10
-2.202743411
 20
-13.9550521636
 10
-2.2077825338
 20
-13.9510531947
 10
-2.21269142
 20
-13.9469675607
 10
-2.2174686572
 20
-13.9427971217
 10
-2.2221140671
 20
-13.9385428695
 10
-2.2266274716
 20
-13.9342057958
 10
-2.2310086926
 20
-13.9297868922
 10
-2.235257552
 20
-13.9252871505
 10
-2.2393738716
 20
-13.9207075623
 10
-2.2433576119
 20
-13.9160471639
 10
-2.2472092884
 20
-13.9112971689
 10
-2.250929555
 20
-13.9064468357
 10
-2.2545190656
 20
-13.9014854226
 10
-2.2579784744
 20
-13.8964021878
 10
-2.2613084353
 20
-13.8911863896
 10
-2.2645096024
 20
-13.8858272863
  0
LWPOLYLINE
  5
258
100
AcDbEntity
  8
0
100
AcDbPolyline
 62
253
  6
CONTINUOUS
 90
55
 70
0
 10
-0.3774660395
 20
-13.3537678419
 10
-0.3939867415
 20
-13.353508051
 10
-0.4103877063
 20
-13.3527317597
 10
-0.4267128039
 20
-13.3514435903
 10
-0.4430059044
 20
-13.3496481648
 10
-0.4593108778
 20
-13.3473501056
 10
-0.475663495
 20
-13.3445513869
 10
-0.4920671296
 20
-13.3412433922
 10
-0.5085170559
 20
-13.337414857
 10
-0.5250085484
 20
-13.3330545168
 10
-0.5415368814
 20
-13.3281511073
 10
-0.5580922058
 20
-13.3226948693
 10
-0.5746441784
 20
-13.3166820657
 10
-0.5911573327
 20
-13.3101104644
 10
-0.6075962021
 20
-13.3029778336
 10
-0.62392532
 20
-13.2952819413
 10
-0.6374178975
 20
-13.288441727
 10
-0.6507555329
 20
-13.2812369695
 10
-0.6638841299
 20
-13.2736958294
 10
-0.6767635966
 20
-13.2658376436
 10
-0.6894098593
 20
-13.257646455
 10
-0.7018528487
 20
-13.2490974829
 10
-0.7141132162
 20
-13.2401716253
 10
-0.7261744963
 20
-13.2308724951
 10
-0.738010944
 20
-13.2212093837
 10
-0.7495968145
 20
-13.2111915828
 10
-0.7609063629
 20
-13.2008283838
 10
-0.7719138444
 20
-13.1901290784
 10
-0.7825963495
 20
-13.1791055838
 10
-0.7929423102
 20
-13.1677803199
 10
-0.8029429936
 20
-13.1561783325
 10
-0.8125896671
 20
-13.1443246673
 10
-0.8218735979
 20
-13.1322443698
 10
-0.8307860534
 20
-13.1199624858
 10
-0.839323826
 20
-13.1074947783
 10
-0.8475058093
 20
-13.0948198795
 10
-0.855356422
 20
-13.0819071389
 10
-0.8628910095
 20
-13.0687405945
 10
-0.8700886231
 20
-13.0553630386
 10
-0.8769192406
 20
-13.0418319518
 10
-0.8845983732
 20
-13.0254627117
 10
-0.891708507
 20
-13.0089932385
 10
-0.8982523495
 20
-12.9924616111
 10
-0.9042326079
 20
-12.9759059088
 10
-0.9096519897
 20
-12.9593642106
 10
-0.9145149158
 20
-12.9428687428
 10
-0.9188326608
 20
-12.9264283204
 10
-0.922618213
 20
-12.9100459056
 10
-0.9258845605
 20
-12.8937244605
 10
-0.9286446915
 20
-12.8774669472
 10
-0.9309088267
 20
-12.8612685767
 10
-0.9326761168
 20
-12.8450935545
 10
-0.9339429448
 20
-12.8288983348
 10
-0.934705694
 20
-12.8126393718
 10
-0.9349607475
 20
-12.7962731199
  0
LWPOLYLINE
  5
259
100
AcDbEntity
  8
0
100
AcDbPolyline
 62
253
  6
CONTINUOUS
 90
55
 70
0
 10
-0.3774660395
 20
-14.9750639527
 10
-0.385189257
 20
-14.9749405097
 10
-0.3928428911
 20
-14.9745725223
 10
-0.4004466939
 20
-14.9739635033
 10
-0.4080204175
 20
-14.973116965
 10
-0.4155838142
 20
-14.9720364203
 10
-0.4231527273
 20
-14.9707242914
 10
-0.4307273645
 20
-14.96917864
 10
-0.438304025
 20
-14.9673964375
 10
-0.4458790076
 20
-14.9653746555
 10
-0.4534486116
 20
-14.9631102653
 10
-0.4610075312
 20
-14.9606007093
 10
-0.4685440427
 20
-14.9578453129
 10
-0.4760448176
 20
-14.9548438726
 10
-0.4834965275
 20
-14.9515961846
 10
-0.4908858441
 20
-14.9481020452
 10
-0.4969841617
 20
-14.9450036466
 10
-0.503009169
 20
-14.9417445972
 10
-0.5089401401
 20
-14.9383355344
 10
-0.5147616412
 20
-14.9347837675
 10
-0.520479407
 20
-14.9310832927
 10
-0.5261044642
 20
-14.9272247781
 10
-0.5316442675
 20
-14.9232010216
 10
-0.5370919834
 20
-14.9190133417
 10
-0.5424372063
 20
-14.9146651866
 10
-0.5476695308
 20
-14.9101600046
 10
-0.5527785514
 20
-14.9055012442
 10
-0.5577538626
 20
-14.9006923536
 10
-0.5625861978
 20
-14.8957378641
 10
-0.5672708469
 20
-14.8906466384
 10
-0.5718042386
 20
-14.8854286224
 10
-0.5761828016
 20
-14.8800937616
 10
-0.5804029648
 20
-14.8746520019
 10
-0.5844611569
 20
-14.8691132889
 10
-0.58835592
 20
-14.8634840633
 10
-0.5920942488
 20
-14.8577567455
 10
-0.5956852516
 20
-14.8519202511
 10
-0.5991346378
 20
-14.8459688885
 10
-0.6024345223
 20
-14.839918539
 10
-0.6055736212
 20
-14.8337904769
 10
-0.6091156505
 20
-14.8263603164
 10
-0.6124098126
 20
-14.8188624891
 10
-0.61545602
 20
-14.8113105989
 10
-0.6182541852
 20
-14.80371825
 10
-0.6208042209
 20
-14.7960990465
 10
-0.623106527
 20
-14.7884649231
 10
-0.6251634538
 20
-14.780821137
 10
-0.6269778391
 20
-14.7731712759
 10
-0.6285525204
 20
-14.7655189277
 10
-0.6298903357
 20
-14.7578676802
 10
-0.6309929804
 20
-14.7502172112
 10
-0.6318575818
 20
-14.742551559
 10
-0.632480125
 20
-14.7348508518
 10
-0.6328565952
 20
-14.7270952181
 10
-0.6329829774
 20
-14.7192647861
  0
LWPOLYLINE
  5
25A
100
AcDbEntity
  8
0
100
AcDbPolyline
 62
253
  6
CONTINUOUS
 90
55
 70
0
 10
-0.3774660395
 20
-13.9357453418
 10
-0.3697249106
 20
-13.9358690144
 10
-0.362053766
 20
-13.9362376707
 10
-0.3544328538
 20
-13.9368477688
 10
-0.3468424219
 20
-13.9376957665
 10
-0.3392627185
 20
-13.9387781218
 10
-0.3316778985
 20
-13.9400923851
 10
-0.324087745
 20
-13.9416404773
 10
-0.3164959477
 20
-13.9434254118
 10
-0.3089061964
 20
-13.9454502019
 10
-0.3013221811
 20
-13.9477178611
 10
-0.2937492005
 20
-13.9502309308
 10
-0.2861989888
 20
-13.9529900655
 10
-0.2786848891
 20
-13.9559954475
 10
-0.2712202445
 20
-13.9592472592
 10
-0.2638183982
 20
-13.9627456832
 10
-0.2577099648
 20
-13.9658477551
 10
-0.2516751767
 20
-13.9691105342
 10
-0.2457348031
 20
-13.9725233422
 10
-0.2399043113
 20
-13.9760788302
 10
-0.2341779598
 20
-13.9797829651
 10
-0.2285447052
 20
-13.9836450431
 10
-0.2229970724
 20
-13.9876722356
 10
-0.2175418604
 20
-13.9918632153
 10
-0.2121894369
 20
-13.9962145304
 10
-0.2069501694
 20
-14.000722729
 10
-0.2018344253
 20
-14.0053843592
 10
-0.1968525724
 20
-14.010195969
 10
-0.1920138481
 20
-14.0151530209
 10
-0.1873229696
 20
-14.0202466342
 10
-0.1827835242
 20
-14.0254668424
 10
-0.1783990989
 20
-14.0308036792
 10
-0.1741732811
 20
-14.0362471782
 10
-0.1701096578
 20
-14.0417873729
 10
-0.1662096989
 20
-14.0474178017
 10
-0.1624664044
 20
-14.0531460218
 10
-0.1588706568
 20
-14.0589830952
 10
-0.1554167397
 20
-14.0649346972
 10
-0.1521125396
 20
-14.0709849565
 10
-0.1489693439
 20
-14.0771126152
 10
-0.1454226927
 20
-14.0845418965
 10
-0.1421242365
 20
-14.0920384169
 10
-0.1390740702
 20
-14.099588572
 10
-0.1362722885
 20
-14.1071787572
 10
-0.1337189862
 20
-14.114795368
 10
-0.1314137682
 20
-14.122426469
 10
-0.1293542791
 20
-14.1300668018
 10
-0.1275376738
 20
-14.1377127774
 10
-0.1259611071
 20
-14.1453608065
 10
-0.1246217338
 20
-14.1530072999
 10
-0.1235178494
 20
-14.1606525779
 10
-0.1226523119
 20
-14.1683125984
 10
-0.1220291201
 20
-14.1760072284
 10
-0.1216522726
 20
-14.1837563353
 10
-0.1215257682
 20
-14.1915797862
  0
LWPOLYLINE
  5
25B
100
AcDbEntity
  8
0
100
AcDbPolyline
 62
253
  6
CONTINUOUS
 90
55
 70
0
 10
-2.4541280665
 20
14.3054797144
 10
-2.4485609946
 20
14.3108753441
 10
-2.4428701062
 20
14.3160475388
 10
-2.4370439837
 20
14.3210128127
 10
-2.4310712096
 20
14.3257876803
 10
-2.4249403664
 20
14.3303886556
 10
-2.4186420214
 20
14.3348287138
 10
-2.4121746819
 20
14.3391066732
 10
-2.4055388399
 20
14.3432178131
 10
-2.3987349876
 20
14.3471574127
 10
-2.3917636171
 20
14.3509207511
 10
-2.3846266896
 20
14.3545023009
 10
-2.3773320433
 20
14.3578933082
 10
-2.3698889856
 20
14.361084212
 10
-2.3623068239
 20
14.3640654519
 10
-2.3545948655
 20
14.366827467
 10
-2.3480786074
 20
14.3689545177
 10
-2.3415009186
 20
14.3709155507
 10
-2.3348840414
 20
14.3727034272
 10
-2.3282441156
 20
14.3743124031
 10
-2.3215728711
 20
14.3757423141
 10
-2.3148559352
 20
14.3769943907
 10
-2.3080829566
 20
14.3780688425
 10
-2.3012596707
 20
14.378961796
 10
-2.2943958347
 20
14.3796683568
 10
-2.2875012054
 20
14.3801836305
 10
-2.28058554
 20
14.3805027227
 10
-2.2736585954
 20
14.3806207389
 10
-2.2667301047
 20
14.3805343577
 10
-2.2598097053
 20
14.3802465486
 10
-2.2529070107
 20
14.3797618542
 10
-2.2460316342
 20
14.379084817
 10
-2.2391931895
 20
14.3782199796
 10
-2.2324012898
 20
14.3771718843
 10
-2.2256615704
 20
14.3759440908
 10
-2.2189637532
 20
14.3745362264
 10
-2.2122935817
 20
14.3729469354
 10
-2.2056429971
 20
14.3711762648
 10
-2.1990287311
 20
14.3692298706
 10
-2.1924737131
 20
14.3671148116
 10
-2.18471319
 20
14.3643635987
 10
-2.1770806639
 20
14.3613892131
 10
-2.1695857969
 20
14.3582011955
 10
-2.1622382506
 20
14.3548090863
 10
-2.155047687
 20
14.3512224261
 10
-2.148022256
 20
14.3474499295
 10
-2.1411640595
 20
14.3434970085
 10
-2.1344736877
 20
14.3393682492
 10
-2.1279517305
 20
14.3350682376
 10
-2.1215987781
 20
14.3306015599
 10
-2.115413445
 20
14.3259692104
 10
-2.1093864436
 20
14.321157816
 10
-2.1035065107
 20
14.3161504117
 10
-2.0977623832
 20
14.3109300329
 10
-2.0921427979
 20
14.3054797144
  0
LWPOLYLINE
  5
25C
100
AcDbEntity
  8
ASSI
100
AcDbPolyline
 62
253
  6
CONTINUOUS
 90
12
 70
0
 10
-11.358634508
 20
9.1911312344
 10
-11.3579362424
 20
9.1914015665
 10
-11.3568343268
 20
9.19167168
 10
-11.3553296526
 20
9.1919413563
 10
-11.3534234371
 20
9.1922103772
 10
-11.351117222
 20
9.1924785252
 10
-11.3484128731
 20
9.1927455833
 10
-11.3453125779
 20
9.1930113356
 10
-11.3418188443
 20
9.193275567
 10
-11.3379344985
 20
9.1935380638
 10
-11.3336626825
 20
9.1937986137
 10
-11.329006852
 20
9.1940570058
  0
LWPOLYLINE
  5
25D
100
AcDbEntity
  8
0
100
AcDbPolyline
 62
253
  6
CONTINUOUS
 90
28
 70
0
 10
-1.5862590642
 20
-12.3541367311
 10
-1.5910328903
 20
-12.3540889699
 10
-1.5957952159
 20
-12.3539464047
 10
-1.6005467138
 20
-12.3537101131
 10
-1.6052880567
 20
-12.3533811727
 10
-1.6100199174
 20
-12.3529606611
 10
-1.6147429686
 20
-12.3524496558
 10
-1.619457883
 20
-12.3518492346
 10
-1.624164886
 20
-12.3511603782
 10
-1.6288624127
 20
-12.3503836811
 10
-1.6335484508
 20
-12.3495196408
 10
-1.6382209881
 20
-12.3485687552
 10
-1.6428780122
 20
-12.3475315217
 10
-1.6475175109
 20
-12.3464084382
 10
-1.6521374719
 20
-12.3452000022
 10
-1.6567359165
 20
-12.3439066853
 10
-1.6613110009
 20
-12.3425288547
 10
-1.6658609146
 20
-12.3410668514
 10
-1.6703838475
 20
-12.3395210163
 10
-1.6748779893
 20
-12.3378916906
 10
-1.6793415295
 20
-12.3361792151
 10
-1.683772658
 20
-12.334383931
 10
-1.6881698343
 20
-12.3325058773
 10
-1.692532597
 20
-12.3305438856
 10
-1.6968607547
 20
-12.3284964857
 10
-1.7011541159
 20
-12.3263622073
 10
-1.705412489
 20
-12.32413958
 10
-1.7096356827
 20
-12.3218271336
  0
LWPOLYLINE
  5
25E
100
AcDbEntity
  8
0
100
AcDbPolyline
 62
253
  6
CONTINUOUS
 90
44
 70
0
 10
0.8314328186
 20
-12.3541367311
 10
0.8258340547
 20
-12.3540628213
 10
0.8202881027
 20
-12.3538435619
 10
0.8147883922
 20
-12.3534826576
 10
0.8093283529
 20
-12.352983813
 10
0.8039014144
 20
-12.352350733
 10
0.7985010063
 20
-12.3515871223
 10
0.7931205583
 20
-12.3506966855
 10
0.7877535
 20
-12.3496831274
 10
0.7816295116
 20
-12.3483778733
 10
0.7755155751
 20
-12.346916814
 10
0.7694128352
 20
-12.3453001172
 10
0.763322437
 20
-12.3435279504
 10
0.7572455251
 20
-12.3416004811
 10
0.7511832446
 20
-12.3395178768
 10
0.7451367402
 20
-12.3372803051
 10
0.7391084525
 20
-12.3348885291
 10
0.7331060039
 20
-12.3323456946
 10
0.7271383125
 20
-12.3296555428
 10
0.7212142962
 20
-12.326821815
 10
0.7153428731
 20
-12.3238482525
 10
0.7095329614
 20
-12.3207385967
 10
0.7037934789
 20
-12.3174965889
 10
0.6981331115
 20
-12.3141264032
 10
0.692559616
 20
-12.3106339455
 10
0.6870805168
 20
-12.3070255544
 10
0.6817033386
 20
-12.3033075687
 10
0.6764356058
 20
-12.299486327
 10
0.6712848431
 20
-12.2955681681
 10
0.6662585748
 20
-12.2915594306
 10
0.6613630828
 20
-12.2874655769
 10
0.6565996779
 20
-12.2832885642
 10
0.6519684283
 20
-12.2790294736
 10
0.6474694019
 20
-12.2746893861
 10
0.643102667
 20
-12.2702693825
 10
0.6388682915
 20
-12.2657705438
 10
0.6347663437
 20
-12.2611939511
 10
0.6307967329
 20
-12.2565387156
 10
0.6269587341
 20
-12.25179607
 10
0.6232514636
 20
-12.2469552774
 10
0.6196740377
 20
-12.2420056008
 10
0.6162255728
 20
-12.2369363033
 10
0.612905185
 20
-12.231736648
 10
0.6097119909
 20
-12.2263958978
  0
LWPOLYLINE
  5
25F
100
AcDbEntity
  8
0
100
AcDbPolyline
 62
253
  6
CONTINUOUS
 90
55
 70
0
 10
-0.3774660395
 20
-12.2381786756
 10
-0.3609401267
 20
-12.2384384466
 10
-0.3445342978
 20
-12.2392146803
 10
-0.3282045382
 20
-12.2405027577
 10
-0.3119068332
 20
-12.2422980598
 10
-0.2955971682
 20
-12.2445959674
 10
-0.2792396762
 20
-12.2473945032
 10
-0.2628310797
 20
-12.2507022568
 10
-0.246376249
 20
-12.2545304592
 10
-0.2298800542
 20
-12.2588903416
 10
-0.2133473656
 20
-12.2637931353
 10
-0.1967881373
 20
-12.2692485796
 10
-0.1802326604
 20
-12.2752604473
 10
-0.1637163097
 20
-12.2818310196
 10
-0.1472744602
 20
-12.2889625775
 10
-0.130942487
 20
-12.2966574021
 10
-0.1174475416
 20
-12.3034967904
 10
-0.1041074043
 20
-12.3107009336
 10
-0.0909760141
 20
-12.3182418452
 10
-0.0780933393
 20
-12.3261003483
 10
-0.0654434651
 20
-12.3342925048
 10
-0.0529965059
 20
-12.342843186
 10
-0.0407318724
 20
-12.3517715739
 10
-0.0286661617
 20
-12.3610740919
 10
-0.0168252672
 20
-12.3707414741
 10
-0.0052350824
 20
-12.3807644544
 10
0.0060784993
 20
-12.3911337666
 10
0.0170895843
 20
-12.4018401446
 10
0.0277751413
 20
-12.412871681
 10
0.0381235871
 20
-12.424205902
 10
0.0481262009
 20
-12.4358176925
 10
0.0577742615
 20
-12.4476819374
 10
0.067059048
 20
-12.4597735214
 10
0.0759718393
 20
-12.4720673296
 10
0.084509445
 20
-12.4845475344
 10
0.0926907966
 20
-12.4972354593
 10
0.1005403563
 20
-12.5101617156
 10
0.1080735336
 20
-12.5233422534
 10
0.1152695267
 20
-12.5367343787
 10
0.1220984813
 20
-12.5502807364
 10
0.1297757577
 20
-12.5666693846
 10
0.1368842592
 20
-12.5831595544
 10
0.1434267367
 20
-12.5997132639
 10
0.1494059411
 20
-12.6162925313
 10
0.1548246233
 20
-12.6328593747
 10
0.1596872276
 20
-12.6493816208
 10
0.1640049728
 20
-12.6658503299
 10
0.167790771
 20
-12.6822623712
 10
0.1710575344
 20
-12.6986146135
 10
0.1738181753
 20
-12.7149039257
 10
0.1760828426
 20
-12.7311349863
 10
0.1778506331
 20
-12.7473437109
 10
0.1791178801
 20
-12.7635738247
 10
0.179880917
 20
-12.7798690526
 10
0.1801360775
 20
-12.7962731199
  0
LWPOLYLINE
  5
260
100
AcDbEntity
  8
ASSI
100
AcDbPolyline
 62
253
  6
CONTINUOUS
 90
14
 70
0
 10
-11.358634508
 20
-9.7898687656
 10
-11.3579362424
 20
-9.7901390977
 10
-11.3568343268
 20
-9.7904092112
 10
-11.3553296527
 20
-9.7906788874
 10
-11.3534234371
 20
-9.7909479084
 10
-11.3511172221
 20
-9.7912160564
 10
-11.3484128731
 20
-9.7914831145
 10
-11.3453125779
 20
-9.7917488668
 10
-11.3418188443
 20
-9.7920130982
 10
-11.3379344985
 20
-9.792275595
 10
-11.3336626825
 20
-9.7925361449
 10
-11.3290068521
 20
-9.792794537
 10
-11.3239707733
 20
-9.7930505625
 10
-11.3127744702
 20
-9.7935546869
  0
LINE
  5
261
100
AcDbEntity
  8
ASSI
100
AcDbLine
 62
253
  6
CONTINUOUS
 10
-11.4006838045
 20
21.1769866738
 11
-11.4013956059
 21
21.1896719691
  0
LINE
  5
262
100
AcDbEntity
  8
ASSI
100
AcDbLine
 62
253
  6
CONTINUOUS
 10
-11.3999938933
 20
21.1633337959
 11
-11.4006838045
 21
21.1769866738
  0
LINE
  5
263
100
AcDbEntity
  8
ASSI
100
AcDbLine
 62
253
  6
CONTINUOUS
 10
-11.3993276852
 20
21.1487477364
 11
-11.3999938933
 21
21.1633337959
  0
LINE
  5
264
100
AcDbEntity
  8
ASSI
100
AcDbLine
 62
253
  6
CONTINUOUS
 10
-11.3983762262
 20
21.1251966487
 11
-11.3993276852
 21
21.1487477364
  0
LINE
  5
265
100
AcDbEntity
  8
ASSI
100
AcDbLine
 62
253
  6
CONTINUOUS
 10
-11.3974864454
 20
21.0997457649
 11
-11.3983762262
 21
21.1251966487
  0
LINE
  5
266
100
AcDbEntity
  8
ASSI
100
AcDbLine
 62
253
  6
CONTINUOUS
 10
-10.9017001184
 20
21.6203985126
 11
-10.9028058353
 21
21.6547193821
  0
LINE
  5
267
100
AcDbEntity
  8
ASSI
100
AcDbLine
 62
253
  6
CONTINUOUS
 10
-11.3964039837
 20
21.0630877472
 11
-11.3974864454
 21
21.0997457649
  0
LINE
  5
268
100
AcDbEntity
  8
ASSI
100
AcDbLine
 62
253
  6
CONTINUOUS
 10
-10.9002984312
 20
21.5677198986
 11
-10.9017001184
 21
21.6203985126
  0
LINE
  5
269
100
AcDbEntity
  8
ASSI
100
AcDbLine
 62
253
  6
CONTINUOUS
 10
-11.3954493082
 20
21.0236262967
 11
-11.3964039837
 21
21.0630877472
  0
LINE
  5
26A
100
AcDbEntity
  8
ASSI
100
AcDbLine
 62
253
  6
CONTINUOUS
 10
-10.8986807928
 20
21.4914501598
 11
-10.9002984312
 21
21.5677198986
  0
LWPOLYLINE
  5
26B
100
AcDbEntity
  8
ASSI
100
AcDbPolyline
 62
253
  6
CONTINUOUS
 90
46
 70
0
 10
-11.3554912427
 20
0.0960952412
 10
-11.3553364462
 20
0.0873723893
 10
-11.3548775552
 20
0.0786601607
 10
-11.3541151287
 20
0.0699691659
 10
-11.3530500952
 20
0.0613099893
 10
-11.3516837517
 20
0.0526931768
 10
-11.3500177623
 20
0.0441292225
 10
-11.3480541559
 20
0.0356285563
 10
-11.3457953241
 20
0.0272015309
 10
-11.3432440176
 20
0.0188584094
 10
-11.3404033438
 20
0.0106093525
 10
-11.3372767623
 20
0.0024644067
 10
-11.3338680807
 20
-0.0055665086
 10
-11.3301814504
 20
-0.0134736127
 10
-11.3262213613
 20
-0.0212472757
 10
-11.3219926363
 20
-0.0288780304
 10
-11.3175004255
 20
-0.0363565833
 10
-11.3127501997
 20
-0.0436738267
 10
-11.3077477442
 20
-0.050820849
 10
-11.3024991513
 20
-0.057788946
 10
-11.2970108132
 20
-0.0645696315
 10
-11.2912894139
 20
-0.0711546475
 10
-11.2853419214
 20
-0.0775359743
 10
-11.279175579
 20
-0.0837058401
 10
-11.2727978965
 20
-0.0896567309
 10
-11.2662166412
 20
-0.0953813993
 10
-11.2594398281
 20
-0.1008728733
 10
-11.2524757106
 20
-0.106124465
 10
-11.2453327701
 20
-0.1111297787
 10
-11.2380197058
 20
-0.1158827184
 10
-11.230545424
 20
-0.1203774958
 10
-11.2229190276
 20
-0.1246086368
 10
-11.2151498045
 20
-0.1285709883
 10
-11.2072472166
 20
-0.1322597248
 10
-11.1992208884
 20
-0.1356703538
 10
-11.1910805947
 20
-0.1387987215
 10
-11.1828362496
 20
-0.1416410182
 10
-11.1744978935
 20
-0.1441937821
 10
-11.1660756815
 20
-0.1464539043
 10
-11.1575798709
 20
-0.1484186324
 10
-11.1490208084
 20
-0.1500855735
 10
-11.1404089179
 20
-0.1514526976
 10
-11.1317546875
 20
-0.1525183395
 10
-11.1230686571
 20
-0.1532812016
 10
-11.1143614052
 20
-0.1537403547
 10
-11.105643536
 20
-0.1538952396
  0
LINE
  5
26C
100
AcDbEntity
  8
ASSI
100
AcDbLine
 62
253
  6
CONTINUOUS
 10
-11.3944488297
 20
20.9709097747
 11
-11.3954493082
 21
21.0236262967
  0
LWPOLYLINE
  5
26D
100
AcDbEntity
  8
ASSI
100
AcDbPolyline
 62
253
  6
CONTINUOUS
 90
55
 70
0
 10
-11.4093488175
 20
-21.8569977701
 10
-11.4091113981
 20
-21.8715033419
 10
-11.4084523695
 20
-21.885996669
 10
-11.4073722881
 20
-21.9004655172
 10
-11.4058720655
 20
-21.9148976728
 10
-11.4039529681
 20
-21.9292809532
 10
-11.4016166159
 20
-21.943603217
 10
-11.3988649812
 20
-21.9578523742
 10
-11.3957003866
 20
-21.9720163966
 10
-11.3921255035
 20
-21.9860833281
 10
-11.3881433496
 20
-22.0000412941
 10
-11.3837572863
 20
-22.0138785123
 10
-11.3789710161
 20
-22.0275833022
 10
-11.3737885791
 20
-22.0411440952
 10
-11.3682143502
 20
-22.0545494441
 10
-11.3622530346
 20
-22.0677880331
 10
-11.3559096646
 20
-22.0808486869
 10
-11.3491895947
 20
-22.0937203808
 10
-11.3420984976
 20
-22.1063922492
 10
-11.3346423591
 20
-22.1188535953
 10
-11.3268274732
 20
-22.1310939002
 10
-11.3186604367
 20
-22.1431028315
 10
-11.3101481437
 20
-22.1548702518
 10
-11.3012977797
 20
-22.1663862281
 10
-11.2921168156
 20
-22.1776410392
 10
-11.2826130013
 20
-22.1886251847
 10
-11.2727943594
 20
-22.1993293923
 10
-11.2626691779
 20
-22.2097446264
 10
-11.2522460041
 20
-22.2198620951
 10
-11.2415336364
 20
-22.2296732578
 10
-11.2305411174
 20
-22.2391698328
 10
-11.2192777264
 20
-22.2483438035
 10
-11.2077529711
 20
-22.2571874259
 10
-11.19597658
 20
-22.2656932348
 10
-11.1839584939
 20
-22.2738540503
 10
-11.1717088577
 20
-22.2816629834
 10
-11.1592380118
 20
-22.2891134424
 10
-11.146556483
 20
-22.2961991381
 10
-11.1336749765
 20
-22.3029140892
 10
-11.1206043658
 20
-22.3092526275
 10
-11.1073556844
 20
-22.3152094023
 10
-11.0939401159
 20
-22.3207793853
 10
-11.0803689847
 20
-22.3259578747
 10
-11.0666537469
 20
-22.3307404992
 10
-11.0528059797
 20
-22.3351232217
 10
-11.0388373727
 20
-22.3391023424
 10
-11.0247597172
 20
-22.3426745025
 10
-11.0105848965
 20
-22.3458366866
 10
-10.9963248763
 20
-22.3485862255
 10
-10.9819916937
 20
-22.350920798
 10
-10.9675974479
 20
-22.3528384337
 10
-10.9531542896
 20
-22.3543375136
 10
-10.9386744108
 20
-22.3554167723
 10
-10.9241700344
 20
-22.3560752989
 10
-10.909653404
 20
-22.3563125375
  0
LINE
  5
26E
100
AcDbEntity
  8
ASSI
100
AcDbLine
 62
253
  6
CONTINUOUS
 10
-10.8969675523
 20
21.3861135541
 11
-10.8986807928
 21
21.4914501598
  0
LINE
  5
26F
100
AcDbEntity
  8
ASSI
100
AcDbLine
 62
253
  6
CONTINUOUS
 10
-11.3936760881
 20
20.9151419102
 11
-11.3944488297
 21
20.9709097747
  0
LINE
  5
270
100
AcDbEntity
  8
ASSI
100
AcDbLine
 62
253
  6
CONTINUOUS
 10
-10.8951270732
 20
21.225868873
 11
-10.8969675523
 21
21.3861135541
  0
LINE
  5
271
100
AcDbEntity
  8
ASSI
100
AcDbLine
 62
253
  6
CONTINUOUS
 10
-11.3931422704
 20
20.8571407259
 11
-11.3936760881
 21
20.9151419102
  0
LINE
  5
272
100
AcDbEntity
  8
ASSI
100
AcDbLine
 62
253
  6
CONTINUOUS
 10
-10.8936311419
 20
21.0021683516
 11
-10.8951270732
 21
21.225868873
  0
LINE
  5
273
100
AcDbEntity
  8
ASSI
100
AcDbLine
 62
7
  6
CONTINUOUS
 10
-11.5113758266
 20
-22.0101160733
 11
-11.5376831359
 21
-13.3993687656
  0
LINE
  5
274
100
AcDbEntity
  8
ASSI
100
AcDbLine
 62
253
  6
CONTINUOUS
 10
-10.8688513701
 20
14.8535045121
 11
-10.8936311419
 21
21.0021683516
  0
LINE
  5
275
100
AcDbEntity
  8
ASSI
100
AcDbLine
 62
253
  6
CONTINUOUS
 10
-11.358634508
 20
9.1911312344
 11
-11.3931422704
 21
20.8571407259
  0
LINE
  5
276
100
AcDbEntity
  8
ASSI
100
AcDbLine
 62
253
  6
CONTINUOUS
 10
-10.8589390944
 20
9.2006312344
 11
-10.8688513701
 21
14.8535045121
  0
LINE
  5
277
100
AcDbEntity
  8
ASSI
100
AcDbLine
 62
7
  6
CONTINUOUS
 10
-11.5376831359
 20
-0.6493021444
 11
-11.5376831359
 21
-13.3993687656
  0
LINE
  5
278
100
AcDbEntity
  8
ASSI
100
AcDbLine
 62
7
  6
CONTINUOUS
 10
-11.5376831359
 20
0.0505646132
 11
-11.5376831359
 21
12.8006312344
  0
LINE
  5
279
100
AcDbEntity
  8
ASSI
100
AcDbLine
 62
253
  6
CONTINUOUS
 10
-11.3554913096
 20
0.0960952244
 11
-11.358634508
 21
9.1911312344
  0
LINE
  5
27A
100
AcDbEntity
  8
ASSI
100
AcDbLine
 62
253
  6
CONTINUOUS
 10
-10.8557958821
 20
-0.1517896774
 11
-10.8589390944
 21
9.2006312344
  0
LINE
  5
27B
100
AcDbEntity
  8
ASSI
100
AcDbLine
 62
7
  6
CONTINUOUS
 10
-11.5113758266
 20
21.4113785422
 11
-11.5376831359
 21
12.8006312344
  0
LINE
  5
27C
100
AcDbEntity
  8
ASSI
100
AcDbLine
 62
253
  6
CONTINUOUS
 10
-11.3772811323
 20
-17.9974383266
 11
-11.3554913096
 21
-0.6948327556
  0
LINE
  5
27D
100
AcDbEntity
  8
ASSI
100
AcDbLine
 62
253
  6
CONTINUOUS
 10
-10.8775857183
 20
-18.052793935
 11
-10.8557958821
 21
-0.4469478538
  0
LINE
  5
27E
100
AcDbEntity
  8
ASSI
100
AcDbLine
 62
253
  6
CONTINUOUS
 10
-10.8944163186
 20
-21.7376485442
 11
-10.8775857183
 21
-18.052793935
  0
LINE
  5
27F
100
AcDbEntity
  8
ASSI
100
AcDbLine
 62
253
  6
CONTINUOUS
 10
-11.3933265192
 20
-21.4792878917
 11
-11.3772811323
 21
-17.9974383266
  0
LINE
  5
280
100
AcDbEntity
  8
ASSI
100
AcDbLine
 62
253
  6
CONTINUOUS
 10
-10.8959800659
 20
-21.9072613457
 11
-10.8944163186
 21
-21.7376485442
  0
LINE
  5
281
100
AcDbEntity
  8
ASSI
100
AcDbLine
 62
253
  6
CONTINUOUS
 10
-11.3939570846
 20
-21.536503598
 11
-11.3933265192
 21
-21.4792878917
  0
LINE
  5
282
100
AcDbEntity
  8
ASSI
100
AcDbLine
 62
253
  6
CONTINUOUS
 10
-10.8977910269
 20
-22.0392869662
 11
-10.8959800659
 21
-21.9072613457
  0
LWPOLYLINE
  5
283
100
AcDbEntity
  8
ASSI
100
AcDbPolyline
 62
253
  6
CONTINUOUS
 90
55
 70
0
 10
-11.4093488175
 20
21.258260239
 10
-11.4091113981
 20
21.272765811
 10
-11.4084523695
 20
21.2872591384
 10
-11.407372288
 20
21.3017279869
 10
-11.4058720653
 20
21.3161601428
 10
-11.4039529679
 20
21.3305434234
 10
-11.4016166156
 20
21.3448656874
 10
-11.3988649808
 20
21.3591148449
 10
-11.3957003861
 20
21.3732788675
 10
-11.3921255029
 20
21.3873457992
 10
-11.3881433489
 20
21.4013037653
 10
-11.3837572854
 20
21.4151409837
 10
-11.3789710151
 20
21.4288457737
 10
-11.373788578
 20
21.4424065669
 10
-11.3682143489
 20
21.4558119159
 10
-11.3622530332
 20
21.4690505049
 10
-11.355909663
 20
21.4821111589
 10
-11.3491895929
 20
21.4949828528
 10
-11.3420984957
 20
21.5076547212
 10
-11.3346423571
 20
21.5201160674
 10
-11.3268274711
 20
21.5323563723
 10
-11.3186604345
 20
21.5443653035
 10
-11.3101481414
 20
21.5561327239
 10
-11.3012977773
 20
21.5676487001
 10
-11.292116813
 20
21.5789035112
 10
-11.2826129986
 20
21.5898876565
 10
-11.2727943566
 20
21.6005918641
 10
-11.2626691751
 20
21.6110070981
 10
-11.2522460012
 20
21.6211245666
 10
-11.2415336334
 20
21.6309357293
 10
-11.2305411144
 20
21.6404323041
 10
-11.2192777234
 20
21.6496062747
 10
-11.2077529681
 20
21.6584498969
 10
-11.195976577
 20
21.6669557058
 10
-11.183958491
 20
21.6751165211
 10
-11.1717088548
 20
21.682925454
 10
-11.1592380089
 20
21.6903759129
 10
-11.1465564802
 20
21.6974616084
 10
-11.1336749738
 20
21.7041765594
 10
-11.1206043632
 20
21.7105150975
 10
-11.1073556819
 20
21.7164718722
 10
-11.0939401135
 20
21.7220418551
 10
-11.0803689825
 20
21.7272203444
 10
-11.0666537447
 20
21.7320029688
 10
-11.0528059777
 20
21.7363856911
 10
-11.0388373709
 20
21.7403648117
 10
-11.0247597155
 20
21.7439369717
 10
-11.0105848951
 20
21.7470991558
 10
-10.996324875
 20
21.7498486945
 10
-10.9819916926
 20
21.752183267
 10
-10.9675974471
 20
21.7541009026
 10
-10.953154289
 20
21.7555999824
 10
-10.9386744104
 20
21.7566792412
 10
-10.9241700342
 20
21.7573377678
 10
-10.909653404
 20
21.7575750063
  0
LWPOLYLINE
  5
284
100
AcDbEntity
  8
ASSI
100
AcDbPolyline
 62
253
  6
CONTINUOUS
 90
46
 70
0
 10
-11.3554912427
 20
-0.6948327723
 10
-11.3553364462
 20
-0.6861099208
 10
-11.3548775553
 20
-0.6773976927
 10
-11.3541151288
 20
-0.6687066982
 10
-11.3530500954
 20
-0.660047522
 10
-11.351683752
 20
-0.6514307099
 10
-11.3500177627
 20
-0.6428667559
 10
-11.3480541566
 20
-0.63436609
 10
-11.3457953249
 20
-0.6259390649
 10
-11.3432440187
 20
-0.6175959437
 10
-11.3404033451
 20
-0.6093468871
 10
-11.3372767637
 20
-0.6012019415
 10
-11.3338680824
 20
-0.5931710264
 10
-11.3301814524
 20
-0.5852639225
 10
-11.3262213635
 20
-0.5774902596
 10
-11.3219926388
 20
-0.5698595051
 10
-11.3175004282
 20
-0.5623809522
 10
-11.3127502027
 20
-0.5550637089
 10
-11.3077477474
 20
-0.5479166866
 10
-11.3024991548
 20
-0.5409485896
 10
-11.2970108169
 20
-0.534167904
 10
-11.2912894178
 20
-0.527582888
 10
-11.2853419255
 20
-0.5212015612
 10
-11.2791755833
 20
-0.5150316952
 10
-11.2727979009
 20
-0.5090808043
 10
-11.2662166457
 20
-0.5033561357
 10
-11.2594398327
 20
-0.4978646615
 10
-11.2524757153
 20
-0.4926130696
 10
-11.2453327748
 20
-0.4876077557
 10
-11.2380197105
 20
-0.4828548157
 10
-11.2305454288
 20
-0.4783600381
 10
-11.2229190323
 20
-0.4741288968
 10
-11.2151498091
 20
-0.4701665451
 10
-11.207247221
 20
-0.4664778083
 10
-11.1992208926
 20
-0.4630671791
 10
-11.1910805987
 20
-0.4599388111
 10
-11.1828362533
 20
-0.4570965142
 10
-11.1744978969
 20
-0.4545437501
 10
-11.1660756847
 20
-0.4522836276
 10
-11.1575798737
 20
-0.4503188993
 10
-11.1490208108
 20
-0.448651958
 10
-11.1404089198
 20
-0.4472848339
 10
-11.131754689
 20
-0.4462191918
 10
-11.1230686582
 20
-0.4454563297
 10
-11.1143614057
 20
-0.4449971765
 10
-11.105643536
 20
-0.4448422916
  0
LINE
  5
285
100
AcDbEntity
  8
ASSI
100
AcDbLine
 62
253
  6
CONTINUOUS
 10
-11.3948224561
 20
-21.5911448153
 11
-11.3939570846
 21
-21.536503598
  0
LINE
  5
286
100
AcDbEntity
  8
ASSI
100
AcDbLine
 62
253
  6
CONTINUOUS
 10
-10.8993085886
 20
-22.1220261985
 11
-10.8977910269
 21
-22.0392869662
  0
LINE
  5
287
100
AcDbEntity
  8
ASSI
100
AcDbLine
 62
253
  6
CONTINUOUS
 10
-11.3956754578
 20
-21.6324711434
 11
-11.3948224561
 21
-21.5911448153
  0
LINE
  5
288
100
AcDbEntity
  8
ASSI
100
AcDbLine
 62
253
  6
CONTINUOUS
 10
-10.9006404202
 20
-22.1803462802
 11
-10.8993085886
 21
-22.1220261985
  0
LINE
  5
289
100
AcDbEntity
  8
ASSI
100
AcDbLine
 62
253
  6
CONTINUOUS
 10
-11.3966629576
 20
-21.6712647786
 11
-11.3956754578
 21
-21.6324711434
  0
LINE
  5
28A
100
AcDbEntity
  8
ASSI
100
AcDbLine
 62
253
  6
CONTINUOUS
 10
-10.9017001184
 20
-22.2191360438
 11
-10.9006404202
 21
-22.1803462802
  0
LINE
  5
28B
100
AcDbEntity
  8
ASSI
100
AcDbLine
 62
253
  6
CONTINUOUS
 10
-11.3974864454
 20
-21.6984832961
 11
-11.3966629576
 21
-21.6712647786
  0
LINE
  5
28C
100
AcDbEntity
  8
ASSI
100
AcDbLine
 62
253
  6
CONTINUOUS
 10
-10.9028058353
 20
-22.2534569133
 11
-10.9017001184
 21
-22.2191360438
  0
LINE
  5
28D
100
AcDbEntity
  8
ASSI
100
AcDbLine
 62
253
  6
CONTINUOUS
 10
-11.3983762262
 20
-21.7239341798
 11
-11.3974864454
 21
-21.6984832961
  0
LINE
  5
28E
100
AcDbEntity
  8
ASSI
100
AcDbLine
 62
253
  6
CONTINUOUS
 10
-11.3993276852
 20
-21.7474852676
 11
-11.3983762262
 21
-21.7239341798
  0
LINE
  5
28F
100
AcDbEntity
  8
ASSI
100
AcDbLine
 62
253
  6
CONTINUOUS
 10
-11.3999938933
 20
-21.7620713271
 11
-11.3993276852
 21
-21.7474852676
  0
LINE
  5
290
100
AcDbEntity
  8
ASSI
100
AcDbLine
 62
253
  6
CONTINUOUS
 10
-11.4006838045
 20
-21.775724205
 11
-11.3999938933
 21
-21.7620713271
  0
LINE
  5
291
100
AcDbEntity
  8
ASSI
100
AcDbLine
 62
253
  6
CONTINUOUS
 10
-11.4013956059
 20
-21.7884095003
 11
-11.4006838045
 21
-21.775724205
  0
LWPOLYLINE
  5
292
100
AcDbEntity
  8
0
100
AcDbPolyline
 62
253
  6
CONTINUOUS
 90
37
 70
0
 10
-1.3348347617
 20
13.1865038813
 10
-1.3389131465
 20
13.1824766901
 10
-1.3430792012
 20
13.1785649324
 10
-1.3473318509
 20
13.174765817
 10
-1.3516700206
 20
13.1710765526
 10
-1.3560926352
 20
13.1674943479
 10
-1.3605986198
 20
13.1640164116
 10
-1.3651868993
 20
13.1606399526
 10
-1.3698559261
 20
13.1573628628
 10
-1.374602262
 20
13.1541857681
 10
-1.379421996
 20
13.1511099776
 10
-1.3843112173
 20
13.1481368003
 10
-1.389266015
 20
13.1452675454
 10
-1.3942824781
 20
13.142503522
 10
-1.3993566957
 20
13.1398460392
 10
-1.4044851107
 20
13.1372963182
 10
-1.4096655809
 20
13.1348552286
 10
-1.4148963176
 20
13.1325235521
 10
-1.4201755323
 20
13.1303020704
 10
-1.4255014364
 20
13.1281915652
 10
-1.4308722414
 20
13.126192818
 10
-1.4362861588
 20
13.1243066108
 10
-1.4417413209
 20
13.1225339366
 10
-1.4472355434
 20
13.1208766349
 10
-1.4527665633
 20
13.1193367567
 10
-1.4583321172
 20
13.117916353
 10
-1.4639299419
 20
13.1166174748
 10
-1.4695577742
 20
13.1154421731
 10
-1.4752133507
 20
13.1143924989
 10
-1.4801832991
 20
13.1135788923
 10
-1.4851732758
 20
13.1128655669
 10
-1.4901838001
 20
13.1122550499
 10
-1.4952153914
 20
13.1117498687
 10
-1.5002685689
 20
13.1113525506
 10
-1.505343852
 20
13.1110656229
 10
-1.5104417602
 20
13.110891613
 10
-1.5155628126
 20
13.110833048
  0
LINE
  5
293
100
AcDbEntity
  8
ASSI
100
AcDbLine
 62
253
  6
CONTINUOUS
 10
10.5536405802
 20
-9.792794537
 11
10.5431922481
 21
-9.7933040141
  0
LINE
  5
294
100
AcDbEntity
  8
ASSI
100
AcDbLine
 62
253
  6
CONTINUOUS
 10
10.5431922481
 20
-9.7933040141
 11
10.531257031
 21
-9.793802378
  0
LINE
  5
295
100
AcDbEntity
  8
ASSI
100
AcDbLine
 62
253
  6
CONTINUOUS
 10
10.531257031
 20
-9.793802378
 11
10.5178735398
 21
-9.7942880165
  0
LINE
  5
296
100
AcDbEntity
  8
ASSI
100
AcDbLine
 62
253
  6
CONTINUOUS
 10
10.5178735398
 20
-9.7942880165
 11
10.495178746
 21
-9.7949891901
  0
LINE
  5
297
100
AcDbEntity
  8
ASSI
100
AcDbLine
 62
253
  6
CONTINUOUS
 10
10.495178746
 20
-9.7949891901
 11
10.4602918392
 21
-9.7958652876
  0
LINE
  5
298
100
AcDbEntity
  8
ASSI
100
AcDbLine
 62
253
  6
CONTINUOUS
 10
10.4602918392
 20
-9.7958652876
 11
10.4409910889
 21
-9.7962749319
  0
LWPOLYLINE
  5
299
100
AcDbEntity
  8
0
100
AcDbPolyline
 62
253
  6
CONTINUOUS
 90
55
 70
0
 10
-0.3774660395
 20
-11.6565186757
 10
-0.3697239754
 20
-11.656394573
 10
-0.3620519247
 20
-11.6560246591
 10
-0.3544301758
 20
-11.6554125254
 10
-0.3468390172
 20
-11.6545617632
 10
-0.3392587371
 20
-11.653475964
 10
-0.3316735219
 20
-11.6521576249
 10
-0.3240831495
 20
-11.6506048671
 10
-0.3164912957
 20
-11.6488147173
 10
-0.3089016362
 20
-11.6467842026
 10
-0.3013178468
 20
-11.6445103497
 10
-0.293745211
 20
-11.6419906589
 10
-0.2861954435
 20
-11.6392245241
 10
-0.2786818664
 20
-11.6362118124
 10
-0.2712178022
 20
-11.6329523909
 10
-0.2638165732
 20
-11.6294461268
 10
-0.2577086682
 20
-11.6263373842
 10
-0.2516744125
 20
-11.6230678557
 10
-0.2457345682
 20
-11.6196482665
 10
-0.2399046001
 20
-11.6160860109
 10
-0.234178783
 20
-11.6123751618
 10
-0.2285460947
 20
-11.6085064612
 10
-0.2229990722
 20
-11.604472772
 10
-0.2175444914
 20
-11.6002754381
 10
-0.2121926875
 20
-11.5959179241
 10
-0.206953996
 20
-11.5914036946
 10
-0.2018387521
 20
-11.586736214
 10
-0.1968572912
 20
-11.5819189468
 10
-0.1920188251
 20
-11.5769564358
 10
-0.1873280722
 20
-11.5718575364
 10
-0.182788627
 20
-11.5666321823
 10
-0.1784040843
 20
-11.5612903071
 10
-0.1741780389
 20
-11.5558418445
 10
-0.1701140855
 20
-11.5502967282
 10
-0.1662137056
 20
-11.5446613937
 10
-0.1624699282
 20
-11.538928284
 10
-0.1588736692
 20
-11.533086344
 10
-0.1554192412
 20
-11.5271299054
 10
-0.1521145446
 20
-11.5210748469
 10
-0.1489708771
 20
-11.5149424343
 10
-0.1454237045
 20
-11.5075075175
 10
-0.1421247841
 20
-11.5000054439
 10
-0.1390742182
 20
-11.4924498244
 10
-0.1362721091
 20
-11.48485427
 10
-0.133718559
 20
-11.4772323914
 10
-0.1314131774
 20
-11.4695961307
 10
-0.1293536027
 20
-11.461950755
 10
-0.1275369806
 20
-11.4542998625
 10
-0.1259604566
 20
-11.4466470513
 10
-0.1246211766
 20
-11.4389959196
 10
-0.1235174241
 20
-11.4313461507
 10
-0.122652034
 20
-11.4236817674
 10
-0.1220289794
 20
-11.4159828775
 10
-0.1216522332
 20
-11.4082295888
 10
-0.1215257682
 20
-11.4004020091
  0
LWPOLYLINE
  5
29A
100
AcDbEntity
  8
0
100
AcDbPolyline
 62
253
  6
CONTINUOUS
 90
55
 70
0
 10
-0.3774660395
 20
-10.6168825649
 10
-0.3851881771
 20
-10.6170063814
 10
-0.392840797
 20
-10.6173754636
 10
-0.4004436146
 20
-10.6179862604
 10
-0.4080163454
 20
-10.618835221
 10
-0.4155787048
 20
-10.6199187943
 10
-0.4231465054
 20
-10.6212345189
 10
-0.4307199477
 20
-10.6227842921
 10
-0.4382953297
 20
-10.6245711007
 10
-0.4458689491
 20
-10.6265979317
 10
-0.4534371037
 20
-10.6288677719
 10
-0.4609944938
 20
-10.6313831377
 10
-0.4685294305
 20
-10.6341446637
 10
-0.4760286274
 20
-10.6371525141
 10
-0.4834787981
 20
-10.6404068532
 10
-0.4908666562
 20
-10.6439078449
 10
-0.496963853
 20
-10.6470120806
 10
-0.5029878653
 20
-10.6502770651
 10
-0.5089180074
 20
-10.6536921462
 10
-0.5147388746
 20
-10.6572499983
 10
-0.5204561835
 20
-10.6609566
 10
-0.5260809312
 20
-10.6648212562
 10
-0.5316205494
 20
-10.6688511445
 10
-0.5370682078
 20
-10.6730449339
 10
-0.5424135104
 20
-10.6773991663
 10
-0.5476460614
 20
-10.6819103833
 10
-0.552755465
 20
-10.6865751267
 10
-0.5577313254
 20
-10.6913899384
 10
-0.5625643815
 20
-10.6963502844
 10
-0.5672499108
 20
-10.7014473279
 10
-0.5717843258
 20
-10.7066711563
 10
-0.576164039
 20
-10.7120118571
 10
-0.5803854626
 20
-10.7174595178
 10
-0.5844450092
 20
-10.7230042257
 10
-0.5883412004
 20
-10.7286395651
 10
-0.5920809956
 20
-10.7343731064
 10
-0.5956734631
 20
-10.7402159171
 10
-0.5991242769
 20
-10.7461736709
 10
-0.6024255321
 20
-10.7522304676
 10
-0.605565929
 20
-10.7583650132
 10
-0.6091094007
 20
-10.7658029771
 10
-0.6124048694
 20
-10.7733086128
 10
-0.6154522394
 20
-10.7808682967
 10
-0.6182514151
 20
-10.7884684049
 10
-0.6208023008
 20
-10.7960953139
 10
-0.623105292
 20
-10.8037370668
 10
-0.6251627491
 20
-10.8113883757
 10
-0.6269775235
 20
-10.8190456193
 10
-0.6285524668
 20
-10.8267051764
 10
-0.6298904305
 20
-10.8343634261
 10
-0.6309931269
 20
-10.8420206744
 10
-0.6318577125
 20
-10.8496929366
 10
-0.6324802045
 20
-10.8574001551
 10
-0.6328566204
 20
-10.8651622726
 10
-0.6329829774
 20
-10.8729992315
  0
LINE
  5
29B
100
AcDbEntity
  8
ASSI
100
AcDbLine
 62
253
  6
CONTINUOUS
 10
-11.2537401621
 20
-9.7954362443
 11
-11.2163573607
 21
-9.7962749319
  0
LINE
  5
29C
100
AcDbEntity
  8
ASSI
100
AcDbLine
 62
253
  6
CONTINUOUS
 10
-11.2784513423
 20
-9.7947593586
 11
-11.2537401621
 21
-9.7954362443
  0
LINE
  5
29D
100
AcDbEntity
  8
ASSI
100
AcDbLine
 62
253
  6
CONTINUOUS
 10
-11.3001099937
 20
-9.7940468872
 11
-11.2784513423
 21
-9.7947593586
  0
LINE
  5
29E
100
AcDbEntity
  8
ASSI
100
AcDbLine
 62
253
  6
CONTINUOUS
 10
-11.3127744702
 20
-9.7935546869
 11
-11.3001099937
 21
-9.7940468872
  0
LINE
  5
29F
100
AcDbEntity
  8
0
100
AcDbLine
 62
253
  6
CONTINUOUS
 10
-1.7096356827
 20
-12.3218271336
 11
-2.1708823826
 21
-12.0561806201
  0
LINE
  5
2A0
100
AcDbEntity
  8
0
100
AcDbLine
 62
253
  6
CONTINUOUS
 10
0.9589972598
 20
-13.2725231197
 11
1.416373637
 21
-13.5360833975
  0
LINE
  5
2A1
100
AcDbEntity
  8
0
100
AcDbLine
 62
253
  6
CONTINUOUS
 10
-1.9149068336
 20
-11.6128095091
 11
-1.458059623
 21
-11.876969509
  0
LINE
  5
2A2
100
AcDbEntity
  8
0
100
AcDbLine
 62
253
  6
CONTINUOUS
 10
1.1602569768
 20
-13.9794897862
 11
0.7035508774
 21
-13.7153297863
  0
LWPOLYLINE
  5
2A3
100
AcDbEntity
  8
0
100
AcDbPolyline
 62
253
  6
CONTINUOUS
 90
53
 70
0
 10
0.7035508774
 20
-13.7153297863
 10
0.6968909543
 20
-13.7113740219
 10
0.6904157954
 20
-13.7072381969
 10
0.684106445
 20
-13.7029157817
 10
0.6779439475
 20
-13.6984002466
 10
0.6719093474
 20
-13.6936850621
 10
0.6659876103
 20
-13.68876466
 10
0.6601793875
 20
-13.6836373176
 10
0.6544892517
 20
-13.6783022739
 10
0.6489217757
 20
-13.6727587677
 10
0.6434815321
 20
-13.6670060379
 10
0.638174276
 20
-13.6610445618
 10
0.6330104919
 20
-13.6548797699
 10
0.6280018469
 20
-13.6485183313
 10
0.6231600077
 20
-13.641966915
 10
0.6184966414
 20
-13.6352321902
 10
0.6147562468
 20
-13.6294873871
 10
0.6111606066
 20
-13.6236398789
 10
0.6077224337
 20
-13.6177096271
 10
0.604451486
 20
-13.6117110159
 10
0.6013457031
 20
-13.6056361218
 10
0.5984000693
 20
-13.5994714444
 10
0.5950731379
 20
-13.5919425479
 10
0.5919818961
 20
-13.5842790292
 10
0.5891386409
 20
-13.5764949951
 10
0.586555669
 20
-13.5686045521
 10
0.5842452774
 20
-13.560621807
 10
0.5822171783
 20
-13.5525615188
 10
0.5804707443
 20
-13.5444410564
 10
0.5790027635
 20
-13.5362784411
 10
0.5778100238
 20
-13.528091694
 10
0.5768893131
 20
-13.5198988365
 10
0.5763274619
 20
-13.5130756901
 10
0.5759499806
 20
-13.5062466515
 10
0.5757545608
 20
-13.4993975567
 10
0.5757391423
 20
-13.4925206315
 10
0.5759026578
 20
-13.4856336579
 10
0.5762442884
 20
-13.4787608076
 10
0.5768873193
 20
-13.4705610837
 10
0.5777789332
 20
-13.4624283945
 10
0.5789124066
 20
-13.4543746305
 10
0.580281016
 20
-13.4464116819
 10
0.5818780378
 20
-13.4385514392
 10
0.5836971616
 20
-13.4308040778
 10
0.585733729
 20
-13.4231729131
 10
0.5879834948
 20
-13.415659546
 10
0.5904422137
 20
-13.4082655768
 10
0.5931056405
 20
-13.4009926063
 10
0.5959724673
 20
-13.3938394478
 10
0.5990531362
 20
-13.3867937653
 10
0.6023610268
 20
-13.3798404357
 10
0.6059095185
 20
-13.3729643356
 10
0.6097119909
 20
-13.3661503419
  0
LWPOLYLINE
  5
2A4
100
AcDbEntity
  8
0
100
AcDbPolyline
 62
253
  6
CONTINUOUS
 90
53
 70
0
 10
1.416373637
 20
-13.5360833975
 10
1.4229993431
 20
-13.5400621151
 10
1.4294420937
 20
-13.5442189317
 10
1.4357205492
 20
-13.5485604951
 10
1.4418533701
 20
-13.5530934526
 10
1.4478592168
 20
-13.5578244519
 10
1.4537528785
 20
-13.5627591566
 10
1.4595336587
 20
-13.5678992945
 10
1.4651969897
 20
-13.5732456095
 10
1.4707383038
 20
-13.5787988454
 10
1.4761530331
 20
-13.584559746
 10
1.4814354538
 20
-13.5905278361
 10
1.4865752172
 20
-13.5966977637
 10
1.4915608185
 20
-13.6030629577
 10
1.496380753
 20
-13.609616847
 10
1.5010235157
 20
-13.6163528604
 10
1.5047478673
 20
-13.6220979452
 10
1.5083286698
 20
-13.6279452895
 10
1.5117533993
 20
-13.633875241
 10
1.5150124395
 20
-13.6398736624
 10
1.5181078033
 20
-13.6459484764
 10
1.5210444111
 20
-13.6521131205
 10
1.5243622413
 20
-13.6596419752
 10
1.5274462352
 20
-13.6673054705
 10
1.5302840797
 20
-13.6750895414
 10
1.5328634616
 20
-13.6829801228
 10
1.5351720679
 20
-13.6909631498
 10
1.5372001511
 20
-13.699023938
 10
1.5389482255
 20
-13.707145326
 10
1.5404193713
 20
-13.7153095334
 10
1.5416166684
 20
-13.7234987794
 10
1.5425431968
 20
-13.7316952835
 10
1.5431107728
 20
-13.7385224783
 10
1.5434947406
 20
-13.7453564248
 10
1.5436973867
 20
-13.752211182
 10
1.5437207456
 20
-13.7590944583
 10
1.5435658426
 20
-13.7659885586
 10
1.5432334507
 20
-13.7728694369
 10
1.5426022699
 20
-13.7810801358
 10
1.5417232704
 20
-13.7892253439
 10
1.5406031039
 20
-13.797293236
 10
1.5392484223
 20
-13.805271987
 10
1.5376658774
 20
-13.8131497716
 10
1.5358617126
 20
-13.820916472
 10
1.5338405371
 20
-13.8285687999
 10
1.5316065517
 20
-13.8361051742
 10
1.5291639571
 20
-13.843524014
 10
1.5265169541
 20
-13.8508237382
 10
1.5236668477
 20
-13.8580055418
 10
1.5206033592
 20
-13.8650817237
 10
1.5173133142
 20
-13.8720673585
 10
1.5137835382
 20
-13.8789775211
 10
1.5100008568
 20
-13.8858272863
  0
LWPOLYLINE
  5
2A5
100
AcDbEntity
  8
0
100
AcDbPolyline
 62
253
  6
CONTINUOUS
 90
53
 70
0
 10
-1.458059623
 20
-11.876969509
 10
-1.4514367088
 20
-11.8809555225
 10
-1.4449955343
 20
-11.8851169003
 10
-1.4387173341
 20
-11.8894605857
 10
-1.4325833424
 20
-11.8939935222
 10
-1.4265747936
 20
-11.8987226529
 10
-1.4206768411
 20
-11.9036538948
 10
-1.4148903141
 20
-11.9087890594
 10
-1.4092199606
 20
-11.9141289318
 10
-1.4036705287
 20
-11.9196742972
 10
-1.3982467666
 20
-11.9254259405
 10
-1.3929545682
 20
-11.9313834468
 10
-1.3878044116
 20
-11.9375416007
 10
-1.3828079205
 20
-11.9438939866
 10
-1.3779767189
 20
-11.9504341891
 10
-1.3733224306
 20
-11.9571557925
 10
-1.3695883649
 20
-11.9628884484
 10
-1.3659978332
 20
-11.968723178
 10
-1.3625634408
 20
-11.9746405372
 10
-1.3592948832
 20
-11.9806265876
 10
-1.3561902154
 20
-11.9866894133
 10
-1.3532445824
 20
-11.9928426043
 10
-1.3499164155
 20
-12.0003585898
 10
-1.346822894
 20
-12.0080101935
 10
-1.3439766442
 20
-12.0157833383
 10
-1.3413902924
 20
-12.023663947
 10
-1.3390764651
 20
-12.0316379426
 10
-1.3370451429
 20
-12.0396905969
 10
-1.3352957245
 20
-12.0478045767
 10
-1.3338249626
 20
-12.0559618977
 10
-1.3326296102
 20
-12.0641445755
 10
-1.3317064201
 20
-12.0723346259
 10
-1.3311425682
 20
-12.0791564105
 10
-1.3307630682
 20
-12.0859849315
 10
-1.3305655253
 20
-12.0928342947
 10
-1.3305477987
 20
-12.0997122608
 10
-1.3307087649
 20
-12.1066012108
 10
-1.3310475541
 20
-12.1134771808
 10
-1.3316867333
 20
-12.1216824062
 10
-1.3325740031
 20
-12.1298226385
 10
-1.3337026409
 20
-12.137886084
 10
-1.3350659242
 20
-12.1458609488
 10
-1.3366571306
 20
-12.153735439
 10
-1.3384699407
 20
-12.1614994357
 10
-1.3404996489
 20
-12.1691495187
 10
-1.3427419525
 20
-12.176683943
 10
-1.345192549
 20
-12.1841009634
 10
-1.347847136
 20
-12.1913988346
 10
-1.3507043533
 20
-12.1985786598
 10
-1.3537746096
 20
-12.2056529346
 10
-1.3570712563
 20
-12.2126370032
 10
-1.3606076445
 20
-12.2195462096
 10
-1.3643971254
 20
-12.2263958978
  0
LWPOLYLINE
  5
2A6
100
AcDbEntity
  8
0
100
AcDbPolyline
 62
253
  6
CONTINUOUS
 90
53
 70
0
 10
-2.1708823826
 20
-12.0561806201
 10
-2.1775386126
 20
-12.0521724435
 10
-2.1840099788
 20
-12.0479875954
 10
-2.1903153013
 20
-12.0436193572
 10
-2.1964734
 20
-12.0390610101
 10
-2.2025030948
 20
-12.0343058356
 10
-2.2084193037
 20
-12.0293481065
 10
-2.2142213365
 20
-12.0241860627
 10
-2.219904601
 20
-12.0188189357
 10
-2.225464505
 20
-12.013245957
 10
-2.2308964563
 20
-12.007466358
 10
-2.2361946884
 20
-12.0014806053
 10
-2.2413487383
 20
-11.9952941064
 10
-2.2463469688
 20
-11.9889135035
 10
-2.2511777425
 20
-11.9823454391
 10
-2.2558294222
 20
-11.9755965556
 10
-2.2595596349
 20
-11.9698418259
 10
-2.2631447596
 20
-11.963986025
 10
-2.2665721607
 20
-11.9580490374
 10
-2.269832134
 20
-11.9520452006
 10
-2.2729267017
 20
-11.9459666631
 10
-2.2758608171
 20
-11.9398000261
 10
-2.279173494
 20
-11.9322710809
 10
-2.2822501763
 20
-11.9246098824
 10
-2.2850787875
 20
-11.9168303348
 10
-2.287647251
 20
-11.9089463425
 10
-2.2899434902
 20
-11.9009718097
 10
-2.2919579971
 20
-11.8929213296
 10
-2.293691538
 20
-11.8848122507
 10
-2.2951474476
 20
-11.8766626106
 10
-2.2963290606
 20
-11.8684904465
 10
-2.2972397118
 20
-11.8603137958
 10
-2.2977940795
 20
-11.8535054306
 10
-2.2981649486
 20
-11.8466924601
 10
-2.2983546725
 20
-11.8398608689
 10
-2.2983653592
 20
-11.8330029423
 10
-2.2981981344
 20
-11.8261361696
 10
-2.2978538787
 20
-11.8192843412
 10
-2.2972091858
 20
-11.8111104708
 10
-2.2963174898
 20
-11.803004092
 10
-2.2951854448
 20
-11.7949769189
 10
-2.2938197047
 20
-11.7870406654
 10
-2.2922269234
 20
-11.7792070456
 10
-2.2904133538
 20
-11.7714861024
 10
-2.2883836445
 20
-11.7638811942
 10
-2.2861420428
 20
-11.7563940082
 10
-2.2836927963
 20
-11.7490262318
 10
-2.2810401522
 20
-11.7417795523
 10
-2.2781854378
 20
-11.7346528574
 10
-2.2751182996
 20
-11.7276338372
 10
-2.2718254635
 20
-11.7207073824
 10
-2.2682936557
 20
-11.7138583835
 10
-2.2645096024
 20
-11.7070717312
  0
LWPOLYLINE
  5
2A7
100
AcDbEntity
  8
ASSI
100
AcDbPolyline
 62
253
  6
CONTINUOUS
 90
17
 70
0
 10
-11.4028793091
 20
21.2120424938
 10
-11.4032613128
 20
21.2169883034
 10
-11.4036473609
 20
21.2216696048
 10
-11.4040374464
 20
21.2260868556
 10
-11.4044308947
 20
21.2302324105
 10
-11.4048277113
 20
21.2341057968
 10
-11.4052278908
 20
21.2377074872
 10
-11.4056307421
 20
21.2410312545
 10
-11.4060362708
 20
21.2440766218
 10
-11.4064444713
 20
21.246844066
 10
-11.4068546364
 20
21.24932879
 10
-11.4072667763
 20
21.2515303127
 10
-11.4076808806
 20
21.2534491153
 10
-11.4080962108
 20
21.2550818446
 10
-11.4085125206
 20
21.2564273827
 10
-11.4089300561
 20
21.2574868475
 10
-11.4093488175
 20
21.258260239
  0
LINE
  5
2A8
100
AcDbEntity
  8
ASSI
100
AcDbLine
 62
253
  6
CONTINUOUS
 10
-11.4021280675
 20
21.2013677399
 11
-11.4028793091
 21
21.2120424938
  0
LINE
  5
2A9
100
AcDbEntity
  8
ASSI
100
AcDbLine
 62
253
  6
CONTINUOUS
 10
-11.4013956059
 20
21.1896719691
 11
-11.4021280675
 21
21.2013677399
  0
LWPOLYLINE
  5
2AA
100
AcDbEntity
  8
ASSI
100
AcDbPolyline
 62
253
  6
CONTINUOUS
 90
11
 70
0
 10
-10.905532331
 20
21.7164659787
 10
-10.9059351747
 20
21.7231144852
 10
-10.9063407026
 20
21.7292069652
 10
-10.9067489049
 20
21.7347398844
 10
-10.9071590658
 20
21.7397100244
 10
-10.9075711805
 20
21.7441145066
 10
-10.9079852537
 20
21.7479508089
 10
-10.9084005829
 20
21.7512167355
 10
-10.908816934
 20
21.7539103993
 10
-10.909234541
 20
21.756030233
 10
-10.909653404
 20
21.7575750063
  0
LINE
  5
2AB
100
AcDbEntity
  8
ASSI
100
AcDbLine
 62
253
  6
CONTINUOUS
 10
-10.9047353546
 20
21.7015165169
 11
-10.905532331
 21
21.7164659787
  0
LINE
  5
2AC
100
AcDbEntity
  8
ASSI
100
AcDbLine
 62
253
  6
CONTINUOUS
 10
-10.9039518332
 20
21.6843930274
 11
-10.9047353546
 21
21.7015165169
  0
LWPOLYLINE
  5
2AD
100
AcDbEntity
  8
ASSI
100
AcDbPolyline
 62
253
  6
CONTINUOUS
 90
3
 70
0
 10
-10.9028058353
 20
21.6547193821
 10
-10.9031837944
 20
21.6651350754
 10
-10.9039518332
 20
21.6843930274
  0
LINE
  5
2AE
100
AcDbEntity
  8
ASSI
100
AcDbLine
 62
253
  6
CONTINUOUS
 10
-10.9035657911
 20
-22.2737657249
 11
-10.9028058353
 21
-22.2534569133
  0
LINE
  5
2AF
100
AcDbEntity
  8
ASSI
100
AcDbLine
 62
253
  6
CONTINUOUS
 10
-10.904341913
 20
-22.2919617016
 11
-10.9035657911
 21
-22.2737657249
  0
LINE
  5
2B0
100
AcDbEntity
  8
ASSI
100
AcDbLine
 62
253
  6
CONTINUOUS
 10
-11.4021280675
 20
-21.800105271
 11
-11.4013956059
 21
-21.7884095003
  0
LINE
  5
2B1
100
AcDbEntity
  8
0
100
AcDbLine
 62
253
  6
CONTINUOUS
 10
-2.4541280665
 20
10.4393880487
 11
-1.6966436413
 21
11.1974722152
  0
LINE
  5
2B2
100
AcDbEntity
  8
0
100
AcDbLine
 62
253
  6
CONTINUOUS
 10
-1.3348347617
 20
10.8356280486
 11
-2.0921427979
 21
10.0781788821
  0
LINE
  5
2B3
100
AcDbEntity
  8
0
100
AcDbLine
 62
253
  6
CONTINUOUS
 10
0.6543379653
 20
13.5483480479
 11
1.4118236773
 21
14.3054797144
  0
LINE
  5
2B4
100
AcDbEntity
  8
0
100
AcDbLine
 62
253
  6
CONTINUOUS
 10
1.773490159
 20
13.9436708256
 11
1.0158646228
 21
13.1865038813
  0
LWPOLYLINE
  5
2B5
100
AcDbEntity
  8
0
100
AcDbPolyline
 62
253
  6
CONTINUOUS
 90
37
 70
0
 10
1.0158646228
 20
13.1865038813
 10
1.0117905004
 20
13.1824780239
 10
1.0076287288
 20
13.1785674676
 10
1.0033803826
 20
13.1747694254
 10
0.9990465367
 20
13.1710811103
 10
0.994628266
 20
13.1674997352
 10
0.9901266451
 20
13.1640225132
 10
0.9855427489
 20
13.1606466572
 10
0.9808781233
 20
13.1573700634
 10
0.9761361979
 20
13.1541933606
 10
0.9713208738
 20
13.1511178608
 10
0.9664360516
 20
13.148144876
 10
0.9614856324
 20
13.1452757181
 10
0.9564735168
 20
13.1425116991
 10
0.9514036058
 20
13.1398541311
 10
0.9462794485
 20
13.1373042391
 10
0.9411031874
 20
13.1348629011
 10
0.935876613
 20
13.1325309083
 10
0.9306015163
 20
13.1303090517
 10
0.9252796878
 20
13.1281981225
 10
0.9199129183
 20
13.1261989118
 10
0.9145029985
 20
13.1243122108
 10
0.9090517976
 20
13.1225390217
 10
0.9035614981
 20
13.1208811916
 10
0.898034361
 20
13.1193407787
 10
0.8924726473
 20
13.1179198413
 10
0.8868786181
 20
13.1166204376
 10
0.8812545343
 20
13.1154446259
 10
0.8756026569
 20
13.1143944643
 10
0.8706359033
 20
13.113580456
 10
0.8656490823
 20
13.112866759
 10
0.8606416751
 20
13.1122559079
 10
0.8556131628
 20
13.1117504371
 10
0.8505630263
 20
13.1113528812
 10
0.8454907468
 20
13.1110657747
 10
0.8403958053
 20
13.1108916521
 10
0.8352776829
 20
13.110833048
  0
LWPOLYLINE
  5
2B6
100
AcDbEntity
  8
0
100
AcDbPolyline
 62
253
  6
CONTINUOUS
 90
36
 70
0
 10
-2.0921427979
 20
10.0781788821
 10
-2.0962401848
 20
10.0741716822
 10
-2.1004237715
 20
10.0702789884
 10
-2.1046925222
 20
10.0664980748
 10
-2.1090454014
 20
10.0628262155
 10
-2.1134813734
 20
10.0592606846
 10
-2.1179994028
 20
10.0557987563
 10
-2.1225984538
 20
10.0524377045
 10
-2.1272770345
 20
10.0491754705
 10
-2.1320318275
 20
10.0460126629
 10
-2.1368590588
 20
10.0429505575
 10
-2.1417549546
 20
10.0399904299
 10
-2.1467157411
 20
10.0371335559
 10
-2.1517376443
 20
10.0343812112
 10
-2.1568168904
 20
10.0317346714
 10
-2.1619500381
 20
10.0291951378
 10
-2.167134976
 20
10.0267635129
 10
-2.1723699251
 20
10.0244406249
 10
-2.1776531066
 20
10.0222273018
 10
-2.1829827416
 20
10.0201243717
 10
-2.1883570511
 20
10.0181326628
 10
-2.1937742564
 20
10.0162530031
 10
-2.199232501
 20
10.0144864256
 10
-2.2047296185
 20
10.0128347826
 10
-2.2102633648
 20
10.0113001313
 10
-2.2158314959
 20
10.009884529
 10
-2.221431768
 20
10.0085900329
 10
-2.2270619369
 20
10.0074187002
 10
-2.2327197588
 20
10.0063725881
 10
-2.2384034917
 20
10.0054540359
 10
-2.2441134021
 20
10.0046665114
 10
-2.2498502585
 20
10.0040137645
 10
-2.2556148295
 20
10.0034995449
 10
-2.2614078837
 20
10.0031276025
 10
-2.2672301895
 20
10.0029016872
 10
-2.2730825155
 20
10.0028255488
  0
LWPOLYLINE
  5
2B7
100
AcDbEntity
  8
0
100
AcDbPolyline
 62
253
  6
CONTINUOUS
 90
55
 70
0
 10
1.4118236773
 20
14.3054797144
 10
1.4173791958
 20
14.3108617672
 10
1.4230590766
 20
14.3160206567
 10
1.4288746088
 20
14.3209728011
 10
1.4348370808
 20
14.3257346188
 10
1.4409577817
 20
14.3303225279
 10
1.4472460368
 20
14.3347494363
 10
1.4537033185
 20
14.3390142098
 10
1.460329136
 20
14.3431122033
 10
1.4671229983
 20
14.3470387723
 10
1.4740844145
 20
14.3507892718
 10
1.481211425
 20
14.3543582539
 10
1.4884961946
 20
14.3577370577
 10
1.4959294196
 20
14.360916219
 10
1.503501796
 20
14.3638862737
 10
1.5112040201
 20
14.3666377578
 10
1.5177122146
 20
14.3687566038
 10
1.5242819211
 20
14.3707100204
 10
1.5308909407
 20
14.3724909355
 10
1.5375231564
 20
14.3740936671
 10
1.5441867788
 20
14.3755180926
 10
1.5508961007
 20
14.3767654793
 10
1.5576614117
 20
14.3778360742
 10
1.5644769893
 20
14.3787260427
 10
1.5713331081
 20
14.3794305297
 10
1.5782200428
 20
14.3799446804
 10
1.5851280679
 20
14.3802636398
 10
1.592047458
 20
14.3803825529
 10
1.5989685171
 20
14.3802981146
 10
1.6058816656
 20
14.3800132186
 10
1.6127773535
 20
14.3795323087
 10
1.6196460308
 20
14.3788598286
 10
1.6264781472
 20
14.3780002218
 10
1.6332641526
 20
14.3769579321
 10
1.6399984536
 20
14.3757364348
 10
1.6466912833
 20
14.3743353323
 10
1.6533568317
 20
14.3727532587
 10
1.6600031038
 20
14.3709902419
 10
1.6666133658
 20
14.369051885
 10
1.6731646991
 20
14.3669451849
 10
1.6809212344
 20
14.3642043499
 10
1.6885502486
 20
14.3612406657
 10
1.6960420802
 20
14.3580636218
 10
1.7033870681
 20
14.3546827075
 10
1.710575551
 20
14.3511074124
 10
1.7175993859
 20
14.3473463993
 10
1.7244565033
 20
14.3434050251
 10
1.731146352
 20
14.33928782
 10
1.7376683807
 20
14.3349993143
 10
1.7440220383
 20
14.3305440384
 10
1.7502087311
 20
14.3259229629
 10
1.7562376956
 20
14.32112282
 10
1.7621201257
 20
14.3161267826
 10
1.7678672155
 20
14.3109180231
 10
1.773490159
 20
14.3054797144
  0
LWPOLYLINE
  5
2B8
100
AcDbEntity
  8
0
100
AcDbPolyline
 62
253
  6
CONTINUOUS
 90
53
 70
0
 10
-1.6966436413
 20
11.1974722152
 10
-1.6910422064
 20
11.2028555709
 10
-1.6853179725
 20
11.2080147314
 10
-1.6794596529
 20
11.2129660322
 10
-1.6734559604
 20
11.2177258088
 10
-1.6672956083
 20
11.2223103965
 10
-1.6609692695
 20
11.2267326444
 10
-1.6544754575
 20
11.2309914565
 10
-1.6478146457
 20
11.2350822502
 10
-1.6409873075
 20
11.2390004431
 10
-1.6339939164
 20
11.2427414528
 10
-1.6268364327
 20
11.246299891
 10
-1.6195227644
 20
11.2496671458
 10
-1.6120623062
 20
11.2528337998
 10
-1.604464453
 20
11.2557904352
 10
-1.5967385997
 20
11.2585276346
 10
-1.5902122086
 20
11.2606339596
 10
-1.5836258091
 20
11.2625743759
 10
-1.5770017577
 20
11.2643419012
 10
-1.5703563314
 20
11.2659309343
 10
-1.5636814892
 20
11.2673414005
 10
-1.5569631105
 20
11.2685746064
 10
-1.5488305199
 20
11.2698206019
 10
-1.5406313857
 20
11.2708052358
 10
-1.5323821903
 20
11.2715205202
 10
-1.5240994164
 20
11.271958467
 10
-1.5157995465
 20
11.2721110879
 10
-1.5074990573
 20
11.2719730226
 10
-1.4992144032
 20
11.2715494218
 10
-1.490962033
 20
11.2708480639
 10
-1.4827583954
 20
11.2698767271
 10
-1.474619939
 20
11.2686431898
 10
-1.4678956224
 20
11.2674195852
 10
-1.4612139457
 20
11.2660179406
 10
-1.4545608612
 20
11.2644368982
 10
-1.4479284381
 20
11.2626764831
 10
-1.4413332124
 20
11.2607422538
 10
-1.4347978369
 20
11.2586411517
 10
-1.4270613537
 20
11.255908894
 10
-1.4194532379
 20
11.2529557087
 10
-1.4119830527
 20
11.249790969
 10
-1.4046603612
 20
11.2464240481
 10
-1.3974947266
 20
11.2428643193
 10
-1.3904942096
 20
11.2391203431
 10
-1.3836608612
 20
11.2351974303
 10
-1.3769952304
 20
11.2311000788
 10
-1.3704978657
 20
11.2268327868
 10
-1.3641693159
 20
11.2224000521
 10
-1.3580081839
 20
11.2178028534
 10
-1.3520052891
 20
11.2130280902
 10
-1.3461495048
 20
11.2080591427
 10
-1.3404297045
 20
11.202879391
 10
-1.3348347617
 20
11.1974722152
  0
LINE
  5
2B9
100
AcDbEntity
  8
ASSI
100
AcDbLine
 62
253
  6
CONTINUOUS
 10
10.4409910889
 20
-9.7962749319
 11
10.38782631
 21
-9.7972056415
  0
LINE
  5
2BA
100
AcDbEntity
  8
ASSI
100
AcDbLine
 62
253
  6
CONTINUOUS
 10
10.38782631
 20
-9.7972056415
 11
10.316023289
 21
-9.798125509
  0
LINE
  5
2BB
100
AcDbEntity
  8
ASSI
100
AcDbLine
 62
253
  6
CONTINUOUS
 10
10.316023289
 20
-9.798125509
 11
10.2238756843
 21
-9.7988940117
  0
LINE
  5
2BC
100
AcDbEntity
  8
ASSI
100
AcDbLine
 62
253
  6
CONTINUOUS
 10
10.2238756843
 20
-9.7988940117
 11
10.1119999987
 21
-9.7993345413
  0
LINE
  5
2BD
100
AcDbEntity
  8
ASSI
100
AcDbLine
 62
253
  6
CONTINUOUS
 10
10.1119999987
 20
-9.7993345413
 11
-10.8589390944
 21
-9.7993687656
  0
LINE
  5
2BE
100
AcDbEntity
  8
ASSI
100
AcDbLine
 62
253
  6
CONTINUOUS
 10
-10.9717299535
 20
-9.7990490732
 11
-10.8589390944
 21
-9.7993687656
  0
LINE
  5
2BF
100
AcDbEntity
  8
ASSI
100
AcDbLine
 62
253
  6
CONTINUOUS
 10
-11.0787062718
 20
-9.798256122
 11
-10.9717299535
 21
-9.7990490732
  0
LINE
  5
2C0
100
AcDbEntity
  8
ASSI
100
AcDbLine
 62
253
  6
CONTINUOUS
 10
-11.151785789
 20
-9.7973745582
 11
-11.0787062718
 21
-9.798256122
  0
LWPOLYLINE
  5
2C1
100
AcDbEntity
  8
ASSI
100
AcDbPolyline
 62
253
  6
CONTINUOUS
 90
3
 70
0
 10
-11.2163573607
 20
-9.7962749319
 10
-11.2062693369
 20
-9.7964720627
 10
-11.151785789
 20
-9.7973745582
  0
LWPOLYLINE
  5
2C2
100
AcDbEntity
  8
0
100
AcDbPolyline
 62
253
  6
CONTINUOUS
 90
53
 70
0
 10
-2.2645096024
 20
-13.8858272863
 10
-2.2682738111
 20
-13.8790436492
 10
-2.271789654
 20
-13.8721980935
 10
-2.2750700536
 20
-13.8652754756
 10
-2.278127932
 20
-13.8582606517
 10
-2.2809762119
 20
-13.8511384781
 10
-2.2836249374
 20
-13.8438966027
 10
-2.2860726406
 20
-13.8365338394
 10
-2.2883149754
 20
-13.8290517937
 10
-2.2903475957
 20
-13.8214520713
 10
-2.2921661555
 20
-13.8137362777
 10
-2.2937659071
 20
-13.8059076726
 10
-2.2951404973
 20
-13.7979761324
 10
-2.2962831711
 20
-13.7899531878
 10
-2.2971871737
 20
-13.7818503693
 10
-2.2978457503
 20
-13.7736792075
 10
-2.2982026929
 20
-13.7668288202
 10
-2.2983834826
 20
-13.7599624644
 10
-2.298387092
 20
-13.753103625
 10
-2.2982122578
 20
-13.7462695144
 10
-2.2978567723
 20
-13.7394522556
 10
-2.2973181921
 20
-13.7326376991
 10
-2.2964268742
 20
-13.7244509933
 10
-2.2952647825
 20
-13.7162660561
 10
-2.2938283187
 20
-13.70810114
 10
-2.2921138844
 20
-13.6999744975
 10
-2.290117881
 20
-13.691904381
 10
-2.2878392756
 20
-13.6839083283
 10
-2.2852872965
 20
-13.6760010197
 10
-2.2824737374
 20
-13.6681964207
 10
-2.279410392
 20
-13.660508497
 10
-2.276109054
 20
-13.6529512142
 10
-2.2731826723
 20
-13.6467597737
 10
-2.2700941808
 20
-13.6406553838
 10
-2.2668385524
 20
-13.6346246737
 10
-2.2634137181
 20
-13.6286598953
 10
-2.2598294426
 20
-13.6227757905
 10
-2.2560984491
 20
-13.6169927237
 10
-2.2514437895
 20
-13.6102103699
 10
-2.246607882
 20
-13.6036097236
 10
-2.2416024313
 20
-13.5971976727
 10
-2.2364391422
 20
-13.5909811052
 10
-2.2311297198
 20
-13.584966909
 10
-2.2256846691
 20
-13.5791607054
 10
-2.2201096973
 20
-13.5735630492
 10
-2.214409312
 20
-13.5681732284
 10
-2.2085880206
 20
-13.5629905312
 10
-2.2026503306
 20
-13.5580142456
 10
-2.1965968193
 20
-13.5532426945
 10
-2.1904123429
 20
-13.5486703385
 10
-2.1840778274
 20
-13.5442906734
 10
-2.1775741986
 20
-13.5400971946
 10
-2.1708823826
 20
-13.5360833975
  0
LWPOLYLINE
  5
2C3
100
AcDbEntity
  8
0
100
AcDbPolyline
 62
253
  6
CONTINUOUS
 90
53
 70
0
 10
0.6543379653
 20
11.1974722152
 10
0.6598959572
 20
11.2028448989
 10
0.6655783592
 20
11.2079942529
 10
0.6713963896
 20
11.2129366197
 10
0.6773612667
 20
11.2176883419
 10
0.6834842085
 20
11.2222657619
 10
0.6897744827
 20
11.2266817343
 10
0.6962335551
 20
11.2309351613
 10
0.7028609404
 20
11.2350214569
 10
0.7096561539
 20
11.2389360354
 10
0.7166187105
 20
11.2426743109
 10
0.7237466501
 20
11.2462308965
 10
0.7310321118
 20
11.2495972015
 10
0.7384657595
 20
11.2527638344
 10
0.746038257
 20
11.2557214034
 10
0.7537402684
 20
11.258460517
 10
0.7602480052
 20
11.2605692002
 10
0.7668169681
 20
11.2625126607
 10
0.7734249263
 20
11.264283903
 10
0.7800557141
 20
11.2658773113
 10
0.7867174248
 20
11.2672927894
 10
0.7934242169
 20
11.268531621
 10
0.8015449578
 20
11.2697851231
 10
0.8097343582
 20
11.2707779418
 10
0.8179757723
 20
11.2715019163
 10
0.8262525545
 20
11.2719488856
 10
0.8345480592
 20
11.2721106888
 10
0.8428456854
 20
11.2719817951
 10
0.8511290113
 20
11.2715671935
 10
0.85938166
 20
11.270874503
 10
0.8675872544
 20
11.2699113428
 10
0.8757294176
 20
11.2686853318
 10
0.88245821
 20
11.2674673958
 10
0.8891456592
 20
11.2660708156
 10
0.8958058445
 20
11.264494191
 10
0.9024466925
 20
11.2627375116
 10
0.9090515196
 20
11.2608063245
 10
0.9155974899
 20
11.2587075665
 10
0.9233477804
 20
11.2559772004
 10
0.9309707961
 20
11.25302493
 10
0.9384569003
 20
11.2498601644
 10
0.9457964559
 20
11.2464923125
 10
0.9529798263
 20
11.2429307834
 10
0.9599988927
 20
11.2391841656
 10
0.9668516083
 20
11.2352577652
 10
0.9735374448
 20
11.2311560679
 10
0.9800558734
 20
11.2268835592
 10
0.9864063657
 20
11.2224447247
 10
0.9925903398
 20
11.2178405264
 10
0.9986170007
 20
11.2130578321
 10
1.0044975003
 20
11.208079986
 10
1.0102429904
 20
11.2028903323
 10
1.0158646228
 20
11.1974722152
  0
LWPOLYLINE
  5
2C4
100
AcDbEntity
  8
0
100
AcDbPolyline
 62
253
  6
CONTINUOUS
 90
53
 70
0
 10
-1.3643971254
 20
-13.3661503419
 10
-1.3606255526
 20
-13.3729341482
 10
-1.3571037053
 20
-13.3797804859
 10
-1.3538185886
 20
-13.3867044048
 10
-1.3507572078
 20
-13.3937209544
 10
-1.3479065679
 20
-13.4008451845
 10
-1.3452565538
 20
-13.4080893689
 10
-1.3428085693
 20
-13.4154546778
 10
-1.3405668976
 20
-13.4229395056
 10
-1.3385358221
 20
-13.4305422467
 10
-1.3367196261
 20
-13.4382612955
 10
-1.3351229939
 20
-13.4460933839
 10
-1.3337522138
 20
-13.4540285937
 10
-1.332613975
 20
-13.4620553441
 10
-1.3317149668
 20
-13.4701620546
 10
-1.3310618783
 20
-13.4783371444
 10
-1.3307098334
 20
-13.485190787
 10
-1.3305341675
 20
-13.4920603029
 10
-1.3305358365
 20
-13.4989221217
 10
-1.3307160352
 20
-13.5057589502
 10
-1.3310769132
 20
-13.5125786043
 10
-1.3316208588
 20
-13.5193951769
 10
-1.3325184962
 20
-13.5275837546
 10
-1.3336866615
 20
-13.535770033
 10
-1.3351288262
 20
-13.5439358564
 10
-1.3368484618
 20
-13.5520630689
 10
-1.3388490398
 20
-13.5601335147
 10
-1.3411314953
 20
-13.5681297432
 10
-1.3436866175
 20
-13.5760371251
 10
-1.3465026593
 20
-13.5838417363
 10
-1.3495678737
 20
-13.5915296527
 10
-1.3528705136
 20
-13.5990869502
 10
-1.3557975796
 20
-13.6052784379
 10
-1.3588864149
 20
-13.6113828729
 10
-1.3621420678
 20
-13.6174135796
 10
-1.3655666283
 20
-13.6233782668
 10
-1.3691503526
 20
-13.6292621818
 10
-1.3728805387
 20
-13.6350449565
 10
-1.3775339199
 20
-13.6418268195
 10
-1.3823682415
 20
-13.6484268151
 10
-1.3873718298
 20
-13.6548380484
 10
-1.3925330112
 20
-13.6610536242
 10
-1.3978401119
 20
-13.6670666474
 10
-1.4032826609
 20
-13.6728714937
 10
-1.4088549978
 20
-13.6784676216
 10
-1.4145526648
 20
-13.6838557606
 10
-1.4203712043
 20
-13.6890366399
 10
-1.4263061585
 20
-13.6940109889
 10
-1.4323569776
 20
-13.6987804906
 10
-1.4385387437
 20
-13.7033506424
 10
-1.4448704467
 20
-13.7077278953
 10
-1.4513710764
 20
-13.7119187003
 10
-1.458059623
 20
-13.7159295085
  0
LWPOLYLINE
  5
2C5
100
AcDbEntity
  8
0
100
AcDbPolyline
 62
253
  6
CONTINUOUS
 90
37
 70
0
 10
1.773490159
 20
10.0781788821
 10
1.7693830495
 20
10.0741939985
 10
1.7651917644
 20
10.0703210744
 10
1.760917268
 20
10.0665575404
 10
1.7565605241
 20
10.062900827
 10
1.7521224969
 20
10.0593483646
 10
1.7476041504
 20
10.0558975839
 10
1.7430064486
 20
10.0525459153
 10
1.7383307723
 20
10.0492914312
 10
1.7335801693
 20
10.0461347707
 10
1.728758104
 20
10.0430772151
 10
1.7238680409
 20
10.0401200453
 10
1.7189134445
 20
10.0372645425
 10
1.7138977793
 20
10.0345119876
 10
1.7088245096
 20
10.0318636619
 10
1.7036968253
 20
10.0293208048
 10
1.6985168171
 20
10.0268844898
 10
1.6932863011
 20
10.024555749
 10
1.6880070932
 20
10.0223356143
 10
1.6826810096
 20
10.0202251178
 10
1.6773098662
 20
10.0182252914
 10
1.671895479
 20
10.0163371672
 10
1.6664397319
 20
10.0145619663
 10
1.6609447796
 20
10.0129016669
 10
1.6554128449
 20
10.0113584362
 10
1.6498461502
 20
10.0099344416
 10
1.6442469182
 20
10.0086318504
 10
1.6386173715
 20
10.0074528299
 10
1.6329597326
 20
10.0063995473
 10
1.6279876682
 20
10.0055829614
 10
1.6229952865
 20
10.0048668829
 10
1.6179820765
 20
10.0042538919
 10
1.6129475273
 20
10.0037465684
 10
1.6078911279
 20
10.0033474923
 10
1.6028123674
 20
10.0030592437
 10
1.5977107348
 20
10.0028844025
 10
1.5925857192
 20
10.0028255488
  0
LWPOLYLINE
  5
2C6
100
AcDbEntity
  8
0
100
AcDbPolyline
 62
253
  6
CONTINUOUS
 90
53
 70
0
 10
0.6097119909
 20
-12.2263958978
 10
0.6059567926
 20
-12.2196693946
 10
0.602448239
 20
-12.2128793603
 10
0.5991734224
 20
-12.2060105784
 10
0.596119435
 20
-12.1990478322
 10
0.593273369
 20
-12.191975905
 10
0.5906252056
 20
-12.1847823987
 10
0.5881764811
 20
-12.1774661883
 10
0.5859316209
 20
-12.1700289674
 10
0.5838950501
 20
-12.1624724294
 10
0.5820711942
 20
-12.1547982678
 10
0.5804648709
 20
-12.1470097887
 10
0.579082468
 20
-12.1391167482
 10
0.5779307661
 20
-12.1311305152
 10
0.5770165454
 20
-12.1230624583
 10
0.5763465866
 20
-12.1149239463
 10
0.5759793068
 20
-12.108098999
 10
0.5757875178
 20
-12.1012561824
 10
0.5757723757
 20
-12.0944186592
 10
0.5759352717
 20
-12.0876033608
 10
0.5762785379
 20
-12.0808022924
 10
0.5768047419
 20
-12.0740012278
 10
0.5776811921
 20
-12.0658271348
 10
0.5788286818
 20
-12.057651238
 10
0.5802511231
 20
-12.0494922137
 10
0.581952428
 20
-12.0413687382
 10
0.5839365085
 20
-12.0332994879
 10
0.5862046916
 20
-12.0253023507
 10
0.5887479633
 20
-12.0173920609
 10
0.5915547243
 20
-12.0095825646
 10
0.5946133756
 20
-12.0018878076
 10
0.5979123179
 20
-11.9943217359
 10
0.6008385881
 20
-11.9881214556
 10
0.6039287443
 20
-11.982006796
 10
0.6071878589
 20
-11.9759643284
 10
0.6106180224
 20
-11.9699862928
 10
0.6142093987
 20
-11.9640876043
 10
0.6179491699
 20
-11.9582888472
 10
0.6226164528
 20
-11.9514864601
 10
0.627467159
 20
-11.9448645636
 10
0.6324894808
 20
-11.9384301063
 10
0.6376716105
 20
-11.9321900368
 10
0.6430017404
 20
-11.9261513037
 10
0.6484692719
 20
-11.9203195815
 10
0.6540684441
 20
-11.9146954478
 10
0.6597947052
 20
-11.9092782062
 10
0.6656435033
 20
-11.9040671604
 10
0.6716102866
 20
-11.8990616137
 10
0.6776944731
 20
-11.89425989
 10
0.6839113592
 20
-11.8896563934
 10
0.6902802112
 20
-11.8852445482
 10
0.6968202952
 20
-11.8810177786
 10
0.7035508774
 20
-11.876969509
  0
LWPOLYLINE
  5
2C7
100
AcDbEntity
  8
0
100
AcDbPolyline
 62
253
  6
CONTINUOUS
 90
55
 70
0
 10
-3.3294402664
 20
12.1918469371
 10
-3.3293151689
 20
12.1996179214
 10
-3.3289423834
 20
12.2073175842
 10
-3.3283256702
 20
12.214965478
 10
-3.3274687898
 20
12.2225811552
 10
-3.3263755024
 20
12.2301841682
 10
-3.3250484593
 20
12.2377902216
 10
-3.3234858747
 20
12.2453996279
 10
-3.3216848536
 20
12.2530088518
 10
-3.3196425011
 20
12.2606143581
 10
-3.3173559222
 20
12.2682126114
 10
-3.3148227051
 20
12.275798435
 10
-3.3120423704
 20
12.2833600862
 10
-3.3090149221
 20
12.2908841809
 10
-3.305740364
 20
12.2983573351
 10
-3.3022187
 20
12.3057661646
 10
-3.2990970499
 20
12.3118792031
 10
-3.2958147752
 20
12.3179173724
 10
-3.2923828495
 20
12.3238597675
 10
-3.2888089056
 20
12.3296907962
 10
-3.2850872102
 20
12.3354161162
 10
-3.2812086889
 20
12.3410466981
 10
-3.2771663646
 20
12.3465900126
 10
-3.2729616501
 20
12.3520395312
 10
-3.2685980554
 20
12.3573852258
 10
-3.2640790907
 20
12.3626170683
 10
-3.2594082663
 20
12.3677250304
 10
-3.2545890922
 20
12.3726990839
 10
-3.2496261522
 20
12.3775302792
 10
-3.2445283248
 20
12.3822139796
 10
-3.239305562
 20
12.3867466273
 10
-3.2339678159
 20
12.391124664
 10
-3.2285250385
 20
12.3953445316
 10
-3.2229871819
 20
12.3994026722
 10
-3.2173607092
 20
12.4032976184
 10
-3.2116381283
 20
12.4070362665
 10
-3.2058084579
 20
12.4106276035
 10
-3.1998660598
 20
12.4140772504
 10
-3.1938266671
 20
12.4173773638
 10
-3.1877113557
 20
12.420516734
 10
-3.1802986228
 20
12.4240592186
 10
-3.1728204052
 20
12.4273539477
 10
-3.1652901919
 20
12.4304007777
 10
-3.1577214717
 20
12.433199565
 10
-3.1501277335
 20
12.4357501659
 10
-3.1425208091
 20
12.4380529314
 10
-3.1349059033
 20
12.4401101909
 10
-3.127286564
 20
12.4419247683
 10
-3.1196663388
 20
12.4434994875
 10
-3.1120487757
 20
12.4448371724
 10
-3.1044335507
 20
12.4459395222
 10
-3.0968048535
 20
12.446803737
 10
-3.0891430018
 20
12.4474258923
 10
-3.0814283134
 20
12.4478020635
 10
-3.0736411062
 20
12.447928326
  0
LWPOLYLINE
  5
2C8
100
AcDbEntity
  8
ASSI
100
AcDbPolyline
 62
253
  6
CONTINUOUS
 90
13
 70
0
 10
-10.909653404
 20
-22.3563125375
 10
-10.909234541
 20
-22.3547677641
 10
-10.908816934
 20
-22.3526479304
 10
-10.9084005829
 20
-22.3499542667
 10
-10.9079852537
 20
-22.3466883401
 10
-10.9075711805
 20
-22.3428520377
 10
-10.9071590658
 20
-22.3384475555
 10
-10.9067489049
 20
-22.3334774156
 10
-10.9063407026
 20
-22.3279444964
 10
-10.9059351747
 20
-22.3218520163
 10
-10.905532331
 20
-22.3152035099
 10
-10.9051321619
 20
-22.3080028056
 10
-10.904341913
 20
-22.2919617016
  0
LINE
  5
2C9
100
AcDbEntity
  8
ASSI
100
AcDbLine
 62
253
  6
CONTINUOUS
 10
10.2350986693
 20
21.908869175
 11
10.1342871322
 21
21.7575750063
  0
LINE
  5
2CA
100
AcDbEntity
  8
ASSI
100
AcDbLine
 62
253
  6
CONTINUOUS
 10
10.1342871322
 20
-22.3563125375
 11
10.2350986693
 21
-22.5076067061
  0
LWPOLYLINE
  5
2CB
100
AcDbEntity
  8
0
100
AcDbPolyline
 62
253
  6
CONTINUOUS
 90
53
 70
0
 10
1.5100008568
 20
-11.7070717312
 10
1.5137462289
 20
-11.7138174423
 10
1.5172443546
 20
-11.7206258519
 10
1.5205080757
 20
-11.7275120285
 10
1.5235502337
 20
-11.7344910407
 10
1.5263836702
 20
-11.7415779572
 10
1.5290183659
 20
-11.7487850607
 10
1.5314528576
 20
-11.7561134915
 10
1.5336828211
 20
-11.763561604
 10
1.5357039322
 20
-11.7711277528
 10
1.5375118667
 20
-11.7788102922
 10
1.5391019088
 20
-11.7866059474
 10
1.5404677756
 20
-11.7945049253
 10
1.541602793
 20
-11.8024958038
 10
1.5425002864
 20
-11.8105671604
 10
1.5431535814
 20
-11.8187075728
 10
1.5435071108
 20
-11.8255329884
 10
1.5436853959
 20
-11.8323751868
 10
1.5436874093
 20
-11.8392109276
 10
1.5435118851
 20
-11.8460231845
 10
1.543156603
 20
-11.8528197885
 10
1.5426191039
 20
-11.8596147844
 10
1.5417302191
 20
-11.8677793419
 10
1.5405717699
 20
-11.8759435353
 10
1.5391401254
 20
-11.884089091
 10
1.5374316547
 20
-11.8921977356
 10
1.535442727
 20
-11.9002511955
 10
1.5331722442
 20
-11.9082319369
 10
1.5306292393
 20
-11.9161253852
 10
1.5278252782
 20
-11.9239177055
 10
1.5247719268
 20
-11.9315950626
 10
1.5214807508
 20
-11.9391436217
 10
1.5185628238
 20
-11.945329265
 10
1.5154827479
 20
-11.951429127
 10
1.5122354984
 20
-11.9574564772
 10
1.5088189963
 20
-11.9634189828
 10
1.5052429473
 20
-11.9693019031
 10
1.5015200028
 20
-11.975084895
 10
1.4968746754
 20
-11.9818686474
 10
1.4920476669
 20
-11.9884723181
 10
1.4870506076
 20
-11.9948890162
 10
1.4818951279
 20
-12.0011118506
 10
1.476592858
 20
-12.0071339302
 10
1.4711542351
 20
-12.0129496263
 10
1.4655849242
 20
-12.0185583582
 10
1.4598893973
 20
-12.0239608075
 10
1.4540721262
 20
-12.0291576559
 10
1.4481375827
 20
-12.0341495848
 10
1.4420863296
 20
-12.0389382466
 10
1.4359032923
 20
-12.0435291758
 10
1.4295694869
 20
-12.0479288776
 10
1.4230659298
 20
-12.0521438573
 10
1.416373637
 20
-12.0561806201
  0
LWPOLYLINE
  5
2CC
100
AcDbEntity
  8
0
100
AcDbPolyline
 62
253
  6
CONTINUOUS
 90
55
 70
0
 10
-1.7465957664
 20
12.1918469371
 10
-1.7467196975
 20
12.1841051632
 10
-1.7470891
 20
12.1764334492
 10
-1.7477003881
 20
12.1688121095
 10
-1.7485499757
 20
12.1612214583
 10
-1.749634277
 20
12.1536418101
 10
-1.7509508022
 20
12.1460573687
 10
-1.7525014462
 20
12.1384678971
 10
-1.7542892004
 20
12.1308770475
 10
-1.756317056
 20
12.1232884725
 10
-1.7585880043
 20
12.1157058245
 10
-1.7611045647
 20
12.10813437
 10
-1.7638673706
 20
12.1005858319
 10
-1.7668765834
 20
12.0930735472
 10
-1.7701323646
 20
12.0856108527
 10
-1.7736348758
 20
12.0782110856
 10
-1.7767404246
 20
12.0721044819
 10
-1.7800067116
 20
12.0660716221
 10
-1.7834230225
 20
12.0601332892
 10
-1.7869819748
 20
12.0543049641
 10
-1.7906895135
 20
12.0485809205
 10
-1.7945549155
 20
12.0429501306
 10
-1.7985853372
 20
12.0374051263
 10
-1.8027794531
 20
12.0319526796
 10
-1.8071338175
 20
12.0266031224
 10
-1.8116449845
 20
12.0213667866
 10
-1.8163095083
 20
12.016254004
 10
-1.821123943
 20
12.0112751066
 10
-1.8260837547
 20
12.0064393026
 10
-1.8311800573
 20
12.0017513057
 10
-1.8364028767
 20
11.9972147056
 10
-1.8417422386
 20
11.9928330922
 10
-1.8471881688
 20
11.9886100556
 10
-1.8527306932
 20
11.9845491855
 10
-1.8583633418
 20
11.9806519566
 10
-1.8640936611
 20
11.9769113819
 10
-1.869932702
 20
11.9733183592
 10
-1.8758861327
 20
11.9698671801
 10
-1.8819380912
 20
11.9665657112
 10
-1.8880673329
 20
11.9634252131
 10
-1.8954983744
 20
11.9598817229
 10
-1.9029965003
 20
11.9565863315
 10
-1.9105480992
 20
11.9535391247
 10
-1.9181395599
 20
11.9507401883
 10
-1.925757271
 20
11.9481896081
 10
-1.9333892834
 20
11.945886978
 10
-1.9410302956
 20
11.9438299251
 10
-1.9486766682
 20
11.9420155845
 10
-1.9563247619
 20
11.9404410915
 10
-1.9639709374
 20
11.9391035812
 10
-1.971615488
 20
11.9380013247
 10
-1.9792744375
 20
11.9371371369
 10
-1.9869677424
 20
11.9365149684
 10
-1.9947153593
 20
11.9361387702
 10
-2.0025372447
 20
11.9360124928
  0
LINE
  5
2CD
100
AcDbEntity
  8
ASSI
100
AcDbLine
 62
253
  6
CONTINUOUS
 10
10.7360095547
 20
21.4113785422
 11
10.6339825457
 21
21.258260239
  0
LINE
  5
2CE
100
AcDbEntity
  8
ASSI
100
AcDbLine
 62
253
  6
CONTINUOUS
 10
10.7623168641
 20
-0.6493021444
 11
10.5801250378
 21
-0.6948327556
  0
LINE
  5
2CF
100
AcDbEntity
  8
ASSI
100
AcDbLine
 62
253
  6
CONTINUOUS
 10
10.5122406623
 20
-0.3993687656
 11
10.3302772641
 21
-0.4448422916
  0
LWPOLYLINE
  5
2D0
100
AcDbEntity
  8
ASSI
100
AcDbPolyline
 62
253
  6
CONTINUOUS
 90
8
 70
0
 10
10.3302772641
 20
-0.4448422916
 10
10.3299272127
 20
-0.4449043393
 10
10.3293764812
 20
-0.4449661785
 10
10.3286250696
 20
-0.4450278092
 10
10.3276720429
 20
-0.4450892817
 10
10.3265183362
 20
-0.4451505457
 10
10.3251667548
 20
-0.44521145
 10
10.3236168205
 20
-0.4452719927
  0
LWPOLYLINE
  5
2D1
100
AcDbEntity
  8
ASSI
100
AcDbPolyline
 62
253
  6
CONTINUOUS
 90
6
 70
0
 10
10.5801250378
 20
-0.6948327632
 10
10.5794267441
 20
-0.6949004489
 10
10.5783248053
 20
-0.6949679283
 10
10.5768201124
 20
-0.6950351924
 10
10.5749138869
 20
-0.6951022761
 10
10.5726076679
 20
-0.6951691263
  0
LINE
  5
2D2
100
AcDbEntity
  8
ASSI
100
AcDbLine
 62
253
  6
CONTINUOUS
 10
-11.3554913096
 20
-0.6948327556
 11
-11.5376831359
 21
-0.6493021444
  0
LINE
  5
2D3
100
AcDbEntity
  8
ASSI
100
AcDbLine
 62
253
  6
CONTINUOUS
 10
-11.105643536
 20
-0.4448422916
 11
-11.2876069342
 21
-0.3993687656
  0
LINE
  5
2D4
100
AcDbEntity
  8
ASSI
100
AcDbLine
 62
253
  6
CONTINUOUS
 10
10.6339825457
 20
-21.8569977701
 11
10.7360095547
 21
-22.0101160733
  0
LWPOLYLINE
  5
2D5
100
AcDbEntity
  8
0
100
AcDbPolyline
 62
253
  6
CONTINUOUS
 90
55
 70
0
 10
-0.6329829774
 20
-11.4004020091
 10
-0.6328585601
 20
-11.4081686006
 10
-0.632487757
 20
-11.4158641058
 10
-0.6318742409
 20
-11.4235081793
 10
-0.631021685
 20
-11.4311204758
 10
-0.6299337623
 20
-11.4387206498
 10
-0.6286130422
 20
-11.4463244804
 10
-0.627057681
 20
-11.453932243
 10
-0.6252647312
 20
-11.4615403377
 10
-0.6232312456
 20
-11.4691451642
 10
-0.6209542768
 20
-11.4767431225
 10
-0.6184313555
 20
-11.4843289819
 10
-0.6156619254
 20
-11.4918909902
 10
-0.6126459081
 20
-11.4994157643
 10
-0.6093832252
 20
-11.5068899216
 10
-0.6058737984
 20
-11.5143000791
 10
-0.6027625525
 20
-11.5204144764
 10
-0.5994907638
 20
-11.5264542505
 10
-0.5960692938
 20
-11.5323985161
 10
-0.592505671
 20
-11.5382317035
 10
-0.5887940908
 20
-11.543959506
 10
-0.5849254153
 20
-11.5495929325
 10
-0.5808926078
 20
-11.5551394676
 10
-0.5766970356
 20
-11.5605924987
 10
-0.5723421674
 20
-11.5659418889
 10
-0.5678314714
 20
-11.5711775012
 10
-0.5631684161
 20
-11.5762891986
 10
-0.5583564701
 20
-11.5812668443
 10
-0.5534001883
 20
-11.5861013947
 10
-0.5483084722
 20
-11.5907881808
 10
-0.5430913097
 20
-11.5953236271
 10
-0.5377586889
 20
-11.5997041579
 10
-0.5323205978
 20
-11.6039261978
 10
-0.5267870244
 20
-11.6079861712
 10
-0.5211644619
 20
-11.6118826085
 10
-0.5154454248
 20
-11.6156224638
 10
-0.5096189328
 20
-11.6192147972
 10
-0.5036793527
 20
-11.6226652907
 10
-0.497642439
 20
-11.6259661152
 10
-0.4915292936
 20
-11.6291060636
 10
-0.4841187802
 20
-11.6326490739
 10
-0.4766423981
 20
-11.6359441682
 10
-0.4691136661
 20
-11.6389912308
 10
-0.4615461026
 20
-11.6417901455
 10
-0.4539532265
 20
-11.6443407963
 10
-0.4463469034
 20
-11.6466435598
 10
-0.4387323882
 20
-11.6487007819
 10
-0.4311132827
 20
-11.650515301
 10
-0.4234931887
 20
-11.6520899557
 10
-0.4158757082
 20
-11.6534275844
 10
-0.4082605428
 20
-11.6545298975
 10
-0.4006317929
 20
-11.655394093
 10
-0.3929696589
 20
-11.6560162412
 10
-0.3852543411
 20
-11.6563924121
 10
-0.3774660395
 20
-11.6565186757
  0
LWPOLYLINE
  5
2D6
100
AcDbEntity
  8
0
100
AcDbPolyline
 62
253
  6
CONTINUOUS
 90
55
 70
0
 10
-0.5959770028
 20
13.8537477701
 10
-0.5958524859
 20
13.8459990096
 10
-0.5954813911
 20
13.8383206113
 10
-0.5948674028
 20
13.8306930373
 10
-0.594014205
 20
13.8230967496
 10
-0.592925482
 20
13.81551221
 10
-0.5916038148
 20
13.8079237292
 10
-0.5900473718
 20
13.8003310122
 10
-0.5882532181
 20
13.7927376125
 10
-0.5862184191
 20
13.7851470837
 10
-0.58394004
 20
13.7775629794
 10
-0.5814156235
 20
13.7699904854
 10
-0.5786446222
 20
13.7624413169
 10
-0.5756269663
 20
13.7549288212
 10
-0.5723625857
 20
13.7474663456
 10
-0.5688514107
 20
13.7400672376
 10
-0.5657386725
 20
13.7339615353
 10
-0.5624653499
 20
13.7279299464
 10
-0.5590422922
 20
13.7219933101
 10
-0.5554770113
 20
13.716167155
 10
-0.5517636702
 20
13.7104457673
 10
-0.5478930946
 20
13.7048181226
 10
-0.5438582176
 20
13.6992767342
 10
-0.5396604006
 20
13.6938282661
 10
-0.5353031123
 20
13.6884829197
 10
-0.5307898213
 20
13.6832508968
 10
-0.5261239961
 20
13.678142399
 10
-0.5213091056
 20
13.6731676278
 10
-0.5163496973
 20
13.6683356842
 10
-0.5112546348
 20
13.6636512663
 10
-0.5060338607
 20
13.6591179717
 10
-0.5006973175
 20
13.6547393979
 10
-0.4952549479
 20
13.6505191422
 10
-0.4897166945
 20
13.6464608022
 10
-0.4840890052
 20
13.6425658656
 10
-0.4783643499
 20
13.6388273806
 10
-0.4725317041
 20
13.6352362856
 10
-0.4665854106
 20
13.6317869052
 10
-0.4605412828
 20
13.6284871088
 10
-0.4544205018
 20
13.6253481515
 10
-0.4470003668
 20
13.6218063347
 10
-0.4395139236
 20
13.6185124425
 10
-0.4319747439
 20
13.6154665835
 10
-0.4243963997
 20
13.6126688659
 10
-0.4167924627
 20
13.6101193983
 10
-0.4091748384
 20
13.6078177939
 10
-0.4015487669
 20
13.6057616857
 10
-0.3939178216
 20
13.6039482113
 10
-0.3862855761
 20
13.6023745086
 10
-0.3786556041
 20
13.6010377154
 10
-0.3710275824
 20
13.5999361005
 10
-0.3633856016
 20
13.5990724573
 10
-0.3557098554
 20
13.5984507104
 10
-0.3479805378
 20
13.5980747843
 10
-0.3401778426
 20
13.5979486035
  0
LWPOLYLINE
  5
2D7
100
AcDbEntity
  8
0
100
AcDbPolyline
 62
253
  6
CONTINUOUS
 90
55
 70
0
 10
-0.1215257682
 20
-10.8729992315
 10
-0.1216494779
 20
-10.8652489281
 10
-0.1220182413
 20
-10.8575688517
 10
-0.1226285098
 20
-10.8499392222
 10
-0.123476735
 20
-10.8423402596
 10
-0.1245593683
 20
-10.8347521838
 10
-0.1258739554
 20
-10.8271591283
 10
-0.1274224186
 20
-10.8195608814
 10
-0.1292077742
 20
-10.8119611446
 10
-0.1312330387
 20
-10.8043636199
 10
-0.1335012284
 20
-10.796772009
 10
-0.1360148903
 20
-10.7891916217
 10
-0.1387746926
 20
-10.7816342001
 10
-0.1417808343
 20
-10.7741130942
 10
-0.1450335141
 20
-10.7666416542
 10
-0.1485329309
 20
-10.7592332302
 10
-0.1516359368
 20
-10.7531194899
 10
-0.1548997535
 20
-10.7470795745
 10
-0.1583137087
 20
-10.7411342768
 10
-0.1618704594
 20
-10.7352990835
 10
-0.165575979
 20
-10.7295682571
 10
-0.1694395701
 20
-10.723930754
 10
-0.173468413
 20
-10.7183790991
 10
-0.1776611972
 20
-10.7129200933
 10
-0.1820144899
 20
-10.7075641058
 10
-0.186524858
 20
-10.7023215063
 10
-0.1911888686
 20
-10.697202664
 10
-0.1960030888
 20
-10.6922179486
 10
-0.2009629898
 20
-10.6873765998
 10
-0.2060596596
 20
-10.6826833391
 10
-0.2112830904
 20
-10.6781417583
 10
-0.2166232743
 20
-10.673755449
 10
-0.2220702035
 20
-10.6695280032
 10
-0.2276138702
 20
-10.6654630126
 10
-0.2332477757
 20
-10.6615619477
 10
-0.2389794582
 20
-10.6578177932
 10
-0.2448199653
 20
-10.6542214126
 10
-0.2507749609
 20
-10.6507670682
 10
-0.2568285753
 20
-10.6474626179
 10
-0.2629595551
 20
-10.6443193181
 10
-0.2703927794
 20
-10.6407726974
 10
-0.2778931842
 20
-10.6374744198
 10
-0.2854471483
 20
-10.634424562
 10
-0.2930410504
 20
-10.631623201
 10
-0.3006612695
 20
-10.6290704134
 10
-0.3082958425
 20
-10.6267657854
 10
-0.3159394394
 20
-10.624706941
 10
-0.3235883886
 20
-10.6228910132
 10
-0.3312390182
 20
-10.6213151355
 10
-0.3388876564
 20
-10.619976441
 10
-0.3465345802
 20
-10.6188732005
 10
-0.3541958607
 20
-10.6180082345
 10
-0.3618915175
 20
-10.6173855012
 10
-0.3696415706
 20
-10.6170089587
 10
-0.3774660395
 20
-10.6168825649
  0
LINE
  5
2D8
100
AcDbEntity
  8
0
100
AcDbLine
 62
253
  6
CONTINUOUS
 10
-0.6329829774
 20
-10.8729992315
 11
-0.6329829774
 21
-11.4004019924
  0
LINE
  5
2D9
100
AcDbEntity
  8
0
100
AcDbLine
 62
253
  6
CONTINUOUS
 10
-0.6329829774
 20
-14.7192647861
 11
-0.6329829774
 21
-14.1915797869
  0
LINE
  5
2DA
100
AcDbEntity
  8
0
100
AcDbLine
 62
253
  6
CONTINUOUS
 10
-0.5959770028
 20
14.9249927698
 11
-0.5959770028
 21
13.8537477701
  0
LINE
  5
2DB
100
AcDbEntity
  8
0
100
AcDbLine
 62
253
  6
CONTINUOUS
 10
-0.5959770028
 20
9.4580308267
 11
-0.5959770028
 21
10.5299108206
  0
LWPOLYLINE
  5
2DC
100
AcDbEntity
  8
0
100
AcDbPolyline
 62
253
  6
CONTINUOUS
 90
55
 70
0
 10
-0.9349607475
 20
-12.7962731199
 10
-0.9347002997
 20
-12.779701008
 10
-0.9339221334
 20
-12.7632506072
 10
-0.9326310142
 20
-12.7468780411
 10
-0.9308317078
 20
-12.7305394335
 10
-0.9285289797
 20
-12.7141909083
 10
-0.9257249386
 20
-12.6977966931
 10
-0.9224110656
 20
-12.681353431
 10
-0.9185761845
 20
-12.6648658691
 10
-0.9142091194
 20
-12.6483387544
 10
-0.9092986943
 20
-12.631776834
 10
-0.9038352254
 20
-12.6151899692
 10
-0.897814998
 20
-12.5986084788
 10
-0.8912357892
 20
-12.5820677961
 10
-0.8840953767
 20
-12.5656033542
 10
-0.8763915377
 20
-12.5492505863
 10
-0.8695445826
 20
-12.5357397513
 10
-0.8623329857
 20
-12.5223851909
 10
-0.8547849169
 20
-12.5092410218
 10
-0.8469197268
 20
-12.4963473605
 10
-0.8387214878
 20
-12.4836883229
 10
-0.8301654526
 20
-12.4712340245
 10
-0.8212325452
 20
-12.4589638357
 10
-0.8119263746
 20
-12.4468941464
 10
-0.8022562209
 20
-12.4350506014
 10
-0.7922313642
 20
-12.4234588456
 10
-0.7818610846
 20
-12.4121445237
 10
-0.7711546624
 20
-12.4011332805
 10
-0.7601240262
 20
-12.3904479338
 10
-0.7487916992
 20
-12.3800999933
 10
-0.7371828532
 20
-12.3700981416
 10
-0.7253226601
 20
-12.3604510614
 10
-0.7132362915
 20
-12.3511674354
 10
-0.7009489194
 20
-12.3422559461
 10
-0.6884764173
 20
-12.3337197554
 10
-0.6757974658
 20
-12.3255399415
 10
-0.6628814474
 20
-12.3176920618
 10
-0.6497124396
 20
-12.3101607418
 10
-0.6363332997
 20
-12.3029668801
 10
-0.6228015801
 20
-12.2961404434
 10
-0.6064329411
 20
-12.288466818
 10
-0.5899656886
 20
-12.2813626459
 10
-0.5734380481
 20
-12.2748251359
 10
-0.5568882453
 20
-12.2688514972
 10
-0.540354506
 20
-12.2634389387
 10
-0.5238691855
 20
-12.2585829438
 10
-0.5074411585
 20
-12.2542720942
 10
-0.4910734295
 20
-12.2504932459
 10
-0.4747690028
 20
-12.2472332549
 10
-0.458530883
 20
-12.2444789773
 10
-0.4423542824
 20
-12.2422200324
 10
-0.4262032453
 20
-12.2404570934
 10
-0.4100340243
 20
-12.2391935967
 10
-0.3938028716
 20
-12.2384329786
 10
-0.3774660395
 20
-12.2381786756
  0
LWPOLYLINE
  5
2DD
100
AcDbEntity
  8
0
100
AcDbPolyline
 62
253
  6
CONTINUOUS
 90
55
 70
0
 10
-0.6329829774
 20
-14.1915797862
 10
-0.6328588571
 20
-14.1838278791
 10
-0.6324889235
 20
-14.1761465048
 10
-0.6318768179
 20
-14.1685160562
 10
-0.6310261815
 20
-14.1609169266
 10
-0.6299406556
 20
-14.1533295093
 10
-0.6286227792
 20
-14.1457380622
 10
-0.6270706824
 20
-14.138142303
 10
-0.6252813934
 20
-14.1305458143
 10
-0.62325194
 20
-14.1229521786
 10
-0.6209793504
 20
-14.1153649785
 10
-0.6184611277
 20
-14.1077894277
 10
-0.6156966754
 20
-14.1002372651
 10
-0.6126858724
 20
-14.0927218606
 10
-0.6094285973
 20
-14.0852565842
 10
-0.6059247289
 20
-14.077854806
 10
-0.6028181937
 20
-14.0717469955
 10
-0.5995511337
 20
-14.065713423
 10
-0.5961343538
 20
-14.059774946
 10
-0.5925753246
 20
-14.0539471067
 10
-0.5888681792
 20
-14.0482241876
 10
-0.5850037166
 20
-14.042595156
 10
-0.5809748438
 20
-14.037052521
 10
-0.5767828992
 20
-14.0316029588
 10
-0.572431329
 20
-14.0262566874
 10
-0.5679235795
 20
-14.0210239248
 10
-0.563263097
 20
-14.0159148889
 10
-0.5584533278
 20
-14.0109397977
 10
-0.5534988092
 20
-14.0061077641
 10
-0.5484084427
 20
-14.0014234807
 10
-0.5431922206
 20
-13.9968905349
 10
-0.5378601355
 20
-13.9925125141
 10
-0.5324221798
 20
-13.9882930059
 10
-0.5268883461
 20
-13.9842355977
 10
-0.5212651258
 20
-13.9803417632
 10
-0.5155450073
 20
-13.9766045215
 10
-0.509716978
 20
-13.973014778
 10
-0.5037753862
 20
-13.9695668235
 10
-0.4977360237
 20
-13.9662684899
 10
-0.4916200432
 20
-13.9631309945
 10
-0.4842056821
 20
-13.9595908854
 10
-0.4767250123
 20
-13.9562986291
 10
-0.4691915948
 20
-13.9532543186
 10
-0.4616189909
 20
-13.9504580468
 10
-0.4540207617
 20
-13.9479099065
 10
-0.4464088112
 20
-13.9456094984
 10
-0.4387884143
 20
-13.9435544546
 10
-0.4311631889
 20
-13.9417419148
 10
-0.4235367528
 20
-13.9401690189
 10
-0.4159127237
 20
-13.9388329066
 10
-0.4082908054
 20
-13.9377318486
 10
-0.4006550449
 20
-13.9368686386
 10
-0.3929855752
 20
-13.9362472012
 10
-0.385262529
 20
-13.9358714607
 10
-0.3774660395
 20
-13.9357453418
  0
LWPOLYLINE
  5
2DE
100
AcDbEntity
  8
0
100
AcDbPolyline
 62
253
  6
CONTINUOUS
 90
55
 70
0
 10
-0.5959770028
 20
10.5299108265
 10
-0.5958523794
 20
10.5376323276
 10
-0.5954809673
 20
10.5452839692
 10
-0.5948664536
 20
10.5528852712
 10
-0.5940125254
 20
10.5604557537
 10
-0.5929228697
 20
10.5680149368
 10
-0.5916000766
 20
10.57557849
 10
-0.5900423474
 20
10.5831466812
 10
-0.5882467866
 20
10.5907159277
 10
-0.5862104985
 20
10.5982826468
 10
-0.5839305873
 20
10.605843256
 10
-0.5814046369
 20
10.6133925562
 10
-0.5786321479
 20
10.620918884
 10
-0.5756131008
 20
10.6284089595
 10
-0.5723474755
 20
10.635849503
 10
-0.5688352523
 20
10.6432272346
 10
-0.56572182
 20
10.6493156087
 10
-0.5624479622
 20
10.655330414
 10
-0.5590245159
 20
10.6612509232
 10
-0.5554589885
 20
10.6670616896
 10
-0.5517455707
 20
10.6727683882
 10
-0.5478751238
 20
10.6783819745
 10
-0.5438406148
 20
10.6839098793
 10
-0.5396434344
 20
10.6893454339
 10
-0.535287079
 20
10.6946784454
 10
-0.5307750452
 20
10.6998987202
 10
-0.5261108293
 20
10.7049960654
 10
-0.5212979277
 20
10.7099602875
 10
-0.5163408939
 20
10.7147822943
 10
-0.5112485084
 20
10.7194573979
 10
-0.506030609
 20
10.723982011
 10
-0.5006970332
 20
10.7283525467
 10
-0.4952576186
 20
10.7325654179
 10
-0.4897222027
 20
10.7366170374
 10
-0.4840971483
 20
10.7405059119
 10
-0.4783749182
 20
10.7442389222
 10
-0.4725445003
 20
10.7478250427
 10
-0.4666002477
 20
10.7512698721
 10
-0.460557974
 20
10.7545655065
 10
-0.4544388576
 20
10.7577006663
 10
-0.4470204628
 20
10.7612383759
 10
-0.4395354543
 20
10.7645286242
 10
-0.4319973744
 20
10.7675712762
 10
-0.4244197658
 20
10.7703661969
 10
-0.4168161709
 20
10.7729132511
 10
-0.4091984642
 20
10.7752127987
 10
-0.4015718476
 20
10.7772671786
 10
-0.3939398554
 20
10.7790792248
 10
-0.3863060214
 20
10.7806517712
 10
-0.3786738798
 20
10.7819876518
 10
-0.3710430893
 20
10.7830885704
 10
-0.3633978078
 20
10.7839517104
 10
-0.3557183178
 20
10.7845731253
 10
-0.3479849018
 20
10.7849488684
 10
-0.3401778426
 20
10.7850749931
  0
LWPOLYLINE
  5
2DF
100
AcDbEntity
  8
0
100
AcDbPolyline
 62
253
  6
CONTINUOUS
 90
55
 70
0
 10
-0.0845197936
 20
9.4580308267
 10
-0.0846450998
 20
9.4502566552
 10
-0.0850184925
 20
9.4425540379
 10
-0.0856361831
 20
9.4349034217
 10
-0.0864943832
 20
9.4272852538
 10
-0.087589304
 20
9.4196799812
 10
-0.0889182664
 20
9.4120718991
 10
-0.0904830292
 20
9.4044606952
 10
-0.0922864605
 20
9.3968499054
 10
-0.0943314284
 20
9.3892430655
 10
-0.096620801
 20
9.3816437115
 10
-0.0991569602
 20
9.3740570205
 10
-0.1019403423
 20
9.3664947352
 10
-0.1049708973
 20
9.3589702394
 10
-0.1082485751
 20
9.3514969171
 10
-0.1117733257
 20
9.3440881522
 10
-0.1148974858
 20
9.3379753464
 10
-0.1181821683
 20
9.3319375784
 10
-0.121616352
 20
9.3259957602
 10
-0.1251923525
 20
9.3201654954
 10
-0.1289158335
 20
9.3144411545
 10
-0.1327957953
 20
9.3088117999
 10
-0.1368391511
 20
9.3032699763
 10
-0.141044465
 20
9.2978221579
 10
-0.1454082136
 20
9.2924783013
 10
-0.1499268738
 20
9.2872483631
 10
-0.1545969222
 20
9.2821422999
 10
-0.1594148355
 20
9.2771700685
 10
-0.1643760237
 20
9.2723405583
 10
-0.1694716284
 20
9.2676583915
 10
-0.1746917245
 20
9.263127123
 10
-0.1800263869
 20
9.2587503078
 10
-0.1854656905
 20
9.254531501
 10
-0.19099971
 20
9.2504742575
 10
-0.1966219975
 20
9.2465800485
 10
-0.202340013
 20
9.2428420092
 10
-0.2081646937
 20
9.239251191
 10
-0.2141016526
 20
9.2358020017
 10
-0.2201352048
 20
9.2325022756
 10
-0.2262443413
 20
9.2293632036
 10
-0.2336493062
 20
9.2258209415
 10
-0.2411194197
 20
9.2225262991
 10
-0.2486412419
 20
9.2194794395
 10
-0.2562013332
 20
9.2166805254
 10
-0.2637862538
 20
9.21412972
 10
-0.2713842154
 20
9.211826692
 10
-0.278990036
 20
9.2097691331
 10
-0.2866001848
 20
9.2079542412
 10
-0.2942111313
 20
9.2063792139
 10
-0.3018193449
 20
9.2050412488
 10
-0.3094251508
 20
9.2039386649
 10
-0.3170442983
 20
9.2030742663
 10
-0.3246963926
 20
9.2024519786
 10
-0.332401039
 20
9.2020757273
 10
-0.3401778426
 20
9.2019494379
  0
LWPOLYLINE
  5
2E0
100
AcDbEntity
  8
0
100
AcDbPolyline
 62
253
  6
CONTINUOUS
 90
51
 70
0
 10
-1.153436433
 20
12.1918469371
 10
-1.1530338904
 20
12.2165270944
 10
-1.1518289273
 20
12.2411372617
 10
-1.149825541
 20
12.2657436107
 10
-1.1470277287
 20
12.2904123132
 10
-1.1434349855
 20
12.3151989497
 10
-1.1390287987
 20
12.3401167373
 10
-1.1337861535
 20
12.3651683018
 10
-1.1276840353
 20
12.390356269
 10
-1.1207044944
 20
12.4156686623
 10
-1.1128498416
 20
12.4410350949
 10
-1.104127453
 20
12.4663705775
 10
-1.0945447045
 20
12.4915901206
 10
-1.0841084394
 20
12.5166163609
 10
-1.0728233696
 20
12.5414024386
 10
-1.0606936741
 20
12.5659091198
 10
-1.0477235323
 20
12.5900971706
 10
-1.0354931643
 20
12.6112976641
 10
-1.022609949
 20
12.6321831245
 10
-1.0090817934
 20
12.6527212759
 10
-0.9949166045
 20
12.6728798421
 10
-0.9801222894
 20
12.6926265469
 10
-0.9647067551
 20
12.7119291144
 10
-0.9486779088
 20
12.7307552684
 10
-0.9320436574
 20
12.7490727328
 10
-0.9148119081
 20
12.7668492315
 10
-0.8969951587
 20
12.7840560122
 10
-0.8786242707
 20
12.8006784175
 10
-0.8597346966
 20
12.816705314
 10
-0.8403618885
 20
12.832125568
 10
-0.820541299
 20
12.8469280461
 10
-0.8003083802
 20
12.8611016146
 10
-0.7796985846
 20
12.8746351401
 10
-0.7587473645
 20
12.8875174889
 10
-0.7374901723
 20
12.8997375276
 10
-0.7132521128
 20
12.9126821286
 10
-0.688709385
 20
12.9247740762
 10
-0.6638996973
 20
12.9360130443
 10
-0.638860758
 20
12.9463987065
 10
-0.613638628
 20
12.9559295605
 10
-0.5883127773
 20
12.9645993982
 10
-0.5629710285
 20
12.9724008355
 10
-0.537701204
 20
12.9793264879
 10
-0.5125758336
 20
12.9853743707
 10
-0.4876062759
 20
12.9905640963
 10
-0.4627885968
 20
12.9949206768
 10
-0.4381188622
 20
12.998469124
 10
-0.4135827811
 20
13.0012298597
 10
-0.3891246347
 20
13.003204945
 10
-0.3646783471
 20
13.0043918508
 10
-0.3401778426
 20
13.0047880481
  0
LWPOLYLINE
  5
2E1
100
AcDbEntity
  8
ASSI
100
AcDbPolyline
 62
253
  6
CONTINUOUS
 90
19
 70
0
 10
10.6339825457
 20
21.258260239
 10
10.6335637843
 20
21.2574868475
 10
10.6331462488
 20
21.2564273827
 10
10.632729939
 20
21.2550818446
 10
10.6323146088
 20
21.2534491153
 10
10.6319005045
 20
21.2515303127
 10
10.6314883645
 20
21.24932879
 10
10.6310781995
 20
21.246844066
 10
10.6306699989
 20
21.2440766218
 10
10.6302644702
 20
21.2410312545
 10
10.6298616189
 20
21.2377074872
 10
10.6294614395
 20
21.2341057968
 10
10.6290646229
 20
21.2302324105
 10
10.6286711746
 20
21.2260868556
 10
10.6282810891
 20
21.2216696048
 10
10.627895041
 20
21.2169883034
 10
10.6275130373
 20
21.2120424938
 10
10.6271350711
 20
21.2068326335
 10
10.6263932194
 20
21.1956473712
  0
LINE
  5
2E2
100
AcDbEntity
  8
ASSI
100
AcDbLine
 62
7
  6
CONTINUOUS
 10
8.1247828547
 20
-0.3993687656
 11
7.8623168641
 21
-0.425549369
  0
LINE
  5
2E3
100
AcDbEntity
  8
ASSI
100
AcDbLine
 62
253
  6
CONTINUOUS
 10
10.3236168205
 20
-0.4452719927
 11
10.3199275674
 21
-0.4453918526
  0
LINE
  5
2E4
100
AcDbEntity
  8
ASSI
100
AcDbLine
 62
253
  6
CONTINUOUS
 10
10.3199275674
 20
-0.4453918526
 11
10.315462839
 21
-0.4455096858
  0
LINE
  5
2E5
100
AcDbEntity
  8
ASSI
100
AcDbLine
 62
253
  6
CONTINUOUS
 10
10.5726076679
 20
-0.6951691263
 11
10.5668029607
 21
-0.6953016926
  0
LINE
  5
2E6
100
AcDbEntity
  8
ASSI
100
AcDbLine
 62
253
  6
CONTINUOUS
 10
10.315462839
 20
-0.4455096858
 11
10.3073464315
 21
-0.4456817853
  0
LINE
  5
2E7
100
AcDbEntity
  8
ASSI
100
AcDbLine
 62
253
  6
CONTINUOUS
 10
10.5668029607
 20
-0.6953016926
 11
10.5551528483
 21
-0.6954971656
  0
LINE
  5
2E8
100
AcDbEntity
  8
ASSI
100
AcDbLine
 62
253
  6
CONTINUOUS
 10
10.3073464315
 20
-0.4456817853
 11
10.290186437
 21
-0.445953188
  0
LINE
  5
2E9
100
AcDbEntity
  8
ASSI
100
AcDbLine
 62
253
  6
CONTINUOUS
 10
10.5551528483
 20
-0.6954971656
 11
10.5281131365
 21
-0.6958103293
  0
LINE
  5
2EA
100
AcDbEntity
  8
ASSI
100
AcDbLine
 62
253
  6
CONTINUOUS
 10
10.290186437
 20
-0.445953188
 11
10.2591364748
 21
-0.4462918145
  0
LINE
  5
2EB
100
AcDbEntity
  8
ASSI
100
AcDbLine
 62
253
  6
CONTINUOUS
 10
10.5281131365
 20
-0.6958103293
 11
10.4378461131
 21
-0.6964162104
  0
LINE
  5
2EC
100
AcDbEntity
  8
ASSI
100
AcDbLine
 62
253
  6
CONTINUOUS
 10
10.2591364748
 20
-0.4462918145
 11
10.1903092511
 21
-0.4467258272
  0
LINE
  5
2ED
100
AcDbEntity
  8
ASSI
100
AcDbLine
 62
253
  6
CONTINUOUS
 10
-11.0135017638
 20
-0.1522785395
 11
-10.9259427813
 21
-0.151877322
  0
LINE
  5
2EE
100
AcDbEntity
  8
ASSI
100
AcDbLine
 62
253
  6
CONTINUOUS
 10
10.4378461131
 20
-0.6964162104
 11
10.1230391759
 21
-0.6971279643
  0
LINE
  5
2EF
100
AcDbEntity
  8
ASSI
100
AcDbLine
 62
253
  6
CONTINUOUS
 10
10.1230391759
 20
-0.6971279643
 11
-10.8557940517
 21
-0.697137219
  0
LINE
  5
2F0
100
AcDbEntity
  8
ASSI
100
AcDbLine
 62
253
  6
CONTINUOUS
 10
10.1903092511
 20
-0.4467258272
 11
10.0804296102
 21
-0.4469478538
  0
LINE
  5
2F1
100
AcDbEntity
  8
ASSI
100
AcDbLine
 62
7
  6
CONTINUOUS
 10
10.0804296102
 20
-0.4469478538
 11
-10.8557958821
 21
-0.4469478538
  0
LINE
  5
2F2
100
AcDbEntity
  8
ASSI
100
AcDbLine
 62
7
  6
CONTINUOUS
 10
7.8623168641
 20
-0.425549369
 11
-8.6376831359
 21
-0.425549369
  0
LINE
  5
2F3
100
AcDbEntity
  8
ASSI
100
AcDbLine
 62
7
  6
CONTINUOUS
 10
10.5122406623
 20
-0.3993687656
 11
8.1247828547
 21
-0.3993687656
  0
LINE
  5
2F4
100
AcDbEntity
  8
ASSI
100
AcDbLine
 62
7
  6
CONTINUOUS
 10
-8.9001491265
 20
-0.3993687656
 11
-11.2876069342
 21
-0.3993687656
  0
LINE
  5
2F5
100
AcDbEntity
  8
ASSI
100
AcDbLine
 62
7
  6
CONTINUOUS
 10
-11.2876069342
 20
-0.1993687656
 11
-8.9001491265
 21
-0.1993687656
  0
LINE
  5
2F6
100
AcDbEntity
  8
ASSI
100
AcDbLine
 62
7
  6
CONTINUOUS
 10
8.1247828547
 20
-0.1993687656
 11
10.5122406623
 21
-0.1993687656
  0
LINE
  5
2F7
100
AcDbEntity
  8
ASSI
100
AcDbLine
 62
7
  6
CONTINUOUS
 10
-8.6376831359
 20
-0.1731881622
 11
7.8623168641
 21
-0.1731881622
  0
LINE
  5
2F8
100
AcDbEntity
  8
ASSI
100
AcDbLine
 62
7
  6
CONTINUOUS
 10
-10.8557958821
 20
-0.1517896774
 11
10.0804296102
 21
-0.1517896774
  0
LINE
  5
2F9
100
AcDbEntity
  8
ASSI
100
AcDbLine
 62
253
  6
CONTINUOUS
 10
-10.9259427813
 20
-0.151877322
 11
-10.8557958821
 21
-0.1517896774
  0
LINE
  5
2FA
100
AcDbEntity
  8
ASSI
100
AcDbLine
 62
253
  6
CONTINUOUS
 10
-10.8557958821
 20
-0.4469478538
 11
-10.9720207036
 21
-0.4466977488
  0
LINE
  5
2FB
100
AcDbEntity
  8
ASSI
100
AcDbLine
 62
253
  6
CONTINUOUS
 10
10.0804296102
 20
-0.1517896774
 11
10.1966544318
 21
-0.1520397824
  0
LINE
  5
2FC
100
AcDbEntity
  8
ASSI
100
AcDbLine
 62
253
  6
CONTINUOUS
 10
-10.8557940517
 20
-0.6971372196
 11
-11.2505955573
 21
-0.6962116935
  0
LINE
  5
2FD
100
AcDbEntity
  8
ASSI
100
AcDbLine
 62
253
  6
CONTINUOUS
 10
10.1966544318
 20
-0.1520397824
 11
10.238135492
 21
-0.1522785395
  0
LINE
  5
2FE
100
AcDbEntity
  8
ASSI
100
AcDbLine
 62
253
  6
CONTINUOUS
 10
-10.9720207036
 20
-0.4466977488
 11
-11.0345027466
 21
-0.4462918145
  0
LINE
  5
2FF
100
AcDbEntity
  8
ASSI
100
AcDbLine
 62
253
  6
CONTINUOUS
 10
-11.2505955573
 20
-0.6962116935
 11
-11.3096306557
 21
-0.6957492147
  0
LINE
  5
300
100
AcDbEntity
  8
ASSI
100
AcDbLine
 62
253
  6
CONTINUOUS
 10
-11.0345027466
 20
-0.4462918145
 11
-11.0655527088
 21
-0.445953188
  0
LINE
  5
301
100
AcDbEntity
  8
ASSI
100
AcDbLine
 62
253
  6
CONTINUOUS
 10
-11.3096306557
 20
-0.6957492147
 11
-11.3305191201
 21
-0.6954971656
  0
LINE
  5
302
100
AcDbEntity
  8
ASSI
100
AcDbLine
 62
253
  6
CONTINUOUS
 10
-11.0655527088
 20
-0.445953188
 11
-11.0827127034
 21
-0.4456817853
  0
LINE
  5
303
100
AcDbEntity
  8
ASSI
100
AcDbLine
 62
253
  6
CONTINUOUS
 10
-11.3305191201
 20
-0.6954971656
 11
-11.3421692325
 21
-0.6953016926
  0
LINE
  5
304
100
AcDbEntity
  8
ASSI
100
AcDbLine
 62
253
  6
CONTINUOUS
 10
-11.0827127034
 20
-0.4456817853
 11
-11.0908291108
 21
-0.4455096858
  0
LWPOLYLINE
  5
305
100
AcDbEntity
  8
ASSI
100
AcDbPolyline
 62
253
  6
CONTINUOUS
 90
7
 70
0
 10
-11.3421692325
 20
-0.6953016926
 10
-11.3479739397
 20
-0.6951691263
 10
-11.3502801587
 20
-0.6951022761
 10
-11.3521863843
 20
-0.6950351924
 10
-11.3536910771
 20
-0.6949679283
 10
-11.354793016
 20
-0.6949004489
 10
-11.3554913096
 20
-0.6948327632
  0
LINE
  5
306
100
AcDbEntity
  8
ASSI
100
AcDbLine
 62
253
  6
CONTINUOUS
 10
-11.0908291108
 20
-0.4455096858
 11
-11.0952938392
 21
-0.4453918526
  0
LWPOLYLINE
  5
307
100
AcDbEntity
  8
ASSI
100
AcDbPolyline
 62
253
  6
CONTINUOUS
 90
9
 70
0
 10
-11.0952938392
 20
-0.4453918526
 10
-11.0989830923
 20
-0.4452719927
 10
-11.1005330266
 20
-0.44521145
 10
-11.1018846081
 20
-0.4451505457
 10
-11.1030383148
 20
-0.4450892817
 10
-11.1039913414
 20
-0.4450278092
 10
-11.104742753
 20
-0.4449661785
 10
-11.1052934845
 20
-0.4449043393
 10
-11.105643536
 20
-0.4448422916
  0
LINE
  5
308
100
AcDbEntity
  8
ASSI
100
AcDbLine
 62
7
  6
CONTINUOUS
 10
-8.9001491265
 20
-0.3993687656
 11
-8.6376831359
 21
-0.425549369
  0
LWPOLYLINE
  5
309
100
AcDbEntity
  8
0
100
AcDbPolyline
 62
253
  6
CONTINUOUS
 90
55
 70
0
 10
-0.0845197936
 20
14.9249927698
 10
-0.0846434058
 20
14.9327347888
 10
-0.0850118611
 20
14.9404068248
 10
-0.0856215878
 20
14.9480285089
 10
-0.0864690143
 20
14.955619472
 10
-0.0875505688
 20
14.9631993454
 10
-0.0888637781
 20
14.9707838871
 10
-0.0904105631
 20
14.978373363
 10
-0.0921939432
 20
14.9859641661
 10
-0.0942169378
 20
14.9935526894
 10
-0.0964825663
 20
15.0011353259
 10
-0.0989933793
 20
15.0087068443
 10
-0.1017500531
 20
15.016255516
 10
-0.104752795
 20
15.0237679881
 10
-0.1080018126
 20
15.0312309078
 10
-0.1114973132
 20
15.0386309222
 10
-0.1145968636
 20
15.0447377327
 10
-0.1178570344
 20
15.0507707659
 10
-0.1212671331
 20
15.0567092016
 10
-0.1248198044
 20
15.062537539
 10
-0.1285210408
 20
15.0682615557
 10
-0.1323801721
 20
15.0738923489
 10
-0.1364044039
 20
15.0794374374
 10
-0.1405924456
 20
15.0848900267
 10
-0.1449408826
 20
15.0902397439
 10
-0.1494463003
 20
15.0954762164
 10
-0.154105284
 20
15.1005890713
 10
-0.1589144192
 20
15.1055679358
 10
-0.1638691899
 20
15.1104035648
 10
-0.1689606755
 20
15.1150912238
 10
-0.1741788541
 20
15.1196273059
 10
-0.1795137036
 20
15.1240082044
 10
-0.1849552021
 20
15.1282303123
 10
-0.1904933278
 20
15.1322900229
 10
-0.1961215756
 20
15.1361858591
 10
-0.2018475084
 20
15.1399248627
 10
-0.2076822061
 20
15.1435162054
 10
-0.2136313556
 20
15.1469656531
 10
-0.2196790739
 20
15.1502653483
 10
-0.2258040847
 20
15.1534040276
 10
-0.2332300198
 20
15.1569452773
 10
-0.2407229675
 20
15.1602383863
 10
-0.2482692766
 20
15.1632832958
 10
-0.2558552957
 20
15.1660799472
 10
-0.2634673736
 20
15.1686282815
 10
-0.2710935257
 20
15.170928733
 10
-0.2787284348
 20
15.1729837073
 10
-0.2863684504
 20
15.1747961029
 10
-0.294009922
 20
15.1763688183
 10
-0.3016491993
 20
15.1777047521
 10
-0.3092865751
 20
15.1788056652
 10
-0.3169381167
 20
15.1796687676
 10
-0.3246238348
 20
15.1802901319
 10
-0.3323637398
 20
15.1806658307
 10
-0.3401778426
 20
15.1807919364
  0
LINE
  5
30A
100
AcDbEntity
  8
0
100
AcDbLine
 62
253
  6
CONTINUOUS
 10
-0.1215257682
 20
-14.1915797862
 11
-0.1215257682
 21
-14.7192647854
  0
LINE
  5
30B
100
AcDbEntity
  8
0
100
AcDbLine
 62
253
  6
CONTINUOUS
 10
-0.1215257682
 20
-11.4004020091
 11
-0.1215257682
 21
-10.8729992481
  0
LINE
  5
30C
100
AcDbEntity
  8
0
100
AcDbLine
 62
253
  6
CONTINUOUS
 10
-0.0845197936
 20
10.5299108265
 11
-0.0845197936
 21
9.4580308326
  0
LINE
  5
30D
100
AcDbEntity
  8
0
100
AcDbLine
 62
253
  6
CONTINUOUS
 10
-0.0845197936
 20
13.8537477701
 11
-0.0845197936
 21
14.9249927698
  0
LWPOLYLINE
  5
30E
100
AcDbEntity
  8
0
100
AcDbPolyline
 62
253
  6
CONTINUOUS
 90
55
 70
0
 10
0.1801360775
 20
-12.7962731199
 10
0.1798757299
 20
-12.8128171498
 10
0.1790978487
 20
-12.8292402163
 10
0.1778071767
 20
-12.8455861422
 10
0.1760084563
 20
-12.8618987507
 10
0.1737064302
 20
-12.8782218648
 10
0.1709031863
 20
-12.8945912157
 10
0.1675901929
 20
-12.9110101676
 10
0.1637562638
 20
-12.9274739932
 10
0.1593902126
 20
-12.9439779649
 10
0.1544808532
 20
-12.9605173553
 10
0.1490184935
 20
-12.9770823236
 10
0.1429994201
 20
-12.9936425758
 10
0.136421414
 20
-13.0101627047
 10
0.1292822559
 20
-13.026607303
 10
0.121579727
 20
-13.0429409635
 10
0.1147339075
 20
-13.0564364622
 10
0.1075234833
 20
-13.0697762648
 10
0.0999766206
 20
-13.0829063038
 10
0.0921126558
 20
-13.0957865067
 10
0.0839156073
 20
-13.1084327823
 10
0.0753606637
 20
-13.1208750343
 10
0.066428698
 20
-13.1331338994
 10
0.0571233211
 20
-13.1451929449
 10
0.0474538278
 20
-13.1570264711
 10
0.0374295133
 20
-13.1686087779
 10
0.0270596725
 20
-13.1799141655
 10
0.0163536005
 20
-13.1909169341
 10
0.0053232308
 20
-13.2015942197
 10
-0.0060089496
 20
-13.2119345025
 10
-0.0176178156
 20
-13.2219290986
 10
-0.0294782417
 20
-13.2315693241
 10
-0.0415651026
 20
-13.2408464951
 10
-0.0538532729
 20
-13.2497519276
 10
-0.0663269285
 20
-13.2582824561
 10
-0.0790074493
 20
-13.2664569873
 10
-0.0919255163
 20
-13.2742999466
 10
-0.1050970937
 20
-13.2818266878
 10
-0.1184792789
 20
-13.28901628
 10
-0.132014452
 20
-13.2958387211
 10
-0.1483876953
 20
-13.3035078735
 10
-0.1648600226
 20
-13.3106079155
 10
-0.1813931872
 20
-13.3171416371
 10
-0.1979489426
 20
-13.3231118285
 10
-0.2144890424
 20
-13.32852128
 10
-0.2309811184
 20
-13.3333745061
 10
-0.2474163155
 20
-13.33768292
 10
-0.2637916571
 20
-13.3414596591
 10
-0.2801041663
 20
-13.3447178609
 10
-0.2963508666
 20
-13.347470663
 10
-0.312536565
 20
-13.3497284377
 10
-0.3286972045
 20
-13.3514904966
 10
-0.3448765122
 20
-13.352753386
 10
-0.3611182149
 20
-13.3535136523
 10
-0.3774660395
 20
-13.3537678419
  0
LWPOLYLINE
  5
30F
100
AcDbEntity
  8
0
100
AcDbPolyline
 62
253
  6
CONTINUOUS
 90
55
 70
0
 10
-0.1215257682
 20
-14.7192647861
 10
-0.1216492121
 20
-14.7269994367
 10
-0.1220171916
 20
-14.7346644473
 10
-0.1226261783
 20
-14.74227951
 10
-0.1234726438
 20
-14.7498643166
 10
-0.1245530597
 20
-14.7574385592
 10
-0.1258649915
 20
-14.7650180376
 10
-0.1274103807
 20
-14.7726029836
 10
-0.1291922624
 20
-14.7801897369
 10
-0.131213672
 20
-14.7877746374
 10
-0.1334776447
 20
-14.7953540246
 10
-0.1359867498
 20
-14.802922627
 10
-0.1387416932
 20
-14.8104687268
 10
-0.1417427144
 20
-14.8179789949
 10
-0.1449900533
 20
-14.8254401023
 10
-0.1484839495
 20
-14.8328387197
 10
-0.1515822515
 20
-14.8389447072
 10
-0.1548413181
 20
-14.844977277
 10
-0.1582505268
 20
-14.8509156637
 10
-0.1618025898
 20
-14.8567444116
 10
-0.1655035572
 20
-14.8624693041
 10
-0.1693628134
 20
-14.8681014346
 10
-0.1733876104
 20
-14.8736483048
 10
-0.1775766691
 20
-14.879103049
 10
-0.1819265774
 20
-14.8844552098
 10
-0.1864339236
 20
-14.8896943298
 10
-0.1910952958
 20
-14.8948099517
 10
-0.195907282
 20
-14.8997916179
 10
-0.2008653707
 20
-14.9046300126
 10
-0.2059606513
 20
-14.9093203849
 10
-0.2111831133
 20
-14.9138591256
 10
-0.2165227465
 20
-14.9182426254
 10
-0.2219695406
 20
-14.922467275
 10
-0.2275134851
 20
-14.9265294651
 10
-0.2331480888
 20
-14.9304277179
 10
-0.238880937
 20
-14.9341690813
 10
-0.2447231339
 20
-14.9377627348
 10
-0.2506803767
 20
-14.9412144462
 10
-0.2567367343
 20
-14.9445163361
 10
-0.2628708682
 20
-14.9476571131
 10
-0.2703083141
 20
-14.9512007216
 10
-0.2778133451
 20
-14.9544960157
 10
-0.2853722755
 20
-14.9575429429
 10
-0.2929714194
 20
-14.9603414505
 10
-0.3005970912
 20
-14.9628914861
 10
-0.3082372743
 20
-14.9651934893
 10
-0.3158866293
 20
-14.9672498691
 10
-0.3235414861
 20
-14.9690635268
 10
-0.3311981745
 20
-14.9706373637
 10
-0.3388530245
 20
-14.9719742809
 10
-0.3465063242
 20
-14.9730760384
 10
-0.3541741954
 20
-14.973939831
 10
-0.3618767183
 20
-14.974561712
 10
-0.369633973
 20
-14.9749377347
 10
-0.3774660395
 20
-14.9750639527
  0
LWPOLYLINE
  5
310
100
AcDbEntity
  8
0
100
AcDbPolyline
 62
253
  6
CONTINUOUS
 90
51
 70
0
 10
0.4728338033
 20
12.1918469371
 10
0.4724314741
 20
12.1671290718
 10
0.4712272637
 20
12.1424845907
 10
0.4692253378
 20
12.1178469045
 10
0.4664298621
 20
12.0931494238
 10
0.4628405397
 20
12.0683363382
 10
0.4584392228
 20
12.0433949535
 10
0.453203301
 20
12.0183233543
 10
0.4471101639
 20
11.9931196253
 10
0.4401421708
 20
11.967796181
 10
0.4323015608
 20
11.9424227545
 10
0.4235955426
 20
11.9170834084
 10
0.414031325
 20
11.8918622057
 10
0.4036155242
 20
11.8668356673
 10
0.3923523864
 20
11.8420501467
 10
0.3802455649
 20
11.8175444558
 10
0.3672987134
 20
11.7933574062
 10
0.3550890115
 20
11.7721575548
 10
0.3422262396
 20
11.7512726195
 10
0.3287181685
 20
11.7307350844
 10
0.314572569
 20
11.7105774335
 10
0.299797212
 20
11.6908321507
 10
0.2843998681
 20
11.6715317203
 10
0.2683883083
 20
11.6527086261
 10
0.2517703033
 20
11.6343953522
 10
0.2345536238
 20
11.6166243827
 10
0.2167506811
 20
11.5994246167
 10
0.1983924474
 20
11.5828106145
 10
0.1795145352
 20
11.5667933515
 10
0.1601525573
 20
11.551383803
 10
0.1403421262
 20
11.5365929444
 10
0.1201188545
 20
11.5224317511
 10
0.0995183549
 20
11.5089111985
 10
0.0785762399
 20
11.496042262
 10
0.0573281222
 20
11.4838359169
 10
0.0331003118
 20
11.4709068114
 10
0.0085674894
 20
11.458829995
 10
-0.0162331442
 20
11.4476052736
 10
-0.0412643885
 20
11.4372324532
 10
-0.0664808006
 20
11.4277125855
 10
-0.091803969
 20
11.4190517043
 10
-0.1171472398
 20
11.4112570889
 10
-0.1424239591
 20
11.4043360189
 10
-0.1675624299
 20
11.3982904825
 10
-0.1925507825
 20
11.3931013039
 10
-0.217392104
 20
11.3887440159
 10
-0.2420894816
 20
11.3851941518
 10
-0.2666565733
 20
11.3824317905
 10
-0.2911493217
 20
11.3804551962
 10
-0.3156342403
 20
11.3792671788
 10
-0.3401778426
 20
11.3788705485
  0
LWPOLYLINE
  5
311
100
AcDbEntity
  8
0
100
AcDbPolyline
 62
253
  6
CONTINUOUS
 90
55
 70
0
 10
1.065959066
 20
12.1918469371
 10
1.0660847373
 20
12.1996193902
 10
1.0664591961
 20
12.2073204861
 10
1.0670786095
 20
12.214969685
 10
1.0679391445
 20
12.2225864469
 10
1.0690369683
 20
12.2301902319
 10
1.0703693599
 20
12.2377966754
 10
1.071938046
 20
12.245406115
 10
1.0737458652
 20
12.2530150635
 10
1.0757956563
 20
12.2606200339
 10
1.0780902577
 20
12.268217539
 10
1.0806320205
 20
12.2758024451
 10
1.0834213449
 20
12.2833630317
 10
1.0864581433
 20
12.2908859314
 10
1.0897423284
 20
12.298357777
 10
1.0932738125
 20
12.3057652012
 10
1.0964037265
 20
12.3118770048
 10
1.0996942518
 20
12.3179138806
 10
1.1031343251
 20
12.3238549206
 10
1.1067162272
 20
12.3296845275
 10
1.1104456156
 20
12.3354083464
 10
1.1143314922
 20
12.341037333
 10
1.1183807684
 20
12.3465789573
 10
1.122591995
 20
12.3520267462
 10
1.1269616322
 20
12.3573707408
 10
1.1314861405
 20
12.3626009824
 10
1.1361619803
 20
12.3677075122
 10
1.140985612
 20
12.3726803713
 10
1.1459524371
 20
12.3775106659
 10
1.1510536214
 20
12.3821937624
 10
1.1562792715
 20
12.3867260922
 10
1.1616194943
 20
12.3911040868
 10
1.1670643966
 20
12.3953241774
 10
1.1726040852
 20
12.3993827956
 10
1.1782321444
 20
12.4032784571
 10
1.1839560686
 20
12.4070180154
 10
1.1897868298
 20
12.4106104083
 10
1.1957300602
 20
12.414061211
 10
1.2017700335
 20
12.4173625475
 10
1.2078856833
 20
12.4205031794
 10
1.2152985162
 20
12.424047192
 10
1.2227765138
 20
12.4273434368
 10
1.2303062019
 20
12.4303917442
 10
1.2378741063
 20
12.4331919447
 10
1.2454667529
 20
12.4357438688
 10
1.2530723321
 20
12.438047845
 10
1.2606856927
 20
12.4401061943
 10
1.2683033483
 20
12.4419217354
 10
1.2759218123
 20
12.4434972874
 10
1.2835375983
 20
12.4448356691
 10
1.291151062
 20
12.4459385766
 10
1.2987779283
 20
12.4468032145
 10
1.3064377644
 20
12.4474256642
 10
1.3141501376
 20
12.4478020075
 10
1.321934615
 20
12.447928326
  0
LWPOLYLINE
  5
312
100
AcDbEntity
  8
ASSI
100
AcDbPolyline
 62
253
  6
CONTINUOUS
 90
18
 70
0
 10
-11.4093488175
 20
-21.8569977701
 10
-11.4089300561
 20
-21.8562243787
 10
-11.4085125206
 20
-21.8551649139
 10
-11.4080962108
 20
-21.8538193757
 10
-11.4076808806
 20
-21.8521866465
 10
-11.4072667763
 20
-21.8502678439
 10
-11.4068546364
 20
-21.8480663212
 10
-11.4064444713
 20
-21.8455815972
 10
-11.4060362708
 20
-21.842814153
 10
-11.4056307421
 20
-21.8397687857
 10
-11.4052278908
 20
-21.8364450184
 10
-11.4048277113
 20
-21.832843328
 10
-11.4044308947
 20
-21.8289699416
 10
-11.4040374464
 20
-21.8248243868
 10
-11.4036473609
 20
-21.820407136
 10
-11.4032613128
 20
-21.8157258345
 10
-11.4028793091
 20
-21.810780025
 10
-11.4021280675
 20
-21.800105271
  0
LINE
  5
313
100
AcDbEntity
  8
ASSI
100
AcDbLine
 62
7
  6
CONTINUOUS
 10
-8.9001491265
 20
-0.1993687656
 11
-8.6376831359
 21
-0.1731881622
  0
LWPOLYLINE
  5
314
100
AcDbEntity
  8
ASSI
100
AcDbPolyline
 62
253
  6
CONTINUOUS
 90
6
 70
0
 10
-11.3554913096
 20
0.0960952321
 10
-11.354793016
 20
0.0961629177
 10
-11.3536910771
 20
0.0962303972
 10
-11.3521863843
 20
0.0962976612
 10
-11.3502801587
 20
0.0963647449
 10
-11.3479739397
 20
0.0964315951
  0
LINE
  5
315
100
AcDbEntity
  8
ASSI
100
AcDbLine
 62
253
  6
CONTINUOUS
 10
-11.0989830923
 20
-0.1534655385
 11
-11.0952938392
 21
-0.1533456786
  0
LINE
  5
316
100
AcDbEntity
  8
ASSI
100
AcDbLine
 62
253
  6
CONTINUOUS
 10
-11.0952938392
 20
-0.1533456786
 11
-11.0908291108
 21
-0.1532278454
  0
LINE
  5
317
100
AcDbEntity
  8
ASSI
100
AcDbLine
 62
253
  6
CONTINUOUS
 10
-11.3479739397
 20
0.0964315951
 11
-11.3421692325
 21
0.0965641614
  0
LINE
  5
318
100
AcDbEntity
  8
ASSI
100
AcDbLine
 62
253
  6
CONTINUOUS
 10
-11.0908291108
 20
-0.1532278454
 11
-11.0827127034
 21
-0.1530557458
  0
LINE
  5
319
100
AcDbEntity
  8
ASSI
100
AcDbLine
 62
253
  6
CONTINUOUS
 10
-11.3421692325
 20
0.0965641614
 11
-11.3305191201
 21
0.0967596344
  0
LINE
  5
31A
100
AcDbEntity
  8
ASSI
100
AcDbLine
 62
253
  6
CONTINUOUS
 10
-11.0827127034
 20
-0.1530557458
 11
-11.0655527089
 21
-0.1527843431
  0
LINE
  5
31B
100
AcDbEntity
  8
ASSI
100
AcDbLine
 62
253
  6
CONTINUOUS
 10
-11.3305191201
 20
0.0967596344
 11
-11.3034794083
 21
0.0970727981
  0
LINE
  5
31C
100
AcDbEntity
  8
ASSI
100
AcDbLine
 62
253
  6
CONTINUOUS
 10
-11.0655527089
 20
-0.1527843431
 11
-11.0345027466
 21
-0.1524457166
  0
LINE
  5
31D
100
AcDbEntity
  8
ASSI
100
AcDbLine
 62
253
  6
CONTINUOUS
 10
-11.0345027466
 20
-0.1524457166
 11
-11.0135017638
 21
-0.1522785395
  0
LINE
  5
31E
100
AcDbEntity
  8
ASSI
100
AcDbLine
 62
253
  6
CONTINUOUS
 10
-11.3034794083
 20
0.0970727981
 11
-11.2132123849
 21
0.0976786792
  0
LINE
  5
31F
100
AcDbEntity
  8
ASSI
100
AcDbLine
 62
253
  6
CONTINUOUS
 10
-11.2132123849
 20
0.0976786792
 11
10.4173889166
 21
0.0977730163
  0
LINE
  5
320
100
AcDbEntity
  8
ASSI
100
AcDbLine
 62
253
  6
CONTINUOUS
 10
10.4173889166
 20
0.0977730163
 11
10.5215997322
 21
0.0971330601
  0
LINE
  5
321
100
AcDbEntity
  8
ASSI
100
AcDbLine
 62
253
  6
CONTINUOUS
 10
10.238135492
 20
-0.1522785395
 11
10.2821126397
 21
-0.1526821743
  0
LINE
  5
322
100
AcDbEntity
  8
ASSI
100
AcDbLine
 62
253
  6
CONTINUOUS
 10
10.5215997322
 20
0.0971330601
 11
10.5504969624
 21
0.0968236933
  0
LINE
  5
323
100
AcDbEntity
  8
ASSI
100
AcDbLine
 62
253
  6
CONTINUOUS
 10
10.2821126397
 20
-0.1526821743
 11
10.3010158141
 21
-0.1529446682
  0
LINE
  5
324
100
AcDbEntity
  8
ASSI
100
AcDbLine
 62
253
  6
CONTINUOUS
 10
10.5504969624
 20
0.0968236933
 11
10.5633091505
 21
0.0966298596
  0
LINE
  5
325
100
AcDbEntity
  8
ASSI
100
AcDbLine
 62
253
  6
CONTINUOUS
 10
10.3010158141
 20
-0.1529446682
 11
10.3129456653
 21
-0.1531698298
  0
LWPOLYLINE
  5
326
100
AcDbEntity
  8
ASSI
100
AcDbPolyline
 62
253
  6
CONTINUOUS
 90
8
 70
0
 10
10.5633091505
 20
0.0966298596
 10
10.5699033041
 20
0.09649807
 10
10.5726076679
 20
0.0964315951
 10
10.5749138869
 20
0.0963647449
 10
10.5768201124
 20
0.0962976612
 10
10.5783248053
 20
0.0962303972
 10
10.5794267441
 20
0.0961629177
 10
10.5801250378
 20
0.0960952321
  0
LINE
  5
327
100
AcDbEntity
  8
ASSI
100
AcDbLine
 62
253
  6
CONTINUOUS
 10
10.3129456653
 20
-0.1531698298
 11
10.3177920206
 21
-0.153286509
  0
LWPOLYLINE
  5
328
100
AcDbEntity
  8
ASSI
100
AcDbPolyline
 62
253
  6
CONTINUOUS
 90
10
 70
0
 10
10.3177920206
 20
-0.153286509
 10
10.3218690114
 20
-0.1534053556
 10
10.3236168205
 20
-0.1534655385
 10
10.3251667548
 20
-0.1535260812
 10
10.3265183362
 20
-0.1535869854
 10
10.3276720429
 20
-0.1536482495
 10
10.3286250696
 20
-0.153709722
 10
10.3293764812
 20
-0.1537713527
 10
10.3299272127
 20
-0.1538331919
 10
10.3302772641
 20
-0.1538952396
  0
LINE
  5
329
100
AcDbEntity
  8
ASSI
100
AcDbLine
 62
7
  6
CONTINUOUS
 10
8.1247828547
 20
-0.1993687656
 11
7.8623168641
 21
-0.1731881622
  0
LWPOLYLINE
  5
32A
100
AcDbEntity
  8
0
100
AcDbPolyline
 62
253
  6
CONTINUOUS
 90
55
 70
0
 10
2.6489787478
 20
12.1918469371
 10
2.6488545572
 20
12.1840945523
 10
2.6484844163
 20
12.1764127909
 10
2.6478719717
 20
12.1687820255
 10
2.6470208697
 20
12.1611826284
 10
2.6459347568
 20
12.1535949722
 10
2.6446161781
 20
12.1460033002
 10
2.6430632738
 20
12.1384073388
 10
2.6412730827
 20
12.1308106852
 10
2.6392426435
 20
12.1232169368
 10
2.636968995
 20
12.1156296907
 10
2.6344496524
 20
12.1080541723
 10
2.6316840362
 20
12.1005021189
 10
2.6286720432
 20
12.0929868961
 10
2.6254135702
 20
12.0855218693
 10
2.6219085142
 20
12.078120404
 10
2.6188010104
 20
12.0720128985
 10
2.6155330131
 20
12.0659796648
 10
2.6121153388
 20
12.0600415529
 10
2.6085554722
 20
12.0542141025
 10
2.6048475717
 20
12.0484916097
 10
2.6009824643
 20
12.0428630603
 10
2.5969530814
 20
12.0373209746
 10
2.5927607729
 20
12.0318720115
 10
2.5884089936
 20
12.0265263647
 10
2.5839011979
 20
12.0212942281
 10
2.5792408405
 20
12.0161857952
 10
2.5744313759
 20
12.0112112597
 10
2.5694773457
 20
12.0063797138
 10
2.5643876393
 20
12.0016958429
 10
2.559172233
 20
11.9971632307
 10
2.5538411029
 20
11.9927854611
 10
2.5484042255
 20
11.9885661179
 10
2.5428715769
 20
11.984508785
 10
2.5372496383
 20
11.9806149364
 10
2.5315309098
 20
11.9768776081
 10
2.5257043964
 20
11.9732877263
 10
2.5197644572
 20
11.9698395986
 10
2.5137268684
 20
11.9665410579
 10
2.5076127604
 20
11.9634033186
 10
2.5002007481
 20
11.9598628665
 10
2.4927225164
 20
11.9565702203
 10
2.4851916059
 20
11.9535254835
 10
2.4776215573
 20
11.9507287594
 10
2.4700259111
 20
11.9481801512
 10
2.4624165531
 20
11.9458792705
 10
2.4547987491
 20
11.9438237612
 10
2.4471761101
 20
11.942010775
 10
2.4395522468
 20
11.9404374639
 10
2.4319307704
 20
11.9391009799
 10
2.4243113838
 20
11.9379996046
 10
2.4166781585
 20
11.9371361382
 10
2.4090112583
 20
11.9365145108
 10
2.4012908467
 20
11.9361386523
 10
2.3934970876
 20
11.9360124928
  0
LINE
  5
32B
100
AcDbEntity
  8
ASSI
100
AcDbLine
 62
253
  6
CONTINUOUS
 10
-11.5113758266
 20
-22.0101160733
 11
-11.4093488175
 21
-21.8569977701
  0
LINE
  5
32C
100
AcDbEntity
  8
ASSI
100
AcDbLine
 62
253
  6
CONTINUOUS
 10
-11.0104649412
 20
-22.5076067061
 11
-10.909653404
 21
-22.3563125375
  0
LINE
  5
32D
100
AcDbEntity
  8
ASSI
100
AcDbLine
 62
253
  6
CONTINUOUS
 10
-11.2876069342
 20
-0.1993687656
 11
-11.105643536
 21
-0.1538952396
  0
LINE
  5
32E
100
AcDbEntity
  8
ASSI
100
AcDbLine
 62
253
  6
CONTINUOUS
 10
-11.5376831359
 20
0.0505646132
 11
-11.3554913096
 21
0.0960952244
  0
LWPOLYLINE
  5
32F
100
AcDbEntity
  8
ASSI
100
AcDbPolyline
 62
253
  6
CONTINUOUS
 90
8
 70
0
 10
-11.105643536
 20
-0.1538952396
 10
-11.1052934845
 20
-0.1538331919
 10
-11.104742753
 20
-0.1537713527
 10
-11.1039913414
 20
-0.153709722
 10
-11.1030383148
 20
-0.1536482495
 10
-11.1018846081
 20
-0.1535869854
 10
-11.1005330266
 20
-0.1535260812
 10
-11.0989830923
 20
-0.1534655385
  0
LINE
  5
330
100
AcDbEntity
  8
ASSI
100
AcDbLine
 62
253
  6
CONTINUOUS
 10
10.3302772641
 20
-0.1538952396
 11
10.5122406623
 21
-0.1993687656
  0
LINE
  5
331
100
AcDbEntity
  8
ASSI
100
AcDbLine
 62
253
  6
CONTINUOUS
 10
10.5801250378
 20
0.0960952244
 11
10.7623168641
 21
0.0505646132
  0
LINE
  5
332
100
AcDbEntity
  8
ASSI
100
AcDbLine
 62
253
  6
CONTINUOUS
 10
-11.4093488175
 20
21.258260239
 11
-11.5113758266
 21
21.4113785422
  0
LINE
  5
333
100
AcDbEntity
  8
ASSI
100
AcDbLine
 62
253
  6
CONTINUOUS
 10
-10.909653404
 20
21.7575750063
 11
-11.0104649412
 21
21.908869175
  0
LWPOLYLINE
  5
334
100
AcDbEntity
  8
ASSI
100
AcDbPolyline
 62
253
  6
CONTINUOUS
 90
13
 70
0
 10
10.1342871322
 20
21.7575750063
 10
10.1338682692
 20
21.756030233
 10
10.1334506621
 20
21.7539103993
 10
10.1330343111
 20
21.7512167355
 10
10.1326189819
 20
21.7479508089
 10
10.1322049087
 20
21.7441145066
 10
10.1317927939
 20
21.7397100244
 10
10.1313826331
 20
21.7347398844
 10
10.1309744307
 20
21.7292069652
 10
10.1305689029
 20
21.7231144852
 10
10.1301660592
 20
21.7164659787
 10
10.1297658901
 20
21.7092652744
 10
10.1289756412
 20
21.6932241704
  0
LWPOLYLINE
  5
335
100
AcDbEntity
  8
0
100
AcDbPolyline
 62
253
  6
CONTINUOUS
 90
53
 70
0
 10
-2.2645096024
 20
-11.7070717312
 10
-2.260560463
 20
-11.7004473449
 10
-2.2564323943
 20
-11.6940049128
 10
-2.252118799
 20
-11.6877257496
 10
-2.2476130795
 20
-11.6815911702
 10
-2.2429086384
 20
-11.6755824893
 10
-2.2379998601
 20
-11.6696849028
 10
-2.2328850567
 20
-11.663899131
 10
-2.2275635219
 20
-11.6582297751
 10
-2.2220345496
 20
-11.6526814366
 10
-2.2162974337
 20
-11.6472587169
 10
-2.2103526661
 20
-11.6419673598
 10
-2.2042055312
 20
-11.6368176798
 10
-2.1978625114
 20
-11.631821134
 10
-2.1913300892
 20
-11.6269891795
 10
-2.1846147469
 20
-11.6223332733
 10
-2.1788861928
 20
-11.6185970814
 10
-2.1730545734
 20
-11.6150036295
 10
-2.1671393495
 20
-11.6115654452
 10
-2.1611544965
 20
-11.6082921468
 10
-2.1550920488
 20
-11.6051817146
 10
-2.1489385554
 20
-11.6022292195
 10
-2.1414214682
 20
-11.5988912756
 10
-2.1337680094
 20
-11.5957862266
 10
-2.1259922827
 20
-11.5929266361
 10
-2.1181083915
 20
-11.5903250678
 10
-2.1101304398
 20
-11.5879940852
 10
-2.1020731389
 20
-11.5859436693
 10
-2.0939536311
 20
-11.5841734701
 10
-2.0857896667
 20
-11.582680555
 10
-2.0775989956
 20
-11.5814619914
 10
-2.0693993682
 20
-11.5805148465
 10
-2.0625682559
 20
-11.5799306709
 10
-2.0557292012
 20
-11.5795306089
 10
-2.0488681551
 20
-11.5793123255
 10
-2.0419774267
 20
-11.5792737561
 10
-2.0350747581
 20
-11.5794139178
 10
-2.0281842496
 20
-11.5797320983
 10
-2.0199606617
 20
-11.5803469945
 10
-2.0118011607
 20
-11.5812105676
 10
-2.0037176182
 20
-11.5823161733
 10
-1.9957219062
 20
-11.5836571674
 10
-1.9878258964
 20
-11.5852269056
 10
-1.980039758
 20
-11.5870191458
 10
-1.9723668493
 20
-11.589029255
 10
-1.9648088263
 20
-11.5912530023
 10
-1.9573673446
 20
-11.593686157
 10
-1.9500440599
 20
-11.5963244882
 10
-1.9428378145
 20
-11.5991666755
 10
-1.9357361955
 20
-11.6022230399
 10
-1.9287239766
 20
-11.6055068127
 10
-1.9217859315
 20
-11.6090312253
 10
-1.9149068336
 20
-11.6128095091
  0
LWPOLYLINE
  5
336
100
AcDbEntity
  8
0
100
AcDbPolyline
 62
253
  6
CONTINUOUS
 90
44
 70
0
 10
-1.3643971254
 20
-12.2263958978
 10
-1.3672801993
 20
-12.2311938528
 10
-1.3702616332
 20
-12.2358739385
 10
-1.3733415731
 20
-12.2404436378
 10
-1.3765201647
 20
-12.2449104338
 10
-1.379797554
 20
-12.2492818095
 10
-1.3831738868
 20
-12.253565248
 10
-1.3866493088
 20
-12.2577682321
 10
-1.3902239661
 20
-12.261898245
 10
-1.3944308392
 20
-12.2665364937
 10
-1.3987668402
 20
-12.2710883011
 10
-1.4032312933
 20
-12.2755527613
 10
-1.4078235224
 20
-12.2799289687
 10
-1.4125428518
 20
-12.2842160174
 10
-1.4173886054
 20
-12.2884130018
 10
-1.4223601076
 20
-12.2925190161
 10
-1.427455515
 20
-12.2965323314
 10
-1.4326683152
 20
-12.3004479259
 10
-1.4379908286
 20
-12.3042599545
 10
-1.4434153755
 20
-12.3079625723
 10
-1.4489342761
 20
-12.3115499343
 10
-1.4545398507
 20
-12.3150161954
 10
-1.4602244197
 20
-12.3183555106
 10
-1.4659800465
 20
-12.3215624537
 10
-1.4717977675
 20
-12.3246332739
 10
-1.4776683622
 20
-12.327564639
 10
-1.4835826101
 20
-12.330353217
 10
-1.4895312907
 20
-12.3329956758
 10
-1.4955051835
 20
-12.3354886834
 10
-1.5014950681
 20
-12.3378289076
 10
-1.5074931023
 20
-12.3400136512
 10
-1.5134969573
 20
-12.3420427558
 10
-1.5195056826
 20
-12.3439166978
 10
-1.5255183278
 20
-12.3456359536
 10
-1.5315339423
 20
-12.3472009998
 10
-1.5375515758
 20
-12.3486123126
 10
-1.5435702777
 20
-12.3498703686
 10
-1.5495908696
 20
-12.3509748019
 10
-1.5556212609
 20
-12.3519218784
 10
-1.5616711333
 20
-12.3527070215
 10
-1.5677501683
 20
-12.3533256548
 10
-1.5738680474
 20
-12.3537732017
 10
-1.5800344522
 20
-12.354045086
 10
-1.5862590642
 20
-12.3541367311
  0
LWPOLYLINE
  5
337
100
AcDbEntity
  8
0
100
AcDbPolyline
 62
253
  6
CONTINUOUS
 90
53
 70
0
 10
-2.4541280665
 20
10.0781788821
 10
-2.4595257438
 20
10.0837759112
 10
-2.4646981327
 20
10.0894960507
 10
-2.4696617231
 20
10.0953505993
 10
-2.474433005
 20
10.1013508556
 10
-2.4790284684
 20
10.1075081183
 10
-2.483461089
 20
10.1138317272
 10
-2.4877297853
 20
10.1203231865
 10
-2.4918299613
 20
10.1269820417
 10
-2.4957570213
 20
10.1338078382
 10
-2.4995063694
 20
10.1408001214
 10
-2.503072592
 20
10.1479569311
 10
-2.506447005
 20
10.1552702842
 10
-2.5096201065
 20
10.162730692
 10
-2.5125823945
 20
10.1703286658
 10
-2.5153243672
 20
10.1780547168
 10
-2.5174339377
 20
10.1845812351
 10
-2.5193768829
 20
10.1911675236
 10
-2.5211461728
 20
10.197790999
 10
-2.5227361737
 20
10.2044352037
 10
-2.5241468374
 20
10.2111081804
 10
-2.5253795117
 20
10.2178240973
 10
-2.5266239615
 20
10.2259530001
 10
-2.5276061082
 20
10.234147659
 10
-2.5283180121
 20
10.2423915939
 10
-2.5287517336
 20
10.2506683249
 10
-2.5288993331
 20
10.2589613722
 10
-2.5287555137
 20
10.2672542427
 10
-2.5283255496
 20
10.2755303915
 10
-2.527617358
 20
10.2837732601
 10
-2.5266388557
 20
10.2919662906
 10
-2.5253979599
 20
10.3000929247
 10
-2.5241681618
 20
10.3068064031
 10
-2.522760282
 20
10.3134763839
 10
-2.5211729588
 20
10.320116977
 10
-2.5194062249
 20
10.3267361583
 10
-2.5174656902
 20
10.3333173683
 10
-2.5153583593
 20
10.3398379135
 10
-2.5126188089
 20
10.347555479
 10
-2.509658594
 20
10.3551434397
 10
-2.5064871505
 20
10.3625922264
 10
-2.5031139139
 20
10.36989227
 10
-2.4995483201
 20
10.3770340014
 10
-2.4957989869
 20
10.384009358
 10
-2.4918712605
 20
10.3908163033
 10
-2.4877696692
 20
10.3974543075
 10
-2.4834987414
 20
10.4039228406
 10
-2.4790630055
 20
10.4102213729
 10
-2.4744634488
 20
10.4163513149
 10
-2.4696868944
 20
10.4223218398
 10
-2.4647166244
 20
10.4281440613
 10
-2.4595359211
 20
10.433829093
 10
-2.4541280665
 20
10.4393880487
  0
LWPOLYLINE
  5
338
100
AcDbEntity
  8
0
100
AcDbPolyline
 62
253
  6
CONTINUOUS
 90
53
 70
0
 10
0.6097119909
 20
-13.3661503419
 10
0.6136860318
 20
-13.3595349188
 10
0.6178372814
 20
-13.353101757
 10
0.6221724132
 20
-13.3468322382
 10
0.6266981007
 20
-13.3407077447
 10
0.6314210173
 20
-13.3347096582
 10
0.6363468457
 20
-13.3288232296
 10
0.641477305
 20
-13.3230491842
 10
0.6468131234
 20
-13.317392116
 10
0.6523550291
 20
-13.3118566191
 10
0.6581037502
 20
-13.3064472876
 10
0.6640588116
 20
-13.3011698613
 10
0.6702149238
 20
-13.2960346631
 10
0.676565594
 20
-13.2910531617
 10
0.6831043293
 20
-13.2862368259
 10
0.6898246369
 20
-13.2815971243
 10
0.6955562897
 20
-13.277874885
 10
0.7013900466
 20
-13.2742957633
 10
0.7073064289
 20
-13.2708722497
 10
0.7132914386
 20
-13.2676139407
 10
0.7193530011
 20
-13.2645188566
 10
0.7255045226
 20
-13.2615821233
 10
0.7330177762
 20
-13.2582636737
 10
0.7406658775
 20
-13.2551786268
 10
0.7484348283
 20
-13.2523393785
 10
0.7563106304
 20
-13.2497583244
 10
0.7642792855
 20
-13.2474478604
 10
0.7723261664
 20
-13.2454178042
 10
0.7804341287
 20
-13.2436676602
 10
0.788585399
 20
-13.2421943548
 10
0.7967622039
 20
-13.2409948143
 10
0.80494677
 20
-13.2400659649
 10
0.8117643922
 20
-13.2394963932
 10
0.8185890426
 20
-13.2391103415
 10
0.8254347027
 20
-13.2389054845
 10
0.8323090444
 20
-13.2388797535
 10
0.839194503
 20
-13.2390321063
 10
0.8460672047
 20
-13.2393617577
 10
0.8542689092
 20
-13.2399893912
 10
0.8624061078
 20
-13.2408645893
 10
0.8704670431
 20
-13.241980738
 10
0.8784399573
 20
-13.2433312231
 10
0.8863130931
 20
-13.2449094304
 10
0.8940763686
 20
-13.2467091447
 10
0.9017264045
 20
-13.2487257462
 10
0.9092614973
 20
-13.2509550139
 10
0.9166799434
 20
-13.2533927268
 10
0.9239800392
 20
-13.256034664
 10
0.9311628942
 20
-13.2588795096
 10
0.9382408695
 20
-13.2619375682
 10
0.9452291394
 20
-13.2652220496
 10
0.9521428781
 20
-13.2687461636
 10
0.9589972598
 20
-13.2725231197
  0
LWPOLYLINE
  5
339
100
AcDbEntity
  8
0
100
AcDbPolyline
 62
253
  6
CONTINUOUS
 90
53
 70
0
 10
-2.4541280665
 20
13.9442705478
 10
-2.4594971181
 20
13.9497902042
 10
-2.4646437052
 20
13.9554356234
 10
-2.4695842112
 20
13.9612180106
 10
-2.4743350197
 20
13.967148571
 10
-2.4789125143
 20
13.9732385097
 10
-2.4833295778
 20
13.9794970913
 10
-2.4875850908
 20
13.985925819
 10
-2.4916744335
 20
13.9925242553
 10
-2.4955929858
 20
13.9992919629
 10
-2.4993361277
 20
14.0062285044
 10
-2.5028984308
 20
14.0133319621
 10
-2.5062712318
 20
14.0205944965
 10
-2.5094450588
 20
14.0280067882
 10
-2.51241044
 20
14.0355595175
 10
-2.5151579037
 20
14.0432433646
 10
-2.5172738931
 20
14.0497371959
 10
-2.5192249004
 20
14.0562933536
 10
-2.5210038527
 20
14.0628895818
 10
-2.5226050682
 20
14.0695097245
 10
-2.5240284291
 20
14.0761620241
 10
-2.5252752087
 20
14.0828608228
 10
-2.5265382846
 20
14.090974008
 10
-2.5275405266
 20
14.0991579148
 10
-2.5282735446
 20
14.1073956535
 10
-2.5287289484
 20
14.1156703343
 10
-2.5288983477
 20
14.1239650677
 10
-2.5287760149
 20
14.1322630421
 10
-2.528366873
 20
14.1405477591
 10
-2.5276785074
 20
14.1488027986
 10
-2.5267185036
 20
14.1570117403
 10
-2.5254944471
 20
14.165158164
 10
-2.524277192
 20
14.1718912077
 10
-2.5228803827
 20
14.1785836927
 10
-2.521302567
 20
14.1852498786
 10
-2.5195437042
 20
14.1918977867
 10
-2.5176093977
 20
14.1985104856
 10
-2.5155066623
 20
14.2050648053
 10
-2.5127705042
 20
14.2128253534
 10
-2.509811475
 20
14.22045872
 10
-2.5066391402
 20
14.227955154
 10
-2.5032630652
 20
14.2353049044
 10
-2.4996928157
 20
14.2424982201
 10
-2.495937112
 20
14.2495269053
 10
-2.4920012949
 20
14.2563889864
 10
-2.4878898603
 20
14.2630840453
 10
-2.4836073039
 20
14.2696116637
 10
-2.4791581215
 20
14.2759714236
 10
-2.4745432721
 20
14.2821648427
 10
-2.4697495673
 20
14.2882011832
 10
-2.4647602816
 20
14.2940916432
 10
-2.4595586898
 20
14.2998474209
 10
-2.4541280665
 20
14.3054797144
  0
LWPOLYLINE
  5
33A
100
AcDbEntity
  8
0
100
AcDbPolyline
 62
253
  6
CONTINUOUS
 90
53
 70
0
 10
0.6543379653
 20
10.8356280486
 10
0.6489562281
 20
10.8411791515
 10
0.6437971673
 20
10.8468545831
 10
0.6388443309
 20
10.8526657437
 10
0.6340812671
 20
10.858624034
 10
0.6294915241
 20
10.8647408544
 10
0.6250621776
 20
10.8710256253
 10
0.6207944138
 20
10.8774798456
 10
0.6166929466
 20
10.884103034
 10
0.6127624898
 20
10.8908947094
 10
0.6090077571
 20
10.8978543904
 10
0.6054342653
 20
10.9049801265
 10
0.6020507425
 20
10.9122640902
 10
0.5988667195
 20
10.9196969845
 10
0.5958917274
 20
10.9272695125
 10
0.5931352971
 20
10.9349723773
 10
0.5910123719
 20
10.9414814803
 10
0.5890549623
 20
10.9480524189
 10
0.5872701864
 20
10.9546629731
 10
0.5856637699
 20
10.9612970198
 10
0.5842358706
 20
10.9679628235
 10
0.582985254
 20
10.9746747457
 10
0.5817185533
 20
10.9828031994
 10
0.580713814
 20
10.9910018609
 10
0.5799794879
 20
10.9992538473
 10
0.5795240267
 20
11.0075422757
 10
0.5793558822
 20
11.015850263
 10
0.5794808083
 20
11.0241609855
 10
0.5798937671
 20
11.0324578566
 10
0.5805870227
 20
11.0407243487
 10
0.5815528394
 20
11.0489439345
 10
0.5827834812
 20
11.0571000863
 10
0.5840067099
 20
11.0638404694
 10
0.5854098635
 20
11.0705395789
 10
0.5869943329
 20
11.0772116703
 10
0.5887601022
 20
11.0838647815
 10
0.5907015299
 20
11.0904820811
 10
0.592811568
 20
11.0970405206
 10
0.5955566912
 20
11.1048055205
 10
0.5985248977
 20
11.1124428654
 10
0.6017066211
 20
11.1199428492
 10
0.6050922948
 20
11.1272957652
 10
0.6086723525
 20
11.1344919073
 10
0.6124380594
 20
11.1415230995
 10
0.6163840068
 20
11.1483872879
 10
0.6205056181
 20
11.1550839489
 10
0.6247983164
 20
11.1616125591
 10
0.6292575247
 20
11.167972595
 10
0.6338822418
 20
11.1741655042
 10
0.6386857683
 20
11.1802006182
 10
0.6436849803
 20
11.1860892396
 10
0.6488967539
 20
11.1918426711
 10
0.6543379653
 20
11.1974722152
  0
LWPOLYLINE
  5
33B
100
AcDbEntity
  8
0
100
AcDbPolyline
 62
253
  6
CONTINUOUS
 90
53
 70
0
 10
-1.3348347617
 20
11.1974722152
 10
-1.3294455426
 20
11.1918981752
 10
-1.3242796762
 20
11.1862006357
 10
-1.3193206988
 20
11.1803681724
 10
-1.3145521471
 20
11.1743893611
 10
-1.3099575573
 20
11.1682527775
 10
-1.3055239936
 20
11.1619489786
 10
-1.3012526301
 20
11.155476446
 10
-1.2971481689
 20
11.1488356425
 10
-1.2932153117
 20
11.1420270309
 10
-1.2894587604
 20
11.135051074
 10
-1.2858840258
 20
11.1279097154
 10
-1.282499854
 20
11.1206108221
 10
-1.2793158001
 20
11.1131637417
 10
-1.2763414189
 20
11.1055778221
 10
-1.2735862655
 20
11.097862411
 10
-1.2714649276
 20
11.0913435497
 10
-1.2695095809
 20
11.0847635914
 10
-1.2677273394
 20
11.0781448725
 10
-1.2661239219
 20
11.0715036162
 10
-1.2646994645
 20
11.0648315947
 10
-1.2634527081
 20
11.0581144671
 10
-1.2621911438
 20
11.0499811082
 10
-1.2611919868
 20
11.0417789223
 10
-1.2604635682
 20
11.0335246862
 10
-1.2600142193
 20
11.0252351764
 10
-1.2598522714
 20
11.0169271696
 10
-1.2599833606
 20
11.0086174102
 10
-1.2604023433
 20
11.0003225139
 10
-1.2611013805
 20
10.992059064
 10
-1.2620726336
 20
10.9838436439
 10
-1.2633082638
 20
10.9756928369
 10
-1.2645352393
 20
10.9689578466
 10
-1.2659417366
 20
10.9622650045
 10
-1.2675291257
 20
10.9556000722
 10
-1.2692973728
 20
10.9489550089
 10
-1.2712408282
 20
10.942346563
 10
-1.2733524383
 20
10.9357976806
 10
-1.2760988436
 20
10.9280449562
 10
-1.2790676876
 20
10.920420713
 10
-1.2822494232
 20
10.9129346186
 10
-1.2856345035
 20
10.9055963406
 10
-1.2892133815
 20
10.8984155466
 10
-1.2929773374
 20
10.8914003821
 10
-1.2969209603
 20
10.8845529045
 10
-1.3010396664
 20
10.8778736491
 10
-1.305328872
 20
10.8713631514
 10
-1.3097839933
 20
10.8650219465
 10
-1.3144040213
 20
10.8588486019
 10
-1.3192022468
 20
10.8528338127
 10
-1.3241955351
 20
10.846966306
 10
-1.3294007516
 20
10.8412348089
 10
-1.3348347617
 20
10.8356280486
  0
LWPOLYLINE
  5
33C
100
AcDbEntity
  8
ASSI
100
AcDbPolyline
 62
253
  6
CONTINUOUS
 90
17
 70
0
 10
10.6275130373
 20
-21.810780025
 10
10.627895041
 20
-21.8157258345
 10
10.6282810891
 20
-21.820407136
 10
10.6286711746
 20
-21.8248243868
 10
10.6290646229
 20
-21.8289699416
 10
10.6294614395
 20
-21.832843328
 10
10.6298616189
 20
-21.8364450184
 10
10.6302644702
 20
-21.8397687857
 10
10.6306699989
 20
-21.842814153
 10
10.6310781995
 20
-21.8455815972
 10
10.6314883645
 20
-21.8480663212
 10
10.6319005045
 20
-21.8502678439
 10
10.6323146088
 20
-21.8521866465
 10
10.632729939
 20
-21.8538193757
 10
10.6331462488
 20
-21.8551649139
 10
10.6335637843
 20
-21.8562243787
 10
10.6339825457
 20
-21.8569977701
  0
LINE
  5
33D
100
AcDbEntity
  8
ASSI
100
AcDbLine
 62
253
  6
CONTINUOUS
 10
10.6267617957
 20
-21.800105271
 11
10.6275130373
 21
-21.810780025
  0
LINE
  5
33E
100
AcDbEntity
  8
ASSI
100
AcDbLine
 62
253
  6
CONTINUOUS
 10
10.626029334
 20
-21.7884095003
 11
10.6267617957
 21
-21.800105271
  0
LWPOLYLINE
  5
33F
100
AcDbEntity
  8
ASSI
100
AcDbPolyline
 62
253
  6
CONTINUOUS
 90
11
 70
0
 10
10.1301660592
 20
-22.3152035099
 10
10.1305689029
 20
-22.3218520163
 10
10.1309744307
 20
-22.3279444964
 10
10.1313826331
 20
-22.3334774156
 10
10.1317927939
 20
-22.3384475555
 10
10.1322049087
 20
-22.3428520377
 10
10.1326189819
 20
-22.3466883401
 10
10.1330343111
 20
-22.3499542667
 10
10.1334506621
 20
-22.3526479304
 10
10.1338682692
 20
-22.3547677641
 10
10.1342871322
 20
-22.3563125375
  0
LINE
  5
340
100
AcDbEntity
  8
ASSI
100
AcDbLine
 62
253
  6
CONTINUOUS
 10
10.6253175327
 20
-21.775724205
 11
10.626029334
 21
-21.7884095003
  0
LINE
  5
341
100
AcDbEntity
  8
ASSI
100
AcDbLine
 62
253
  6
CONTINUOUS
 10
10.1293690828
 20
-22.3002540481
 11
10.1301660592
 21
-22.3152035099
  0
LINE
  5
342
100
AcDbEntity
  8
ASSI
100
AcDbLine
 62
253
  6
CONTINUOUS
 10
10.6246276214
 20
-21.7620713271
 11
10.6253175327
 21
-21.775724205
  0
LINE
  5
343
100
AcDbEntity
  8
ASSI
100
AcDbLine
 62
253
  6
CONTINUOUS
 10
10.6239614133
 20
-21.7474852676
 11
10.6246276214
 21
-21.7620713271
  0
LINE
  5
344
100
AcDbEntity
  8
ASSI
100
AcDbLine
 62
253
  6
CONTINUOUS
 10
10.1285855614
 20
-22.2831305586
 11
10.1293690828
 21
-22.3002540481
  0
LINE
  5
345
100
AcDbEntity
  8
ASSI
100
AcDbLine
 62
253
  6
CONTINUOUS
 10
10.623320612
 20
-21.732004936
 11
10.6239614133
 21
-21.7474852676
  0
LINE
  5
346
100
AcDbEntity
  8
ASSI
100
AcDbLine
 62
253
  6
CONTINUOUS
 10
10.1278175226
 20
-22.2638726066
 11
10.1285855614
 21
-22.2831305586
  0
LINE
  5
347
100
AcDbEntity
  8
ASSI
100
AcDbLine
 62
253
  6
CONTINUOUS
 10
10.1266977255
 20
-22.2310821743
 11
10.1278175226
 21
-22.2638726066
  0
LINE
  5
348
100
AcDbEntity
  8
ASSI
100
AcDbLine
 62
253
  6
CONTINUOUS
 10
10.1256220581
 20
-22.1937607728
 11
10.1266977255
 21
-22.2310821743
  0
LINE
  5
349
100
AcDbEntity
  8
ASSI
100
AcDbLine
 62
253
  6
CONTINUOUS
 10
10.1242659632
 20
-22.1372889599
 11
10.1256220581
 21
-22.1937607728
  0
LWPOLYLINE
  5
34A
100
AcDbEntity
  8
ASSI
100
AcDbPolyline
 62
253
  6
CONTINUOUS
 90
3
 70
0
 10
10.1224247551
 20
-22.0392869662
 10
10.1227143119
 20
-22.0566601236
 10
10.1242659632
 20
-22.1372889599
  0
LINE
  5
34B
100
AcDbEntity
  8
ASSI
100
AcDbLine
 62
253
  6
CONTINUOUS
 10
10.1239423168
 20
21.5232886673
 11
10.1224247551
 21
21.4405494351
  0
LINE
  5
34C
100
AcDbEntity
  8
ASSI
100
AcDbLine
 62
253
  6
CONTINUOUS
 10
10.1252741484
 20
21.581608749
 11
10.1239423168
 21
21.5232886673
  0
LINE
  5
34D
100
AcDbEntity
  8
ASSI
100
AcDbLine
 62
253
  6
CONTINUOUS
 10
10.1263338466
 20
21.6203985126
 11
10.1252741484
 21
21.581608749
  0
LINE
  5
34E
100
AcDbEntity
  8
ASSI
100
AcDbLine
 62
253
  6
CONTINUOUS
 10
10.1274395635
 20
21.6547193821
 11
10.1263338466
 21
21.6203985126
  0
LINE
  5
34F
100
AcDbEntity
  8
ASSI
100
AcDbLine
 62
253
  6
CONTINUOUS
 10
10.1281995193
 20
21.6750281937
 11
10.1274395635
 21
21.6547193821
  0
LINE
  5
350
100
AcDbEntity
  8
ASSI
100
AcDbLine
 62
253
  6
CONTINUOUS
 10
10.1289756412
 20
21.6932241704
 11
10.1281995193
 21
21.6750281937
  0
LINE
  5
351
100
AcDbEntity
  8
ASSI
100
AcDbLine
 62
253
  6
CONTINUOUS
 10
10.624291557
 20
21.1561573119
 11
10.623320612
 21
21.1332674048
  0
LINE
  5
352
100
AcDbEntity
  8
ASSI
100
AcDbLine
 62
253
  6
CONTINUOUS
 10
10.6249696167
 20
21.1702767806
 11
10.624291557
 21
21.1561573119
  0
LINE
  5
353
100
AcDbEntity
  8
ASSI
100
AcDbLine
 62
253
  6
CONTINUOUS
 10
10.6256707686
 20
21.1834518763
 11
10.6249696167
 21
21.1702767806
  0
LINE
  5
354
100
AcDbEntity
  8
ASSI
100
AcDbLine
 62
253
  6
CONTINUOUS
 10
10.6263932194
 20
21.1956473712
 11
10.6256707686
 21
21.1834518763
  0
LWPOLYLINE
  5
355
100
AcDbEntity
  8
0
100
AcDbPolyline
 62
253
  6
CONTINUOUS
 90
44
 70
0
 10
1.5100008568
 20
-13.8858272863
 10
1.5071103588
 20
-13.8906818378
 10
1.5041174092
 20
-13.8954136956
 10
1.5010223041
 20
-13.9000304228
 10
1.4978253396
 20
-13.9045395826
 10
1.494526812
 20
-13.9089487382
 10
1.4911270174
 20
-13.9132654527
 10
1.4876262519
 20
-13.9174972893
 10
1.4840248117
 20
-13.9216518111
 10
1.4797860727
 20
-13.926312873
 10
1.4754171964
 20
-13.9308821564
 10
1.4709191519
 20
-13.935358987
 10
1.4662929085
 20
-13.9397426905
 10
1.4615394356
 20
-13.9440325924
 10
1.4566597022
 20
-13.9482280184
 10
1.4516546777
 20
-13.9523282941
 10
1.4465264831
 20
-13.9563319319
 10
1.441281846
 20
-13.9602341912
 10
1.4359286461
 20
-13.9640295182
 10
1.4304747628
 20
-13.9677123588
 10
1.4249280756
 20
-13.9712771592
 10
1.419296464
 20
-13.9747183655
 10
1.4135878075
 20
-13.9780304238
 10
1.4078102577
 20
-13.9812081953
 10
1.4019730542
 20
-13.9842482009
 10
1.3960857092
 20
-13.9871473767
 10
1.3901577343
 20
-13.9899026586
 10
1.3841986415
 20
-13.9925109828
 10
1.3782179426
 20
-13.9949692852
 10
1.3722251496
 20
-13.9972745019
 10
1.3662283538
 20
-13.999424217
 10
1.3602299643
 20
-14.0014186072
 10
1.3542309698
 20
-14.0032584975
 10
1.3482323588
 20
-14.0049447126
 10
1.3422351201
 20
-14.0064780776
 10
1.3362402422
 20
-14.0078594171
 10
1.3302487138
 20
-14.0090895562
 10
1.3242596968
 20
-14.010168487
 10
1.3182650465
 20
-14.0110928714
 10
1.3122547917
 20
-14.0118585387
 10
1.3062189609
 20
-14.0124613179
 10
1.3001475829
 20
-14.0128970383
 10
1.2940306862
 20
-14.0131615291
 10
1.2878582995
 20
-14.0132506196
  0
LINE
  5
356
100
AcDbEntity
  8
ASSI
100
AcDbLine
 62
253
  6
CONTINUOUS
 10
-11.329006852
 20
9.1940570058
 11
-11.3185585199
 21
9.1945664829
  0
LINE
  5
357
100
AcDbEntity
  8
ASSI
100
AcDbLine
 62
253
  6
CONTINUOUS
 10
-11.3185585199
 20
9.1945664829
 11
-11.3066233028
 21
9.1950648468
  0
LINE
  5
358
100
AcDbEntity
  8
ASSI
100
AcDbLine
 62
253
  6
CONTINUOUS
 10
-11.3066233028
 20
9.1950648468
 11
-11.2932398116
 21
9.1955504854
  0
LINE
  5
359
100
AcDbEntity
  8
ASSI
100
AcDbLine
 62
253
  6
CONTINUOUS
 10
-11.2932398116
 20
9.1955504854
 11
-11.2705450178
 21
9.1962516589
  0
LINE
  5
35A
100
AcDbEntity
  8
ASSI
100
AcDbLine
 62
253
  6
CONTINUOUS
 10
-11.2705450178
 20
9.1962516589
 11
-11.235658111
 21
9.1971277564
  0
LINE
  5
35B
100
AcDbEntity
  8
ASSI
100
AcDbLine
 62
253
  6
CONTINUOUS
 10
-11.235658111
 20
9.1971277564
 11
-11.1852587872
 21
9.1981126134
  0
LINE
  5
35C
100
AcDbEntity
  8
ASSI
100
AcDbLine
 62
253
  6
CONTINUOUS
 10
-11.1852587872
 20
9.1981126134
 11
-11.1161819281
 21
9.1991068256
  0
LINE
  5
35D
100
AcDbEntity
  8
ASSI
100
AcDbLine
 62
253
  6
CONTINUOUS
 10
-11.1161819281
 20
9.1991068256
 11
-11.0263000742
 21
9.199972222
  0
LINE
  5
35E
100
AcDbEntity
  8
ASSI
100
AcDbLine
 62
253
  6
CONTINUOUS
 10
-11.0263000742
 20
9.199972222
 11
-10.9157014836
 21
9.2005321637
  0
LINE
  5
35F
100
AcDbEntity
  8
ASSI
100
AcDbLine
 62
253
  6
CONTINUOUS
 10
-10.9157014836
 20
9.2005321637
 11
10.0835728226
 21
9.2006312344
  0
LINE
  5
360
100
AcDbEntity
  8
ASSI
100
AcDbLine
 62
253
  6
CONTINUOUS
 10
10.1963636817
 20
9.2003115421
 11
10.0835728226
 21
9.2006312344
  0
LINE
  5
361
100
AcDbEntity
  8
ASSI
100
AcDbLine
 62
253
  6
CONTINUOUS
 10
10.30334
 20
9.1995185909
 11
10.1963636817
 21
9.2003115421
  0
LINE
  5
362
100
AcDbEntity
  8
ASSI
100
AcDbLine
 62
253
  6
CONTINUOUS
 10
10.3764195172
 20
9.198637027
 11
10.30334
 21
9.1995185909
  0
LWPOLYLINE
  5
363
100
AcDbEntity
  8
0
100
AcDbPolyline
 62
253
  6
CONTINUOUS
 90
55
 70
0
 10
-0.3401778426
 20
9.2019494379
 10
-0.3479303193
 20
9.2020750453
 10
-0.355612102
 20
9.2024493293
 10
-0.3632426534
 20
9.203068483
 10
-0.3708414361
 20
9.2039286992
 10
-0.3784279129
 20
9.2050261708
 10
-0.3860177152
 20
9.2063581958
 10
-0.3936111489
 20
9.2079264914
 10
-0.4012046889
 20
9.2097338802
 10
-0.4087948099
 20
9.2117831844
 10
-0.4163779866
 20
9.2140772263
 10
-0.4239490629
 20
9.216618341
 10
-0.4314963597
 20
9.2194069137
 10
-0.4390065671
 20
9.2224428424
 10
-0.446466375
 20
9.225726025
 10
-0.4538624737
 20
9.2292563596
 10
-0.4599654341
 20
9.2323852023
 10
-0.4659940917
 20
9.2356745945
 10
-0.471927629
 20
9.2391135232
 10
-0.4777505222
 20
9.2426943113
 10
-0.483468421
 20
9.2464226255
 10
-0.4890922681
 20
9.2503074684
 10
-0.4946295112
 20
9.2543557515
 10
-0.5000736155
 20
9.2585660222
 10
-0.5054145506
 20
9.2629347366
 10
-0.5106422863
 20
9.267458351
 10
-0.5157467923
 20
9.2721333217
 10
-0.5207180382
 20
9.2769561049
 10
-0.5255470669
 20
9.2819221118
 10
-0.5302292135
 20
9.2870225737
 10
-0.5347608862
 20
9.2922476764
 10
-0.5391384932
 20
9.2975876063
 10
-0.5433584428
 20
9.3030325493
 10
-0.5474171432
 20
9.3085726916
 10
-0.5513130879
 20
9.3142016841
 10
-0.5550531116
 20
9.3199270366
 10
-0.5586461345
 20
9.3257597239
 10
-0.5620977079
 20
9.3317053724
 10
-0.565399909
 20
9.3377482152
 10
-0.5685414461
 20
9.3438671369
 10
-0.5720865382
 20
9.351284369
 10
-0.5753838364
 20
9.3587672535
 10
-0.578433163
 20
9.3663022955
 10
-0.5812343399
 20
9.3738759996
 10
-0.5837871893
 20
9.3814748708
 10
-0.5860920323
 20
9.3890870866
 10
-0.5881511871
 20
9.3967075157
 10
-0.5899674711
 20
9.4043326995
 10
-0.5915437017
 20
9.4119591796
 10
-0.5928826961
 20
9.4195834973
 10
-0.5939861459
 20
9.4272060279
 10
-0.5948512392
 20
9.4348424819
 10
-0.5954740383
 20
9.4425124036
 10
-0.5958506054
 20
9.4502353371
 10
-0.5959770028
 20
9.4580308267
  0
LINE
  5
364
100
AcDbEntity
  8
ASSI
100
AcDbLine
 62
253
  6
CONTINUOUS
 10
10.430903065
 20
9.1977345316
 11
10.3764195172
 21
9.198637027
  0
LINE
  5
365
100
AcDbEntity
  8
ASSI
100
AcDbLine
 62
253
  6
CONTINUOUS
 10
10.4694889528
 20
9.1969155743
 11
10.430903065
 21
9.1977345316
  0
LINE
  5
366
100
AcDbEntity
  8
ASSI
100
AcDbLine
 62
253
  6
CONTINUOUS
 10
10.495178746
 20
9.1962516589
 11
10.4694889528
 21
9.1969155743
  0
LINE
  5
367
100
AcDbEntity
  8
ASSI
100
AcDbLine
 62
253
  6
CONTINUOUS
 10
10.5178735398
 20
9.1955504854
 11
10.495178746
 21
9.1962516589
  0
LINE
  5
368
100
AcDbEntity
  8
ASSI
100
AcDbLine
 62
253
  6
CONTINUOUS
 10
10.531257031
 20
9.1950648468
 11
10.5178735398
 21
9.1955504854
  0
LINE
  5
369
100
AcDbEntity
  8
ASSI
100
AcDbLine
 62
253
  6
CONTINUOUS
 10
10.5431922481
 20
9.1945664829
 11
10.531257031
 21
9.1950648468
  0
LINE
  5
36A
100
AcDbEntity
  8
0
100
AcDbLine
 62
253
  6
CONTINUOUS
 10
1.4118236773
 20
10.0781788821
 11
0.6543379653
 21
10.8356280486
  0
LINE
  5
36B
100
AcDbEntity
  8
0
100
AcDbLine
 62
253
  6
CONTINUOUS
 10
-2.0921427979
 20
14.3054797144
 11
-1.3348347617
 21
13.5483480479
  0
LINE
  5
36C
100
AcDbEntity
  8
0
100
AcDbLine
 62
253
  6
CONTINUOUS
 10
-1.6966436413
 20
13.1865038813
 11
-2.4541280665
 21
13.9442705478
  0
LINE
  5
36D
100
AcDbEntity
  8
0
100
AcDbLine
 62
253
  6
CONTINUOUS
 10
1.0158646228
 20
11.1974722152
 11
1.773490159
 21
10.4393880487
  0
LWPOLYLINE
  5
36E
100
AcDbEntity
  8
0
100
AcDbPolyline
 62
253
  6
CONTINUOUS
 90
53
 70
0
 10
1.773490159
 20
10.4393880487
 10
1.7788649299
 20
10.4338741424
 10
1.7840170536
 20
10.4282343737
 10
1.7889630116
 20
10.4224574712
 10
1.7937192854
 20
10.4165321632
 10
1.7983023564
 20
10.4104471783
 10
1.8027251807
 20
10.404193206
 10
1.8069866119
 20
10.3977687788
 10
1.811081978
 20
10.3911743904
 10
1.8150066071
 20
10.3844105342
 10
1.8187558271
 20
10.3774777039
 10
1.8223241652
 20
10.3703778586
 10
1.8257029441
 20
10.3631188202
 10
1.8288826856
 20
10.3557098763
 10
1.8318539115
 20
10.3481603145
 10
1.8346071435
 20
10.3404794223
 10
1.8367278735
 20
10.3339878592
 10
1.8386835391
 20
10.3274337285
 10
1.8404670425
 20
10.3208392148
 10
1.8420726767
 20
10.3142204166
 10
1.843500298
 20
10.3075690884
 10
1.8447511531
 20
10.300870899
 10
1.846018832
 20
10.2927579861
 10
1.847025287
 20
10.2845738916
 10
1.8477620417
 20
10.2763355509
 10
1.84822062
 20
10.2680598998
 10
1.8483925453
 20
10.259763874
 10
1.8482720211
 20
10.2514643284
 10
1.8478639697
 20
10.2431777952
 10
1.8471759931
 20
10.2349207259
 10
1.8462156931
 20
10.2267095718
 10
1.8449906719
 20
10.2185607845
 10
1.8437721159
 20
10.2118256795
 10
1.8423735728
 20
10.2051310758
 10
1.8407936107
 20
10.1984627397
 10
1.8390322069
 20
10.1918126663
 10
1.8370949754
 20
10.1851977653
 10
1.8349889398
 20
10.1786411748
 10
1.8322483347
 20
10.1708777755
 10
1.8292843242
 20
10.1632414098
 10
1.826106467
 20
10.155741825
 10
1.822724322
 20
10.1483887684
 10
1.8191474483
 20
10.1411919872
 10
1.8153845693
 20
10.1341596892
 10
1.8114410682
 20
10.1272939242
 10
1.8073214925
 20
10.1205952023
 10
1.8030303899
 20
10.1140640337
 10
1.7985723082
 20
10.1077009286
 10
1.7939482252
 20
10.1015044346
 10
1.7891448398
 20
10.0954652486
 10
1.7841452809
 20
10.0895721049
 10
1.7789326776
 20
10.083813738
 10
1.773490159
 20
10.0781788821
  0
LWPOLYLINE
  5
36F
100
AcDbEntity
  8
0
100
AcDbPolyline
 62
253
  6
CONTINUOUS
 90
53
 70
0
 10
0.6543379653
 20
13.1865038813
 10
0.6489564206
 20
13.1920529237
 10
0.6437974875
 20
13.1977264969
 10
0.6388447339
 20
13.2035359727
 10
0.6340817278
 20
13.2094927229
 10
0.6294920371
 20
13.2156081192
 10
0.6250627513
 20
13.2218915635
 10
0.6207950465
 20
13.2283445783
 10
0.6166936206
 20
13.2349667164
 10
0.6127631713
 20
13.2417575305
 10
0.6090083964
 20
13.2487165732
 10
0.6054348023
 20
13.2558419194
 10
0.6020511304
 20
13.2631257321
 10
0.5988669306
 20
13.2705586965
 10
0.5958917527
 20
13.2781314979
 10
0.5931351467
 20
13.2858348213
 10
0.5910120961
 20
13.2923444278
 10
0.5890545894
 20
13.2989159321
 10
0.5872697526
 20
13.3055270604
 10
0.5856633163
 20
13.3121616519
 10
0.584235429
 20
13.3188279983
 10
0.5829848442
 20
13.3255405042
 10
0.5817181941
 20
13.3336697572
 10
0.5807135181
 20
13.3418693155
 10
0.5799792698
 20
13.3501222718
 10
0.579523903
 20
13.3584117191
 10
0.5793558717
 20
13.3667207501
 10
0.579480931
 20
13.3750325191
 10
0.579894042
 20
13.3833304267
 10
0.5805874675
 20
13.3915979349
 10
0.5815534699
 20
13.399818506
 10
0.582784312
 20
13.407975602
 10
0.5840077204
 20
13.4147167417
 10
0.5854110795
 20
13.42141662
 10
0.5869957968
 20
13.4280895402
 10
0.588761868
 20
13.4347435679
 10
0.5907036417
 20
13.441361818
 10
0.5928140549
 20
13.447921168
 10
0.5955596442
 20
13.4556871208
 10
0.598528303
 20
13.4633252309
 10
0.6017104311
 20
13.4708257681
 10
0.605096428
 20
13.4781790026
 10
0.6086766934
 20
13.4853752042
 10
0.612442467
 20
13.4924061864
 10
0.6163883484
 20
13.4992699365
 10
0.6205097777
 20
13.505965985
 10
0.6248021947
 20
13.5124938627
 10
0.6292610393
 20
13.5188531001
 10
0.6338853184
 20
13.5250451863
 10
0.6386883078
 20
13.5310794436
 10
0.6436868502
 20
13.5369671526
 10
0.6488977884
 20
13.5427195938
 10
0.6543379653
 20
13.5483480479
  0
LWPOLYLINE
  5
370
100
AcDbEntity
  8
0
100
AcDbPolyline
 62
253
  6
CONTINUOUS
 90
53
 70
0
 10
-1.3348347617
 20
13.5483480479
 10
-1.329445321
 20
13.5427737576
 10
-1.324279193
 20
13.537075873
 10
-1.3193199372
 20
13.5312429964
 10
-1.314551113
 20
13.5252637299
 10
-1.3099562799
 20
13.5191266757
 10
-1.3055225182
 20
13.5128224058
 10
-1.3012509908
 20
13.506349373
 10
-1.2971463812
 20
13.4997079995
 10
-1.2932133732
 20
13.492898708
 10
-1.2894566502
 20
13.4859219209
 10
-1.2858817118
 20
13.4787795517
 10
-1.2824973202
 20
13.471479478
 10
-1.2793130536
 20
13.464031068
 10
-1.2763384901
 20
13.4564436903
 10
-1.2735832079
 20
13.4487267133
 10
-1.2714618195
 20
13.4422064884
 10
-1.2695064846
 20
13.435625171
 10
-1.2677243265
 20
13.4290051624
 10
-1.2661210692
 20
13.4223627326
 10
-1.2646968382
 20
13.4156896276
 10
-1.2634503595
 20
13.408971462
 10
-1.2621891788
 20
13.4008368705
 10
-1.2611904517
 20
13.3926334674
 10
-1.2604625032
 20
13.3843780433
 10
-1.2600136581
 20
13.3760873885
 10
-1.2598522413
 20
13.3677782934
 10
-1.2599838823
 20
13.3594675171
 10
-1.2604034284
 20
13.3511716929
 10
-1.2611030318
 20
13.3429074228
 10
-1.2620748444
 20
13.3346913089
 10
-1.2633110183
 20
13.326539953
 10
-1.2645384317
 20
13.3198046199
 10
-1.2659453645
 20
13.3131115022
 10
-1.2675332018
 20
13.3064463152
 10
-1.2693019198
 20
13.2998009906
 10
-1.2712458589
 20
13.2931923252
 10
-1.2733579505
 20
13.2866433323
 10
-1.2761049082
 20
13.2788906983
 10
-1.2790742474
 20
13.2712668222
 10
-1.2822563891
 20
13.2637813944
 10
-1.2856417539
 20
13.2564441056
 10
-1.2892207627
 20
13.2492646463
 10
-1.2929846714
 20
13.2422511727
 10
-1.2969280757
 20
13.2354057042
 10
-1.3010464064
 20
13.2287287256
 10
-1.3053350943
 20
13.2222207222
 10
-1.3097895701
 20
13.2158821789
 10
-1.3144088319
 20
13.209711625
 10
-1.3192061472
 20
13.2036997673
 10
-1.3241983508
 20
13.1978353568
 10
-1.3294022773
 20
13.1921071445
 10
-1.3348347617
 20
13.1865038813
  0
LINE
  5
371
100
AcDbEntity
  8
ASSI
100
AcDbLine
 62
253
  6
CONTINUOUS
 10
10.6224097352
 20
-21.7071733599
 11
10.623320612
 21
-21.732004936
  0
LINE
  5
372
100
AcDbEntity
  8
ASSI
100
AcDbLine
 62
253
  6
CONTINUOUS
 10
10.6215636489
 20
-21.6805290055
 11
10.6224097352
 21
-21.7071733599
  0
LINE
  5
373
100
AcDbEntity
  8
ASSI
100
AcDbLine
 62
253
  6
CONTINUOUS
 10
10.620543759
 20
-21.6424198422
 11
10.6215636489
 21
-21.6805290055
  0
LINE
  5
374
100
AcDbEntity
  8
ASSI
100
AcDbLine
 62
253
  6
CONTINUOUS
 10
10.61965634
 20
-21.6016919116
 11
10.620543759
 21
-21.6424198422
  0
LWPOLYLINE
  5
375
100
AcDbEntity
  8
ASSI
100
AcDbPolyline
 62
253
  6
CONTINUOUS
 90
46
 70
0
 10
10.5801249709
 20
-0.6948327723
 10
10.5799701744
 20
-0.6861099204
 10
10.5795112834
 20
-0.6773976919
 10
10.5787488569
 20
-0.6687066971
 10
10.5776838234
 20
-0.6600475205
 10
10.5763174799
 20
-0.651430708
 10
10.5746514905
 20
-0.6428667537
 10
10.5726878841
 20
-0.6343660875
 10
10.5704290522
 20
-0.6259390621
 10
10.5678777458
 20
-0.6175959405
 10
10.565037072
 20
-0.6093468837
 10
10.5619104904
 20
-0.6012019379
 10
10.5585018088
 20
-0.5931710226
 10
10.5548151786
 20
-0.5852639185
 10
10.5508550895
 20
-0.5774902555
 10
10.5466263645
 20
-0.5698595008
 10
10.5421341537
 20
-0.5623809478
 10
10.5373839279
 20
-0.5550637045
 10
10.5323814724
 20
-0.5479166822
 10
10.5271328795
 20
-0.5409485851
 10
10.5216445414
 20
-0.5341678996
 10
10.5159231421
 20
-0.5275828836
 10
10.5099756496
 20
-0.5212015569
 10
10.5038093072
 20
-0.5150316911
 10
10.4974316247
 20
-0.5090808003
 10
10.4908503693
 20
-0.5033561319
 10
10.4840735563
 20
-0.4978646579
 10
10.4771094388
 20
-0.4926130662
 10
10.4699664983
 20
-0.4876077525
 10
10.4626534339
 20
-0.4828548127
 10
10.4551791522
 20
-0.4783600353
 10
10.4475527558
 20
-0.4741288944
 10
10.4397835327
 20
-0.4701665428
 10
10.4318809448
 20
-0.4664778064
 10
10.4238546165
 20
-0.4630671774
 10
10.4157143229
 20
-0.4599388096
 10
10.4074699778
 20
-0.457096513
 10
10.3991316217
 20
-0.4545437491
 10
10.3907094097
 20
-0.4522836268
 10
10.3822135991
 20
-0.4503188987
 10
10.3736545366
 20
-0.4486519576
 10
10.365042646
 20
-0.4472848336
 10
10.3563884157
 20
-0.4462191917
 10
10.3477023853
 20
-0.4454563296
 10
10.3389951333
 20
-0.4449971765
 10
10.3302772641
 20
-0.4448422916
  0
LWPOLYLINE
  5
376
100
AcDbEntity
  8
ASSI
100
AcDbPolyline
 62
253
  6
CONTINUOUS
 90
55
 70
0
 10
10.6339825457
 20
21.258260239
 10
10.6337451263
 20
21.2727658107
 10
10.6330860977
 20
21.2872591378
 10
10.6320060162
 20
21.301727986
 10
10.6305057936
 20
21.3161601416
 10
10.6285866963
 20
21.330543422
 10
10.6262503441
 20
21.3448656858
 10
10.6234987094
 20
21.359114843
 10
10.6203341148
 20
21.3732788655
 10
10.6167592317
 20
21.3873457969
 10
10.6127770778
 20
21.4013037629
 10
10.6083910145
 20
21.4151409811
 10
10.6036047442
 20
21.428845771
 10
10.5984223073
 20
21.442406564
 10
10.5928480784
 20
21.4558119129
 10
10.5868867628
 20
21.4690505019
 10
10.5805433927
 20
21.4821111558
 10
10.5738233228
 20
21.4949828496
 10
10.5667322257
 20
21.507654718
 10
10.5592760873
 20
21.5201160642
 10
10.5514612014
 20
21.5323563691
 10
10.5432941649
 20
21.5443653003
 10
10.5347818719
 20
21.5561327207
 10
10.5259315079
 20
21.5676486969
 10
10.5167505438
 20
21.5789035081
 10
10.5072467295
 20
21.5898876535
 10
10.4974280875
 20
21.6005918612
 10
10.4873029061
 20
21.6110070952
 10
10.4768797323
 20
21.6211245639
 10
10.4661673645
 20
21.6309357267
 10
10.4551748456
 20
21.6404323016
 10
10.4439114546
 20
21.6496062723
 10
10.4323866993
 20
21.6584498947
 10
10.4206103082
 20
21.6669557037
 10
10.4085922221
 20
21.6751165191
 10
10.3963425859
 20
21.6829254522
 10
10.3838717399
 20
21.6903759112
 10
10.3711902112
 20
21.6974616069
 10
10.3583087047
 20
21.7041765581
 10
10.345238094
 20
21.7105150963
 10
10.3319894126
 20
21.7164718711
 10
10.3185738441
 20
21.7220418541
 10
10.3050027129
 20
21.7272203435
 10
10.291287475
 20
21.7320029681
 10
10.2774397079
 20
21.7363856905
 10
10.2634711009
 20
21.7403648112
 10
10.2493934454
 20
21.7439369713
 10
10.2352186247
 20
21.7470991555
 10
10.2209586044
 20
21.7498486943
 10
10.2066254219
 20
21.7521832669
 10
10.1922311761
 20
21.7541009025
 10
10.1777880178
 20
21.7555999824
 10
10.163308139
 20
21.7566792412
 10
10.1488037626
 20
21.7573377678
 10
10.1342871322
 20
21.7575750063
  0
LINE
  5
377
100
AcDbEntity
  8
ASSI
100
AcDbLine
 62
253
  6
CONTINUOUS
 10
10.6187454241
 20
-21.5476609054
 11
10.61965634
 21
-21.6016919116
  0
LINE
  5
378
100
AcDbEntity
  8
ASSI
100
AcDbLine
 62
253
  6
CONTINUOUS
 10
10.1206137941
 20
-21.9072613457
 11
10.1224247551
 21
-22.0392869662
  0
LINE
  5
379
100
AcDbEntity
  8
ASSI
100
AcDbLine
 62
253
  6
CONTINUOUS
 10
10.6180671322
 20
-21.4909018659
 11
10.6187454241
 21
-21.5476609054
  0
LINE
  5
37A
100
AcDbEntity
  8
ASSI
100
AcDbLine
 62
253
  6
CONTINUOUS
 10
10.1188954362
 20
-21.7153298895
 11
10.1206137941
 21
-21.9072613457
  0
LINE
  5
37B
100
AcDbEntity
  8
ASSI
100
AcDbLine
 62
253
  6
CONTINUOUS
 10
10.6132668763
 20
-20.5751878602
 11
10.6180671322
 21
-21.4909018659
  0
LINE
  5
37C
100
AcDbEntity
  8
ASSI
100
AcDbLine
 62
7
  6
CONTINUOUS
 10
10.7360095547
 20
21.4113785422
 11
10.7623168641
 21
12.8006312344
  0
LINE
  5
37D
100
AcDbEntity
  8
ASSI
100
AcDbLine
 62
253
  6
CONTINUOUS
 10
10.1179356765
 20
-21.5067651852
 11
10.1188954362
 21
-21.7153298895
  0
LINE
  5
37E
100
AcDbEntity
  8
ASSI
100
AcDbLine
 62
253
  6
CONTINUOUS
 10
10.0853072561
 20
-11.5404728521
 11
10.1179356765
 21
-21.5067651852
  0
LINE
  5
37F
100
AcDbEntity
  8
ASSI
100
AcDbLine
 62
253
  6
CONTINUOUS
 10
10.5839891935
 20
-10.6557175686
 11
10.6132668763
 21
-20.5751878602
  0
LINE
  5
380
100
AcDbEntity
  8
ASSI
100
AcDbLine
 62
253
  6
CONTINUOUS
 10
10.0853072561
 20
-11.5404728521
 11
10.0804296102
 21
-0.4469478538
  0
LINE
  5
381
100
AcDbEntity
  8
ASSI
100
AcDbLine
 62
253
  6
CONTINUOUS
 10
10.5801250378
 20
-0.6948327556
 11
10.5839891935
 21
-10.6557175686
  0
LINE
  5
382
100
AcDbEntity
  8
ASSI
100
AcDbLine
 62
7
  6
CONTINUOUS
 10
10.7623168641
 20
-0.6493021444
 11
10.7623168641
 21
-13.3993687656
  0
LINE
  5
383
100
AcDbEntity
  8
ASSI
100
AcDbLine
 62
7
  6
CONTINUOUS
 10
10.7623168641
 20
0.0505646132
 11
10.7623168641
 21
12.8006312344
  0
LINE
  5
384
100
AcDbEntity
  8
ASSI
100
AcDbLine
 62
7
  6
CONTINUOUS
 10
10.7360095547
 20
-22.0101160733
 11
10.7623168641
 21
-13.3993687656
  0
LINE
  5
385
100
AcDbEntity
  8
ASSI
100
AcDbLine
 62
253
  6
CONTINUOUS
 10
10.1094972073
 20
19.1832306531
 11
10.0804296102
 21
-0.1517896774
  0
LINE
  5
386
100
AcDbEntity
  8
ASSI
100
AcDbLine
 62
253
  6
CONTINUOUS
 10
10.6111935212
 20
19.5475089811
 11
10.5801250378
 21
0.0960952244
  0
LINE
  5
387
100
AcDbEntity
  8
ASSI
100
AcDbLine
 62
253
  6
CONTINUOUS
 10
10.6179602474
 20
20.8805503605
 11
10.6111935212
 21
19.5475089811
  0
LINE
  5
388
100
AcDbEntity
  8
ASSI
100
AcDbLine
 62
253
  6
CONTINUOUS
 10
10.1197608014
 20
21.225868873
 11
10.1094972073
 21
19.1832306531
  0
LINE
  5
389
100
AcDbEntity
  8
ASSI
100
AcDbLine
 62
253
  6
CONTINUOUS
 10
10.6185908128
 20
20.9377660668
 11
10.6179602474
 21
20.8805503605
  0
LINE
  5
38A
100
AcDbEntity
  8
ASSI
100
AcDbLine
 62
253
  6
CONTINUOUS
 10
10.1216012804
 20
21.3861135541
 11
10.1197608014
 21
21.225868873
  0
LINE
  5
38B
100
AcDbEntity
  8
ASSI
100
AcDbLine
 62
253
  6
CONTINUOUS
 10
10.1224247551
 20
21.4405494351
 11
10.1216012804
 21
21.3861135541
  0
LWPOLYLINE
  5
38C
100
AcDbEntity
  8
ASSI
100
AcDbPolyline
 62
253
  6
CONTINUOUS
 90
55
 70
0
 10
10.6339825457
 20
-21.8569977701
 10
10.6337451263
 20
-21.8715033422
 10
10.6330860977
 20
-21.8859966696
 10
10.6320060162
 20
-21.9004655181
 10
10.6305057935
 20
-21.914897674
 10
10.6285866961
 20
-21.9292809546
 10
10.6262503438
 20
-21.9436032186
 10
10.623498709
 20
-21.957852376
 10
10.6203341143
 20
-21.9720163987
 10
10.6167592311
 20
-21.9860833303
 10
10.612777077
 20
-22.0000412965
 10
10.6083910136
 20
-22.0138785149
 10
10.6036047432
 20
-22.0275833049
 10
10.5984223062
 20
-22.041144098
 10
10.5928480771
 20
-22.0545494471
 10
10.5868867614
 20
-22.0677880361
 10
10.5805433912
 20
-22.0808486901
 10
10.5738233211
 20
-22.0937203839
 10
10.5667322239
 20
-22.1063922524
 10
10.5592760853
 20
-22.1188535986
 10
10.5514611993
 20
-22.1310939035
 10
10.5432941627
 20
-22.1431028347
 10
10.5347818696
 20
-22.154870255
 10
10.5259315054
 20
-22.1663862313
 10
10.5167505412
 20
-22.1776410423
 10
10.5072467268
 20
-22.1886251877
 10
10.4974280848
 20
-22.1993293953
 10
10.4873029033
 20
-22.2097446292
 10
10.4768797294
 20
-22.2198620978
 10
10.4661673616
 20
-22.2296732605
 10
10.4551748426
 20
-22.2391698353
 10
10.4439114516
 20
-22.2483438058
 10
10.4323866963
 20
-22.2571874281
 10
10.4206103052
 20
-22.2656932369
 10
10.4085922192
 20
-22.2738540522
 10
10.396342583
 20
-22.2816629852
 10
10.3838717371
 20
-22.2891134441
 10
10.3711902084
 20
-22.2961991396
 10
10.358308702
 20
-22.3029140906
 10
10.3452380914
 20
-22.3092526287
 10
10.3319894101
 20
-22.3152094034
 10
10.3185738416
 20
-22.3207793862
 10
10.3050027106
 20
-22.3259578755
 10
10.2912874729
 20
-22.3307404999
 10
10.2774397059
 20
-22.3351232222
 10
10.2634710991
 20
-22.3391023429
 10
10.2493934437
 20
-22.3426745029
 10
10.2352186233
 20
-22.3458366869
 10
10.2209586032
 20
-22.3485862257
 10
10.2066254208
 20
-22.3509207982
 10
10.1922311752
 20
-22.3528384338
 10
10.1777880172
 20
-22.3543375136
 10
10.1633081386
 20
-22.3554167724
 10
10.1488037624
 20
-22.356075299
 10
10.1342871322
 20
-22.3563125375
  0
LWPOLYLINE
  5
38D
100
AcDbEntity
  8
ASSI
100
AcDbPolyline
 62
253
  6
CONTINUOUS
 90
46
 70
0
 10
10.5801249709
 20
0.0960952412
 10
10.5799701744
 20
0.0873723897
 10
10.5795112835
 20
0.0786601615
 10
10.578748857
 20
0.069969167
 10
10.5776838236
 20
0.0613099908
 10
10.5763174802
 20
0.0526931787
 10
10.5746514909
 20
0.0441292248
 10
10.5726878847
 20
0.0356285589
 10
10.5704290531
 20
0.0272015338
 10
10.5678777468
 20
0.0188584125
 10
10.5650370733
 20
0.0106093559
 10
10.5619104919
 20
0.0024644103
 10
10.5585018105
 20
-0.0055665047
 10
10.5548151805
 20
-0.0134736086
 10
10.5508550917
 20
-0.0212472715
 10
10.546626367
 20
-0.0288780261
 10
10.5421341564
 20
-0.036356579
 10
10.5373839309
 20
-0.0436738223
 10
10.5323814756
 20
-0.0508208446
 10
10.527132883
 20
-0.0577889416
 10
10.5216445451
 20
-0.0645696271
 10
10.515923146
 20
-0.0711546432
 10
10.5099756537
 20
-0.07753597
 10
10.5038093114
 20
-0.083705836
 10
10.4974316291
 20
-0.0896567269
 10
10.4908503739
 20
-0.0953813955
 10
10.4840735609
 20
-0.1008728697
 10
10.4771094435
 20
-0.1061244616
 10
10.469966503
 20
-0.1111297755
 10
10.4626534387
 20
-0.1158827155
 10
10.4551791569
 20
-0.1203774931
 10
10.4475527605
 20
-0.1246086343
 10
10.4397835372
 20
-0.1285709861
 10
10.4318809492
 20
-0.1322597228
 10
10.4238546208
 20
-0.135670352
 10
10.4157143269
 20
-0.1387987201
 10
10.4074699815
 20
-0.1416410169
 10
10.3991316251
 20
-0.1441937811
 10
10.3907094128
 20
-0.1464539036
 10
10.3822136018
 20
-0.1484186318
 10
10.3736545389
 20
-0.1500855731
 10
10.365042648
 20
-0.1514526973
 10
10.3563884172
 20
-0.1525183394
 10
10.3477023863
 20
-0.1532812015
 10
10.3389951339
 20
-0.1537403546
 10
10.3302772641
 20
-0.1538952396
  0
LINE
  5
38E
100
AcDbEntity
  8
ASSI
100
AcDbLine
 62
253
  6
CONTINUOUS
 10
10.6194561843
 20
20.9924072841
 11
10.6185908128
 21
20.9377660668
  0
LINE
  5
38F
100
AcDbEntity
  8
ASSI
100
AcDbLine
 62
253
  6
CONTINUOUS
 10
10.620309186
 20
21.0337336122
 11
10.6194561843
 21
20.9924072841
  0
LINE
  5
390
100
AcDbEntity
  8
ASSI
100
AcDbLine
 62
253
  6
CONTINUOUS
 10
10.6212966858
 20
21.0725272474
 11
10.620309186
 21
21.0337336122
  0
LINE
  5
391
100
AcDbEntity
  8
ASSI
100
AcDbLine
 62
253
  6
CONTINUOUS
 10
10.6221201735
 20
21.0997457649
 11
10.6212966858
 21
21.0725272474
  0
LWPOLYLINE
  5
392
100
AcDbEntity
  8
ASSI
100
AcDbPolyline
 62
253
  6
CONTINUOUS
 90
3
 70
0
 10
10.623320612
 20
21.1332674048
 10
10.6230099544
 20
21.1251966487
 10
10.6221201735
 20
21.0997457649
  0
LINE
  5
393
100
AcDbEntity
  8
0
100
AcDbLine
 62
253
  6
CONTINUOUS
 10
0.7035508774
 20
-11.876969509
 11
1.1602569768
 21
-11.6128095091
  0
LINE
  5
394
100
AcDbEntity
  8
0
100
AcDbLine
 62
253
  6
CONTINUOUS
 10
1.416373637
 20
-12.0561806201
 11
0.9589972598
 21
-12.32065812
  0
LINE
  5
395
100
AcDbEntity
  8
0
100
AcDbLine
 62
253
  6
CONTINUOUS
 10
-1.458059623
 20
-13.7159295085
 11
-1.9149068336
 21
-13.9794897862
  0
LINE
  5
396
100
AcDbEntity
  8
0
100
AcDbLine
 62
253
  6
CONTINUOUS
 10
-2.1708823826
 20
-13.5360833975
 11
-1.7138235054
 21
-13.2725231197
  0
LWPOLYLINE
  5
397
100
AcDbEntity
  8
0
100
AcDbPolyline
 62
253
  6
CONTINUOUS
 90
29
 70
0
 10
-1.9149068336
 20
-13.9794897862
 10
-1.9190751727
 20
-13.9818336301
 10
-1.9232806906
 20
-13.9840881165
 10
-1.927523332
 20
-13.9862546753
 10
-1.9318030413
 20
-13.9883347366
 10
-1.936119763
 20
-13.9903297304
 10
-1.9404734416
 20
-13.9922410865
 10
-1.9448640216
 20
-13.9940702349
 10
-1.9492911065
 20
-13.9958183094
 10
-1.9537529357
 20
-13.9974852582
 10
-1.9582474076
 20
-13.9990707333
 10
-1.9627724205
 20
-14.0005743868
 10
-1.967325873
 20
-14.0019958707
 10
-1.9719056633
 20
-14.0033348371
 10
-1.9765096899
 20
-14.0045909379
 10
-1.9811359337
 20
-14.0057638297
 10
-1.9857827057
 20
-14.0068531866
 10
-1.9904483992
 20
-14.0078586873
 10
-1.9951314078
 20
-14.0087800106
 10
-1.999830125
 20
-14.009616835
 10
-2.0045429443
 20
-14.0103688393
 10
-2.0092682591
 20
-14.0110357022
 10
-2.0140048202
 20
-14.0116169793
 10
-2.0187528075
 20
-14.0121117347
 10
-2.0235127583
 20
-14.0125189092
 10
-2.0282852099
 20
-14.012837444
 10
-2.0330706994
 20
-14.01306628
 10
-2.0378697642
 20
-14.0132043582
 10
-2.0426829414
 20
-14.0132506196
  0
LWPOLYLINE
  5
398
100
AcDbEntity
  8
0
100
AcDbPolyline
 62
253
  6
CONTINUOUS
 90
53
 70
0
 10
-1.7138235054
 20
-13.2725231197
 10
-1.7070137997
 20
-13.2687698445
 10
-1.700143727
 20
-13.265265274
 10
-1.6931981538
 20
-13.2619965264
 10
-1.6861619471
 20
-13.2589507202
 10
-1.6790199736
 20
-13.2561149735
 10
-1.6717598964
 20
-13.2534792683
 10
-1.6643805639
 20
-13.2510450407
 10
-1.6568836209
 20
-13.2488165906
 10
-1.6492707121
 20
-13.2467982177
 10
-1.6415434822
 20
-13.2449942218
 10
-1.6337052246
 20
-13.2434092971
 10
-1.6257658262
 20
-13.2420497152
 10
-1.6177368227
 20
-13.2409221421
 10
-1.6096297498
 20
-13.2400332439
 10
-1.6014561429
 20
-13.2393896864
 10
-1.5946050953
 20
-13.2390451252
 10
-1.5877392919
 20
-13.2388765124
 10
-1.5808821702
 20
-13.2388847916
 10
-1.574050935
 20
-13.2390711467
 10
-1.5672378603
 20
-13.2394377234
 10
-1.5604289875
 20
-13.2399869078
 10
-1.5522512421
 20
-13.2408902096
 10
-1.5440773821
 20
-13.2420632992
 10
-1.5359253428
 20
-13.2435095735
 10
-1.5278130594
 20
-13.2452324294
 10
-1.5197584671
 20
-13.2472352638
 10
-1.5117788227
 20
-13.2495189379
 10
-1.5038886685
 20
-13.2520741698
 10
-1.4961018688
 20
-13.2548891421
 10
-1.4884322874
 20
-13.2579520371
 10
-1.4808937884
 20
-13.2612510372
 10
-1.4747183031
 20
-13.2641740008
 10
-1.4686302748
 20
-13.2672576676
 10
-1.4626165032
 20
-13.2705069855
 10
-1.4566693276
 20
-13.2739239857
 10
-1.4508032471
 20
-13.2774990328
 10
-1.4450383001
 20
-13.2812195748
 10
-1.4382774366
 20
-13.2858603035
 10
-1.4316978596
 20
-13.2906809703
 10
-1.4253063676
 20
-13.2956700758
 10
-1.4191097592
 20
-13.3008161205
 10
-1.4131148329
 20
-13.3061076051
 10
-1.4073271507
 20
-13.3115342016
 10
-1.4017473291
 20
-13.3170902687
 10
-1.3963747483
 20
-13.3227713369
 10
-1.3912087885
 20
-13.3285729363
 10
-1.3862488298
 20
-13.3344905974
 10
-1.3814932903
 20
-13.3405237461
 10
-1.3769367412
 20
-13.3466873908
 10
-1.3725727913
 20
-13.3530004356
 10
-1.3683950497
 20
-13.3594817846
 10
-1.3643971254
 20
-13.3661503419
  0
LWPOLYLINE
  5
399
100
AcDbEntity
  8
0
100
AcDbPolyline
 62
253
  6
CONTINUOUS
 90
53
 70
0
 10
1.1602569768
 20
-11.6128095091
 10
1.1670561981
 20
-11.6090776597
 10
1.1739154407
 20
-11.6055922741
 10
1.180850008
 20
-11.6023406108
 10
1.1878752031
 20
-11.599309928
 10
1.1950063294
 20
-11.5964874843
 10
1.202255857
 20
-11.5938633965
 10
1.2096249247
 20
-11.5914392163
 10
1.2171118383
 20
-11.5892193541
 10
1.2247149035
 20
-11.58720822
 10
1.2324324261
 20
-11.5854102245
 10
1.2402610925
 20
-11.5838301652
 10
1.2481911114
 20
-11.58247439
 10
1.2562110724
 20
-11.5813496342
 10
1.2643095647
 20
-11.5804626332
 10
1.2724751779
 20
-11.5798201222
 10
1.2793201331
 20
-11.5794758437
 10
1.2861805946
 20
-11.579307074
 10
1.2930333809
 20
-11.5793148602
 10
1.2998615122
 20
-11.5795004982
 10
1.3066728153
 20
-11.5798662805
 10
1.3134813188
 20
-11.5804147486
 10
1.3216605061
 20
-11.5813175055
 10
1.3298376632
 20
-11.5824906092
 10
1.3379945903
 20
-11.5839376792
 10
1.3461130879
 20
-11.5856623347
 10
1.3541749562
 20
-11.5876681951
 10
1.3621627214
 20
-11.5899563084
 10
1.3700618136
 20
-11.5925174366
 10
1.3778583888
 20
-11.5953397703
 10
1.385538603
 20
-11.5984115001
 10
1.3930886121
 20
-11.6017208168
 10
1.3992743809
 20
-11.6046535187
 10
1.4053733713
 20
-11.6077479841
 10
1.4113988389
 20
-11.6110091866
 10
1.4173584778
 20
-11.6144391648
 10
1.4232377361
 20
-11.6180282176
 10
1.4290165005
 20
-11.621763709
 10
1.4357947048
 20
-11.6264235152
 10
1.4423924296
 20
-11.6312644186
 10
1.44880287
 20
-11.6362748409
 10
1.4550192208
 20
-11.6414432036
 10
1.461034677
 20
-11.6467579285
 10
1.4668436683
 20
-11.6522086094
 10
1.4724455629
 20
-11.657789528
 10
1.4778409635
 20
-11.6634961383
 10
1.4830304729
 20
-11.6693238943
 10
1.4880146941
 20
-11.6752682497
 10
1.4927952162
 20
-11.6813285931
 10
1.4973775731
 20
-11.6875200515
 10
1.5017682853
 20
-11.6938616862
 10
1.505973873
 20
-11.700372559
 10
1.5100008568
 20
-11.7070717312
  0
LWPOLYLINE
  5
39A
100
AcDbEntity
  8
0
100
AcDbPolyline
 62
253
  6
CONTINUOUS
 90
29
 70
0
 10
0.9589972598
 20
-12.32065812
 10
0.9548308754
 20
-12.3229182915
 10
0.950630392
 20
-12.3250993911
 10
0.9463955869
 20
-12.3272022334
 10
0.9421262373
 20
-12.3292276329
 10
0.9378221204
 20
-12.3311764043
 10
0.9334830135
 20
-12.3330493622
 10
0.9291086937
 20
-12.3348473211
 10
0.9246992381
 20
-12.3365708256
 10
0.9202559229
 20
-12.33821934
 10
0.9157803242
 20
-12.3397920585
 10
0.9112740181
 20
-12.3412881754
 10
0.9067385806
 20
-12.3427068849
 10
0.9021755878
 20
-12.3440473813
 10
0.8975866157
 20
-12.3453088588
 10
0.8929732655
 20
-12.3464904928
 10
0.8883372388
 20
-12.3475913834
 10
0.8836802622
 20
-12.348610612
 10
0.8790040625
 20
-12.3495472598
 10
0.8743103664
 20
-12.3504004082
 10
0.8696009006
 20
-12.3511691383
 10
0.8648773917
 20
-12.3518525316
 10
0.8601411821
 20
-12.3524495732
 10
0.8553920764
 20
-12.3529588642
 10
0.850629495
 20
-12.3533789094
 10
0.8458528583
 20
-12.3537082138
 10
0.8410615864
 20
-12.3539452822
 10
0.8362550997
 20
-12.3540886197
 10
0.8314328186
 20
-12.3541367311
  0
LWPOLYLINE
  5
39B
100
AcDbEntity
  8
0
100
AcDbPolyline
 62
253
  6
CONTINUOUS
 90
36
 70
0
 10
-2.2730825155
 20
10.0028255488
 10
-2.2788317337
 20
10.0028994416
 10
-2.2845591178
 20
10.0031192021
 10
-2.2902659895
 20
10.0034819532
 10
-2.2959536708
 20
10.0039848181
 10
-2.3016234834
 20
10.0046249197
 10
-2.3072767491
 20
10.0053993811
 10
-2.31291479
 20
10.0063053253
 10
-2.3185380534
 20
10.0073399816
 10
-2.3241434901
 20
10.0085010036
 10
-2.3297271765
 20
10.0097861515
 10
-2.3352851889
 20
10.0111931851
 10
-2.3408136038
 20
10.0127198644
 10
-2.3463084975
 20
10.0143639495
 10
-2.3517659464
 20
10.0161232003
 10
-2.3571824583
 20
10.0179956011
 10
-2.3625562667
 20
10.0199800341
 10
-2.3678860361
 20
10.0220756055
 10
-2.3731704314
 20
10.0242814218
 10
-2.3784081173
 20
10.0265965895
 10
-2.3835977586
 20
10.0290202149
 10
-2.3887380199
 20
10.0315514045
 10
-2.3938273083
 20
10.0341893405
 10
-2.3988629992
 20
10.0369335083
 10
-2.4038422103
 20
10.0397834691
 10
-2.4087620594
 20
10.0427387841
 10
-2.4136196641
 20
10.0457990147
 10
-2.4184121421
 20
10.0489637219
 10
-2.4231366111
 20
10.0522324671
 10
-2.4277903829
 20
10.0556053624
 10
-2.432371545
 20
10.0590847242
 10
-2.436878379
 20
10.0626734195
 10
-2.4413091665
 20
10.0663743158
 10
-2.4456621892
 20
10.0701902801
 10
-2.4499357287
 20
10.0741241798
 10
-2.4541280665
 20
10.0781788821
  0
LWPOLYLINE
  5
39C
100
AcDbEntity
  8
0
100
AcDbPolyline
 62
253
  6
CONTINUOUS
 90
36
 70
0
 10
1.5925857192
 20
10.0028255488
 10
1.5868468405
 20
10.002899031
 10
1.5811294974
 20
10.0031175864
 10
1.5754323975
 20
10.0034783787
 10
1.5697542484
 20
10.0039785711
 10
1.5640937578
 20
10.0046153272
 10
1.5584496332
 20
10.0053858104
 10
1.5528205823
 20
10.0062871843
 10
1.5472061676
 20
10.007316732
 10
1.5416093712
 20
10.0084722164
 10
1.5360340301
 20
10.00975152
 10
1.5304839813
 20
10.0111525254
 10
1.5249630618
 20
10.0126731151
 10
1.5194751086
 20
10.0143111718
 10
1.5140239587
 20
10.016064578
 10
1.5086130563
 20
10.0179314315
 10
1.5032442746
 20
10.0199106906
 10
1.497919094
 20
10.022001529
 10
1.4926389948
 20
10.0242031203
 10
1.4874054574
 20
10.0265146381
 10
1.4822199623
 20
10.0289352559
 10
1.4770839899
 20
10.0314641473
 10
1.4719992674
 20
10.0341005637
 10
1.4669685103
 20
10.0368440671
 10
1.461994681
 20
10.0396942972
 10
1.4570807417
 20
10.0426508937
 10
1.452229655
 20
10.0457134965
 10
1.447444383
 20
10.0488817453
 10
1.4427278882
 20
10.0521552798
 10
1.4380829483
 20
10.055534297
 10
1.4335116021
 20
10.0590212226
 10
1.429015704
 20
10.0626190397
 10
1.4245971082
 20
10.0663307312
 10
1.420257669
 20
10.0701592801
 10
1.4159992406
 20
10.0741076694
 10
1.4118236773
 20
10.0781788821
  0
LWPOLYLINE
  5
39D
100
AcDbEntity
  8
0
100
AcDbPolyline
 62
253
  6
CONTINUOUS
 90
55
 70
0
 10
-0.3401778426
 20
10.7850749931
 10
-0.332429314
 20
10.7849508345
 10
-0.3247515301
 20
10.7845807913
 10
-0.3171248462
 20
10.7839685122
 10
-0.3095296181
 20
10.7831176461
 10
-0.3019462011
 20
10.7820318417
 10
-0.2943588261
 20
10.7807136479
 10
-0.2867672245
 20
10.7791612132
 10
-0.279175003
 20
10.7773715864
 10
-0.2715857681
 20
10.7753418161
 10
-0.2640031265
 20
10.7730689508
 10
-0.2564323114
 20
10.7705505181
 10
-0.2488850611
 20
10.7677859603
 10
-0.2413747408
 20
10.7647751987
 10
-0.2339147153
 20
10.7615181544
 10
-0.2265183497
 20
10.7580147486
 10
-0.2204151682
 20
10.7549088079
 10
-0.214386322
 20
10.7516425653
 10
-0.2084526571
 20
10.7482268578
 10
-0.2026297135
 20
10.7446691958
 10
-0.1969118077
 20
10.7409637823
 10
-0.1912879505
 20
10.7371014939
 10
-0.1857506742
 20
10.7330753044
 10
-0.1803065985
 20
10.7288865792
 10
-0.1749658645
 20
10.7245387811
 10
-0.1697386137
 20
10.720035373
 10
-0.1646349874
 20
10.7153798179
 10
-0.1596651268
 20
10.7105755787
 10
-0.1548380786
 20
10.7056271996
 10
-0.1501585102
 20
10.7005435502
 10
-0.1456299943
 20
10.6953345814
 10
-0.1412561037
 20
10.6900102441
 10
-0.1370404111
 20
10.684580489
 10
-0.1329864892
 20
10.6790552672
 10
-0.1290958079
 20
10.6734410436
 10
-0.1253614263
 20
10.6677303402
 10
-0.1217743002
 20
10.6619121935
 10
-0.1183287594
 20
10.6559809785
 10
-0.1150326272
 20
10.649952427
 10
-0.1118971007
 20
10.6438476098
 10
-0.1083590288
 20
10.6364470059
 10
-0.1050684715
 20
10.6289804117
 10
-0.1020255476
 20
10.6214613176
 10
-0.0992303762
 20
10.6139032142
 10
-0.0966830759
 20
10.606319592
 10
-0.0943832754
 20
10.5987222906
 10
-0.0923286421
 20
10.5911165465
 10
-0.090516353
 20
10.583505945
 10
-0.0889435853
 20
10.5758940719
 10
-0.087607516
 20
10.5682845126
 10
-0.0865064497
 20
10.5606769639
 10
-0.0856432017
 20
10.5530555677
 10
-0.0850217146
 20
10.5454005772
 10
-0.084645931
 20
10.5376922458
 10
-0.0845197936
 20
10.5299108265
  0
LWPOLYLINE
  5
39E
100
AcDbEntity
  8
0
100
AcDbPolyline
 62
253
  6
CONTINUOUS
 90
51
 70
0
 10
-0.3401778426
 20
11.3788705485
 10
-0.3648742593
 20
11.3792720206
 10
-0.3894992743
 20
11.3804738173
 10
-0.4141195572
 20
11.3824720093
 10
-0.4388017775
 20
11.3852626673
 10
-0.4636018436
 20
11.3888463317
 10
-0.4885326202
 20
11.3932414205
 10
-0.5135962111
 20
11.3984708214
 10
-0.53879472
 20
11.404557422
 10
-0.5641158143
 20
11.4115191051
 10
-0.5894894149
 20
11.4193537343
 10
-0.6148310067
 20
11.4280541681
 10
-0.6400560741
 20
11.4376132652
 10
-0.665087671
 20
11.4480244397
 10
-0.689879127
 20
11.4592833279
 10
-0.7143913411
 20
11.4713861219
 10
-0.738585212
 20
11.4843290133
 10
-0.7597911944
 20
11.4965351506
 10
-0.7806823714
 20
11.5093943234
 10
-0.8012263628
 20
11.5228987955
 10
-0.8213907882
 20
11.5370408306
 10
-0.8411432674
 20
11.5518126923
 10
-0.8604514202
 20
11.5672066443
 10
-0.8792828663
 20
11.5832149504
 10
-0.8976052254
 20
11.5998298743
 10
-0.9153861173
 20
11.6170436796
 10
-0.9325967106
 20
11.6348439815
 10
-0.94922237
 20
11.6531998011
 10
-0.9652520088
 20
11.6720755112
 10
-0.9806745408
 20
11.6914354842
 10
-0.9954788792
 20
11.7112440927
 10
-1.0096539377
 20
11.7314657095
 10
-1.0231886297
 20
11.7520647071
 10
-1.0360718688
 20
11.773005458
 10
-1.0482925684
 20
11.794252335
 10
-1.0612377619
 20
11.8184789066
 10
-1.0733305248
 20
11.8430107745
 10
-1.0845709846
 20
11.8678108854
 10
-1.0949592683
 20
11.8928421858
 10
-1.1044942441
 20
11.9180593817
 10
-1.113169743
 20
11.9433842181
 10
-1.1209783369
 20
11.9687301992
 10
-1.1279125974
 20
11.9940108294
 10
-1.1339703864
 20
12.0191545547
 10
-1.1391707255
 20
12.0441495874
 10
-1.1435379264
 20
12.0689990813
 10
-1.1470963006
 20
12.0937061904
 10
-1.1498656077
 20
12.1182845854
 10
-1.1518473991
 20
12.1427900046
 10
-1.1530386744
 20
12.1672887035
 10
-1.153436433
 20
12.1918469371
  0
LWPOLYLINE
  5
39F
100
AcDbEntity
  8
0
100
AcDbPolyline
 62
253
  6
CONTINUOUS
 90
53
 70
0
 10
1.773490159
 20
14.3054797144
 10
1.7788758487
 20
14.2999052951
 10
1.784038302
 20
14.2942072255
 10
1.7889939137
 20
14.2883741512
 10
1.7937590783
 20
14.2823947172
 10
1.7983501904
 20
14.2762575691
 10
1.8027801366
 20
14.2699533119
 10
1.8070477714
 20
14.26348039
 10
1.8111484409
 20
14.2568392078
 10
1.8150774915
 20
14.2500301694
 10
1.8188302695
 20
14.2430536791
 10
1.8224013036
 20
14.2359116365
 10
1.8257818523
 20
14.2286119225
 10
1.8289623566
 20
14.2211639132
 10
1.8319332575
 20
14.213576985
 10
1.8346849959
 20
14.205860514
 10
1.8368035371
 20
14.1993407609
 10
1.8387561405
 20
14.1927599727
 10
1.8405357027
 20
14.1861405631
 10
1.8421365184
 20
14.1794988152
 10
1.843558475
 20
14.1728264899
 10
1.8448028581
 20
14.1661092171
 10
1.8460617805
 20
14.1579758584
 10
1.8470585685
 20
14.1497738433
 10
1.8477849422
 20
14.1415199326
 10
1.8482326219
 20
14.1332308868
 10
1.8483933278
 20
14.1249234666
 10
1.8482614629
 20
14.1166144012
 10
1.8478421603
 20
14.108320294
 10
1.8471432358
 20
14.1000577167
 10
1.8461725053
 20
14.0918432414
 10
1.8449377846
 20
14.0836934398
 10
1.8437118439
 20
14.0769593205
 10
1.8423066088
 20
14.0702673476
 10
1.8407206839
 20
14.0636032467
 10
1.8389540818
 20
14.0569589586
 10
1.837012447
 20
14.0503512835
 10
1.8349028322
 20
14.0438032365
 10
1.8321590542
 20
14.0360516814
 10
1.8291931073
 20
14.0284288244
 10
1.826014558
 20
14.0209443575
 10
1.8226329727
 20
14.0136079724
 10
1.8190579182
 20
14.0064293611
 10
1.8152981238
 20
13.9994166764
 10
1.8113589713
 20
13.9925719155
 10
1.8072450053
 20
13.9858955364
 10
1.8029607704
 20
13.9793879974
 10
1.7985108113
 20
13.9730497565
 10
1.7938961202
 20
13.9668793259
 10
1.7891034796
 20
13.9608674346
 10
1.7841161192
 20
13.9550028655
 10
1.778917269
 20
13.9492744015
 10
1.773490159
 20
13.9436708256
  0
LWPOLYLINE
  5
3A0
100
AcDbEntity
  8
ASSI
100
AcDbPolyline
 62
253
  6
CONTINUOUS
 90
12
 70
0
 10
10.5832682361
 20
-9.7898687656
 10
10.5825699705
 20
-9.7901390977
 10
10.581468055
 20
-9.7904092112
 10
10.5799633808
 20
-9.7906788874
 10
10.5780571652
 20
-9.7909479084
 10
10.5757509502
 20
-9.7912160564
 10
10.5730466013
 20
-9.7914831145
 10
10.5699463061
 20
-9.7917488668
 10
10.5664525725
 20
-9.7920130982
 10
10.5625682266
 20
-9.792275595
 10
10.5582964107
 20
-9.7925361449
 10
10.5536405802
 20
-9.792794537
  0
LINE
  5
3A1
100
AcDbEntity
  8
0
100
AcDbLine
 62
253
  6
CONTINUOUS
 10
2.3934970876
 20
11.9360124928
 11
1.321934615
 21
11.9360124928
  0
LINE
  5
3A2
100
AcDbEntity
  8
0
100
AcDbLine
 62
253
  6
CONTINUOUS
 10
-2.0025372447
 20
11.9360124928
 11
-3.0736411062
 21
11.9360124928
  0
LINE
  5
3A3
100
AcDbEntity
  8
0
100
AcDbLine
 62
253
  6
CONTINUOUS
 10
-3.0736411062
 20
12.447928326
 11
-2.0025372447
 21
12.447928326
  0
LINE
  5
3A4
100
AcDbEntity
  8
0
100
AcDbLine
 62
253
  6
CONTINUOUS
 10
1.321934615
 20
12.447928326
 11
2.3934970876
 21
12.447928326
  0
LWPOLYLINE
  5
3A5
100
AcDbEntity
  8
0
100
AcDbPolyline
 62
253
  6
CONTINUOUS
 90
36
 70
0
 10
-1.5155628126
 20
13.110833048
 10
-1.5213167442
 20
13.1109071494
 10
-1.5270487824
 20
13.111127527
 10
-1.5327602451
 20
13.1114912912
 10
-1.5384524502
 20
13.1119955522
 10
-1.5441267155
 20
13.1126374205
 10
-1.549784359
 20
13.1134140064
 10
-1.5554266984
 20
13.1143224201
 10
-1.5610541801
 20
13.1153598856
 10
-1.5666637642
 20
13.116524081
 10
-1.572251539
 20
13.117812798
 10
-1.577813593
 20
13.1192238283
 10
-1.5833460146
 20
13.1207549637
 10
-1.5888448923
 20
13.1224039958
 10
-1.5943063146
 20
13.1241687164
 10
-1.5997267871
 20
13.1260471397
 10
-1.6051044846
 20
13.1280381705
 10
-1.6104379989
 20
13.130140936
 10
-1.615725922
 20
13.1323545635
 10
-1.6209668459
 20
13.1346781802
 10
-1.6261593625
 20
13.1371109133
 10
-1.6313020637
 20
13.1396518902
 10
-1.6363932856
 20
13.1423003147
 10
-1.6414303407
 20
13.1450556966
 10
-1.6464102856
 20
13.1479176225
 10
-1.6513301768
 20
13.1508856788
 10
-1.6561870709
 20
13.153959452
 10
-1.6609780246
 20
13.1571385286
 10
-1.6657000945
 20
13.1604224951
 10
-1.6703505267
 20
13.1638114961
 10
-1.6749273261
 20
13.1673079087
 10
-1.6794286874
 20
13.1709146683
 10
-1.683852805
 20
13.17463471
 10
-1.6881978735
 20
13.1784709693
 10
-1.6924620874
 20
13.1824263813
 10
-1.6966436413
 20
13.1865038813
  0
LWPOLYLINE
  5
3A6
100
AcDbEntity
  8
0
100
AcDbPolyline
 62
253
  6
CONTINUOUS
 90
36
 70
0
 10
0.8352776829
 20
13.110833048
 10
0.8295295858
 20
13.1109068464
 10
0.8238031587
 20
13.1111263354
 10
0.8180971056
 20
13.1114886557
 10
0.8124101308
 20
13.1119909482
 10
0.8067409386
 20
13.1126303536
 10
0.8010882331
 20
13.1134040127
 10
0.7954507186
 20
13.1143090662
 10
0.7898279563
 20
13.1153427785
 10
0.7842229358
 20
13.116502908
 10
0.7786395039
 20
13.1177873365
 10
0.773081507
 20
13.119193946
 10
0.7675527918
 20
13.1207206184
 10
0.7620572049
 20
13.1223652355
 10
0.7565985931
 20
13.1241256794
 10
0.751180414
 20
13.1260000476
 10
0.7458045702
 20
13.1279873006
 10
0.7404725751
 20
13.1300866148
 10
0.7351859424
 20
13.1322971664
 10
0.7299461857
 20
13.1346181316
 10
0.7247548185
 20
13.1370486868
 10
0.7196133544
 20
13.1395880082
 10
0.7145235551
 20
13.1422353497
 10
0.7094881742
 20
13.1449902764
 10
0.7045102133
 20
13.1478524309
 10
0.6995926741
 20
13.1508214558
 10
0.6947385581
 20
13.1538969937
 10
0.6899508672
 20
13.1570786874
 10
0.6852326028
 20
13.1603661795
 10
0.6805865834
 20
13.163759675
 10
0.6760148942
 20
13.1672616289
 10
0.6715194369
 20
13.1708750585
 10
0.6671021135
 20
13.1746029812
 10
0.6627648259
 20
13.1784484144
 10
0.6585094758
 20
13.1824143753
 10
0.6543379653
 20
13.1865038813
  0
LWPOLYLINE
  5
3A7
100
AcDbEntity
  8
0
100
AcDbPolyline
 62
253
  6
CONTINUOUS
 90
55
 70
0
 10
-3.0736411062
 20
11.9360124928
 10
-3.0813758565
 20
11.9361360956
 10
-3.0890407817
 20
11.9365045483
 10
-3.0966556341
 20
11.9371143173
 10
-3.1042401662
 20
11.9379618689
 10
-3.1118141304
 20
11.9390436697
 10
-3.11939337
 20
11.940357277
 10
-3.1269780932
 20
11.9419046124
 10
-3.1345645992
 20
11.9436886885
 10
-3.1421491871
 20
11.9457125179
 10
-3.1497281561
 20
11.9479791132
 10
-3.1572962012
 20
11.9504910164
 10
-3.1648416013
 20
11.9532488882
 10
-3.1723510308
 20
11.9562529183
 10
-3.1798111645
 20
11.9595032968
 10
-3.1872086768
 20
11.9630002138
 10
-3.1933136491
 20
11.9661009822
 10
-3.1993451365
 20
11.9693624358
 10
-3.2052823952
 20
11.9727739204
 10
-3.2111099777
 20
11.9763281086
 10
-3.2168336232
 20
11.980030979
 10
-3.2224643676
 20
11.9838918367
 10
-3.2280096758
 20
11.987917862
 10
-3.2334627295
 20
11.9921077364
 10
-3.2388131393
 20
11.9964580165
 10
-3.244050516
 20
12.000965259
 10
-3.2491644703
 20
12.0056260206
 10
-3.2541446129
 20
12.0104368579
 10
-3.2589816875
 20
12.0153932417
 10
-3.2636709687
 20
12.0204862987
 10
-3.2682088642
 20
12.02570607
 10
-3.2725917817
 20
12.0310425963
 10
-3.2768161287
 20
12.0364859186
 10
-3.2808783128
 20
12.0420260779
 10
-3.2847768598
 20
12.0476566177
 10
-3.2885187676
 20
12.0533850932
 10
-3.2921131525
 20
12.059222562
 10
-3.2955657303
 20
12.0651746946
 10
-3.2988686166
 20
12.0712256116
 10
-3.302010527
 20
12.0773540466
 10
-3.3055556778
 20
12.0847844043
 10
-3.3088526851
 20
12.092282149
 10
-3.3119014609
 20
12.0998336662
 10
-3.3147019167
 20
12.1074253412
 10
-3.3172539644
 20
12.1150435593
 10
-3.3195580059
 20
12.1226763719
 10
-3.3216164038
 20
12.1303184947
 10
-3.3234320107
 20
12.1379663091
 10
-3.3250076796
 20
12.1456161968
 10
-3.3263462631
 20
12.1532645395
 10
-3.3274494742
 20
12.1609116426
 10
-3.3283144663
 20
12.168573508
 10
-3.3289372533
 20
12.1762700617
 10
-3.3293138487
 20
12.1840212294
 10
-3.3294402664
 20
12.1918469371
  0
LWPOLYLINE
  5
3A8
100
AcDbEntity
  8
0
100
AcDbPolyline
 62
253
  6
CONTINUOUS
 90
55
 70
0
 10
1.321934615
 20
11.9360124928
 10
1.3141834707
 20
11.9361367569
 10
1.3065027994
 20
11.936507131
 10
1.2988729175
 20
11.9371199879
 10
1.2912741414
 20
11.9379717004
 10
1.2836867874
 20
11.9390586414
 10
1.2760950593
 20
11.9403782817
 10
1.2684987099
 20
11.9419324838
 10
1.2609013797
 20
11.9437242084
 10
1.2533067088
 20
11.9457564162
 10
1.2457183376
 20
11.9480320676
 10
1.2381415249
 20
11.9505536465
 10
1.2305880035
 20
11.9533217297
 10
1.2230711251
 20
11.9563364169
 10
1.215604241
 20
11.959597808
 10
1.2082007026
 20
11.963106003
 10
1.2020912894
 20
11.9662162929
 10
1.1960559483
 20
11.96948725
 10
1.1901154891
 20
11.9729080802
 10
1.1842854197
 20
11.9764713217
 10
1.1785600383
 20
11.9801828391
 10
1.1729283408
 20
11.9840518291
 10
1.1673828625
 20
11.9880853754
 10
1.161930296
 20
11.9922821119
 10
1.1565808731
 20
11.9966385597
 10
1.1513448256
 20
12.00115124
 10
1.1462323855
 20
12.005816674
 10
1.1412537844
 20
12.0106313827
 10
1.1364181452
 20
12.0155908095
 10
1.1317301539
 20
12.0206860862
 10
1.1271933874
 20
12.0259072664
 10
1.1228114226
 20
12.0312444042
 10
1.1185878364
 20
12.0366875533
 10
1.1145262058
 20
12.0422267675
 10
1.1106280023
 20
12.0478555955
 10
1.1068862768
 20
12.0535815646
 10
1.1032919747
 20
12.059415697
 10
1.0998394274
 20
12.0653636474
 10
1.0965365096
 20
12.0714096011
 10
1.093394482
 20
12.0775323759
 10
1.0898490557
 20
12.0849551265
 10
1.086551646
 20
12.0924444438
 10
1.0835023723
 20
12.0999867747
 10
1.0807013539
 20
12.1075685659
 10
1.0781487103
 20
12.1151762641
 10
1.075844069
 20
12.1227979802
 10
1.0737850901
 20
12.130428481
 10
1.0719689419
 20
12.1380641973
 10
1.0703927925
 20
12.14570156
 10
1.0690538103
 20
12.153337
 10
1.0679502977
 20
12.1609708402
 10
1.0670850937
 20
12.1686189713
 10
1.0664621716
 20
12.1763011759
 10
1.0660855046
 20
12.184037237
 10
1.065959066
 20
12.1918469371
  0
LWPOLYLINE
  5
3A9
100
AcDbEntity
  8
0
100
AcDbPolyline
 62
253
  6
CONTINUOUS
 90
55
 70
0
 10
-2.0025372447
 20
12.447928326
 10
-1.9947879508
 20
12.4478033765
 10
-1.9871089964
 20
12.4474310031
 10
-1.9794808203
 20
12.4468149181
 10
-1.9718838612
 20
12.4459588341
 10
-1.9642985578
 20
12.4448664634
 10
-1.9567092059
 20
12.4435404183
 10
-1.9491155297
 20
12.4419789098
 10
-1.9415211105
 20
12.4401790485
 10
-1.9339295293
 20
12.4381379451
 10
-1.9263443676
 20
12.4358527105
 10
-1.9187708299
 20
12.4333209373
 10
-1.9112206141
 20
12.4305421471
 10
-1.9037070414
 20
12.4275163433
 10
-1.8962434332
 20
12.4242435295
 10
-1.8888431107
 20
12.4207237094
 10
-1.8827363121
 20
12.4176036586
 10
-1.8767035191
 20
12.4143229738
 10
-1.8707655379
 20
12.4108925507
 10
-1.8649378734
 20
12.4073199501
 10
-1.8592148246
 20
12.4035993928
 10
-1.8535853893
 20
12.3997217646
 10
-1.8480420945
 20
12.3956800555
 10
-1.8425915853
 20
12.391475672
 10
-1.8372440361
 20
12.3871121246
 10
-1.8320096215
 20
12.3825929238
 10
-1.826898516
 20
12.3779215804
 10
-1.8219208942
 20
12.3731016048
 10
-1.8170858351
 20
12.3681375657
 10
-1.8123980366
 20
12.3630382634
 10
-1.8078611013
 20
12.3578135562
 10
-1.8034786316
 20
12.3524733024
 10
-1.79925423
 20
12.3470273605
 10
-1.795191499
 20
12.3414855887
 10
-1.7912919391
 20
12.3358543652
 10
-1.7875486425
 20
12.3301261473
 10
-1.7839525994
 20
12.3242899122
 10
-1.7804981877
 20
12.3183400069
 10
-1.7771933361
 20
12.3122922583
 10
-1.774049361
 20
12.3061678632
 10
-1.7705016466
 20
12.298743415
 10
-1.7672020361
 20
12.2912526729
 10
-1.7641506759
 20
12.2837091901
 10
-1.7613477122
 20
12.2761265203
 10
-1.7587932912
 20
12.2685182168
 10
-1.7564870622
 20
12.2608961548
 10
-1.7544266863
 20
12.2532654965
 10
-1.7526093278
 20
12.2456297257
 10
-1.7510321509
 20
12.2379923263
 10
-1.7496923198
 20
12.2303567821
 10
-1.748588132
 20
12.2227227219
 10
-1.7477224185
 20
12.215074354
 10
-1.7470991435
 20
12.2073920317
 10
-1.7467222714
 20
12.1996561083
 10
-1.7465957664
 20
12.1918469371
  0
LWPOLYLINE
  5
3AA
100
AcDbEntity
  8
0
100
AcDbPolyline
 62
253
  6
CONTINUOUS
 90
55
 70
0
 10
2.3934970876
 20
12.447928326
 10
2.4012304183
 20
12.4478031157
 10
2.4088936782
 20
12.447429985
 10
2.4165063434
 20
12.4468126838
 10
2.4240878899
 20
12.4459549622
 10
2.4316577935
 20
12.4448605703
 10
2.4392316925
 20
12.443532158
 10
2.4468098742
 20
12.4419679751
 10
2.4543887881
 20
12.440165171
 10
2.4619648837
 20
12.4381208954
 10
2.4695346105
 20
12.4358322979
 10
2.4770927955
 20
12.4332970127
 10
2.4846277749
 20
12.4305146131
 10
2.4921262625
 20
12.4274851573
 10
2.4995749721
 20
12.4242087031
 10
2.5069606173
 20
12.4206853086
 10
2.5130553837
 20
12.41756237
 10
2.5190763701
 20
12.4142789178
 10
2.5250028175
 20
12.4108458845
 10
2.5308192533
 20
12.4072708687
 10
2.5365313508
 20
12.4035481328
 10
2.542150069
 20
12.3996686051
 10
2.5476828525
 20
12.3956253149
 10
2.5531230853
 20
12.3914196938
 10
2.5584606364
 20
12.3870552747
 10
2.5636853751
 20
12.38253559
 10
2.5687871703
 20
12.3778641723
 10
2.5737558911
 20
12.3730445542
 10
2.5785824959
 20
12.3680813115
 10
2.5832623003
 20
12.3629831929
 10
2.587791709
 20
12.3577599901
 10
2.5921671268
 20
12.352421495
 10
2.5963849586
 20
12.3469774994
 10
2.600441609
 20
12.3414377951
 10
2.6043355731
 20
12.3358087061
 10
2.6080737064
 20
12.3300826843
 10
2.6116649544
 20
12.324248714
 10
2.6151148849
 20
12.3183011452
 10
2.618415553
 20
12.3122557915
 10
2.6215556359
 20
12.3061338327
 10
2.6250990541
 20
12.298712339
 10
2.6283947606
 20
12.2912245612
 10
2.6314425913
 20
12.2836840277
 10
2.6342423818
 20
12.2761042672
 10
2.6367939679
 20
12.2684988084
 10
2.639097683
 20
12.2608794988
 10
2.6411558515
 20
12.2532514618
 10
2.6429712951
 20
12.2456181397
 10
2.6445468358
 20
12.2379829749
 10
2.6458852953
 20
12.2303494097
 10
2.6469883646
 20
12.2227170535
 10
2.6478532096
 20
12.2150701837
 10
2.6484758652
 20
12.2073892447
 10
2.6488523663
 20
12.1996546811
 10
2.6489787478
 20
12.1918469371
  0
LWPOLYLINE
  5
3AB
100
AcDbEntity
  8
0
100
AcDbPolyline
 62
253
  6
CONTINUOUS
 90
51
 70
0
 10
-0.3401778426
 20
13.0047880481
 10
-0.31552561
 20
13.0043870266
 10
-0.2909416642
 20
13.003186459
 10
-0.2663596253
 20
13.0011900909
 10
-0.241713113
 20
12.9984016678
 10
-0.2169463761
 20
12.9948204436
 10
-0.1920461772
 20
12.9904277068
 10
-0.1670099077
 20
12.9852002541
 10
-0.1418349589
 20
12.9791148824
 10
-0.1165333519
 20
12.9721534504
 10
-0.0911756264
 20
12.9643180649
 10
-0.0658469521
 20
12.9556158946
 10
-0.0406324985
 20
12.9460541083
 10
-0.0156098153
 20
12.9356393875
 10
0.009174027
 20
12.9243764649
 10
0.0336795776
 20
12.9122695861
 10
0.0578673858
 20
12.8993229967
 10
0.0790682674
 20
12.8871141895
 10
0.0999546952
 20
12.8742529375
 10
0.1204944421
 20
12.8607469165
 10
0.1406552809
 20
12.8466038022
 10
0.1604049845
 20
12.8318312704
 10
0.1797113258
 20
12.8164369968
 10
0.1985420777
 20
12.8004286571
 10
0.2168650128
 20
12.7838139271
 10
0.2346479043
 20
12.7666004825
 10
0.2518620146
 20
12.7488006489
 10
0.268492566
 20
12.730445351
 10
0.2845282704
 20
12.7115701634
 10
0.2999578397
 20
12.6922106605
 10
0.3147699859
 20
12.672402417
 10
0.328953421
 20
12.6521810074
 10
0.3424968568
 20
12.6315820062
 10
0.3553890053
 20
12.6106409879
 10
0.3676185785
 20
12.5893935271
 10
0.3805734916
 20
12.5651658875
 10
0.3926755707
 20
12.5406326056
 10
0.40392484
 20
12.5158308563
 10
0.4143213239
 20
12.4907978147
 10
0.4238637855
 20
12.4655789556
 10
0.4325459433
 20
12.4402529539
 10
0.4403602544
 20
12.4149067844
 10
0.447299176
 20
12.3896274216
 10
0.4533605076
 20
12.3644867619
 10
0.4585634171
 20
12.3394963872
 10
0.4629324145
 20
12.3146528009
 10
0.4664920099
 20
12.2899525063
 10
0.4692621389
 20
12.2653815791
 10
0.4712444388
 20
12.2408843839
 10
0.4724359727
 20
12.2163948576
 10
0.4728338033
 20
12.1918469371
  0
LWPOLYLINE
  5
3AC
100
AcDbEntity
  8
ASSI
100
AcDbPolyline
 62
253
  6
CONTINUOUS
 90
13
 70
0
 10
10.5832682361
 20
9.1911312344
 10
10.5825699705
 20
9.1914015665
 10
10.581468055
 20
9.19167168
 10
10.5799633808
 20
9.1919413563
 10
10.5780571653
 20
9.1922103772
 10
10.5757509502
 20
9.1924785252
 10
10.5730466013
 20
9.1927455833
 10
10.5699463061
 20
9.1930113356
 10
10.5664525725
 20
9.193275567
 10
10.5625682267
 20
9.1935380638
 10
10.5582964107
 20
9.1937986137
 10
10.5536405803
 20
9.1940570058
 10
10.5431922481
 20
9.1945664829
  0
LWPOLYLINE
  5
3AD
100
AcDbEntity
  8
0
100
AcDbPolyline
 62
253
  6
CONTINUOUS
 90
55
 70
0
 10
-0.3401778426
 20
13.5979486035
 10
-0.3324467911
 20
13.5980723996
 10
-0.3247855407
 20
13.5984414138
 10
-0.3171743919
 20
13.5990520849
 10
-0.3095936453
 20
13.5999008514
 10
-0.3020236015
 20
13.6009841523
 10
-0.2944484558
 20
13.6022995187
 10
-0.286867983
 20
13.603848851
 10
-0.2792858525
 20
13.6056351423
 10
-0.2717057339
 20
13.6076613855
 10
-0.2641312965
 20
13.6099305735
 10
-0.2565678191
 20
13.6124452259
 10
-0.2490270168
 20
13.6152059679
 10
-0.2415222138
 20
13.6182129516
 10
-0.2340667344
 20
13.6214663289
 10
-0.2266739029
 20
13.6249662517
 10
-0.2205728508
 20
13.6280694991
 10
-0.2145453
 20
13.6313333653
 10
-0.2086119932
 20
13.6347471512
 10
-0.2027883792
 20
13.6383034863
 10
-0.1970687313
 20
13.6420083139
 10
-0.1914420284
 20
13.6458709056
 10
-0.1859008102
 20
13.6498984103
 10
-0.1804518589
 20
13.6540894861
 10
-0.175105517
 20
13.6584406682
 10
-0.1698721273
 20
13.6629484919
 10
-0.1647620324
 20
13.6676094925
 10
-0.1597855749
 20
13.6724202052
 10
-0.1549519709
 20
13.6773760885
 10
-0.1502659306
 20
13.6824682927
 10
-0.1457310374
 20
13.6876868916
 10
-0.1413508749
 20
13.6930219585
 10
-0.1371290265
 20
13.6984635672
 10
-0.1330690757
 20
13.7040017911
 10
-0.1291724954
 20
13.7096302014
 10
-0.125432315
 20
13.7153563593
 10
-0.1218394532
 20
13.7211913239
 10
-0.1183882244
 20
13.7271407695
 10
-0.115086526
 20
13.7331888334
 10
-0.111945651
 20
13.7393142687
 10
-0.1084015538
 20
13.7467408596
 10
-0.1051054105
 20
13.7542346808
 10
-0.1020573272
 20
13.7617821435
 10
-0.09925741
 20
13.7693696593
 10
-0.0967057652
 20
13.7769836393
 10
-0.0944020086
 20
13.7846121666
 10
-0.0923437947
 20
13.7922500105
 10
-0.0905282879
 20
13.7998936117
 10
-0.0889526523
 20
13.8075394111
 10
-0.0876140524
 20
13.8151838497
 10
-0.0865107919
 20
13.8228272619
 10
-0.0856457335
 20
13.830485557
 10
-0.0850228795
 20
13.8381785381
 10
-0.0846462321
 20
13.8459260082
 10
-0.0845197936
 20
13.8537477701
  0
LWPOLYLINE
  5
3AE
100
AcDbEntity
  8
0
100
AcDbPolyline
 62
253
  6
CONTINUOUS
 90
55
 70
0
 10
-0.3401778426
 20
15.1807919364
 10
-0.347918227
 20
15.1806680754
 10
-0.3555884765
 20
15.1802988729
 10
-0.3632083139
 20
15.1796878995
 10
-0.3707974618
 20
15.178838726
 10
-0.378375643
 20
15.1777549231
 10
-0.3859586831
 20
15.1764389658
 10
-0.3935468194
 20
15.1748889464
 10
-0.4011363921
 20
15.1731018612
 10
-0.4087237416
 20
15.1710747069
 10
-0.416305208
 20
15.16880448
 10
-0.4238755143
 20
15.1662886525
 10
-0.4314229139
 20
15.1635265979
 10
-0.4389340429
 20
15.1605181654
 10
-0.4463955375
 20
15.1572632042
 10
-0.4537940338
 20
15.1537615633
 10
-0.4598995054
 20
15.1506567886
 10
-0.4659311529
 20
15.1473913407
 10
-0.4718681818
 20
15.1439759564
 10
-0.4776950999
 20
15.140418039
 10
-0.4834176265
 20
15.1367116569
 10
-0.4890467832
 20
15.1328475446
 10
-0.4945900382
 20
15.12881856
 10
-0.5000406446
 20
15.1246260524
 10
-0.5053883021
 20
15.1202734945
 10
-0.5106227101
 20
15.1157643587
 10
-0.5157335681
 20
15.1111021175
 10
-0.5207105756
 20
15.1062902435
 10
-0.5255445557
 20
15.1013332892
 10
-0.5302308251
 20
15.0962401275
 10
-0.5347658241
 20
15.0910207113
 10
-0.5391459932
 20
15.0856849936
 10
-0.5433677725
 20
15.0802429273
 10
-0.5474276025
 20
15.0747044653
 10
-0.5513240305
 20
15.0690760571
 10
-0.5550640332
 20
15.0633501379
 10
-0.558656694
 20
15.0575156393
 10
-0.5621077041
 20
15.0515668747
 10
-0.5654091849
 20
15.0455196828
 10
-0.5685498652
 20
15.0393952843
 10
-0.5720937833
 20
15.0319701208
 10
-0.5753898104
 20
15.0244779011
 10
-0.578437839
 20
15.0169321894
 10
-0.5812377613
 20
15.0093465496
 10
-0.5837894697
 20
15.0017345458
 10
-0.5860933448
 20
14.9941080716
 10
-0.5881517207
 20
14.9864723385
 10
-0.58996742
 20
14.9788308878
 10
-0.5915432652
 20
14.9711872605
 10
-0.5928820788
 20
14.9635449979
 10
-0.5939855436
 20
14.9559037585
 10
-0.5948507839
 20
14.9482476705
 10
-0.5954737841
 20
14.9405569793
 10
-0.5958505289
 20
14.9328119306
 10
-0.5959770028
 20
14.9249927698
  0
LWPOLYLINE
  5
3AF
100
AcDbEntity
  8
ASSI
100
AcDbPolyline
 62
253
  6
CONTINUOUS
 90
49
 70
0
 10
10.61763109
 20
-21.432224094
 10
10.6169380632
 20
-21.434345738
 10
10.6158411803
 20
-21.436465665
 10
10.6143413292
 20
-21.4385821591
 10
10.6124397236
 20
-21.4406935075
 10
10.6101379027
 20
-21.4427980013
 10
10.6074377293
 20
-21.4448939374
 10
10.6043413888
 20
-21.4469796195
 10
10.6008513871
 20
-21.4490533595
 10
10.5969705488
 20
-21.4511134791
 10
10.5927020147
 20
-21.4531583111
 10
10.5880492395
 20
-21.4551862004
 10
10.5830159888
 20
-21.4571955059
 10
10.5776063362
 20
-21.4591846013
 10
10.5718246597
 20
-21.4611518769
 10
10.5656756387
 20
-21.4630957404
 10
10.5591642498
 20
-21.4650146187
 10
10.5522957627
 20
-21.4669069588
 10
10.5450757364
 20
-21.4687712291
 10
10.5375100142
 20
-21.4706059208
 10
10.5296047193
 20
-21.472409549
 10
10.5213662495
 20
-21.4741806541
 10
10.5128012726
 20
-21.4759178026
 10
10.5039167203
 20
-21.4776195886
 10
10.4947197833
 20
-21.4792846349
 10
10.4852179048
 20
-21.4809115937
 10
10.4754187749
 20
-21.4824991485
 10
10.4653303244
 20
-21.4840460143
 10
10.454960718
 20
-21.4855509393
 10
10.4443183483
 20
-21.4870127054
 10
10.4334118283
 20
-21.4884301296
 10
10.422249985
 20
-21.4898020648
 10
10.410841852
 20
-21.4911274006
 10
10.3991966622
 20
-21.4924050643
 10
10.3873238403
 20
-21.493634022
 10
10.3752329954
 20
-21.4948132789
 10
10.3629339128
 20
-21.4959418808
 10
10.3504365466
 20
-21.4970189141
 10
10.3377510112
 20
-21.4980435073
 10
10.3248875734
 20
-21.499014831
 10
10.3118566438
 20
-21.4999320993
 10
10.2986687689
 20
-21.5007945696
 10
10.2853346217
 20
-21.5016015439
 10
10.2718649942
 20
-21.5023523693
 10
10.2582707875
 20
-21.5030464379
 10
10.2445630038
 20
-21.5036831882
 10
10.2307527372
 20
-21.5042621047
 10
10.2168511648
 20
-21.5047827188
 10
10.2028695374
 20
-21.5052446094
  0
LWPOLYLINE
  5
3B0
100
AcDbEntity
  8
ASSI
100
AcDbPolyline
 62
253
  6
CONTINUOUS
 90
50
 70
0
 10
10.61763109
 20
20.8334865628
 10
10.6169380634
 20
20.8356082069
 10
10.6158411807
 20
20.8377281338
 10
10.6143413297
 20
20.839844628
 10
10.6124397244
 20
20.8419559764
 10
10.6101379036
 20
20.8440604703
 10
10.6074377304
 20
20.8461564064
 10
10.6043413901
 20
20.8482420885
 10
10.6008513885
 20
20.8503158285
 10
10.5969705503
 20
20.8523759482
 10
10.5927020164
 20
20.8544207802
 10
10.5880492413
 20
20.8564486695
 10
10.5830159907
 20
20.858457975
 10
10.5776063381
 20
20.8604470705
 10
10.5718246617
 20
20.8624143461
 10
10.5656756408
 20
20.8643582097
 10
10.559164252
 20
20.866277088
 10
10.552295765
 20
20.8681694281
 10
10.5450757388
 20
20.8700336984
 10
10.5375100166
 20
20.8718683901
 10
10.5296047217
 20
20.8736720184
 10
10.521366252
 20
20.8754431235
 10
10.5128012751
 20
20.8771802721
 10
10.5039167228
 20
20.8788820581
 10
10.4947197858
 20
20.8805471044
 10
10.4852179073
 20
20.8821740633
 10
10.4754187774
 20
20.8837616181
 10
10.4653303268
 20
20.8853084839
 10
10.4549607205
 20
20.8868134089
 10
10.4443183507
 20
20.8882751751
 10
10.4334118307
 20
20.8896925993
 10
10.4222499874
 20
20.8910645345
 10
10.4108418543
 20
20.8923898703
 10
10.3991966644
 20
20.8936675341
 10
10.3873238425
 20
20.8948964918
 10
10.3752329975
 20
20.8960757488
 10
10.3629339148
 20
20.8972043506
 10
10.3504365485
 20
20.898281384
 10
10.3377510131
 20
20.8993059772
 10
10.3248875751
 20
20.900277301
 10
10.3118566455
 20
20.9011945692
 10
10.2986687704
 20
20.9020570395
 10
10.2853346232
 20
20.9028640139
 10
10.2718649955
 20
20.9036148393
 10
10.2582707887
 20
20.9043089079
 10
10.2445630049
 20
20.9049456582
 10
10.2307527382
 20
20.9055245747
 10
10.2168511657
 20
20.9060451889
 10
10.2028695382
 20
20.9065070794
 10
10.1747114368
 20
20.9072532421
  0
LINE
  5
3B1
100
AcDbEntity
  8
ASSI
100
AcDbLine
 62
7
  6
CONTINUOUS
 10
7.418270565
 20
21.908869175
 11
7.070051891
 21
21.8772603434
  0
LINE
  5
3B2
100
AcDbEntity
  8
ASSI
100
AcDbLine
 62
253
  6
CONTINUOUS
 10
-10.9782358093
 20
20.9065070782
 11
-10.9500777081
 21
20.9072532409
  0
LINE
  5
3B3
100
AcDbEntity
  8
ASSI
100
AcDbLine
 62
253
  6
CONTINUOUS
 10
-10.9500777081
 20
20.9072532409
 11
-10.9217358435
 21
20.9077606465
  0
LINE
  5
3B4
100
AcDbEntity
  8
ASSI
100
AcDbLine
 62
253
  6
CONTINUOUS
 10
-10.9217358435
 20
20.9077606465
 11
-10.8933019483
 21
20.9080276527
  0
LINE
  5
3B5
100
AcDbEntity
  8
ASSI
100
AcDbLine
 62
253
  6
CONTINUOUS
 10
10.1179356765
 20
20.908027654
 11
-10.8933019483
 21
20.908027654
  0
LINE
  5
3B6
100
AcDbEntity
  8
ASSI
100
AcDbLine
 62
253
  6
CONTINUOUS
 10
10.146369572
 20
20.9077606478
 11
10.1179356765
 21
20.908027654
  0
LINE
  5
3B7
100
AcDbEntity
  8
ASSI
100
AcDbLine
 62
253
  6
CONTINUOUS
 10
10.1747114368
 20
20.9072532421
 11
10.146369572
 21
20.9077606478
  0
LINE
  5
3B8
100
AcDbEntity
  8
ASSI
100
AcDbLine
 62
7
  6
CONTINUOUS
 10
-8.1936368368
 20
21.908869175
 11
-7.8454181628
 21
21.8772603434
  0
LINE
  5
3B9
100
AcDbEntity
  8
ASSI
100
AcDbLine
 62
7
  6
CONTINUOUS
 10
-3.781729435
 20
21.908869175
 11
-4.129948109
 21
21.8772603434
  0
LINE
  5
3BA
100
AcDbEntity
  8
ASSI
100
AcDbLine
 62
253
  6
CONTINUOUS
 10
10.1342871322
 20
21.7575750063
 11
-10.909653404
 21
21.7575750063
  0
LINE
  5
3BB
100
AcDbEntity
  8
ASSI
100
AcDbLine
 62
7
  6
CONTINUOUS
 10
6.8968468103
 20
21.8720195655
 11
3.5277869179
 21
21.8720195655
  0
LINE
  5
3BC
100
AcDbEntity
  8
ASSI
100
AcDbLine
 62
7
  6
CONTINUOUS
 10
-4.3031531897
 20
21.8720195655
 11
-7.6722130821
 21
21.8720195655
  0
LINE
  5
3BD
100
AcDbEntity
  8
ASSI
100
AcDbLine
 62
7
  6
CONTINUOUS
 10
-11.0104649412
 20
21.908869175
 11
-8.1936368368
 21
21.908869175
  0
LINE
  5
3BE
100
AcDbEntity
  8
ASSI
100
AcDbLine
 62
7
  6
CONTINUOUS
 10
-3.781729435
 20
21.908869175
 11
3.0063631632
 21
21.908869175
  0
LINE
  5
3BF
100
AcDbEntity
  8
ASSI
100
AcDbLine
 62
7
  6
CONTINUOUS
 10
7.418270565
 20
21.908869175
 11
10.2350986693
 21
21.908869175
  0
LINE
  5
3C0
100
AcDbEntity
  8
ASSI
100
AcDbLine
 62
7
  6
CONTINUOUS
 10
3.0063631632
 20
21.908869175
 11
3.3545818372
 21
21.8772603434
  0
LINE
  5
3C1
100
AcDbEntity
  8
ASSI
100
AcDbLine
 62
7
  6
CONTINUOUS
 10
-31.8528374946
 20
-22.3563125375
 11
-28.9659727827
 21
-22.5076067061
  0
LINE
  5
3C2
100
AcDbEntity
  8
ASSI
100
AcDbLine
 62
253
  6
CONTINUOUS
 10
-31.8441192648
 20
-21.8569977701
 11
-28.9224479921
 21
-22.0101160733
  0
LWPOLYLINE
  5
3C3
100
AcDbEntity
  8
ASSI
100
AcDbPolyline
 62
253
  6
CONTINUOUS
 90
7
 70
0
 10
-32.7822067041
 20
-21.5052446094
 10
-32.7843876802
 20
-21.5056474024
 10
-32.786172512
 20
-21.5059907721
 10
-32.7875597551
 20
-21.5062744403
 10
-32.7885482868
 20
-21.5064981777
 10
-32.7891373069
 20
-21.506661803
 10
-32.7893263388
 20
-21.5067651839
  0
LINE
  5
3C4
100
AcDbEntity
  8
ASSI
100
AcDbLine
 62
253
  6
CONTINUOUS
 10
-32.776663699
 20
-21.5042621047
 11
-32.7822067041
 21
-21.5052446094
  0
LINE
  5
3C5
100
AcDbEntity
  8
ASSI
100
AcDbLine
 62
253
  6
CONTINUOUS
 10
-32.7654325739
 20
-21.5023523693
 11
-32.776663699
 21
-21.5042621047
  0
LINE
  5
3C6
100
AcDbEntity
  8
ASSI
100
AcDbLine
 62
253
  6
CONTINUOUS
 10
-32.7391537609
 20
-21.4980435073
 11
-32.7654325739
 21
-21.5023523693
  0
LINE
  5
3C7
100
AcDbEntity
  8
ASSI
100
AcDbLine
 62
253
  6
CONTINUOUS
 10
-32.6697106257
 20
-21.4870127054
 11
-32.7391537609
 21
-21.4980435073
  0
LINE
  5
3C8
100
AcDbEntity
  8
ASSI
100
AcDbLine
 62
253
  6
CONTINUOUS
 10
-32.3123636912
 20
-21.432224094
 11
-32.6697106257
 21
-21.4870127054
  0
LINE
  5
3C9
100
AcDbEntity
  8
ASSI
100
AcDbLine
 62
253
  6
CONTINUOUS
 10
-28.5919809386
 20
-18.2328603668
 11
-28.5691052182
 21
-18.2328603668
  0
LWPOLYLINE
  5
3CA
100
AcDbEntity
  8
ASSI
100
AcDbPolyline
 62
253
  6
CONTINUOUS
 90
3
 70
0
 10
-33.7780388171
 20
-9.7993345413
 10
-33.7786450567
 20
-9.7993554905
 10
-33.7788470716
 20
-9.7993687656
  0
LINE
  5
3CB
100
AcDbEntity
  8
ASSI
100
AcDbLine
 62
253
  6
CONTINUOUS
 10
-33.7738012861
 20
-9.7992258501
 11
-33.7780388171
 21
-9.7993345413
  0
LINE
  5
3CC
100
AcDbEntity
  8
ASSI
100
AcDbLine
 62
253
  6
CONTINUOUS
 10
-33.2963870782
 20
-9.7898687656
 11
-33.7738012861
 21
-9.7992258501
  0
LWPOLYLINE
  5
3CD
100
AcDbEntity
  8
ASSI
100
AcDbPolyline
 62
253
  6
CONTINUOUS
 90
28
 70
0
 10
-32.3123636912
 20
20.8334865628
 10
-32.3758891363
 20
20.4051095229
 10
-32.4373384196
 20
19.976450329
 10
-32.496711541
 20
19.5475089811
 10
-32.5540097931
 20
19.1182754119
 10
-32.6092318833
 20
18.6887596886
 10
-32.6623739342
 20
18.2589920128
 10
-32.7134357977
 20
17.8289723804
 10
-32.7624176218
 20
17.3987007954
 10
-32.8093159732
 20
16.9682074717
 10
-32.8541307052
 20
16.5374923978
 10
-32.8968619645
 20
16.1065555851
 10
-32.9375067572
 20
15.6754272811
 10
-32.9760649371
 20
15.2441074753
 10
-33.0125366505
 20
14.8125961782
 10
-33.0469193427
 20
14.380923669
 10
-33.0792128679
 20
13.9490899337
 10
-33.1094173719
 20
13.5170949863
 10
-33.1375307385
 20
13.0849691481
 10
-33.1635528212
 20
12.6527124058
 10
-33.1874837664
 20
12.2203247728
 10
-33.209321897
 20
11.7878366106
 10
-33.2290670664
 20
11.3552478918
 10
-33.2467194212
 20
10.9225586439
 10
-33.2622777236
 20
10.4897993098
 10
-33.2757415609
 20
10.0569800374
 10
-33.2871113457
 20
9.6240906789
 10
-33.3145669368
 20
8.1806540815
  0
LWPOLYLINE
  5
3CE
100
AcDbEntity
  8
ASSI
100
AcDbPolyline
 62
253
  6
CONTINUOUS
 90
58
 70
0
 10
-32.3123636912
 20
-21.432224094
 10
-32.3104294696
 20
-21.4440825967
 10
-32.3082140538
 20
-21.4558782571
 10
-32.3057174439
 20
-21.4676110752
 10
-32.3029378576
 20
-21.4792878917
 10
-32.2998770772
 20
-21.4909018659
 10
-32.2965404492
 20
-21.5024324758
 10
-32.2929275145
 20
-21.5138794414
 10
-32.2890387322
 20
-21.5252430427
 10
-32.2848808263
 20
-21.536503598
 10
-32.2804533389
 20
-21.5476609054
 10
-32.2757567279
 20
-21.5587151668
 10
-32.2707990907
 20
-21.5696473058
 10
-32.2655799731
 20
-21.5804571218
 10
-32.2600998293
 20
-21.5911448153
 10
-32.2543681198
 20
-21.6016919116
 10
-32.2483844092
 20
-21.6120981683
 10
-32.2421491328
 20
-21.6223638279
 10
-32.2356730573
 20
-21.6324711434
 10
-32.2289557654
 20
-21.6424198422
 10
-32.2219976745
 20
-21.652210197
 10
-32.2148108037
 20
-21.6618252783
 10
-32.2073947615
 20
-21.6712647786
 10
-32.1997499396
 20
-21.6805290055
 10
-32.1918895314
 20
-21.6896019525
 10
-32.1838131579
 20
-21.6984832961
 10
-32.1755211983
 20
-21.7071733599
 10
-32.1670279829
 20
-21.7156571082
 10
-32.1583331679
 20
-21.7239341798
 10
-32.1494370972
 20
-21.732004936
 10
-32.1403551333
 20
-21.739855424
 10
-32.1310869489
 20
-21.7474852676
 10
-32.1216328713
 20
-21.7548948431
 10
-32.112009245
 20
-21.7620713271
 10
-32.1022157833
 20
-21.7690143118
 10
-32.0922527728
 20
-21.775724205
 10
-32.0821374178
 20
-21.7821894075
 10
-32.0718694481
 20
-21.7884095003
 10
-32.0614491338
 20
-21.7943849023
 10
-32.0508944896
 20
-21.800105271
 10
-32.0402052824
 20
-21.8055701647
 10
-32.0293817451
 20
-21.810780025
 10
-32.0184425916
 20
-21.8157258345
 10
-32.0073876206
 20
-21.820407136
 10
-31.9962170333
 20
-21.8248243868
 10
-31.9849501473
 20
-21.8289699416
 10
-31.9735868066
 20
-21.832843328
 10
-31.9621271672
 20
-21.8364450184
 10
-31.950591015
 20
-21.8397687857
 10
-31.9389781928
 20
-21.842814153
 10
-31.9272888577
 20
-21.8455815972
 10
-31.9155432679
 20
-21.8480663212
 10
-31.903741125
 20
-21.8502678439
 10
-31.8918827273
 20
-21.8521866465
 10
-31.8799892271
 20
-21.8538193757
 10
-31.8680676754
 20
-21.8551649139
 10
-31.8561110213
 20
-21.8562243787
 10
-31.8441192648
 20
-21.8569977701
  0
LINE
  5
3CF
100
AcDbEntity
  8
0
100
AcDbLine
 62
253
  6
CONTINUOUS
 10
-33.5313025163
 20
-14.9750639527
 11
-33.5505640051
 21
-14.7192647861
  0
LINE
  5
3D0
100
AcDbEntity
  8
0
100
AcDbLine
 62
253
  6
CONTINUOUS
 10
-33.5879831266
 20
-14.1915797862
 11
-33.6150364989
 21
-13.7795222212
  0
LINE
  5
3D1
100
AcDbEntity
  8
0
100
AcDbLine
 62
253
  6
CONTINUOUS
 10
-33.6150364989
 20
-13.7795222212
 11
-33.6390543282
 21
-13.3867937653
  0
LINE
  5
3D2
100
AcDbEntity
  8
0
100
AcDbLine
 62
253
  6
CONTINUOUS
 10
-33.6616734028
 20
-12.9881252014
 11
-33.6390543282
 21
-13.3867937653
  0
LINE
  5
3D3
100
AcDbEntity
  8
0
100
AcDbLine
 62
253
  6
CONTINUOUS
 10
-33.6827156063
 20
-12.5855213657
 11
-33.6616734028
 21
-12.9881252014
  0
LINE
  5
3D4
100
AcDbEntity
  8
0
100
AcDbLine
 62
253
  6
CONTINUOUS
 10
-33.6827156063
 20
-12.5855213657
 11
-33.7018101662
 21
-12.1859898833
  0
LINE
  5
3D5
100
AcDbEntity
  8
0
100
AcDbLine
 62
253
  6
CONTINUOUS
 10
-33.7018101662
 20
-12.1859898833
 11
-33.7188842993
 21
-11.7923208204
  0
LINE
  5
3D6
100
AcDbEntity
  8
0
100
AcDbLine
 62
253
  6
CONTINUOUS
 10
-33.728902039
 20
-11.540468492
 11
-33.7188842993
 21
-11.7923208204
  0
LWPOLYLINE
  5
3D7
100
AcDbEntity
  8
ASSI
100
AcDbPolyline
 62
253
  6
CONTINUOUS
 90
27
 70
0
 10
-33.2871113457
 20
-10.2228282101
 10
-33.2757415609
 20
-10.6557175686
 10
-33.2622777236
 20
-11.088536841
 10
-33.2467194212
 20
-11.521296175
 10
-33.2290670664
 20
-11.953985423
 10
-33.209321897
 20
-12.3865741417
 10
-33.1874837664
 20
-12.819062304
 10
-33.1635528212
 20
-13.251449937
 10
-33.1375307385
 20
-13.6837066793
 10
-33.1094173719
 20
-14.1158325174
 10
-33.0792128679
 20
-14.5478274648
 10
-33.0469193427
 20
-14.9796612002
 10
-33.0125366505
 20
-15.4113337094
 10
-32.9760649371
 20
-15.8428450065
 10
-32.9375067572
 20
-16.2741648123
 10
-32.8968619645
 20
-16.7052931163
 10
-32.8541307052
 20
-17.136229929
 10
-32.8093159732
 20
-17.5669450028
 10
-32.7624176218
 20
-17.9974383266
 10
-32.7134357977
 20
-18.4277099116
 10
-32.6623739342
 20
-18.857729544
 10
-32.6092318833
 20
-19.2874972198
 10
-32.5540097931
 20
-19.717012943
 10
-32.496711541
 20
-20.1462465122
 10
-32.4373384196
 20
-20.5751878602
 10
-32.3758891363
 20
-21.0038470541
 10
-32.3123636912
 20
-21.432224094
  0
LINE
  5
3D8
100
AcDbEntity
  8
0
100
AcDbLine
 62
253
  6
CONTINUOUS
 10
-33.7735872954
 20
9.4580308267
 11
-33.7788006151
 21
9.2030742663
  0
LINE
  5
3D9
100
AcDbEntity
  8
0
100
AcDbLine
 62
253
  6
CONTINUOUS
 10
-33.7467740852
 20
10.4393880487
 11
-33.7600249265
 21
10.0028255488
  0
LINE
  5
3DA
100
AcDbEntity
  8
0
100
AcDbLine
 62
253
  6
CONTINUOUS
 10
-33.7347768837
 20
10.7850749931
 11
-33.7437610077
 21
10.5299108265
  0
LINE
  5
3DB
100
AcDbEntity
  8
0
100
AcDbLine
 62
253
  6
CONTINUOUS
 10
-33.7329109249
 20
10.8356280486
 11
-33.7156162796
 21
11.2721110879
  0
LINE
  5
3DC
100
AcDbEntity
  8
0
100
AcDbLine
 62
253
  6
CONTINUOUS
 10
-33.7110521961
 20
11.3791244518
 11
-33.6851424838
 21
11.9380013247
  0
LINE
  5
3DD
100
AcDbEntity
  8
0
100
AcDbLine
 62
253
  6
CONTINUOUS
 10
-33.6859967833
 20
11.9206980424
 11
-33.6489706279
 21
12.6171038188
  0
LINE
  5
3DE
100
AcDbEntity
  8
0
100
AcDbLine
 62
253
  6
CONTINUOUS
 10
-33.6497706037
 20
12.6030653531
 11
-33.6505475911
 21
12.5893935271
  0
LINE
  5
3DF
100
AcDbEntity
  8
0
100
AcDbLine
 62
253
  6
CONTINUOUS
 10
-33.6489706279
 20
12.6171038188
 11
-33.6260286709
 21
13.0045313144
  0
LINE
  5
3E0
100
AcDbEntity
  8
0
100
AcDbLine
 62
253
  6
CONTINUOUS
 10
-33.5909958221
 20
13.5483480479
 11
-33.619440636
 21
13.110833048
  0
LWPOLYLINE
  5
3E1
100
AcDbEntity
  8
ASSI
100
AcDbPolyline
 62
253
  6
CONTINUOUS
 90
16
 70
0
 10
-33.3839243427
 20
-0.1203774931
 10
-33.3836949477
 20
-0.1246086343
 10
-33.3834582194
 20
-0.1285709861
 10
-33.383214446
 20
-0.1322597228
 10
-33.3829639246
 20
-0.135670352
 10
-33.3827069601
 20
-0.1387987201
 10
-33.3824438656
 20
-0.1416410169
 10
-33.3821749614
 20
-0.1441937811
 10
-33.381900575
 20
-0.1464539036
 10
-33.3816210407
 20
-0.1484186318
 10
-33.3813366988
 20
-0.1500855731
 10
-33.3810478957
 20
-0.1514526973
 10
-33.380754983
 20
-0.1525183394
 10
-33.3804583175
 20
-0.1532812015
 10
-33.3801582605
 20
-0.1537403546
 10
-33.3798551775
 20
-0.1538952396
  0
LINE
  5
3E2
100
AcDbEntity
  8
ASSI
100
AcDbLine
 62
253
  6
CONTINUOUS
 10
-33.3843600246
 20
-0.1111297755
 11
-33.3839243427
 21
-0.1203774931
  0
LINE
  5
3E3
100
AcDbEntity
  8
ASSI
100
AcDbLine
 62
253
  6
CONTINUOUS
 10
-33.3847631433
 20
-0.1008728697
 11
-33.3843600246
 21
-0.1111297755
  0
LINE
  5
3E4
100
AcDbEntity
  8
ASSI
100
AcDbLine
 62
253
  6
CONTINUOUS
 10
-33.3851317355
 20
-0.0896567269
 11
-33.3847631433
 21
-0.1008728697
  0
LINE
  5
3E5
100
AcDbEntity
  8
ASSI
100
AcDbLine
 62
253
  6
CONTINUOUS
 10
-33.3854640062
 20
-0.07753597
 11
-33.3851317355
 21
-0.0896567269
  0
LINE
  5
3E6
100
AcDbEntity
  8
ASSI
100
AcDbLine
 62
253
  6
CONTINUOUS
 10
-33.3858908202
 20
-0.0577889416
 11
-33.3854640062
 21
-0.07753597
  0
LWPOLYLINE
  5
3E7
100
AcDbEntity
  8
ASSI
100
AcDbPolyline
 62
253
  6
CONTINUOUS
 90
18
 70
0
 10
-31.8579599226
 20
-22.2961991396
 10
-31.8578620062
 20
-22.3029140906
 10
-31.8577377591
 20
-22.3092526287
 10
-31.8575872863
 20
-22.3152094034
 10
-31.8574107148
 20
-22.3207793862
 10
-31.8572081936
 20
-22.3259578755
 10
-31.8569798936
 20
-22.3307404999
 10
-31.8567260077
 20
-22.3351232222
 10
-31.8564467501
 20
-22.3391023429
 10
-31.8561423565
 20
-22.3426745029
 10
-31.8558130839
 20
-22.3458366869
 10
-31.8554592102
 20
-22.3485862257
 10
-31.8550810342
 20
-22.3509207982
 10
-31.8546788751
 20
-22.3528384338
 10
-31.8542530724
 20
-22.3543375136
 10
-31.8538039854
 20
-22.3554167724
 10
-31.8533319934
 20
-22.356075299
 10
-31.8528374946
 20
-22.3563125375
  0
LINE
  5
3E8
100
AcDbEntity
  8
ASSI
100
AcDbLine
 62
253
  6
CONTINUOUS
 10
-33.3862276388
 20
-0.036356579
 11
-33.3858908202
 21
-0.0577889416
  0
LINE
  5
3E9
100
AcDbEntity
  8
ASSI
100
AcDbLine
 62
253
  6
CONTINUOUS
 10
-33.3864707733
 20
-0.0134736086
 11
-33.3862276388
 21
-0.036356579
  0
LINE
  5
3EA
100
AcDbEntity
  8
ASSI
100
AcDbLine
 62
253
  6
CONTINUOUS
 10
-31.8580764553
 20
-22.2816629852
 11
-31.8579599226
 21
-22.2961991396
  0
LINE
  5
3EB
100
AcDbEntity
  8
ASSI
100
AcDbLine
 62
253
  6
CONTINUOUS
 10
-33.3863984178
 20
-0.6948327723
 11
-33.3866167373
 21
-0.6600475205
  0
LINE
  5
3EC
100
AcDbEntity
  8
ASSI
100
AcDbLine
 62
253
  6
CONTINUOUS
 10
-33.3866447709
 20
0.0188584125
 11
-33.3864707733
 21
-0.0134736086
  0
LWPOLYLINE
  5
3ED
100
AcDbEntity
  8
ASSI
100
AcDbPolyline
 62
253
  6
CONTINUOUS
 90
10
 70
0
 10
-33.3863965011
 20
-0.6948327556
 10
-33.3845747399
 20
-1.7054682788
 10
-33.380708098
 20
-2.7160856151
 10
-33.3747965754
 20
-3.7266847643
 10
-33.366840093
 20
-4.7372667995
 10
-33.3568387298
 20
-5.7478306476
 10
-33.3447927231
 20
-6.7583730901
 10
-33.3307021517
 20
-7.7688930542
 10
-33.3145669368
 20
-8.7793916127
 10
-33.2871113457
 20
-10.2228282101
  0
LINE
  5
3EE
100
AcDbEntity
  8
ASSI
100
AcDbLine
 62
253
  6
CONTINUOUS
 10
-33.3866167373
 20
-0.6600475205
 11
-33.3866610552
 21
-0.6259390621
  0
LINE
  5
3EF
100
AcDbEntity
  8
ASSI
100
AcDbLine
 62
253
  6
CONTINUOUS
 10
-33.3866442213
 20
0.0526931787
 11
-33.3866447709
 21
0.0188584125
  0
LINE
  5
3F0
100
AcDbEntity
  8
ASSI
100
AcDbLine
 62
253
  6
CONTINUOUS
 10
-33.3866610552
 20
-0.6259390621
 11
-33.386530509
 21
-0.5931710226
  0
LWPOLYLINE
  5
3F1
100
AcDbEntity
  8
ASSI
100
AcDbPolyline
 62
253
  6
CONTINUOUS
 90
3
 70
0
 10
-33.3863984178
 20
0.0960952412
 10
-33.3864691353
 20
0.0873723897
 10
-33.3866442213
 20
0.0526931787
  0
LWPOLYLINE
  5
3F2
100
AcDbEntity
  8
ASSI
100
AcDbPolyline
 62
253
  6
CONTINUOUS
 90
19
 70
0
 10
-31.8580764554
 20
21.6829254522
 10
-31.8579599227
 20
21.6974616069
 10
-31.8578620063
 20
21.7041765581
 10
-31.8577377592
 20
21.7105150963
 10
-31.8575872864
 20
21.7164718711
 10
-31.8574107148
 20
21.7220418541
 10
-31.8572081936
 20
21.7272203435
 10
-31.8569798937
 20
21.7320029681
 10
-31.8567260078
 20
21.7363856905
 10
-31.8564467501
 20
21.7403648112
 10
-31.8561423565
 20
21.7439369713
 10
-31.8558130839
 20
21.7470991555
 10
-31.8554592103
 20
21.7498486943
 10
-31.8550810343
 20
21.7521832669
 10
-31.8546788752
 20
21.7541009025
 10
-31.8542530724
 20
21.7555999824
 10
-31.8538039854
 20
21.7566792412
 10
-31.8533319934
 20
21.7573377678
 10
-31.8528374946
 20
21.7575750063
  0
LINE
  5
3F3
100
AcDbEntity
  8
ASSI
100
AcDbLine
 62
253
  6
CONTINUOUS
 10
-33.386530509
 20
-0.5931710226
 11
-33.3863192459
 21
-0.5698595008
  0
LINE
  5
3F4
100
AcDbEntity
  8
ASSI
100
AcDbLine
 62
253
  6
CONTINUOUS
 10
-33.3863192459
 20
-0.5698595008
 11
-33.3860132954
 21
-0.5479166822
  0
LWPOLYLINE
  5
3F5
100
AcDbEntity
  8
ASSI
100
AcDbPolyline
 62
253
  6
CONTINUOUS
 90
9
 70
0
 10
-33.3145669368
 20
8.1806540815
 10
-33.3307021517
 20
7.170155523
 10
-33.3447927231
 20
6.159635559
 10
-33.3568387298
 20
5.1490931164
 10
-33.366840093
 20
4.1385292683
 10
-33.3747965754
 20
3.1279472332
 10
-33.380708098
 20
2.1173480839
 10
-33.3845747399
 20
1.1067307477
 10
-33.3863965011
 20
0.0960952244
  0
LINE
  5
3F6
100
AcDbEntity
  8
ASSI
100
AcDbLine
 62
253
  6
CONTINUOUS
 10
-33.3860132954
 20
-0.5479166822
 11
-33.3856160082
 21
-0.5275828836
  0
LINE
  5
3F7
100
AcDbEntity
  8
ASSI
100
AcDbLine
 62
253
  6
CONTINUOUS
 10
-33.3856160082
 20
-0.5275828836
 11
-33.3853025164
 21
-0.5150316911
  0
LINE
  5
3F8
100
AcDbEntity
  8
ASSI
100
AcDbLine
 62
253
  6
CONTINUOUS
 10
-33.3853025164
 20
-0.5150316911
 11
-33.3849518714
 21
-0.5033561319
  0
LINE
  5
3F9
100
AcDbEntity
  8
ASSI
100
AcDbLine
 62
253
  6
CONTINUOUS
 10
-33.3849518714
 20
-0.5033561319
 11
-33.3845657808
 21
-0.4926130662
  0
LWPOLYLINE
  5
3FA
100
AcDbEntity
  8
ASSI
100
AcDbPolyline
 62
253
  6
CONTINUOUS
 90
18
 70
0
 10
-33.3845657808
 20
-0.4926130662
 10
-33.384146125
 20
-0.4828548127
 10
-33.3839243426
 20
-0.4783600353
 10
-33.3836949476
 20
-0.4741288944
 10
-33.3834582193
 20
-0.4701665428
 10
-33.3832144459
 20
-0.4664778064
 10
-33.3829639245
 20
-0.4630671774
 10
-33.38270696
 20
-0.4599388096
 10
-33.3824438655
 20
-0.457096513
 10
-33.3821749613
 20
-0.4545437491
 10
-33.381900575
 20
-0.4522836268
 10
-33.3816210406
 20
-0.4503188987
 10
-33.3813366988
 20
-0.4486519576
 10
-33.3810478956
 20
-0.4472848336
 10
-33.380754983
 20
-0.4462191917
 10
-33.3804583175
 20
-0.4454563296
 10
-33.3801582605
 20
-0.4449971765
 10
-33.3798551775
 20
-0.4448422916
  0
LINE
  5
3FB
100
AcDbEntity
  8
ASSI
100
AcDbLine
 62
253
  6
CONTINUOUS
 10
-31.8441192648
 20
21.258260239
 11
-31.8477190388
 21
21.330543422
  0
LINE
  5
3FC
100
AcDbEntity
  8
ASSI
100
AcDbLine
 62
253
  6
CONTINUOUS
 10
-31.8477190388
 20
21.330543422
 11
-31.8508753471
 21
21.4013037629
  0
LINE
  5
3FD
100
AcDbEntity
  8
ASSI
100
AcDbLine
 62
253
  6
CONTINUOUS
 10
-31.8508753471
 20
21.4013037629
 11
-31.8530360622
 21
21.4558119129
  0
LINE
  5
3FE
100
AcDbEntity
  8
ASSI
100
AcDbLine
 62
253
  6
CONTINUOUS
 10
-31.8530360622
 20
21.4558119129
 11
-31.8548410428
 21
21.507654718
  0
LINE
  5
3FF
100
AcDbEntity
  8
ASSI
100
AcDbLine
 62
253
  6
CONTINUOUS
 10
-31.8548410428
 20
21.507654718
 11
-31.8562659363
 21
21.5561327207
  0
LINE
  5
400
100
AcDbEntity
  8
ASSI
100
AcDbLine
 62
253
  6
CONTINUOUS
 10
-31.8562659363
 20
21.5561327207
 11
-31.857073409
 21
21.5898876535
  0
LINE
  5
401
100
AcDbEntity
  8
ASSI
100
AcDbLine
 62
253
  6
CONTINUOUS
 10
-31.857073409
 20
21.5898876535
 11
-31.8576500272
 21
21.6211245639
  0
LINE
  5
402
100
AcDbEntity
  8
ASSI
100
AcDbLine
 62
253
  6
CONTINUOUS
 10
-31.8576500272
 20
21.6211245639
 11
-31.8579039515
 21
21.6404323016
  0
LINE
  5
403
100
AcDbEntity
  8
ASSI
100
AcDbLine
 62
253
  6
CONTINUOUS
 10
-31.8579039515
 20
21.6404323016
 11
-31.858052434
 21
21.6584498947
  0
LWPOLYLINE
  5
404
100
AcDbEntity
  8
ASSI
100
AcDbPolyline
 62
253
  6
CONTINUOUS
 90
3
 70
0
 10
-31.858052434
 20
21.6584498947
 10
-31.8580949733
 20
21.6751165191
 10
-31.8580764554
 20
21.6829254522
  0
LINE
  5
405
100
AcDbEntity
  8
ASSI
100
AcDbLine
 62
253
  6
CONTINUOUS
 10
-31.8580869638
 20
-22.2656932369
 11
-31.8580764553
 21
-22.2816629852
  0
LINE
  5
406
100
AcDbEntity
  8
ASSI
100
AcDbLine
 62
253
  6
CONTINUOUS
 10
-31.8579914126
 20
-22.2483438058
 11
-31.8580869638
 21
-22.2656932369
  0
LINE
  5
407
100
AcDbEntity
  8
ASSI
100
AcDbLine
 62
253
  6
CONTINUOUS
 10
-31.8577901243
 20
-22.2296732605
 11
-31.8579914126
 21
-22.2483438058
  0
LINE
  5
408
100
AcDbEntity
  8
ASSI
100
AcDbLine
 62
253
  6
CONTINUOUS
 10
-31.8572915182
 20
-22.1993293953
 11
-31.8577901243
 21
-22.2296732605
  0
LINE
  5
409
100
AcDbEntity
  8
ASSI
100
AcDbLine
 62
253
  6
CONTINUOUS
 10
-31.8565604016
 20
-22.1663862313
 11
-31.8572915182
 21
-22.1993293953
  0
LINE
  5
40A
100
AcDbEntity
  8
ASSI
100
AcDbLine
 62
253
  6
CONTINUOUS
 10
-31.8556023256
 20
-22.1310939035
 11
-31.8565604016
 21
-22.1663862313
  0
LINE
  5
40B
100
AcDbEntity
  8
ASSI
100
AcDbLine
 62
253
  6
CONTINUOUS
 10
-31.8539846581
 20
-22.0808486901
 11
-31.8556023256
 21
-22.1310939035
  0
LINE
  5
40C
100
AcDbEntity
  8
ASSI
100
AcDbLine
 62
253
  6
CONTINUOUS
 10
-31.8519984577
 20
-22.0275833049
 11
-31.8539846581
 21
-22.0808486901
  0
LINE
  5
40D
100
AcDbEntity
  8
ASSI
100
AcDbLine
 62
253
  6
CONTINUOUS
 10
-31.849670522
 20
-21.9720163987
 11
-31.8519984577
 21
-22.0275833049
  0
LINE
  5
40E
100
AcDbEntity
  8
ASSI
100
AcDbLine
 62
253
  6
CONTINUOUS
 10
-31.8463282911
 20
-21.9004655181
 11
-31.849670522
 21
-21.9720163987
  0
LINE
  5
40F
100
AcDbEntity
  8
ASSI
100
AcDbLine
 62
253
  6
CONTINUOUS
 10
-31.8441192648
 20
-21.8569977701
 11
-31.8463282911
 21
-21.9004655181
  0
LINE
  5
410
100
AcDbEntity
  8
ASSI
100
AcDbLine
 62
253
  6
CONTINUOUS
 10
-28.1691052182
 20
-0.6493021444
 11
-33.3863965011
 21
-0.6948327556
  0
LINE
  5
411
100
AcDbEntity
  8
ASSI
100
AcDbLine
 62
7
  6
CONTINUOUS
 10
-28.1691052182
 20
-0.3993687656
 11
-33.6211287112
 21
-0.4469478538
  0
LINE
  5
412
100
AcDbEntity
  8
ASSI
100
AcDbLine
 62
253
  6
CONTINUOUS
 10
-33.3863965011
 20
-0.6948327632
 11
-33.868946998
 21
-0.6971372196
  0
LINE
  5
413
100
AcDbEntity
  8
ASSI
100
AcDbLine
 62
7
  6
CONTINUOUS
 10
-33.6211287112
 20
-0.1517896774
 11
-28.1691052182
 21
-0.1993687656
  0
LINE
  5
414
100
AcDbEntity
  8
ASSI
100
AcDbLine
 62
7
  6
CONTINUOUS
 10
-28.5691052182
 20
-18.2328585744
 11
-28.5691052182
 21
-17.9713896867
  0
LINE
  5
415
100
AcDbEntity
  8
ASSI
100
AcDbLine
 62
7
  6
CONTINUOUS
 10
-28.5691052182
 20
17.3726521555
 11
-28.5691052182
 21
17.6341210433
  0
LINE
  5
416
100
AcDbEntity
  8
ASSI
100
AcDbLine
 62
7
  6
CONTINUOUS
 10
-28.1691052182
 20
-0.3993687656
 11
-28.1691052182
 21
-13.3993687656
  0
LINE
  5
417
100
AcDbEntity
  8
ASSI
100
AcDbLine
 62
7
  6
CONTINUOUS
 10
-28.1691052182
 20
-0.1993687656
 11
-28.1691052182
 21
12.8006312344
  0
LINE
  5
418
100
AcDbEntity
  8
ASSI
100
AcDbLine
 62
253
  6
CONTINUOUS
 10
-33.868946998
 20
0.0983996884
 11
-33.3863965011
 21
0.0960952321
  0
LINE
  5
419
100
AcDbEntity
  8
ASSI
100
AcDbLine
 62
253
  6
CONTINUOUS
 10
-33.3863965011
 20
0.0960952244
 11
-28.1691052182
 21
0.0505646132
  0
LINE
  5
41A
100
AcDbEntity
  8
ASSI
100
AcDbLine
 62
7
  6
CONTINUOUS
 10
-28.9659727827
 20
21.908869175
 11
-28.1691052182
 21
12.8006312344
  0
LINE
  5
41B
100
AcDbEntity
  8
ASSI
100
AcDbLine
 62
7
  6
CONTINUOUS
 10
-28.9659727827
 20
-22.5076067061
 11
-28.1691052182
 21
-13.3993687656
  0
LWPOLYLINE
  5
41C
100
AcDbEntity
  8
ASSI
100
AcDbPolyline
 62
253
  6
CONTINUOUS
 90
3
 70
0
 10
-33.2963870782
 20
9.1911312344
 10
-33.775615952
 20
9.2005321637
 10
-33.7770288433
 20
9.2005684039
  0
LWPOLYLINE
  5
41D
100
AcDbEntity
  8
ASSI
100
AcDbPolyline
 62
253
  6
CONTINUOUS
 90
3
 70
0
 10
-33.7780388172
 20
9.2005970101
 10
-33.7786450568
 20
9.2006179593
 10
-33.7788470717
 20
9.2006312344
  0
LINE
  5
41E
100
AcDbEntity
  8
ASSI
100
AcDbLine
 62
253
  6
CONTINUOUS
 10
-28.5919809386
 20
17.6341228358
 11
-28.5691052182
 21
17.6341228356
  0
LWPOLYLINE
  5
41F
100
AcDbEntity
  8
ASSI
100
AcDbPolyline
 62
253
  6
CONTINUOUS
 90
58
 70
0
 10
-31.8441192648
 20
21.258260239
 10
-31.8561110213
 20
21.2574868475
 10
-31.8680676754
 20
21.2564273827
 10
-31.8799892271
 20
21.2550818446
 10
-31.8918827273
 20
21.2534491153
 10
-31.903741125
 20
21.2515303127
 10
-31.9155432679
 20
21.24932879
 10
-31.9272888577
 20
21.246844066
 10
-31.9389781928
 20
21.2440766218
 10
-31.950591015
 20
21.2410312545
 10
-31.9621271672
 20
21.2377074872
 10
-31.9735868066
 20
21.2341057968
 10
-31.9849501473
 20
21.2302324105
 10
-31.9962170333
 20
21.2260868556
 10
-32.0073876206
 20
21.2216696048
 10
-32.0184425916
 20
21.2169883034
 10
-32.0293817451
 20
21.2120424938
 10
-32.0402052824
 20
21.2068326335
 10
-32.0508944896
 20
21.2013677399
 10
-32.0614491338
 20
21.1956473712
 10
-32.0718694481
 20
21.1896719691
 10
-32.0821374178
 20
21.1834518763
 10
-32.0922527728
 20
21.1769866738
 10
-32.1022157833
 20
21.1702767806
 10
-32.112009245
 20
21.1633337959
 10
-32.1216328713
 20
21.1561573119
 10
-32.1310869489
 20
21.1487477364
 10
-32.1403551333
 20
21.1411178929
 10
-32.1494370972
 20
21.1332674048
 10
-32.1583331679
 20
21.1251966487
 10
-32.1670279829
 20
21.116919577
 10
-32.1755211983
 20
21.1084358287
 10
-32.1838131579
 20
21.0997457649
 10
-32.1918895314
 20
21.0908644213
 10
-32.1997499396
 20
21.0817914743
 10
-32.2073947615
 20
21.0725272474
 10
-32.2148108037
 20
21.0630877472
 10
-32.2219976745
 20
21.0534726658
 10
-32.2289557654
 20
21.0436823111
 10
-32.2356730573
 20
21.0337336122
 10
-32.2421491328
 20
21.0236262967
 10
-32.2483844092
 20
21.0133606372
 10
-32.2543681198
 20
21.0029543805
 10
-32.2600998293
 20
20.9924072841
 10
-32.2655799731
 20
20.9817195906
 10
-32.2707990907
 20
20.9709097747
 10
-32.2757567279
 20
20.9599776357
 10
-32.2804533389
 20
20.9489233742
 10
-32.2848808263
 20
20.9377660668
 10
-32.2890387322
 20
20.9265055115
 10
-32.2929275145
 20
20.9151419102
 10
-32.2965404492
 20
20.9036949446
 10
-32.2998770772
 20
20.8921643347
 10
-32.3029378576
 20
20.8805503605
 10
-32.3057174439
 20
20.868873544
 10
-32.3082140538
 20
20.8571407259
 10
-32.3104294696
 20
20.8453450655
 10
-32.3123636912
 20
20.8334865628
  0
LINE
  5
420
100
AcDbEntity
  8
ASSI
100
AcDbLine
 62
253
  6
CONTINUOUS
 10
-28.9224479921
 20
21.4113785422
 11
-31.8441192648
 21
21.258260239
  0
LINE
  5
421
100
AcDbEntity
  8
ASSI
100
AcDbLine
 62
7
  6
CONTINUOUS
 10
-28.9659727827
 20
21.908869175
 11
-31.8528374946
 21
21.7575750063
  0
LINE
  5
422
100
AcDbEntity
  8
ASSI
100
AcDbLine
 62
253
  6
CONTINUOUS
 10
-32.3123636912
 20
20.8334865628
 11
-32.6408593885
 21
20.8837616181
  0
LINE
  5
423
100
AcDbEntity
  8
ASSI
100
AcDbLine
 62
253
  6
CONTINUOUS
 10
-32.6408593885
 20
20.8837616181
 11
-32.7328008867
 21
20.898281384
  0
LINE
  5
424
100
AcDbEntity
  8
ASSI
100
AcDbLine
 62
253
  6
CONTINUOUS
 10
-32.7328008867
 20
20.898281384
 11
-32.7609229147
 21
20.9028640139
  0
LINE
  5
425
100
AcDbEntity
  8
ASSI
100
AcDbLine
 62
253
  6
CONTINUOUS
 10
-32.7609229147
 20
20.9028640139
 11
-32.7733061641
 21
20.9049456582
  0
LWPOLYLINE
  5
426
100
AcDbEntity
  8
ASSI
100
AcDbPolyline
 62
253
  6
CONTINUOUS
 90
9
 70
0
 10
-32.7733061641
 20
20.9049456582
 10
-32.7796313571
 20
20.9060451889
 10
-32.7822067124
 20
20.9065070794
 10
-32.7843876885
 20
20.9069098725
 10
-32.7861725204
 20
20.9072532421
 10
-32.7875597635
 20
20.9075369104
 10
-32.7885482952
 20
20.9077606478
 10
-32.7891373154
 20
20.9079242731
 10
-32.7893263473
 20
20.908027654
  0
ARC
  5
427
100
AcDbEntity
  8
ASSI
100
AcDbCircle
 62
7
  6
CONTINUOUS
 10
56.204906462
 20
-8.0893687656
 40
90.0
100
AcDbArc
 50
181.08868532
 51
188.5737414447
  0
ARC
  5
428
100
AcDbEntity
  8
0
100
AcDbCircle
 62
253
  6
CONTINUOUS
 10
56.204906462
 20
-8.0893687656
 40
90.0
100
AcDbArc
 50
183.8877708628
 51
184.2245496153
  0
ARC
  5
429
100
AcDbEntity
  8
ASSI
100
AcDbCircle
 62
7
  6
CONTINUOUS
 10
-31.8005015384
 20
-21.3576830028
 40
1.0
100
AcDbArc
 50
188.5737414447
 51
267.0
  0
ARC
  5
42A
100
AcDbEntity
  8
ASSI
100
AcDbCircle
 62
7
  6
CONTINUOUS
 10
-28.8691052182
 20
-18.2328603668
 40
0.3
100
AcDbArc
 50
334.9997013218
 51
0.0003423163
  0
ARC
  5
42B
100
AcDbEntity
  8
ASSI
100
AcDbCircle
 62
7
  6
CONTINUOUS
 10
-33.6189470632
 20
-0.6969383344
 40
0.25
100
AcDbArc
 50
90.5000032275
 51
180.045580992
  0
ARC
  5
42C
100
AcDbEntity
  8
ASSI
100
AcDbCircle
 62
7
  6
CONTINUOUS
 10
56.204906462
 20
7.4906312344
 40
90.0
100
AcDbArc
 50
171.4262585553
 51
178.91131468
  0
ARC
  5
42D
100
AcDbEntity
  8
0
100
AcDbCircle
 62
253
  6
CONTINUOUS
 10
56.204906462
 20
7.4906312344
 40
90.0
100
AcDbArc
 50
178.0647665764
 51
178.7474147459
  0
ARC
  5
42E
100
AcDbEntity
  8
ASSI
100
AcDbCircle
 62
7
  6
CONTINUOUS
 10
-31.8005015384
 20
20.7589454716
 40
1.0
100
AcDbArc
 50
93.0
 51
171.4262585553
  0
ARC
  5
42F
100
AcDbEntity
  8
ASSI
100
AcDbCircle
 62
7
  6
CONTINUOUS
 10
-28.8691052182
 20
17.6341228356
 40
0.3
100
AcDbArc
 50
359.9996576837
 51
25.0002986779
  0
ARC
  5
430
100
AcDbEntity
  8
ASSI
100
AcDbCircle
 62
7
  6
CONTINUOUS
 10
-33.6189470632
 20
0.0982008033
 40
0.25
100
AcDbArc
 50
179.954419008
 51
269.4999967725
  0
ARC
  5
431
100
AcDbEntity
  8
ASSI
100
AcDbCircle
 62
7
  6
CONTINUOUS
 10
466.1308947818
 20
-0.2993687656
 40
500.0
100
AcDbArc
 50
178.91131468
 51
179.954419088
  0
ARC
  5
432
100
AcDbEntity
  8
ASSI
100
AcDbCircle
 62
7
  6
CONTINUOUS
 10
466.1308947818
 20
-0.2993687656
 40
500.0
100
AcDbArc
 50
180.045580912
 51
181.08868532
  0
ELLIPSE
  5
433
100
AcDbEntity
  8
ASSI
100
AcDbEllipse
 62
7
  6
CONTINUOUS
 10
-7.6722130821
 20
-22.4812386525
 30
0.0
 11
0.2
 21
-0.0
 31
0.0
 40
0.0524077793
 41
1.5707963268
 42
2.617993878
  0
ELLIPSE
  5
434
100
AcDbEntity
  8
ASSI
100
AcDbEllipse
 62
7
  6
CONTINUOUS
 10
3.5277869179
 20
-22.4812386525
 30
0.0
 11
0.2
 21
0.0
 31
0.0
 40
0.0524077793
 41
1.5707963268
 42
2.617993878
  0
ELLIPSE
  5
435
100
AcDbEntity
  8
ASSI
100
AcDbEllipse
 62
7
  6
CONTINUOUS
 10
-4.3031531897
 20
-22.4812386525
 30
0.0
 11
0.2
 21
0.0
 31
0.0
 40
0.0524077793
 41
0.5235987756
 42
1.5707963268
  0
ELLIPSE
  5
436
100
AcDbEntity
  8
ASSI
100
AcDbEllipse
 62
7
  6
CONTINUOUS
 10
6.8968468103
 20
-22.4812386525
 30
0.0
 11
0.2
 21
0.0
 31
0.0
 40
0.0524077793
 41
0.5235987756
 42
1.5707963268
  0
ELLIPSE
  5
437
100
AcDbEntity
  8
ASSI
100
AcDbEllipse
 62
7
  6
CONTINUOUS
 10
10.2357075638
 20
-22.0092057447
 30
0.0
 11
0.4943891341
 21
0.0770133648
 31
0.0
 40
0.9960067742
 41
-1.7259388368
 42
-0.1569690096
  0
ELLIPSE
  5
438
100
AcDbEntity
  8
ASSI
100
AcDbEllipse
 62
7
  6
CONTINUOUS
 10
-11.0110738356
 20
-22.0092057447
 30
0.0
 11
0.4943891341
 21
-0.0770133648
 31
0.0
 40
0.9960067742
 41
-2.984623644
 42
-1.4156538168
  0
ELLIPSE
  5
439
100
AcDbEntity
  8
ASSI
100
AcDbEllipse
 62
7
  6
CONTINUOUS
 10
10.512164478
 20
-0.6493782852
 30
0.0
 11
0.2426981267
 21
0.0606514259
 31
0.0
 40
0.9993528196
 41
-0.2447368254
 42
1.3257549497
  0
ELLIPSE
  5
43A
100
AcDbEntity
  8
ASSI
100
AcDbEllipse
 62
7
  6
CONTINUOUS
 10
-11.2875307498
 20
-0.6493782852
 30
0.0
 11
0.2426981267
 21
-0.0606514259
 31
0.0
 40
0.9993528196
 41
1.8158377039
 42
3.386329479
  0
ELLIPSE
  5
43B
100
AcDbEntity
  8
ASSI
100
AcDbEllipse
 62
7
  6
CONTINUOUS
 10
6.8968468103
 20
21.8825011213
 30
0.0
 11
0.2
 21
0.0
 31
0.0
 40
0.0524077793
 41
-1.5707963268
 42
-0.5235987756
  0
ELLIPSE
  5
43C
100
AcDbEntity
  8
ASSI
100
AcDbEllipse
 62
7
  6
CONTINUOUS
 10
-4.3031531897
 20
21.8825011213
 30
0.0
 11
0.2
 21
-0.0
 31
0.0
 40
0.0524077793
 41
-1.5707963268
 42
-0.5235987756
  0
ELLIPSE
  5
43D
100
AcDbEntity
  8
ASSI
100
AcDbEllipse
 62
7
  6
CONTINUOUS
 10
3.5277869179
 20
21.8825011213
 30
0.0
 11
0.2
 21
0.0
 31
0.0
 40
0.0524077793
 41
-2.617993878
 42
-1.5707963268
  0
ELLIPSE
  5
43E
100
AcDbEntity
  8
ASSI
100
AcDbEllipse
 62
7
  6
CONTINUOUS
 10
-7.6722130821
 20
21.8825011213
 30
0.0
 11
0.2
 21
-0.0
 31
0.0
 40
0.0524077793
 41
-2.617993878
 42
-1.5707963268
  0
ELLIPSE
  5
43F
100
AcDbEntity
  8
ASSI
100
AcDbEllipse
 62
7
  6
CONTINUOUS
 10
-11.0110738356
 20
21.4104682135
 30
0.0
 11
0.4943891341
 21
0.0770133648
 31
0.0
 40
0.9960067742
 41
1.4156538168
 42
2.984623644
  0
ELLIPSE
  5
440
100
AcDbEntity
  8
ASSI
100
AcDbEllipse
 62
7
  6
CONTINUOUS
 10
10.2357075638
 20
21.4104682135
 30
0.0
 11
0.4943891341
 21
-0.0770133648
 31
0.0
 40
0.9960067742
 41
0.1569690096
 42
1.7259388368
  0
ELLIPSE
  5
441
100
AcDbEntity
  8
ASSI
100
AcDbEllipse
 62
7
  6
CONTINUOUS
 10
-11.2875307498
 20
0.050640754
 30
0.0
 11
0.2426981267
 21
0.0606514259
 31
0.0
 40
0.9993528196
 41
2.8968558282
 42
4.4673476033
  0
ELLIPSE
  5
442
100
AcDbEntity
  8
ASSI
100
AcDbEllipse
 62
7
  6
CONTINUOUS
 10
10.512164478
 20
0.050640754
 30
0.0
 11
0.2426981267
 21
-0.0606514259
 31
0.0
 40
0.9993528196
 41
-1.3257549497
 42
0.2447368254
  0
ELLIPSE
  5
443
100
AcDbEntity
  8
0
100
AcDbEllipse
 62
253
  6
CONTINUOUS
 10
56.204906462
 20
7.4906312344
 30
0.0
 11
90.0
 21
0.0
 31
0.0
 40
1.0
 41
9.383579185
 42
9.396023469
  0
ELLIPSE
  5
444
100
AcDbEntity
  8
0
100
AcDbEllipse
 62
253
  6
CONTINUOUS
 10
56.204906462
 20
7.4906312344
 30
0.0
 11
0.0
 21
90.0
 31
0.0
 40
1.0
 41
7.7867285167
 42
7.7906518362
  0
ELLIPSE
  5
445
100
AcDbEntity
  8
0
100
AcDbEllipse
 62
253
  6
CONTINUOUS
 10
56.204906462
 20
-8.0893687656
 30
0.0
 11
90.0
 21
0.0
 31
0.0
 40
1.0
 41
-3.0790411929
 42
-3.0761000552
  0
ELLIPSE
  5
446
100
AcDbEntity
  8
0
100
AcDbEllipse
 62
253
  6
CONTINUOUS
 10
56.204906462
 20
-8.0893687656
 30
0.0
 11
90.0
 21
0.0
 31
0.0
 40
1.0
 41
3.19921514
 42
3.2021487085
  0
ELLIPSE
  5
447
100
AcDbEntity
  8
0
100
AcDbEllipse
 62
253
  6
CONTINUOUS
 10
56.204906462
 20
-8.0893687656
 30
0.0
 11
90.0
 21
-0.0
 31
0.0
 40
1.0
 41
-3.0975026831
 42
-3.0945609905
  0
ELLIPSE
  5
448
100
AcDbEntity
  8
0
100
AcDbEllipse
 62
253
  6
CONTINUOUS
 10
56.204906462
 20
-8.0893687656
 30
0.0
 11
0.0
 21
90.0
 31
0.0
 40
1.0
 41
-4.6732296314
 42
-4.6702920951
  0
ENDSEC
  0
SECTION
  2
OBJECTS
  0
DICTIONARY
  5
C
100
AcDbDictionary
280
0
281
1
  3
ACAD_GROUP
350
D
  3
ACAD_MLINESTYLE
350
17
  3
ACAD_LAYOUT
350
1A
  3
ACAD_PLOTSETTINGS
350
19
  3
ACAD_PLOTSTYLENAME
350
E
  0
DICTIONARY
  5
D
102
{ACAD_REACTORS
330
C
102
}
100
AcDbDictionary
280
0
281
1
  0
ACDBDICTIONARYWDFLT
  5
E
102
{ACAD_REACTORS
330
C
102
}
100
AcDbDictionary
281
1
  3
Normal
350
F
100
AcDbDictionaryWithDefault
340
F
  0
DICTIONARY
  5
17
102
{ACAD_REACTORS
330
C
102
}
100
AcDbDictionary
280
0
281
1
  3
Standard
350
18
  0
DICTIONARY
  5
19
102
{ACAD_REACTORS
330
C
102
}
100
AcDbDictionary
281
1
  0
DICTIONARY
  5
1A
102
{ACAD_REACTORS
330
C
102
}
100
AcDbDictionary
281
1
  3
Model
350
449
  3
Layout1
350
44A
  0
ACDBPLACEHOLDER
  5
F
102
{ACAD_REACTORS
330
E
102
}
  0
MLINESTYLE
  5
18
102
{ACAD_REACTORS
330
17
102
}
100
AcDbMlineStyle
  2
STANDARD
 70
0
  3

 62
256
 51
90.0
 52
90.0
 71
2
 49
0.5
 62
256
  6
BYLAYER
 49
-0.5
 62
256
  6
BYLAYER
  0
LAYOUT
  5
449
102
{ACAD_REACTORS
330
1A
102
}
100
AcDbPlotSettings
  1

  2
none_device
  4
ISO_A4_(297.00_x_210.00_MM)
  6

 40
0.0
 41
0.0
 42
0.0
 43
0.0
 44
297.0
 45
210.0
 46
0.0
 47
0.0
 48
0.0
 49
0.0
140
0.0
141
0.0
142
1.0
143
1.0
 70
1024
 72
1
 73
0
 74
0
  7

 75
0
147
1.0
148
0.0
149
0.0
100
AcDbLayout
  1
Model
 70
0
 71
0
 10
0.0
 20
0.0
 11
297.0
 21
210.0
 12
0.0
 22
0.0
 32
0.0
 14
0.0
 24
0.0
 34
0.0
 15
0.0
 25
0.0
 35
0.0
146
0.0
 13
0.0
 23
0.0
 33
0.0
 16
1.0
 26
0.0
 36
0.0
 17
0.0
 27
1.0
 37
0.0
 76
0
330
219
345
0
346
0
  0
LAYOUT
  5
44A
102
{ACAD_REACTORS
330
1A
102
}
100
AcDbPlotSettings
  1

  2
none_device
  4
ISO_A4_(297.00_x_210.00_MM)
  6

 40
0.0
 41
0.0
 42
0.0
 43
0.0
 44
297.0
 45
210.0
 46
0.0
 47
0.0
 48
0.0
 49
0.0
140
0.0
141
0.0
142
1.0
143
1.0
 70
0
 72
1
 73
0
 74
0
  7

 75
0
147
1.0
148
0.0
149
0.0
100
AcDbLayout
  1
Layout1
 70
0
 71
1
 10
0.0
 20
0.0
 11
297.0
 21
210.0
 12
0.0
 22
0.0
 32
0.0
 14
0.0
 24
0.0
 34
0.0
 15
0.0
 25
0.0
 35
0.0
146
0.0
 13
0.0
 23
0.0
 33
0.0
 16
1.0
 26
0.0
 36
0.0
 17
0.0
 27
1.0
 37
0.0
 76
0
330
21A
345
0
346
0
  0
ENDSEC
  0
EOF
