  0
SECTION
  2
HEADER
  9
$ACADVER
  1
AC1021
  9
$DWGCODEPAGE
  3
ANSI_1252
  9
$EXTMAX
 10
297.0
 20
210.0
 30
0.0
  9
$EXTMIN
 10
0.0
 20
0.0
 30
0.0
  9
$LIMMIN
 10
0.0
 20
0.0
  9
$LIMMAX
 10
297.0
 20
210.0
  9
$VIEWCTR
 10
148.5
 20
105.0
  9
$VIEWSIZE
 40
210.0
  9
$CLAYER
  8
0
  9
$LTSCALE
 40
16.335
  9
$CELTYPE
  6
BYLAYER
  9
$DIMSCALE
 40
1.0
  9
$DIMASZ
 40
3.0
  9
$DIMEXO
 40
0.5
  9
$DIMDLI
 40
11.286
  9
$DIMEXE
 40
1.5
  9
$DIMCEN
 40
2.673
  9
$DIMLFAC
 40
1.0
  9
$DIMBLK
  1
_FILLED
  9
$DIMALT
 70
0
  9
$DIMALTF
 40
25.4
  9
$DIMTXT
 40
3.0
  9
$DIMTOL
 70
1
  9
$DIMLIM
 70
0
  9
$DIMTFAC
 40
1.0
  9
$DIMTP
 40
0.01
  9
$DIMTM
 40
0.01
  9
$DIMGAP
 40
0.625
  9
$DIMDSEP
 70
44
  9
$AUNITS
 70
0
  9
$PDMODE
 70
3
  9
$PDSIZE
 40
3.0
  9
$HANDSEED
  5
473
  9
$TILEMODE
 70
1
  9
$MEASUREMENT
 70
1
  9
$INSUNITS
 70
4
  0
ENDSEC
  0
SECTION
  2
CLASSES
  0
CLASS
  1
ACDBDICTIONARYWDFLT
  2
AcDbDictionaryWithDefault
  3
AutoCAD 2000
 90
0
 91
1
280
0
281
0
  0
CLASS
  1
ACDBPLACEHOLDER
  2
AcDbPlaceHolder
  3
AutoCAD 2000
 90
0
 91
1
280
0
281
0
  0
CLASS
  1
LAYOUT
  2
AcDbLayout
  3
AutoCAD 2000
 90
0
 91
0
280
0
281
0
  0
ENDSEC
  0
SECTION
  2
TABLES
  0
TABLE
  2
VPORT
  5
8
100
AcDbSymbolTable
 70
2
  0
VPORT
  5
1F4
100
AcDbSymbolTableRecord
100
AcDbViewportTableRecord
  2
*ACTIVE
 70
0
 10
0.0
 20
0.0
 11
1.0
 21
1.0
 12
148.5
 22
105.0
 13
0.0
 23
0.0
 14
1.0
 24
1.0
 15
0.0
 25
0.0
 16
0.0
 26
0.0
 36
1.0
 17
0.0
 27
0.0
 37
0.0
 40
210.0
 41
1.4142857143
 42
50.0
 43
0.0
 44
0.0
 50
0.0
 51
0.0
 71
0
 72
100
 73
1
 74
1
 75
0
 76
0
 77
0
 78
0
  0
ENDTAB
  0
TABLE
  2
LTYPE
  5
5
100
AcDbSymbolTable
 70
6
  0
LTYPE
  5
14
100
AcDbSymbolTableRecord
100
AcDbLinetypeTableRecord
  2
BYBLOCK
 70
0
  3

 72
65
 73
0
 40
0.0
  0
LTYPE
  5
15
100
AcDbSymbolTableRecord
100
AcDbLinetypeTableRecord
  2
BYLAYER
 70
0
  3

 72
65
 73
0
 40
0.0
  0
LTYPE
  5
16
100
AcDbSymbolTableRecord
100
AcDbLinetypeTableRecord
  2
CONTINUOUS
 70
64
  3
Solid line
 72
65
 73
0
 40
0.0
  0
LTYPE
  5
1F5
100
AcDbSymbolTableRecord
100
AcDbLinetypeTableRecord
  2
CENTER
 70
64
  3
____ _ ____ _ ____ _ ____ _ ____ _ ____ _ ____
 72
65
 73
4
 40
0.6
 49
0.375
 74
0
 49
-0.075
 74
0
 49
0.075
 74
0
 49
-0.075
 74
0
  0
LTYPE
  5
1F6
100
AcDbSymbolTableRecord
100
AcDbLinetypeTableRecord
  2
HIDDEN
 70
64
  3
- - - - - - - - - - - - - - - - - - - -
 72
65
 73
2
 40
0.2
 49
0.1
 74
0
 49
-0.1
 74
0
  0
LTYPE
  5
1F7
100
AcDbSymbolTableRecord
100
AcDbLinetypeTableRecord
  2
PHANTOM
 70
64
  3
_____ _ _ _____ _ _ _____ _ _ _____
 72
65
 73
6
 40
0.8
 49
0.45
 74
0
 49
-0.05
 74
0
 49
0.1
 74
0
 49
-0.05
 74
0
 49
0.1
 74
0
 49
-0.05
 74
0
  0
LTYPE
  5
1F8
100
AcDbSymbolTableRecord
100
AcDbLinetypeTableRecord
  2
DOT
 70
64
  3
. . . . . . . . . . . . . . . . . . . .
 72
65
 73
2
 40
0.2
 49
0.1
 74
0
 49
-0.1
 74
0
  0
LTYPE
  5
1F9
100
AcDbSymbolTableRecord
100
AcDbLinetypeTableRecord
  2
DASHED
 70
64
  3
- - - - - - - - - - - - - - - - - - - -
 72
65
 73
2
 40
0.2
 49
0.1
 74
0
 49
-0.1
 74
0
  0
ENDTAB
  0
TABLE
  2
LAYER
  5
2
100
AcDbSymbolTable
 70
36
  0
LAYER
  5
10
100
AcDbSymbolTableRecord
100
AcDbLayerTableRecord
  2
0
 70
0
 62
7
  6
CONTINUOUS
370
-3
390
F
  0
LAYER
  5
1FA
100
AcDbSymbolTableRecord
100
AcDbLayerTableRecord
  2
DEFAULT_1
 70
0
 62
7
  6
CENTER
370
-3
390
F
  0
LAYER
  5
1FB
100
AcDbSymbolTableRecord
100
AcDbLayerTableRecord
  2
DEFAULT_2
 70
0
 62
7
  6
HIDDEN
370
-3
390
F
  0
LAYER
  5
1FC
100
AcDbSymbolTableRecord
100
AcDbLayerTableRecord
  2
DEFAULT_3
 70
0
 62
7
  6
PHANTOM
370
-3
390
F
  0
LAYER
  5
1FD
100
AcDbSymbolTableRecord
100
AcDbLayerTableRecord
  2
ASSI
 70
0
 62
7
  6
CONTINUOUS
370
-3
390
F
  0
LAYER
  5
1FE
100
AcDbSymbolTableRecord
100
AcDbLayerTableRecord
  2
COLOR9
 70
0
 62
7
  6
CONTINUOUS
370
-3
390
F
  0
LAYER
  5
1FF
100
AcDbSymbolTableRecord
100
AcDbLayerTableRecord
  2
COORDINATE
 70
0
 62
7
  6
CONTINUOUS
370
-3
390
F
  0
LAYER
  5
200
100
AcDbSymbolTableRecord
100
AcDbLayerTableRecord
  2
COORD_ORIGINE
 70
0
 62
7
  6
CONTINUOUS
370
-3
390
F
  0
LAYER
  5
201
100
AcDbSymbolTableRecord
100
AcDbLayerTableRecord
  2
COPY_PUBLISH
 70
0
 62
7
  6
CONTINUOUS
370
-3
390
F
  0
LAYER
  5
202
100
AcDbSymbolTableRecord
100
AcDbLayerTableRecord
  2
COSMETICI
 70
0
 62
7
  6
CONTINUOUS
370
-3
390
F
  0
LAYER
  5
203
100
AcDbSymbolTableRecord
100
AcDbLayerTableRecord
  2
CURVE
 70
0
 62
7
  6
CONTINUOUS
370
-3
390
F
  0
LAYER
  5
204
100
AcDbSymbolTableRecord
100
AcDbLayerTableRecord
  2
DRAFT
 70
0
 62
7
  6
CONTINUOUS
370
-3
390
F
  0
LAYER
  5
205
100
AcDbSymbolTableRecord
100
AcDbLayerTableRecord
  2
IGES
 70
0
 62
7
  6
CONTINUOUS
370
-3
390
F
  0
LAYER
  5
206
100
AcDbSymbolTableRecord
100
AcDbLayerTableRecord
  2
IGS_SCRITTE
 70
0
 62
7
  6
CONTINUOUS
370
-3
390
F
  0
LAYER
  5
207
100
AcDbSymbolTableRecord
100
AcDbLayerTableRecord
  2
IMPORT_IGES
 70
0
 62
7
  6
CONTINUOUS
370
-3
390
F
  0
LAYER
  5
208
100
AcDbSymbolTableRecord
100
AcDbLayerTableRecord
  2
INTF_YELLOW
 70
0
 62
7
  6
CONTINUOUS
370
-3
390
F
  0
LAYER
  5
209
100
AcDbSymbolTableRecord
100
AcDbLayerTableRecord
  2
LIVELLO_1
 70
0
 62
7
  6
CONTINUOUS
370
-3
390
F
  0
LAYER
  5
20A
100
AcDbSymbolTableRecord
100
AcDbLayerTableRecord
  2
NOTE
 70
0
 62
7
  6
CONTINUOUS
370
-3
390
F
  0
LAYER
  5
20B
100
AcDbSymbolTableRecord
100
AcDbLayerTableRecord
  2
PIANI
 70
0
 62
7
  6
CONTINUOUS
370
-3
390
F
  0
LAYER
  5
20C
100
AcDbSymbolTableRecord
100
AcDbLayerTableRecord
  2
PIANI_ORIGINE
 70
0
 62
7
  6
CONTINUOUS
370
-3
390
F
  0
LAYER
  5
20D
100
AcDbSymbolTableRecord
100
AcDbLayerTableRecord
  2
PIANI_RIFERIMENTO
 70
0
 62
7
  6
CONTINUOUS
370
-3
390
F
  0
LAYER
  5
20E
100
AcDbSymbolTableRecord
100
AcDbLayerTableRecord
  2
PUNTI
 70
0
 62
7
  6
CONTINUOUS
370
-3
390
F
  0
LAYER
  5
20F
100
AcDbSymbolTableRecord
100
AcDbLayerTableRecord
  2
RACCORDO
 70
0
 62
7
  6
CONTINUOUS
370
-3
390
F
  0
LAYER
  5
210
100
AcDbSymbolTableRecord
100
AcDbLayerTableRecord
  2
SIMBOLI
 70
0
 62
7
  6
CONTINUOUS
370
-3
390
F
  0
LAYER
  5
211
100
AcDbSymbolTableRecord
100
AcDbLayerTableRecord
  2
SMUSSO
 70
0
 62
7
  6
CONTINUOUS
370
-3
390
F
  0
LAYER
  5
212
100
AcDbSymbolTableRecord
100
AcDbLayerTableRecord
  2
SNAPLINE
 70
0
 62
7
  6
CONTINUOUS
370
-3
390
F
  0
LAYER
  5
213
100
AcDbSymbolTableRecord
100
AcDbLayerTableRecord
  2
SOLIDO
 70
0
 62
7
  6
CONTINUOUS
370
-3
390
F
  0
LAYER
  5
214
100
AcDbSymbolTableRecord
100
AcDbLayerTableRecord
  2
SUPERFICI
 70
0
 62
7
  6
CONTINUOUS
370
-3
390
F
  0
LAYER
  5
215
100
AcDbSymbolTableRecord
100
AcDbLayerTableRecord
  2
TRASH
 70
0
 62
7
  6
CONTINUOUS
370
-3
390
F
  0
LAYER
  5
216
100
AcDbSymbolTableRecord
100
AcDbLayerTableRecord
  2
WHITE
 70
0
 62
7
  6
CONTINUOUS
370
-3
390
F
  0
ENDTAB
  0
TABLE
  2
STYLE
  5
3
100
AcDbSymbolTable
 70
1
  0
STYLE
  5
11
100
AcDbSymbolTableRecord
100
AcDbTextStyleTableRecord
  2
STANDARD
 70
0
 40
0.0
 41
0.8
 50
0.0
 71
0
 42
0.2
  3
txt
  4

  0
STYLE
  5
217
100
AcDbSymbolTableRecord
100
AcDbTextStyleTableRecord
  2
TEXTSTYLE_1
 70
0
 40
0.0
 41
0.8
 50
0.0
 71
0
 42
0.2
  3
gdt
  4

  0
ENDTAB
  0
TABLE
  2
VIEW
  5
6
100
AcDbSymbolTable
 70
0
  0
ENDTAB
  0
TABLE
  2
UCS
  5
7
100
AcDbSymbolTable
 70
0
  0
ENDTAB
  0
TABLE
  2
APPID
  5
9
100
AcDbSymbolTable
 70
1
  0
APPID
  5
218
100
AcDbSymbolTableRecord
100
AcDbRegAppTableRecord
  2
ACAD
 70
0
  0
ENDTAB
  0
TABLE
  2
BLOCK_RECORD
  5
1
100
AcDbSymbolTable
 70
0
  0
BLOCK_RECORD
  5
219
100
AcDbSymbolTableRecord
100
AcDbBlockTableRecord
  2
*Model_Space
  0
BLOCK_RECORD
  5
21A
100
AcDbSymbolTableRecord
100
AcDbBlockTableRecord
  2
*Paper_Space
  0
BLOCK_RECORD
  5
21B
100
AcDbSymbolTableRecord
100
AcDbBlockTableRecord
  2
_FILLED
  0
BLOCK_RECORD
  5
21C
100
AcDbSymbolTableRecord
100
AcDbBlockTableRecord
  2
*D0
  0
BLOCK_RECORD
  5
21D
100
AcDbSymbolTableRecord
100
AcDbBlockTableRecord
  2
*D1
  0
BLOCK_RECORD
  5
21E
100
AcDbSymbolTableRecord
100
AcDbBlockTableRecord
  2
*D2
  0
ENDTAB
  0
TABLE
  2
DIMSTYLE
  5
A
100
AcDbSymbolTable
 70
1
100
AcDbDimStyleTable
 71
0
  0
DIMSTYLE
105
21F
100
AcDbSymbolTableRecord
100
AcDbDimStyleTableRecord
  2
STANDARD
 70
0
  3

  4

 40
1.0
 41
3.0
 42
0.5
 43
0.38
 44
1.5
 45
0.0
 46
0.0
 47
0.01
 48
0.01
140
3.0
141
0.09
142
0.0
143
25.4
144
1.0
145
0.0
146
1.0
147
0.625
 71
1.0
 72
0.0
 73
0
 74
0
 75
0
 76
0
 77
1
 78
8
170
0
171
1
172
0
173
0
174
0
175
0
176
0
177
0
178
0
270
2
271
2
272
2
273
2
274
2
275
0
280
0
281
0
282
0
283
1
284
8
285
0
286
0
287
3
288
0
340
11
278
44
341
21B
342
21B
343
21B
344
21B
  0
DIMSTYLE
105
220
100
AcDbSymbolTableRecord
100
AcDbDimStyleTableRecord
  2
DIMSTYLE_1
 70
0
  3

  4

 40
1.0
 41
3.0
 42
0.5
 43
0.38
 44
1.5
 45
0.0
 46
0.0
 47
0.0
 48
0.0
140
3.0
141
0.09
142
0.0
143
25.4
144
1.0
145
0.0
146
1.0
147
0.75
 71
0.0
 72
0.0
 73
0
 74
0
 75
0
 76
0
 77
1
 78
8
170
0
171
1
172
0
173
0
174
0
175
0
176
0
177
0
178
0
270
2
271
2
272
2
273
2
274
2
275
0
280
0
281
0
282
0
283
1
284
8
285
0
286
0
287
3
288
0
340
11
278
44
341
21B
342
21B
343
21B
344
21B
  0
DIMSTYLE
105
221
100
AcDbSymbolTableRecord
100
AcDbDimStyleTableRecord
  2
DIMSTYLE_2
 70
0
  3

  4

 40
1.0
 41
3.0
 42
0.5
 43
0.38
 44
1.5
 45
0.0
 46
0.0
 47
0.0
 48
0.0
140
3.0
141
0.09
142
0.0
143
25.4
144
1.0
145
0.0
146
1.0
147
0.75
 71
0.0
 72
0.0
 73
0
 74
0
 75
0
 76
0
 77
1
 78
8
170
0
171
1
172
0
173
0
174
0
175
0
176
0
177
0
178
0
270
2
271
1
272
1
273
2
274
2
275
0
280
0
281
0
282
0
283
1
284
8
285
0
286
0
287
3
288
0
340
11
278
44
341
21B
342
21B
343
21B
344
21B
  0
ENDTAB
  0
ENDSEC
  0
SECTION
  2
BLOCKS
  0
BLOCK
  5
20
100
AcDbEntity
  8
0
100
AcDbBlockBegin
  2
*Model_Space
 70
0
 10
0.0
 20
0.0
 30
0.0
  3
*Model_Space
  1

  0
ENDBLK
  5
21
100
AcDbEntity
  8
0
100
AcDbBlockEnd
  0
BLOCK
  5
1C
100
AcDbEntity
  8
0
100
AcDbBlockBegin
  2
*Paper_Space
 70
0
 10
0.0
 20
0.0
 30
0.0
  3
*Paper_Space
  1

  0
ENDBLK
  5
1D
100
AcDbEntity
  8
0
100
AcDbBlockEnd
  0
BLOCK
  5
222
100
AcDbEntity
  8
0
100
AcDbBlockBegin
  2
_FILLED
 70
64
 10
0.0
 20
0.0
  3
_FILLED
  1

  0
SOLID
  5
223
100
AcDbEntity
  8
0
  6
BYBLOCK
 62
0
100
AcDbTrace
 10
0.0
 20
0.0
 11
-1.0
 21
0.3166666667
 12
-1.0
 22
-0.3166666667
 13
-1.0
 23
-0.3166666667
  0
ENDBLK
  5
224
100
AcDbEntity
  8
0
  6
BYBLOCK
 62
0
100
AcDbBlockEnd
  0
BLOCK
  5
225
100
AcDbEntity
  8
0
100
AcDbBlockBegin
 62
7
  6
CONTINUOUS
  2
*D0
 70
65
 10
0.0
 20
0.0
  3
*D0
  1

  0
MTEXT
  5
226
100
AcDbEntity
  8
0
100
AcDbMText
 62
7
  6
CONTINUOUS
  7
STANDARD
 71
2
 72
1
 10
-0.3876831359
 20
33.9713302099
 30
0.0
 11
1.0
 21
0.0
 31
0.0
 44
0.9
  1
22,3
 40
3.0
 41
12.8571428571
  0
LINE
  5
227
100
AcDbEntity
  8
0
100
AcDbLine
 62
7
  6
CONTINUOUS
 10
-11.5376831359
 20
13.6130922693
 11
-11.5376831359
 21
31.7213302099
  0
LINE
  5
228
100
AcDbEntity
  8
0
100
AcDbLine
 62
7
  6
CONTINUOUS
 10
10.7623168641
 20
13.6130922693
 11
10.7623168641
 21
31.7213302099
  0
LINE
  5
229
100
AcDbEntity
  8
0
100
AcDbLine
 62
7
  6
CONTINUOUS
 10
-11.5376831359
 20
30.2213302099
 11
-0.3876831359
 21
30.2213302099
  0
LINE
  5
22A
100
AcDbEntity
  8
0
100
AcDbLine
 62
7
  6
CONTINUOUS
 10
10.7623168641
 20
30.2213302099
 11
-0.3876831359
 21
30.2213302099
  0
INSERT
  5
22B
100
AcDbEntity
  8
0
100
AcDbBlockReference
 62
7
  6
CONTINUOUS
  2
_FILLED
 10
-11.5376831359
 20
30.2213302099
 41
3.0
 42
3.0
 43
3.0
 50
180.0
  0
INSERT
  5
22C
100
AcDbEntity
  8
0
100
AcDbBlockReference
 62
7
  6
CONTINUOUS
  2
_FILLED
 10
10.7623168641
 20
30.2213302099
 41
3.0
 42
3.0
 43
3.0
  0
ENDBLK
  5
22D
100
AcDbEntity
  8
0
  6
BYBLOCK
 62
0
100
AcDbBlockEnd
  0
BLOCK
  5
22E
100
AcDbEntity
  8
0
100
AcDbBlockBegin
 62
7
  6
CONTINUOUS
  2
*D1
 70
65
 10
0.0
 20
0.0
  3
*D1
  1

  0
MTEXT
  5
22F
100
AcDbEntity
  8
0
100
AcDbMText
 62
7
  6
CONTINUOUS
  7
STANDARD
 71
2
 72
1
 10
15.0123168641
 20
0.0130922693
 30
0.0
 11
0.0
 21
1.0
 31
0.0
 44
0.9
  1
44,4
 40
3.0
 41
13.1785714286
  0
LINE
  5
230
100
AcDbEntity
  8
0
100
AcDbLine
 62
7
  6
CONTINUOUS
 10
10.7350986693
 20
22.2213302099
 11
20.2623168641
 21
22.2213302099
  0
LINE
  5
231
100
AcDbEntity
  8
0
100
AcDbLine
 62
7
  6
CONTINUOUS
 10
10.7350986693
 20
-22.1951456712
 11
20.2623168641
 21
-22.1951456712
  0
LINE
  5
232
100
AcDbEntity
  8
0
100
AcDbLine
 62
7
  6
CONTINUOUS
 10
18.7623168641
 20
22.2213302099
 11
18.7623168641
 21
0.0130922693
  0
LINE
  5
233
100
AcDbEntity
  8
0
100
AcDbLine
 62
7
  6
CONTINUOUS
 10
18.7623168641
 20
-22.1951456712
 11
18.7623168641
 21
0.0130922693
  0
INSERT
  5
234
100
AcDbEntity
  8
0
100
AcDbBlockReference
 62
7
  6
CONTINUOUS
  2
_FILLED
 10
18.7623168641
 20
22.2213302099
 41
3.0
 42
3.0
 43
3.0
 50
90.0
  0
INSERT
  5
235
100
AcDbEntity
  8
0
100
AcDbBlockReference
 62
7
  6
CONTINUOUS
  2
_FILLED
 10
18.7623168641
 20
-22.1951456712
 41
3.0
 42
3.0
 43
3.0
 50
270.0
  0
ENDBLK
  5
236
100
AcDbEntity
  8
0
  6
BYBLOCK
 62
0
100
AcDbBlockEnd
  0
BLOCK
  5
237
100
AcDbEntity
  8
0
100
AcDbBlockBegin
 62
7
  6
CONTINUOUS
  2
*D2
 70
65
 10
0.0
 20
0.0
  3
*D2
  1

  0
MTEXT
  5
238
100
AcDbEntity
  8
0
100
AcDbMText
 62
7
  6
CONTINUOUS
  7
STANDARD
 71
1
 72
1
 10
-25.4350941787
 20
33.9713302099
 30
0.0
 11
1.0
 21
0.0
 31
0.0
 44
0.9
  1
5,7
 40
3.0
 41
9.3214285714
  0
LINE
  5
239
100
AcDbEntity
  8
0
100
AcDbLine
 62
7
  6
CONTINUOUS
 10
-30.0588695574
 20
13.6130922693
 11
-30.0588695574
 21
31.7213302099
  0
LINE
  5
23A
100
AcDbEntity
  8
0
100
AcDbLine
 62
7
  6
CONTINUOUS
 10
-35.7587113371
 20
0.9108607233
 11
-35.7587113371
 21
31.7213302099
  0
LINE
  5
23B
100
AcDbEntity
  8
0
100
AcDbLine
 62
7
  6
CONTINUOUS
 10
-30.0588695574
 20
30.2213302099
 11
-19.2208084644
 21
30.2213302099
  0
LINE
  5
23C
100
AcDbEntity
  8
0
100
AcDbLine
 62
7
  6
CONTINUOUS
 10
-19.2208084644
 20
30.2213302099
 11
-32.9087904472
 21
30.2213302099
  0
LINE
  5
23D
100
AcDbEntity
  8
0
100
AcDbLine
 62
7
  6
CONTINUOUS
 10
-35.7587113371
 20
30.2213302099
 11
-39.7587113371
 21
30.2213302099
  0
LINE
  5
23E
100
AcDbEntity
  8
0
100
AcDbLine
 62
7
  6
CONTINUOUS
 10
-39.7587113371
 20
30.2213302099
 11
-32.9087904472
 21
30.2213302099
  0
INSERT
  5
23F
100
AcDbEntity
  8
0
100
AcDbBlockReference
 62
7
  6
CONTINUOUS
  2
_FILLED
 10
-30.0588695574
 20
30.2213302099
 41
3.0
 42
3.0
 43
3.0
 50
180.0
  0
INSERT
  5
240
100
AcDbEntity
  8
0
100
AcDbBlockReference
 62
7
  6
CONTINUOUS
  2
_FILLED
 10
-35.7587113371
 20
30.2213302099
 41
3.0
 42
3.0
 43
3.0
  0
ENDBLK
  5
241
100
AcDbEntity
  8
0
  6
BYBLOCK
 62
0
100
AcDbBlockEnd
  0
ENDSEC
  0
SECTION
  2
ENTITIES
  0
DIMENSION
  5
242
100
AcDbEntity
  8
0
100
AcDbDimension
 62
7
  6
CONTINUOUS
  2
*D0
 10
10.7623168641
 20
30.2213302099
 11
-0.816254611
 21
30.2213302099
 70
160
 71
2
 42
22.3
  3
DIMSTYLE_1
100
AcDbAlignedDimension
 13
-11.5376831359
 23
13.1130922693
 14
10.7623168641
 24
13.1130922693
100
AcDbRotatedDimension
  0
DIMENSION
  5
243
100
AcDbEntity
  8
0
100
AcDbDimension
 62
7
  6
CONTINUOUS
  2
*D1
 10
18.7623168641
 20
-22.1951456712
 11
18.7623168641
 21
-0.4154792501
 70
160
 71
2
 42
44.4164758811
  3
DIMSTYLE_2
100
AcDbAlignedDimension
 13
10.2350986693
 23
22.2213302099
 14
10.2350986693
 24
-22.1951456712
 50
270.0
100
AcDbRotatedDimension
  0
DIMENSION
  5
244
100
AcDbEntity
  8
0
100
AcDbDimension
 62
7
  6
CONTINUOUS
  2
*D2
 10
-35.7587113371
 20
30.2213302099
 11
-22.756522625
 21
30.2213302099
 70
160
 71
1
 42
5.6998417798
  3
DIMSTYLE_1
100
AcDbAlignedDimension
 13
-30.0588695574
 23
13.1130922693
 14
-35.7587113371
 24
0.4108607233
 50
180.0
100
AcDbRotatedDimension
  0
LINE
  5
245
100
AcDbEntity
  8
ASSI
100
AcDbLine
 62
7
  6
CONTINUOUS
 10
3.0063631632
 20
-22.1951456712
 11
3.3545818372
 21
-22.1635368397
  0
LINE
  5
246
100
AcDbEntity
  8
ASSI
100
AcDbLine
 62
7
  6
CONTINUOUS
 10
-8.1936368368
 20
-22.1951456712
 11
-7.8454181628
 21
-22.1635368397
  0
LINE
  5
247
100
AcDbEntity
  8
ASSI
100
AcDbLine
 62
253
  6
CONTINUOUS
 10
10.2028695374
 20
-21.1927835745
 11
10.1747114363
 21
-21.1935297371
  0
LWPOLYLINE
  5
248
100
AcDbEntity
  8
ASSI
100
AcDbPolyline
 62
253
  6
CONTINUOUS
 90
4
 70
0
 10
10.1747114363
 20
-21.1935297371
 10
10.1463695717
 20
-21.1940371428
 10
10.1321583795
 20
-21.1942007681
 10
10.1179356765
 20
-21.194304149
  0
LINE
  5
249
100
AcDbEntity
  8
ASSI
100
AcDbLine
 62
7
  6
CONTINUOUS
 10
10.2350986693
 20
-22.1951456712
 11
7.418270565
 21
-22.1951456712
  0
LINE
  5
24A
100
AcDbEntity
  8
ASSI
100
AcDbLine
 62
7
  6
CONTINUOUS
 10
3.0063631632
 20
-22.1951456712
 11
-3.781729435
 21
-22.1951456712
  0
LINE
  5
24B
100
AcDbEntity
  8
ASSI
100
AcDbLine
 62
7
  6
CONTINUOUS
 10
-8.1936368368
 20
-22.1951456712
 11
-11.0104649412
 21
-22.1951456712
  0
LINE
  5
24C
100
AcDbEntity
  8
ASSI
100
AcDbLine
 62
7
  6
CONTINUOUS
 10
-7.6722130821
 20
-22.1582960617
 11
-4.3031531897
 21
-22.1582960617
  0
LINE
  5
24D
100
AcDbEntity
  8
ASSI
100
AcDbLine
 62
7
  6
CONTINUOUS
 10
3.5277869179
 20
-22.1582960617
 11
6.8968468103
 21
-22.1582960617
  0
LINE
  5
24E
100
AcDbEntity
  8
ASSI
100
AcDbLine
 62
253
  6
CONTINUOUS
 10
-10.909653404
 20
-22.0438515026
 11
10.1342871322
 21
-22.0438515026
  0
LINE
  5
24F
100
AcDbEntity
  8
ASSI
100
AcDbLine
 62
253
  6
CONTINUOUS
 10
-10.9359240238
 20
-21.1938134067
 11
-10.9075246515
 21
-21.1942007694
  0
LINE
  5
250
100
AcDbEntity
  8
ASSI
100
AcDbLine
 62
7
  6
CONTINUOUS
 10
-3.781729435
 20
-22.1951456712
 11
-4.129948109
 21
-22.1635368397
  0
LINE
  5
251
100
AcDbEntity
  8
ASSI
100
AcDbLine
 62
7
  6
CONTINUOUS
 10
7.418270565
 20
-22.1951456712
 11
7.070051891
 21
-22.1635368397
  0
LINE
  5
252
100
AcDbEntity
  8
ASSI
100
AcDbLine
 62
253
  6
CONTINUOUS
 10
-10.8933019483
 20
-21.1943041503
 11
10.1179356765
 21
-21.1943041503
  0
LINE
  5
253
100
AcDbEntity
  8
ASSI
100
AcDbLine
 62
253
  6
CONTINUOUS
 10
-10.9075246515
 20
-21.1942007694
 11
-10.8933019483
 21
-21.1943041503
  0
LWPOLYLINE
  5
254
100
AcDbEntity
  8
ASSI
100
AcDbPolyline
 62
253
  6
CONTINUOUS
 90
49
 70
0
 10
-11.3929973618
 20
21.1459475977
 10
-11.392304335
 20
21.1480692418
 10
-11.3912074521
 20
21.1501891687
 10
-11.389707601
 20
21.1523056628
 10
-11.3878059954
 20
21.1544170112
 10
-11.3855041745
 20
21.1565215051
 10
-11.3828040011
 20
21.1586174412
 10
-11.3797076606
 20
21.1607031232
 10
-11.376217659
 20
21.1627768632
 10
-11.3723368206
 20
21.1648369829
 10
-11.3680682866
 20
21.1668818148
 10
-11.3634155114
 20
21.1689097041
 10
-11.3583822607
 20
21.1709190096
 10
-11.352972608
 20
21.1729081051
 10
-11.3471909315
 20
21.1748753806
 10
-11.3410419105
 20
21.1768192442
 10
-11.3345305216
 20
21.1787381225
 10
-11.3276620346
 20
21.1806304625
 10
-11.3204420083
 20
21.1824947328
 10
-11.3128762861
 20
21.1843294245
 10
-11.3049709911
 20
21.1861330527
 10
-11.2967325213
 20
21.1879041578
 10
-11.2881675444
 20
21.1896413063
 10
-11.2792829922
 20
21.1913430924
 10
-11.2700860551
 20
21.1930081386
 10
-11.2605841766
 20
21.1946350975
 10
-11.2507850467
 20
21.1962226523
 10
-11.2406965962
 20
21.1977695181
 10
-11.2303269899
 20
21.199274443
 10
-11.2196846201
 20
21.2007362091
 10
-11.2087781001
 20
21.2021536334
 10
-11.1976162569
 20
21.2035255685
 10
-11.1862081239
 20
21.2048509043
 10
-11.174562934
 20
21.206128568
 10
-11.1626901121
 20
21.2073575257
 10
-11.1505992672
 20
21.2085367827
 10
-11.1383001846
 20
21.2096653845
 10
-11.1258028184
 20
21.2107424179
 10
-11.113117283
 20
21.211767011
 10
-11.1002538452
 20
21.2127383348
 10
-11.0872229157
 20
21.213655603
 10
-11.0740350407
 20
21.2145180733
 10
-11.0607008936
 20
21.2153250477
 10
-11.047231266
 20
21.216075873
 10
-11.0336370593
 20
21.2167699417
 10
-11.0199292756
 20
21.2174066919
 10
-11.0061190091
 20
21.2179856084
 10
-10.9922174366
 20
21.2185062226
 10
-10.9782358093
 20
21.2189681131
  0
LWPOLYLINE
  5
255
100
AcDbEntity
  8
ASSI
100
AcDbPolyline
 62
253
  6
CONTINUOUS
 90
51
 70
0
 10
-11.3929973618
 20
-21.1197630591
 10
-11.3923043352
 20
-21.1218847031
 10
-11.3912074525
 20
-21.1240046301
 10
-11.3897076015
 20
-21.1261211242
 10
-11.3878059962
 20
-21.1282324726
 10
-11.3855041754
 20
-21.1303369665
 10
-11.3828040022
 20
-21.1324329027
 10
-11.3797076619
 20
-21.1345185847
 10
-11.3762176603
 20
-21.1365923248
 10
-11.3723368221
 20
-21.1386524444
 10
-11.3680682882
 20
-21.1406972764
 10
-11.3634155131
 20
-21.1427251658
 10
-11.3583822625
 20
-21.1447344713
 10
-11.3529726099
 20
-21.1467235668
 10
-11.3471909336
 20
-21.1486908424
 10
-11.3410419127
 20
-21.1506347059
 10
-11.3345305238
 20
-21.1525535843
 10
-11.3276620368
 20
-21.1544459243
 10
-11.3204420106
 20
-21.1563101946
 10
-11.3128762884
 20
-21.1581448864
 10
-11.3049709935
 20
-21.1599485147
 10
-11.2967325238
 20
-21.1617196198
 10
-11.2881675469
 20
-21.1634567683
 10
-11.2792829946
 20
-21.1651585544
 10
-11.2700860576
 20
-21.1668236006
 10
-11.2605841791
 20
-21.1684505595
 10
-11.2507850492
 20
-21.1700381144
 10
-11.2406965986
 20
-21.1715849802
 10
-11.2303269923
 20
-21.1730899052
 10
-11.2196846225
 20
-21.1745516713
 10
-11.2087781025
 20
-21.1759690956
 10
-11.1976162592
 20
-21.1773410308
 10
-11.1862081261
 20
-21.1786663666
 10
-11.1745629362
 20
-21.1799440303
 10
-11.1626901143
 20
-21.181172988
 10
-11.1505992693
 20
-21.182352245
 10
-11.1383001866
 20
-21.1834808469
 10
-11.1258028204
 20
-21.1845578803
 10
-11.1131172849
 20
-21.1855824734
 10
-11.100253847
 20
-21.1865537972
 10
-11.0872229173
 20
-21.1874710654
 10
-11.0740350422
 20
-21.1883335358
 10
-11.060700895
 20
-21.1891405102
 10
-11.0472312673
 20
-21.1898913355
 10
-11.0336370605
 20
-21.1905854042
 10
-11.0199292767
 20
-21.1912221545
 10
-11.0061190101
 20
-21.1918010709
 10
-10.9922174375
 20
-21.1923216851
 10
-10.97823581
 20
-21.1927835757
 10
-10.9641854433
 20
-21.1931863688
 10
-10.9359240238
 20
-21.1938134067
  0
LWPOLYLINE
  5
256
100
AcDbEntity
  8
0
100
AcDbPolyline
 62
253
  6
CONTINUOUS
 90
29
 70
0
 10
1.0076199105
 20
-13.4000982573
 10
1.0097019353
 20
-13.3995436267
 10
1.011757184
 20
-13.3989346181
 10
1.0137864108
 20
-13.3982739098
 10
1.01579037
 20
-13.3975641803
 10
1.0177698159
 20
-13.3968081079
 10
1.0197255027
 20
-13.396008371
 10
1.0216581848
 20
-13.3951676478
 10
1.0238847514
 20
-13.3941385563
 10
1.0260812704
 20
-13.3930614626
 10
1.0282479793
 20
-13.3919405054
 10
1.0303851159
 20
-13.3907798239
 10
1.0324929177
 20
-13.3895835568
 10
1.0345716226
 20
-13.3883558432
 10
1.0370286707
 20
-13.3868463381
 10
1.0394486267
 20
-13.3853012609
 10
1.0418359561
 20
-13.3837243625
 10
1.0441951242
 20
-13.3821193937
 10
1.0465305966
 20
-13.3804901054
 10
1.0494227624
 20
-13.3784242075
 10
1.0522896711
 20
-13.3763286813
 10
1.0551361132
 20
-13.3742060369
 10
1.0579668791
 20
-13.3720587846
 10
1.0617234155
 20
-13.3691613436
 10
1.0654616789
 20
-13.3662275838
 10
1.069182749
 20
-13.3632604713
 10
1.0728878261
 20
-13.3602634608
 10
1.0765785934
 20
-13.3572419608
 10
1.0802568549
 20
-13.3542018685
  0
LINE
  5
257
100
AcDbEntity
  8
0
100
AcDbLine
 62
253
  6
CONTINUOUS
 10
-1.8197881444
 20
-13.9536418683
 11
-1.7433059222
 21
-13.9475740905
  0
LWPOLYLINE
  5
258
100
AcDbEntity
  8
0
100
AcDbPolyline
 62
253
  6
CONTINUOUS
 90
47
 70
0
 10
-1.7433059222
 20
-13.9475740905
 10
-1.7215442546
 20
-13.9460368995
 10
-1.6999560376
 20
-13.9438266276
 10
-1.6785337875
 20
-13.9409559814
 10
-1.6572700202
 20
-13.9374376673
 10
-1.6361572517
 20
-13.9332843919
 10
-1.6151879983
 20
-13.9285088619
 10
-1.5943547758
 20
-13.9231237838
 10
-1.573654567
 20
-13.9171421103
 10
-1.5531022203
 20
-13.910577779
 10
-1.5327170511
 20
-13.9034449736
 10
-1.5125183745
 20
-13.8957578777
 10
-1.4925255056
 20
-13.8875306752
 10
-1.4727577596
 20
-13.8787775496
 10
-1.4532344516
 20
-13.8695126848
 10
-1.4307887361
 20
-13.8580743867
 10
-1.4087132858
 20
-13.8459728037
 10
-1.3870193686
 20
-13.833221879
 10
-1.3657182523
 20
-13.8198355561
 10
-1.3448212047
 20
-13.8058277783
 10
-1.3243394936
 20
-13.7912124891
 10
-1.3042855577
 20
-13.7760040067
 10
-1.2846765189
 20
-13.7602181487
 10
-1.2655306703
 20
-13.7438711074
 10
-1.2468663047
 20
-13.7269790754
 10
-1.2287017149
 20
-13.709558245
 10
-1.2110551939
 20
-13.6916248085
 10
-1.1939445109
 20
-13.6731932242
 10
-1.1773853399
 20
-13.6542710123
 10
-1.1613928313
 20
-13.6348639589
 10
-1.1459821356
 20
-13.6149778502
 10
-1.1311684029
 20
-13.594618472
 10
-1.1169667839
 20
-13.5737916106
 10
-1.1052943159
 20
-13.5555751601
 10
-1.0941022656
 20
-13.5370401725
 10
-1.0834102041
 20
-13.5182073172
 10
-1.073237702
 20
-13.4990972633
 10
-1.0636043302
 20
-13.4797306798
 10
-1.0545296595
 20
-13.4601282362
 10
-1.0460332609
 20
-13.4403106013
 10
-1.0381334229
 20
-13.4202933044
 10
-1.0308433057
 20
-13.4000713134
 10
-1.024174787
 20
-13.3796344562
 10
-1.0181397448
 20
-13.3589725608
 10
-1.0127500569
 20
-13.338075455
 10
-1.0080176013
 20
-13.3169329668
 10
-1.0039542557
 20
-13.295534924
  0
LINE
  5
259
100
AcDbEntity
  8
0
100
AcDbLine
 62
253
  6
CONTINUOUS
 10
-1.7624202843
 20
-13.5147746572
 11
-1.8491039777
 21
-13.5208540906
  0
LWPOLYLINE
  5
25A
100
AcDbEntity
  8
0
100
AcDbPolyline
 62
253
  6
CONTINUOUS
 90
15
 70
0
 10
-1.8491039777
 20
-13.5208540906
 10
-1.8689391708
 20
-13.5219861348
 10
-1.8888042529
 20
-13.5229520689
 10
-1.9086992686
 20
-13.5237517007
 10
-1.9286242625
 20
-13.524384838
 10
-1.9485792792
 20
-13.5248512887
 10
-1.9685643633
 20
-13.5251508606
 10
-1.9885795593
 20
-13.5252833617
 10
-2.0086248949
 20
-13.5252485191
 10
-2.0287003306
 20
-13.5250457377
 10
-2.0488058099
 20
-13.5246743414
 10
-2.0689412763
 20
-13.5241336544
 10
-2.0891066733
 20
-13.5234230009
 10
-2.1093019444
 20
-13.5225417049
 10
-2.1295270332
 20
-13.5214890906
  0
LWPOLYLINE
  5
25B
100
AcDbEntity
  8
0
100
AcDbPolyline
 62
253
  6
CONTINUOUS
 90
9
 70
0
 10
-1.9559328516
 20
-13.9576659061
 10
-1.9386928953
 20
-13.9574845398
 10
-1.9215162117
 20
-13.9572214507
 10
-1.9044026603
 20
-13.9568713444
 10
-1.88735219
 20
-13.9564290197
 10
-1.8703651074
 20
-13.9558896468
 10
-1.8534418083
 20
-13.9552484886
 10
-1.8365826886
 20
-13.9545008081
 10
-1.8197881444
 20
-13.9536418683
  0
LINE
  5
25C
100
AcDbEntity
  8
0
100
AcDbLine
 62
253
  6
CONTINUOUS
 10
-1.9906031443
 20
-13.9578046461
 11
-1.9559328516
 21
-13.9576659061
  0
LWPOLYLINE
  5
25D
100
AcDbEntity
  8
0
100
AcDbPolyline
 62
253
  6
CONTINUOUS
 90
39
 70
0
 10
1.9101312991
 20
-13.1132546463
 10
1.9053398957
 20
-13.1131927288
 10
1.9005905068
 20
-13.1130090272
 10
1.8958774132
 20
-13.1127066174
 10
1.8911948959
 20
-13.1122885754
 10
1.8865372356
 20
-13.1117579773
 10
1.8818987133
 20
-13.1111178992
 10
1.8772736097
 20
-13.1103714169
 10
1.8718887338
 20
-13.1093694491
 10
1.8665157467
 20
-13.1082275685
 10
1.8611560569
 20
-13.1069465033
 10
1.855811073
 20
-13.1055269819
 10
1.8504822037
 20
-13.1039697322
 10
1.8451708577
 20
-13.1022754827
 10
1.8398794684
 20
-13.1004453726
 10
1.8346145691
 20
-13.0984821863
 10
1.8293837177
 20
-13.0963891193
 10
1.8241944724
 20
-13.0941693673
 10
1.8190543912
 20
-13.0918261257
 10
1.8139710322
 20
-13.08936259
 10
1.8089518254
 20
-13.0867822752
 10
1.8040036897
 20
-13.084089973
 10
1.7991334157
 20
-13.0812907946
 10
1.7943477941
 20
-13.0783898512
 10
1.7896536158
 20
-13.0753922538
 10
1.7850576715
 20
-13.0723031135
 10
1.7805656937
 20
-13.0691269159
 10
1.7761791818
 20
-13.0658656435
 10
1.771898577
 20
-13.0625206533
 10
1.7677243203
 20
-13.059093302
 10
1.7636568529
 20
-13.0555849466
 10
1.759696616
 20
-13.0519969441
 10
1.7563874289
 20
-13.0488580116
 10
1.7531553483
 20
-13.045655589
 10
1.7499983752
 20
-13.0423837055
 10
1.7469145106
 20
-13.0390363902
 10
1.7439017555
 20
-13.0356076724
 10
1.7409581106
 20
-13.0320915814
 10
1.738081577
 20
-13.0284821463
  0
LWPOLYLINE
  5
25E
100
AcDbEntity
  8
0
100
AcDbPolyline
 62
253
  6
CONTINUOUS
 90
11
 70
0
 10
-2.1576081443
 20
-13.9536418683
 10
-2.1439480825
 20
-13.9543663123
 10
-2.1302406735
 20
-13.9550127091
 10
-2.1164861547
 20
-13.9555838208
 10
-2.1026847638
 20
-13.9560824095
 10
-2.088836738
 20
-13.9565112373
 10
-2.0749423149
 20
-13.9568730662
 10
-2.0582080043
 20
-13.9572228146
 10
-2.0414070778
 20
-13.9574854544
 10
-2.0245393894
 20
-13.957666378
 10
-1.9906031443
 20
-13.9578046461
  0
LWPOLYLINE
  5
25F
100
AcDbEntity
  8
0
100
AcDbPolyline
 62
253
  6
CONTINUOUS
 90
50
 70
0
 10
-2.2085845332
 20
-13.5151038129
 10
-2.2179564231
 20
-13.5144327735
 10
-2.2272465805
 20
-13.5134562455
 10
-2.2364713294
 20
-13.5121782837
 10
-2.2456469934
 20
-13.510602943
 10
-2.2547898964
 20
-13.5087342781
 10
-2.2639163622
 20
-13.5065763439
 10
-2.2730388795
 20
-13.5041328843
 10
-2.2821545963
 20
-13.5014063996
 10
-2.2912568257
 20
-13.4983990791
 10
-2.3003388808
 20
-13.495113112
 10
-2.3093940745
 20
-13.4915506877
 10
-2.3184157199
 20
-13.4877139955
 10
-2.3273985898
 20
-13.4836044258
 10
-2.3363432969
 20
-13.4792201727
 10
-2.3452519138
 20
-13.4745586317
 10
-2.3541223943
 20
-13.4696199895
 10
-2.3629362188
 20
-13.4644156001
 10
-2.3716707491
 20
-13.4589596089
 10
-2.3803075828
 20
-13.4532626715
 10
-2.3888452608
 20
-13.4473214848
 10
-2.39728656
 20
-13.4411292561
 10
-2.4056342571
 20
-13.4346791923
 10
-2.4138911288
 20
-13.4279645008
 10
-2.4220599519
 20
-13.4209783886
 10
-2.4301393584
 20
-13.4137172606
 10
-2.4381114017
 20
-13.4061903122
 10
-2.4459539901
 20
-13.3984099364
 10
-2.4536450322
 20
-13.3903885263
 10
-2.4611624366
 20
-13.382138475
 10
-2.4684841116
 20
-13.3736721756
 10
-2.4755890433
 20
-13.3650031905
 10
-2.4824605279
 20
-13.3561497602
 10
-2.489082939
 20
-13.3471312942
 10
-2.4954406502
 20
-13.3379672024
 10
-2.5015180351
 20
-13.3286768943
 10
-2.5072994675
 20
-13.3192797799
 10
-2.512772347
 20
-13.3097909515
 10
-2.5179361775
 20
-13.3002082327
 10
-2.5227934892
 20
-13.2905251299
 10
-2.5273468121
 20
-13.2807351496
 10
-2.5315986762
 20
-13.270831798
 10
-2.5355516116
 20
-13.2608085816
 10
-2.538702938
 20
-13.2521166985
 10
-2.5416327021
 20
-13.2433265124
 10
-2.5443371039
 20
-13.2344325549
 10
-2.5468123435
 20
-13.2254293578
 10
-2.5490546208
 20
-13.2163114529
 10
-2.5510601358
 20
-13.2070733718
 10
-2.5528250886
 20
-13.1977096463
  0
LINE
  5
260
100
AcDbEntity
  8
0
100
AcDbLine
 62
253
  6
CONTINUOUS
 10
-2.2379003665
 20
-13.9475740905
 11
-2.1576081443
 21
-13.9536418683
  0
LINE
  5
261
100
AcDbEntity
  8
0
100
AcDbLine
 62
253
  6
CONTINUOUS
 10
-2.1295270332
 20
-13.5214890906
 11
-2.2085845332
 21
-13.5151038129
  0
LWPOLYLINE
  5
262
100
AcDbEntity
  8
0
100
AcDbPolyline
 62
253
  6
CONTINUOUS
 90
26
 70
0
 10
0.9642635216
 20
-13.4013329796
 10
0.9662361595
 20
-13.4015784335
 10
0.968193473
 20
-13.401802176
 10
0.9701356402
 20
-13.4020036396
 10
0.9720628394
 20
-13.4021822566
 10
0.9739752486
 20
-13.4023374594
 10
0.975873046
 20
-13.4024686806
 10
0.9777564098
 20
-13.4025753524
 10
0.9796255181
 20
-13.4026569073
 10
0.9814805491
 20
-13.4027127778
 10
0.9833216809
 20
-13.4027423961
 10
0.9851490917
 20
-13.4027451948
 10
0.9869629596
 20
-13.4027206062
 10
0.9886253792
 20
-13.402673117
 10
0.9902762291
 20
-13.4026014043
 10
0.9919153273
 20
-13.402505064
 10
0.9935424916
 20
-13.4023836921
 10
0.99515754
 20
-13.4022368845
 10
0.9967602905
 20
-13.4020642373
 10
0.998350561
 20
-13.4018653463
 10
0.9999281696
 20
-13.4016398077
 10
1.001492934
 20
-13.4013872172
 10
1.0030446724
 20
-13.401107171
 10
1.0045832026
 20
-13.400799265
 10
1.0061083427
 20
-13.4004630951
 10
1.0076199105
 20
-13.4000982573
  0
LWPOLYLINE
  5
263
100
AcDbEntity
  8
0
100
AcDbPolyline
 62
253
  6
CONTINUOUS
 90
23
 70
0
 10
-0.5982637021
 20
13.4606281186
 10
-0.5966126539
 20
13.4613902087
 10
-0.5949505619
 20
13.4621229183
 10
-0.5932778126
 20
13.4628268865
 10
-0.5915947922
 20
13.4635027524
 10
-0.5899018873
 20
13.4641511551
 10
-0.5881994841
 20
13.4647727335
 10
-0.586487969
 20
13.4653681269
 10
-0.5847677284
 20
13.4659379742
 10
-0.5830391487
 20
13.4664829146
 10
-0.5813026163
 20
13.467003587
 10
-0.5795585174
 20
13.4675006305
 10
-0.5778072386
 20
13.4679746843
 10
-0.5756966458
 20
13.4685140576
 10
-0.5735761901
 20
13.4690220823
 10
-0.5714457914
 20
13.469499595
 10
-0.5693053696
 20
13.4699474324
 10
-0.5671548446
 20
13.4703664308
 10
-0.5649941364
 20
13.4707574269
 10
-0.5628231648
 20
13.4711212572
 10
-0.5606418497
 20
13.4714587583
 10
-0.5584501111
 20
13.4717707665
 10
-0.5562478688
 20
13.4720581186
  0
LWPOLYLINE
  5
264
100
AcDbEntity
  8
ASSI
100
AcDbPolyline
 62
253
  6
CONTINUOUS
 90
12
 70
0
 10
-11.358634508
 20
9.5035922693
 10
-11.3579362424
 20
9.5038626015
 10
-11.3568343268
 20
9.5041327149
 10
-11.3553296526
 20
9.5044023912
 10
-11.3534234371
 20
9.5046714121
 10
-11.351117222
 20
9.5049395601
 10
-11.3484128731
 20
9.5052066182
 10
-11.3453125779
 20
9.5054723705
 10
-11.3418188443
 20
9.5057366019
 10
-11.3379344985
 20
9.5059990987
 10
-11.3336626825
 20
9.5062596486
 10
-11.329006852
 20
9.5065180408
  0
LWPOLYLINE
  5
265
100
AcDbEntity
  8
0
100
AcDbPolyline
 62
253
  6
CONTINUOUS
 90
24
 70
0
 10
-1.1298998131
 20
12.9743239521
 10
-1.1263576254
 20
12.9755055216
 10
-1.122837908
 20
12.9767413221
 10
-1.119340543
 20
12.9780316545
 10
-1.1158654129
 20
12.9793768201
 10
-1.1124124
 20
12.98077712
 10
-1.1089813865
 20
12.9822328552
 10
-1.105572255
 20
12.983744327
 10
-1.1021848875
 20
12.9853118364
 10
-1.0988191666
 20
12.9869356846
 10
-1.0954749744
 20
12.9886161727
 10
-1.0921521934
 20
12.9903536018
 10
-1.0891251621
 20
12.9919966234
 10
-1.0861167885
 20
12.993688576
 10
-1.0831278379
 20
12.9954302913
 10
-1.0801590756
 20
12.9972226011
 10
-1.0772112669
 20
12.999066337
 10
-1.0742851771
 20
13.0009623308
 10
-1.0713815714
 20
13.0029114143
 10
-1.0685012152
 20
13.004914419
 10
-1.0656448738
 20
13.0069721768
 10
-1.0628133124
 20
13.0090855193
 10
-1.0600072963
 20
13.0112552783
 10
-1.0572275909
 20
13.0134822854
  0
LWPOLYLINE
  5
266
100
AcDbEntity
  8
0
100
AcDbPolyline
 62
253
  6
CONTINUOUS
 90
24
 70
0
 10
-0.0975623115
 20
-12.0565088132
 10
-0.0994441087
 20
-12.0569611298
 10
-0.1013096481
 20
-12.0574729988
 10
-0.1031591423
 20
-12.0580420033
 10
-0.104992804
 20
-12.0586657266
 10
-0.1068108458
 20
-12.059341752
 10
-0.1086134804
 20
-12.0600676626
 10
-0.1104009205
 20
-12.0608410416
 10
-0.1124674128
 20
-12.0618000789
 10
-0.1145142465
 20
-12.0628165451
 10
-0.116542155
 20
-12.0638865489
 10
-0.1185518716
 20
-12.0650061989
 10
-0.1205441299
 20
-12.0661716036
 10
-0.1225196632
 20
-12.0673788718
 10
-0.1248697238
 20
-12.0688775346
 10
-0.1272008144
 20
-12.0704251159
 10
-0.1295169927
 20
-12.0720158544
 10
-0.1318223167
 20
-12.0736439889
 10
-0.1341208442
 20
-12.0753037581
 10
-0.1369898433
 20
-12.0774151445
 10
-0.1398577816
 20
-12.079561499
 10
-0.1427278774
 20
-12.0817373625
 10
-0.1456033488
 20
-12.0839372756
 10
-0.1533149313
 20
-12.0899047207
  0
LINE
  5
267
100
AcDbEntity
  8
0
100
AcDbLine
 62
253
  6
CONTINUOUS
 10
0.3906468551
 20
-12.0424682577
 11
0.3256299106
 21
-12.0526635354
  0
LINE
  5
268
100
AcDbEntity
  8
0
100
AcDbLine
 62
253
  6
CONTINUOUS
 10
-0.0619317559
 20
-12.0526635354
 11
-0.0975623115
 21
-12.0565088132
  0
LWPOLYLINE
  5
269
100
AcDbEntity
  8
0
100
AcDbPolyline
 62
253
  6
CONTINUOUS
 90
27
 70
0
 10
0.9656040772
 20
-11.5453338134
 10
0.9638242341
 20
-11.5454426925
 10
0.9620516398
 20
-11.5455796867
 10
0.9602861596
 20
-11.5457449342
 10
0.9585276588
 20
-11.5459385733
 10
0.9567760027
 20
-11.5461607422
 10
0.9550310567
 20
-11.5464115792
 10
0.9532926861
 20
-11.5466912225
 10
0.9515607563
 20
-11.5469998104
 10
0.9498351326
 20
-11.5473374811
 10
0.9481156803
 20
-11.547704373
 10
0.9464022647
 20
-11.5481006242
 10
0.9446947513
 20
-11.5485263729
 10
0.9432358264
 20
-11.5489149477
 10
0.9417814296
 20
-11.5493257711
 10
0.9403318516
 20
-11.5497593185
 10
0.9388873831
 20
-11.5502160654
 10
0.9374483149
 20
-11.5506964872
 10
0.9360149378
 20
-11.5512010592
 10
0.9345875424
 20
-11.5517302568
 10
0.9331664196
 20
-11.5522845555
 10
0.9317518601
 20
-11.5528644306
 10
0.9303441547
 20
-11.5534703575
 10
0.928943594
 20
-11.5541028116
 10
0.9275504689
 20
-11.5547622683
 10
0.9261650701
 20
-11.555449203
 10
0.9247876883
 20
-11.5561640911
  0
LINE
  5
26A
100
AcDbEntity
  8
0
100
AcDbLine
 62
253
  6
CONTINUOUS
 10
-2.022041251
 20
-11.4220917988
 11
-1.9906031443
 21
-11.4219674245
  0
LINE
  5
26B
100
AcDbEntity
  8
0
100
AcDbLine
 62
253
  6
CONTINUOUS
 10
0.3256299106
 20
-12.0526635354
 11
-0.0619317559
 21
-12.0526635354
  0
LINE
  5
26C
100
AcDbEntity
  8
0
100
AcDbLine
 62
253
  6
CONTINUOUS
 10
-0.0631664781
 20
-12.8936857575
 11
0.3472904662
 21
-12.8949204797
  0
LWPOLYLINE
  5
26D
100
AcDbEntity
  8
0
100
AcDbPolyline
 62
253
  6
CONTINUOUS
 90
15
 70
0
 10
-1.9906031443
 20
-11.4219674245
 10
-1.9586988962
 20
-11.4220804798
 10
-1.9428657181
 20
-11.4222351231
 10
-1.9271112613
 20
-11.4224670204
 10
-1.9114350937
 20
-11.4227850545
 10
-1.8958367834
 20
-11.423198108
 10
-1.8803158984
 20
-11.4237150636
 10
-1.8667984739
 20
-11.4242594266
 10
-1.8533407676
 20
-11.424894961
 10
-1.8399435501
 20
-11.4256264869
 10
-1.8266075916
 20
-11.4264588247
 10
-1.8133336625
 20
-11.4273967948
 10
-1.8001225332
 20
-11.4284452176
 10
-1.7869749741
 20
-11.4296089133
 10
-1.7738917555
 20
-11.4308927023
  0
LWPOLYLINE
  5
26E
100
AcDbEntity
  8
0
100
AcDbPolyline
 62
253
  6
CONTINUOUS
 90
49
 70
0
 10
-1.7738917555
 20
-11.4308927023
 10
-1.7644277931
 20
-11.4316047593
 10
-1.7550458235
 20
-11.4326212326
 10
-1.7457294634
 20
-11.4339382411
 10
-1.7364623292
 20
-11.4355519037
 10
-1.7272280376
 20
-11.4374583394
 10
-1.7180102049
 20
-11.4396536671
 10
-1.7087962725
 20
-11.4421343124
 10
-1.6995889798
 20
-11.4448979274
 10
-1.6903948909
 20
-11.4479424708
 10
-1.6812205702
 20
-11.4512659013
 10
-1.6720725817
 20
-11.4548661777
 10
-1.6629574896
 20
-11.4587412586
 10
-1.653880403
 20
-11.4628899216
 10
-1.6448406104
 20
-11.4673142198
 10
-1.6358359452
 20
-11.4720170251
 10
-1.626868571
 20
-11.4769982727
 10
-1.6179579712
 20
-11.4822461505
 10
-1.6091279593
 20
-11.4877459097
 10
-1.600397912
 20
-11.4934863599
 10
-1.5917694572
 20
-11.4994705446
 10
-1.583239786
 20
-11.5057050659
 10
-1.5748060894
 20
-11.5121965256
 10
-1.5664655585
 20
-11.5189515257
 10
-1.5582153843
 20
-11.5259766683
 10
-1.5500568923
 20
-11.5332753727
 10
-1.5420079458
 20
-11.5408383284
 10
-1.5340905426
 20
-11.5486530423
 10
-1.5263266806
 20
-11.5567070213
 10
-1.5187383573
 20
-11.5649877722
 10
-1.5113475708
 20
-11.5734828021
 10
-1.5041752399
 20
-11.5821783705
 10
-1.4972379678
 20
-11.5910557484
 10
-1.4905512791
 20
-11.6000949593
 10
-1.4841306982
 20
-11.6092760268
 10
-1.4779917495
 20
-11.6185789746
 10
-1.4721499575
 20
-11.6279838262
 10
-1.4666177687
 20
-11.6374750516
 10
-1.461395318
 20
-11.6470549058
 10
-1.4564796624
 20
-11.65673009
 10
-1.4518678588
 20
-11.6665073056
 10
-1.4475569644
 20
-11.6763932537
 10
-1.4435440361
 20
-11.6863946357
 10
-1.4398276009
 20
-11.6965184878
 10
-1.4364120662
 20
-11.7067731855
 10
-1.4333033091
 20
-11.7171674397
 10
-1.4305072072
 20
-11.7277099609
 10
-1.4280296376
 20
-11.7384094596
 10
-1.4258764778
 20
-11.7492746466
  0
LWPOLYLINE
  5
26F
100
AcDbEntity
  8
0
100
AcDbPolyline
 62
253
  6
CONTINUOUS
 90
24
 70
0
 10
0.3472904662
 20
-12.8949204797
 10
0.350921319
 20
-12.8953325667
 10
0.3545426107
 20
-12.8958065079
 10
0.3581544452
 20
-12.8963419153
 10
0.3617569263
 20
-12.896938401
 10
0.3653501577
 20
-12.8975955773
 10
0.3689342431
 20
-12.8983130561
 10
0.3725092864
 20
-12.8990904496
 10
0.3760753914
 20
-12.89992737
 10
0.3796326618
 20
-12.9008234294
 10
0.3831812014
 20
-12.9017782398
 10
0.3867211139
 20
-12.9027914135
 10
0.3899584988
 20
-12.9037712161
 10
0.3931885317
 20
-12.9048001609
 10
0.3964110226
 20
-12.9058786745
 10
0.3996257815
 20
-12.9070071838
 10
0.4028326181
 20
-12.9081861156
 10
0.4060313425
 20
-12.9094158965
 10
0.4092217646
 20
-12.9106969533
 10
0.4124036944
 20
-12.9120297128
 10
0.4155769417
 20
-12.9134146018
 10
0.4187413165
 20
-12.914852047
 10
0.4218966288
 20
-12.9163424751
 10
0.4250426884
 20
-12.917886313
  0
LINE
  5
270
100
AcDbEntity
  8
0
100
AcDbLine
 62
253
  6
CONTINUOUS
 10
-0.1103681448
 20
-12.8860657575
 11
-0.0631664781
 21
-12.8936857575
  0
LWPOLYLINE
  5
271
100
AcDbEntity
  8
ASSI
100
AcDbPolyline
 62
253
  6
CONTINUOUS
 90
14
 70
0
 10
-11.358634508
 20
-9.4774077307
 10
-11.3579362424
 20
-9.4776780628
 10
-11.3568343268
 20
-9.4779481762
 10
-11.3553296527
 20
-9.4782178525
 10
-11.3534234371
 20
-9.4784868735
 10
-11.3511172221
 20
-9.4787550215
 10
-11.3484128731
 20
-9.4790220796
 10
-11.3453125779
 20
-9.4792878319
 10
-11.3418188443
 20
-9.4795520633
 10
-11.3379344985
 20
-9.4798145601
 10
-11.3336626825
 20
-9.4800751099
 10
-11.3290068521
 20
-9.4803335021
 10
-11.3239707733
 20
-9.4805895276
 10
-11.3127744702
 20
-9.4810936519
  0
LINE
  5
272
100
AcDbEntity
  8
ASSI
100
AcDbLine
 62
253
  6
CONTINUOUS
 10
-11.4006838045
 20
21.4894477088
 11
-11.4013956059
 21
21.502133004
  0
LINE
  5
273
100
AcDbEntity
  8
ASSI
100
AcDbLine
 62
253
  6
CONTINUOUS
 10
-11.3999938933
 20
21.4757948309
 11
-11.4006838045
 21
21.4894477088
  0
LINE
  5
274
100
AcDbEntity
  8
ASSI
100
AcDbLine
 62
253
  6
CONTINUOUS
 10
-11.3993276852
 20
21.4612087713
 11
-11.3999938933
 21
21.4757948309
  0
LINE
  5
275
100
AcDbEntity
  8
ASSI
100
AcDbLine
 62
253
  6
CONTINUOUS
 10
-11.3983762262
 20
21.4376576836
 11
-11.3993276852
 21
21.4612087713
  0
LINE
  5
276
100
AcDbEntity
  8
ASSI
100
AcDbLine
 62
253
  6
CONTINUOUS
 10
-11.3974864454
 20
21.4122067999
 11
-11.3983762262
 21
21.4376576836
  0
LINE
  5
277
100
AcDbEntity
  8
ASSI
100
AcDbLine
 62
253
  6
CONTINUOUS
 10
-10.9017001184
 20
21.9328595475
 11
-10.9028058353
 21
21.967180417
  0
LINE
  5
278
100
AcDbEntity
  8
ASSI
100
AcDbLine
 62
253
  6
CONTINUOUS
 10
-11.3964039837
 20
21.3755487821
 11
-11.3974864454
 21
21.4122067999
  0
LINE
  5
279
100
AcDbEntity
  8
ASSI
100
AcDbLine
 62
253
  6
CONTINUOUS
 10
-10.9002984312
 20
21.8801809335
 11
-10.9017001184
 21
21.9328595475
  0
LINE
  5
27A
100
AcDbEntity
  8
ASSI
100
AcDbLine
 62
253
  6
CONTINUOUS
 10
-11.3954493082
 20
21.3360873317
 11
-11.3964039837
 21
21.3755487821
  0
LINE
  5
27B
100
AcDbEntity
  8
ASSI
100
AcDbLine
 62
253
  6
CONTINUOUS
 10
-10.8986807928
 20
21.8039111947
 11
-10.9002984312
 21
21.8801809335
  0
LWPOLYLINE
  5
27C
100
AcDbEntity
  8
ASSI
100
AcDbPolyline
 62
253
  6
CONTINUOUS
 90
46
 70
0
 10
-11.3554912427
 20
0.4085562761
 10
-11.3553364462
 20
0.3998334242
 10
-11.3548775552
 20
0.3911211956
 10
-11.3541151287
 20
0.3824302008
 10
-11.3530500952
 20
0.3737710242
 10
-11.3516837517
 20
0.3651542117
 10
-11.3500177623
 20
0.3565902575
 10
-11.3480541559
 20
0.3480895912
 10
-11.3457953241
 20
0.3396625658
 10
-11.3432440176
 20
0.3313194443
 10
-11.3404033438
 20
0.3230703874
 10
-11.3372767623
 20
0.3149254416
 10
-11.3338680807
 20
0.3068945263
 10
-11.3301814504
 20
0.2989874223
 10
-11.3262213613
 20
0.2912137592
 10
-11.3219926363
 20
0.2835830046
 10
-11.3175004255
 20
0.2761044516
 10
-11.3127501997
 20
0.2687872082
 10
-11.3077477442
 20
0.2616401859
 10
-11.3024991513
 20
0.2546720889
 10
-11.2970108132
 20
0.2478914034
 10
-11.2912894139
 20
0.2413063874
 10
-11.2853419214
 20
0.2349250607
 10
-11.279175579
 20
0.2287551948
 10
-11.2727978965
 20
0.222804304
 10
-11.2662166412
 20
0.2170796356
 10
-11.2594398281
 20
0.2115881616
 10
-11.2524757106
 20
0.2063365699
 10
-11.2453327701
 20
0.2013312562
 10
-11.2380197058
 20
0.1965783165
 10
-11.230545424
 20
0.1920835391
 10
-11.2229190276
 20
0.1878523981
 10
-11.2151498045
 20
0.1838900466
 10
-11.2072472166
 20
0.1802013101
 10
-11.1992208884
 20
0.1767906812
 10
-11.1910805947
 20
0.1736623134
 10
-11.1828362496
 20
0.1708200168
 10
-11.1744978935
 20
0.1682672528
 10
-11.1660756815
 20
0.1660071306
 10
-11.1575798709
 20
0.1640424025
 10
-11.1490208084
 20
0.1623754614
 10
-11.1404089179
 20
0.1610083373
 10
-11.1317546875
 20
0.1599426954
 10
-11.1230686571
 20
0.1591798334
 10
-11.1143614052
 20
0.1587206803
 10
-11.105643536
 20
0.1585657953
  0
LINE
  5
27D
100
AcDbEntity
  8
ASSI
100
AcDbLine
 62
253
  6
CONTINUOUS
 10
-11.3944488297
 20
21.2833708096
 11
-11.3954493082
 21
21.3360873317
  0
LWPOLYLINE
  5
27E
100
AcDbEntity
  8
ASSI
100
AcDbPolyline
 62
253
  6
CONTINUOUS
 90
55
 70
0
 10
-11.4093488175
 20
-21.5445367352
 10
-11.4091113981
 20
-21.559042307
 10
-11.4084523695
 20
-21.5735356341
 10
-11.4073722881
 20
-21.5880044823
 10
-11.4058720655
 20
-21.6024366379
 10
-11.4039529681
 20
-21.6168199183
 10
-11.4016166159
 20
-21.631142182
 10
-11.3988649812
 20
-21.6453913392
 10
-11.3957003866
 20
-21.6595553617
 10
-11.3921255035
 20
-21.6736222932
 10
-11.3881433496
 20
-21.6875802592
 10
-11.3837572863
 20
-21.7014174773
 10
-11.3789710161
 20
-21.7151222673
 10
-11.3737885791
 20
-21.7286830603
 10
-11.3682143502
 20
-21.7420884092
 10
-11.3622530346
 20
-21.7553269982
 10
-11.3559096646
 20
-21.768387652
 10
-11.3491895947
 20
-21.7812593459
 10
-11.3420984976
 20
-21.7939312142
 10
-11.3346423591
 20
-21.8063925604
 10
-11.3268274732
 20
-21.8186328653
 10
-11.3186604367
 20
-21.8306417966
 10
-11.3101481437
 20
-21.8424092169
 10
-11.3012977797
 20
-21.8539251932
 10
-11.2921168156
 20
-21.8651800043
 10
-11.2826130013
 20
-21.8761641498
 10
-11.2727943593
 20
-21.8868683574
 10
-11.2626691779
 20
-21.8972835915
 10
-11.2522460041
 20
-21.9074010602
 10
-11.2415336364
 20
-21.9172122229
 10
-11.2305411174
 20
-21.9267087978
 10
-11.2192777264
 20
-21.9358827685
 10
-11.2077529711
 20
-21.944726391
 10
-11.19597658
 20
-21.9532321999
 10
-11.1839584939
 20
-21.9613930154
 10
-11.1717088577
 20
-21.9692019485
 10
-11.1592380118
 20
-21.9766524075
 10
-11.146556483
 20
-21.9837381032
 10
-11.1336749765
 20
-21.9904530543
 10
-11.1206043658
 20
-21.9967915926
 10
-11.1073556844
 20
-22.0027483673
 10
-11.0939401159
 20
-22.0083183504
 10
-11.0803689847
 20
-22.0134968398
 10
-11.0666537469
 20
-22.0182794643
 10
-11.0528059797
 20
-22.0226621867
 10
-11.0388373727
 20
-22.0266413075
 10
-11.0247597172
 20
-22.0302134676
 10
-11.0105848965
 20
-22.0333756517
 10
-10.9963248763
 20
-22.0361251906
 10
-10.9819916937
 20
-22.0384597631
 10
-10.9675974479
 20
-22.0403773987
 10
-10.9531542896
 20
-22.0418764786
 10
-10.9386744108
 20
-22.0429557374
 10
-10.9241700344
 20
-22.043614264
 10
-10.909653404
 20
-22.0438515026
  0
LINE
  5
27F
100
AcDbEntity
  8
ASSI
100
AcDbLine
 62
253
  6
CONTINUOUS
 10
-10.8969675523
 20
21.698574589
 11
-10.8986807928
 21
21.8039111947
  0
LINE
  5
280
100
AcDbEntity
  8
ASSI
100
AcDbLine
 62
253
  6
CONTINUOUS
 10
-11.3936760881
 20
21.2276029451
 11
-11.3944488297
 21
21.2833708096
  0
LINE
  5
281
100
AcDbEntity
  8
ASSI
100
AcDbLine
 62
253
  6
CONTINUOUS
 10
-10.8951270732
 20
21.5383299079
 11
-10.8969675523
 21
21.698574589
  0
LINE
  5
282
100
AcDbEntity
  8
ASSI
100
AcDbLine
 62
253
  6
CONTINUOUS
 10
-11.3931422704
 20
21.1696017608
 11
-11.3936760881
 21
21.2276029451
  0
LINE
  5
283
100
AcDbEntity
  8
ASSI
100
AcDbLine
 62
253
  6
CONTINUOUS
 10
-10.8936311419
 20
21.3146293865
 11
-10.8951270732
 21
21.5383299079
  0
LINE
  5
284
100
AcDbEntity
  8
ASSI
100
AcDbLine
 62
7
  6
CONTINUOUS
 10
-11.5113758266
 20
-21.6976550384
 11
-11.5376831359
 21
-13.0869077307
  0
LINE
  5
285
100
AcDbEntity
  8
ASSI
100
AcDbLine
 62
253
  6
CONTINUOUS
 10
-10.8688513701
 20
15.1659655471
 11
-10.8936311419
 21
21.3146293865
  0
LINE
  5
286
100
AcDbEntity
  8
ASSI
100
AcDbLine
 62
253
  6
CONTINUOUS
 10
-11.358634508
 20
9.5035922693
 11
-11.3931422704
 21
21.1696017608
  0
LINE
  5
287
100
AcDbEntity
  8
ASSI
100
AcDbLine
 62
253
  6
CONTINUOUS
 10
-10.8589390944
 20
9.5130922693
 11
-10.8688513701
 21
15.1659655471
  0
LINE
  5
288
100
AcDbEntity
  8
ASSI
100
AcDbLine
 62
7
  6
CONTINUOUS
 10
-11.5376831359
 20
-0.3368411094
 11
-11.5376831359
 21
-13.0869077307
  0
LINE
  5
289
100
AcDbEntity
  8
ASSI
100
AcDbLine
 62
7
  6
CONTINUOUS
 10
-11.5376831359
 20
0.3630256481
 11
-11.5376831359
 21
13.1130922693
  0
LINE
  5
28A
100
AcDbEntity
  8
ASSI
100
AcDbLine
 62
253
  6
CONTINUOUS
 10
-11.3554913096
 20
0.4085562594
 11
-11.358634508
 21
9.5035922693
  0
LINE
  5
28B
100
AcDbEntity
  8
ASSI
100
AcDbLine
 62
253
  6
CONTINUOUS
 10
-10.8557958821
 20
0.1606713575
 11
-10.8589390944
 21
9.5130922693
  0
LINE
  5
28C
100
AcDbEntity
  8
ASSI
100
AcDbLine
 62
7
  6
CONTINUOUS
 10
-11.5113758266
 20
21.7238395771
 11
-11.5376831359
 21
13.1130922693
  0
LINE
  5
28D
100
AcDbEntity
  8
ASSI
100
AcDbLine
 62
253
  6
CONTINUOUS
 10
-11.3772811323
 20
-17.6849772917
 11
-11.3554913096
 21
-0.3823717207
  0
LINE
  5
28E
100
AcDbEntity
  8
ASSI
100
AcDbLine
 62
253
  6
CONTINUOUS
 10
-10.8775857183
 20
-17.7403329001
 11
-10.8557958821
 21
-0.1344868189
  0
LINE
  5
28F
100
AcDbEntity
  8
ASSI
100
AcDbLine
 62
253
  6
CONTINUOUS
 10
-10.8944163186
 20
-21.4251875093
 11
-10.8775857183
 21
-17.7403329001
  0
LINE
  5
290
100
AcDbEntity
  8
ASSI
100
AcDbLine
 62
253
  6
CONTINUOUS
 10
-11.3933265192
 20
-21.1668268567
 11
-11.3772811323
 21
-17.6849772917
  0
LINE
  5
291
100
AcDbEntity
  8
ASSI
100
AcDbLine
 62
253
  6
CONTINUOUS
 10
-10.8959800659
 20
-21.5948003108
 11
-10.8944163186
 21
-21.4251875093
  0
LINE
  5
292
100
AcDbEntity
  8
ASSI
100
AcDbLine
 62
253
  6
CONTINUOUS
 10
-11.3939570846
 20
-21.224042563
 11
-11.3933265192
 21
-21.1668268567
  0
LINE
  5
293
100
AcDbEntity
  8
ASSI
100
AcDbLine
 62
253
  6
CONTINUOUS
 10
-10.8977910269
 20
-21.7268259313
 11
-10.8959800659
 21
-21.5948003108
  0
LWPOLYLINE
  5
294
100
AcDbEntity
  8
ASSI
100
AcDbPolyline
 62
253
  6
CONTINUOUS
 90
55
 70
0
 10
-11.4093488175
 20
21.5707212739
 10
-11.4091113981
 20
21.5852268459
 10
-11.4084523695
 20
21.5997201733
 10
-11.407372288
 20
21.6141890218
 10
-11.4058720653
 20
21.6286211777
 10
-11.4039529679
 20
21.6430044583
 10
-11.4016166156
 20
21.6573267223
 10
-11.3988649808
 20
21.6715758798
 10
-11.3957003861
 20
21.6857399025
 10
-11.3921255029
 20
21.6998068341
 10
-11.3881433489
 20
21.7137648002
 10
-11.3837572854
 20
21.7276020186
 10
-11.3789710151
 20
21.7413068087
 10
-11.373788578
 20
21.7548676018
 10
-11.3682143489
 20
21.7682729508
 10
-11.3622530332
 20
21.7815115399
 10
-11.355909663
 20
21.7945721938
 10
-11.3491895929
 20
21.8074438877
 10
-11.3420984957
 20
21.8201157561
 10
-11.3346423571
 20
21.8325771023
 10
-11.3268274711
 20
21.8448174072
 10
-11.3186604345
 20
21.8568263384
 10
-11.3101481414
 20
21.8685937588
 10
-11.3012977773
 20
21.880109735
 10
-11.292116813
 20
21.8913645461
 10
-11.2826129986
 20
21.9023486914
 10
-11.2727943566
 20
21.913052899
 10
-11.2626691751
 20
21.923468133
 10
-11.2522460012
 20
21.9335856015
 10
-11.2415336334
 20
21.9433967642
 10
-11.2305411144
 20
21.952893339
 10
-11.2192777234
 20
21.9620673096
 10
-11.2077529681
 20
21.9709109319
 10
-11.195976577
 20
21.9794167407
 10
-11.183958491
 20
21.987577556
 10
-11.1717088548
 20
21.9953864889
 10
-11.1592380089
 20
22.0028369478
 10
-11.1465564802
 20
22.0099226434
 10
-11.1336749738
 20
22.0166375943
 10
-11.1206043632
 20
22.0229761324
 10
-11.1073556819
 20
22.0289329071
 10
-11.0939401135
 20
22.03450289
 10
-11.0803689825
 20
22.0396813793
 10
-11.0666537447
 20
22.0444640037
 10
-11.0528059777
 20
22.048846726
 10
-11.0388373709
 20
22.0528258466
 10
-11.0247597155
 20
22.0563980066
 10
-11.0105848951
 20
22.0595601907
 10
-10.996324875
 20
22.0623097294
 10
-10.9819916926
 20
22.0646443019
 10
-10.9675974471
 20
22.0665619375
 10
-10.953154289
 20
22.0680610174
 10
-10.9386744104
 20
22.0691402761
 10
-10.9241700342
 20
22.0697988027
 10
-10.909653404
 20
22.0700360412
  0
LWPOLYLINE
  5
295
100
AcDbEntity
  8
ASSI
100
AcDbPolyline
 62
253
  6
CONTINUOUS
 90
46
 70
0
 10
-11.3554912427
 20
-0.3823717374
 10
-11.3553364462
 20
-0.3736488859
 10
-11.3548775553
 20
-0.3649366577
 10
-11.3541151288
 20
-0.3562456633
 10
-11.3530500954
 20
-0.3475864871
 10
-11.351683752
 20
-0.3389696749
 10
-11.3500177627
 20
-0.330405721
 10
-11.3480541566
 20
-0.3219050551
 10
-11.3457953249
 20
-0.31347803
 10
-11.3432440187
 20
-0.3051349087
 10
-11.3404033451
 20
-0.2968858522
 10
-11.3372767637
 20
-0.2887409066
 10
-11.3338680824
 20
-0.2807099915
 10
-11.3301814524
 20
-0.2728028876
 10
-11.3262213635
 20
-0.2650292247
 10
-11.3219926388
 20
-0.2573984702
 10
-11.3175004282
 20
-0.2499199173
 10
-11.3127502027
 20
-0.242602674
 10
-11.3077477474
 20
-0.2354556517
 10
-11.3024991548
 20
-0.2284875547
 10
-11.2970108169
 20
-0.2217068691
 10
-11.2912894178
 20
-0.2151218531
 10
-11.2853419255
 20
-0.2087405263
 10
-11.2791755833
 20
-0.2025706603
 10
-11.2727979009
 20
-0.1966197693
 10
-11.2662166457
 20
-0.1908951008
 10
-11.2594398327
 20
-0.1854036266
 10
-11.2524757153
 20
-0.1801520347
 10
-11.2453327748
 20
-0.1751467208
 10
-11.2380197105
 20
-0.1703937808
 10
-11.2305454288
 20
-0.1658990031
 10
-11.2229190323
 20
-0.1616678619
 10
-11.2151498091
 20
-0.1577055101
 10
-11.207247221
 20
-0.1540167734
 10
-11.1992208926
 20
-0.1506061442
 10
-11.1910805987
 20
-0.1474777762
 10
-11.1828362533
 20
-0.1446354793
 10
-11.1744978969
 20
-0.1420827152
 10
-11.1660756847
 20
-0.1398225927
 10
-11.1575798737
 20
-0.1378578644
 10
-11.1490208108
 20
-0.1361909231
 10
-11.1404089198
 20
-0.134823799
 10
-11.131754689
 20
-0.1337581569
 10
-11.1230686582
 20
-0.1329952948
 10
-11.1143614057
 20
-0.1325361416
 10
-11.105643536
 20
-0.1323812567
  0
LINE
  5
296
100
AcDbEntity
  8
ASSI
100
AcDbLine
 62
253
  6
CONTINUOUS
 10
-11.3948224561
 20
-21.2786837804
 11
-11.3939570846
 21
-21.224042563
  0
LINE
  5
297
100
AcDbEntity
  8
ASSI
100
AcDbLine
 62
253
  6
CONTINUOUS
 10
-10.8993085886
 20
-21.8095651635
 11
-10.8977910269
 21
-21.7268259313
  0
LINE
  5
298
100
AcDbEntity
  8
ASSI
100
AcDbLine
 62
253
  6
CONTINUOUS
 10
-11.3956754578
 20
-21.3200101085
 11
-11.3948224561
 21
-21.2786837804
  0
LINE
  5
299
100
AcDbEntity
  8
ASSI
100
AcDbLine
 62
253
  6
CONTINUOUS
 10
-10.9006404202
 20
-21.8678852453
 11
-10.8993085886
 21
-21.8095651635
  0
LINE
  5
29A
100
AcDbEntity
  8
ASSI
100
AcDbLine
 62
253
  6
CONTINUOUS
 10
-11.3966629576
 20
-21.3588037437
 11
-11.3956754578
 21
-21.3200101085
  0
LINE
  5
29B
100
AcDbEntity
  8
ASSI
100
AcDbLine
 62
253
  6
CONTINUOUS
 10
-10.9017001184
 20
-21.9066750089
 11
-10.9006404202
 21
-21.8678852453
  0
LINE
  5
29C
100
AcDbEntity
  8
ASSI
100
AcDbLine
 62
253
  6
CONTINUOUS
 10
-11.3974864454
 20
-21.3860222612
 11
-11.3966629576
 21
-21.3588037437
  0
LINE
  5
29D
100
AcDbEntity
  8
ASSI
100
AcDbLine
 62
253
  6
CONTINUOUS
 10
-10.9028058353
 20
-21.9409958784
 11
-10.9017001184
 21
-21.9066750089
  0
LINE
  5
29E
100
AcDbEntity
  8
ASSI
100
AcDbLine
 62
253
  6
CONTINUOUS
 10
-11.3983762262
 20
-21.4114731449
 11
-11.3974864454
 21
-21.3860222612
  0
LINE
  5
29F
100
AcDbEntity
  8
ASSI
100
AcDbLine
 62
253
  6
CONTINUOUS
 10
-11.3993276852
 20
-21.4350242327
 11
-11.3983762262
 21
-21.4114731449
  0
LINE
  5
2A0
100
AcDbEntity
  8
ASSI
100
AcDbLine
 62
253
  6
CONTINUOUS
 10
-11.3999938933
 20
-21.4496102922
 11
-11.3993276852
 21
-21.4350242327
  0
LINE
  5
2A1
100
AcDbEntity
  8
ASSI
100
AcDbLine
 62
253
  6
CONTINUOUS
 10
-11.4006838045
 20
-21.4632631701
 11
-11.3999938933
 21
-21.4496102922
  0
LINE
  5
2A2
100
AcDbEntity
  8
ASSI
100
AcDbLine
 62
253
  6
CONTINUOUS
 10
-11.4013956059
 20
-21.4759484654
 11
-11.4006838045
 21
-21.4632631701
  0
LWPOLYLINE
  5
2A3
100
AcDbEntity
  8
0
100
AcDbPolyline
 62
253
  6
CONTINUOUS
 90
29
 70
0
 10
-1.6759405296
 20
12.927080008
 10
-1.6730465771
 20
12.929554385
 10
-1.6701568251
 20
12.9319927514
 10
-1.6672624763
 20
12.934388849
 10
-1.6649385997
 20
12.9362707117
 10
-1.6626065895
 20
12.9381160557
 10
-1.6602668841
 20
12.93991942
 10
-1.6579199219
 20
12.9416753434
 10
-1.6555661415
 20
12.9433783646
 10
-1.6535997742
 20
12.9447533814
 10
-1.6516292806
 20
12.94608581
 10
-1.6496549648
 20
12.9473735923
 10
-1.6476771309
 20
12.9486146701
 10
-1.645696083
 20
12.9498069853
 10
-1.6437121252
 20
12.9509484798
 10
-1.6417251678
 20
12.9520374217
 10
-1.6397335455
 20
12.9530733844
 10
-1.6377351992
 20
12.954056268
 10
-1.6357283562
 20
12.9549858891
 10
-1.6337123898
 20
12.9558617333
 10
-1.63168696
 20
12.9566832028
 10
-1.6301616624
 20
12.9572629707
 10
-1.628631846
 20
12.9578098169
 10
-1.6270985064
 20
12.9583217414
 10
-1.6255626392
 20
12.9587967443
 10
-1.624024696
 20
12.9592327609
 10
-1.6224829513
 20
12.9596274674
 10
-1.6209351357
 20
12.9599784755
 10
-1.6193789796
 20
12.9602833965
  0
LWPOLYLINE
  5
2A4
100
AcDbEntity
  8
0
100
AcDbPolyline
 62
253
  6
CONTINUOUS
 90
4
 70
0
 10
-1.6907812018
 20
12.9143870076
 10
-1.6877342887
 20
12.9169475619
 10
-1.6847355621
 20
12.9195033974
 10
-1.6759405296
 20
12.927080008
  0
LINE
  5
2A5
100
AcDbEntity
  8
0
100
AcDbLine
 62
253
  6
CONTINUOUS
 10
-0.6339648132
 20
13.4347695075
 11
-0.5982637021
 21
13.4606281186
  0
LWPOLYLINE
  5
2A6
100
AcDbEntity
  8
0
100
AcDbPolyline
 62
253
  6
CONTINUOUS
 90
15
 70
0
 10
-2.2009645332
 20
-11.4308927023
 10
-2.1898870455
 20
-11.4296921748
 10
-2.1787336539
 20
-11.4286097481
 10
-2.1675053514
 20
-11.4276381467
 10
-2.1562031307
 20
-11.4267700951
 10
-2.1448279849
 20
-11.425998318
 10
-2.1333809067
 20
-11.4253155399
 10
-2.1218628891
 20
-11.4247144854
 10
-2.1102749249
 20
-11.4241878791
 10
-2.098618007
 20
-11.4237284454
 10
-2.0835303427
 20
-11.4232263473
 10
-2.0683295849
 20
-11.4228174483
 10
-2.0530149837
 20
-11.4224959337
 10
-2.0375857891
 20
-11.4222559888
 10
-2.022041251
 20
-11.4220917988
  0
LWPOLYLINE
  5
2A7
100
AcDbEntity
  8
0
100
AcDbPolyline
 62
253
  6
CONTINUOUS
 90
47
 70
0
 10
-2.2353603665
 20
-10.9990927024
 10
-2.2571140643
 20
-11.0006483698
 10
-2.2786946225
 20
-11.0028761154
 10
-2.300109519
 20
-11.005763312
 10
-2.3213662316
 20
-11.0092973326
 10
-2.3424722384
 20
-11.0134655502
 10
-2.3634350172
 20
-11.0182553376
 10
-2.384262046
 20
-11.0236540678
 10
-2.4049563429
 20
-11.0296488582
 10
-2.425503087
 20
-11.0362258041
 10
-2.4458829975
 20
-11.0433707452
 10
-2.4660767938
 20
-11.0510695211
 10
-2.4860651952
 20
-11.0593079717
 10
-2.505828921
 20
-11.0680719366
 10
-2.5253486904
 20
-11.0773472556
 10
-2.5477909269
 20
-11.0887972842
 10
-2.5698636226
 20
-11.1009100814
 10
-2.5915555311
 20
-11.1136716798
 10
-2.6128554064
 20
-11.1270681121
 10
-2.6337520023
 20
-11.1410854109
 10
-2.6542340728
 20
-11.1557096089
 10
-2.6742891921
 20
-11.170926367
 10
-2.6939002161
 20
-11.1867198597
 10
-2.713048821
 20
-11.2030738898
 10
-2.7317166829
 20
-11.2199722601
 10
-2.7498854781
 20
-11.2373987734
 10
-2.7675368829
 20
-11.2553372324
 10
-2.7846530883
 20
-11.273773193
 10
-2.801218345
 20
-11.2926992228
 10
-2.8172174184
 20
-11.3121096426
 10
-2.832635074
 20
-11.3319987731
 10
-2.8474560774
 20
-11.3523609351
 10
-2.8616651941
 20
-11.3731904491
 10
-2.8733442002
 20
-11.3914091269
 10
-2.8845428096
 20
-11.4099462536
 10
-2.8952413677
 20
-11.4287810901
 10
-2.9054202199
 20
-11.447892897
 10
-2.9150597115
 20
-11.4672609352
 10
-2.924140188
 20
-11.4868644654
 10
-2.9326419949
 20
-11.5066827484
 10
-2.9405467789
 20
-11.5267001984
 10
-2.9478413929
 20
-11.5469218438
 10
-2.954513991
 20
-11.5673578666
 10
-2.9605527277
 20
-11.5880184486
 10
-2.965945757
 20
-11.6089137717
 10
-2.9706812332
 20
-11.6300540178
 10
-2.9747473107
 20
-11.6514493689
  0
LINE
  5
2A8
100
AcDbEntity
  8
ASSI
100
AcDbLine
 62
253
  6
CONTINUOUS
 10
10.5536405802
 20
-9.4803335021
 11
10.5431922481
 21
-9.4808429792
  0
LINE
  5
2A9
100
AcDbEntity
  8
ASSI
100
AcDbLine
 62
253
  6
CONTINUOUS
 10
10.5431922481
 20
-9.4808429792
 11
10.531257031
 21
-9.4813413431
  0
LWPOLYLINE
  5
2AA
100
AcDbEntity
  8
0
100
AcDbPolyline
 62
253
  6
CONTINUOUS
 90
9
 70
0
 10
-2.1015012805
 20
-10.9906448884
 10
-2.1212229674
 20
-10.9913900613
 10
-2.1407459271
 20
-10.9922413484
 10
-2.1600714605
 20
-10.9932171532
 10
-2.1753900945
 20
-10.9941026896
 10
-2.1905807551
 20
-10.9951063541
 10
-2.2056409893
 20
-10.9962548054
 10
-2.2205683441
 20
-10.9975747019
 10
-2.2353603665
 20
-10.9990927024
  0
LINE
  5
2AB
100
AcDbEntity
  8
ASSI
100
AcDbLine
 62
253
  6
CONTINUOUS
 10
10.531257031
 20
-9.4813413431
 11
10.5178735398
 21
-9.4818269816
  0
LINE
  5
2AC
100
AcDbEntity
  8
ASSI
100
AcDbLine
 62
253
  6
CONTINUOUS
 10
10.5178735398
 20
-9.4818269816
 11
10.495178746
 21
-9.4825281552
  0
LINE
  5
2AD
100
AcDbEntity
  8
ASSI
100
AcDbLine
 62
253
  6
CONTINUOUS
 10
10.495178746
 20
-9.4825281552
 11
10.4602918392
 21
-9.4834042527
  0
LINE
  5
2AE
100
AcDbEntity
  8
ASSI
100
AcDbLine
 62
253
  6
CONTINUOUS
 10
10.4602918392
 20
-9.4834042527
 11
10.4409910889
 21
-9.483813897
  0
LINE
  5
2AF
100
AcDbEntity
  8
ASSI
100
AcDbLine
 62
253
  6
CONTINUOUS
 10
-11.2537401621
 20
-9.4829752094
 11
-11.2163573607
 21
-9.483813897
  0
LINE
  5
2B0
100
AcDbEntity
  8
ASSI
100
AcDbLine
 62
253
  6
CONTINUOUS
 10
-11.2784513423
 20
-9.4822983237
 11
-11.2537401621
 21
-9.4829752094
  0
LINE
  5
2B1
100
AcDbEntity
  8
ASSI
100
AcDbLine
 62
253
  6
CONTINUOUS
 10
-11.3001099937
 20
-9.4815858522
 11
-11.2784513423
 21
-9.4822983237
  0
LINE
  5
2B2
100
AcDbEntity
  8
ASSI
100
AcDbLine
 62
253
  6
CONTINUOUS
 10
-11.3127744702
 20
-9.4810936519
 11
-11.3001099937
 21
-9.4815858522
  0
LWPOLYLINE
  5
2B3
100
AcDbEntity
  8
0
100
AcDbPolyline
 62
253
  6
CONTINUOUS
 90
17
 70
0
 10
-1.7381906444
 20
-10.9993396468
 10
-1.7609079786
 20
-10.9970825592
 10
-1.7834633168
 20
-10.995121097
 10
-1.8058560203
 20
-10.9934390045
 10
-1.8280854508
 20
-10.9920200257
 10
-1.8501509698
 20
-10.9908479049
 10
-1.8720519387
 20
-10.9899063864
 10
-1.893787719
 20
-10.9891792143
 10
-1.9153576723
 20
-10.9886501328
 10
-1.9367606081
 20
-10.9883037786
 10
-1.9579931274
 20
-10.9881283575
 10
-1.9790512794
 20
-10.9881129678
 10
-1.9999311132
 20
-10.9882467078
 10
-2.0206285422
 20
-10.9885176209
 10
-2.0411389372
 20
-10.9889095318
 10
-2.0614575334
 20
-10.9894052103
 10
-2.1015012805
 20
-10.9906448884
  0
LWPOLYLINE
  5
2B4
100
AcDbEntity
  8
0
100
AcDbPolyline
 62
253
  6
CONTINUOUS
 90
24
 70
0
 10
1.0076199105
 20
-11.5468860356
 10
1.0058400708
 20
-11.5465021283
 10
1.0040619748
 20
-11.5461491563
 10
1.0022857618
 20
-11.5458266246
 10
1.0005115711
 20
-11.5455340382
 10
0.998739542
 20
-11.5452709024
 10
0.9969698138
 20
-11.5450367222
 10
0.9952025257
 20
-11.5448310026
 10
0.993437817
 20
-11.5446532489
 10
0.9916758271
 20
-11.544502966
 10
0.9899166952
 20
-11.5443796591
 10
0.9881605606
 20
-11.5442828333
 10
0.9864075626
 20
-11.5442119936
 10
0.9844988949
 20
-11.5441638635
 10
0.9825940231
 20
-11.5441459916
 10
0.9806928448
 20
-11.5441582995
 10
0.9787952574
 20
-11.5442007086
 10
0.9769011584
 20
-11.5442731404
 10
0.9750104452
 20
-11.5443755165
 10
0.9731230153
 20
-11.5445077583
 10
0.971238766
 20
-11.5446697874
 10
0.969357595
 20
-11.5448615253
 10
0.9674793995
 20
-11.5450828934
 10
0.9656040772
 20
-11.5453338134
  0
LWPOLYLINE
  5
2B5
100
AcDbEntity
  8
0
100
AcDbPolyline
 62
253
  6
CONTINUOUS
 90
26
 70
0
 10
0.9234824105
 20
-13.3898677018
 10
0.9249926128
 20
-13.3906467165
 10
0.9265099051
 20
-13.3913944352
 10
0.928033919
 20
-13.3921114456
 10
0.9295642865
 20
-13.3927983353
 10
0.9311006392
 20
-13.3934556921
 10
0.9326426089
 20
-13.3940841038
 10
0.9341898274
 20
-13.394684158
 10
0.9357419264
 20
-13.3952564426
 10
0.9372985377
 20
-13.3958015453
 10
0.9388592931
 20
-13.3963200537
 10
0.9404238243
 20
-13.3968125556
 10
0.941991763
 20
-13.3972796388
 10
0.9435627411
 20
-13.397721891
 10
0.9452677345
 20
-13.3981735736
 10
0.9469759816
 20
-13.3985970444
 10
0.9486876009
 20
-13.3989925438
 10
0.9504027113
 20
-13.399360312
 10
0.9521214315
 20
-13.3997005894
 10
0.9538438802
 20
-13.4000136165
 10
0.9555701762
 20
-13.4002996334
 10
0.9573004383
 20
-13.4005588807
 10
0.9590347851
 20
-13.4007915986
 10
0.9607733354
 20
-13.4009980274
 10
0.962516208
 20
-13.4011784077
 10
0.9642635216
 20
-13.4013329796
  0
LINE
  5
2B6
100
AcDbEntity
  8
0
100
AcDbLine
 62
253
  6
CONTINUOUS
 10
0.8852412994
 20
-13.3627743685
 11
0.9234824105
 21
-13.3898677018
  0
LINE
  5
2B7
100
AcDbEntity
  8
0
100
AcDbLine
 62
253
  6
CONTINUOUS
 10
0.4250426884
 20
-12.917886313
 11
0.4811696328
 21
-12.9577149241
  0
LWPOLYLINE
  5
2B8
100
AcDbEntity
  8
0
100
AcDbPolyline
 62
253
  6
CONTINUOUS
 90
27
 70
0
 10
-0.1473039781
 20
-12.8659574241
 10
-0.1461404439
 20
-12.866920182
 10
-0.1449651167
 20
-12.867854764
 10
-0.1437788677
 20
-12.8687620444
 10
-0.1425825683
 20
-12.8696428979
 10
-0.1413770898
 20
-12.870498199
 10
-0.1401633034
 20
-12.8713288221
 10
-0.1389420804
 20
-12.8721356418
 10
-0.1377142922
 20
-12.8729195327
 10
-0.13648081
 20
-12.8736813692
 10
-0.1352425051
 20
-12.8744220259
 10
-0.1340002488
 20
-12.8751423773
 10
-0.1327549124
 20
-12.875843298
 10
-0.1315073672
 20
-12.8765256624
 10
-0.1302584844
 20
-12.8771903451
 10
-0.1290091355
 20
-12.8778382206
 10
-0.1273059723
 20
-12.87869613
 10
-0.1256038004
 20
-12.8795263216
 10
-0.1239028579
 20
-12.8803307047
 10
-0.1222033828
 20
-12.8811111884
 10
-0.1205056133
 20
-12.8818696817
 10
-0.1188097874
 20
-12.8826080939
 10
-0.1171161432
 20
-12.8833283341
 10
-0.1154249187
 20
-12.8840323114
 10
-0.1137363521
 20
-12.884721935
 10
-0.1120506815
 20
-12.8853991139
 10
-0.1103681448
 20
-12.8860657575
  0
LWPOLYLINE
  5
2B9
100
AcDbEntity
  8
ASSI
100
AcDbPolyline
 62
253
  6
CONTINUOUS
 90
17
 70
0
 10
-11.4028793091
 20
21.5245035287
 10
-11.4032613128
 20
21.5294493383
 10
-11.4036473609
 20
21.5341306398
 10
-11.4040374464
 20
21.5385478905
 10
-11.4044308947
 20
21.5426934454
 10
-11.4048277113
 20
21.5465668317
 10
-11.4052278908
 20
21.5501685222
 10
-11.4056307421
 20
21.5534922894
 10
-11.4060362708
 20
21.5565376568
 10
-11.4064444713
 20
21.5593051009
 10
-11.4068546364
 20
21.561789825
 10
-11.4072667763
 20
21.5639913477
 10
-11.4076808806
 20
21.5659101502
 10
-11.4080962108
 20
21.5675428795
 10
-11.4085125206
 20
21.5688884176
 10
-11.4089300561
 20
21.5699478824
 10
-11.4093488175
 20
21.5707212739
  0
LINE
  5
2BA
100
AcDbEntity
  8
ASSI
100
AcDbLine
 62
253
  6
CONTINUOUS
 10
-11.4021280675
 20
21.5138287748
 11
-11.4028793091
 21
21.5245035287
  0
LINE
  5
2BB
100
AcDbEntity
  8
ASSI
100
AcDbLine
 62
253
  6
CONTINUOUS
 10
-11.4013956059
 20
21.502133004
 11
-11.4021280675
 21
21.5138287748
  0
LWPOLYLINE
  5
2BC
100
AcDbEntity
  8
ASSI
100
AcDbPolyline
 62
253
  6
CONTINUOUS
 90
11
 70
0
 10
-10.905532331
 20
22.0289270136
 10
-10.9059351747
 20
22.0355755201
 10
-10.9063407026
 20
22.0416680001
 10
-10.9067489049
 20
22.0472009193
 10
-10.9071590658
 20
22.0521710593
 10
-10.9075711805
 20
22.0565755415
 10
-10.9079852537
 20
22.0604118438
 10
-10.9084005829
 20
22.0636777704
 10
-10.908816934
 20
22.0663714342
 10
-10.909234541
 20
22.0684912679
 10
-10.909653404
 20
22.0700360412
  0
LINE
  5
2BD
100
AcDbEntity
  8
ASSI
100
AcDbLine
 62
253
  6
CONTINUOUS
 10
-10.9047353546
 20
22.0139775518
 11
-10.905532331
 21
22.0289270136
  0
LINE
  5
2BE
100
AcDbEntity
  8
ASSI
100
AcDbLine
 62
253
  6
CONTINUOUS
 10
-10.9039518332
 20
21.9968540624
 11
-10.9047353546
 21
22.0139775518
  0
LWPOLYLINE
  5
2BF
100
AcDbEntity
  8
ASSI
100
AcDbPolyline
 62
253
  6
CONTINUOUS
 90
3
 70
0
 10
-10.9028058353
 20
21.967180417
 10
-10.9031837944
 20
21.9775961103
 10
-10.9039518332
 20
21.9968540624
  0
LINE
  5
2C0
100
AcDbEntity
  8
ASSI
100
AcDbLine
 62
253
  6
CONTINUOUS
 10
-10.9035657911
 20
-21.96130469
 11
-10.9028058353
 21
-21.9409958784
  0
LINE
  5
2C1
100
AcDbEntity
  8
ASSI
100
AcDbLine
 62
253
  6
CONTINUOUS
 10
-10.904341913
 20
-21.9795006667
 11
-10.9035657911
 21
-21.96130469
  0
LINE
  5
2C2
100
AcDbEntity
  8
ASSI
100
AcDbLine
 62
253
  6
CONTINUOUS
 10
-11.4021280675
 20
-21.4876442361
 11
-11.4013956059
 21
-21.4759484654
  0
LWPOLYLINE
  5
2C3
100
AcDbEntity
  8
0
100
AcDbPolyline
 62
253
  6
CONTINUOUS
 90
53
 70
0
 10
0.8052274087
 20
13.6919797852
 10
0.8097310091
 20
13.6968440487
 10
0.8143494212
 20
13.7015202552
 10
0.8190912954
 20
13.706023084
 10
0.8239652822
 20
13.7103672142
 10
0.8289800322
 20
13.7145673253
 10
0.834142637
 20
13.7186349901
 10
0.839453954
 20
13.7225693569
 10
0.8449132816
 20
13.7263664677
 10
0.8505199183
 20
13.7300223645
 10
0.8562731627
 20
13.7335330893
 10
0.862171231
 20
13.736894008
 10
0.8682080114
 20
13.7400977825
 10
0.8743763096
 20
13.7431363988
 10
0.8806689316
 20
13.7460018427
 10
0.8870786833
 20
13.7486861002
 10
0.8925021317
 20
13.7507784369
 10
0.8979839901
 20
13.7527326083
 10
0.9035063243
 20
13.7545418383
 10
0.9090562211
 20
13.7562007557
 10
0.914640851
 20
13.7577096087
 10
0.9202724056
 20
13.7590700501
 10
0.9271034886
 20
13.7605072279
 10
0.9340054338
 20
13.7617252734
 10
0.940963976
 20
13.7627163869
 10
0.9479648501
 20
13.7634727688
 10
0.9549937909
 20
13.7639866192
 10
0.9620365059
 20
13.7642524244
 10
0.9690785937
 20
13.7642738141
 10
0.9761056252
 20
13.7640567043
 10
0.9831031714
 20
13.7636070105
 10
0.9900568035
 20
13.7629306487
 10
0.9958109848
 20
13.7621974503
 10
1.0015369586
 20
13.7613102816
 10
1.0072470335
 20
13.7602684727
 10
1.0129480379
 20
13.7590723075
 10
1.0186248793
 20
13.7577258861
 10
1.0242569849
 20
13.7562342625
 10
1.0309319207
 20
13.7542596407
 10
1.0375038231
 20
13.7520912031
 10
1.0439637027
 20
13.7497369474
 10
1.0503025705
 20
13.7472048712
 10
1.0565114371
 20
13.744502972
 10
1.0625827804
 20
13.741638552
 10
1.068514947
 20
13.7386161312
 10
1.0743077503
 20
13.7354395339
 10
1.0799610039
 20
13.7321125845
 10
1.0854745214
 20
13.7286391075
 10
1.0908498504
 20
13.7250200064
 10
1.0960954746
 20
13.7212445018
 10
1.101221612
 20
13.7172988933
 10
1.1062384803
 20
13.7131694805
 10
1.1111562975
 20
13.708842563
  0
LWPOLYLINE
  5
2C4
100
AcDbEntity
  8
0
100
AcDbPolyline
 62
253
  6
CONTINUOUS
 90
53
 70
0
 10
1.3750340752
 20
14.2665489517
 10
1.3796025577
 20
14.2713011962
 10
1.3842827079
 20
14.2758647206
 10
1.3890834047
 20
14.2802539093
 10
1.3940135268
 20
14.2844831467
 10
1.3990819529
 20
14.2885668171
 10
1.4042959497
 20
14.2925162517
 10
1.4096563344
 20
14.2963305685
 10
1.415162312
 20
14.300005832
 10
1.4208130874
 20
14.3035381071
 10
1.4266078656
 20
14.3069234585
 10
1.4325447772
 20
14.3101573082
 10
1.4386176554
 20
14.3132325078
 10
1.4448192589
 20
14.3161412664
 10
1.4511423466
 20
14.318875793
 10
1.4575796771
 20
14.3214282966
 10
1.4630238937
 20
14.3234104041
 10
1.4685246058
 20
14.3252543123
 10
1.4740640019
 20
14.3269536368
 10
1.479629274
 20
14.3285032856
 10
1.4852276272
 20
14.3299033337
 10
1.4908712697
 20
14.3311551481
 10
1.4977146791
 20
14.3324619135
 10
1.5046263848
 20
14.3335495443
 10
1.5115918865
 20
14.3344103936
 10
1.5185966841
 20
14.3350368148
 10
1.5256262773
 20
14.3354211609
 10
1.5326662236
 20
14.3355580594
 10
1.5397023111
 20
14.3354512329
 10
1.5467203856
 20
14.3351066783
 10
1.5537062931
 20
14.3345303925
 10
1.5606458794
 20
14.3337283721
 10
1.5663866802
 20
14.3328911741
 10
1.5720977422
 20
14.3319004224
 10
1.5777913233
 20
14.3307551591
 10
1.5834742029
 20
14.3294554875
 10
1.5891312469
 20
14.3280057569
 10
1.5947418425
 20
14.3264113777
 10
1.6013886758
 20
14.3243146064
 10
1.6079300414
 20
14.3220254925
 10
1.6143570393
 20
14.319552196
 10
1.6206607697
 20
14.3169028771
 10
1.6268323329
 20
14.3140856957
 10
1.6328642977
 20
14.3111080821
 10
1.6387551083
 20
14.3079745474
 10
1.6445046775
 20
14.3046888728
 10
1.6501129182
 20
14.3012548398
 10
1.6555797433
 20
14.2976762294
 10
1.6609067349
 20
14.293953882
 10
1.6661021521
 20
14.2900768735
 10
1.6711759234
 20
14.2860313386
 10
1.6761379771
 20
14.2818034124
 10
1.6809982418
 20
14.2773792295
  0
LINE
  5
2C5
100
AcDbEntity
  8
0
100
AcDbLine
 62
253
  6
CONTINUOUS
 10
-1.0572275909
 20
13.0134822854
 11
-0.6339648132
 21
13.4347695075
  0
LWPOLYLINE
  5
2C6
100
AcDbEntity
  8
0
100
AcDbPolyline
 62
253
  6
CONTINUOUS
 90
52
 70
0
 10
0.2519124805
 20
12.2879311559
 10
0.2469514059
 20
12.2837865569
 10
0.2421476728
 20
12.2795044876
 10
0.2374861579
 20
12.2750773357
 10
0.2329517379
 20
12.2704974888
 10
0.2285325084
 20
12.2657586783
 10
0.2242294406
 20
12.2608600095
 10
0.2200467247
 20
12.2558019313
 10
0.215988551
 20
12.2505848925
 10
0.2120591095
 20
12.2452093421
 10
0.208263296
 20
12.2396766743
 10
0.2046088279
 20
12.2339920648
 10
0.2011041286
 20
12.2281616348
 10
0.197757621
 20
12.2221915054
 10
0.1945777282
 20
12.2160877977
 10
0.19206171
 20
12.2109059054
 10
0.1896753621
 20
12.2056519656
 10
0.1874268007
 20
12.2003424427
 10
0.1853223851
 20
12.194989016
 10
0.1833614466
 20
12.189584224
 10
0.1815415596
 20
12.1841158199
 10
0.1795428024
 20
12.1774583958
 10
0.1777534816
 20
12.1707058052
 10
0.1761834119
 20
12.1638721186
 10
0.1748424085
 20
12.1569714062
 10
0.1737402863
 20
12.1500177384
 10
0.1728845149
 20
12.143025252
 10
0.1722731827
 20
12.136008349
 10
0.1719020328
 20
12.1289814979
 10
0.1717668082
 20
12.1219591674
 10
0.1718632521
 20
12.114955826
 10
0.1721178956
 20
12.109141186
 10
0.1725302553
 20
12.1033373577
 10
0.1731001225
 20
12.0975319183
 10
0.1738267655
 20
12.0917181261
 10
0.1747073597
 20
12.0859119643
 10
0.1757385569
 20
12.080135097
 10
0.1771698017
 20
12.0732674454
 10
0.1788056634
 20
12.0664831138
 10
0.1806387115
 20
12.0597920417
 10
0.1826615154
 20
12.0532041688
 10
0.1848666446
 20
12.0467294345
 10
0.1872472704
 20
12.0403761924
 10
0.1897989727
 20
12.0341464527
 10
0.1925179331
 20
12.0280406395
 10
0.1954003332
 20
12.0220591769
 10
0.1984423548
 20
12.016202489
 10
0.2016429937
 20
12.0104690119
 10
0.2050125021
 20
12.0048492295
 10
0.2085639465
 20
11.9993316376
 10
0.2123103933
 20
11.9939047318
 10
0.2162649088
 20
11.9885570079
  0
LWPOLYLINE
  5
2C7
100
AcDbEntity
  8
0
100
AcDbPolyline
 62
253
  6
CONTINUOUS
 90
26
 70
0
 10
-0.45548695
 20
11.6502671952
 10
-0.4584657854
 20
11.6478904969
 10
-0.4614303536
 20
11.6455546483
 10
-0.46438622
 20
11.6432656027
 10
-0.4667480699
 20
11.6414720032
 10
-0.4691088547
 20
11.6397148452
 10
-0.4714695168
 20
11.6379968057
 10
-0.4738309984
 20
11.6363205621
 10
-0.4761942419
 20
11.6346887916
 10
-0.4785604135
 20
11.6331040303
 10
-0.4809315762
 20
11.6315682495
 10
-0.4833100167
 20
11.6300832795
 10
-0.4856980219
 20
11.6286509504
 10
-0.4880978787
 20
11.6272730924
 10
-0.4905114798
 20
11.6259515323
 10
-0.4929391411
 20
11.6246880832
 10
-0.4953807845
 20
11.6234845548
 10
-0.4978363318
 20
11.6223427568
 10
-0.5003057047
 20
11.6212644989
 10
-0.5020780638
 20
11.6205345743
 10
-0.5038580077
 20
11.6198407817
 10
-0.5056461074
 20
11.619185911
 10
-0.5074429335
 20
11.6185727527
 10
-0.5092490571
 20
11.6180040966
 10
-0.511065049
 20
11.6174827332
 10
-0.5128914799
 20
11.6170114524
  0
LWPOLYLINE
  5
2C8
100
AcDbEntity
  8
0
100
AcDbPolyline
 62
253
  6
CONTINUOUS
 90
3
 70
0
 10
-0.4401839799
 20
11.6625550635
 10
-0.4433176308
 20
11.6600634175
 10
-0.45548695
 20
11.6502671952
  0
LWPOLYLINE
  5
2C9
100
AcDbEntity
  8
0
100
AcDbPolyline
 62
253
  6
CONTINUOUS
 90
39
 70
0
 10
0.5196890754
 20
11.9480933968
 10
0.5351873467
 20
11.9602170317
 10
0.5503474923
 20
11.9726708914
 10
0.5651674196
 20
11.9854688103
 10
0.5796450359
 20
11.9986246227
 10
0.5937782484
 20
12.0121521631
 10
0.6052897988
 20
12.0237167816
 10
0.616550331
 20
12.035543529
 10
0.6275494493
 20
12.0476267824
 10
0.638276758
 20
12.0599609191
 10
0.6487218614
 20
12.0725403164
 10
0.6588743638
 20
12.0853593514
 10
0.6687256364
 20
12.0984117255
 10
0.6782741178
 20
12.1116884364
 10
0.6875200137
 20
12.1251798055
 10
0.6964635295
 20
12.1388761548
 10
0.705104871
 20
12.1527678057
 10
0.7134442436
 20
12.1668450801
 10
0.7230525646
 20
12.1839700444
 10
0.7322230021
 20
12.2013366801
 10
0.7409522114
 20
12.2189332981
 10
0.7492368481
 20
12.236748209
 10
0.7570735677
 20
12.2547697232
 10
0.7644586175
 20
12.2729863679
 10
0.7713866115
 20
12.2913875352
 10
0.7778517554
 20
12.3099628334
 10
0.7838482549
 20
12.3287018711
 10
0.7893703159
 20
12.3475942568
 10
0.794411651
 20
12.3666285731
 10
0.7989640005
 20
12.3857892998
 10
0.8030186116
 20
12.4050598907
 10
0.8065667315
 20
12.4244237999
 10
0.8095996074
 20
12.4438644813
 10
0.8117267688
 20
12.4601138883
 10
0.8134829902
 20
12.4764083287
 10
0.8148612183
 20
12.4927510122
 10
0.8158543996
 20
12.5091451486
 10
0.8164554809
 20
12.5255939476
 10
0.8166574087
 20
12.5421006188
  0
LINE
  5
2CA
100
AcDbEntity
  8
ASSI
100
AcDbLine
 62
253
  6
CONTINUOUS
 10
10.4409910889
 20
-9.483813897
 11
10.38782631
 21
-9.4847446066
  0
LINE
  5
2CB
100
AcDbEntity
  8
ASSI
100
AcDbLine
 62
253
  6
CONTINUOUS
 10
10.38782631
 20
-9.4847446066
 11
10.316023289
 21
-9.4856644741
  0
LINE
  5
2CC
100
AcDbEntity
  8
ASSI
100
AcDbLine
 62
253
  6
CONTINUOUS
 10
10.316023289
 20
-9.4856644741
 11
10.2238756843
 21
-9.4864329768
  0
LINE
  5
2CD
100
AcDbEntity
  8
ASSI
100
AcDbLine
 62
253
  6
CONTINUOUS
 10
10.2238756843
 20
-9.4864329768
 11
10.1119999987
 21
-9.4868735064
  0
LINE
  5
2CE
100
AcDbEntity
  8
ASSI
100
AcDbLine
 62
253
  6
CONTINUOUS
 10
10.1119999987
 20
-9.4868735064
 11
-10.8589390944
 21
-9.4869077307
  0
LINE
  5
2CF
100
AcDbEntity
  8
ASSI
100
AcDbLine
 62
253
  6
CONTINUOUS
 10
-10.9717299535
 20
-9.4865880383
 11
-10.8589390944
 21
-9.4869077307
  0
LINE
  5
2D0
100
AcDbEntity
  8
ASSI
100
AcDbLine
 62
253
  6
CONTINUOUS
 10
-11.0787062718
 20
-9.4857950871
 11
-10.9717299535
 21
-9.4865880383
  0
LINE
  5
2D1
100
AcDbEntity
  8
ASSI
100
AcDbLine
 62
253
  6
CONTINUOUS
 10
-11.151785789
 20
-9.4849135233
 11
-11.0787062718
 21
-9.4857950871
  0
LWPOLYLINE
  5
2D2
100
AcDbEntity
  8
ASSI
100
AcDbPolyline
 62
253
  6
CONTINUOUS
 90
3
 70
0
 10
-11.2163573607
 20
-9.483813897
 10
-11.2062693369
 20
-9.4840110278
 10
-11.151785789
 20
-9.4849135233
  0
LWPOLYLINE
  5
2D3
100
AcDbEntity
  8
0
100
AcDbPolyline
 62
253
  6
CONTINUOUS
 90
24
 70
0
 10
1.0484010216
 20
-11.5637840911
 10
1.0469267605
 20
-11.5628246339
 10
1.0454304155
 20
-11.5618907435
 10
1.0439123824
 20
-11.560981971
 10
1.0423730573
 20
-11.5600978673
 10
1.040812836
 20
-11.5592379837
 10
1.0392321145
 20
-11.5584018711
 10
1.0376312889
 20
-11.5575890807
 10
1.0360107549
 20
-11.5567991636
 10
1.0343709087
 20
-11.5560316708
 10
1.0327121461
 20
-11.5552861533
 10
1.0310348631
 20
-11.5545621624
 10
1.0293394557
 20
-11.553859249
 10
1.0274696358
 20
-11.5531159316
 10
1.0255787579
 20
-11.5523964959
 10
1.0236668624
 20
-11.5517002741
 10
1.0217339897
 20
-11.551026598
 10
1.0197801802
 20
-11.5503747997
 10
1.0178054741
 20
-11.5497442112
 10
1.015809912
 20
-11.5491341645
 10
1.0137935342
 20
-11.5485439916
 10
1.0117563811
 20
-11.5479730245
 10
1.0096984931
 20
-11.5474205951
 10
1.0076199105
 20
-11.5468860356
  0
LINE
  5
2D4
100
AcDbEntity
  8
0
100
AcDbLine
 62
253
  6
CONTINUOUS
 10
0.4811696328
 20
-12.9577149241
 11
0.8852412994
 21
-13.3627743685
  0
LWPOLYLINE
  5
2D5
100
AcDbEntity
  8
0
100
AcDbPolyline
 62
253
  6
CONTINUOUS
 90
22
 70
0
 10
-1.7111364796
 20
12.8780508965
 10
-1.7102323293
 20
12.8800748858
 10
-1.7093109157
 20
12.8821016657
 10
-1.7083705049
 20
12.884130776
 10
-1.7074093629
 20
12.8861617565
 10
-1.7064257557
 20
12.8881941467
 10
-1.7054179493
 20
12.8902274865
 10
-1.7043842097
 20
12.8922613156
 10
-1.703322803
 20
12.8942951736
 10
-1.7022319951
 20
12.8963286002
 10
-1.7013935375
 20
12.8978530251
 10
-1.7005367502
 20
12.8993762436
 10
-1.6996608172
 20
12.9008975508
 10
-1.6987649223
 20
12.9024162419
 10
-1.6978482495
 20
12.9039316121
 10
-1.6969099825
 20
12.9054429564
 10
-1.6959493053
 20
12.90694957
 10
-1.6949654018
 20
12.908450748
 10
-1.6939574558
 20
12.9099457857
 10
-1.6929246512
 20
12.9114339781
 10
-1.6918661719
 20
12.9129146203
 10
-1.6907812018
 20
12.9143870076
  0
LWPOLYLINE
  5
2D6
100
AcDbEntity
  8
0
100
AcDbPolyline
 62
253
  6
CONTINUOUS
 90
53
 70
0
 10
0.2162649088
 20
13.0957147854
 10
0.2123692151
 20
13.090449271
 10
0.208674726
 20
13.0851058457
 10
0.2051688573
 20
13.0796730923
 10
0.2018390248
 20
13.0741395939
 10
0.1986726443
 20
13.0684939332
 10
0.1956598849
 20
13.062726848
 10
0.1928019273
 20
13.0568376948
 10
0.1901027055
 20
13.050827985
 10
0.1875661535
 20
13.0446992299
 10
0.1851962053
 20
13.0384529407
 10
0.1829972331
 20
13.0320917443
 10
0.1809753627
 20
13.0256227291
 10
0.1791371584
 20
13.0190540992
 10
0.1774891841
 20
13.0123940584
 10
0.1760380041
 20
13.0056508109
 10
0.1749836972
 20
12.9999760332
 10
0.1740740809
 20
12.9942673419
 10
0.1733126249
 20
12.9885429086
 10
0.1727023691
 20
12.9828158115
 10
0.1722446354
 20
12.9770787539
 10
0.171940316
 20
12.9713193454
 10
0.1717795699
 20
12.9643673278
 10
0.1718466108
 20
12.9573812012
 10
0.1721470241
 20
12.9503768839
 10
0.1726863956
 20
12.943370294
 10
0.1734703106
 20
12.9363773498
 10
0.1745020561
 20
12.9294134622
 10
0.1757757254
 20
12.9224920121
 10
0.1772831129
 20
12.9156258729
 10
0.1790160133
 20
12.9088279181
 10
0.1809662211
 20
12.9021110211
 10
0.1827527672
 20
12.8965815725
 10
0.184687538
 20
12.8911053574
 10
0.1867735484
 20
12.8856703793
 10
0.1890118276
 20
12.8802699158
 10
0.1913954616
 20
12.8749183419
 10
0.1939155505
 20
12.8696353069
 10
0.1971081958
 20
12.8634093908
 10
0.2004748352
 20
12.8573179515
 10
0.2040057835
 20
12.851368475
 10
0.2076913552
 20
12.8455684473
 10
0.211521865
 20
12.8399253544
 10
0.2154886009
 20
12.8344453494
 10
0.2195867429
 20
12.8291292537
 10
0.2238124446
 20
12.8239765558
 10
0.2281618591
 20
12.8189867442
 10
0.2326311399
 20
12.8141593074
 10
0.2372196813
 20
12.80949254
 10
0.2419398411
 20
12.8049799616
 10
0.2468072183
 20
12.8006138981
 10
0.2518374116
 20
12.7963866753
 10
0.2624665059
 20
12.7880363437
  0
LWPOLYLINE
  5
2D7
100
AcDbEntity
  8
0
100
AcDbPolyline
 62
253
  6
CONTINUOUS
 90
41
 70
0
 10
1.385229353
 20
11.1232989525
 10
1.4141620859
 20
11.1507521874
 10
1.4424939456
 20
11.1787356125
 10
1.4702318545
 20
11.2072534902
 10
1.4973827349
 20
11.2363100829
 10
1.5239535094
 20
11.2659096528
 10
1.5499470925
 20
11.296052954
 10
1.5753503674
 20
11.3267267064
 10
1.6001462096
 20
11.3579141217
 10
1.6243174944
 20
11.3895984114
 10
1.6478470972
 20
11.4217627873
 10
1.670718849
 20
11.4543915536
 10
1.6929204027
 20
11.4874733859
 10
1.7144403665
 20
11.5209980526
 10
1.7352673489
 20
11.5549553218
 10
1.7553899582
 20
11.589334962
 10
1.7747962968
 20
11.6241264239
 10
1.7934724435
 20
11.6593178883
 10
1.811403971
 20
11.6948972185
 10
1.828576452
 20
11.7308522776
 10
1.8449754594
 20
11.7671709291
 10
1.8605887885
 20
11.8038396858
 10
1.8754131248
 20
11.8408396589
 10
1.8894473768
 20
11.8781506094
 10
1.9026904526
 20
11.9157522983
 10
1.9151412605
 20
11.9536244864
 10
1.9267987526
 20
11.9917477215
 10
1.9376620568
 20
12.0301056985
 10
1.947730345
 20
12.0686828991
 10
1.957002789
 20
12.107463805
 10
1.9654785605
 20
12.146432898
 10
1.973156655
 20
12.1855729915
 10
1.9800353627
 20
12.224860226
 10
1.9861127975
 20
12.2642690739
 10
1.9913870732
 20
12.3037740074
 10
1.9958563036
 20
12.3433494988
 10
1.999518498
 20
12.3829756904
 10
2.0023712472
 20
12.4226554052
 10
2.0044120375
 20
12.4623971362
 10
2.0056383551
 20
12.5022093764
 10
2.0060476862
 20
12.5421006188
  0
LWPOLYLINE
  5
2D8
100
AcDbEntity
  8
0
100
AcDbPolyline
 62
253
  6
CONTINUOUS
 90
38
 70
0
 10
1.6809982418
 20
10.8062575637
 10
1.6777857616
 20
10.8032869554
 10
1.6745235955
 20
10.8004070005
 10
1.671208633
 20
10.7976125389
 10
1.6678377639
 20
10.7948984102
 10
1.6644078778
 20
10.7922594542
 10
1.6609158643
 20
10.7896905107
 10
1.6573595132
 20
10.787187496
 10
1.6537402152
 20
10.7847506332
 10
1.6500602612
 20
10.7823812218
 10
1.6463219421
 20
10.7800805614
 10
1.6425275487
 20
10.7778499517
 10
1.638679372
 20
10.7756906923
 10
1.6347795912
 20
10.7736039948
 10
1.6308299397
 20
10.7715907191
 10
1.626832039
 20
10.769651637
 10
1.6227875108
 20
10.7677875204
 10
1.6186979768
 20
10.7659991411
 10
1.6145650587
 20
10.7642872711
 10
1.6103903051
 20
10.762652788
 10
1.6061749725
 20
10.7610969933
 10
1.6019202446
 20
10.759621294
 10
1.5976273048
 20
10.7582270974
 10
1.5932973367
 20
10.7569158108
 10
1.5889315238
 20
10.7556888414
 10
1.5845313343
 20
10.7545476689
 10
1.5800993747
 20
10.7534940641
 10
1.5756385361
 20
10.7525298701
 10
1.5711517098
 20
10.7516569302
 10
1.5666417868
 20
10.7508770876
 10
1.5621116583
 20
10.7501921856
 10
1.5582138679
 20
10.7496822227
 10
1.5542995804
 20
10.7492453294
 10
1.5503650198
 20
10.7488834689
 10
1.5464064096
 20
10.7485986045
 10
1.5424199737
 20
10.7483926993
 10
1.5384019358
 20
10.7482677165
 10
1.5343485196
 20
10.7482256193
  0
LWPOLYLINE
  5
2D9
100
AcDbEntity
  8
0
100
AcDbPolyline
 62
253
  6
CONTINUOUS
 90
38
 70
0
 10
0.8230779642
 20
11.6979386746
 10
0.8397921607
 20
11.7133343603
 10
0.8561173935
 20
11.7290653345
 10
0.872063112
 20
11.7451265866
 10
0.8876387656
 20
11.761513106
 10
0.9028538034
 20
11.7782198822
 10
0.9177176749
 20
11.7952419046
 10
0.9351004521
 20
11.8160751646
 10
0.9519856838
 20
11.8373330841
 10
0.9683678971
 20
11.8589935834
 10
0.9842416191
 20
11.8810345826
 10
0.999601377
 20
11.9034340019
 10
1.0144424049
 20
11.9261715134
 10
1.0287627659
 20
11.9492337954
 10
1.0425612299
 20
11.9726092783
 10
1.0558365671
 20
11.9962863922
 10
1.0685875473
 20
12.0202535675
 10
1.0808120571
 20
12.0444992238
 10
1.0925044479
 20
12.0690117387
 10
1.1036581874
 20
12.0937794796
 10
1.1142667435
 20
12.1187908136
 10
1.124323584
 20
12.1440341078
 10
1.1338215258
 20
12.1694976713
 10
1.1427507821
 20
12.1951695798
 10
1.1511009155
 20
12.2210378512
 10
1.1588614883
 20
12.247090503
 10
1.1660220629
 20
12.2733155529
 10
1.1725716663
 20
12.2997002444
 10
1.1784971827
 20
12.3262287238
 10
1.183784961
 20
12.3528843632
 10
1.1884213499
 20
12.3796505348
 10
1.1923926983
 20
12.4065106107
 10
1.1951837481
 20
12.4289558873
 10
1.1974923351
 20
12.4514580677
 10
1.1993073103
 20
12.4740203914
 10
1.2006175248
 20
12.4966460981
 10
1.2014118294
 20
12.5193384274
 10
1.2016790752
 20
12.5421006188
  0
LWPOLYLINE
  5
2DA
100
AcDbEntity
  8
0
100
AcDbPolyline
 62
253
  6
CONTINUOUS
 90
37
 70
0
 10
1.1111562975
 20
11.3753939525
 10
1.1079645702
 20
11.3725184992
 10
1.1047248972
 20
11.3697328737
 10
1.1014344705
 20
11.3670321985
 10
1.0980904819
 20
11.364411596
 10
1.0946901233
 20
11.3618661883
 10
1.0912305866
 20
11.3593910981
 10
1.0877098951
 20
11.3569824328
 10
1.0841293977
 20
11.3546402413
 10
1.0804912748
 20
11.3523655577
 10
1.0767977067
 20
11.3501594162
 10
1.0730508739
 20
11.3480228508
 10
1.0692529566
 20
11.3459568957
 10
1.0654060567
 20
11.3439625193
 10
1.0615119625
 20
11.342040428
 10
1.0575723835
 20
11.3401912623
 10
1.0535890294
 20
11.3384156629
 10
1.04956361
 20
11.3367142705
 10
1.0454978348
 20
11.3350877257
 10
1.0413933588
 20
11.3335367567
 10
1.0372516174
 20
11.3320624424
 10
1.0330739913
 20
11.3306659489
 10
1.0288618613
 20
11.3293484427
 10
1.0246166081
 20
11.32811109
 10
1.0203396123
 20
11.3269550571
 10
1.0160324758
 20
11.3258815569
 10
1.0116976851
 20
11.3248919873
 10
1.0073379476
 20
11.323987793
 10
1.002955971
 20
11.3231704184
 10
0.9985544628
 20
11.322441308
 10
0.9941361306
 20
11.3218019065
 10
0.9897022592
 20
11.321253854
 10
0.985248442
 20
11.320799574
 10
0.9807688499
 20
11.3204416858
 10
0.9762576535
 20
11.3201828085
 10
0.9717090236
 20
11.3200255614
 10
0.9671171309
 20
11.3199725636
  0
LWPOLYLINE
  5
2DB
100
AcDbEntity
  8
0
100
AcDbPolyline
 62
253
  6
CONTINUOUS
 90
39
 70
0
 10
2.0414704658
 20
-11.8811782577
 10
2.0569468821
 20
-11.8932985401
 10
2.0720785758
 20
-11.905754808
 10
2.0868642481
 20
-11.9185596985
 10
2.1013026002
 20
-11.9317258486
 10
2.1153923333
 20
-11.9452658957
 10
2.126865012
 20
-11.9568417751
 10
2.1380848067
 20
-11.9686800396
 10
2.1490418321
 20
-11.9807746478
 10
2.1597262025
 20
-11.9931195583
 10
2.1701280327
 20
-12.0057087298
 10
2.1802374371
 20
-12.018536121
 10
2.1900462098
 20
-12.0315950954
 10
2.199552863
 20
-12.0448766369
 10
2.2087575881
 20
-12.058371134
 10
2.2176605769
 20
-12.0720689755
 10
2.2262620209
 20
-12.0859605499
 10
2.2345621118
 20
-12.1000362461
 10
2.2441241151
 20
-12.1171574205
 10
2.2532492396
 20
-12.1345182681
 10
2.2619342795
 20
-12.1521071674
 10
2.2701760286
 20
-12.1699124967
 10
2.2779712809
 20
-12.1879226344
 10
2.2853164225
 20
-12.2061261781
 10
2.2922062081
 20
-12.2245126019
 10
2.2986349848
 20
-12.2430715996
 10
2.3045970994
 20
-12.2617928644
 10
2.3100868988
 20
-12.2806660901
 10
2.3150982419
 20
-12.2996799654
 10
2.3196230345
 20
-12.3188191611
 10
2.3236526941
 20
-12.3380673432
 10
2.3271786386
 20
-12.3574081779
 10
2.3301922854
 20
-12.3768253311
 10
2.3323057962
 20
-12.3930549103
 10
2.3340506293
 20
-12.4093293138
 10
2.3354198294
 20
-12.4256517098
 10
2.336406441
 20
-12.4420252666
 10
2.3370035086
 20
-12.4584531523
 10
2.3372040768
 20
-12.4749385353
  0
LWPOLYLINE
  5
2DC
100
AcDbEntity
  8
0
100
AcDbPolyline
 62
253
  6
CONTINUOUS
 90
52
 70
0
 10
1.7737440893
 20
-12.2210494111
 10
1.7687641967
 20
-12.2168687597
 10
1.7639431018
 20
-12.2125516992
 10
1.7592656183
 20
-12.2080905696
 10
1.7547165601
 20
-12.2034777112
 10
1.7502839676
 20
-12.1987068109
 10
1.7459687877
 20
-12.1937769439
 10
1.741775194
 20
-12.1886885321
 10
1.7377073602
 20
-12.1834419977
 10
1.7337694599
 20
-12.1780377626
 10
1.7299663875
 20
-12.1724772165
 10
1.7263059205
 20
-12.1667656197
 10
1.7227965572
 20
-12.1609091999
 10
1.719446796
 20
-12.1549141851
 10
1.7162651351
 20
-12.1487868029
 10
1.7137488315
 20
-12.1435862144
 10
1.7113633198
 20
-12.1383147375
 10
1.7091167536
 20
-12.1329890806
 10
1.7070155173
 20
-12.1276211346
 10
1.7050589177
 20
-12.1222035204
 10
1.7032444917
 20
-12.1167240414
 10
1.7012536867
 20
-12.1100556622
 10
1.6994736368
 20
-12.10329454
 10
1.6979139134
 20
-12.0964545801
 10
1.696584088
 20
-12.0895496879
 10
1.6954937319
 20
-12.0825937688
 10
1.6946500748
 20
-12.0756008474
 10
1.6940509792
 20
-12.0685854246
 10
1.6936919659
 20
-12.0615621203
 10
1.6935685557
 20
-12.0545455546
 10
1.6936762691
 20
-12.0475503473
 10
1.6939397387
 20
-12.0417443948
 10
1.6943603304
 20
-12.0359510314
 10
1.6949377741
 20
-12.0301578611
 10
1.6956712791
 20
-12.0243581137
 10
1.696557971
 20
-12.0185675231
 10
1.6975944548
 20
-12.0128074492
 10
1.6990309264
 20
-12.0059611984
 10
1.7006708206
 20
-11.999199448
 10
1.7025067491
 20
-11.9925319963
 10
1.7045313234
 20
-11.9859686417
 10
1.7067371551
 20
-11.9795191824
 10
1.7091174471
 20
-11.9731918636
 10
1.7116677672
 20
-11.9669887163
 10
1.7143842746
 20
-11.9609102187
 10
1.7172631284
 20
-11.9549568485
 10
1.7203004876
 20
-11.9491290837
 10
1.7234953206
 20
-11.9434254087
 10
1.7268578322
 20
-11.9378363333
 10
1.7304010362
 20
-11.9323503739
 10
1.7341379465
 20
-11.926956047
 10
1.738081577
 20
-11.9216418688
  0
LWPOLYLINE
  5
2DD
100
AcDbEntity
  8
0
100
AcDbPolyline
 62
253
  6
CONTINUOUS
 90
3
 70
0
 10
1.0540943415
 20
-11.5694067562
 10
1.0512667845
 20
-11.5665990754
 10
1.0484010216
 20
-11.5637840911
  0
LINE
  5
2DE
100
AcDbEntity
  8
0
100
AcDbLine
 62
253
  6
CONTINUOUS
 10
1.0596131104
 20
-11.5749621171
 11
1.0540943415
 21
-11.5694067562
  0
LINE
  5
2DF
100
AcDbEntity
  8
0
100
AcDbLine
 62
253
  6
CONTINUOUS
 10
1.0649541967
 20
-11.5804175835
 11
1.0596131104
 21
-11.5749621171
  0
LINE
  5
2E0
100
AcDbEntity
  8
0
100
AcDbLine
 62
253
  6
CONTINUOUS
 10
-0.1497818211
 20
-12.8628251539
 11
-0.1473039781
 21
-12.8659574241
  0
LINE
  5
2E1
100
AcDbEntity
  8
0
100
AcDbLine
 62
253
  6
CONTINUOUS
 10
-0.1546307709
 20
-12.8566150602
 11
-0.1497818211
 21
-12.8628251539
  0
LINE
  5
2E2
100
AcDbEntity
  8
0
100
AcDbLine
 62
253
  6
CONTINUOUS
 10
-0.1728125498
 20
-12.8330554831
 11
-0.1661447025
 21
-12.8416644257
  0
LINE
  5
2E3
100
AcDbEntity
  8
0
100
AcDbLine
 62
253
  6
CONTINUOUS
 10
-0.1661447025
 20
-12.8416644257
 11
-0.1546307709
 21
-12.8566150602
  0
LWPOLYLINE
  5
2E4
100
AcDbEntity
  8
0
100
AcDbPolyline
 62
253
  6
CONTINUOUS
 90
53
 70
0
 10
1.738081577
 20
-13.0284821463
 10
1.7341668317
 20
-13.0231762222
 10
1.7304554043
 20
-13.0177930507
 10
1.7269346063
 20
-13.0123212098
 10
1.723591749
 20
-13.0067492779
 10
1.7204141437
 20
-13.0010658331
 10
1.7173918655
 20
-12.9952616019
 10
1.7145260439
 20
-12.9893359038
 10
1.7118205721
 20
-12.9832902064
 10
1.7092793433
 20
-12.9771259774
 10
1.7069062506
 20
-12.9708446846
 10
1.704705638
 20
-12.9644489474
 10
1.7026836516
 20
-12.9579459931
 10
1.7008468884
 20
-12.9513442007
 10
1.6992019455
 20
-12.9446519491
 10
1.6977554196
 20
-12.9378776174
 10
1.6967062427
 20
-12.9321779658
 10
1.6958028546
 20
-12.9264456609
 10
1.6950486731
 20
-12.9206992308
 10
1.6944466817
 20
-12.9149520529
 10
1.6939981264
 20
-12.9091969025
 10
1.6937038191
 20
-12.9034214043
 10
1.693556056
 20
-12.8964527078
 10
1.6936369147
 20
-12.8894526144
 10
1.6939517311
 20
-12.8824368482
 10
1.694505841
 20
-12.8754211337
 10
1.6953045803
 20
-12.8684211949
 10
1.6963509893
 20
-12.8614523
 10
1.6976389253
 20
-12.8545278926
 10
1.6991599496
 20
-12.8476609602
 10
1.700905624
 20
-12.8408644902
 10
1.7028675099
 20
-12.83415147
 10
1.7046628001
 20
-12.8286271475
 10
1.7066053636
 20
-12.8231577798
 10
1.7086981869
 20
-12.8177313513
 10
1.7109422764
 20
-12.8123410916
 10
1.7133307196
 20
-12.8070012103
 10
1.7158546241
 20
-12.8017311623
 10
1.7190505511
 20
-12.7955223076
 10
1.7224190914
 20
-12.7894494295
 10
1.7259505992
 20
-12.7835199296
 10
1.7296354289
 20
-12.7777412097
 10
1.7334639347
 20
-12.7721206717
 10
1.7374274358
 20
-12.7666643975
 10
1.7415211109
 20
-12.7613731905
 10
1.7457411036
 20
-12.7562465345
 10
1.7500835576
 20
-12.7512839133
 10
1.7545446165
 20
-12.7464848105
 10
1.7591236555
 20
-12.7418475238
 10
1.7638329765
 20
-12.7373656073
 10
1.7686881129
 20
-12.7330314288
 10
1.7737045982
 20
-12.7288373562
 10
1.7788979658
 20
-12.7247757575
  0
LWPOLYLINE
  5
2E5
100
AcDbEntity
  8
0
100
AcDbPolyline
 62
253
  6
CONTINUOUS
 90
32
 70
0
 10
-2.5528250886
 20
-13.1977096463
 10
-2.5615941206
 20
-13.1620735115
 10
-2.569648584
 20
-13.1263053735
 10
-2.5770172715
 20
-13.0904074848
 10
-2.5837289759
 20
-13.0543820977
 10
-2.5898124896
 20
-13.0182314647
 10
-2.5965768958
 20
-12.9728768892
 10
-2.6024582364
 20
-12.9273730055
 10
-2.6075100053
 20
-12.8817626824
 10
-2.611785696
 20
-12.8360887893
 10
-2.6153396266
 20
-12.7903868631
 10
-2.6182294116
 20
-12.7446631121
 10
-2.6205134898
 20
-12.6989164127
 10
-2.6222503001
 20
-12.6531456413
 10
-2.6238131396
 20
-12.5920826436
 10
-2.6246298281
 20
-12.5309967015
 10
-2.624823244
 20
-12.4699096632
 10
-2.6244750268
 20
-12.4088418511
 10
-2.6235018602
 20
-12.3478074842
 10
-2.6217791888
 20
-12.2868192561
 10
-2.6199199402
 20
-12.2411143667
 10
-2.6175137572
 20
-12.1954381303
 10
-2.6145053645
 20
-12.1497861064
 10
-2.6108394865
 20
-12.104153855
 10
-2.6064615063
 20
-12.0585448112
 10
-2.6013194409
 20
-12.0129939118
 10
-2.5953619659
 20
-11.9675439689
 10
-2.5885377567
 20
-11.9222377946
 10
-2.5807950628
 20
-11.8771116751
 10
-2.5720804284
 20
-11.8321757932
 10
-2.5623399717
 20
-11.7874338055
 10
-2.5515198109
 20
-11.7428893689
  0
LWPOLYLINE
  5
2E6
100
AcDbEntity
  8
0
100
AcDbPolyline
 62
253
  6
CONTINUOUS
 90
47
 70
0
 10
-2.9773225885
 20
-13.288232424
 10
-2.9732143952
 20
-13.3097526479
 10
-2.9684608446
 20
-13.3310243161
 10
-2.9630729914
 20
-13.3520563924
 10
-2.9570618907
 20
-13.3728578403
 10
-2.9504385972
 20
-13.3934376235
 10
-2.9432141658
 20
-13.4138047056
 10
-2.9353996513
 20
-13.4339680501
 10
-2.9270068712
 20
-13.4539321047
 10
-2.9180506937
 20
-13.4736832524
 10
-2.9085467494
 20
-13.4932033602
 10
-2.8985106692
 20
-13.5124742951
 10
-2.8879580837
 20
-13.5314779241
 10
-2.8769046238
 20
-13.5501961142
 10
-2.8653659202
 20
-13.5686107324
 10
-2.8513099264
 20
-13.5896894581
 10
-2.8366291669
 20
-13.6103187754
 10
-2.8213380714
 20
-13.630487152
 10
-2.8054510696
 20
-13.6501830558
 10
-2.7889825912
 20
-13.6693949543
 10
-2.7719470659
 20
-13.6881113155
 10
-2.7543596574
 20
-13.7063197599
 10
-2.7362384654
 20
-13.7240045206
 10
-2.7176023237
 20
-13.7411489831
 10
-2.6984700658
 20
-13.7577365334
 10
-2.6788605257
 20
-13.7737505572
 10
-2.6587925368
 20
-13.7891744404
 10
-2.6382834744
 20
-13.8039922012
 10
-2.6173448783
 20
-13.8181903877
 10
-2.59598683
 20
-13.8317561805
 10
-2.5742194108
 20
-13.8446767602
 10
-2.552052702
 20
-13.8569393073
 10
-2.5294967851
 20
-13.8685310025
 10
-2.5098637629
 20
-13.8779218882
 10
-2.4899750895
 20
-13.8867952579
 10
-2.4698536557
 20
-13.8951358851
 10
-2.4495223524
 20
-13.902928543
 10
-2.4290040705
 20
-13.9101580048
 10
-2.408321701
 20
-13.9168090438
 10
-2.3874981348
 20
-13.9228664334
 10
-2.3665510086
 20
-13.9283155507
 10
-2.3454769434
 20
-13.9331441889
 10
-2.3242673057
 20
-13.9373407451
 10
-2.3029134625
 20
-13.9408936162
 10
-2.2814067804
 20
-13.9437911995
 10
-2.2597386261
 20
-13.9460218919
 10
-2.2379003665
 20
-13.9475740905
  0
LWPOLYLINE
  5
2E7
100
AcDbEntity
  8
ASSI
100
AcDbPolyline
 62
253
  6
CONTINUOUS
 90
13
 70
0
 10
-10.909653404
 20
-22.0438515026
 10
-10.909234541
 20
-22.0423067292
 10
-10.908816934
 20
-22.0401868955
 10
-10.9084005829
 20
-22.0374932317
 10
-10.9079852537
 20
-22.0342273052
 10
-10.9075711805
 20
-22.0303910028
 10
-10.9071590658
 20
-22.0259865206
 10
-10.9067489049
 20
-22.0210163807
 10
-10.9063407026
 20
-22.0154834615
 10
-10.9059351747
 20
-22.0093909814
 10
-10.905532331
 20
-22.002742475
 10
-10.9051321619
 20
-21.9955417707
 10
-10.904341913
 20
-21.9795006667
  0
LWPOLYLINE
  5
2E8
100
AcDbEntity
  8
0
100
AcDbPolyline
 62
253
  6
CONTINUOUS
 90
27
 70
0
 10
-0.4198287021
 20
11.6998083968
 10
-0.4202765772
 20
11.6983793232
 10
-0.4207494229
 20
11.6969656012
 10
-0.4212461828
 20
11.695567014
 10
-0.4217658006
 20
11.694183345
 10
-0.4223072201
 20
11.6928143773
 10
-0.4228693849
 20
11.6914598942
 10
-0.4234512386
 20
11.6901196789
 10
-0.424051725
 20
11.6887935147
 10
-0.4246697878
 20
11.6874811847
 10
-0.4253043705
 20
11.6861824721
 10
-0.4259544169
 20
11.6848971604
 10
-0.4266188708
 20
11.6836250325
 10
-0.4272966756
 20
11.6823658719
 10
-0.4279867752
 20
11.6811194616
 10
-0.4286881132
 20
11.679885585
 10
-0.4296609457
 20
11.6782226987
 10
-0.4306515906
 20
11.676581359
 10
-0.4316589271
 20
11.6749602094
 10
-0.4326818338
 20
11.6733578933
 10
-0.4337191899
 20
11.6717730541
 10
-0.4347698742
 20
11.6702043351
 10
-0.4358327655
 20
11.6686503798
 10
-0.4369067429
 20
11.6671098316
 10
-0.4379906851
 20
11.6655813339
 10
-0.4390834711
 20
11.6640635301
 10
-0.4401839799
 20
11.6625550635
  0
LINE
  5
2E9
100
AcDbEntity
  8
ASSI
100
AcDbLine
 62
253
  6
CONTINUOUS
 10
10.2350986693
 20
22.2213302099
 11
10.1342871322
 21
22.0700360412
  0
LINE
  5
2EA
100
AcDbEntity
  8
ASSI
100
AcDbLine
 62
253
  6
CONTINUOUS
 10
10.1342871322
 20
-22.0438515026
 11
10.2350986693
 21
-22.1951456712
  0
LWPOLYLINE
  5
2EB
100
AcDbEntity
  8
0
100
AcDbPolyline
 62
253
  6
CONTINUOUS
 90
32
 70
0
 10
-1.4258764778
 20
-11.7492746466
 10
-1.4171158926
 20
-11.7849385597
 10
-1.409068731
 20
-11.8207322813
 10
-1.4017062268
 20
-11.8566534508
 10
-1.3949996137
 20
-11.8926997077
 10
-1.3889201255
 20
-11.9288686915
 10
-1.3821592935
 20
-11.9742426316
 10
-1.3762799569
 20
-12.019762364
 10
-1.3712286753
 20
-12.0653856088
 10
-1.3669520085
 20
-12.1110700861
 10
-1.3633957287
 20
-12.1567807873
 10
-1.3605024569
 20
-12.2025117906
 10
-1.3582140263
 20
-12.2482644456
 10
-1.3564722705
 20
-12.294040102
 10
-1.3549023341
 20
-12.3551083952
 10
-1.3540783215
 20
-12.416199011
 10
-1.3538776974
 20
-12.477290981
 10
-1.3542191151
 20
-12.5383646794
 10
-1.35518598
 20
-12.5994058488
 10
-1.3569028857
 20
-12.6604015739
 10
-1.3587582096
 20
-12.7061124215
 10
-1.3611609542
 20
-12.7517948692
 10
-1.3641665586
 20
-12.7974533441
 10
-1.3678304616
 20
-12.8430922735
 10
-1.3722074397
 20
-12.8887081988
 10
-1.3773496198
 20
-12.9342661182
 10
-1.3833084663
 20
-12.9797231438
 10
-1.3901354435
 20
-13.025036388
 10
-1.3978824504
 20
-13.0701695042
 10
-1.4066031239
 20
-13.1151123098
 10
-1.4163515352
 20
-13.1598611636
 10
-1.4271817556
 20
-13.204412424
  0
LINE
  5
2EC
100
AcDbEntity
  8
0
100
AcDbLine
 62
253
  6
CONTINUOUS
 10
-3.0471412015
 20
11.2829661747
 11
-3.0471412015
 21
13.8032106478
  0
LINE
  5
2ED
100
AcDbEntity
  8
0
100
AcDbLine
 62
253
  6
CONTINUOUS
 10
-2.613683146
 20
13.8032106185
 11
-2.613683146
 21
11.2829661454
  0
LWPOLYLINE
  5
2EE
100
AcDbEntity
  8
0
100
AcDbPolyline
 62
253
  6
CONTINUOUS
 90
55
 70
0
 10
-3.0471412015
 20
13.8032106185
 10
-3.0470625614
 20
13.8077233966
 10
-3.0468292776
 20
13.8121804303
 10
-3.0464453049
 20
13.8165936639
 10
-3.045914598
 20
13.8209750416
 10
-3.0452411116
 20
13.8253365077
 10
-3.0444288006
 20
13.8296900065
 10
-3.0432751418
 20
13.8349160862
 10
-3.0419268727
 20
13.8401420146
 10
-3.0403835957
 20
13.8453619135
 10
-3.0386449134
 20
13.8505699049
 10
-3.0367104282
 20
13.8557601106
 10
-3.034580312
 20
13.8609256012
 10
-3.032257014
 20
13.8660552422
 10
-3.0297435531
 20
13.8711368479
 10
-3.027042948
 20
13.8761582327
 10
-3.0241582175
 20
13.8811072107
 10
-3.0216158375
 20
13.8851673075
 10
-3.0189496499
 20
13.8891619109
 10
-3.0161616153
 20
13.8930842722
 10
-3.0132536947
 20
13.8969276428
 10
-3.0102278488
 20
13.900685274
 10
-3.0070860384
 20
13.9043504172
 10
-3.0038286995
 20
13.9079174191
 10
-3.0004501683
 20
13.9113850079
 10
-2.9969432563
 20
13.9147530076
 10
-2.9933028314
 20
13.9180186372
 10
-2.9895319879
 20
13.9211686978
 10
-2.9856358768
 20
13.9241873861
 10
-2.981620242
 20
13.9270610935
 10
-2.9774931998
 20
13.9297849912
 10
-2.9732634596
 20
13.9323564451
 10
-2.9689385339
 20
13.9347741673
 10
-2.9645211467
 20
13.9370422531
 10
-2.9600128254
 20
13.9391661437
 10
-2.9554149467
 20
13.9411510253
 10
-2.9507282869
 20
13.9430010629
 10
-2.9459534719
 20
13.9447201663
 10
-2.9410911277
 20
13.9463122455
 10
-2.9361418803
 20
13.9477812104
 10
-2.9311063557
 20
13.9491309708
 10
-2.9249527804
 20
13.9505988192
 10
-2.9186893025
 20
13.9519072841
 10
-2.9123293574
 20
13.9530630064
 10
-2.9058863804
 20
13.9540726268
 10
-2.8993738068
 20
13.9549427861
 10
-2.8920682879
 20
13.9557550262
 10
-2.8846876151
 20
13.9564177092
 10
-2.8772259697
 20
13.9569452539
 10
-2.8696775326
 20
13.9573520789
 10
-2.8620364851
 20
13.957652603
 10
-2.8542970082
 20
13.9578612447
 10
-2.8464532831
 20
13.9579924228
 10
-2.8384994909
 20
13.958060556
 10
-2.8304298126
 20
13.9580800629
  0
LWPOLYLINE
  5
2EF
100
AcDbEntity
  8
0
100
AcDbPolyline
 62
253
  6
CONTINUOUS
 90
55
 70
0
 10
-2.613683146
 20
11.2829661747
 10
-2.6137623778
 20
11.2784486659
 10
-2.6139973818
 20
11.2739875809
 10
-2.6143841206
 20
11.2695709468
 10
-2.614918557
 20
11.2651867907
 10
-2.6155966536
 20
11.2608231398
 10
-2.6164143731
 20
11.2564680212
 10
-2.6175754667
 20
11.2512407178
 10
-2.6189321019
 20
11.2460143748
 10
-2.6204845772
 20
11.2407949068
 10
-2.6222331906
 20
11.2355882287
 10
-2.6241782407
 20
11.2304002552
 10
-2.6263194567
 20
11.2252379417
 10
-2.6286542915
 20
11.2201124063
 10
-2.6311796293
 20
11.2150358078
 10
-2.633892354
 20
11.2100203048
 10
-2.6367893495
 20
11.2050780563
 10
-2.6393419822
 20
11.2010242028
 10
-2.6420183456
 20
11.1970364412
 10
-2.6448163681
 20
11.1931215489
 10
-2.6477339784
 20
11.189286303
 10
-2.650769105
 20
11.1855374808
 10
-2.6539196766
 20
11.1818818595
 10
-2.6571851579
 20
11.1783251095
 10
-2.6605711582
 20
11.1748684726
 10
-2.6640848229
 20
11.1715120839
 10
-2.6677312392
 20
11.168258662
 10
-2.6715072623
 20
11.1651212603
 10
-2.675407689
 20
11.1621155159
 10
-2.6794267381
 20
11.159254858
 10
-2.6835563153
 20
11.1565438839
 10
-2.6877877479
 20
11.1539849828
 10
-2.6921135464
 20
11.1515792501
 10
-2.6965309536
 20
11.149322606
 10
-2.701038395
 20
11.1472096767
 10
-2.7056344617
 20
11.1452353286
 10
-2.7103184046
 20
11.1433953875
 10
-2.71508964
 20
11.1416859192
 10
-2.719947584
 20
11.1401029895
 10
-2.7248916529
 20
11.1386426641
 10
-2.7299212628
 20
11.137301009
 10
-2.7360668437
 20
11.1358421571
 10
-2.7423214951
 20
11.1345419
 10
-2.7486719489
 20
11.1333936129
 10
-2.7551049374
 20
11.1323906708
 10
-2.7616071924
 20
11.1315264486
 10
-2.7689010122
 20
11.1307199596
 10
-2.7762697113
 20
11.1300621783
 10
-2.7837190347
 20
11.1295387322
 10
-2.7912547276
 20
11.1291352487
 10
-2.7988825351
 20
11.1288373552
 10
-2.8066082022
 20
11.1286306792
 10
-2.8144374741
 20
11.1285008481
 10
-2.8223760959
 20
11.1284334893
 10
-2.8304298126
 20
11.1284142303
  0
LINE
  5
2F0
100
AcDbEntity
  8
0
100
AcDbLine
 62
253
  6
CONTINUOUS
 10
-1.7175570351
 20
12.8305317299
 11
-1.7111364796
 21
12.8780508965
  0
LINE
  5
2F1
100
AcDbEntity
  8
0
100
AcDbLine
 62
253
  6
CONTINUOUS
 10
-0.4122087021
 20
11.7476803413
 11
-0.4198287021
 21
11.6998083968
  0
LINE
  5
2F2
100
AcDbEntity
  8
ASSI
100
AcDbLine
 62
253
  6
CONTINUOUS
 10
10.7360095547
 20
21.7238395771
 11
10.6339825457
 21
21.5707212739
  0
LINE
  5
2F3
100
AcDbEntity
  8
ASSI
100
AcDbLine
 62
253
  6
CONTINUOUS
 10
10.7623168641
 20
-0.3368411094
 11
10.5801250378
 21
-0.3823717207
  0
LINE
  5
2F4
100
AcDbEntity
  8
ASSI
100
AcDbLine
 62
253
  6
CONTINUOUS
 10
10.5122406623
 20
-0.0869077307
 11
10.3302772641
 21
-0.1323812567
  0
LWPOLYLINE
  5
2F5
100
AcDbEntity
  8
ASSI
100
AcDbPolyline
 62
253
  6
CONTINUOUS
 90
8
 70
0
 10
10.3302772641
 20
-0.1323812567
 10
10.3299272127
 20
-0.1324433044
 10
10.3293764812
 20
-0.1325051436
 10
10.3286250696
 20
-0.1325667743
 10
10.3276720429
 20
-0.1326282468
 10
10.3265183362
 20
-0.1326895108
 10
10.3251667548
 20
-0.132750415
 10
10.3236168205
 20
-0.1328109578
  0
LWPOLYLINE
  5
2F6
100
AcDbEntity
  8
ASSI
100
AcDbPolyline
 62
253
  6
CONTINUOUS
 90
6
 70
0
 10
10.5801250378
 20
-0.3823717283
 10
10.5794267441
 20
-0.382439414
 10
10.5783248053
 20
-0.3825068934
 10
10.5768201124
 20
-0.3825741575
 10
10.5749138869
 20
-0.3826412412
 10
10.5726076679
 20
-0.3827080913
  0
LINE
  5
2F7
100
AcDbEntity
  8
ASSI
100
AcDbLine
 62
253
  6
CONTINUOUS
 10
-11.3554913096
 20
-0.3823717207
 11
-11.5376831359
 21
-0.3368411094
  0
LINE
  5
2F8
100
AcDbEntity
  8
ASSI
100
AcDbLine
 62
253
  6
CONTINUOUS
 10
-11.105643536
 20
-0.1323812567
 11
-11.2876069342
 21
-0.0869077307
  0
LINE
  5
2F9
100
AcDbEntity
  8
ASSI
100
AcDbLine
 62
253
  6
CONTINUOUS
 10
10.6339825457
 20
-21.5445367352
 11
10.7360095547
 21
-21.6976550384
  0
LWPOLYLINE
  5
2FA
100
AcDbEntity
  8
0
100
AcDbPolyline
 62
253
  6
CONTINUOUS
 90
47
 70
0
 10
-1.0026842557
 20
-11.6587518689
 10
-1.0067748258
 20
-11.6373004114
 10
-1.0115083777
 20
-11.6160963454
 10
-1.0168737699
 20
-11.5951308124
 10
-1.022859861
 20
-11.5743949542
 10
-1.0294555096
 20
-11.5538799123
 10
-1.0366495741
 20
-11.5335768283
 10
-1.0444309132
 20
-11.5134768439
 10
-1.052787615
 20
-11.4935755441
 10
-1.0617046859
 20
-11.4738862873
 10
-1.071166362
 20
-11.4544268753
 10
-1.0811568793
 20
-11.4352151101
 10
-1.0916604739
 20
-11.4162687935
 10
-1.1026613819
 20
-11.3976057273
 10
-1.1141438392
 20
-11.3792437134
 10
-1.1281293629
 20
-11.3582226728
 10
-1.1427342159
 20
-11.3376462742
 10
-1.1579437418
 20
-11.3175251634
 10
-1.1737432842
 20
-11.2978699865
 10
-1.1901181866
 20
-11.2786913895
 10
-1.2070537928
 20
-11.2600000184
 10
-1.2245348124
 20
-11.2418075012
 10
-1.2425434199
 20
-11.2241293942
 10
-1.2610611561
 20
-11.2069822357
 10
-1.2800695615
 20
-11.1903825641
 10
-1.299550177
 20
-11.1743469178
 10
-1.3194845432
 20
-11.1588918351
 10
-1.3398558298
 20
-11.1440333821
 10
-1.3606537229
 20
-11.1297857369
 10
-1.3818695377
 20
-11.1161626053
 10
-1.4034945893
 20
-11.103177693
 10
-1.425520193
 20
-11.0908447059
 10
-1.4479376639
 20
-11.0791773498
 10
-1.4674550462
 20
-11.0697182072
 10
-1.4872310585
 20
-11.0607744276
 10
-1.507242809
 20
-11.0523622693
 10
-1.527467406
 20
-11.0444979906
 10
-1.5478819577
 20
-11.0371978499
 10
-1.5684635723
 20
-11.0304781055
 10
-1.589189358
 20
-11.0243550158
 10
-1.6100416912
 20
-11.0188441808
 10
-1.6310240195
 20
-11.0139585678
 10
-1.652145059
 20
-11.0097104857
 10
-1.6734135254
 20
-11.0061122436
 10
-1.6948381345
 20
-11.0031761504
 10
-1.7164276022
 20
-11.0009145151
 10
-1.7381906444
 20
-10.9993396468
  0
LINE
  5
2FB
100
AcDbEntity
  8
0
100
AcDbLine
 62
253
  6
CONTINUOUS
 10
-0.1970456448
 20
-12.1868249243
 11
-0.191930367
 21
-12.7951902019
  0
LINE
  5
2FC
100
AcDbEntity
  8
0
100
AcDbLine
 62
253
  6
CONTINUOUS
 10
-1.7137117574
 20
12.2211786745
 11
-1.7175570351
 21
12.8305317299
  0
LINE
  5
2FD
100
AcDbEntity
  8
0
100
AcDbLine
 62
253
  6
CONTINUOUS
 10
-0.4122087021
 20
13.3426945075
 11
-0.4122087021
 21
11.7476803687
  0
LWPOLYLINE
  5
2FE
100
AcDbEntity
  8
0
100
AcDbPolyline
 62
253
  6
CONTINUOUS
 90
51
 70
0
 10
-2.5515198109
 20
-11.7428893689
 10
-2.5497965503
 20
-11.733593201
 10
-2.5477531111
 20
-11.7243893407
 10
-2.5453949144
 20
-11.7152619091
 10
-2.5427273812
 20
-11.7061950272
 10
-2.5397559324
 20
-11.6971728161
 10
-2.5364850138
 20
-11.6881819512
 10
-2.5329151687
 20
-11.6792193243
 10
-2.5290459654
 20
-11.6702843816
 10
-2.5248769721
 20
-11.6613765694
 10
-2.5204077567
 20
-11.6524953338
 10
-2.5156398229
 20
-11.6436431048
 10
-2.5105824162
 20
-11.6348342476
 10
-2.5052467175
 20
-11.6260861115
 10
-2.4996439079
 20
-11.6174160456
 10
-2.4937851682
 20
-11.6088413991
 10
-2.487681243
 20
-11.6003778488
 10
-2.4813411306
 20
-11.5920343826
 10
-2.4747733929
 20
-11.5838183161
 10
-2.4679865918
 20
-11.575736965
 10
-2.4609892893
 20
-11.5677976448
 10
-2.4537901445
 20
-11.5600077814
 10
-2.4463982058
 20
-11.5523752417
 10
-2.4388226189
 20
-11.5449080027
 10
-2.4310725294
 20
-11.5376140414
 10
-2.423157083
 20
-11.530501335
 10
-2.4150853806
 20
-11.5235776459
 10
-2.4068663443
 20
-11.5168498783
 10
-2.3985088515
 20
-11.5103247218
 10
-2.3900217796
 20
-11.5040088658
 10
-2.3814140059
 20
-11.497909
 10
-2.3726945518
 20
-11.4920319099
 10
-2.3638730144
 20
-11.4863847656
 10
-2.3549591349
 20
-11.4809748329
 10
-2.3459626544
 20
-11.4758093778
 10
-2.3368933141
 20
-11.4708956663
 10
-2.3277627239
 20
-11.4662410358
 10
-2.3185899691
 20
-11.4618531087
 10
-2.3093960038
 20
-11.4577395789
 10
-2.300201782
 20
-11.4539081402
 10
-2.2910282579
 20
-11.4503664865
 10
-2.2818925689
 20
-11.4471204725
 10
-2.2727965865
 20
-11.4441685963
 10
-2.2637383655
 20
-11.441507517
 10
-2.2547159605
 20
-11.4391338935
 10
-2.2457274265
 20
-11.437044385
 10
-2.2367687366
 20
-11.4352368589
 10
-2.2278275374
 20
-11.4337140172
 10
-2.2188893938
 20
-11.4324797702
 10
-2.2099398707
 20
-11.4315380284
 10
-2.2009645332
 20
-11.4308927023
  0
LWPOLYLINE
  5
2FF
100
AcDbEntity
  8
ASSI
100
AcDbPolyline
 62
253
  6
CONTINUOUS
 90
19
 70
0
 10
10.6339825457
 20
21.5707212739
 10
10.6335637843
 20
21.5699478824
 10
10.6331462488
 20
21.5688884176
 10
10.632729939
 20
21.5675428795
 10
10.6323146088
 20
21.5659101502
 10
10.6319005045
 20
21.5639913477
 10
10.6314883645
 20
21.561789825
 10
10.6310781995
 20
21.5593051009
 10
10.6306699989
 20
21.5565376568
 10
10.6302644702
 20
21.5534922894
 10
10.6298616189
 20
21.5501685222
 10
10.6294614395
 20
21.5465668317
 10
10.6290646229
 20
21.5426934454
 10
10.6286711746
 20
21.5385478905
 10
10.6282810891
 20
21.5341306398
 10
10.627895041
 20
21.5294493383
 10
10.6275130373
 20
21.5245035287
 10
10.6271350711
 20
21.5192936684
 10
10.6263932194
 20
21.5081084061
  0
LINE
  5
300
100
AcDbEntity
  8
ASSI
100
AcDbLine
 62
7
  6
CONTINUOUS
 10
8.1247828547
 20
-0.0869077307
 11
7.8623168641
 21
-0.113088334
  0
LINE
  5
301
100
AcDbEntity
  8
ASSI
100
AcDbLine
 62
253
  6
CONTINUOUS
 10
10.3236168205
 20
-0.1328109578
 11
10.3199275674
 21
-0.1329308177
  0
LINE
  5
302
100
AcDbEntity
  8
ASSI
100
AcDbLine
 62
253
  6
CONTINUOUS
 10
10.3199275674
 20
-0.1329308177
 11
10.315462839
 21
-0.1330486509
  0
LINE
  5
303
100
AcDbEntity
  8
ASSI
100
AcDbLine
 62
253
  6
CONTINUOUS
 10
10.5726076679
 20
-0.3827080913
 11
10.5668029607
 21
-0.3828406577
  0
LINE
  5
304
100
AcDbEntity
  8
ASSI
100
AcDbLine
 62
253
  6
CONTINUOUS
 10
10.315462839
 20
-0.1330486509
 11
10.3073464315
 21
-0.1332207504
  0
LINE
  5
305
100
AcDbEntity
  8
ASSI
100
AcDbLine
 62
253
  6
CONTINUOUS
 10
10.5668029607
 20
-0.3828406577
 11
10.5551528483
 21
-0.3830361307
  0
LINE
  5
306
100
AcDbEntity
  8
ASSI
100
AcDbLine
 62
253
  6
CONTINUOUS
 10
10.3073464315
 20
-0.1332207504
 11
10.290186437
 21
-0.1334921531
  0
LINE
  5
307
100
AcDbEntity
  8
ASSI
100
AcDbLine
 62
253
  6
CONTINUOUS
 10
10.5551528483
 20
-0.3830361307
 11
10.5281131365
 21
-0.3833492944
  0
LINE
  5
308
100
AcDbEntity
  8
ASSI
100
AcDbLine
 62
253
  6
CONTINUOUS
 10
10.290186437
 20
-0.1334921531
 11
10.2591364748
 21
-0.1338307796
  0
LINE
  5
309
100
AcDbEntity
  8
ASSI
100
AcDbLine
 62
253
  6
CONTINUOUS
 10
10.5281131365
 20
-0.3833492944
 11
10.4378461131
 21
-0.3839551754
  0
LINE
  5
30A
100
AcDbEntity
  8
ASSI
100
AcDbLine
 62
253
  6
CONTINUOUS
 10
10.2591364748
 20
-0.1338307796
 11
10.1903092511
 21
-0.1342647923
  0
LINE
  5
30B
100
AcDbEntity
  8
ASSI
100
AcDbLine
 62
253
  6
CONTINUOUS
 10
-11.0135017638
 20
0.1601824954
 11
-10.9259427813
 21
0.1605837129
  0
LINE
  5
30C
100
AcDbEntity
  8
ASSI
100
AcDbLine
 62
253
  6
CONTINUOUS
 10
10.4378461131
 20
-0.3839551754
 11
10.1230391759
 21
-0.3846669294
  0
LINE
  5
30D
100
AcDbEntity
  8
ASSI
100
AcDbLine
 62
253
  6
CONTINUOUS
 10
10.1230391759
 20
-0.3846669294
 11
-10.8557940517
 21
-0.3846761841
  0
LINE
  5
30E
100
AcDbEntity
  8
ASSI
100
AcDbLine
 62
253
  6
CONTINUOUS
 10
10.1903092511
 20
-0.1342647923
 11
10.0804296102
 21
-0.1344868189
  0
LINE
  5
30F
100
AcDbEntity
  8
ASSI
100
AcDbLine
 62
7
  6
CONTINUOUS
 10
10.0804296102
 20
-0.1344868189
 11
-10.8557958821
 21
-0.1344868189
  0
LINE
  5
310
100
AcDbEntity
  8
ASSI
100
AcDbLine
 62
7
  6
CONTINUOUS
 10
7.8623168641
 20
-0.113088334
 11
-8.6376831359
 21
-0.113088334
  0
LINE
  5
311
100
AcDbEntity
  8
ASSI
100
AcDbLine
 62
7
  6
CONTINUOUS
 10
10.5122406623
 20
-0.0869077307
 11
8.1247828547
 21
-0.0869077307
  0
LINE
  5
312
100
AcDbEntity
  8
ASSI
100
AcDbLine
 62
7
  6
CONTINUOUS
 10
-8.9001491265
 20
-0.0869077307
 11
-11.2876069342
 21
-0.0869077307
  0
LINE
  5
313
100
AcDbEntity
  8
ASSI
100
AcDbLine
 62
7
  6
CONTINUOUS
 10
-11.2876069342
 20
0.1130922693
 11
-8.9001491265
 21
0.1130922693
  0
LINE
  5
314
100
AcDbEntity
  8
ASSI
100
AcDbLine
 62
7
  6
CONTINUOUS
 10
8.1247828547
 20
0.1130922693
 11
10.5122406623
 21
0.1130922693
  0
LINE
  5
315
100
AcDbEntity
  8
ASSI
100
AcDbLine
 62
7
  6
CONTINUOUS
 10
-8.6376831359
 20
0.1392728727
 11
7.8623168641
 21
0.1392728727
  0
LINE
  5
316
100
AcDbEntity
  8
ASSI
100
AcDbLine
 62
7
  6
CONTINUOUS
 10
-10.8557958821
 20
0.1606713575
 11
10.0804296102
 21
0.1606713575
  0
LINE
  5
317
100
AcDbEntity
  8
ASSI
100
AcDbLine
 62
253
  6
CONTINUOUS
 10
-10.9259427813
 20
0.1605837129
 11
-10.8557958821
 21
0.1606713575
  0
LINE
  5
318
100
AcDbEntity
  8
ASSI
100
AcDbLine
 62
253
  6
CONTINUOUS
 10
-10.8557958821
 20
-0.1344868189
 11
-10.9720207036
 21
-0.1342367138
  0
LINE
  5
319
100
AcDbEntity
  8
ASSI
100
AcDbLine
 62
253
  6
CONTINUOUS
 10
10.0804296102
 20
0.1606713575
 11
10.1966544318
 21
0.1604212525
  0
LINE
  5
31A
100
AcDbEntity
  8
ASSI
100
AcDbLine
 62
253
  6
CONTINUOUS
 10
-10.8557940517
 20
-0.3846761847
 11
-11.2505955573
 21
-0.3837506586
  0
LINE
  5
31B
100
AcDbEntity
  8
ASSI
100
AcDbLine
 62
253
  6
CONTINUOUS
 10
10.1966544318
 20
0.1604212525
 11
10.238135492
 21
0.1601824954
  0
LINE
  5
31C
100
AcDbEntity
  8
ASSI
100
AcDbLine
 62
253
  6
CONTINUOUS
 10
-10.9720207036
 20
-0.1342367138
 11
-11.0345027466
 21
-0.1338307796
  0
LINE
  5
31D
100
AcDbEntity
  8
ASSI
100
AcDbLine
 62
253
  6
CONTINUOUS
 10
-11.2505955573
 20
-0.3837506586
 11
-11.3096306557
 21
-0.3832881797
  0
LINE
  5
31E
100
AcDbEntity
  8
ASSI
100
AcDbLine
 62
253
  6
CONTINUOUS
 10
-11.0345027466
 20
-0.1338307796
 11
-11.0655527088
 21
-0.1334921531
  0
LINE
  5
31F
100
AcDbEntity
  8
ASSI
100
AcDbLine
 62
253
  6
CONTINUOUS
 10
-11.3096306557
 20
-0.3832881797
 11
-11.3305191201
 21
-0.3830361307
  0
LINE
  5
320
100
AcDbEntity
  8
ASSI
100
AcDbLine
 62
253
  6
CONTINUOUS
 10
-11.0655527088
 20
-0.1334921531
 11
-11.0827127034
 21
-0.1332207504
  0
LINE
  5
321
100
AcDbEntity
  8
ASSI
100
AcDbLine
 62
253
  6
CONTINUOUS
 10
-11.3305191201
 20
-0.3830361307
 11
-11.3421692325
 21
-0.3828406577
  0
LINE
  5
322
100
AcDbEntity
  8
ASSI
100
AcDbLine
 62
253
  6
CONTINUOUS
 10
-11.0827127034
 20
-0.1332207504
 11
-11.0908291108
 21
-0.1330486509
  0
LWPOLYLINE
  5
323
100
AcDbEntity
  8
ASSI
100
AcDbPolyline
 62
253
  6
CONTINUOUS
 90
7
 70
0
 10
-11.3421692325
 20
-0.3828406577
 10
-11.3479739397
 20
-0.3827080913
 10
-11.3502801587
 20
-0.3826412412
 10
-11.3521863843
 20
-0.3825741575
 10
-11.3536910771
 20
-0.3825068934
 10
-11.354793016
 20
-0.382439414
 10
-11.3554913096
 20
-0.3823717283
  0
LINE
  5
324
100
AcDbEntity
  8
ASSI
100
AcDbLine
 62
253
  6
CONTINUOUS
 10
-11.0908291108
 20
-0.1330486509
 11
-11.0952938392
 21
-0.1329308177
  0
LWPOLYLINE
  5
325
100
AcDbEntity
  8
ASSI
100
AcDbPolyline
 62
253
  6
CONTINUOUS
 90
9
 70
0
 10
-11.0952938392
 20
-0.1329308177
 10
-11.0989830923
 20
-0.1328109578
 10
-11.1005330266
 20
-0.132750415
 10
-11.1018846081
 20
-0.1326895108
 10
-11.1030383148
 20
-0.1326282468
 10
-11.1039913414
 20
-0.1325667743
 10
-11.104742753
 20
-0.1325051436
 10
-11.1052934845
 20
-0.1324433044
 10
-11.105643536
 20
-0.1323812567
  0
LINE
  5
326
100
AcDbEntity
  8
ASSI
100
AcDbLine
 62
7
  6
CONTINUOUS
 10
-8.9001491265
 20
-0.0869077307
 11
-8.6376831359
 21
-0.113088334
  0
LWPOLYLINE
  5
327
100
AcDbEntity
  8
0
100
AcDbPolyline
 62
253
  6
CONTINUOUS
 90
26
 70
0
 10
1.1006826882
 20
-11.6297888133
 10
1.100341261
 20
-11.6282943017
 10
1.0999454375
 20
-11.6268094291
 10
1.0994965295
 20
-11.6253345058
 10
1.0989958489
 20
-11.6238698424
 10
1.0984447076
 20
-11.6224157496
 10
1.0978444174
 20
-11.6209725377
 10
1.0971962703
 20
-11.6195403329
 10
1.0965014791
 20
-11.6181185239
 10
1.0957612365
 20
-11.6167063148
 10
1.0949767356
 20
-11.6153029098
 10
1.0941491691
 20
-11.6139075131
 10
1.0932797301
 20
-11.6125193289
 10
1.0921829917
 20
-11.6108620753
 10
1.0910308203
 20
-11.6092136902
 10
1.0898263617
 20
-11.6075738024
 10
1.0885727616
 20
-11.6059420403
 10
1.087273166
 20
-11.6043180325
 10
1.085931068
 20
-11.6027014866
 10
1.0845513511
 20
-11.6010924259
 10
1.083139246
 20
-11.599490953
 10
1.0816999838
 20
-11.5978971702
 10
1.0802387952
 20
-11.59631118
 10
1.0777663878
 20
-11.593682896
 10
1.0752563703
 20
-11.591061644
 10
1.0649541967
 20
-11.5804175835
  0
LINE
  5
328
100
AcDbEntity
  8
0
100
AcDbLine
 62
253
  6
CONTINUOUS
 10
1.1096432438
 20
-11.6737096467
 11
1.1006826882
 21
-11.6297888133
  0
LWPOLYLINE
  5
329
100
AcDbEntity
  8
0
100
AcDbPolyline
 62
253
  6
CONTINUOUS
 90
23
 70
0
 10
-0.191930367
 20
-12.7951902019
 10
-0.1917467007
 20
-12.7967002165
 10
-0.1915065371
 20
-12.798206216
 10
-0.1912112777
 20
-12.7997075803
 10
-0.1908623239
 20
-12.8012036892
 10
-0.190461077
 20
-12.8026939225
 10
-0.1900089383
 20
-12.8041776602
 10
-0.189507316
 20
-12.8056545069
 10
-0.1889576444
 20
-12.8071249676
 10
-0.1883613647
 20
-12.808589772
 10
-0.1877199179
 20
-12.8100496498
 10
-0.1870347452
 20
-12.8115053308
 10
-0.1863072876
 20
-12.8129575449
 10
-0.1853806909
 20
-12.8146964975
 10
-0.1843986062
 20
-12.8164318381
 10
-0.1833643605
 20
-12.8181638961
 10
-0.1822812806
 20
-12.8198930011
 10
-0.1811526937
 20
-12.8216194825
 10
-0.1796837161
 20
-12.8237741741
 10
-0.1781594217
 20
-12.8259245881
 10
-0.1765904002
 20
-12.8280700314
 10
-0.1749872414
 20
-12.8302098105
 10
-0.1728125498
 20
-12.8330554831
  0
LWPOLYLINE
  5
32A
100
AcDbEntity
  8
0
100
AcDbPolyline
 62
253
  6
CONTINUOUS
 90
39
 70
0
 10
0.8166574087
 20
12.5421006188
 10
0.816455927
 20
12.5585898025
 10
0.8158563057
 20
12.5750196249
 10
0.8148657805
 20
12.5913929981
 10
0.8134915873
 20
12.6077128342
 10
0.8117409617
 20
12.6239820452
 10
0.8096211395
 20
12.6402035432
 10
0.8065995437
 20
12.6596071248
 10
0.8030652809
 20
12.6789312157
 10
0.7990269081
 20
12.6981608387
 10
0.7944929817
 20
12.7172810167
 10
0.7894720586
 20
12.7362767724
 10
0.7839720548
 20
12.7551341134
 10
0.7779983234
 20
12.7738429868
 10
0.7715555771
 20
12.7923943243
 10
0.7646485284
 20
12.8107790578
 10
0.7572818898
 20
12.8289881191
 10
0.7494602081
 20
12.8470117098
 10
0.741187367
 20
12.8648371107
 10
0.7324670843
 20
12.8824508724
 10
0.7233030782
 20
12.8998395455
 10
0.7136990663
 20
12.9169896806
 10
0.7053618692
 20
12.9310892459
 10
0.696721321
 20
12.9450042705
 10
0.6877770483
 20
12.9587252049
 10
0.6785286778
 20
12.9722424997
 10
0.668975836
 20
12.9855466056
 10
0.6591181494
 20
12.998627973
 10
0.6489570527
 20
13.0114775808
 10
0.6385012129
 20
13.0240885217
 10
0.6277611048
 20
13.0364544163
 10
0.6167472037
 20
13.0485688856
 10
0.6054699844
 20
13.0604255504
 10
0.593939922
 20
13.0720180315
 10
0.5797820641
 20
13.0855753891
 10
0.5652766232
 20
13.0987566204
 10
0.5504250267
 20
13.1115752093
 10
0.5352287017
 20
13.12404464
 10
0.5196890754
 20
13.1361783965
  0
LWPOLYLINE
  5
32B
100
AcDbEntity
  8
0
100
AcDbPolyline
 62
253
  6
CONTINUOUS
 90
37
 70
0
 10
1.2016790752
 20
12.5421006188
 10
1.2014135753
 20
12.5647958648
 10
1.2006241594
 20
12.5874251217
 10
1.1993214533
 20
12.6099921405
 10
1.1975160825
 20
12.6325006721
 10
1.1952186727
 20
12.6549544675
 10
1.1924398497
 20
12.6773572779
 10
1.1884840416
 20
12.7041743418
 10
1.1838643651
 20
12.730904133
 10
1.1785948859
 20
12.7575273961
 10
1.1726896695
 20
12.7840248755
 10
1.1661627817
 20
12.8103773157
 10
1.1590275157
 20
12.8365671225
 10
1.1512940748
 20
12.862583347
 10
1.1429718897
 20
12.8884167018
 10
1.1340703913
 20
12.9140578992
 10
1.1245990103
 20
12.9394976516
 10
1.1145666917
 20
12.9647261004
 10
1.103980437
 20
12.9897311019
 10
1.0928467618
 20
13.0144999412
 10
1.0811721819
 20
13.0390199035
 10
1.0689632128
 20
13.063278274
 10
1.0562252442
 20
13.0872627316
 10
1.0429591611
 20
13.11096253
 10
1.0291647228
 20
13.1343673167
 10
1.0148416884
 20
13.1574667392
 10
0.9999898169
 20
13.1802504449
 10
0.9846101208
 20
13.2027056041
 10
0.9687086264
 20
13.2248094782
 10
0.952292613
 20
13.2465368514
 10
0.9353693602
 20
13.2678625078
 10
0.9179461476
 20
13.2887612316
 10
0.9030477922
 20
13.3058342027
 10
0.8877974129
 20
13.322588723
 10
0.8721851252
 20
13.3390203336
 10
0.8562010443
 20
13.3551245757
 10
0.8398352855
 20
13.3708969903
  0
LINE
  5
32C
100
AcDbEntity
  8
0
100
AcDbLine
 62
253
  6
CONTINUOUS
 10
1.1096432438
 20
-13.2691118685
 11
1.1096432438
 21
-11.6737097068
  0
LWPOLYLINE
  5
32D
100
AcDbEntity
  8
0
100
AcDbPolyline
 62
253
  6
CONTINUOUS
 90
39
 70
0
 10
0.3833051866
 20
12.5421006188
 10
0.383212232
 20
12.5351835752
 10
0.3829363651
 20
12.5282960969
 10
0.3824820813
 20
12.5214370723
 10
0.3818538758
 20
12.5146053898
 10
0.381056244
 20
12.5077999378
 10
0.3800936813
 20
12.5010196047
 10
0.3789706829
 20
12.494263279
 10
0.3774633466
 20
12.4864109147
 10
0.3757485215
 20
12.4785948851
 10
0.3738309707
 20
12.4708203613
 10
0.3717154576
 20
12.4630925144
 10
0.3694067452
 20
12.4554165154
 10
0.366909597
 20
12.4477975354
 10
0.3642285517
 20
12.440240463
 10
0.3613672513
 20
12.4327490571
 10
0.3583291131
 20
12.4253267941
 10
0.3551175546
 20
12.4179771506
 10
0.3517359934
 20
12.410703603
 10
0.3481878469
 20
12.4035096277
 10
0.3444761332
 20
12.3963986522
 10
0.3406022721
 20
12.389373908
 10
0.3365672843
 20
12.3824385776
 10
0.3323721903
 20
12.3755958434
 10
0.3280180107
 20
12.368848888
 10
0.3235057661
 20
12.3622008939
 10
0.3188363973
 20
12.3556554237
 10
0.3140105277
 20
12.3492175611
 10
0.3090287007
 20
12.3428927701
 10
0.3038914601
 20
12.3366865146
 10
0.2985993495
 20
12.3306042584
 10
0.2931529126
 20
12.3246514656
 10
0.2883614837
 20
12.3196562162
 10
0.283453603
 20
12.3147633014
 10
0.2784258018
 20
12.3099759254
 10
0.2732746116
 20
12.3052972926
 10
0.2679965636
 20
12.3007306074
 10
0.2625881892
 20
12.296279074
 10
0.2519124805
 20
12.2879311559
  0
LWPOLYLINE
  5
32E
100
AcDbEntity
  8
0
100
AcDbPolyline
 62
253
  6
CONTINUOUS
 90
50
 70
0
 10
-1.4271817556
 20
-13.204412424
 10
-1.4289368307
 20
-13.2135237367
 10
-1.4309921529
 20
-13.2225509852
 10
-1.4333434661
 20
-13.2315102846
 10
-1.435986514
 20
-13.2404177506
 10
-1.4389170404
 20
-13.2492894983
 10
-1.4421315824
 20
-13.2581389165
 10
-1.4456298503
 20
-13.2669684859
 10
-1.4494123475
 20
-13.2757779607
 10
-1.4534795775
 20
-13.284567095
 10
-1.457832044
 20
-13.2933356427
 10
-1.4624684982
 20
-13.3020806544
 10
-1.4673806827
 20
-13.3107883661
 10
-1.4725585878
 20
-13.3194423105
 10
-1.4779922038
 20
-13.3280260201
 10
-1.4836715212
 20
-13.3365230274
 10
-1.4895871043
 20
-13.3449185022
 10
-1.495731814
 20
-13.3532041634
 10
-1.5020990851
 20
-13.3613733668
 10
-1.5086823527
 20
-13.3694194686
 10
-1.5154750517
 20
-13.3773358248
 10
-1.5224701888
 20
-13.385115325
 10
-1.5296590587
 20
-13.3927489943
 10
-1.537032528
 20
-13.400227391
 10
-1.5445814631
 20
-13.4075410739
 10
-1.5522967308
 20
-13.4146806015
 10
-1.5601694665
 20
-13.4216369811
 10
-1.5681918831
 20
-13.4284030144
 10
-1.5763564622
 20
-13.4349719519
 10
-1.5846556855
 20
-13.4413370441
 10
-1.5930820349
 20
-13.4474915414
 10
-1.601627586
 20
-13.453428392
 10
-1.6102827904
 20
-13.4591393353
 10
-1.6190376933
 20
-13.4646158082
 10
-1.6278823402
 20
-13.469849248
 10
-1.6368067766
 20
-13.4748310916
 10
-1.6457991751
 20
-13.4795528031
 10
-1.6548402182
 20
-13.484005955
 10
-1.6639087157
 20
-13.4881821464
 10
-1.6729834774
 20
-13.4920729768
 10
-1.6820433132
 20
-13.4956700455
 10
-1.6910709949
 20
-13.4989668971
 10
-1.7000651424
 20
-13.5019648579
 10
-1.7090283375
 20
-13.5046671992
 10
-1.7179631621
 20
-13.5070771926
 10
-1.7268721982
 20
-13.5091981094
 10
-1.7357598743
 20
-13.5110319435
 10
-1.7446380059
 20
-13.5125755767
 10
-1.7535202552
 20
-13.5138246132
 10
-1.7624202843
 20
-13.5147746572
  0
LWPOLYLINE
  5
32F
100
AcDbEntity
  8
0
100
AcDbPolyline
 62
253
  6
CONTINUOUS
 90
31
 70
0
 10
-2.9747473107
 20
-11.6514493689
 10
-2.9869577735
 20
-11.7015992243
 10
-2.997976916
 20
-11.7519696414
 10
-3.0078620968
 20
-11.8025565377
 10
-3.0166706744
 20
-11.853355831
 10
-3.0244594816
 20
-11.9043566132
 10
-3.0312832473
 20
-11.955520672
 10
-3.0371961744
 20
-12.0068029695
 10
-3.0422524658
 20
-12.0581584678
 10
-3.0465070588
 20
-12.1095497324
 10
-3.0500178272
 20
-12.1609697441
 10
-3.0528433789
 20
-12.2124190871
 10
-3.055042322
 20
-12.2638983458
 10
-3.0570996492
 20
-12.3325808711
 10
-3.0582790986
 20
-12.4012948125
 10
-3.0587125714
 20
-12.4700173638
 10
-3.0584886489
 20
-12.538726895
 10
-3.0575226323
 20
-12.6074064806
 10
-3.0556865034
 20
-12.6760403714
 10
-3.0536602368
 20
-12.7274780835
 10
-3.0510116291
 20
-12.778885122
 10
-3.0476797878
 20
-12.8302653756
 10
-3.0436038202
 20
-12.881622733
 10
-3.0387237299
 20
-12.9329525755
 10
-3.0329831045
 20
-12.9842162545
 10
-3.0263264277
 20
-13.0353666137
 10
-3.0186981831
 20
-13.0863564971
 10
-3.0100422825
 20
-13.1371460029
 10
-3.000300349
 20
-13.1877242462
 10
-2.9894134339
 20
-13.2380875967
 10
-2.9773225885
 20
-13.288232424
  0
LWPOLYLINE
  5
330
100
AcDbEntity
  8
ASSI
100
AcDbPolyline
 62
253
  6
CONTINUOUS
 90
18
 70
0
 10
-11.4093488175
 20
-21.5445367352
 10
-11.4089300561
 20
-21.5437633438
 10
-11.4085125206
 20
-21.542703879
 10
-11.4080962108
 20
-21.5413583408
 10
-11.4076808806
 20
-21.5397256116
 10
-11.4072667763
 20
-21.537806809
 10
-11.4068546364
 20
-21.5356052863
 10
-11.4064444713
 20
-21.5331205623
 10
-11.4060362708
 20
-21.5303531181
 10
-11.4056307421
 20
-21.5273077508
 10
-11.4052278908
 20
-21.5239839835
 10
-11.4048277113
 20
-21.5203822931
 10
-11.4044308947
 20
-21.5165089067
 10
-11.4040374464
 20
-21.5123633519
 10
-11.4036473609
 20
-21.5079461011
 10
-11.4032613128
 20
-21.5032647996
 10
-11.4028793091
 20
-21.49831899
 10
-11.4021280675
 20
-21.4876442361
  0
LINE
  5
331
100
AcDbEntity
  8
ASSI
100
AcDbLine
 62
7
  6
CONTINUOUS
 10
-8.9001491265
 20
0.1130922693
 11
-8.6376831359
 21
0.1392728727
  0
LWPOLYLINE
  5
332
100
AcDbEntity
  8
ASSI
100
AcDbPolyline
 62
253
  6
CONTINUOUS
 90
6
 70
0
 10
-11.3554913096
 20
0.408556267
 10
-11.354793016
 20
0.4086239526
 10
-11.3536910771
 20
0.4086914321
 10
-11.3521863843
 20
0.4087586961
 10
-11.3502801587
 20
0.4088257799
 10
-11.3479739397
 20
0.40889263
  0
LINE
  5
333
100
AcDbEntity
  8
ASSI
100
AcDbLine
 62
253
  6
CONTINUOUS
 10
-11.0989830923
 20
0.1589954964
 11
-11.0952938392
 21
0.1591153563
  0
LINE
  5
334
100
AcDbEntity
  8
ASSI
100
AcDbLine
 62
253
  6
CONTINUOUS
 10
-11.0952938392
 20
0.1591153563
 11
-11.0908291108
 21
0.1592331896
  0
LINE
  5
335
100
AcDbEntity
  8
ASSI
100
AcDbLine
 62
253
  6
CONTINUOUS
 10
-11.3479739397
 20
0.40889263
 11
-11.3421692325
 21
0.4090251964
  0
LINE
  5
336
100
AcDbEntity
  8
ASSI
100
AcDbLine
 62
253
  6
CONTINUOUS
 10
-11.0908291108
 20
0.1592331896
 11
-11.0827127034
 21
0.1594052891
  0
LINE
  5
337
100
AcDbEntity
  8
ASSI
100
AcDbLine
 62
253
  6
CONTINUOUS
 10
-11.3421692325
 20
0.4090251964
 11
-11.3305191201
 21
0.4092206693
  0
LINE
  5
338
100
AcDbEntity
  8
ASSI
100
AcDbLine
 62
253
  6
CONTINUOUS
 10
-11.0827127034
 20
0.1594052891
 11
-11.0655527089
 21
0.1596766918
  0
LINE
  5
339
100
AcDbEntity
  8
ASSI
100
AcDbLine
 62
253
  6
CONTINUOUS
 10
-11.3305191201
 20
0.4092206693
 11
-11.3034794083
 21
0.409533833
  0
LINE
  5
33A
100
AcDbEntity
  8
ASSI
100
AcDbLine
 62
253
  6
CONTINUOUS
 10
-11.0655527089
 20
0.1596766918
 11
-11.0345027466
 21
0.1600153183
  0
LINE
  5
33B
100
AcDbEntity
  8
ASSI
100
AcDbLine
 62
253
  6
CONTINUOUS
 10
-11.0345027466
 20
0.1600153183
 11
-11.0135017638
 21
0.1601824954
  0
LINE
  5
33C
100
AcDbEntity
  8
ASSI
100
AcDbLine
 62
253
  6
CONTINUOUS
 10
-11.3034794083
 20
0.409533833
 11
-11.2132123849
 21
0.4101397141
  0
LINE
  5
33D
100
AcDbEntity
  8
ASSI
100
AcDbLine
 62
253
  6
CONTINUOUS
 10
-11.2132123849
 20
0.4101397141
 11
10.4173889166
 21
0.4102340512
  0
LINE
  5
33E
100
AcDbEntity
  8
ASSI
100
AcDbLine
 62
253
  6
CONTINUOUS
 10
10.4173889166
 20
0.4102340512
 11
10.5215997322
 21
0.409594095
  0
LINE
  5
33F
100
AcDbEntity
  8
ASSI
100
AcDbLine
 62
253
  6
CONTINUOUS
 10
10.238135492
 20
0.1601824954
 11
10.2821126397
 21
0.1597788606
  0
LINE
  5
340
100
AcDbEntity
  8
ASSI
100
AcDbLine
 62
253
  6
CONTINUOUS
 10
10.5215997322
 20
0.409594095
 11
10.5504969624
 21
0.4092847282
  0
LINE
  5
341
100
AcDbEntity
  8
ASSI
100
AcDbLine
 62
253
  6
CONTINUOUS
 10
10.2821126397
 20
0.1597788606
 11
10.3010158141
 21
0.1595163668
  0
LINE
  5
342
100
AcDbEntity
  8
ASSI
100
AcDbLine
 62
253
  6
CONTINUOUS
 10
10.5504969624
 20
0.4092847282
 11
10.5633091505
 21
0.4090908945
  0
LINE
  5
343
100
AcDbEntity
  8
ASSI
100
AcDbLine
 62
253
  6
CONTINUOUS
 10
10.3010158141
 20
0.1595163668
 11
10.3129456653
 21
0.1592912051
  0
LWPOLYLINE
  5
344
100
AcDbEntity
  8
ASSI
100
AcDbPolyline
 62
253
  6
CONTINUOUS
 90
8
 70
0
 10
10.5633091505
 20
0.4090908945
 10
10.5699033041
 20
0.408959105
 10
10.5726076679
 20
0.40889263
 10
10.5749138869
 20
0.4088257799
 10
10.5768201124
 20
0.4087586961
 10
10.5783248053
 20
0.4086914321
 10
10.5794267441
 20
0.4086239526
 10
10.5801250378
 20
0.408556267
  0
LINE
  5
345
100
AcDbEntity
  8
ASSI
100
AcDbLine
 62
253
  6
CONTINUOUS
 10
10.3129456653
 20
0.1592912051
 11
10.3177920206
 21
0.1591745259
  0
LWPOLYLINE
  5
346
100
AcDbEntity
  8
ASSI
100
AcDbPolyline
 62
253
  6
CONTINUOUS
 90
10
 70
0
 10
10.3177920206
 20
0.1591745259
 10
10.3218690114
 20
0.1590556794
 10
10.3236168205
 20
0.1589954964
 10
10.3251667548
 20
0.1589349537
 10
10.3265183362
 20
0.1588740495
 10
10.3276720429
 20
0.1588127855
 10
10.3286250696
 20
0.1587513129
 10
10.3293764812
 20
0.1586896822
 10
10.3299272127
 20
0.158627843
 10
10.3302772641
 20
0.1585657953
  0
LINE
  5
347
100
AcDbEntity
  8
ASSI
100
AcDbLine
 62
7
  6
CONTINUOUS
 10
8.1247828547
 20
0.1130922693
 11
7.8623168641
 21
0.1392728727
  0
LWPOLYLINE
  5
348
100
AcDbEntity
  8
0
100
AcDbPolyline
 62
253
  6
CONTINUOUS
 90
39
 70
0
 10
1.9038165769
 20
-12.4749385353
 10
1.9037251491
 20
-12.4680479734
 10
1.9034537705
 20
-12.4611862082
 10
1.9030067983
 20
-12.45435215
 10
1.9023885896
 20
-12.4475447094
 10
1.9016035017
 20
-12.4407627968
 10
1.9006558917
 20
-12.4340053228
 10
1.8995501168
 20
-12.4272711977
 10
1.8980655663
 20
-12.4194439094
 10
1.8963762466
 20
-12.4116519922
 10
1.8944867377
 20
-12.4039005193
 10
1.8924016197
 20
-12.3961945643
 10
1.8901254727
 20
-12.3885392006
 10
1.8876628768
 20
-12.3809395014
 10
1.8850181906
 20
-12.3734002685
 10
1.882194887
 20
-12.3659252161
 10
1.8791962174
 20
-12.358517787
 10
1.8760254332
 20
-12.3511814237
 10
1.8726857858
 20
-12.3439195688
 10
1.8691805268
 20
-12.336735665
 10
1.8655125257
 20
-12.3296331208
 10
1.8616831253
 20
-12.3226152084
 10
1.8576932868
 20
-12.3156851663
 10
1.8535439711
 20
-12.3088462327
 10
1.8492361394
 20
-12.3021016459
 10
1.8447707527
 20
-12.2954546442
 10
1.8401486948
 20
-12.2889088342
 10
1.8353705402
 20
-12.2824692963
 10
1.830436786
 20
-12.276141479
 10
1.8253479294
 20
-12.269930831
 10
1.8201044675
 20
-12.2638428008
 10
1.8147068975
 20
-12.2578828372
 10
1.8099575013
 20
-12.2528803102
 10
1.8050917988
 20
-12.2479790227
 10
1.8001063407
 20
-12.2431821215
 10
1.7949976776
 20
-12.2384927531
 10
1.7897623603
 20
-12.2339140645
 10
1.7843969395
 20
-12.2294492023
 10
1.7737440893
 20
-12.2210494111
  0
LWPOLYLINE
  5
349
100
AcDbEntity
  8
0
100
AcDbPolyline
 62
253
  6
CONTINUOUS
 90
41
 70
0
 10
2.0060476862
 20
12.5421006188
 10
2.0056393547
 20
12.5819713597
 10
2.0044160321
 20
12.6217615186
 10
2.002380226
 20
12.6614794785
 10
1.9995344441
 20
12.7011336226
 10
1.9958811939
 20
12.7407323338
 10
1.991422859
 20
12.7802784054
 10
1.9861613263
 20
12.8197522708
 10
1.9800983587
 20
12.8591287734
 10
1.9732357191
 20
12.898382757
 10
1.9655751702
 20
12.9374890649
 10
1.9571182837
 20
12.9764242055
 10
1.947865866
 20
13.0151713466
 10
1.9378185323
 20
13.0537153209
 10
1.9269768981
 20
13.0920409608
 10
1.9153415783
 20
13.1301330991
 10
1.9029131174
 20
13.1679758927
 10
1.8896917755
 20
13.2055507968
 10
1.8756777418
 20
13.242838591
 10
1.8608712056
 20
13.2798200548
 10
1.845272356
 20
13.3164759679
 10
1.8288837941
 20
13.3527880758
 10
1.8117177677
 20
13.388741989
 10
1.7937889367
 20
13.4243242836
 10
1.7751119606
 20
13.4595215362
 10
1.7557014992
 20
13.4943203229
 10
1.7355717034
 20
13.5287076869
 10
1.7147346892
 20
13.5626725374
 10
1.6932020638
 20
13.5962042504
 10
1.6709854344
 20
13.6292922017
 10
1.6480964082
 20
13.6619257672
 10
1.624547553
 20
13.6940932456
 10
1.6003552788
 20
13.7257786257
 10
1.5755369562
 20
13.7569648191
 10
1.5501099558
 20
13.7876347374
 10
1.5240916482
 20
13.8177712921
 10
1.497495331
 20
13.8473609712
 10
1.47031801
 20
13.8764045681
 10
1.4425526182
 20
13.9049064524
 10
1.4141920882
 20
13.9328709941
 10
1.385229353
 20
13.9603025629
  0
LWPOLYLINE
  5
34A
100
AcDbEntity
  8
0
100
AcDbPolyline
 62
253
  6
CONTINUOUS
 90
41
 70
0
 10
2.4394704638
 20
12.5421006188
 10
2.4389527062
 20
12.4933653876
 10
2.4374037628
 20
12.4447300427
 10
2.4348301278
 20
12.3961838381
 10
2.4312382951
 20
12.3477160275
 10
2.4266347589
 20
12.2993158647
 10
2.4210260457
 20
12.2509797799
 10
2.4144188119
 20
12.2027329077
 10
2.4068197465
 20
12.1546075594
 10
2.3982355384
 20
12.106636046
 10
2.3886728765
 20
12.0588506785
 10
2.3781381375
 20
12.0112810389
 10
2.3666364497
 20
11.9639457926
 10
2.3541726292
 20
11.9168608761
 10
2.3407514919
 20
11.8700422256
 10
2.326377854
 20
11.8235057774
 10
2.3110564003
 20
11.7772683927
 10
2.2947912904
 20
11.7313506313
 10
2.2775865527
 20
11.6857739777
 10
2.2594462156
 20
11.6405599165
 10
2.2403743075
 20
11.5957299322
 10
2.2203764646
 20
11.551304737
 10
2.1994647543
 20
11.5073019527
 10
2.1776528518
 20
11.463738429
 10
2.1549544325
 20
11.4206310153
 10
2.1313831714
 20
11.3779965612
 10
2.1069520553
 20
11.3358514235
 10
2.0816713167
 20
11.294209989
 10
2.0555504993
 20
11.2530861516
 10
2.0285991472
 20
11.2124938054
 10
2.0008268041
 20
11.1724468444
 10
1.9722445908
 20
11.1329609701
 10
1.9428699355
 20
11.0940591138
 10
1.9127218432
 20
11.0557660143
 10
1.8818193191
 20
11.0181064104
 10
1.8501813682
 20
10.9811050409
 10
1.8178219783
 20
10.9447820045
 10
1.7847350687
 20
10.9091388398
 10
1.7509095414
 20
10.8741724457
 10
1.7163342984
 20
10.8398797208
 10
1.6809982418
 20
10.8062575637
  0
LWPOLYLINE
  5
34B
100
AcDbEntity
  8
0
100
AcDbPolyline
 62
253
  6
CONTINUOUS
 90
41
 70
0
 10
1.6338318529
 20
12.5421006188
 10
1.6334761058
 20
12.5091487969
 10
1.6324123234
 20
12.47627266
 10
1.6306456938
 20
12.4434668943
 10
1.6281814053
 20
12.4107261861
 10
1.625024646
 20
12.3780452214
 10
1.6211802114
 20
12.3454222329
 10
1.6166513253
 20
12.3128696387
 10
1.6114408187
 20
12.2804034031
 10
1.6055515226
 20
12.2480394907
 10
1.598986268
 20
12.2157938659
 10
1.5917480201
 20
12.1836825733
 10
1.5838402803
 20
12.1517219774
 10
1.575266684
 20
12.1199285231
 10
1.5660308667
 20
12.0883186553
 10
1.5561364639
 20
12.0569088185
 10
1.5455868329
 20
12.0257149961
 10
1.5343842179
 20
11.9947513253
 10
1.5225305847
 20
11.9640314818
 10
1.5100278994
 20
11.9335691412
 10
1.4968781278
 20
11.9033779793
 10
1.4830846485
 20
11.8734715093
 10
1.4686564903
 20
11.8438625954
 10
1.4536040947
 20
11.8145639392
 10
1.4379379033
 20
11.7855882427
 10
1.4216683574
 20
11.7569482074
 10
1.4048053379
 20
11.7286560016
 10
1.3873564828
 20
11.7007216593
 10
1.3693288697
 20
11.6731546806
 10
1.3507295759
 20
11.6459645661
 10
1.331565679
 20
11.6191608161
 10
1.3118454435
 20
11.5927542741
 10
1.2915818826
 20
11.5667611565
 10
1.270789197
 20
11.5411990228
 10
1.249481587
 20
11.5160854326
 10
1.227673253
 20
11.4914379456
 10
1.2053747041
 20
11.4672708196
 10
1.1825816828
 20
11.4435851069
 10
1.1592862406
 20
11.4203785578
 10
1.1354804284
 20
11.3976489228
 10
1.1111562975
 20
11.3753939525
  0
LWPOLYLINE
  5
34C
100
AcDbEntity
  8
0
100
AcDbPolyline
 62
253
  6
CONTINUOUS
 90
39
 70
0
 10
2.3372040768
 20
-12.4749385353
 10
2.3370034012
 20
-12.4914073781
 10
2.3364061675
 20
-12.5078172793
 10
2.3354195656
 20
-12.5241711302
 10
2.3340507852
 20
-12.540471822
 10
2.3323070161
 20
-12.556722246
 10
2.3301954479
 20
-12.5729252934
 10
2.3271855473
 20
-12.5923071729
 10
2.3236649087
 20
-12.6116101229
 10
2.3196420713
 20
-12.6308192727
 10
2.3151255745
 20
-12.6499197516
 10
2.3101239574
 20
-12.668896689
 10
2.3046451311
 20
-12.6877361897
 10
2.2986944942
 20
-12.7064282602
 10
2.2922768168
 20
-12.7249638826
 10
2.2853968693
 20
-12.7433340389
 10
2.278059422
 20
-12.7615297111
 10
2.2702690758
 20
-12.7795411732
 10
2.262029755
 20
-12.7973558674
 10
2.2533452143
 20
-12.8149605278
 10
2.2442192085
 20
-12.8323418885
 10
2.2346554925
 20
-12.8494866838
 10
2.2263536548
 20
-12.8635834516
 10
2.2177501035
 20
-12.8774973616
 10
2.2088444832
 20
-12.8912190503
 10
2.1996364383
 20
-12.9047391538
 10
2.1901256131
 20
-12.9180483084
 10
2.1803116521
 20
-12.9311371505
 10
2.1701959598
 20
-12.9439967967
 10
2.1597869816
 20
-12.956620285
 10
2.1490949228
 20
-12.9690011337
 10
2.1381299891
 20
-12.9811328612
 10
2.1269023857
 20
-12.9930089857
 10
2.1154223183
 20
-13.0046230256
 10
2.1013246244
 20
-13.0182088377
 10
2.0868793351
 20
-13.0314209656
 10
2.0720877075
 20
-13.0442724607
 10
2.0569509987
 20
-13.0567763742
 10
2.0414704658
 20
-13.0689457574
  0
LINE
  5
34D
100
AcDbEntity
  8
0
100
AcDbLine
 62
253
  6
CONTINUOUS
 10
-0.189390367
 20
-12.1389882576
 11
-0.1970456448
 21
-12.1868249243
  0
LWPOLYLINE
  5
34E
100
AcDbEntity
  8
0
100
AcDbPolyline
 62
253
  6
CONTINUOUS
 90
31
 70
0
 10
-1.0039542557
 20
-13.295534924
 10
-0.9917680115
 20
-13.2454076405
 10
-0.9807716719
 20
-13.1950571581
 10
-0.9709082061
 20
-13.1444872477
 10
-0.9621205833
 20
-13.0937016803
 10
-0.9543522909
 20
-13.0427111542
 10
-0.9475488889
 20
-12.991554076
 10
-0.9416564557
 20
-12.9402757795
 10
-0.9366210694
 20
-12.8889215985
 10
-0.9323880445
 20
-12.83752926
 10
-0.9288996395
 20
-12.7861060643
 10
-0.926097349
 20
-12.7346517047
 10
-0.9239226677
 20
-12.6831658747
 10
-0.9218994203
 20
-12.6144726324
 10
-0.9207562365
 20
-12.545746261
 10
-0.9203614397
 20
-12.4770101236
 10
-0.9206267935
 20
-12.4082864157
 10
-0.9216378222
 20
-12.3395926612
 10
-0.9235234904
 20
-12.2709452162
 10
-0.9255904535
 20
-12.2194980644
 10
-0.9282832494
 20
-12.1680822751
 10
-0.9316631836
 20
-12.116693961
 10
-0.9357915617
 20
-12.0653292352
 10
-0.9407287668
 20
-12.0139928647
 10
-0.9465314924
 20
-11.9627242323
 10
-0.9532555095
 20
-11.9115713749
 10
-0.9609565891
 20
-11.8605823293
 10
-0.9696910851
 20
-11.8097977398
 10
-0.9795176828
 20
-11.7592286795
 10
-0.9904956503
 20
-11.708878829
 10
-1.0026842557
 20
-11.6587518689
  0
LINE
  5
34F
100
AcDbEntity
  8
ASSI
100
AcDbLine
 62
253
  6
CONTINUOUS
 10
-11.5113758266
 20
-21.6976550384
 11
-11.4093488175
 21
-21.5445367352
  0
LINE
  5
350
100
AcDbEntity
  8
ASSI
100
AcDbLine
 62
253
  6
CONTINUOUS
 10
-11.0104649412
 20
-22.1951456712
 11
-10.909653404
 21
-22.0438515026
  0
LINE
  5
351
100
AcDbEntity
  8
ASSI
100
AcDbLine
 62
253
  6
CONTINUOUS
 10
-11.2876069342
 20
0.1130922693
 11
-11.105643536
 21
0.1585657953
  0
LINE
  5
352
100
AcDbEntity
  8
ASSI
100
AcDbLine
 62
253
  6
CONTINUOUS
 10
-11.5376831359
 20
0.3630256481
 11
-11.3554913096
 21
0.4085562594
  0
LWPOLYLINE
  5
353
100
AcDbEntity
  8
ASSI
100
AcDbPolyline
 62
253
  6
CONTINUOUS
 90
8
 70
0
 10
-11.105643536
 20
0.1585657953
 10
-11.1052934845
 20
0.158627843
 10
-11.104742753
 20
0.1586896822
 10
-11.1039913414
 20
0.1587513129
 10
-11.1030383148
 20
0.1588127855
 10
-11.1018846081
 20
0.1588740495
 10
-11.1005330266
 20
0.1589349537
 10
-11.0989830923
 20
0.1589954964
  0
LINE
  5
354
100
AcDbEntity
  8
ASSI
100
AcDbLine
 62
253
  6
CONTINUOUS
 10
10.3302772641
 20
0.1585657953
 11
10.5122406623
 21
0.1130922693
  0
LINE
  5
355
100
AcDbEntity
  8
ASSI
100
AcDbLine
 62
253
  6
CONTINUOUS
 10
10.5801250378
 20
0.4085562594
 11
10.7623168641
 21
0.3630256481
  0
LINE
  5
356
100
AcDbEntity
  8
ASSI
100
AcDbLine
 62
253
  6
CONTINUOUS
 10
-11.4093488175
 20
21.5707212739
 11
-11.5113758266
 21
21.7238395771
  0
LINE
  5
357
100
AcDbEntity
  8
ASSI
100
AcDbLine
 62
253
  6
CONTINUOUS
 10
-10.909653404
 20
22.0700360412
 11
-11.0104649412
 21
22.2213302099
  0
LINE
  5
358
100
AcDbEntity
  8
0
100
AcDbLine
 62
253
  6
CONTINUOUS
 10
-0.4198287021
 20
13.3870033964
 11
-0.4122087021
 21
13.3426945075
  0
LINE
  5
359
100
AcDbEntity
  8
0
100
AcDbLine
 62
253
  6
CONTINUOUS
 10
1.1019174105
 20
-13.3168779796
 11
1.1096432438
 21
-13.2691118685
  0
LWPOLYLINE
  5
35A
100
AcDbEntity
  8
ASSI
100
AcDbPolyline
 62
253
  6
CONTINUOUS
 90
13
 70
0
 10
10.1342871322
 20
22.0700360412
 10
10.1338682692
 20
22.0684912679
 10
10.1334506621
 20
22.0663714342
 10
10.1330343111
 20
22.0636777704
 10
10.1326189819
 20
22.0604118438
 10
10.1322049087
 20
22.0565755415
 10
10.1317927939
 20
22.0521710593
 10
10.1313826331
 20
22.0472009193
 10
10.1309744307
 20
22.0416680001
 10
10.1305689029
 20
22.0355755201
 10
10.1301660592
 20
22.0289270136
 10
10.1297658901
 20
22.0217263093
 10
10.1289756412
 20
22.0056852054
  0
LWPOLYLINE
  5
35B
100
AcDbEntity
  8
0
100
AcDbPolyline
 62
253
  6
CONTINUOUS
 90
30
 70
0
 10
-1.6843728745
 20
12.1692261869
 10
-1.6861863462
 20
12.1713760901
 10
-1.6879654075
 20
12.1735109406
 10
-1.6897074963
 20
12.1756331199
 10
-1.6914100507
 20
12.1777450091
 10
-1.6930706923
 20
12.1798492005
 10
-1.6946877773
 20
12.1819491305
 10
-1.6962598458
 20
12.1840484464
 10
-1.6977854376
 20
12.1861507956
 10
-1.6992627962
 20
12.1882592199
 10
-1.7006889785
 20
12.1903743383
 10
-1.7020607449
 20
12.1924961644
 10
-1.7033748557
 20
12.1946247116
 10
-1.7043826477
 20
12.1963325979
 10
-1.7053509627
 20
12.1980460034
 10
-1.7062792965
 20
12.1997661372
 10
-1.707167145
 20
12.2014942083
 10
-1.7080140041
 20
12.2032314258
 10
-1.7088192097
 20
12.2049787647
 10
-1.709581457
 20
12.2067362642
 10
-1.7102992817
 20
12.2085037292
 10
-1.7109712189
 20
12.210280965
 10
-1.7115958043
 20
12.2120677765
 10
-1.7120114188
 20
12.2133499419
 10
-1.7123972999
 20
12.2146375226
 10
-1.7127486205
 20
12.2159311476
 10
-1.7130605535
 20
12.2172314462
 10
-1.7133282721
 20
12.2185390475
 10
-1.7135469491
 20
12.2198545806
 10
-1.7137117574
 20
12.2211786745
  0
LWPOLYLINE
  5
35C
100
AcDbEntity
  8
0
100
AcDbPolyline
 62
253
  6
CONTINUOUS
 90
5
 70
0
 10
-1.6691206463
 20
12.1510817301
 10
-1.6713321161
 20
12.1538150569
 10
-1.6735445481
 20
12.1564919439
 10
-1.6757508491
 20
12.1591180028
 10
-1.6843728745
 20
12.1692261869
  0
LWPOLYLINE
  5
35D
100
AcDbEntity
  8
0
100
AcDbPolyline
 62
253
  6
CONTINUOUS
 90
24
 70
0
 10
-0.1689645337
 20
-12.1023699243
 10
-0.1699400681
 20
-12.1035093666
 10
-0.1708898641
 20
-12.1046683575
 10
-0.1718147562
 20
-12.1058459843
 10
-0.172715579
 20
-12.1070413342
 10
-0.1735931671
 20
-12.1082534944
 10
-0.1744483549
 20
-12.1094815521
 10
-0.1752819771
 20
-12.1107245945
 10
-0.1760948681
 20
-12.111981709
 10
-0.1768878626
 20
-12.1132519827
 10
-0.1776617949
 20
-12.1145345029
 10
-0.1784174998
 20
-12.1158283567
 10
-0.1791558118
 20
-12.1171326315
 10
-0.1798775653
 20
-12.1184464144
 10
-0.1805835949
 20
-12.1197687927
 10
-0.1815473153
 20
-12.1216331394
 10
-0.1824847787
 20
-12.1235119282
 10
-0.1833989112
 20
-12.1254045434
 10
-0.184292639
 20
-12.127310369
 10
-0.1851688881
 20
-12.1292287893
 10
-0.1860305846
 20
-12.1311591884
 10
-0.1868806546
 20
-12.1331009507
 10
-0.1877220243
 20
-12.1350534601
 10
-0.189390367
 20
-12.1389882576
  0
LINE
  5
35E
100
AcDbEntity
  8
0
100
AcDbLine
 62
253
  6
CONTINUOUS
 10
-0.636540091
 20
11.6545822857
 11
-1.0406470353
 21
12.0586539523
  0
LWPOLYLINE
  5
35F
100
AcDbEntity
  8
0
100
AcDbPolyline
 62
253
  6
CONTINUOUS
 90
53
 70
0
 10
0.8052274087
 20
11.392292008
 10
0.8009924006
 20
11.3972142049
 10
0.7969490859
 20
11.4022295765
 10
0.7930843842
 20
11.4073484513
 10
0.7893852148
 20
11.4125811578
 10
0.7858384972
 20
11.4179380245
 10
0.7824339977
 20
11.4234274466
 10
0.7791728711
 20
11.4290500859
 10
0.776059119
 20
11.4348046707
 10
0.7730967429
 20
11.4406899296
 10
0.7702897445
 20
11.4467045909
 10
0.7676426177
 20
11.4528463554
 10
0.7651618252
 20
11.4591088123
 10
0.7628543221
 20
11.4654845233
 10
0.7607270633
 20
11.47196605
 10
0.7587870038
 20
11.4785459539
 10
0.7573184236
 20
11.4840968272
 10
0.7559894109
 20
11.4896935709
 10
0.7548047039
 20
11.4953189033
 10
0.7537682561
 20
11.5009604687
 10
0.7528808833
 20
11.5066256152
 10
0.7521426164
 20
11.5123266164
 10
0.7514546994
 20
11.5192263109
 10
0.7509884309
 20
11.5261798181
 10
0.7507507024
 20
11.5331716457
 10
0.7507484049
 20
11.5401863013
 10
0.7509884297
 20
11.5472082925
 10
0.7514753973
 20
11.5542225236
 10
0.7522048446
 20
11.5612154859
 10
0.7531700377
 20
11.5681740675
 10
0.7543642429
 20
11.5750851563
 10
0.7557807263
 20
11.5819356405
 10
0.7571270736
 20
11.5875918889
 10
0.7586252488
 20
11.5932089555
 10
0.760277396
 20
11.5987988508
 10
0.7620840923
 20
11.6043681865
 10
0.7640396458
 20
11.6099019804
 10
0.7661367975
 20
11.6153798517
 10
0.7688306602
 20
11.6218552746
 10
0.7717089789
 20
11.6282125498
 10
0.7747627609
 20
11.6344434067
 10
0.7779830137
 20
11.6405395745
 10
0.781360745
 20
11.6464927824
 10
0.7848878325
 20
11.6522961774
 10
0.7885596358
 20
11.6579485767
 10
0.7923723848
 20
11.6634502151
 10
0.7963223095
 20
11.6688013277
 10
0.8004056397
 20
11.6740021492
 10
0.8046216977
 20
11.679054343
 10
0.8089821752
 20
11.6839652866
 10
0.8135018562
 20
11.6887437858
 10
0.8181955245
 20
11.6933986465
 10
0.8230779642
 20
11.6979386746
  0
LWPOLYLINE
  5
360
100
AcDbEntity
  8
0
100
AcDbPolyline
 62
253
  6
CONTINUOUS
 90
39
 70
0
 10
0.2162649088
 20
11.9885570079
 10
0.2192199403
 20
11.984767064
 10
0.2222471515
 20
11.9810862321
 10
0.2253475763
 20
11.9775078994
 10
0.2285222487
 20
11.9740254531
 10
0.2317722025
 20
11.9706322805
 10
0.2350984719
 20
11.9673217687
 10
0.2385020906
 20
11.964087305
 10
0.2425715902
 20
11.9604029351
 10
0.2467462438
 20
11.9568138358
 10
0.251024517
 20
11.9533207684
 10
0.2554048753
 20
11.9499244941
 10
0.2598857843
 20
11.9466257745
 10
0.2644657095
 20
11.9434253708
 10
0.2691421717
 20
11.9403246051
 10
0.2739089116
 20
11.9373270422
 10
0.2787587254
 20
11.9344368078
 10
0.2836844089
 20
11.9316580274
 10
0.2886787583
 20
11.9289948266
 10
0.2937345694
 20
11.9264513309
 10
0.2988444642
 20
11.9240313709
 10
0.3040003673
 20
11.9217375982
 10
0.3091940295
 20
11.9195723692
 10
0.3144172013
 20
11.9175380403
 10
0.3196616335
 20
11.9156369683
 10
0.3249190766
 20
11.9138715094
 10
0.33018242
 20
11.91224356
 10
0.3354491079
 20
11.9107531749
 10
0.340717723
 20
11.9093999487
 10
0.3459868485
 20
11.908183476
 10
0.351255067
 20
11.9071033513
 10
0.3565209614
 20
11.9061591691
 10
0.3610328188
 20
11.9054581726
 10
0.3655479802
 20
11.9048589628
 10
0.3700724981
 20
11.9043637481
 10
0.3746124252
 20
11.9039747369
 10
0.3791738139
 20
11.9036941375
 10
0.3837627168
 20
11.9035241584
 10
0.3883851866
 20
11.9034670079
  0
LWPOLYLINE
  5
361
100
AcDbEntity
  8
ASSI
100
AcDbPolyline
 62
253
  6
CONTINUOUS
 90
17
 70
0
 10
10.6275130373
 20
-21.49831899
 10
10.627895041
 20
-21.5032647996
 10
10.6282810891
 20
-21.5079461011
 10
10.6286711746
 20
-21.5123633519
 10
10.6290646229
 20
-21.5165089067
 10
10.6294614395
 20
-21.5203822931
 10
10.6298616189
 20
-21.5239839835
 10
10.6302644702
 20
-21.5273077508
 10
10.6306699989
 20
-21.5303531181
 10
10.6310781995
 20
-21.5331205623
 10
10.6314883645
 20
-21.5356052863
 10
10.6319005045
 20
-21.537806809
 10
10.6323146088
 20
-21.5397256116
 10
10.632729939
 20
-21.5413583408
 10
10.6331462488
 20
-21.542703879
 10
10.6335637843
 20
-21.5437633438
 10
10.6339825457
 20
-21.5445367352
  0
LINE
  5
362
100
AcDbEntity
  8
ASSI
100
AcDbLine
 62
253
  6
CONTINUOUS
 10
10.6267617957
 20
-21.4876442361
 11
10.6275130373
 21
-21.49831899
  0
LINE
  5
363
100
AcDbEntity
  8
ASSI
100
AcDbLine
 62
253
  6
CONTINUOUS
 10
10.626029334
 20
-21.4759484654
 11
10.6267617957
 21
-21.4876442361
  0
LWPOLYLINE
  5
364
100
AcDbEntity
  8
ASSI
100
AcDbPolyline
 62
253
  6
CONTINUOUS
 90
11
 70
0
 10
10.1301660592
 20
-22.002742475
 10
10.1305689029
 20
-22.0093909814
 10
10.1309744307
 20
-22.0154834615
 10
10.1313826331
 20
-22.0210163807
 10
10.1317927939
 20
-22.0259865206
 10
10.1322049087
 20
-22.0303910028
 10
10.1326189819
 20
-22.0342273052
 10
10.1330343111
 20
-22.0374932317
 10
10.1334506621
 20
-22.0401868955
 10
10.1338682692
 20
-22.0423067292
 10
10.1342871322
 20
-22.0438515026
  0
LINE
  5
365
100
AcDbEntity
  8
ASSI
100
AcDbLine
 62
253
  6
CONTINUOUS
 10
10.6253175327
 20
-21.4632631701
 11
10.626029334
 21
-21.4759484654
  0
LINE
  5
366
100
AcDbEntity
  8
ASSI
100
AcDbLine
 62
253
  6
CONTINUOUS
 10
10.1293690828
 20
-21.9877930132
 11
10.1301660592
 21
-22.002742475
  0
LINE
  5
367
100
AcDbEntity
  8
ASSI
100
AcDbLine
 62
253
  6
CONTINUOUS
 10
10.6246276214
 20
-21.4496102922
 11
10.6253175327
 21
-21.4632631701
  0
LINE
  5
368
100
AcDbEntity
  8
ASSI
100
AcDbLine
 62
253
  6
CONTINUOUS
 10
10.6239614133
 20
-21.4350242327
 11
10.6246276214
 21
-21.4496102922
  0
LINE
  5
369
100
AcDbEntity
  8
ASSI
100
AcDbLine
 62
253
  6
CONTINUOUS
 10
10.1285855614
 20
-21.9706695237
 11
10.1293690828
 21
-21.9877930132
  0
LINE
  5
36A
100
AcDbEntity
  8
ASSI
100
AcDbLine
 62
253
  6
CONTINUOUS
 10
10.623320612
 20
-21.4195439011
 11
10.6239614133
 21
-21.4350242327
  0
LINE
  5
36B
100
AcDbEntity
  8
ASSI
100
AcDbLine
 62
253
  6
CONTINUOUS
 10
10.1278175226
 20
-21.9514115717
 11
10.1285855614
 21
-21.9706695237
  0
LINE
  5
36C
100
AcDbEntity
  8
ASSI
100
AcDbLine
 62
253
  6
CONTINUOUS
 10
10.1266977255
 20
-21.9186211394
 11
10.1278175226
 21
-21.9514115717
  0
LINE
  5
36D
100
AcDbEntity
  8
ASSI
100
AcDbLine
 62
253
  6
CONTINUOUS
 10
10.1256220581
 20
-21.8812997379
 11
10.1266977255
 21
-21.9186211394
  0
LINE
  5
36E
100
AcDbEntity
  8
ASSI
100
AcDbLine
 62
253
  6
CONTINUOUS
 10
10.1242659632
 20
-21.824827925
 11
10.1256220581
 21
-21.8812997379
  0
LWPOLYLINE
  5
36F
100
AcDbEntity
  8
ASSI
100
AcDbPolyline
 62
253
  6
CONTINUOUS
 90
3
 70
0
 10
10.1224247551
 20
-21.7268259313
 10
10.1227143119
 20
-21.7441990887
 10
10.1242659632
 20
-21.824827925
  0
LINE
  5
370
100
AcDbEntity
  8
ASSI
100
AcDbLine
 62
253
  6
CONTINUOUS
 10
10.1239423168
 20
21.8357497022
 11
10.1224247551
 21
21.75301047
  0
LINE
  5
371
100
AcDbEntity
  8
ASSI
100
AcDbLine
 62
253
  6
CONTINUOUS
 10
10.1252741484
 20
21.8940697839
 11
10.1239423168
 21
21.8357497022
  0
LINE
  5
372
100
AcDbEntity
  8
ASSI
100
AcDbLine
 62
253
  6
CONTINUOUS
 10
10.1263338466
 20
21.9328595475
 11
10.1252741484
 21
21.8940697839
  0
LINE
  5
373
100
AcDbEntity
  8
ASSI
100
AcDbLine
 62
253
  6
CONTINUOUS
 10
10.1274395635
 20
21.967180417
 11
10.1263338466
 21
21.9328595475
  0
LINE
  5
374
100
AcDbEntity
  8
ASSI
100
AcDbLine
 62
253
  6
CONTINUOUS
 10
10.1281995193
 20
21.9874892286
 11
10.1274395635
 21
21.967180417
  0
LINE
  5
375
100
AcDbEntity
  8
ASSI
100
AcDbLine
 62
253
  6
CONTINUOUS
 10
10.1289756412
 20
22.0056852054
 11
10.1281995193
 21
21.9874892286
  0
LINE
  5
376
100
AcDbEntity
  8
ASSI
100
AcDbLine
 62
253
  6
CONTINUOUS
 10
10.624291557
 20
21.4686183468
 11
10.623320612
 21
21.4457284397
  0
LINE
  5
377
100
AcDbEntity
  8
ASSI
100
AcDbLine
 62
253
  6
CONTINUOUS
 10
10.6249696167
 20
21.4827378155
 11
10.624291557
 21
21.4686183468
  0
LINE
  5
378
100
AcDbEntity
  8
ASSI
100
AcDbLine
 62
253
  6
CONTINUOUS
 10
10.6256707686
 20
21.4959129112
 11
10.6249696167
 21
21.4827378155
  0
LINE
  5
379
100
AcDbEntity
  8
ASSI
100
AcDbLine
 62
253
  6
CONTINUOUS
 10
10.6263932194
 20
21.5081084061
 11
10.6256707686
 21
21.4959129112
  0
LWPOLYLINE
  5
37A
100
AcDbEntity
  8
0
100
AcDbPolyline
 62
253
  6
CONTINUOUS
 90
55
 70
0
 10
1.738081577
 20
-11.9216418688
 10
1.7421561261
 20
-11.9164570087
 10
1.7463600264
 20
-11.9114490821
 10
1.7507008725
 20
-11.9066027043
 10
1.755186259
 20
-11.9019024905
 10
1.7598237805
 20
-11.8973330559
 10
1.7646196959
 20
-11.8928822678
 10
1.7695749217
 20
-11.8885510027
 10
1.7746890385
 20
-11.8843433889
 10
1.7799616273
 20
-11.8802635551
 10
1.7853922687
 20
-11.8763156296
 10
1.7909795441
 20
-11.8725044836
 10
1.7967180376
 20
-11.8688379587
 10
1.8026013335
 20
-11.8653246394
 10
1.8086230164
 20
-11.8619731097
 10
1.8147766708
 20
-11.8587919541
 10
1.8199986669
 20
-11.8562778698
 10
1.8252907476
 20
-11.8538962626
 10
1.8306358058
 20
-11.8516553327
 10
1.8360216119
 20
-11.8495614937
 10
1.8414554467
 20
-11.8476140113
 10
1.8469494685
 20
-11.8458103646
 10
1.8525124766
 20
-11.8441493472
 10
1.8581398342
 20
-11.8426350122
 10
1.8638235455
 20
-11.8412727274
 10
1.8695556145
 20
-11.8400678607
 10
1.8753280455
 20
-11.83902578
 10
1.8811328424
 20
-11.8381518531
 10
1.8869619124
 20
-11.8374500972
 10
1.8928067745
 20
-11.8369191265
 10
1.8986588507
 20
-11.8365562043
 10
1.9045095627
 20
-11.8363585943
 10
1.9103503327
 20
-11.8363235598
 10
1.9161725824
 20
-11.8364483643
 10
1.9219712311
 20
-11.8367306818
 10
1.9277551862
 20
-11.8371698276
 10
1.9335368525
 20
-11.8377655277
 10
1.9393230393
 20
-11.8385169741
 10
1.9450981742
 20
-11.8394212232
 10
1.9508410893
 20
-11.8404747977
 10
1.9576647324
 20
-11.8419310719
 10
1.9644017967
 20
-11.8435899867
 10
1.9710425816
 20
-11.8454441617
 10
1.9775773867
 20
-11.8474862163
 10
1.9839965115
 20
-11.84970877
 10
1.9902917862
 20
-11.8521050297
 10
1.9964611642
 20
-11.8546705517
 10
2.0025041297
 20
-11.8574014795
 10
2.0084201667
 20
-11.8602939568
 10
2.0142087593
 20
-11.8633441271
 10
2.0198713795
 20
-11.8665509569
 10
2.0254174499
 20
-11.8699247041
 10
2.0308583809
 20
-11.8734784494
 10
2.0362055827
 20
-11.8772252737
 10
2.0414704658
 20
-11.8811782577
  0
LWPOLYLINE
  5
37B
100
AcDbEntity
  8
0
100
AcDbPolyline
 62
253
  6
CONTINUOUS
 90
26
 70
0
 10
1.0802568549
 20
-13.3542018685
 10
1.0815224643
 20
-13.3526876322
 10
1.0827584065
 20
-13.3511718534
 10
1.0839644688
 20
-13.3496542261
 10
1.0851404386
 20
-13.3481344443
 10
1.0862861031
 20
-13.346612202
 10
1.0874012496
 20
-13.3450871932
 10
1.0884856655
 20
-13.343559112
 10
1.0895391381
 20
-13.3420276523
 10
1.0905614547
 20
-13.3404925082
 10
1.0915524026
 20
-13.3389533736
 10
1.0925117691
 20
-13.3374099426
 10
1.0934393415
 20
-13.3358619093
 10
1.0942671152
 20
-13.3344286344
 10
1.095067189
 20
-13.3329911082
 10
1.0958391348
 20
-13.3315492616
 10
1.0965825247
 20
-13.3301030255
 10
1.0972969309
 20
-13.3286523308
 10
1.0979819253
 20
-13.3271971086
 10
1.09863708
 20
-13.3257372897
 10
1.0992619671
 20
-13.3242728051
 10
1.0998561587
 20
-13.3228035858
 10
1.1004192267
 20
-13.3213295626
 10
1.1009507433
 20
-13.3198506666
 10
1.1014502806
 20
-13.3183668286
 10
1.1019174105
 20
-13.3168779796
  0
LINE
  5
37C
100
AcDbEntity
  8
0
100
AcDbLine
 62
253
  6
CONTINUOUS
 10
0.8877812994
 20
-11.5819521467
 11
0.4645890773
 21
-12.0032393688
  0
LWPOLYLINE
  5
37D
100
AcDbEntity
  8
0
100
AcDbPolyline
 62
253
  6
CONTINUOUS
 90
26
 70
0
 10
0.4645890773
 20
-12.0032393688
 10
0.461892065
 20
-12.0054138784
 10
0.4591628533
 20
-12.0075447067
 10
0.4564006173
 20
-12.0096319939
 10
0.4536045321
 20
-12.0116758802
 10
0.4507737729
 20
-12.013676506
 10
0.4479075149
 20
-12.0156340117
 10
0.4450049333
 20
-12.0175485373
 10
0.4420652031
 20
-12.0194202234
 10
0.4390878768
 20
-12.0212489069
 10
0.4360740161
 20
-12.0230332125
 10
0.4330250597
 20
-12.0247714616
 10
0.4299424466
 20
-12.0264619756
 10
0.4268276155
 20
-12.028103076
 10
0.4236820054
 20
-12.0296930841
 10
0.4205070552
 20
-12.0312303214
 10
0.4173042037
 20
-12.0327131093
 10
0.4144346863
 20
-12.03398415
 10
0.4115436021
 20
-12.0352101121
 10
0.408630293
 20
-12.0363902645
 10
0.4056941007
 20
-12.0375238768
 10
0.402734367
 20
-12.038610218
 10
0.3997504338
 20
-12.0396485574
 10
0.3967416429
 20
-12.0406381643
 10
0.3937073361
 20
-12.041578308
 10
0.3906468551
 20
-12.0424682577
  0
LWPOLYLINE
  5
37E
100
AcDbEntity
  8
0
100
AcDbPolyline
 62
253
  6
CONTINUOUS
 90
5
 70
0
 10
-0.1533149313
 20
-12.0899047207
 10
-0.1571994031
 20
-12.09295245
 10
-0.1611049331
 20
-12.0960486582
 10
-0.1650281468
 20
-12.0991896709
 10
-0.1689645337
 20
-12.1023699243
  0
LINE
  5
37F
100
AcDbEntity
  8
ASSI
100
AcDbLine
 62
253
  6
CONTINUOUS
 10
-11.329006852
 20
9.5065180408
 11
-11.3185585199
 21
9.5070275178
  0
LINE
  5
380
100
AcDbEntity
  8
ASSI
100
AcDbLine
 62
253
  6
CONTINUOUS
 10
-11.3185585199
 20
9.5070275178
 11
-11.3066233028
 21
9.5075258817
  0
LINE
  5
381
100
AcDbEntity
  8
ASSI
100
AcDbLine
 62
253
  6
CONTINUOUS
 10
-11.3066233028
 20
9.5075258817
 11
-11.2932398116
 21
9.5080115203
  0
LINE
  5
382
100
AcDbEntity
  8
ASSI
100
AcDbLine
 62
253
  6
CONTINUOUS
 10
-11.2932398116
 20
9.5080115203
 11
-11.2705450178
 21
9.5087126938
  0
LINE
  5
383
100
AcDbEntity
  8
ASSI
100
AcDbLine
 62
253
  6
CONTINUOUS
 10
-11.2705450178
 20
9.5087126938
 11
-11.235658111
 21
9.5095887913
  0
LINE
  5
384
100
AcDbEntity
  8
ASSI
100
AcDbLine
 62
253
  6
CONTINUOUS
 10
-11.235658111
 20
9.5095887913
 11
-11.1852587872
 21
9.5105736484
  0
LINE
  5
385
100
AcDbEntity
  8
ASSI
100
AcDbLine
 62
253
  6
CONTINUOUS
 10
-11.1852587872
 20
9.5105736484
 11
-11.1161819281
 21
9.5115678605
  0
LINE
  5
386
100
AcDbEntity
  8
ASSI
100
AcDbLine
 62
253
  6
CONTINUOUS
 10
-11.1161819281
 20
9.5115678605
 11
-11.0263000742
 21
9.5124332569
  0
LINE
  5
387
100
AcDbEntity
  8
ASSI
100
AcDbLine
 62
253
  6
CONTINUOUS
 10
-11.0263000742
 20
9.5124332569
 11
-10.9157014836
 21
9.5129931986
  0
LINE
  5
388
100
AcDbEntity
  8
ASSI
100
AcDbLine
 62
253
  6
CONTINUOUS
 10
-10.9157014836
 20
9.5129931986
 11
10.0835728226
 21
9.5130922693
  0
LINE
  5
389
100
AcDbEntity
  8
ASSI
100
AcDbLine
 62
253
  6
CONTINUOUS
 10
10.1963636817
 20
9.512772577
 11
10.0835728226
 21
9.5130922693
  0
LINE
  5
38A
100
AcDbEntity
  8
ASSI
100
AcDbLine
 62
253
  6
CONTINUOUS
 10
10.30334
 20
9.5119796258
 11
10.1963636817
 21
9.512772577
  0
LINE
  5
38B
100
AcDbEntity
  8
ASSI
100
AcDbLine
 62
253
  6
CONTINUOUS
 10
10.3764195172
 20
9.5110980619
 11
10.30334
 21
9.5119796258
  0
LINE
  5
38C
100
AcDbEntity
  8
ASSI
100
AcDbLine
 62
253
  6
CONTINUOUS
 10
10.430903065
 20
9.5101955665
 11
10.3764195172
 21
9.5110980619
  0
LINE
  5
38D
100
AcDbEntity
  8
ASSI
100
AcDbLine
 62
253
  6
CONTINUOUS
 10
10.4694889528
 20
9.5093766093
 11
10.430903065
 21
9.5101955665
  0
LINE
  5
38E
100
AcDbEntity
  8
ASSI
100
AcDbLine
 62
253
  6
CONTINUOUS
 10
10.495178746
 20
9.5087126938
 11
10.4694889528
 21
9.5093766093
  0
LINE
  5
38F
100
AcDbEntity
  8
ASSI
100
AcDbLine
 62
253
  6
CONTINUOUS
 10
10.5178735398
 20
9.5080115203
 11
10.495178746
 21
9.5087126938
  0
LINE
  5
390
100
AcDbEntity
  8
ASSI
100
AcDbLine
 62
253
  6
CONTINUOUS
 10
10.531257031
 20
9.5075258817
 11
10.5178735398
 21
9.5080115203
  0
LINE
  5
391
100
AcDbEntity
  8
ASSI
100
AcDbLine
 62
253
  6
CONTINUOUS
 10
10.5431922481
 20
9.5070275178
 11
10.531257031
 21
9.5075258817
  0
LINE
  5
392
100
AcDbEntity
  8
0
100
AcDbLine
 62
253
  6
CONTINUOUS
 10
-1.0406470353
 20
12.0586539523
 11
-1.096738702
 21
12.0991175634
  0
LINE
  5
393
100
AcDbEntity
  8
0
100
AcDbLine
 62
253
  6
CONTINUOUS
 10
-0.5995689799
 20
11.6268539524
 11
-0.636540091
 21
11.6545822857
  0
LWPOLYLINE
  5
394
100
AcDbEntity
  8
0
100
AcDbPolyline
 62
253
  6
CONTINUOUS
 90
29
 70
0
 10
-0.4675318345
 20
13.4476502713
 10
-0.4561895229
 20
13.4368895129
 10
-0.4534472999
 20
13.4342416625
 10
-0.4507541261
 20
13.4315932051
 10
-0.4486390652
 20
13.4294687668
 10
-0.4465635138
 20
13.4273377897
 10
-0.4445318437
 20
13.4251997371
 10
-0.4425484266
 20
13.4230540724
 10
-0.4406176341
 20
13.4209002588
 10
-0.4390518222
 20
13.4190987769
 10
-0.4375270919
 20
13.4172908004
 10
-0.4360449438
 20
13.4154758663
 10
-0.4346068788
 20
13.4136535117
 10
-0.4332143975
 20
13.4118232736
 10
-0.4318690007
 20
13.4099846889
 10
-0.430572021
 20
13.4081371746
 10
-0.4293241192
 20
13.4062796671
 10
-0.4281257877
 20
13.4044109828
 10
-0.4269774522
 20
13.4025300463
 10
-0.4258792702
 20
13.4006362146
 10
-0.4248313325
 20
13.3987289532
 10
-0.4240788451
 20
13.397289496
 10
-0.423357342
 20
13.3958427006
 10
-0.4226694937
 20
13.3943890838
 10
-0.4220179711
 20
13.3929291623
 10
-0.4214054473
 20
13.3914629315
 10
-0.4208346047
 20
13.3899883013
 10
-0.4203081281
 20
13.3885026601
 10
-0.4198287021
 20
13.3870033964
  0
LWPOLYLINE
  5
395
100
AcDbEntity
  8
0
100
AcDbPolyline
 62
253
  6
CONTINUOUS
 90
3
 70
0
 10
-0.473345091
 20
13.4532550631
 10
-0.470431499
 20
13.4504266567
 10
-0.4675318345
 20
13.4476502713
  0
LWPOLYLINE
  5
396
100
AcDbEntity
  8
0
100
AcDbPolyline
 62
253
  6
CONTINUOUS
 90
53
 70
0
 10
1.3750340752
 20
10.8177228415
 10
1.3706539182
 20
10.8225782788
 10
1.3664658873
 20
10.8275311556
 10
1.3624565168
 20
10.8325914093
 10
1.3586123411
 20
10.8377689773
 10
1.3549198943
 20
10.843073797
 10
1.3513686118
 20
10.8485139663
 10
1.347959532
 20
10.8540902243
 10
1.3446965943
 20
10.8598014705
 10
1.3415837381
 20
10.8656466043
 10
1.3386249029
 20
10.8716245254
 10
1.33582457
 20
10.8777330633
 10
1.3331893893
 20
10.8839657689
 10
1.3307265526
 20
10.8903151231
 10
1.3284432515
 20
10.8967736071
 10
1.326346678
 20
10.9033337016
 10
1.3247475235
 20
10.9088704169
 10
1.3232881716
 20
10.9144547731
 10
1.321973759
 20
10.9200690696
 10
1.3208084949
 20
10.9257005981
 10
1.3197928807
 20
10.931356618
 10
1.3189264904
 20
10.9370493811
 10
1.3180844716
 20
10.9439404047
 10
1.3174636272
 20
10.9508868909
 10
1.3170708624
 20
10.9578737496
 10
1.3169130824
 20
10.9648858908
 10
1.3169971924
 20
10.9719082244
 10
1.3173278352
 20
10.9789259276
 10
1.317900605
 20
10.9859252461
 10
1.3187088334
 20
10.9928926926
 10
1.3197458523
 20
10.9998147801
 10
1.3210049936
 20
11.0066780214
 10
1.3222200854
 20
11.0123460246
 10
1.3235865882
 20
11.0179758982
 10
1.3251062921
 20
11.0235797444
 10
1.3267795606
 20
11.0291642635
 10
1.3286010519
 20
11.0347145496
 10
1.3305639974
 20
11.0402102953
 10
1.3330972104
 20
11.0467090572
 10
1.3358156077
 20
11.0530916668
 10
1.3387104259
 20
11.059349753
 10
1.3417729016
 20
11.0654749443
 10
1.3449942716
 20
11.0714588695
 10
1.348366603
 20
11.0772945845
 10
1.3518852853
 20
11.0829808536
 10
1.3555465389
 20
11.0885178685
 10
1.3593465837
 20
11.0939058205
 10
1.3632816399
 20
11.0991449013
 10
1.3673509641
 20
11.1042367824
 10
1.3715659586
 20
11.109189056
 10
1.3759410624
 20
11.1140107941
 10
1.3804907143
 20
11.1187110689
 10
1.385229353
 20
11.1232989525
  0
LINE
  5
397
100
AcDbEntity
  8
ASSI
100
AcDbLine
 62
253
  6
CONTINUOUS
 10
10.6224097352
 20
-21.394712325
 11
10.623320612
 21
-21.4195439011
  0
LINE
  5
398
100
AcDbEntity
  8
ASSI
100
AcDbLine
 62
253
  6
CONTINUOUS
 10
10.6215636489
 20
-21.3680679706
 11
10.6224097352
 21
-21.394712325
  0
LINE
  5
399
100
AcDbEntity
  8
ASSI
100
AcDbLine
 62
253
  6
CONTINUOUS
 10
10.620543759
 20
-21.3299588073
 11
10.6215636489
 21
-21.3680679706
  0
LINE
  5
39A
100
AcDbEntity
  8
ASSI
100
AcDbLine
 62
253
  6
CONTINUOUS
 10
10.61965634
 20
-21.2892308767
 11
10.620543759
 21
-21.3299588073
  0
LWPOLYLINE
  5
39B
100
AcDbEntity
  8
ASSI
100
AcDbPolyline
 62
253
  6
CONTINUOUS
 90
46
 70
0
 10
10.5801249709
 20
-0.3823717374
 10
10.5799701744
 20
-0.3736488855
 10
10.5795112834
 20
-0.364936657
 10
10.5787488569
 20
-0.3562456622
 10
10.5776838234
 20
-0.3475864856
 10
10.5763174799
 20
-0.3389696731
 10
10.5746514905
 20
-0.3304057188
 10
10.5726878841
 20
-0.3219050526
 10
10.5704290522
 20
-0.3134780272
 10
10.5678777458
 20
-0.3051349056
 10
10.565037072
 20
-0.2968858488
 10
10.5619104904
 20
-0.288740903
 10
10.5585018088
 20
-0.2807099877
 10
10.5548151786
 20
-0.2728028836
 10
10.5508550895
 20
-0.2650292206
 10
10.5466263645
 20
-0.2573984659
 10
10.5421341537
 20
-0.2499199129
 10
10.5373839279
 20
-0.2426026695
 10
10.5323814724
 20
-0.2354556473
 10
10.5271328795
 20
-0.2284875502
 10
10.5216445414
 20
-0.2217068647
 10
10.5159231421
 20
-0.2151218487
 10
10.5099756496
 20
-0.208740522
 10
10.5038093072
 20
-0.2025706562
 10
10.4974316247
 20
-0.1966197654
 10
10.4908503693
 20
-0.190895097
 10
10.4840735563
 20
-0.185403623
 10
10.4771094388
 20
-0.1801520313
 10
10.4699664983
 20
-0.1751467176
 10
10.4626534339
 20
-0.1703937778
 10
10.4551791522
 20
-0.1658990004
 10
10.4475527558
 20
-0.1616678595
 10
10.4397835327
 20
-0.1577055079
 10
10.4318809448
 20
-0.1540167715
 10
10.4238546165
 20
-0.1506061425
 10
10.4157143229
 20
-0.1474777747
 10
10.4074699778
 20
-0.1446354781
 10
10.3991316217
 20
-0.1420827142
 10
10.3907094097
 20
-0.1398225919
 10
10.3822135991
 20
-0.1378578638
 10
10.3736545366
 20
-0.1361909227
 10
10.365042646
 20
-0.1348237987
 10
10.3563884157
 20
-0.1337581568
 10
10.3477023853
 20
-0.1329952947
 10
10.3389951333
 20
-0.1325361416
 10
10.3302772641
 20
-0.1323812567
  0
LWPOLYLINE
  5
39C
100
AcDbEntity
  8
ASSI
100
AcDbPolyline
 62
253
  6
CONTINUOUS
 90
55
 70
0
 10
10.6339825457
 20
21.5707212739
 10
10.6337451263
 20
21.5852268456
 10
10.6330860977
 20
21.5997201727
 10
10.6320060162
 20
21.6141890209
 10
10.6305057936
 20
21.6286211765
 10
10.6285866963
 20
21.6430044569
 10
10.6262503441
 20
21.6573267207
 10
10.6234987094
 20
21.6715758779
 10
10.6203341148
 20
21.6857399004
 10
10.6167592317
 20
21.6998068318
 10
10.6127770778
 20
21.7137647978
 10
10.6083910145
 20
21.727602016
 10
10.6036047442
 20
21.7413068059
 10
10.5984223073
 20
21.7548675989
 10
10.5928480784
 20
21.7682729478
 10
10.5868867628
 20
21.7815115368
 10
10.5805433927
 20
21.7945721907
 10
10.5738233228
 20
21.8074438845
 10
10.5667322257
 20
21.8201157529
 10
10.5592760873
 20
21.8325770991
 10
10.5514612014
 20
21.844817404
 10
10.5432941649
 20
21.8568263352
 10
10.5347818719
 20
21.8685937556
 10
10.5259315079
 20
21.8801097319
 10
10.5167505438
 20
21.891364543
 10
10.5072467295
 20
21.9023486884
 10
10.4974280875
 20
21.9130528961
 10
10.4873029061
 20
21.9234681301
 10
10.4768797323
 20
21.9335855988
 10
10.4661673645
 20
21.9433967616
 10
10.4551748456
 20
21.9528933365
 10
10.4439114546
 20
21.9620673072
 10
10.4323866993
 20
21.9709109296
 10
10.4206103082
 20
21.9794167386
 10
10.4085922221
 20
21.987577554
 10
10.3963425859
 20
21.9953864871
 10
10.3838717399
 20
22.0028369461
 10
10.3711902112
 20
22.0099226418
 10
10.3583087047
 20
22.016637593
 10
10.345238094
 20
22.0229761312
 10
10.3319894126
 20
22.028932906
 10
10.3185738441
 20
22.034502889
 10
10.3050027129
 20
22.0396813785
 10
10.291287475
 20
22.044464003
 10
10.2774397079
 20
22.0488467254
 10
10.2634711009
 20
22.0528258461
 10
10.2493934454
 20
22.0563980062
 10
10.2352186247
 20
22.0595601904
 10
10.2209586044
 20
22.0623097292
 10
10.2066254219
 20
22.0646443018
 10
10.1922311761
 20
22.0665619374
 10
10.1777880178
 20
22.0680610173
 10
10.163308139
 20
22.0691402761
 10
10.1488037626
 20
22.0697988027
 10
10.1342871322
 20
22.0700360412
  0
LINE
  5
39D
100
AcDbEntity
  8
ASSI
100
AcDbLine
 62
253
  6
CONTINUOUS
 10
10.6187454241
 20
-21.2351998705
 11
10.61965634
 21
-21.2892308767
  0
LINE
  5
39E
100
AcDbEntity
  8
ASSI
100
AcDbLine
 62
253
  6
CONTINUOUS
 10
10.1206137941
 20
-21.5948003108
 11
10.1224247551
 21
-21.7268259313
  0
LINE
  5
39F
100
AcDbEntity
  8
ASSI
100
AcDbLine
 62
253
  6
CONTINUOUS
 10
10.6180671322
 20
-21.1784408309
 11
10.6187454241
 21
-21.2351998705
  0
LINE
  5
3A0
100
AcDbEntity
  8
ASSI
100
AcDbLine
 62
253
  6
CONTINUOUS
 10
10.1188954362
 20
-21.4028688546
 11
10.1206137941
 21
-21.5948003108
  0
LINE
  5
3A1
100
AcDbEntity
  8
ASSI
100
AcDbLine
 62
253
  6
CONTINUOUS
 10
10.6132668763
 20
-20.2627268253
 11
10.6180671322
 21
-21.1784408309
  0
LINE
  5
3A2
100
AcDbEntity
  8
ASSI
100
AcDbLine
 62
7
  6
CONTINUOUS
 10
10.7360095547
 20
21.7238395771
 11
10.7623168641
 21
13.1130922693
  0
LINE
  5
3A3
100
AcDbEntity
  8
ASSI
100
AcDbLine
 62
253
  6
CONTINUOUS
 10
10.1179356765
 20
-21.1943041503
 11
10.1188954362
 21
-21.4028688546
  0
LINE
  5
3A4
100
AcDbEntity
  8
ASSI
100
AcDbLine
 62
253
  6
CONTINUOUS
 10
10.0853072561
 20
-11.2280118172
 11
10.1179356765
 21
-21.1943041503
  0
LINE
  5
3A5
100
AcDbEntity
  8
ASSI
100
AcDbLine
 62
253
  6
CONTINUOUS
 10
10.5839891935
 20
-10.3432565337
 11
10.6132668763
 21
-20.2627268253
  0
LINE
  5
3A6
100
AcDbEntity
  8
ASSI
100
AcDbLine
 62
253
  6
CONTINUOUS
 10
10.0853072561
 20
-11.2280118172
 11
10.0804296102
 21
-0.1344868189
  0
LINE
  5
3A7
100
AcDbEntity
  8
ASSI
100
AcDbLine
 62
253
  6
CONTINUOUS
 10
10.5801250378
 20
-0.3823717207
 11
10.5839891935
 21
-10.3432565337
  0
LINE
  5
3A8
100
AcDbEntity
  8
ASSI
100
AcDbLine
 62
7
  6
CONTINUOUS
 10
10.7623168641
 20
-0.3368411094
 11
10.7623168641
 21
-13.0869077307
  0
LINE
  5
3A9
100
AcDbEntity
  8
ASSI
100
AcDbLine
 62
7
  6
CONTINUOUS
 10
10.7623168641
 20
0.3630256481
 11
10.7623168641
 21
13.1130922693
  0
LINE
  5
3AA
100
AcDbEntity
  8
ASSI
100
AcDbLine
 62
7
  6
CONTINUOUS
 10
10.7360095547
 20
-21.6976550384
 11
10.7623168641
 21
-13.0869077307
  0
LINE
  5
3AB
100
AcDbEntity
  8
ASSI
100
AcDbLine
 62
253
  6
CONTINUOUS
 10
10.1094972073
 20
19.495691688
 11
10.0804296102
 21
0.1606713575
  0
LINE
  5
3AC
100
AcDbEntity
  8
ASSI
100
AcDbLine
 62
253
  6
CONTINUOUS
 10
10.6111935212
 20
19.859970016
 11
10.5801250378
 21
0.4085562594
  0
LINE
  5
3AD
100
AcDbEntity
  8
ASSI
100
AcDbLine
 62
253
  6
CONTINUOUS
 10
10.6179602474
 20
21.1930113954
 11
10.6111935212
 21
19.859970016
  0
LINE
  5
3AE
100
AcDbEntity
  8
ASSI
100
AcDbLine
 62
253
  6
CONTINUOUS
 10
10.1197608014
 20
21.5383299079
 11
10.1094972073
 21
19.495691688
  0
LINE
  5
3AF
100
AcDbEntity
  8
ASSI
100
AcDbLine
 62
253
  6
CONTINUOUS
 10
10.6185908128
 20
21.2502271017
 11
10.6179602474
 21
21.1930113954
  0
LINE
  5
3B0
100
AcDbEntity
  8
ASSI
100
AcDbLine
 62
253
  6
CONTINUOUS
 10
10.1216012804
 20
21.698574589
 11
10.1197608014
 21
21.5383299079
  0
LINE
  5
3B1
100
AcDbEntity
  8
ASSI
100
AcDbLine
 62
253
  6
CONTINUOUS
 10
10.1224247551
 20
21.75301047
 11
10.1216012804
 21
21.698574589
  0
LWPOLYLINE
  5
3B2
100
AcDbEntity
  8
ASSI
100
AcDbPolyline
 62
253
  6
CONTINUOUS
 90
55
 70
0
 10
10.6339825457
 20
-21.5445367352
 10
10.6337451263
 20
-21.5590423073
 10
10.6330860977
 20
-21.5735356347
 10
10.6320060162
 20
-21.5880044831
 10
10.6305057935
 20
-21.602436639
 10
10.6285866961
 20
-21.6168199197
 10
10.6262503438
 20
-21.6311421837
 10
10.623498709
 20
-21.6453913411
 10
10.6203341143
 20
-21.6595553638
 10
10.6167592311
 20
-21.6736222954
 10
10.612777077
 20
-21.6875802616
 10
10.6083910136
 20
-21.7014174799
 10
10.6036047432
 20
-21.71512227
 10
10.5984223062
 20
-21.7286830631
 10
10.5928480771
 20
-21.7420884122
 10
10.5868867614
 20
-21.7553270012
 10
10.5805433912
 20
-21.7683876551
 10
10.5738233211
 20
-21.781259349
 10
10.5667322239
 20
-21.7939312174
 10
10.5592760853
 20
-21.8063925636
 10
10.5514611993
 20
-21.8186328686
 10
10.5432941627
 20
-21.8306417998
 10
10.5347818696
 20
-21.8424092201
 10
10.5259315054
 20
-21.8539251963
 10
10.5167505412
 20
-21.8651800074
 10
10.5072467268
 20
-21.8761641528
 10
10.4974280848
 20
-21.8868683603
 10
10.4873029033
 20
-21.8972835943
 10
10.4768797294
 20
-21.9074010629
 10
10.4661673616
 20
-21.9172122255
 10
10.4551748426
 20
-21.9267088003
 10
10.4439114516
 20
-21.9358827709
 10
10.4323866963
 20
-21.9447263932
 10
10.4206103052
 20
-21.953232202
 10
10.4085922192
 20
-21.9613930173
 10
10.396342583
 20
-21.9692019503
 10
10.3838717371
 20
-21.9766524091
 10
10.3711902084
 20
-21.9837381047
 10
10.358308702
 20
-21.9904530557
 10
10.3452380914
 20
-21.9967915938
 10
10.3319894101
 20
-22.0027483684
 10
10.3185738416
 20
-22.0083183513
 10
10.3050027106
 20
-22.0134968406
 10
10.2912874729
 20
-22.018279465
 10
10.2774397059
 20
-22.0226621873
 10
10.2634710991
 20
-22.026641308
 10
10.2493934437
 20
-22.030213468
 10
10.2352186233
 20
-22.033375652
 10
10.2209586032
 20
-22.0361251908
 10
10.2066254208
 20
-22.0384597633
 10
10.1922311752
 20
-22.0403773988
 10
10.1777880172
 20
-22.0418764787
 10
10.1633081386
 20
-22.0429557374
 10
10.1488037624
 20
-22.043614264
 10
10.1342871322
 20
-22.0438515026
  0
LWPOLYLINE
  5
3B3
100
AcDbEntity
  8
ASSI
100
AcDbPolyline
 62
253
  6
CONTINUOUS
 90
46
 70
0
 10
10.5801249709
 20
0.4085562761
 10
10.5799701744
 20
0.3998334246
 10
10.5795112835
 20
0.3911211964
 10
10.578748857
 20
0.3824302019
 10
10.5776838236
 20
0.3737710258
 10
10.5763174802
 20
0.3651542136
 10
10.5746514909
 20
0.3565902597
 10
10.5726878847
 20
0.3480895938
 10
10.5704290531
 20
0.3396625687
 10
10.5678777468
 20
0.3313194474
 10
10.5650370733
 20
0.3230703908
 10
10.5619104919
 20
0.3149254452
 10
10.5585018105
 20
0.3068945302
 10
10.5548151805
 20
0.2989874263
 10
10.5508550917
 20
0.2912137634
 10
10.546626367
 20
0.2835830088
 10
10.5421341564
 20
0.2761044559
 10
10.5373839309
 20
0.2687872126
 10
10.5323814756
 20
0.2616401904
 10
10.527132883
 20
0.2546720933
 10
10.5216445451
 20
0.2478914078
 10
10.515923146
 20
0.2413063917
 10
10.5099756537
 20
0.2349250649
 10
10.5038093114
 20
0.228755199
 10
10.4974316291
 20
0.222804308
 10
10.4908503739
 20
0.2170796395
 10
10.4840735609
 20
0.2115881653
 10
10.4771094435
 20
0.2063365733
 10
10.469966503
 20
0.2013312594
 10
10.4626534387
 20
0.1965783194
 10
10.4551791569
 20
0.1920835418
 10
10.4475527605
 20
0.1878524006
 10
10.4397835372
 20
0.1838900488
 10
10.4318809492
 20
0.1802013121
 10
10.4238546208
 20
0.1767906829
 10
10.4157143269
 20
0.1736623148
 10
10.4074699815
 20
0.170820018
 10
10.3991316251
 20
0.1682672538
 10
10.3907094128
 20
0.1660071313
 10
10.3822136018
 20
0.1640424031
 10
10.3736545389
 20
0.1623754618
 10
10.365042648
 20
0.1610083376
 10
10.3563884172
 20
0.1599426956
 10
10.3477023863
 20
0.1591798334
 10
10.3389951339
 20
0.1587206803
 10
10.3302772641
 20
0.1585657953
  0
LINE
  5
3B4
100
AcDbEntity
  8
ASSI
100
AcDbLine
 62
253
  6
CONTINUOUS
 10
10.6194561843
 20
21.304868319
 11
10.6185908128
 21
21.2502271017
  0
LINE
  5
3B5
100
AcDbEntity
  8
ASSI
100
AcDbLine
 62
253
  6
CONTINUOUS
 10
10.620309186
 20
21.3461946471
 11
10.6194561843
 21
21.304868319
  0
LINE
  5
3B6
100
AcDbEntity
  8
ASSI
100
AcDbLine
 62
253
  6
CONTINUOUS
 10
10.6212966858
 20
21.3849882823
 11
10.620309186
 21
21.3461946471
  0
LINE
  5
3B7
100
AcDbEntity
  8
ASSI
100
AcDbLine
 62
253
  6
CONTINUOUS
 10
10.6221201735
 20
21.4122067999
 11
10.6212966858
 21
21.3849882823
  0
LWPOLYLINE
  5
3B8
100
AcDbEntity
  8
ASSI
100
AcDbPolyline
 62
253
  6
CONTINUOUS
 90
3
 70
0
 10
10.623320612
 20
21.4457284397
 10
10.6230099544
 20
21.4376576836
 10
10.6221201735
 20
21.4122067999
  0
LWPOLYLINE
  5
3B9
100
AcDbEntity
  8
0
100
AcDbPolyline
 62
253
  6
CONTINUOUS
 90
39
 70
0
 10
1.7788979658
 20
-12.7247757575
 10
1.7842730711
 20
-12.7205047751
 10
1.789526931
 20
-12.7161181391
 10
1.7946625402
 20
-12.7116182081
 10
1.7996828931
 20
-12.7070073402
 10
1.8045909843
 20
-12.7022878938
 10
1.8093898083
 20
-12.6974622272
 10
1.8140823597
 20
-12.6925326988
 10
1.8194256518
 20
-12.6866536937
 10
1.8246269496
 20
-12.680641686
 10
1.8296848317
 20
-12.6745018306
 10
1.8345978767
 20
-12.6682392823
 10
1.8393646632
 20
-12.6618591961
 10
1.8439837697
 20
-12.6553667268
 10
1.8484537256
 20
-12.6487667469
 10
1.8527728619
 20
-12.6420629984
 10
1.8569394607
 20
-12.6352589408
 10
1.8609518037
 20
-12.6283580336
 10
1.8648081727
 20
-12.6213637362
 10
1.8685068497
 20
-12.6142795082
 10
1.8720458146
 20
-12.6071087654
 10
1.875421841
 20
-12.5998547495
 10
1.8786314003
 20
-12.5925206582
 10
1.8816709642
 20
-12.5851096897
 10
1.8845370043
 20
-12.5776250417
 10
1.8872259923
 20
-12.5700699123
 10
1.8897341378
 20
-12.5624475128
 10
1.8920566027
 20
-12.5547611083
 10
1.894188287
 20
-12.5470139774
 10
1.8961240906
 20
-12.5392093985
 10
1.8978589135
 20
-12.5313506502
 10
1.8993876555
 20
-12.523441011
 10
1.9005297367
 20
-12.5166228354
 10
1.9015111749
 20
-12.5097689532
 10
1.9023264802
 20
-12.5028786385
 10
1.9029701628
 20
-12.4959511654
 10
1.903436733
 20
-12.4889858078
 10
1.9037207009
 20
-12.4819818397
 10
1.9038165769
 20
-12.4749385353
  0
LINE
  5
3BA
100
AcDbEntity
  8
0
100
AcDbLine
 62
253
  6
CONTINUOUS
 10
0.9247876883
 20
-11.5561640911
 11
0.8877812994
 21
-11.5819521467
  0
LWPOLYLINE
  5
3BB
100
AcDbEntity
  8
0
100
AcDbPolyline
 62
253
  6
CONTINUOUS
 90
24
 70
0
 10
-0.5128914799
 20
11.6170114524
 10
-0.5147830624
 20
11.616665226
 10
-0.5166864276
 20
11.6163411071
 10
-0.5186018034
 20
11.6160395764
 10
-0.5205294177
 20
11.615761115
 10
-0.5224694984
 20
11.6155062035
 10
-0.5244222733
 20
11.6152753229
 10
-0.5263879705
 20
11.6150689539
 10
-0.5283668178
 20
11.6148875775
 10
-0.5303590431
 20
11.6147316745
 10
-0.5323648743
 20
11.6146017257
 10
-0.5343845394
 20
11.6144982119
 10
-0.5362481905
 20
11.614427022
 10
-0.5381234979
 20
11.6143792068
 10
-0.5400103022
 20
11.6143555242
 10
-0.5419084439
 20
11.6143567321
 10
-0.5438177636
 20
11.6143835883
 10
-0.5457381018
 20
11.6144368507
 10
-0.5476692991
 20
11.6145172772
 10
-0.549611196
 20
11.6146256257
 10
-0.5515636331
 20
11.614762654
 10
-0.553526451
 20
11.6149291201
 10
-0.5554994901
 20
11.6151257818
 10
-0.557482591
 20
11.6153533969
  0
LWPOLYLINE
  5
3BC
100
AcDbEntity
  8
0
100
AcDbPolyline
 62
253
  6
CONTINUOUS
 90
56
 70
0
 10
-2.8304298126
 20
11.1284142303
 10
-2.8386547679
 20
11.1284344099
 10
-2.8467579739
 20
11.1285051173
 10
-2.8547458718
 20
11.1286416053
 10
-2.8626249023
 20
11.1288591266
 10
-2.8704015066
 20
11.1291729341
 10
-2.8780821255
 20
11.1295982805
 10
-2.8856732
 20
11.1301504187
 10
-2.8931811711
 20
11.1308446015
 10
-2.9006124798
 20
11.1316960816
 10
-2.9061377238
 20
11.132446746
 10
-2.9116153708
 20
11.1332988195
 10
-2.9170373235
 20
11.1342566514
 10
-2.9223954844
 20
11.1353245912
 10
-2.9276817561
 20
11.1365069886
 10
-2.9328880413
 20
11.1378081931
 10
-2.938006697
 20
11.1392321192
 10
-2.9430318978
 20
11.1407809423
 10
-2.9479582729
 20
11.142456403
 10
-2.9527818745
 20
11.1442608132
 10
-2.9575044479
 20
11.1461987713
 10
-2.9621291615
 20
11.1482754471
 10
-2.9666582727
 20
11.1504960224
 10
-2.9710903933
 20
11.1528657263
 10
-2.9754232242
 20
11.1553897997
 10
-2.9796534403
 20
11.1580717052
 10
-2.9837736147
 20
11.1609077921
 10
-2.9877752943
 20
11.1638926314
 10
-2.9916504777
 20
11.1670187147
 10
-2.9953929677
 20
11.1702702162
 10
-2.9989970181
 20
11.1736292306
 10
-3.0024592122
 20
11.1770808799
 10
-3.0057854491
 20
11.1806223949
 10
-3.0089839572
 20
11.1842540336
 10
-3.0120613118
 20
11.1879748039
 10
-3.0150174759
 20
11.1917787137
 10
-3.0178507594
 20
11.1956585205
 10
-3.020559472
 20
11.199606982
 10
-3.0231419237
 20
11.2036168559
 10
-3.0255964242
 20
11.2076808999
 10
-3.0283706903
 20
11.2126187533
 10
-3.0309561964
 20
11.2176098269
 10
-3.0333508659
 20
11.2226397652
 10
-3.0355526223
 20
11.2276942125
 10
-3.037559389
 20
11.2327588132
 10
-3.0393699271
 20
11.2378208646
 10
-3.0409863493
 20
11.2428742764
 10
-3.0424116058
 20
11.2479146113
 10
-3.0436486469
 20
11.2529374319
 10
-3.0447004229
 20
11.257938301
 10
-3.0454368504
 20
11.2620880743
 10
-3.0460444226
 20
11.2662310683
 10
-3.0465208916
 20
11.2703788291
 10
-3.0468640097
 20
11.2745429029
 10
-3.0470715289
 20
11.2787348361
 10
-3.0471412015
 20
11.2829661747
  0
LWPOLYLINE
  5
3BD
100
AcDbEntity
  8
0
100
AcDbPolyline
 62
253
  6
CONTINUOUS
 90
39
 70
0
 10
0.9671171309
 20
11.3199725636
 10
0.9627810351
 20
11.3200217165
 10
0.9584749443
 20
11.320167915
 10
0.9541941251
 20
11.3204092694
 10
0.9499338444
 20
11.3207438897
 10
0.9456893687
 20
11.3211698859
 10
0.941455965
 20
11.321685368
 10
0.9372288999
 20
11.3222884463
 10
0.9323004758
 20
11.323100707
 10
0.9273754508
 20
11.3240294967
 10
0.9224550392
 20
11.3250746889
 10
0.9175404552
 20
11.3262361569
 10
0.9126329127
 20
11.3275137742
 10
0.9077336259
 20
11.3289074141
 10
0.9028446425
 20
11.3304166429
 10
0.8979713444
 20
11.3320397972
 10
0.8931199467
 20
11.3337749065
 10
0.8882966648
 20
11.3356200002
 10
0.8835077141
 20
11.3375731076
 10
0.8787593099
 20
11.3396322583
 10
0.8740575672
 20
11.341795256
 10
0.8694081999
 20
11.3440590022
 10
0.8648168217
 20
11.3464201725
 10
0.8602890463
 20
11.3488754429
 10
0.8558304874
 20
11.3514214891
 10
0.8514467584
 20
11.3540549869
 10
0.8471426843
 20
11.35677303
 10
0.8429199339
 20
11.3595743837
 10
0.8387793876
 20
11.3624582314
 10
0.8347219253
 20
11.3654237561
 10
0.8307484272
 20
11.3684701413
 10
0.8268597734
 20
11.37159657
 10
0.8235944546
 20
11.3743403348
 10
0.8203903717
 20
11.37714707
 10
0.8172457793
 20
11.3800215387
 10
0.8141589322
 20
11.3829685038
 10
0.8111280849
 20
11.3859927284
 10
0.8081514922
 20
11.3890989755
 10
0.8052274087
 20
11.392292008
  0
LWPOLYLINE
  5
3BE
100
AcDbEntity
  8
0
100
AcDbPolyline
 62
253
  6
CONTINUOUS
 90
38
 70
0
 10
1.5343485196
 20
10.7482256193
 10
1.5294543473
 20
10.7482887409
 10
1.5245950125
 20
10.7484763729
 10
1.5197636354
 20
10.7487859165
 10
1.5149533362
 20
10.7492147727
 10
1.5101572352
 20
10.7497603426
 10
1.5053684527
 20
10.7504200271
 10
1.5005815414
 20
10.7511915878
 10
1.495796784
 20
10.7520742273
 10
1.4910158959
 20
10.7530675086
 10
1.4862405923
 20
10.7541709948
 10
1.4814725885
 20
10.7553842489
 10
1.4767135997
 20
10.756706834
 10
1.4719658094
 20
10.7581381301
 10
1.4672332729
 20
10.7596767862
 10
1.4625205139
 20
10.7613212682
 10
1.4578320557
 20
10.7630700421
 10
1.453172422
 20
10.7649215739
 10
1.4485461363
 20
10.7668743294
 10
1.4439576758
 20
10.7689266929
 10
1.439411332
 20
10.7710767209
 10
1.4349113503
 20
10.7733223879
 10
1.4304619759
 20
10.7756616687
 10
1.4260674541
 20
10.7780925378
 10
1.4217320302
 20
10.7806129699
 10
1.4174595688
 20
10.783221122
 10
1.4132524122
 20
10.7859158813
 10
1.4091125217
 20
10.7886963171
 10
1.4050418589
 20
10.7915614987
 10
1.4010423853
 20
10.7945104958
 10
1.3971160625
 20
10.7975423777
 10
1.3938098561
 20
10.8002072745
 10
1.3905570946
 20
10.8029370566
 10
1.3873560384
 20
10.8057363983
 10
1.384204948
 20
10.8086099735
 10
1.3811020837
 20
10.8115624564
 10
1.3780457059
 20
10.814598521
 10
1.3750340752
 20
10.8177228415
  0
LWPOLYLINE
  5
3BF
100
AcDbEntity
  8
0
100
AcDbPolyline
 62
253
  6
CONTINUOUS
 90
24
 70
0
 10
-0.557482591
 20
11.6153533969
 10
-0.5594755722
 20
11.6155544818
 10
-0.5614607775
 20
11.6157863902
 10
-0.5634382664
 20
11.6160490242
 10
-0.5654080988
 20
11.616342286
 10
-0.5673703341
 20
11.6166660776
 10
-0.5693250322
 20
11.6170203012
 10
-0.5712722526
 20
11.6174048588
 10
-0.573212055
 20
11.6178196525
 10
-0.5751444991
 20
11.6182645845
 10
-0.5770696445
 20
11.6187395567
 10
-0.5789875509
 20
11.6192444714
 10
-0.5807392918
 20
11.6197335918
 10
-0.5824848555
 20
11.6202480868
 10
-0.5842240977
 20
11.6207882532
 10
-0.585956874
 20
11.621354388
 10
-0.58768304
 20
11.6219467879
 10
-0.5894024511
 20
11.62256575
 10
-0.5911149631
 20
11.6232115711
 10
-0.5928204314
 20
11.6238845481
 10
-0.5945187117
 20
11.6245849778
 10
-0.5962096595
 20
11.6253131572
 10
-0.5978931304
 20
11.6260693831
 10
-0.5995689799
 20
11.6268539524
  0
LINE
  5
3C0
100
AcDbEntity
  8
0
100
AcDbLine
 62
253
  6
CONTINUOUS
 10
-1.5849831463
 20
12.1227536745
 11
-1.6321142574
 21
12.1307264523
  0
LWPOLYLINE
  5
3C1
100
AcDbEntity
  8
0
100
AcDbPolyline
 62
253
  6
CONTINUOUS
 90
24
 70
0
 10
-1.6321142574
 20
12.1307264523
 10
-1.6338365422
 20
12.1312939789
 10
-1.6355419735
 20
12.1318899722
 10
-1.6372307083
 20
12.1325137971
 10
-1.6389029033
 20
12.1331648184
 10
-1.6405587154
 20
12.133842401
 10
-1.6421983015
 20
12.1345459097
 10
-1.6438218183
 20
12.1352747094
 10
-1.6454294226
 20
12.1360281649
 10
-1.6470212714
 20
12.136805641
 10
-1.6485975214
 20
12.1376065027
 10
-1.6501583295
 20
12.1384301147
 10
-1.6517038525
 20
12.139275842
 10
-1.6533726334
 20
12.1402230522
 10
-1.6550236397
 20
12.1411957374
 10
-1.6566571004
 20
12.1421938094
 10
-1.6582732447
 20
12.1432171799
 10
-1.6598723018
 20
12.1442657609
 10
-1.6614545009
 20
12.1453394642
 10
-1.663020071
 20
12.1464382017
 10
-1.6645692415
 20
12.1475618851
 10
-1.6661022414
 20
12.1487104265
 10
-1.6676193
 20
12.1498837375
 10
-1.6691206463
 20
12.1510817301
  0
LWPOLYLINE
  5
3C2
100
AcDbEntity
  8
0
100
AcDbPolyline
 62
253
  6
CONTINUOUS
 90
24
 70
0
 10
-1.096738702
 20
12.0991175634
 10
-1.1000066777
 20
12.1007221691
 10
-1.1032937945
 20
12.1022725851
 10
-1.1066001653
 20
12.103768882
 10
-1.1099259034
 20
12.1052111307
 10
-1.113271122
 20
12.1065994018
 10
-1.1166359342
 20
12.107933766
 10
-1.120020453
 20
12.109214294
 10
-1.1234247918
 20
12.1104410566
 10
-1.1268490635
 20
12.1116141245
 10
-1.1302933815
 20
12.1127335683
 10
-1.1337578587
 20
12.1137994587
 10
-1.1369514303
 20
12.114729399
 10
-1.1401620921
 20
12.1156136061
 10
-1.1433898998
 20
12.116451287
 10
-1.1466349091
 20
12.1172416487
 10
-1.1498971756
 20
12.1179838983
 10
-1.1531767552
 20
12.1186772428
 10
-1.1564737034
 20
12.1193208893
 10
-1.159788076
 20
12.1199140447
 10
-1.1631199287
 20
12.1204559161
 10
-1.1664693172
 20
12.1209457106
 10
-1.1698362971
 20
12.1213826351
 10
-1.1732209242
 20
12.1217658967
  0
LWPOLYLINE
  5
3C3
100
AcDbEntity
  8
0
100
AcDbPolyline
 62
253
  6
CONTINUOUS
 90
55
 70
0
 10
0.5196890754
 20
13.1361783965
 10
0.5144255006
 20
13.1400645069
 10
0.5090848562
 20
13.143750885
 10
0.5036556694
 20
13.1472500345
 10
0.4981264669
 20
13.1505744592
 10
0.4924857758
 20
13.1537366629
 10
0.4867242997
 20
13.1567464036
 10
0.4808414487
 20
13.1596024562
 10
0.4748388098
 20
13.1623008501
 10
0.4687179697
 20
13.1648376145
 10
0.4624805154
 20
13.1672087788
 10
0.4561291137
 20
13.1694099468
 10
0.4496707519
 20
13.1714350215
 10
0.4431134972
 20
13.1732774806
 10
0.4364654169
 20
13.1749308018
 10
0.4297345782
 20
13.1763884626
 10
0.4240703471
 20
13.1774490561
 10
0.4183721104
 20
13.1783657371
 10
0.4126577317
 20
13.1791349977
 10
0.4069400451
 20
13.1797537619
 10
0.4012117681
 20
13.1802206823
 10
0.3954605892
 20
13.1805348432
 10
0.3896777827
 20
13.1806949272
 10
0.3838689666
 20
13.1806980088
 10
0.3780433449
 20
13.1805407605
 10
0.3722101216
 20
13.1802198549
 10
0.3663785006
 20
13.1797319646
 10
0.3605576859
 20
13.179073762
 10
0.3547565827
 20
13.1782432537
 10
0.3489829008
 20
13.1772437817
 10
0.3432440512
 20
13.176080022
 10
0.3375474448
 20
13.1747566505
 10
0.3319004927
 20
13.1732783432
 10
0.3263106058
 20
13.1716497761
 10
0.3207819755
 20
13.1698743606
 10
0.3153059145
 20
13.1679504495
 10
0.3098705157
 20
13.1658751314
 10
0.3044691024
 20
13.1636474461
 10
0.2991159181
 20
13.1612742399
 10
0.2938304365
 20
13.1587643107
 10
0.2876002754
 20
13.1555833716
 10
0.2815030816
 20
13.1522278
 10
0.2755462884
 20
13.148707176
 10
0.2697373293
 20
13.1450310795
 10
0.2640836376
 20
13.1412090904
 10
0.2585913421
 20
13.1372498369
 10
0.253261353
 20
13.1331581397
 10
0.2480932759
 20
13.1289378681
 10
0.2430867164
 20
13.124592891
 10
0.23824128
 20
13.1201270775
 10
0.2335553546
 20
13.115541048
 10
0.2290224563
 20
13.1108224276
 10
0.2246348836
 20
13.1059555928
 10
0.2203849349
 20
13.1009249199
 10
0.2162649088
 20
13.0957147854
  0
LWPOLYLINE
  5
3C4
100
AcDbEntity
  8
0
100
AcDbPolyline
 62
253
  6
CONTINUOUS
 90
38
 70
0
 10
0.2624665059
 20
12.7880363437
 10
0.2677652686
 20
12.7836647329
 10
0.2729453337
 20
12.7791782175
 10
0.2780097271
 20
12.7745792291
 10
0.2829614745
 20
12.7698701988
 10
0.2878036018
 20
12.7650535581
 10
0.2925391347
 20
12.7601317384
 10
0.2979321945
 20
12.7542601425
 10
0.3031828395
 20
12.7482538663
 10
0.3082896232
 20
12.7421180803
 10
0.3132510989
 20
12.7358579551
 10
0.3180658202
 20
12.7294786616
 10
0.3227323405
 20
12.7229853702
 10
0.327249156
 20
12.7163829676
 10
0.3316145332
 20
12.709675203
 10
0.3358266815
 20
12.7028655418
 10
0.33988381
 20
12.6959574491
 10
0.343784128
 20
12.6889543902
 10
0.3475258447
 20
12.6818598302
 10
0.351106858
 20
12.6746771985
 10
0.3545238206
 20
12.6674097812
 10
0.3577730735
 20
12.6600608284
 10
0.360850958
 20
12.6526335904
 10
0.3637538153
 20
12.6451313174
 10
0.3664779866
 20
12.6375572594
 10
0.3690195476
 20
12.6299146714
 10
0.3713735114
 20
12.6222068259
 10
0.3735346258
 20
12.6144370003
 10
0.3754976384
 20
12.6066084719
 10
0.3772572967
 20
12.5987245179
 10
0.3788083486
 20
12.5907884155
 10
0.379967414
 20
12.5839465553
 10
0.3809636965
 20
12.5770680618
 10
0.3817915337
 20
12.5701522071
 10
0.3824452636
 20
12.5631982635
 10
0.3829192238
 20
12.5562055028
 10
0.3832077522
 20
12.5491731972
 10
0.3833051866
 20
12.5421006188
  0
LWPOLYLINE
  5
3C5
100
AcDbEntity
  8
0
100
AcDbPolyline
 62
253
  6
CONTINUOUS
 90
41
 70
0
 10
1.1111562975
 20
13.708842563
 10
1.1354906859
 20
13.6866031421
 10
1.1593034194
 20
13.6638896969
 10
1.1826025223
 20
13.6407004201
 10
1.2053960189
 20
13.6170335044
 10
1.2276919335
 20
13.5928871425
 10
1.2494946954
 20
13.5682626684
 10
1.2707943551
 20
13.5431739812
 10
1.2915773681
 20
13.5176381216
 10
1.3118301898
 20
13.49167213
 10
1.3315392759
 20
13.4652930471
 10
1.3506921778
 20
13.4385166657
 10
1.3692808306
 20
13.4113537877
 10
1.3872982651
 20
13.3838139674
 10
1.4047375124
 20
13.3559067591
 10
1.4215916033
 20
13.327641717
 10
1.4378530573
 20
13.2990286733
 10
1.4535123473
 20
13.2700785719
 10
1.4685594346
 20
13.2408026345
 10
1.4829842806
 20
13.2112120831
 10
1.4967768466
 20
13.1813181394
 10
1.5099283081
 20
13.1511328238
 10
1.5224346969
 20
13.1206713513
 10
1.5342932589
 20
13.0899497353
 10
1.5455012402
 20
13.0589839895
 10
1.5560558867
 20
13.0277901273
 10
1.5659544295
 20
12.9963834109
 10
1.5751940405
 20
12.9647760963
 10
1.5837718765
 20
12.9329796881
 10
1.5916850946
 20
12.901005691
 10
1.5989308518
 20
12.8688656096
 10
1.6055060831
 20
12.8365728193
 10
1.6114068361
 20
12.8041481793
 10
1.6166289366
 20
12.7716144193
 10
1.6211682102
 20
12.7389942692
 10
1.6250204826
 20
12.706310459
 10
1.6281815886
 20
12.673580667
 10
1.6306473988
 20
12.6408023659
 10
1.6324137931
 20
12.6079679767
 10
1.6334766512
 20
12.5750699206
 10
1.6338318529
 20
12.5421006188
  0
LWPOLYLINE
  5
3C6
100
AcDbEntity
  8
0
100
AcDbPolyline
 62
253
  6
CONTINUOUS
 90
53
 70
0
 10
0.8398352855
 20
13.3708969903
 10
0.8182481932
 20
13.3907872283
 10
0.8136029543
 20
13.395357057
 10
0.8091278739
 20
13.4000511335
 10
0.804808578
 20
13.4048779865
 10
0.8006306927
 20
13.4098461447
 10
0.7965828924
 20
13.4149626053
 10
0.7926660436
 20
13.4202282395
 10
0.7888840608
 20
13.4256423869
 10
0.7852408588
 20
13.4312043871
 10
0.781740352
 20
13.4369135798
 10
0.7783871185
 20
13.4427682446
 10
0.775188389
 20
13.4487624204
 10
0.7721520575
 20
13.4548890864
 10
0.7692860181
 20
13.4611412215
 10
0.7665981648
 20
13.4675118048
 10
0.7645004581
 20
13.4729037877
 10
0.76253871
 20
13.4783555735
 10
0.760719657
 20
13.483849585
 10
0.7590486373
 20
13.4893732038
 10
0.7575253973
 20
13.4949336466
 10
0.7561482852
 20
13.5005430887
 10
0.7546881163
 20
13.5073503455
 10
0.7534439537
 20
13.5142313579
 10
0.7524237579
 20
13.52117179
 10
0.7516354895
 20
13.5281573056
 10
0.7510871093
 20
13.5351735686
 10
0.7507843342
 20
13.5422062739
 10
0.7507239072
 20
13.5492412391
 10
0.7509003278
 20
13.556264313
 10
0.7513080953
 20
13.563261344
 10
0.7519417092
 20
13.5702181806
 10
0.7526389238
 20
13.5759780438
 10
0.7534898725
 20
13.5817124543
 10
0.7544952716
 20
13.5874336997
 10
0.7556549017
 20
13.593148537
 10
0.7569648026
 20
13.5988416026
 10
0.7584200783
 20
13.6044920021
 10
0.7603514906
 20
13.6111912359
 10
0.7624772122
 20
13.6177897927
 10
0.7647892627
 20
13.624278522
 10
0.7672796614
 20
13.6306482732
 10
0.7699404278
 20
13.6368898958
 10
0.7727642889
 20
13.6429957596
 10
0.7757468012
 20
13.6489643147
 10
0.7788842286
 20
13.6547955318
 10
0.782172835
 20
13.6604893812
 10
0.7856088844
 20
13.6660458335
 10
0.7891914999
 20
13.6714665686
 10
0.7929312412
 20
13.6767601041
 10
0.7968415272
 20
13.6819366673
 10
0.8009357767
 20
13.6870064853
 10
0.8052274087
 20
13.6919797852
  0
LWPOLYLINE
  5
3C7
100
AcDbEntity
  8
0
100
AcDbPolyline
 62
253
  6
CONTINUOUS
 90
41
 70
0
 10
1.6809982418
 20
14.2773792295
 10
1.7163494527
 20
14.243810128
 10
1.750935952
 20
14.2095675152
 10
1.7847692126
 20
14.1746484873
 10
1.817860707
 20
14.1390501405
 10
1.850221908
 20
14.1027695708
 10
1.8818592327
 20
14.0658085481
 10
1.9127588766
 20
14.0281875375
 10
1.9429019796
 20
13.9899316779
 10
1.9722696816
 20
13.9510661081
 10
2.0008431225
 20
13.9116159669
 10
2.0286050792
 20
13.8716044887
 10
2.0555448766
 20
13.8310472905
 10
2.0816534762
 20
13.7899580844
 10
2.1069218401
 20
13.748350583
 10
2.1313409297
 20
13.7062384987
 10
2.1549009884
 20
13.6636359786
 10
2.1775893851
 20
13.6205589098
 10
2.1993927699
 20
13.5770236141
 10
2.2202977932
 20
13.5330464132
 10
2.2402911053
 20
13.4886436291
 10
2.2593608507
 20
13.4438324852
 10
2.2775011512
 20
13.3986338114
 10
2.2947076228
 20
13.3530693395
 10
2.3109758816
 20
13.3071608011
 10
2.3263015434
 20
13.2609299277
 10
2.3406801324
 20
13.214397479
 10
2.3541068047
 20
13.167580326
 10
2.3665766242
 20
13.1204943677
 10
2.378084655
 20
13.0731555031
 10
2.3886259612
 20
13.0255796311
 10
2.398195291
 20
12.9777853615
 10
2.4067861285
 20
12.9298021468
 10
2.4143916423
 20
12.8816621501
 10
2.4210050007
 20
12.8333975347
 10
2.4266193721
 20
12.7850404638
 10
2.4312279501
 20
12.7366159536
 10
2.4348240289
 20
12.6881204326
 10
2.4374009279
 20
12.6395431822
 10
2.4389519664
 20
12.5908734838
 10
2.4394704638
 20
12.5421006188
  0
LWPOLYLINE
  5
3C8
100
AcDbEntity
  8
0
100
AcDbPolyline
 62
253
  6
CONTINUOUS
 90
53
 70
0
 10
1.385229353
 20
13.9603025629
 10
1.3805268874
 20
13.9648734509
 10
1.3760103281
 20
13.9695545357
 10
1.3716656166
 20
13.9743547887
 10
1.3674786945
 20
13.9792831813
 10
1.3634355033
 20
13.984348685
 10
1.3595249867
 20
13.9895586458
 10
1.3557480965
 20
13.9949139089
 10
1.3521087867
 20
14.0004136942
 10
1.3486110112
 20
14.0060572213
 10
1.345258724
 20
14.0118437102
 10
1.3420565027
 20
14.0177713286
 10
1.3390114198
 20
14.0238340361
 10
1.3361311713
 20
14.0300247402
 10
1.3334234534
 20
14.0363363484
 10
1.330895962
 20
14.0427617683
 10
1.3289332502
 20
14.0481958797
 10
1.3271073275
 20
14.0536866303
 10
1.325424481
 20
14.0592165489
 10
1.3238897414
 20
14.0647731074
 10
1.3225031138
 20
14.0703635515
 10
1.3212633467
 20
14.0760000697
 10
1.3199693654
 20
14.0828359389
 10
1.3188927705
 20
14.0897411745
 10
1.3180412712
 20
14.0967012443
 10
1.3174225768
 20
14.103701616
 10
1.3170443964
 20
14.1107277574
 10
1.3169121835
 20
14.1177652416
 10
1.3170223678
 20
14.1248000638
 10
1.3173691235
 20
14.1318183246
 10
1.3179466245
 20
14.1388061245
 10
1.3187490447
 20
14.1457495642
 10
1.3195860714
 20
14.1514952253
 10
1.320576272
 20
14.1572126374
 10
1.3217206724
 20
14.1629140098
 10
1.323019229
 20
14.1686060649
 10
1.3244676196
 20
14.1742735786
 10
1.3260604523
 20
14.1798958401
 10
1.3281551162
 20
14.1865581358
 10
1.3304418503
 20
14.1931165099
 10
1.3329124918
 20
14.1995620275
 10
1.3355588784
 20
14.205885754
 10
1.3383728474
 20
14.2120787543
 10
1.3413469738
 20
14.2181335822
 10
1.3444767823
 20
14.2240487453
 10
1.3477585352
 20
14.2298242395
 10
1.3511884949
 20
14.2354600609
 10
1.3547629236
 20
14.2409562056
 10
1.3584809859
 20
14.2463143281
 10
1.3623534559
 20
14.251542717
 10
1.3663940099
 20
14.2566513192
 10
1.3706163242
 20
14.2616500817
 10
1.3750340752
 20
14.2665489517
  0
LWPOLYLINE
  5
3C9
100
AcDbEntity
  8
0
100
AcDbPolyline
 62
253
  6
CONTINUOUS
 90
32
 70
0
 10
2.0414704658
 20
-13.0689457574
 10
2.0379286536
 20
-13.0715451687
 10
2.0343418812
 20
-13.074063763
 10
2.0307102746
 20
-13.0765028385
 10
2.02703396
 20
-13.078863693
 10
2.0233130636
 20
-13.0811476245
 10
2.0195477114
 20
-13.083355931
 10
2.0157380295
 20
-13.0854899104
 10
2.0118841441
 20
-13.0875508606
 10
2.0074261691
 20
-13.0898179246
 10
2.0029133942
 20
-13.0919899397
 10
1.99834859
 20
-13.0940655469
 10
1.9937345271
 20
-13.0960433869
 10
1.9890739761
 20
-13.0979221005
 10
1.9843697076
 20
-13.0997003287
 10
1.9796244923
 20
-13.1013767123
 10
1.9754409884
 20
-13.1027589217
 10
1.9712299355
 20
-13.104061126
 10
1.9669930134
 20
-13.1052823353
 10
1.9627319018
 20
-13.1064215598
 10
1.9584482805
 20
-13.1074778098
 10
1.9541438293
 20
-13.1084500954
 10
1.9498202279
 20
-13.1093374269
 10
1.945479156
 20
-13.1101388146
 10
1.9411219186
 20
-13.1108531074
 10
1.9367483212
 20
-13.1114785098
 10
1.9323577946
 20
-13.112013065
 10
1.9279497695
 20
-13.1124548162
 10
1.9235236767
 20
-13.1128018067
 10
1.9190789468
 20
-13.1130520797
 10
1.9146150107
 20
-13.1132036785
 10
1.9101312991
 20
-13.1132546463
  0
LWPOLYLINE
  5
3CA
100
AcDbEntity
  8
ASSI
100
AcDbPolyline
 62
253
  6
CONTINUOUS
 90
12
 70
0
 10
10.5832682361
 20
-9.4774077307
 10
10.5825699705
 20
-9.4776780628
 10
10.581468055
 20
-9.4779481762
 10
10.5799633808
 20
-9.4782178525
 10
10.5780571652
 20
-9.4784868735
 10
10.5757509502
 20
-9.4787550215
 10
10.5730466013
 20
-9.4790220796
 10
10.5699463061
 20
-9.4792878319
 10
10.5664525725
 20
-9.4795520633
 10
10.5625682266
 20
-9.4798145601
 10
10.5582964107
 20
-9.4800751099
 10
10.5536405802
 20
-9.4803335021
  0
LINE
  5
3CB
100
AcDbEntity
  8
0
100
AcDbLine
 62
253
  6
CONTINUOUS
 10
-1.1948814797
 20
12.9640581187
 11
-1.1298998131
 21
12.9743239521
  0
LINE
  5
3CC
100
AcDbEntity
  8
0
100
AcDbLine
 62
253
  6
CONTINUOUS
 10
-1.6193789796
 20
12.9602833965
 11
-1.5836778685
 21
12.9640581187
  0
LWPOLYLINE
  5
3CD
100
AcDbEntity
  8
0
100
AcDbPolyline
 62
253
  6
CONTINUOUS
 90
24
 70
0
 10
-0.5562478688
 20
13.4720581186
 10
-0.5541190048
 20
13.4722438817
 10
-0.5519873095
 20
13.4724049322
 10
-0.5498524407
 20
13.4725402774
 10
-0.5477140563
 20
13.4726489242
 10
-0.5455718142
 20
13.4727298801
 10
-0.5434253721
 20
13.4727821522
 10
-0.541274388
 20
13.4728047476
 10
-0.5391185196
 20
13.4727966735
 10
-0.5369574249
 20
13.4727569372
 10
-0.5347907617
 20
13.4726845458
 10
-0.5331201613
 20
13.4726059653
 10
-0.5314463144
 20
13.472506721
 10
-0.5297694718
 20
13.4723860589
 10
-0.5280898845
 20
13.4722432253
 10
-0.5264078032
 20
13.4720774664
 10
-0.524723479
 20
13.4718880282
 10
-0.5230371627
 20
13.4716741569
 10
-0.5213491051
 20
13.4714350986
 10
-0.5196595572
 20
13.4711700996
 10
-0.5179687698
 20
13.470878406
 10
-0.5162769939
 20
13.4705592638
 10
-0.5145844803
 20
13.4702119193
 10
-0.5128914799
 20
13.4698356186
  0
LWPOLYLINE
  5
3CE
100
AcDbEntity
  8
0
100
AcDbPolyline
 62
253
  6
CONTINUOUS
 90
33
 70
0
 10
0.3883851866
 20
11.9034670079
 10
0.3928133345
 20
11.9035170228
 10
0.3972255349
 20
11.9036659859
 10
0.40162251
 20
11.9039122751
 10
0.4060049817
 20
11.9042542683
 10
0.4103736721
 20
11.9046903434
 10
0.4147293032
 20
11.9052188783
 10
0.4190725972
 20
11.9058382507
 10
0.423404276
 20
11.9065468386
 10
0.4277245837
 20
11.9073431313
 10
0.4320318526
 20
11.9082260645
 10
0.4363239369
 20
11.909194685
 10
0.4405986908
 20
11.9102480401
 10
0.4448539686
 20
11.9113851768
 10
0.4490876245
 20
11.9126051421
 10
0.4532975127
 20
11.9139069831
 10
0.4574814875
 20
11.9152897468
 10
0.4616375149
 20
11.9167525471
 10
0.4657640085
 20
11.9182947652
 10
0.4698594936
 20
11.9199158491
 10
0.4739224957
 20
11.9216152468
 10
0.47795154
 20
11.9233924062
 10
0.481945152
 20
11.9252467754
 10
0.4859018571
 20
11.9271778023
 10
0.4898201805
 20
11.9291849349
 10
0.493698806
 20
11.9312679686
 10
0.4975370498
 20
11.933428088
 10
0.5013343865
 20
11.9356668251
 10
0.5050902908
 20
11.9379857119
 10
0.5088042373
 20
11.9403862805
 10
0.5124757005
 20
11.9428700628
 10
0.516104155
 20
11.945438591
 10
0.5196890754
 20
11.9480933968
  0
LINE
  5
3CF
100
AcDbEntity
  8
0
100
AcDbLine
 62
253
  6
CONTINUOUS
 10
-1.5836778685
 20
12.9640581187
 11
-1.1948814797
 21
12.9640581187
  0
LINE
  5
3D0
100
AcDbEntity
  8
0
100
AcDbLine
 62
253
  6
CONTINUOUS
 10
-1.1732209242
 20
12.1217658967
 11
-1.5849831463
 21
12.1227536745
  0
LWPOLYLINE
  5
3D1
100
AcDbEntity
  8
0
100
AcDbPolyline
 62
253
  6
CONTINUOUS
 90
26
 70
0
 10
-0.5128914799
 20
13.4698356186
 10
-0.5111066671
 20
13.469342363
 10
-0.5093088323
 20
13.4688291759
 10
-0.5074981072
 20
13.4682946538
 10
-0.5056746236
 20
13.4677373927
 10
-0.5038385132
 20
13.4671559891
 10
-0.5019899077
 20
13.4665490393
 10
-0.5001289387
 20
13.4659151394
 10
-0.4984906685
 20
13.4653372353
 10
-0.4968438178
 20
13.4647364978
 10
-0.4951891711
 20
13.4641118019
 10
-0.4935275126
 20
13.4634620223
 10
-0.4918596268
 20
13.4627860342
 10
-0.4901862981
 20
13.4620827123
 10
-0.488508311
 20
13.4613509317
 10
-0.4868264497
 20
13.4605895672
 10
-0.4854787174
 20
13.4599583756
 10
-0.4841295225
 20
13.4593066928
 10
-0.4827793798
 20
13.4586336816
 10
-0.4814288043
 20
13.4579385044
 10
-0.4800783107
 20
13.4572203239
 10
-0.4787284139
 20
13.4564783028
 10
-0.4773796287
 20
13.4557116035
 10
-0.4760324699
 20
13.4549193887
 10
-0.4746874524
 20
13.4541008211
 10
-0.473345091
 20
13.4532550631
  0
LWPOLYLINE
  5
3D2
100
AcDbEntity
  8
ASSI
100
AcDbPolyline
 62
253
  6
CONTINUOUS
 90
13
 70
0
 10
10.5832682361
 20
9.5035922693
 10
10.5825699705
 20
9.5038626015
 10
10.581468055
 20
9.5041327149
 10
10.5799633808
 20
9.5044023912
 10
10.5780571653
 20
9.5046714121
 10
10.5757509502
 20
9.5049395601
 10
10.5730466013
 20
9.5052066182
 10
10.5699463061
 20
9.5054723705
 10
10.5664525725
 20
9.5057366019
 10
10.5625682267
 20
9.5059990987
 10
10.5582964107
 20
9.5062596486
 10
10.5536405803
 20
9.5065180408
 10
10.5431922481
 20
9.5070275178
  0
LWPOLYLINE
  5
3D3
100
AcDbEntity
  8
0
100
AcDbPolyline
 62
253
  6
CONTINUOUS
 90
56
 70
0
 10
-2.8304298126
 20
13.9580800629
 10
-2.8222044995
 20
13.9580597293
 10
-2.8141008682
 20
13.9579885809
 10
-2.8061124834
 20
13.9578513962
 10
-2.7982329095
 20
13.9576329537
 10
-2.7904557112
 20
13.957318032
 10
-2.782774453
 20
13.9568914095
 10
-2.7751826995
 20
13.9563378649
 10
-2.7676740153
 20
13.9556421766
 10
-2.7602419648
 20
13.9547891233
 10
-2.7547161491
 20
13.9540372508
 10
-2.7492379199
 20
13.9531839472
 10
-2.7438153774
 20
13.9522248613
 10
-2.7384566214
 20
13.951155642
 10
-2.7331697521
 20
13.9499719381
 10
-2.7279628695
 20
13.9486693984
 10
-2.7228436049
 20
13.947244099
 10
-2.7178177153
 20
13.9456938252
 10
-2.7128904891
 20
13.9440167893
 10
-2.7080657997
 20
13.9422106261
 10
-2.7033418598
 20
13.9402706595
 10
-2.698715467
 20
13.9381916355
 10
-2.6941843559
 20
13.9359682971
 10
-2.6897500077
 20
13.9335953744
 10
-2.6854148403
 20
13.931067594
 10
-2.6811822903
 20
13.9283814688
 10
-2.6770598673
 20
13.9255406545
 10
-2.6730560995
 20
13.9225505931
 10
-2.6691790563
 20
13.9194188193
 10
-2.665434972
 20
13.9161612412
 10
-2.6618296223
 20
13.9127958597
 10
-2.6583664303
 20
13.9093376149
 10
-2.6550394095
 20
13.9057892035
 10
-2.651840221
 20
13.9021502614
 10
-2.648762201
 20
13.8984216995
 10
-2.6458053855
 20
13.8946095296
 10
-2.6429714861
 20
13.8907210387
 10
-2.6402622138
 20
13.8867635136
 10
-2.63767928
 20
13.8827442413
 10
-2.635224396
 20
13.8786705089
 10
-2.6324498224
 20
13.873720718
 10
-2.6298641737
 20
13.8687174827
 10
-2.6274695191
 20
13.863675288
 10
-2.6252679277
 20
13.858608619
 10
-2.6232614685
 20
13.8535319608
 10
-2.6214513658
 20
13.8484581133
 10
-2.6198354643
 20
13.8433931355
 10
-2.6184107641
 20
13.8383414016
 10
-2.617174265
 20
13.8333072853
 10
-2.6161229669
 20
13.8282951608
 10
-2.6153868589
 20
13.8241359985
 10
-2.6147795337
 20
13.8199835967
 10
-2.6143032455
 20
13.8158264068
 10
-2.6139602486
 20
13.8116528797
 10
-2.6137527974
 20
13.8074514665
 10
-2.613683146
 20
13.8032106185
  0
LWPOLYLINE
  5
3D4
100
AcDbEntity
  8
ASSI
100
AcDbPolyline
 62
253
  6
CONTINUOUS
 90
49
 70
0
 10
10.61763109
 20
-21.1197630591
 10
10.6169380632
 20
-21.1218847031
 10
10.6158411803
 20
-21.1240046301
 10
10.6143413292
 20
-21.1261211242
 10
10.6124397236
 20
-21.1282324726
 10
10.6101379027
 20
-21.1303369664
 10
10.6074377293
 20
-21.1324329025
 10
10.6043413888
 20
-21.1345185846
 10
10.6008513871
 20
-21.1365923246
 10
10.5969705488
 20
-21.1386524442
 10
10.5927020147
 20
-21.1406972762
 10
10.5880492395
 20
-21.1427251655
 10
10.5830159888
 20
-21.144734471
 10
10.5776063362
 20
-21.1467235664
 10
10.5718246597
 20
-21.148690842
 10
10.5656756387
 20
-21.1506347055
 10
10.5591642498
 20
-21.1525535838
 10
10.5522957627
 20
-21.1544459239
 10
10.5450757364
 20
-21.1563101941
 10
10.5375100142
 20
-21.1581448858
 10
10.5296047193
 20
-21.1599485141
 10
10.5213662495
 20
-21.1617196192
 10
10.5128012726
 20
-21.1634567677
 10
10.5039167203
 20
-21.1651585537
 10
10.4947197833
 20
-21.1668236
 10
10.4852179048
 20
-21.1684505588
 10
10.4754187749
 20
-21.1700381136
 10
10.4653303244
 20
-21.1715849794
 10
10.454960718
 20
-21.1730899044
 10
10.4443183483
 20
-21.1745516705
 10
10.4334118283
 20
-21.1759690947
 10
10.422249985
 20
-21.1773410299
 10
10.410841852
 20
-21.1786663656
 10
10.3991966622
 20
-21.1799440294
 10
10.3873238403
 20
-21.1811729871
 10
10.3752329954
 20
-21.182352244
 10
10.3629339128
 20
-21.1834808459
 10
10.3504365466
 20
-21.1845578792
 10
10.3377510112
 20
-21.1855824724
 10
10.3248875734
 20
-21.1865537961
 10
10.3118566438
 20
-21.1874710643
 10
10.2986687689
 20
-21.1883335346
 10
10.2853346217
 20
-21.189140509
 10
10.2718649942
 20
-21.1898913344
 10
10.2582707875
 20
-21.190585403
 10
10.2445630038
 20
-21.1912221533
 10
10.2307527372
 20
-21.1918010697
 10
10.2168511648
 20
-21.1923216839
 10
10.2028695374
 20
-21.1927835745
  0
LWPOLYLINE
  5
3D5
100
AcDbEntity
  8
ASSI
100
AcDbPolyline
 62
253
  6
CONTINUOUS
 90
50
 70
0
 10
10.61763109
 20
21.1459475977
 10
10.6169380634
 20
21.1480692418
 10
10.6158411807
 20
21.1501891688
 10
10.6143413297
 20
21.1523056629
 10
10.6124397244
 20
21.1544170113
 10
10.6101379036
 20
21.1565215052
 10
10.6074377304
 20
21.1586174413
 10
10.6043413901
 20
21.1607031234
 10
10.6008513885
 20
21.1627768634
 10
10.5969705503
 20
21.1648369831
 10
10.5927020164
 20
21.1668818151
 10
10.5880492413
 20
21.1689097044
 10
10.5830159907
 20
21.1709190099
 10
10.5776063381
 20
21.1729081054
 10
10.5718246617
 20
21.174875381
 10
10.5656756408
 20
21.1768192446
 10
10.559164252
 20
21.1787381229
 10
10.552295765
 20
21.180630463
 10
10.5450757388
 20
21.1824947333
 10
10.5375100166
 20
21.184329425
 10
10.5296047217
 20
21.1861330533
 10
10.521366252
 20
21.1879041584
 10
10.5128012751
 20
21.189641307
 10
10.5039167228
 20
21.191343093
 10
10.4947197858
 20
21.1930081393
 10
10.4852179073
 20
21.1946350982
 10
10.4754187774
 20
21.196222653
 10
10.4653303268
 20
21.1977695189
 10
10.4549607205
 20
21.1992744438
 10
10.4443183507
 20
21.20073621
 10
10.4334118307
 20
21.2021536342
 10
10.4222499874
 20
21.2035255694
 10
10.4108418543
 20
21.2048509052
 10
10.3991966644
 20
21.206128569
 10
10.3873238425
 20
21.2073575267
 10
10.3752329975
 20
21.2085367837
 10
10.3629339148
 20
21.2096653856
 10
10.3504365485
 20
21.2107424189
 10
10.3377510131
 20
21.2117670121
 10
10.3248875751
 20
21.2127383359
 10
10.3118566455
 20
21.2136556041
 10
10.2986687704
 20
21.2145180744
 10
10.2853346232
 20
21.2153250488
 10
10.2718649955
 20
21.2160758742
 10
10.2582707887
 20
21.2167699429
 10
10.2445630049
 20
21.2174066931
 10
10.2307527382
 20
21.2179856096
 10
10.2168511657
 20
21.2185062238
 10
10.2028695382
 20
21.2189681143
 10
10.1747114368
 20
21.2197142771
  0
LINE
  5
3D6
100
AcDbEntity
  8
ASSI
100
AcDbLine
 62
7
  6
CONTINUOUS
 10
7.418270565
 20
22.2213302099
 11
7.070051891
 21
22.1897213783
  0
LINE
  5
3D7
100
AcDbEntity
  8
ASSI
100
AcDbLine
 62
253
  6
CONTINUOUS
 10
-10.9782358093
 20
21.2189681131
 11
-10.9500777081
 21
21.2197142758
  0
LINE
  5
3D8
100
AcDbEntity
  8
ASSI
100
AcDbLine
 62
253
  6
CONTINUOUS
 10
-10.9500777081
 20
21.2197142758
 11
-10.9217358435
 21
21.2202216814
  0
LINE
  5
3D9
100
AcDbEntity
  8
ASSI
100
AcDbLine
 62
253
  6
CONTINUOUS
 10
-10.9217358435
 20
21.2202216814
 11
-10.8933019483
 21
21.2204886876
  0
LINE
  5
3DA
100
AcDbEntity
  8
ASSI
100
AcDbLine
 62
253
  6
CONTINUOUS
 10
10.1179356765
 20
21.2204886889
 11
-10.8933019483
 21
21.2204886889
  0
LINE
  5
3DB
100
AcDbEntity
  8
ASSI
100
AcDbLine
 62
253
  6
CONTINUOUS
 10
10.146369572
 20
21.2202216827
 11
10.1179356765
 21
21.2204886889
  0
LINE
  5
3DC
100
AcDbEntity
  8
ASSI
100
AcDbLine
 62
253
  6
CONTINUOUS
 10
10.1747114368
 20
21.2197142771
 11
10.146369572
 21
21.2202216827
  0
LINE
  5
3DD
100
AcDbEntity
  8
ASSI
100
AcDbLine
 62
7
  6
CONTINUOUS
 10
-8.1936368368
 20
22.2213302099
 11
-7.8454181628
 21
22.1897213783
  0
LINE
  5
3DE
100
AcDbEntity
  8
ASSI
100
AcDbLine
 62
7
  6
CONTINUOUS
 10
-3.781729435
 20
22.2213302099
 11
-4.129948109
 21
22.1897213783
  0
LINE
  5
3DF
100
AcDbEntity
  8
ASSI
100
AcDbLine
 62
253
  6
CONTINUOUS
 10
10.1342871322
 20
22.0700360412
 11
-10.909653404
 21
22.0700360412
  0
LINE
  5
3E0
100
AcDbEntity
  8
ASSI
100
AcDbLine
 62
7
  6
CONTINUOUS
 10
6.8968468103
 20
22.1844806004
 11
3.5277869179
 21
22.1844806004
  0
LINE
  5
3E1
100
AcDbEntity
  8
ASSI
100
AcDbLine
 62
7
  6
CONTINUOUS
 10
-4.3031531897
 20
22.1844806004
 11
-7.6722130821
 21
22.1844806004
  0
LINE
  5
3E2
100
AcDbEntity
  8
ASSI
100
AcDbLine
 62
7
  6
CONTINUOUS
 10
-11.0104649412
 20
22.2213302099
 11
-8.1936368368
 21
22.2213302099
  0
LINE
  5
3E3
100
AcDbEntity
  8
ASSI
100
AcDbLine
 62
7
  6
CONTINUOUS
 10
-3.781729435
 20
22.2213302099
 11
3.0063631632
 21
22.2213302099
  0
LINE
  5
3E4
100
AcDbEntity
  8
ASSI
100
AcDbLine
 62
7
  6
CONTINUOUS
 10
7.418270565
 20
22.2213302099
 11
10.2350986693
 21
22.2213302099
  0
LINE
  5
3E5
100
AcDbEntity
  8
ASSI
100
AcDbLine
 62
7
  6
CONTINUOUS
 10
3.0063631632
 20
22.2213302099
 11
3.3545818372
 21
22.1897213783
  0
LINE
  5
3E6
100
AcDbEntity
  8
ASSI
100
AcDbLine
 62
7
  6
CONTINUOUS
 10
-33.7426018338
 20
-22.0438515026
 11
-30.8557371219
 21
-22.1951456712
  0
LINE
  5
3E7
100
AcDbEntity
  8
ASSI
100
AcDbLine
 62
253
  6
CONTINUOUS
 10
-33.733883604
 20
-21.5445367352
 11
-30.8122123313
 21
-21.6976550384
  0
LWPOLYLINE
  5
3E8
100
AcDbEntity
  8
ASSI
100
AcDbPolyline
 62
253
  6
CONTINUOUS
 90
7
 70
0
 10
-34.6719710433
 20
-21.1927835745
 10
-34.6741520193
 20
-21.1931863675
 10
-34.6759368512
 20
-21.1935297371
 10
-34.6773240943
 20
-21.1938134054
 10
-34.6783126259
 20
-21.1940371428
 10
-34.6789016461
 20
-21.1942007681
 10
-34.679090678
 20
-21.194304149
  0
LINE
  5
3E9
100
AcDbEntity
  8
ASSI
100
AcDbLine
 62
253
  6
CONTINUOUS
 10
-34.6664280381
 20
-21.1918010697
 11
-34.6719710433
 21
-21.1927835745
  0
LINE
  5
3EA
100
AcDbEntity
  8
ASSI
100
AcDbLine
 62
253
  6
CONTINUOUS
 10
-34.655196913
 20
-21.1898913344
 11
-34.6664280381
 21
-21.1918010697
  0
LINE
  5
3EB
100
AcDbEntity
  8
ASSI
100
AcDbLine
 62
253
  6
CONTINUOUS
 10
-34.6289181001
 20
-21.1855824724
 11
-34.655196913
 21
-21.1898913344
  0
LINE
  5
3EC
100
AcDbEntity
  8
ASSI
100
AcDbLine
 62
253
  6
CONTINUOUS
 10
-34.5594749649
 20
-21.1745516705
 11
-34.6289181001
 21
-21.1855824724
  0
LINE
  5
3ED
100
AcDbEntity
  8
ASSI
100
AcDbLine
 62
253
  6
CONTINUOUS
 10
-34.2021280304
 20
-21.1197630591
 11
-34.5594749649
 21
-21.1745516705
  0
LINE
  5
3EE
100
AcDbEntity
  8
ASSI
100
AcDbLine
 62
253
  6
CONTINUOUS
 10
-30.4817452777
 20
-17.9203993319
 11
-30.4588695574
 21
-17.9203993319
  0
LWPOLYLINE
  5
3EF
100
AcDbEntity
  8
ASSI
100
AcDbPolyline
 62
253
  6
CONTINUOUS
 90
3
 70
0
 10
-35.6678031563
 20
-9.4868735064
 10
-35.6684093959
 20
-9.4868944555
 10
-35.6686114107
 20
-9.4869077307
  0
LINE
  5
3F0
100
AcDbEntity
  8
ASSI
100
AcDbLine
 62
253
  6
CONTINUOUS
 10
-35.6635656252
 20
-9.4867648152
 11
-35.6678031563
 21
-9.4868735064
  0
LINE
  5
3F1
100
AcDbEntity
  8
ASSI
100
AcDbLine
 62
253
  6
CONTINUOUS
 10
-35.1861514173
 20
-9.4774077307
 11
-35.6635656252
 21
-9.4867648152
  0
LWPOLYLINE
  5
3F2
100
AcDbEntity
  8
ASSI
100
AcDbPolyline
 62
253
  6
CONTINUOUS
 90
28
 70
0
 10
-34.2021280304
 20
21.1459475977
 10
-34.2656534755
 20
20.7175705579
 10
-34.3271027588
 20
20.2889113639
 10
-34.3864758802
 20
19.859970016
 10
-34.4437741323
 20
19.4307364468
 10
-34.4989962225
 20
19.0012207235
 10
-34.5521382733
 20
18.5714530477
 10
-34.6032001368
 20
18.1414334153
 10
-34.652181961
 20
17.7111618303
 10
-34.6990803124
 20
17.2806685066
 10
-34.7438950444
 20
16.8499534327
 10
-34.7866263036
 20
16.41901662
 10
-34.8272710964
 20
15.9878883161
 10
-34.8658292762
 20
15.5565685102
 10
-34.9023009896
 20
15.1250572131
 10
-34.9366836819
 20
14.6933847039
 10
-34.968977207
 20
14.2615509686
 10
-34.999181711
 20
13.8295560212
 10
-35.0272950776
 20
13.397430183
 10
-35.0533171603
 20
12.9651734407
 10
-35.0772481055
 20
12.5327858077
 10
-35.0990862361
 20
12.1002976455
 10
-35.1188314056
 20
11.6677089268
 10
-35.1364837604
 20
11.2350196788
 10
-35.1520420627
 20
10.8022603447
 10
-35.1655059
 20
10.3694410723
 10
-35.1768756849
 20
9.9365517139
 10
-35.2043312759
 20
8.4931151164
  0
LWPOLYLINE
  5
3F3
100
AcDbEntity
  8
ASSI
100
AcDbPolyline
 62
253
  6
CONTINUOUS
 90
58
 70
0
 10
-34.2021280304
 20
-21.1197630591
 10
-34.2001938087
 20
-21.1316215617
 10
-34.1979783929
 20
-21.1434172221
 10
-34.195481783
 20
-21.1551500403
 10
-34.1927021968
 20
-21.1668268567
 10
-34.1896414164
 20
-21.1784408309
 10
-34.1863047884
 20
-21.1899714409
 10
-34.1826918537
 20
-21.2014184065
 10
-34.1788030714
 20
-21.2127820078
 10
-34.1746451655
 20
-21.224042563
 10
-34.1702176781
 20
-21.2351998705
 10
-34.165521067
 20
-21.2462541319
 10
-34.1605634299
 20
-21.2571862709
 10
-34.1553443122
 20
-21.2679960869
 10
-34.1498641685
 20
-21.2786837804
 10
-34.144132459
 20
-21.2892308767
 10
-34.1381487483
 20
-21.2996371334
 10
-34.1319134719
 20
-21.309902793
 10
-34.1254373965
 20
-21.3200101085
 10
-34.1187201046
 20
-21.3299588073
 10
-34.1117620136
 20
-21.3397491621
 10
-34.1045751428
 20
-21.3493642434
 10
-34.0971591007
 20
-21.3588037437
 10
-34.0895142787
 20
-21.3680679706
 10
-34.0816538705
 20
-21.3771409176
 10
-34.0735774971
 20
-21.3860222612
 10
-34.0652855374
 20
-21.394712325
 10
-34.0567923221
 20
-21.4031960733
 10
-34.048097507
 20
-21.4114731449
 10
-34.0392014363
 20
-21.4195439011
 10
-34.0301194724
 20
-21.4273943891
 10
-34.020851288
 20
-21.4350242327
 10
-34.0113972105
 20
-21.4424338081
 10
-34.0017735842
 20
-21.4496102922
 10
-33.9919801225
 20
-21.4565532769
 10
-33.982017112
 20
-21.4632631701
 10
-33.9719017569
 20
-21.4697283726
 10
-33.9616337872
 20
-21.4759484654
 10
-33.951213473
 20
-21.4819238674
 10
-33.9406588288
 20
-21.4876442361
 10
-33.9299696215
 20
-21.4931091297
 10
-33.9191460843
 20
-21.49831899
 10
-33.9082069308
 20
-21.5032647996
 10
-33.8971519597
 20
-21.5079461011
 10
-33.8859813724
 20
-21.5123633519
 10
-33.8747144864
 20
-21.5165089067
 10
-33.8633511457
 20
-21.5203822931
 10
-33.8518915063
 20
-21.5239839835
 10
-33.8403553542
 20
-21.5273077508
 10
-33.8287425319
 20
-21.5303531181
 10
-33.8170531969
 20
-21.5331205623
 10
-33.805307607
 20
-21.5356052863
 10
-33.7935054641
 20
-21.537806809
 10
-33.7816470664
 20
-21.5397256116
 10
-33.7697535663
 20
-21.5413583408
 10
-33.7578320146
 20
-21.542703879
 10
-33.7458753605
 20
-21.5437633438
 10
-33.733883604
 20
-21.5445367352
  0
LINE
  5
3F4
100
AcDbEntity
  8
0
100
AcDbLine
 62
253
  6
CONTINUOUS
 10
-35.4726518995
 20
-13.9536418683
 11
-35.4723654343
 21
-13.9578046461
  0
LINE
  5
3F5
100
AcDbEntity
  8
0
100
AcDbLine
 62
253
  6
CONTINUOUS
 10
-35.5030035564
 20
-13.4953572117
 11
-35.4730691116
 21
-13.9475740905
  0
LINE
  5
3F6
100
AcDbEntity
  8
0
100
AcDbLine
 62
253
  6
CONTINUOUS
 10
-35.5017241211
 20
-13.5154213129
 11
-35.5315103811
 21
-13.0284821463
  0
LINE
  5
3F7
100
AcDbEntity
  8
0
100
AcDbLine
 62
253
  6
CONTINUOUS
 10
-35.5543886375
 20
-12.6212273522
 11
-35.5291361231
 21
-13.0689457574
  0
LINE
  5
3F8
100
AcDbEntity
  8
0
100
AcDbLine
 62
253
  6
CONTINUOUS
 10
-35.5530937699
 20
-12.6451900502
 11
-35.5748272947
 21
-12.2258859902
  0
LINE
  5
3F9
100
AcDbEntity
  8
0
100
AcDbLine
 62
253
  6
CONTINUOUS
 10
-35.5741072142
 20
-12.2404101391
 11
-35.5932620644
 21
-11.8363235598
  0
LINE
  5
3FA
100
AcDbEntity
  8
0
100
AcDbLine
 62
253
  6
CONTINUOUS
 10
-35.6100462229
 20
-11.4457563302
 11
-35.592491429
 21
-11.853355831
  0
LINE
  5
3FB
100
AcDbEntity
  8
0
100
AcDbLine
 62
253
  6
CONTINUOUS
 10
-35.6098582985
 20
-11.4503664865
 11
-35.6250325526
 21
-11.0579105029
  0
LINE
  5
3FC
100
AcDbEntity
  8
0
100
AcDbLine
 62
253
  6
CONTINUOUS
 10
-35.6271177155
 20
-11.0002441405
 11
-35.6250325526
 21
-11.0579105029
  0
LWPOLYLINE
  5
3FD
100
AcDbEntity
  8
ASSI
100
AcDbPolyline
 62
253
  6
CONTINUOUS
 90
27
 70
0
 10
-35.1768756849
 20
-9.9103671752
 10
-35.1655059
 20
-10.3432565337
 10
-35.1520420627
 20
-10.7760758061
 10
-35.1364837604
 20
-11.2088351401
 10
-35.1188314056
 20
-11.6415243881
 10
-35.0990862361
 20
-12.0741131068
 10
-35.0772481055
 20
-12.5066012691
 10
-35.0533171603
 20
-12.9389889021
 10
-35.0272950776
 20
-13.3712456444
 10
-34.999181711
 20
-13.8033714825
 10
-34.968977207
 20
-14.2353664299
 10
-34.9366836819
 20
-14.6672001653
 10
-34.9023009896
 20
-15.0988726745
 10
-34.8658292762
 20
-15.5303839716
 10
-34.8272710964
 20
-15.9617037774
 10
-34.7866263036
 20
-16.3928320814
 10
-34.7438950444
 20
-16.8237688941
 10
-34.6990803124
 20
-17.2544839679
 10
-34.652181961
 20
-17.6849772917
 10
-34.6032001368
 20
-18.1152488766
 10
-34.5521382733
 20
-18.545268509
 10
-34.4989962225
 20
-18.9750361849
 10
-34.4437741323
 20
-19.4045519081
 10
-34.3864758802
 20
-19.8337854773
 10
-34.3271027588
 20
-20.2627268253
 10
-34.2656534755
 20
-20.6913860192
 10
-34.2021280304
 20
-21.1197630591
  0
LINE
  5
3FE
100
AcDbEntity
  8
0
100
AcDbLine
 62
253
  6
CONTINUOUS
 10
-35.6109666161
 20
11.4493177801
 11
-35.6366571341
 21
10.7482256193
  0
LINE
  5
3FF
100
AcDbEntity
  8
0
100
AcDbLine
 62
253
  6
CONTINUOUS
 10
-35.6116703478
 20
11.4319220775
 11
-35.5851991847
 21
12.0373137176
  0
LINE
  5
400
100
AcDbEntity
  8
0
100
AcDbLine
 62
253
  6
CONTINUOUS
 10
-35.5600034952
 20
12.5421006188
 11
-35.5874823379
 21
11.9885570079
  0
LINE
  5
401
100
AcDbEntity
  8
0
100
AcDbLine
 62
253
  6
CONTINUOUS
 10
-35.5073253361
 20
13.4532550631
 11
-35.5609023923
 21
12.5250222991
  0
LINE
  5
402
100
AcDbEntity
  8
0
100
AcDbLine
 62
253
  6
CONTINUOUS
 10
-35.5088449513
 20
13.429044828
 11
-35.4739928625
 21
13.9603025629
  0
LWPOLYLINE
  5
403
100
AcDbEntity
  8
ASSI
100
AcDbPolyline
 62
253
  6
CONTINUOUS
 90
16
 70
0
 10
-35.2736886819
 20
0.1920835418
 10
-35.2734592869
 20
0.1878524006
 10
-35.2732225585
 20
0.1838900488
 10
-35.2729787852
 20
0.1802013121
 10
-35.2727282637
 20
0.1767906829
 10
-35.2724712993
 20
0.1736623148
 10
-35.2722082047
 20
0.170820018
 10
-35.2719393005
 20
0.1682672538
 10
-35.2716649142
 20
0.1660071313
 10
-35.2713853799
 20
0.1640424031
 10
-35.271101038
 20
0.1623754618
 10
-35.2708122348
 20
0.1610083376
 10
-35.2705193221
 20
0.1599426956
 10
-35.2702226567
 20
0.1591798334
 10
-35.2699225997
 20
0.1587206803
 10
-35.2696195166
 20
0.1585657953
  0
LINE
  5
404
100
AcDbEntity
  8
ASSI
100
AcDbLine
 62
253
  6
CONTINUOUS
 10
-35.2741243638
 20
0.2013312594
 11
-35.2736886819
 21
0.1920835418
  0
LINE
  5
405
100
AcDbEntity
  8
ASSI
100
AcDbLine
 62
253
  6
CONTINUOUS
 10
-35.2745274824
 20
0.2115881653
 11
-35.2741243638
 21
0.2013312594
  0
LINE
  5
406
100
AcDbEntity
  8
ASSI
100
AcDbLine
 62
253
  6
CONTINUOUS
 10
-35.2748960747
 20
0.222804308
 11
-35.2745274824
 21
0.2115881653
  0
LINE
  5
407
100
AcDbEntity
  8
ASSI
100
AcDbLine
 62
253
  6
CONTINUOUS
 10
-35.2752283454
 20
0.2349250649
 11
-35.2748960747
 21
0.222804308
  0
LINE
  5
408
100
AcDbEntity
  8
ASSI
100
AcDbLine
 62
253
  6
CONTINUOUS
 10
-35.2756551593
 20
0.2546720933
 11
-35.2752283454
 21
0.2349250649
  0
LWPOLYLINE
  5
409
100
AcDbEntity
  8
ASSI
100
AcDbPolyline
 62
253
  6
CONTINUOUS
 90
18
 70
0
 10
-33.7477242618
 20
-21.9837381047
 10
-33.7476263453
 20
-21.9904530557
 10
-33.7475020983
 20
-21.9967915938
 10
-33.7473516255
 20
-22.0027483684
 10
-33.7471750539
 20
-22.0083183513
 10
-33.7469725327
 20
-22.0134968406
 10
-33.7467442328
 20
-22.018279465
 10
-33.7464903468
 20
-22.0226621873
 10
-33.7462110892
 20
-22.026641308
 10
-33.7459066956
 20
-22.030213468
 10
-33.745577423
 20
-22.033375652
 10
-33.7452235494
 20
-22.0361251908
 10
-33.7448453734
 20
-22.0384597633
 10
-33.7444432143
 20
-22.0403773988
 10
-33.7440174115
 20
-22.0418764787
 10
-33.7435683246
 20
-22.0429557374
 10
-33.7430963325
 20
-22.043614264
 10
-33.7426018338
 20
-22.0438515026
  0
LINE
  5
40A
100
AcDbEntity
  8
ASSI
100
AcDbLine
 62
253
  6
CONTINUOUS
 10
-35.275991978
 20
0.2761044559
 11
-35.2756551593
 21
0.2546720933
  0
LINE
  5
40B
100
AcDbEntity
  8
ASSI
100
AcDbLine
 62
253
  6
CONTINUOUS
 10
-35.2762351124
 20
0.2989874263
 11
-35.275991978
 21
0.2761044559
  0
LINE
  5
40C
100
AcDbEntity
  8
ASSI
100
AcDbLine
 62
253
  6
CONTINUOUS
 10
-33.7478407945
 20
-21.9692019503
 11
-33.7477242618
 21
-21.9837381047
  0
LINE
  5
40D
100
AcDbEntity
  8
ASSI
100
AcDbLine
 62
253
  6
CONTINUOUS
 10
-35.2761627569
 20
-0.3823717374
 11
-35.2763810765
 21
-0.3475864856
  0
LINE
  5
40E
100
AcDbEntity
  8
ASSI
100
AcDbLine
 62
253
  6
CONTINUOUS
 10
-35.27640911
 20
0.3313194474
 11
-35.2762351124
 21
0.2989874263
  0
LWPOLYLINE
  5
40F
100
AcDbEntity
  8
ASSI
100
AcDbPolyline
 62
253
  6
CONTINUOUS
 90
10
 70
0
 10
-35.2761608403
 20
-0.3823717207
 10
-35.2743390791
 20
-1.3930072439
 10
-35.2704724372
 20
-2.4036245802
 10
-35.2645609146
 20
-3.4142237294
 10
-35.2566044321
 20
-4.4248057645
 10
-35.246603069
 20
-5.4353696127
 10
-35.2345570622
 20
-6.4459120552
 10
-35.2204664909
 20
-7.4564320193
 10
-35.2043312759
 20
-8.4669305778
 10
-35.1768756849
 20
-9.9103671752
  0
LINE
  5
410
100
AcDbEntity
  8
ASSI
100
AcDbLine
 62
253
  6
CONTINUOUS
 10
-35.2763810765
 20
-0.3475864856
 11
-35.2764253943
 21
-0.3134780272
  0
LINE
  5
411
100
AcDbEntity
  8
ASSI
100
AcDbLine
 62
253
  6
CONTINUOUS
 10
-35.2764085605
 20
0.3651542136
 11
-35.27640911
 21
0.3313194474
  0
LINE
  5
412
100
AcDbEntity
  8
ASSI
100
AcDbLine
 62
253
  6
CONTINUOUS
 10
-35.2764253943
 20
-0.3134780272
 11
-35.2762948482
 21
-0.2807099877
  0
LWPOLYLINE
  5
413
100
AcDbEntity
  8
ASSI
100
AcDbPolyline
 62
253
  6
CONTINUOUS
 90
3
 70
0
 10
-35.2761627569
 20
0.4085562761
 10
-35.2762334745
 20
0.3998334246
 10
-35.2764085605
 20
0.3651542136
  0
LWPOLYLINE
  5
414
100
AcDbEntity
  8
ASSI
100
AcDbPolyline
 62
253
  6
CONTINUOUS
 90
19
 70
0
 10
-33.7478407946
 20
21.9953864871
 10
-33.7477242619
 20
22.0099226418
 10
-33.7476263454
 20
22.016637593
 10
-33.7475020983
 20
22.0229761312
 10
-33.7473516255
 20
22.028932906
 10
-33.747175054
 20
22.034502889
 10
-33.7469725328
 20
22.0396813785
 10
-33.7467442328
 20
22.044464003
 10
-33.7464903469
 20
22.0488467254
 10
-33.7462110893
 20
22.0528258461
 10
-33.7459066957
 20
22.0563980062
 10
-33.7455774231
 20
22.0595601904
 10
-33.7452235494
 20
22.0623097292
 10
-33.7448453734
 20
22.0646443018
 10
-33.7444432143
 20
22.0665619374
 10
-33.7440174116
 20
22.0680610173
 10
-33.7435683246
 20
22.0691402761
 10
-33.7430963325
 20
22.0697988027
 10
-33.7426018338
 20
22.0700360412
  0
LINE
  5
415
100
AcDbEntity
  8
ASSI
100
AcDbLine
 62
253
  6
CONTINUOUS
 10
-35.2762948482
 20
-0.2807099877
 11
-35.2760835851
 21
-0.2573984659
  0
LINE
  5
416
100
AcDbEntity
  8
ASSI
100
AcDbLine
 62
253
  6
CONTINUOUS
 10
-35.2760835851
 20
-0.2573984659
 11
-35.2757776346
 21
-0.2354556473
  0
LWPOLYLINE
  5
417
100
AcDbEntity
  8
ASSI
100
AcDbPolyline
 62
253
  6
CONTINUOUS
 90
9
 70
0
 10
-35.2043312759
 20
8.4931151164
 10
-35.2204664909
 20
7.4826165579
 10
-35.2345570622
 20
6.4720965939
 10
-35.246603069
 20
5.4615541513
 10
-35.2566044321
 20
4.4509903032
 10
-35.2645609146
 20
3.4404082681
 10
-35.2704724372
 20
2.4298091188
 10
-35.2743390791
 20
1.4191917826
 10
-35.2761608403
 20
0.4085562594
  0
LINE
  5
418
100
AcDbEntity
  8
ASSI
100
AcDbLine
 62
253
  6
CONTINUOUS
 10
-35.2757776346
 20
-0.2354556473
 11
-35.2753803474
 21
-0.2151218487
  0
LINE
  5
419
100
AcDbEntity
  8
ASSI
100
AcDbLine
 62
253
  6
CONTINUOUS
 10
-35.2753803474
 20
-0.2151218487
 11
-35.2750668555
 21
-0.2025706562
  0
LINE
  5
41A
100
AcDbEntity
  8
ASSI
100
AcDbLine
 62
253
  6
CONTINUOUS
 10
-35.2750668555
 20
-0.2025706562
 11
-35.2747162105
 21
-0.190895097
  0
LINE
  5
41B
100
AcDbEntity
  8
ASSI
100
AcDbLine
 62
253
  6
CONTINUOUS
 10
-35.2747162105
 20
-0.190895097
 11
-35.27433012
 21
-0.1801520313
  0
LWPOLYLINE
  5
41C
100
AcDbEntity
  8
ASSI
100
AcDbPolyline
 62
253
  6
CONTINUOUS
 90
18
 70
0
 10
-35.27433012
 20
-0.1801520313
 10
-35.2739104641
 20
-0.1703937778
 10
-35.2736886818
 20
-0.1658990004
 10
-35.2734592868
 20
-0.1616678595
 10
-35.2732225584
 20
-0.1577055079
 10
-35.2729787851
 20
-0.1540167715
 10
-35.2727282636
 20
-0.1506061425
 10
-35.2724712992
 20
-0.1474777747
 10
-35.2722082046
 20
-0.1446354781
 10
-35.2719393005
 20
-0.1420827142
 10
-35.2716649141
 20
-0.1398225919
 10
-35.2713853798
 20
-0.1378578638
 10
-35.2711010379
 20
-0.1361909227
 10
-35.2708122348
 20
-0.1348237987
 10
-35.2705193221
 20
-0.1337581568
 10
-35.2702226566
 20
-0.1329952947
 10
-35.2699225997
 20
-0.1325361416
 10
-35.2696195166
 20
-0.1323812567
  0
LINE
  5
41D
100
AcDbEntity
  8
ASSI
100
AcDbLine
 62
253
  6
CONTINUOUS
 10
-33.733883604
 20
21.5707212739
 11
-33.7374833779
 21
21.6430044569
  0
LINE
  5
41E
100
AcDbEntity
  8
ASSI
100
AcDbLine
 62
253
  6
CONTINUOUS
 10
-33.7374833779
 20
21.6430044569
 11
-33.7406396862
 21
21.7137647978
  0
LINE
  5
41F
100
AcDbEntity
  8
ASSI
100
AcDbLine
 62
253
  6
CONTINUOUS
 10
-33.7406396862
 20
21.7137647978
 11
-33.7428004013
 21
21.7682729478
  0
LINE
  5
420
100
AcDbEntity
  8
ASSI
100
AcDbLine
 62
253
  6
CONTINUOUS
 10
-33.7428004013
 20
21.7682729478
 11
-33.7446053819
 21
21.8201157529
  0
LINE
  5
421
100
AcDbEntity
  8
ASSI
100
AcDbLine
 62
253
  6
CONTINUOUS
 10
-33.7446053819
 20
21.8201157529
 11
-33.7460302755
 21
21.8685937556
  0
LINE
  5
422
100
AcDbEntity
  8
ASSI
100
AcDbLine
 62
253
  6
CONTINUOUS
 10
-33.7460302755
 20
21.8685937556
 11
-33.7468377482
 21
21.9023486884
  0
LINE
  5
423
100
AcDbEntity
  8
ASSI
100
AcDbLine
 62
253
  6
CONTINUOUS
 10
-33.7468377482
 20
21.9023486884
 11
-33.7474143664
 21
21.9335855988
  0
LINE
  5
424
100
AcDbEntity
  8
ASSI
100
AcDbLine
 62
253
  6
CONTINUOUS
 10
-33.7474143664
 20
21.9335855988
 11
-33.7476682907
 21
21.9528933365
  0
LINE
  5
425
100
AcDbEntity
  8
ASSI
100
AcDbLine
 62
253
  6
CONTINUOUS
 10
-33.7476682907
 20
21.9528933365
 11
-33.7478167731
 21
21.9709109296
  0
LWPOLYLINE
  5
426
100
AcDbEntity
  8
ASSI
100
AcDbPolyline
 62
253
  6
CONTINUOUS
 90
3
 70
0
 10
-33.7478167731
 20
21.9709109296
 10
-33.7478593124
 20
21.987577554
 10
-33.7478407946
 20
21.9953864871
  0
LINE
  5
427
100
AcDbEntity
  8
ASSI
100
AcDbLine
 62
253
  6
CONTINUOUS
 10
-33.747851303
 20
-21.953232202
 11
-33.7478407945
 21
-21.9692019503
  0
LINE
  5
428
100
AcDbEntity
  8
ASSI
100
AcDbLine
 62
253
  6
CONTINUOUS
 10
-33.7477557518
 20
-21.9358827709
 11
-33.747851303
 21
-21.953232202
  0
LINE
  5
429
100
AcDbEntity
  8
ASSI
100
AcDbLine
 62
253
  6
CONTINUOUS
 10
-33.7475544635
 20
-21.9172122255
 11
-33.7477557518
 21
-21.9358827709
  0
LINE
  5
42A
100
AcDbEntity
  8
ASSI
100
AcDbLine
 62
253
  6
CONTINUOUS
 10
-33.7470558574
 20
-21.8868683603
 11
-33.7475544635
 21
-21.9172122255
  0
LINE
  5
42B
100
AcDbEntity
  8
ASSI
100
AcDbLine
 62
253
  6
CONTINUOUS
 10
-33.7463247407
 20
-21.8539251963
 11
-33.7470558574
 21
-21.8868683603
  0
LINE
  5
42C
100
AcDbEntity
  8
ASSI
100
AcDbLine
 62
253
  6
CONTINUOUS
 10
-33.7453666647
 20
-21.8186328686
 11
-33.7463247407
 21
-21.8539251963
  0
LINE
  5
42D
100
AcDbEntity
  8
ASSI
100
AcDbLine
 62
253
  6
CONTINUOUS
 10
-33.7437489972
 20
-21.7683876551
 11
-33.7453666647
 21
-21.8186328686
  0
LINE
  5
42E
100
AcDbEntity
  8
ASSI
100
AcDbLine
 62
253
  6
CONTINUOUS
 10
-33.7417627968
 20
-21.71512227
 11
-33.7437489972
 21
-21.7683876551
  0
LINE
  5
42F
100
AcDbEntity
  8
ASSI
100
AcDbLine
 62
253
  6
CONTINUOUS
 10
-33.7394348612
 20
-21.6595553638
 11
-33.7417627968
 21
-21.71512227
  0
LINE
  5
430
100
AcDbEntity
  8
ASSI
100
AcDbLine
 62
253
  6
CONTINUOUS
 10
-33.7360926302
 20
-21.5880044831
 11
-33.7394348612
 21
-21.6595553638
  0
LINE
  5
431
100
AcDbEntity
  8
ASSI
100
AcDbLine
 62
253
  6
CONTINUOUS
 10
-33.733883604
 20
-21.5445367352
 11
-33.7360926302
 21
-21.5880044831
  0
LINE
  5
432
100
AcDbEntity
  8
ASSI
100
AcDbLine
 62
253
  6
CONTINUOUS
 10
-30.0588695574
 20
-0.3368411094
 11
-35.2761608403
 21
-0.3823717207
  0
LINE
  5
433
100
AcDbEntity
  8
ASSI
100
AcDbLine
 62
7
  6
CONTINUOUS
 10
-30.0588695574
 20
-0.0869077307
 11
-35.5108930503
 21
-0.1344868189
  0
LINE
  5
434
100
AcDbEntity
  8
ASSI
100
AcDbLine
 62
253
  6
CONTINUOUS
 10
-35.2761608403
 20
-0.3823717283
 11
-35.7587113371
 21
-0.3846761847
  0
LINE
  5
435
100
AcDbEntity
  8
ASSI
100
AcDbLine
 62
7
  6
CONTINUOUS
 10
-35.5108930503
 20
0.1606713575
 11
-30.0588695574
 21
0.1130922693
  0
LINE
  5
436
100
AcDbEntity
  8
ASSI
100
AcDbLine
 62
7
  6
CONTINUOUS
 10
-30.4588695574
 20
-17.9203975395
 11
-30.4588695574
 21
-17.6589286518
  0
LINE
  5
437
100
AcDbEntity
  8
ASSI
100
AcDbLine
 62
7
  6
CONTINUOUS
 10
-30.4588695574
 20
17.6851131904
 11
-30.4588695574
 21
17.9465820782
  0
LINE
  5
438
100
AcDbEntity
  8
ASSI
100
AcDbLine
 62
7
  6
CONTINUOUS
 10
-30.0588695574
 20
-0.0869077307
 11
-30.0588695574
 21
-13.0869077307
  0
LINE
  5
439
100
AcDbEntity
  8
ASSI
100
AcDbLine
 62
7
  6
CONTINUOUS
 10
-30.0588695574
 20
0.1130922693
 11
-30.0588695574
 21
13.1130922693
  0
LINE
  5
43A
100
AcDbEntity
  8
ASSI
100
AcDbLine
 62
253
  6
CONTINUOUS
 10
-35.7587113371
 20
0.4108607233
 11
-35.2761608403
 21
0.408556267
  0
LINE
  5
43B
100
AcDbEntity
  8
ASSI
100
AcDbLine
 62
253
  6
CONTINUOUS
 10
-35.2761608403
 20
0.4085562594
 11
-30.0588695574
 21
0.3630256481
  0
LINE
  5
43C
100
AcDbEntity
  8
ASSI
100
AcDbLine
 62
7
  6
CONTINUOUS
 10
-30.8557371219
 20
22.2213302099
 11
-30.0588695574
 21
13.1130922693
  0
LINE
  5
43D
100
AcDbEntity
  8
ASSI
100
AcDbLine
 62
7
  6
CONTINUOUS
 10
-30.8557371219
 20
-22.1951456712
 11
-30.0588695574
 21
-13.0869077307
  0
LWPOLYLINE
  5
43E
100
AcDbEntity
  8
ASSI
100
AcDbPolyline
 62
253
  6
CONTINUOUS
 90
3
 70
0
 10
-35.1861514173
 20
9.5035922693
 10
-35.6653802911
 20
9.5129931986
 10
-35.6667931824
 20
9.5130294388
  0
LWPOLYLINE
  5
43F
100
AcDbEntity
  8
ASSI
100
AcDbPolyline
 62
253
  6
CONTINUOUS
 90
3
 70
0
 10
-35.6678031564
 20
9.513058045
 10
-35.668409396
 20
9.5130789942
 10
-35.6686114108
 20
9.5130922693
  0
LINE
  5
440
100
AcDbEntity
  8
ASSI
100
AcDbLine
 62
253
  6
CONTINUOUS
 10
-30.4817452777
 20
17.9465838707
 11
-30.4588695574
 21
17.9465838705
  0
LWPOLYLINE
  5
441
100
AcDbEntity
  8
ASSI
100
AcDbPolyline
 62
253
  6
CONTINUOUS
 90
58
 70
0
 10
-33.733883604
 20
21.5707212739
 10
-33.7458753605
 20
21.5699478824
 10
-33.7578320146
 20
21.5688884176
 10
-33.7697535663
 20
21.5675428795
 10
-33.7816470664
 20
21.5659101502
 10
-33.7935054641
 20
21.5639913477
 10
-33.805307607
 20
21.561789825
 10
-33.8170531969
 20
21.5593051009
 10
-33.8287425319
 20
21.5565376568
 10
-33.8403553542
 20
21.5534922894
 10
-33.8518915063
 20
21.5501685222
 10
-33.8633511457
 20
21.5465668317
 10
-33.8747144864
 20
21.5426934454
 10
-33.8859813724
 20
21.5385478905
 10
-33.8971519597
 20
21.5341306398
 10
-33.9082069308
 20
21.5294493383
 10
-33.9191460843
 20
21.5245035287
 10
-33.9299696215
 20
21.5192936684
 10
-33.9406588288
 20
21.5138287748
 10
-33.951213473
 20
21.5081084061
 10
-33.9616337872
 20
21.502133004
 10
-33.9719017569
 20
21.4959129112
 10
-33.982017112
 20
21.4894477088
 10
-33.9919801225
 20
21.4827378155
 10
-34.0017735842
 20
21.4757948309
 10
-34.0113972105
 20
21.4686183468
 10
-34.020851288
 20
21.4612087713
 10
-34.0301194724
 20
21.4535789278
 10
-34.0392014363
 20
21.4457284397
 10
-34.048097507
 20
21.4376576836
 10
-34.0567923221
 20
21.4293806119
 10
-34.0652855374
 20
21.4208968636
 10
-34.0735774971
 20
21.4122067999
 10
-34.0816538705
 20
21.4033254562
 10
-34.0895142787
 20
21.3942525092
 10
-34.0971591007
 20
21.3849882823
 10
-34.1045751428
 20
21.3755487821
 10
-34.1117620136
 20
21.3659337007
 10
-34.1187201046
 20
21.356143346
 10
-34.1254373965
 20
21.3461946471
 10
-34.1319134719
 20
21.3360873317
 10
-34.1381487483
 20
21.3258216721
 10
-34.144132459
 20
21.3154154154
 10
-34.1498641685
 20
21.304868319
 10
-34.1553443122
 20
21.2941806255
 10
-34.1605634299
 20
21.2833708096
 10
-34.165521067
 20
21.2724386706
 10
-34.1702176781
 20
21.2613844092
 10
-34.1746451655
 20
21.2502271017
 10
-34.1788030714
 20
21.2389665464
 10
-34.1826918537
 20
21.2276029451
 10
-34.1863047884
 20
21.2161559795
 10
-34.1896414164
 20
21.2046253696
 10
-34.1927021968
 20
21.1930113954
 10
-34.195481783
 20
21.1813345789
 10
-34.1979783929
 20
21.1696017608
 10
-34.2001938087
 20
21.1578061004
 10
-34.2021280304
 20
21.1459475977
  0
LINE
  5
442
100
AcDbEntity
  8
ASSI
100
AcDbLine
 62
253
  6
CONTINUOUS
 10
-30.8122123313
 20
21.7238395771
 11
-33.733883604
 21
21.5707212739
  0
LINE
  5
443
100
AcDbEntity
  8
ASSI
100
AcDbLine
 62
7
  6
CONTINUOUS
 10
-30.8557371219
 20
22.2213302099
 11
-33.7426018338
 21
22.0700360412
  0
LINE
  5
444
100
AcDbEntity
  8
ASSI
100
AcDbLine
 62
253
  6
CONTINUOUS
 10
-34.2021280304
 20
21.1459475977
 11
-34.5306237276
 21
21.196222653
  0
LINE
  5
445
100
AcDbEntity
  8
ASSI
100
AcDbLine
 62
253
  6
CONTINUOUS
 10
-34.5306237276
 20
21.196222653
 11
-34.6225652258
 21
21.2107424189
  0
LINE
  5
446
100
AcDbEntity
  8
ASSI
100
AcDbLine
 62
253
  6
CONTINUOUS
 10
-34.6225652258
 20
21.2107424189
 11
-34.6506872539
 21
21.2153250488
  0
LINE
  5
447
100
AcDbEntity
  8
ASSI
100
AcDbLine
 62
253
  6
CONTINUOUS
 10
-34.6506872539
 20
21.2153250488
 11
-34.6630705032
 21
21.2174066931
  0
LWPOLYLINE
  5
448
100
AcDbEntity
  8
ASSI
100
AcDbPolyline
 62
253
  6
CONTINUOUS
 90
9
 70
0
 10
-34.6630705032
 20
21.2174066931
 10
-34.6693956963
 20
21.2185062238
 10
-34.6719710515
 20
21.2189681143
 10
-34.6741520276
 20
21.2193709074
 10
-34.6759368595
 20
21.2197142771
 10
-34.6773241027
 20
21.2199979453
 10
-34.6783126344
 20
21.2202216827
 10
-34.6789016545
 20
21.220385308
 10
-34.6790906864
 20
21.2204886889
  0
ARC
  5
449
100
AcDbEntity
  8
ASSI
100
AcDbCircle
 62
7
  6
CONTINUOUS
 10
54.3151421228
 20
-7.7769077307
 40
90.0
100
AcDbArc
 50
181.08868532
 51
188.5737414447
  0
ARC
  5
44A
100
AcDbEntity
  8
0
100
AcDbCircle
 62
253
  6
CONTINUOUS
 10
54.3151421228
 20
-7.7769077307
 40
90.0
100
AcDbArc
 50
182.4815569232
 51
183.4986195133
  0
ARC
  5
44B
100
AcDbEntity
  8
ASSI
100
AcDbCircle
 62
7
  6
CONTINUOUS
 10
-33.6902658775
 20
-21.0452219678
 40
1.0
100
AcDbArc
 50
188.5737414447
 51
267.0
  0
ARC
  5
44C
100
AcDbEntity
  8
ASSI
100
AcDbCircle
 62
7
  6
CONTINUOUS
 10
-30.7588695574
 20
-17.9203993319
 40
0.3
100
AcDbArc
 50
334.9997013218
 51
0.0003423163
  0
ARC
  5
44D
100
AcDbEntity
  8
ASSI
100
AcDbCircle
 62
7
  6
CONTINUOUS
 10
-35.5087114024
 20
-0.3844772995
 40
0.25
100
AcDbArc
 50
90.5000032275
 51
180.045580992
  0
ARC
  5
44E
100
AcDbEntity
  8
ASSI
100
AcDbCircle
 62
7
  6
CONTINUOUS
 10
-35.5087114024
 20
0.4106618382
 40
0.25
100
AcDbArc
 50
179.954419008
 51
269.4999967725
  0
ARC
  5
44F
100
AcDbEntity
  8
ASSI
100
AcDbCircle
 62
7
  6
CONTINUOUS
 10
-33.6902658775
 20
21.0714065065
 40
1.0
100
AcDbArc
 50
93.0
 51
171.4262585553
  0
ARC
  5
450
100
AcDbEntity
  8
ASSI
100
AcDbCircle
 62
7
  6
CONTINUOUS
 10
-30.7588695574
 20
17.9465838705
 40
0.3
100
AcDbArc
 50
359.9996576837
 51
25.0002986779
  0
ARC
  5
451
100
AcDbEntity
  8
ASSI
100
AcDbCircle
 62
7
  6
CONTINUOUS
 10
54.3151421228
 20
7.8030922693
 40
90.0
100
AcDbArc
 50
171.4262585553
 51
178.91131468
  0
ARC
  5
452
100
AcDbEntity
  8
0
100
AcDbCircle
 62
253
  6
CONTINUOUS
 10
54.3151421228
 20
7.8030922693
 40
90.0
100
AcDbArc
 50
176.1773707593
 51
177.7840911008
  0
ARC
  5
453
100
AcDbEntity
  8
ASSI
100
AcDbCircle
 62
7
  6
CONTINUOUS
 10
464.2411304426
 20
0.0130922693
 40
500.0
100
AcDbArc
 50
178.91131468
 51
179.954419088
  0
ARC
  5
454
100
AcDbEntity
  8
ASSI
100
AcDbCircle
 62
7
  6
CONTINUOUS
 10
464.2411304426
 20
0.0130922693
 40
500.0
100
AcDbArc
 50
180.045580912
 51
181.08868532
  0
ELLIPSE
  5
455
100
AcDbEntity
  8
ASSI
100
AcDbEllipse
 62
7
  6
CONTINUOUS
 10
-7.6722130821
 20
-22.1687776176
 30
0.0
 11
0.2
 21
0.0
 31
0.0
 40
0.0524077793
 41
1.5707963268
 42
2.617993878
  0
ELLIPSE
  5
456
100
AcDbEntity
  8
ASSI
100
AcDbEllipse
 62
7
  6
CONTINUOUS
 10
3.5277869179
 20
-22.1687776176
 30
0.0
 11
0.2
 21
-0.0
 31
0.0
 40
0.0524077793
 41
1.5707963268
 42
2.617993878
  0
ELLIPSE
  5
457
100
AcDbEntity
  8
ASSI
100
AcDbEllipse
 62
7
  6
CONTINUOUS
 10
-4.3031531897
 20
-22.1687776176
 30
0.0
 11
0.2
 21
-0.0
 31
0.0
 40
0.0524077793
 41
0.5235987756
 42
1.5707963268
  0
ELLIPSE
  5
458
100
AcDbEntity
  8
ASSI
100
AcDbEllipse
 62
7
  6
CONTINUOUS
 10
6.8968468103
 20
-22.1687776176
 30
0.0
 11
0.2
 21
0.0
 31
0.0
 40
0.0524077793
 41
0.5235987756
 42
1.5707963268
  0
ELLIPSE
  5
459
100
AcDbEntity
  8
ASSI
100
AcDbEllipse
 62
7
  6
CONTINUOUS
 10
10.2357075638
 20
-21.6967447098
 30
0.0
 11
0.4943891341
 21
0.0770133648
 31
0.0
 40
0.9960067742
 41
-1.7259388368
 42
-0.1569690096
  0
ELLIPSE
  5
45A
100
AcDbEntity
  8
ASSI
100
AcDbEllipse
 62
7
  6
CONTINUOUS
 10
-11.0110738356
 20
-21.6967447098
 30
0.0
 11
0.4943891341
 21
-0.0770133648
 31
0.0
 40
0.9960067742
 41
-2.984623644
 42
-1.4156538168
  0
ELLIPSE
  5
45B
100
AcDbEntity
  8
ASSI
100
AcDbEllipse
 62
7
  6
CONTINUOUS
 10
10.512164478
 20
-0.3369172503
 30
0.0
 11
0.2426981267
 21
0.0606514259
 31
0.0
 40
0.9993528196
 41
-0.2447368254
 42
1.3257549497
  0
ELLIPSE
  5
45C
100
AcDbEntity
  8
ASSI
100
AcDbEllipse
 62
7
  6
CONTINUOUS
 10
-11.2875307498
 20
-0.3369172503
 30
0.0
 11
0.2426981267
 21
-0.0606514259
 31
0.0
 40
0.9993528196
 41
1.8158377039
 42
3.386329479
  0
ELLIPSE
  5
45D
100
AcDbEntity
  8
ASSI
100
AcDbEllipse
 62
7
  6
CONTINUOUS
 10
6.8968468103
 20
22.1949621563
 30
0.0
 11
0.2
 21
0.0
 31
0.0
 40
0.0524077793
 41
-1.5707963268
 42
-0.5235987756
  0
ELLIPSE
  5
45E
100
AcDbEntity
  8
ASSI
100
AcDbEllipse
 62
7
  6
CONTINUOUS
 10
-4.3031531897
 20
22.1949621563
 30
0.0
 11
0.2
 21
-0.0
 31
0.0
 40
0.0524077793
 41
-1.5707963268
 42
-0.5235987756
  0
ELLIPSE
  5
45F
100
AcDbEntity
  8
ASSI
100
AcDbEllipse
 62
7
  6
CONTINUOUS
 10
3.5277869179
 20
22.1949621563
 30
0.0
 11
0.2
 21
0.0
 31
0.0
 40
0.0524077793
 41
-2.617993878
 42
-1.5707963268
  0
ELLIPSE
  5
460
100
AcDbEntity
  8
ASSI
100
AcDbEllipse
 62
7
  6
CONTINUOUS
 10
-7.6722130821
 20
22.1949621563
 30
0.0
 11
0.2
 21
0.0
 31
0.0
 40
0.0524077793
 41
-2.617993878
 42
-1.5707963268
  0
ELLIPSE
  5
461
100
AcDbEntity
  8
ASSI
100
AcDbEllipse
 62
7
  6
CONTINUOUS
 10
-11.0110738356
 20
21.7229292484
 30
0.0
 11
0.4943891341
 21
0.0770133648
 31
0.0
 40
0.9960067742
 41
1.4156538168
 42
2.984623644
  0
ELLIPSE
  5
462
100
AcDbEntity
  8
ASSI
100
AcDbEllipse
 62
7
  6
CONTINUOUS
 10
10.2357075638
 20
21.7229292484
 30
0.0
 11
0.4943891341
 21
-0.0770133648
 31
0.0
 40
0.9960067742
 41
0.1569690096
 42
1.7259388368
  0
ELLIPSE
  5
463
100
AcDbEntity
  8
ASSI
100
AcDbEllipse
 62
7
  6
CONTINUOUS
 10
-11.2875307498
 20
0.3631017889
 30
0.0
 11
0.2426981267
 21
0.0606514259
 31
0.0
 40
0.9993528196
 41
2.8968558282
 42
4.4673476033
  0
ELLIPSE
  5
464
100
AcDbEntity
  8
ASSI
100
AcDbEllipse
 62
7
  6
CONTINUOUS
 10
10.512164478
 20
0.3631017889
 30
0.0
 11
0.2426981267
 21
-0.0606514259
 31
0.0
 40
0.9993528196
 41
-1.3257549497
 42
0.2447368254
  0
ELLIPSE
  5
465
100
AcDbEntity
  8
0
100
AcDbEllipse
 62
253
  6
CONTINUOUS
 10
54.3151421228
 20
7.8030922693
 30
0.0
 11
0.0
 21
90.0
 31
0.0
 40
1.0
 41
7.7910786505
 42
7.7960560233
  0
ELLIPSE
  5
466
100
AcDbEntity
  8
0
100
AcDbEllipse
 62
253
  6
CONTINUOUS
 10
54.3151421228
 20
7.8030922693
 30
0.0
 11
0.0
 21
90.0
 31
0.0
 40
1.0
 41
7.7964918414
 42
7.796648105
  0
ELLIPSE
  5
467
100
AcDbEntity
  8
0
100
AcDbEllipse
 62
253
  6
CONTINUOUS
 10
54.3151421228
 20
7.8030922693
 30
0.0
 11
90.0
 21
0.0
 31
0.0
 40
1.0
 41
9.3683596061
 42
9.3756683742
  0
ELLIPSE
  5
468
100
AcDbEntity
  8
0
100
AcDbEllipse
 62
253
  6
CONTINUOUS
 10
54.3151421228
 20
7.8030922693
 30
0.0
 11
90.0
 21
0.0
 31
0.0
 40
1.0
 41
3.0934892801
 42
3.0935607131
  0
ELLIPSE
  5
469
100
AcDbEntity
  8
0
100
AcDbEllipse
 62
253
  6
CONTINUOUS
 10
54.3151421228
 20
7.8030922693
 30
0.0
 11
90.0
 21
0.0
 31
0.0
 40
1.0
 41
9.377026201
 42
9.3822789276
  0
ELLIPSE
  5
46A
100
AcDbEntity
  8
0
100
AcDbEllipse
 62
253
  6
CONTINUOUS
 10
54.3151421228
 20
-7.7769077307
 30
0.0
 11
90.0
 21
0.0
 31
0.0
 40
1.0
 41
-3.0844395596
 42
-3.0791859314
  0
ELLIPSE
  5
46B
100
AcDbEntity
  8
0
100
AcDbEllipse
 62
253
  6
CONTINUOUS
 10
54.3151421228
 20
-7.7769077307
 30
0.0
 11
90.0
 21
0.0
 31
0.0
 40
1.0
 41
-3.0847936959
 42
-3.0847088923
  0
ELLIPSE
  5
46C
100
AcDbEntity
  8
0
100
AcDbEllipse
 62
253
  6
CONTINUOUS
 10
54.3151421228
 20
-7.7769077307
 30
0.0
 11
90.0
 21
-0.0
 31
0.0
 40
1.0
 41
3.1890055324
 42
3.1891617147
  0
ELLIPSE
  5
46D
100
AcDbEntity
  8
0
100
AcDbEllipse
 62
253
  6
CONTINUOUS
 10
54.3151421228
 20
-7.7769077307
 30
0.0
 11
90.0
 21
0.0
 31
0.0
 40
1.0
 41
3.190079211
 42
3.1973802808
  0
ELLIPSE
  5
46E
100
AcDbEntity
  8
0
100
AcDbEllipse
 62
253
  6
CONTINUOUS
 10
54.3151421228
 20
-7.7769077307
 30
0.0
 11
90.0
 21
-0.0
 31
0.0
 40
1.0
 41
-3.0729758624
 42
-3.0729082834
  0
ELLIPSE
  5
46F
100
AcDbEntity
  8
0
100
AcDbEllipse
 62
253
  6
CONTINUOUS
 10
54.3151421228
 20
-7.7769077307
 30
0.0
 11
90.0
 21
0.0
 31
0.0
 40
1.0
 41
-3.0777916438
 42
-3.0777205514
  0
ELLIPSE
  5
470
100
AcDbEntity
  8
0
100
AcDbEllipse
 62
253
  6
CONTINUOUS
 10
54.3151421228
 20
-7.7769077307
 30
0.0
 11
0.0
 21
90.0
 31
0.0
 40
1.0
 41
-4.6703848925
 42
-4.665412464
  0
ENDSEC
  0
SECTION
  2
OBJECTS
  0
DICTIONARY
  5
C
100
AcDbDictionary
280
0
281
1
  3
ACAD_GROUP
350
D
  3
ACAD_MLINESTYLE
350
17
  3
ACAD_LAYOUT
350
1A
  3
ACAD_PLOTSETTINGS
350
19
  3
ACAD_PLOTSTYLENAME
350
E
  0
DICTIONARY
  5
D
102
{ACAD_REACTORS
330
C
102
}
100
AcDbDictionary
280
0
281
1
  0
ACDBDICTIONARYWDFLT
  5
E
102
{ACAD_REACTORS
330
C
102
}
100
AcDbDictionary
281
1
  3
Normal
350
F
100
AcDbDictionaryWithDefault
340
F
  0
DICTIONARY
  5
17
102
{ACAD_REACTORS
330
C
102
}
100
AcDbDictionary
280
0
281
1
  3
Standard
350
18
  0
DICTIONARY
  5
19
102
{ACAD_REACTORS
330
C
102
}
100
AcDbDictionary
281
1
  0
DICTIONARY
  5
1A
102
{ACAD_REACTORS
330
C
102
}
100
AcDbDictionary
281
1
  3
Model
350
471
  3
Layout1
350
472
  0
ACDBPLACEHOLDER
  5
F
102
{ACAD_REACTORS
330
E
102
}
  0
MLINESTYLE
  5
18
102
{ACAD_REACTORS
330
17
102
}
100
AcDbMlineStyle
  2
STANDARD
 70
0
  3

 62
256
 51
90.0
 52
90.0
 71
2
 49
0.5
 62
256
  6
BYLAYER
 49
-0.5
 62
256
  6
BYLAYER
  0
LAYOUT
  5
471
102
{ACAD_REACTORS
330
1A
102
}
100
AcDbPlotSettings
  1

  2
none_device
  4
ISO_A4_(297.00_x_210.00_MM)
  6

 40
0.0
 41
0.0
 42
0.0
 43
0.0
 44
297.0
 45
210.0
 46
0.0
 47
0.0
 48
0.0
 49
0.0
140
0.0
141
0.0
142
1.0
143
1.0
 70
1024
 72
1
 73
0
 74
0
  7

 75
0
147
1.0
148
0.0
149
0.0
100
AcDbLayout
  1
Model
 70
0
 71
0
 10
0.0
 20
0.0
 11
297.0
 21
210.0
 12
0.0
 22
0.0
 32
0.0
 14
0.0
 24
0.0
 34
0.0
 15
0.0
 25
0.0
 35
0.0
146
0.0
 13
0.0
 23
0.0
 33
0.0
 16
1.0
 26
0.0
 36
0.0
 17
0.0
 27
1.0
 37
0.0
 76
0
330
219
345
0
346
0
  0
LAYOUT
  5
472
102
{ACAD_REACTORS
330
1A
102
}
100
AcDbPlotSettings
  1

  2
none_device
  4
ISO_A4_(297.00_x_210.00_MM)
  6

 40
0.0
 41
0.0
 42
0.0
 43
0.0
 44
297.0
 45
210.0
 46
0.0
 47
0.0
 48
0.0
 49
0.0
140
0.0
141
0.0
142
1.0
143
1.0
 70
0
 72
1
 73
0
 74
0
  7

 75
0
147
1.0
148
0.0
149
0.0
100
AcDbLayout
  1
Layout1
 70
0
 71
1
 10
0.0
 20
0.0
 11
297.0
 21
210.0
 12
0.0
 22
0.0
 32
0.0
 14
0.0
 24
0.0
 34
0.0
 15
0.0
 25
0.0
 35
0.0
146
0.0
 13
0.0
 23
0.0
 33
0.0
 16
1.0
 26
0.0
 36
0.0
 17
0.0
 27
1.0
 37
0.0
 76
0
330
21A
345
0
346
0
  0
ENDSEC
  0
EOF
