  0
SECTION
  2
HEADER
  9
$ACADVER
  1
AC1021
  9
$DWGCODEPAGE
  3
ANSI_1252
  9
$EXTMAX
 10
297.0
 20
210.0
 30
0.0
  9
$EXTMIN
 10
0.0
 20
0.0
 30
0.0
  9
$LIMMIN
 10
0.0
 20
0.0
  9
$LIMMAX
 10
297.0
 20
210.0
  9
$VIEWCTR
 10
148.5
 20
105.0
  9
$VIEWSIZE
 40
210.0
  9
$CLAYER
  8
0
  9
$LTSCALE
 40
16.335
  9
$CELTYPE
  6
BYLAYER
  9
$DIMSCALE
 40
1.0
  9
$DIMASZ
 40
3.0
  9
$DIMEXO
 40
0.5
  9
$DIMDLI
 40
11.286
  9
$DIMEXE
 40
1.5
  9
$DIMCEN
 40
2.673
  9
$DIMLFAC
 40
1.0
  9
$DIMBLK
  1
_FILLED
  9
$DIMALT
 70
0
  9
$DIMALTF
 40
25.4
  9
$DIMTXT
 40
3.0
  9
$DIMTOL
 70
1
  9
$DIMLIM
 70
0
  9
$DIMTFAC
 40
1.0
  9
$DIMTP
 40
0.01
  9
$DIMTM
 40
0.01
  9
$DIMGAP
 40
0.625
  9
$DIMDSEP
 70
44
  9
$AUNITS
 70
0
  9
$PDMODE
 70
3
  9
$PDSIZE
 40
3.0
  9
$HANDSEED
  5
414
  9
$TILEMODE
 70
1
  9
$MEASUREMENT
 70
1
  9
$INSUNITS
 70
4
  0
ENDSEC
  0
SECTION
  2
CLASSES
  0
CLASS
  1
ACDBDICTIONARYWDFLT
  2
AcDbDictionaryWithDefault
  3
AutoCAD 2000
 90
0
 91
1
280
0
281
0
  0
CLASS
  1
ACDBPLACEHOLDER
  2
AcDbPlaceHolder
  3
AutoCAD 2000
 90
0
 91
1
280
0
281
0
  0
CLASS
  1
LAYOUT
  2
AcDbLayout
  3
AutoCAD 2000
 90
0
 91
0
280
0
281
0
  0
ENDSEC
  0
SECTION
  2
TABLES
  0
TABLE
  2
VPORT
  5
8
100
AcDbSymbolTable
 70
2
  0
VPORT
  5
1F4
100
AcDbSymbolTableRecord
100
AcDbViewportTableRecord
  2
*ACTIVE
 70
0
 10
0.0
 20
0.0
 11
1.0
 21
1.0
 12
148.5
 22
105.0
 13
0.0
 23
0.0
 14
1.0
 24
1.0
 15
0.0
 25
0.0
 16
0.0
 26
0.0
 36
1.0
 17
0.0
 27
0.0
 37
0.0
 40
210.0
 41
1.4142857143
 42
50.0
 43
0.0
 44
0.0
 50
0.0
 51
0.0
 71
0
 72
100
 73
1
 74
1
 75
0
 76
0
 77
0
 78
0
  0
ENDTAB
  0
TABLE
  2
LTYPE
  5
5
100
AcDbSymbolTable
 70
6
  0
LTYPE
  5
14
100
AcDbSymbolTableRecord
100
AcDbLinetypeTableRecord
  2
BYBLOCK
 70
0
  3

 72
65
 73
0
 40
0.0
  0
LTYPE
  5
15
100
AcDbSymbolTableRecord
100
AcDbLinetypeTableRecord
  2
BYLAYER
 70
0
  3

 72
65
 73
0
 40
0.0
  0
LTYPE
  5
16
100
AcDbSymbolTableRecord
100
AcDbLinetypeTableRecord
  2
CONTINUOUS
 70
64
  3
Solid line
 72
65
 73
0
 40
0.0
  0
LTYPE
  5
1F5
100
AcDbSymbolTableRecord
100
AcDbLinetypeTableRecord
  2
CENTER
 70
64
  3
____ _ ____ _ ____ _ ____ _ ____ _ ____ _ ____
 72
65
 73
4
 40
0.6
 49
0.375
 74
0
 49
-0.075
 74
0
 49
0.075
 74
0
 49
-0.075
 74
0
  0
LTYPE
  5
1F6
100
AcDbSymbolTableRecord
100
AcDbLinetypeTableRecord
  2
HIDDEN
 70
64
  3
- - - - - - - - - - - - - - - - - - - -
 72
65
 73
2
 40
0.2
 49
0.1
 74
0
 49
-0.1
 74
0
  0
LTYPE
  5
1F7
100
AcDbSymbolTableRecord
100
AcDbLinetypeTableRecord
  2
PHANTOM
 70
64
  3
_____ _ _ _____ _ _ _____ _ _ _____
 72
65
 73
6
 40
0.8
 49
0.45
 74
0
 49
-0.05
 74
0
 49
0.1
 74
0
 49
-0.05
 74
0
 49
0.1
 74
0
 49
-0.05
 74
0
  0
LTYPE
  5
1F8
100
AcDbSymbolTableRecord
100
AcDbLinetypeTableRecord
  2
DOT
 70
64
  3
. . . . . . . . . . . . . . . . . . . .
 72
65
 73
2
 40
0.2
 49
0.1
 74
0
 49
-0.1
 74
0
  0
LTYPE
  5
1F9
100
AcDbSymbolTableRecord
100
AcDbLinetypeTableRecord
  2
DASHED
 70
64
  3
- - - - - - - - - - - - - - - - - - - -
 72
65
 73
2
 40
0.2
 49
0.1
 74
0
 49
-0.1
 74
0
  0
ENDTAB
  0
TABLE
  2
LAYER
  5
2
100
AcDbSymbolTable
 70
36
  0
LAYER
  5
10
100
AcDbSymbolTableRecord
100
AcDbLayerTableRecord
  2
0
 70
0
 62
7
  6
CONTINUOUS
370
-3
390
F
  0
LAYER
  5
1FA
100
AcDbSymbolTableRecord
100
AcDbLayerTableRecord
  2
DEFAULT_1
 70
0
 62
7
  6
CENTER
370
-3
390
F
  0
LAYER
  5
1FB
100
AcDbSymbolTableRecord
100
AcDbLayerTableRecord
  2
DEFAULT_2
 70
0
 62
7
  6
HIDDEN
370
-3
390
F
  0
LAYER
  5
1FC
100
AcDbSymbolTableRecord
100
AcDbLayerTableRecord
  2
DEFAULT_3
 70
0
 62
7
  6
PHANTOM
370
-3
390
F
  0
LAYER
  5
1FD
100
AcDbSymbolTableRecord
100
AcDbLayerTableRecord
  2
ASSI
 70
0
 62
7
  6
CONTINUOUS
370
-3
390
F
  0
LAYER
  5
1FE
100
AcDbSymbolTableRecord
100
AcDbLayerTableRecord
  2
COLOR9
 70
0
 62
7
  6
CONTINUOUS
370
-3
390
F
  0
LAYER
  5
1FF
100
AcDbSymbolTableRecord
100
AcDbLayerTableRecord
  2
COORDINATE
 70
0
 62
7
  6
CONTINUOUS
370
-3
390
F
  0
LAYER
  5
200
100
AcDbSymbolTableRecord
100
AcDbLayerTableRecord
  2
COORD_ORIGINE
 70
0
 62
7
  6
CONTINUOUS
370
-3
390
F
  0
LAYER
  5
201
100
AcDbSymbolTableRecord
100
AcDbLayerTableRecord
  2
COPY_PUBLISH
 70
0
 62
7
  6
CONTINUOUS
370
-3
390
F
  0
LAYER
  5
202
100
AcDbSymbolTableRecord
100
AcDbLayerTableRecord
  2
COSMETICI
 70
0
 62
7
  6
CONTINUOUS
370
-3
390
F
  0
LAYER
  5
203
100
AcDbSymbolTableRecord
100
AcDbLayerTableRecord
  2
CURVE
 70
0
 62
7
  6
CONTINUOUS
370
-3
390
F
  0
LAYER
  5
204
100
AcDbSymbolTableRecord
100
AcDbLayerTableRecord
  2
DRAFT
 70
0
 62
7
  6
CONTINUOUS
370
-3
390
F
  0
LAYER
  5
205
100
AcDbSymbolTableRecord
100
AcDbLayerTableRecord
  2
IGES
 70
0
 62
7
  6
CONTINUOUS
370
-3
390
F
  0
LAYER
  5
206
100
AcDbSymbolTableRecord
100
AcDbLayerTableRecord
  2
IGS_SCRITTE
 70
0
 62
7
  6
CONTINUOUS
370
-3
390
F
  0
LAYER
  5
207
100
AcDbSymbolTableRecord
100
AcDbLayerTableRecord
  2
IMPORT_IGES
 70
0
 62
7
  6
CONTINUOUS
370
-3
390
F
  0
LAYER
  5
208
100
AcDbSymbolTableRecord
100
AcDbLayerTableRecord
  2
INTF_YELLOW
 70
0
 62
7
  6
CONTINUOUS
370
-3
390
F
  0
LAYER
  5
209
100
AcDbSymbolTableRecord
100
AcDbLayerTableRecord
  2
LIVELLO_1
 70
0
 62
7
  6
CONTINUOUS
370
-3
390
F
  0
LAYER
  5
20A
100
AcDbSymbolTableRecord
100
AcDbLayerTableRecord
  2
NOTE
 70
0
 62
7
  6
CONTINUOUS
370
-3
390
F
  0
LAYER
  5
20B
100
AcDbSymbolTableRecord
100
AcDbLayerTableRecord
  2
PIANI
 70
0
 62
7
  6
CONTINUOUS
370
-3
390
F
  0
LAYER
  5
20C
100
AcDbSymbolTableRecord
100
AcDbLayerTableRecord
  2
PIANI_ORIGINE
 70
0
 62
7
  6
CONTINUOUS
370
-3
390
F
  0
LAYER
  5
20D
100
AcDbSymbolTableRecord
100
AcDbLayerTableRecord
  2
PIANI_RIFERIMENTO
 70
0
 62
7
  6
CONTINUOUS
370
-3
390
F
  0
LAYER
  5
20E
100
AcDbSymbolTableRecord
100
AcDbLayerTableRecord
  2
PUNTI
 70
0
 62
7
  6
CONTINUOUS
370
-3
390
F
  0
LAYER
  5
20F
100
AcDbSymbolTableRecord
100
AcDbLayerTableRecord
  2
RACCORDO
 70
0
 62
7
  6
CONTINUOUS
370
-3
390
F
  0
LAYER
  5
210
100
AcDbSymbolTableRecord
100
AcDbLayerTableRecord
  2
SIMBOLI
 70
0
 62
7
  6
CONTINUOUS
370
-3
390
F
  0
LAYER
  5
211
100
AcDbSymbolTableRecord
100
AcDbLayerTableRecord
  2
SMUSSO
 70
0
 62
7
  6
CONTINUOUS
370
-3
390
F
  0
LAYER
  5
212
100
AcDbSymbolTableRecord
100
AcDbLayerTableRecord
  2
SNAPLINE
 70
0
 62
7
  6
CONTINUOUS
370
-3
390
F
  0
LAYER
  5
213
100
AcDbSymbolTableRecord
100
AcDbLayerTableRecord
  2
SOLIDO
 70
0
 62
7
  6
CONTINUOUS
370
-3
390
F
  0
LAYER
  5
214
100
AcDbSymbolTableRecord
100
AcDbLayerTableRecord
  2
SUPERFICI
 70
0
 62
7
  6
CONTINUOUS
370
-3
390
F
  0
LAYER
  5
215
100
AcDbSymbolTableRecord
100
AcDbLayerTableRecord
  2
TRASH
 70
0
 62
7
  6
CONTINUOUS
370
-3
390
F
  0
LAYER
  5
216
100
AcDbSymbolTableRecord
100
AcDbLayerTableRecord
  2
WHITE
 70
0
 62
7
  6
CONTINUOUS
370
-3
390
F
  0
ENDTAB
  0
TABLE
  2
STYLE
  5
3
100
AcDbSymbolTable
 70
1
  0
STYLE
  5
11
100
AcDbSymbolTableRecord
100
AcDbTextStyleTableRecord
  2
STANDARD
 70
0
 40
0.0
 41
0.8
 50
0.0
 71
0
 42
0.2
  3
txt
  4

  0
STYLE
  5
217
100
AcDbSymbolTableRecord
100
AcDbTextStyleTableRecord
  2
TEXTSTYLE_1
 70
0
 40
0.0
 41
0.8
 50
0.0
 71
0
 42
0.2
  3
gdt
  4

  0
ENDTAB
  0
TABLE
  2
VIEW
  5
6
100
AcDbSymbolTable
 70
0
  0
ENDTAB
  0
TABLE
  2
UCS
  5
7
100
AcDbSymbolTable
 70
0
  0
ENDTAB
  0
TABLE
  2
APPID
  5
9
100
AcDbSymbolTable
 70
1
  0
APPID
  5
218
100
AcDbSymbolTableRecord
100
AcDbRegAppTableRecord
  2
ACAD
 70
0
  0
ENDTAB
  0
TABLE
  2
BLOCK_RECORD
  5
1
100
AcDbSymbolTable
 70
0
  0
BLOCK_RECORD
  5
219
100
AcDbSymbolTableRecord
100
AcDbBlockTableRecord
  2
*Model_Space
  0
BLOCK_RECORD
  5
21A
100
AcDbSymbolTableRecord
100
AcDbBlockTableRecord
  2
*Paper_Space
  0
BLOCK_RECORD
  5
21B
100
AcDbSymbolTableRecord
100
AcDbBlockTableRecord
  2
_FILLED
  0
BLOCK_RECORD
  5
21C
100
AcDbSymbolTableRecord
100
AcDbBlockTableRecord
  2
*D0
  0
BLOCK_RECORD
  5
21D
100
AcDbSymbolTableRecord
100
AcDbBlockTableRecord
  2
*D1
  0
BLOCK_RECORD
  5
21E
100
AcDbSymbolTableRecord
100
AcDbBlockTableRecord
  2
*D2
  0
ENDTAB
  0
TABLE
  2
DIMSTYLE
  5
A
100
AcDbSymbolTable
 70
1
100
AcDbDimStyleTable
 71
0
  0
DIMSTYLE
105
21F
100
AcDbSymbolTableRecord
100
AcDbDimStyleTableRecord
  2
STANDARD
 70
0
  3

  4

 40
1.0
 41
3.0
 42
0.5
 43
0.38
 44
1.5
 45
0.0
 46
0.0
 47
0.01
 48
0.01
140
3.0
141
0.09
142
0.0
143
25.4
144
1.0
145
0.0
146
1.0
147
0.625
 71
1.0
 72
0.0
 73
0
 74
0
 75
0
 76
0
 77
1
 78
8
170
0
171
1
172
0
173
0
174
0
175
0
176
0
177
0
178
0
270
2
271
2
272
2
273
2
274
2
275
0
280
0
281
0
282
0
283
1
284
8
285
0
286
0
287
3
288
0
340
11
278
44
341
21B
342
21B
343
21B
344
21B
  0
DIMSTYLE
105
220
100
AcDbSymbolTableRecord
100
AcDbDimStyleTableRecord
  2
DIMSTYLE_1
 70
0
  3

  4

 40
1.0
 41
3.0
 42
0.5
 43
0.38
 44
1.5
 45
0.0
 46
0.0
 47
0.0
 48
0.0
140
3.0
141
0.09
142
0.0
143
25.4
144
1.0
145
0.0
146
1.0
147
0.75
 71
0.0
 72
0.0
 73
0
 74
0
 75
0
 76
0
 77
1
 78
8
170
0
171
1
172
0
173
0
174
0
175
0
176
0
177
0
178
0
270
2
271
2
272
2
273
2
274
2
275
0
280
0
281
0
282
0
283
1
284
8
285
0
286
0
287
3
288
0
340
11
278
44
341
21B
342
21B
343
21B
344
21B
  0
DIMSTYLE
105
221
100
AcDbSymbolTableRecord
100
AcDbDimStyleTableRecord
  2
DIMSTYLE_2
 70
0
  3

  4

 40
1.0
 41
3.0
 42
0.5
 43
0.38
 44
1.5
 45
0.0
 46
0.0
 47
0.0
 48
0.0
140
3.0
141
0.09
142
0.0
143
25.4
144
1.0
145
0.0
146
1.0
147
0.75
 71
0.0
 72
0.0
 73
0
 74
0
 75
0
 76
0
 77
1
 78
8
170
0
171
1
172
0
173
0
174
0
175
0
176
0
177
0
178
0
270
2
271
1
272
1
273
2
274
2
275
0
280
0
281
0
282
0
283
1
284
8
285
0
286
0
287
3
288
0
340
11
278
44
341
21B
342
21B
343
21B
344
21B
  0
ENDTAB
  0
ENDSEC
  0
SECTION
  2
BLOCKS
  0
BLOCK
  5
20
100
AcDbEntity
  8
0
100
AcDbBlockBegin
  2
*Model_Space
 70
0
 10
0.0
 20
0.0
 30
0.0
  3
*Model_Space
  1

  0
ENDBLK
  5
21
100
AcDbEntity
  8
0
100
AcDbBlockEnd
  0
BLOCK
  5
1C
100
AcDbEntity
  8
0
100
AcDbBlockBegin
  2
*Paper_Space
 70
0
 10
0.0
 20
0.0
 30
0.0
  3
*Paper_Space
  1

  0
ENDBLK
  5
1D
100
AcDbEntity
  8
0
100
AcDbBlockEnd
  0
BLOCK
  5
222
100
AcDbEntity
  8
0
100
AcDbBlockBegin
  2
_FILLED
 70
64
 10
0.0
 20
0.0
  3
_FILLED
  1

  0
SOLID
  5
223
100
AcDbEntity
  8
0
  6
BYBLOCK
 62
0
100
AcDbTrace
 10
0.0
 20
0.0
 11
-1.0
 21
0.3166666667
 12
-1.0
 22
-0.3166666667
 13
-1.0
 23
-0.3166666667
  0
ENDBLK
  5
224
100
AcDbEntity
  8
0
  6
BYBLOCK
 62
0
100
AcDbBlockEnd
  0
BLOCK
  5
225
100
AcDbEntity
  8
0
100
AcDbBlockBegin
 62
7
  6
CONTINUOUS
  2
*D0
 70
65
 10
0.0
 20
0.0
  3
*D0
  1

  0
MTEXT
  5
226
100
AcDbEntity
  8
0
100
AcDbMText
 62
7
  6
CONTINUOUS
  7
STANDARD
 71
2
 72
1
 10
-0.092423156
 20
33.9488406624
 30
0.0
 11
1.0
 21
0.0
 31
0.0
 44
0.9
  1
22,3
 40
3.0
 41
12.8571428571
  0
LINE
  5
227
100
AcDbEntity
  8
0
100
AcDbLine
 62
7
  6
CONTINUOUS
 10
11.057576844
 20
13.5906027219
 11
11.057576844
 21
31.6988406624
  0
LINE
  5
228
100
AcDbEntity
  8
0
100
AcDbLine
 62
7
  6
CONTINUOUS
 10
-11.242423156
 20
13.5906027219
 11
-11.242423156
 21
31.6988406624
  0
LINE
  5
229
100
AcDbEntity
  8
0
100
AcDbLine
 62
7
  6
CONTINUOUS
 10
11.057576844
 20
30.1988406624
 11
-0.092423156
 21
30.1988406624
  0
LINE
  5
22A
100
AcDbEntity
  8
0
100
AcDbLine
 62
7
  6
CONTINUOUS
 10
-11.242423156
 20
30.1988406624
 11
-0.092423156
 21
30.1988406624
  0
INSERT
  5
22B
100
AcDbEntity
  8
0
100
AcDbBlockReference
 62
7
  6
CONTINUOUS
  2
_FILLED
 10
11.057576844
 20
30.1988406624
 41
3.0
 42
3.0
 43
3.0
  0
INSERT
  5
22C
100
AcDbEntity
  8
0
100
AcDbBlockReference
 62
7
  6
CONTINUOUS
  2
_FILLED
 10
-11.242423156
 20
30.1988406624
 41
3.0
 42
3.0
 43
3.0
 50
180.0
  0
ENDBLK
  5
22D
100
AcDbEntity
  8
0
  6
BYBLOCK
 62
0
100
AcDbBlockEnd
  0
BLOCK
  5
22E
100
AcDbEntity
  8
0
100
AcDbBlockBegin
 62
7
  6
CONTINUOUS
  2
*D1
 70
65
 10
0.0
 20
0.0
  3
*D1
  1

  0
MTEXT
  5
22F
100
AcDbEntity
  8
0
100
AcDbMText
 62
7
  6
CONTINUOUS
  7
STANDARD
 71
2
 72
1
 10
15.307576844
 20
-0.0093972781
 30
0.0
 11
0.0
 21
1.0
 31
0.0
 44
0.9
  1
44,4
 40
3.0
 41
13.1785714286
  0
LINE
  5
230
100
AcDbEntity
  8
0
100
AcDbLine
 62
7
  6
CONTINUOUS
 10
11.0303586493
 20
22.1988406624
 11
20.557576844
 21
22.1988406624
  0
LINE
  5
231
100
AcDbEntity
  8
0
100
AcDbLine
 62
7
  6
CONTINUOUS
 10
11.0303586493
 20
-22.2176352187
 11
20.557576844
 21
-22.2176352187
  0
LINE
  5
232
100
AcDbEntity
  8
0
100
AcDbLine
 62
7
  6
CONTINUOUS
 10
19.057576844
 20
22.1988406624
 11
19.057576844
 21
-0.0093972781
  0
LINE
  5
233
100
AcDbEntity
  8
0
100
AcDbLine
 62
7
  6
CONTINUOUS
 10
19.057576844
 20
-22.2176352187
 11
19.057576844
 21
-0.0093972781
  0
INSERT
  5
234
100
AcDbEntity
  8
0
100
AcDbBlockReference
 62
7
  6
CONTINUOUS
  2
_FILLED
 10
19.057576844
 20
22.1988406624
 41
3.0
 42
3.0
 43
3.0
 50
90.0
  0
INSERT
  5
235
100
AcDbEntity
  8
0
100
AcDbBlockReference
 62
7
  6
CONTINUOUS
  2
_FILLED
 10
19.057576844
 20
-22.2176352187
 41
3.0
 42
3.0
 43
3.0
 50
270.0
  0
ENDBLK
  5
236
100
AcDbEntity
  8
0
  6
BYBLOCK
 62
0
100
AcDbBlockEnd
  0
BLOCK
  5
237
100
AcDbEntity
  8
0
100
AcDbBlockBegin
 62
7
  6
CONTINUOUS
  2
*D2
 70
65
 10
0.0
 20
0.0
  3
*D2
  1

  0
MTEXT
  5
238
100
AcDbEntity
  8
0
100
AcDbMText
 62
7
  6
CONTINUOUS
  7
STANDARD
 71
1
 72
1
 10
-21.0250965735
 20
33.9488406624
 30
0.0
 11
1.0
 21
0.0
 31
0.0
 44
0.9
  1
5,7
 40
3.0
 41
9.3214285714
  0
LINE
  5
239
100
AcDbEntity
  8
0
100
AcDbLine
 62
7
  6
CONTINUOUS
 10
-26.1154515887
 20
13.5906027219
 11
-26.1154515887
 21
31.6988406624
  0
LINE
  5
23A
100
AcDbEntity
  8
0
100
AcDbLine
 62
7
  6
CONTINUOUS
 10
-31.8152933685
 20
0.8883711759
 11
-31.8152933685
 21
31.6988406624
  0
LINE
  5
23B
100
AcDbEntity
  8
0
100
AcDbLine
 62
7
  6
CONTINUOUS
 10
-26.1154515887
 20
30.1988406624
 11
-14.8108108593
 21
30.1988406624
  0
LINE
  5
23C
100
AcDbEntity
  8
0
100
AcDbLine
 62
7
  6
CONTINUOUS
 10
-14.8108108593
 20
30.1988406624
 11
-28.9653724786
 21
30.1988406624
  0
LINE
  5
23D
100
AcDbEntity
  8
0
100
AcDbLine
 62
7
  6
CONTINUOUS
 10
-31.8152933685
 20
30.1988406624
 11
-35.8152933685
 21
30.1988406624
  0
LINE
  5
23E
100
AcDbEntity
  8
0
100
AcDbLine
 62
7
  6
CONTINUOUS
 10
-35.8152933685
 20
30.1988406624
 11
-28.9653724786
 21
30.1988406624
  0
INSERT
  5
23F
100
AcDbEntity
  8
0
100
AcDbBlockReference
 62
7
  6
CONTINUOUS
  2
_FILLED
 10
-26.1154515887
 20
30.1988406624
 41
3.0
 42
3.0
 43
3.0
 50
180.0
  0
INSERT
  5
240
100
AcDbEntity
  8
0
100
AcDbBlockReference
 62
7
  6
CONTINUOUS
  2
_FILLED
 10
-31.8152933685
 20
30.1988406624
 41
3.0
 42
3.0
 43
3.0
  0
ENDBLK
  5
241
100
AcDbEntity
  8
0
  6
BYBLOCK
 62
0
100
AcDbBlockEnd
  0
ENDSEC
  0
SECTION
  2
ENTITIES
  0
DIMENSION
  5
242
100
AcDbEntity
  8
0
100
AcDbDimension
 62
7
  6
CONTINUOUS
  2
*D0
 10
-11.242423156
 20
30.1988406624
 11
-0.5209945621
 21
30.1988406624
 70
160
 71
2
 42
22.3
  3
DIMSTYLE_1
100
AcDbAlignedDimension
 13
11.057576844
 23
13.0906027219
 14
-11.242423156
 24
13.0906027219
 50
180.0
100
AcDbRotatedDimension
  0
DIMENSION
  5
243
100
AcDbEntity
  8
0
100
AcDbDimension
 62
7
  6
CONTINUOUS
  2
*D1
 10
19.057576844
 20
-22.2176352187
 11
19.057576844
 21
-0.4379690118
 70
160
 71
2
 42
44.4164758811
  3
DIMSTYLE_2
100
AcDbAlignedDimension
 13
10.5303586493
 23
22.1988406624
 14
10.5303586493
 24
-22.2176352187
 50
270.0
100
AcDbRotatedDimension
  0
DIMENSION
  5
244
100
AcDbEntity
  8
0
100
AcDbDimension
 62
7
  6
CONTINUOUS
  2
*D2
 10
-31.8152933685
 20
30.1988406624
 11
-18.3465251312
 21
30.1988406624
 70
160
 71
1
 42
5.6998417798
  3
DIMSTYLE_1
100
AcDbAlignedDimension
 13
-26.1154515887
 23
13.0906027219
 14
-31.8152933685
 24
0.3883711759
 50
180.0
100
AcDbRotatedDimension
  0
LINE
  5
245
100
AcDbEntity
  8
ASSI
100
AcDbLine
 62
7
  6
CONTINUOUS
 10
3.3016231431
 20
-22.2176352187
 11
3.6498418171
 21
-22.1860263871
  0
LINE
  5
246
100
AcDbEntity
  8
ASSI
100
AcDbLine
 62
7
  6
CONTINUOUS
 10
-7.8983768569
 20
-22.2176352187
 11
-7.5501581829
 21
-22.1860263871
  0
LINE
  5
247
100
AcDbEntity
  8
ASSI
100
AcDbLine
 62
253
  6
CONTINUOUS
 10
10.4981295174
 20
-21.2152731219
 11
10.4699714162
 21
-21.2160192846
  0
LWPOLYLINE
  5
248
100
AcDbEntity
  8
ASSI
100
AcDbPolyline
 62
253
  6
CONTINUOUS
 90
4
 70
0
 10
10.4699714162
 20
-21.2160192846
 10
10.4416295516
 20
-21.2165266902
 10
10.4274183595
 20
-21.2166903156
 10
10.4131956564
 20
-21.2167936965
  0
LINE
  5
249
100
AcDbEntity
  8
ASSI
100
AcDbLine
 62
7
  6
CONTINUOUS
 10
10.5303586493
 20
-22.2176352187
 11
7.713530545
 21
-22.2176352187
  0
LINE
  5
24A
100
AcDbEntity
  8
ASSI
100
AcDbLine
 62
7
  6
CONTINUOUS
 10
3.3016231431
 20
-22.2176352187
 11
-3.486469455
 21
-22.2176352187
  0
LINE
  5
24B
100
AcDbEntity
  8
ASSI
100
AcDbLine
 62
7
  6
CONTINUOUS
 10
-7.8983768569
 20
-22.2176352187
 11
-10.7152049612
 21
-22.2176352187
  0
LINE
  5
24C
100
AcDbEntity
  8
ASSI
100
AcDbLine
 62
7
  6
CONTINUOUS
 10
-7.3769531021
 20
-22.1807856092
 11
-4.0078932098
 21
-22.1807856092
  0
LINE
  5
24D
100
AcDbEntity
  8
ASSI
100
AcDbLine
 62
7
  6
CONTINUOUS
 10
3.8230468979
 20
-22.1807856092
 11
7.1921067902
 21
-22.1807856092
  0
LINE
  5
24E
100
AcDbEntity
  8
ASSI
100
AcDbLine
 62
253
  6
CONTINUOUS
 10
-10.614393424
 20
-22.0663410501
 11
10.4295471121
 21
-22.0663410501
  0
LINE
  5
24F
100
AcDbEntity
  8
ASSI
100
AcDbLine
 62
253
  6
CONTINUOUS
 10
-10.6406640438
 20
-21.2163029541
 11
-10.6122646715
 21
-21.2166903168
  0
LINE
  5
250
100
AcDbEntity
  8
ASSI
100
AcDbLine
 62
7
  6
CONTINUOUS
 10
-3.486469455
 20
-22.2176352187
 11
-3.834688129
 21
-22.1860263871
  0
LINE
  5
251
100
AcDbEntity
  8
ASSI
100
AcDbLine
 62
7
  6
CONTINUOUS
 10
7.713530545
 20
-22.2176352187
 11
7.365311871
 21
-22.1860263871
  0
LINE
  5
252
100
AcDbEntity
  8
ASSI
100
AcDbLine
 62
253
  6
CONTINUOUS
 10
-10.5980419684
 20
-21.2167936977
 11
10.4131956564
 21
-21.2167936977
  0
LINE
  5
253
100
AcDbEntity
  8
ASSI
100
AcDbLine
 62
253
  6
CONTINUOUS
 10
-10.6122646715
 20
-21.2166903168
 11
-10.5980419684
 21
-21.2167936977
  0
LWPOLYLINE
  5
254
100
AcDbEntity
  8
ASSI
100
AcDbPolyline
 62
253
  6
CONTINUOUS
 90
49
 70
0
 10
-11.0977373819
 20
21.1234580502
 10
-11.097044355
 20
21.1255796943
 10
-11.0959474722
 20
21.1276996212
 10
-11.094447621
 20
21.1298161154
 10
-11.0925460155
 20
21.1319274637
 10
-11.0902441946
 20
21.1340319576
 10
-11.0875440212
 20
21.1361278937
 10
-11.0844476807
 20
21.1382135757
 10
-11.080957679
 20
21.1402873158
 10
-11.0770768407
 20
21.1423474354
 10
-11.0728083066
 20
21.1443922673
 10
-11.0681555314
 20
21.1464201567
 10
-11.0631222807
 20
21.1484294621
 10
-11.057712628
 20
21.1504185576
 10
-11.0519309516
 20
21.1523858332
 10
-11.0457819306
 20
21.1543296967
 10
-11.0392705417
 20
21.156248575
 10
-11.0324020546
 20
21.1581409151
 10
-11.0251820283
 20
21.1600051853
 10
-11.0176163061
 20
21.161839877
 10
-11.0097110111
 20
21.1636435053
 10
-11.0014725414
 20
21.1654146104
 10
-10.9929075645
 20
21.1671517589
 10
-10.9840230122
 20
21.1688535449
 10
-10.9748260752
 20
21.1705185911
 10
-10.9653241966
 20
21.17214555
 10
-10.9555250668
 20
21.1737331048
 10
-10.9454366162
 20
21.1752799706
 10
-10.9350670099
 20
21.1767848956
 10
-10.9244246402
 20
21.1782466617
 10
-10.9135181202
 20
21.1796640859
 10
-10.9023562769
 20
21.1810360211
 10
-10.8909481439
 20
21.1823613568
 10
-10.8793029541
 20
21.1836390206
 10
-10.8674301322
 20
21.1848679782
 10
-10.8553392872
 20
21.1860472352
 10
-10.8430402047
 20
21.1871758371
 10
-10.8305428385
 20
21.1882528704
 10
-10.8178573031
 20
21.1892774636
 10
-10.8049938653
 20
21.1902487873
 10
-10.7919629357
 20
21.1911660555
 10
-10.7787750607
 20
21.1920285258
 10
-10.7654409136
 20
21.1928355002
 10
-10.751971286
 20
21.1935863256
 10
-10.7383770793
 20
21.1942803942
 10
-10.7246692957
 20
21.1949171445
 10
-10.7108590291
 20
21.1954960609
 10
-10.6969574567
 20
21.1960166751
 10
-10.6829758293
 20
21.1964785656
  0
LWPOLYLINE
  5
255
100
AcDbEntity
  8
ASSI
100
AcDbPolyline
 62
253
  6
CONTINUOUS
 90
51
 70
0
 10
-11.0977373819
 20
-21.1422526065
 10
-11.0970443552
 20
-21.1443742506
 10
-11.0959474725
 20
-21.1464941776
 10
-11.0944476216
 20
-21.1486106717
 10
-11.0925460162
 20
-21.1507220201
 10
-11.0902441955
 20
-21.152826514
 10
-11.0875440223
 20
-21.1549224501
 10
-11.0844476819
 20
-21.1570081322
 10
-11.0809576804
 20
-21.1590818722
 10
-11.0770768422
 20
-21.1611419919
 10
-11.0728083082
 20
-21.1631868239
 10
-11.0681555332
 20
-21.1652147132
 10
-11.0631222826
 20
-21.1672240187
 10
-11.05771263
 20
-21.1692131142
 10
-11.0519309536
 20
-21.1711803898
 10
-11.0457819327
 20
-21.1731242534
 10
-11.0392705439
 20
-21.1750431317
 10
-11.0324020569
 20
-21.1769354718
 10
-11.0251820306
 20
-21.1787997421
 10
-11.0176163085
 20
-21.1806344338
 10
-11.0097110136
 20
-21.1824380621
 10
-11.0014725438
 20
-21.1842091672
 10
-10.9929075669
 20
-21.1859463158
 10
-10.9840230147
 20
-21.1876481018
 10
-10.9748260777
 20
-21.1893131481
 10
-10.9653241991
 20
-21.190940107
 10
-10.9555250692
 20
-21.1925276618
 10
-10.9454366187
 20
-21.1940745277
 10
-10.9350670123
 20
-21.1955794527
 10
-10.9244246426
 20
-21.1970412188
 10
-10.9135181226
 20
-21.198458643
 10
-10.9023562792
 20
-21.1998305782
 10
-10.8909481462
 20
-21.201155914
 10
-10.8793029563
 20
-21.2024335778
 10
-10.8674301343
 20
-21.2036625355
 10
-10.8553392893
 20
-21.2048417925
 10
-10.8430402067
 20
-21.2059703944
 10
-10.8305428404
 20
-21.2070474277
 10
-10.8178573049
 20
-21.2080720209
 10
-10.804993867
 20
-21.2090433447
 10
-10.7919629374
 20
-21.2099606129
 10
-10.7787750623
 20
-21.2108230832
 10
-10.7654409151
 20
-21.2116300576
 10
-10.7519712874
 20
-21.212380883
 10
-10.7383770806
 20
-21.2130749517
 10
-10.7246692968
 20
-21.2137117019
 10
-10.7108590301
 20
-21.2142906184
 10
-10.6969574576
 20
-21.2148112326
 10
-10.6829758301
 20
-21.2152731231
 10
-10.6689254633
 20
-21.2156759162
 10
-10.6406640438
 20
-21.2163029541
  0
LWPOLYLINE
  5
256
100
AcDbEntity
  8
0
100
AcDbPolyline
 62
253
  6
CONTINUOUS
 90
29
 70
0
 10
-2.1850920605
 20
-13.5943049117
 10
-2.1869808388
 20
-13.5942868971
 10
-2.1888630239
 20
-13.5942328953
 10
-2.1907388233
 20
-13.59414297
 10
-2.1926084441
 20
-13.5940171844
 10
-2.1944720936
 20
-13.5938556022
 10
-2.1963299791
 20
-13.5936582867
 10
-2.1981823079
 20
-13.5934253014
 10
-2.2000292873
 20
-13.5931567097
 10
-2.2018711245
 20
-13.5928525751
 10
-2.2037080268
 20
-13.592512961
 10
-2.2055402016
 20
-13.5921379309
 10
-2.207367856
 20
-13.5917275482
 10
-2.2091911974
 20
-13.5912818764
 10
-2.2107680084
 20
-13.590867018
 10
-2.2123413322
 20
-13.5904250611
 10
-2.2139107656
 20
-13.5899553656
 10
-2.2154759054
 20
-13.5894572913
 10
-2.2170363482
 20
-13.5889301983
 10
-2.2185916908
 20
-13.5883734464
 10
-2.2201415299
 20
-13.5877863955
 10
-2.2216854623
 20
-13.5871684054
 10
-2.2232230847
 20
-13.5865188362
 10
-2.2247539938
 20
-13.5858370476
 10
-2.2262777863
 20
-13.5851223997
 10
-2.2277940591
 20
-13.5843742522
 10
-2.2293024088
 20
-13.5835919651
 10
-2.2308024321
 20
-13.5827748983
 10
-2.2322937259
 20
-13.5819224117
  0
LWPOLYLINE
  5
257
100
AcDbEntity
  8
0
100
AcDbPolyline
 62
253
  6
CONTINUOUS
 90
29
 70
0
 10
-0.4769068263
 20
-13.5943049117
 10
-0.4787956046
 20
-13.5942868971
 10
-0.4806777897
 20
-13.5942328953
 10
-0.4825535891
 20
-13.59414297
 10
-0.4844232099
 20
-13.5940171844
 10
-0.4862868594
 20
-13.5938556022
 10
-0.4881447449
 20
-13.5936582867
 10
-0.4899970737
 20
-13.5934253014
 10
-0.4918440531
 20
-13.5931567097
 10
-0.4936858903
 20
-13.5928525751
 10
-0.4955227926
 20
-13.592512961
 10
-0.4973549674
 20
-13.5921379309
 10
-0.4991826218
 20
-13.5917275482
 10
-0.5010059632
 20
-13.5912818764
 10
-0.5025827742
 20
-13.590867018
 10
-0.504156098
 20
-13.5904250611
 10
-0.5057255314
 20
-13.5899553656
 10
-0.5072906712
 20
-13.5894572913
 10
-0.508851114
 20
-13.5889301983
 10
-0.5104064566
 20
-13.5883734464
 10
-0.5119562957
 20
-13.5877863955
 10
-0.5135002281
 20
-13.5871684054
 10
-0.5150378505
 20
-13.5865188362
 10
-0.5165687596
 20
-13.5858370476
 10
-0.5180925521
 20
-13.5851223997
 10
-0.5196088249
 20
-13.5843742522
 10
-0.5211171746
 20
-13.5835919651
 10
-0.5226171979
 20
-13.5827748983
 10
-0.5241084917
 20
-13.5819224117
  0
LWPOLYLINE
  5
258
100
AcDbEntity
  8
0
100
AcDbPolyline
 62
253
  6
CONTINUOUS
 90
55
 70
0
 10
1.3561970158
 20
-13.7182710227
 10
1.3496524679
 20
-13.7181662068
 10
1.3431674956
 20
-13.717853788
 10
1.3367254528
 20
-13.7173368097
 10
1.3303096933
 20
-13.7166183151
 10
1.323903571
 20
-13.7157013477
 10
1.3174938163
 20
-13.7145880831
 10
1.3110806658
 20
-13.7132772264
 10
1.304667733
 20
-13.7117666149
 10
1.298258631
 20
-13.710054086
 10
1.2918569732
 20
-13.708137477
 10
1.2854675034
 20
-13.7060149508
 10
1.2790994878
 20
-13.7036859726
 10
1.2727633232
 20
-13.701150333
 10
1.2664694061
 20
-13.6984078227
 10
1.2602281334
 20
-13.6954582324
 10
1.2550765297
 20
-13.692843302
 10
1.2499851716
 20
-13.6900926921
 10
1.2449705266
 20
-13.6872146741
 10
1.2400447272
 20
-13.6842147327
 10
1.2352025673
 20
-13.6810872055
 10
1.2304345063
 20
-13.6778236436
 10
1.2257341806
 20
-13.6744175347
 10
1.2211079344
 20
-13.6708701147
 10
1.216565289
 20
-13.6671845561
 10
1.2121157658
 20
-13.6633640319
 10
1.2077688861
 20
-13.6594117145
 10
1.2035341712
 20
-13.6553307768
 10
1.1994200904
 20
-13.6511252868
 10
1.1954309048
 20
-13.6468028934
 10
1.1915698238
 20
-13.642372141
 10
1.1878400565
 20
-13.6378415739
 10
1.1842448122
 20
-13.6332197365
 10
1.1807873001
 20
-13.6285151731
 10
1.1774688625
 20
-13.6237333603
 10
1.174283374
 20
-13.6188675044
 10
1.1712228422
 20
-13.6139077439
 10
1.1682822779
 20
-13.6088489668
 10
1.1654687033
 20
-13.6037050594
 10
1.1627921439
 20
-13.5984946576
 10
1.1597723736
 20
-13.5921772588
 10
1.1569644182
 20
-13.5858028476
 10
1.1543683542
 20
-13.5793833278
 10
1.1519842579
 20
-13.5729306033
 10
1.1498122061
 20
-13.5664565781
 10
1.1478518306
 20
-13.5599716457
 10
1.1461009859
 20
-13.5534801577
 10
1.1445570818
 20
-13.5469849553
 10
1.1432175281
 20
-13.5404888797
 10
1.1420797347
 20
-13.533994772
 10
1.1411421021
 20
-13.527502185
 10
1.1404069937
 20
-13.5209975175
 10
1.1398777637
 20
-13.5144638796
 10
1.139557766
 20
-13.5078843817
 10
1.1394503547
 20
-13.5012421339
  0
LWPOLYLINE
  5
259
100
AcDbEntity
  8
0
100
AcDbPolyline
 62
253
  6
CONTINUOUS
 90
32
 70
0
 10
-2.398657263
 20
12.0468041366
 10
-2.381020278
 20
12.0567708763
 10
-2.3632181373
 20
12.0663849384
 10
-2.3452484143
 20
12.0756484248
 10
-2.3271086825
 20
12.0845634375
 10
-2.3087982057
 20
12.093130806
 10
-2.2903230089
 20
12.1013462692
 10
-2.2716908073
 20
12.1092042933
 10
-2.252909316
 20
12.1166993447
 10
-2.2339853811
 20
12.1238259578
 10
-2.214922372
 20
12.1305789399
 10
-2.195722789
 20
12.1369531664
 10
-2.1763891323
 20
12.1429435127
 10
-2.1569250759
 20
12.1485442531
 10
-2.1373389894
 20
12.1537472574
 10
-2.1176404157
 20
12.1585437939
 10
-2.0978388982
 20
12.1629251312
 10
-2.0819297379
 20
12.166125415
 10
-2.0659642484
 20
12.1690500619
 10
-2.049945877
 20
12.1716947506
 10
-2.033878071
 20
12.1740551599
 10
-2.0177642776
 20
12.1761269685
 10
-2.0016088807
 20
12.1779055566
 10
-1.9854200102
 20
12.1793851106
 10
-1.9692067325
 20
12.1805595184
 10
-1.952978114
 20
12.1814226678
 10
-1.9367432213
 20
12.1819684466
 10
-1.9205092319
 20
12.1821905242
 10
-1.9042757685
 20
12.1820816949
 10
-1.8880405652
 20
12.1816345348
 10
-1.8718013557
 20
12.1808416196
 10
-1.8555558742
 20
12.1796955254
  0
LWPOLYLINE
  5
25A
100
AcDbEntity
  8
ASSI
100
AcDbPolyline
 62
253
  6
CONTINUOUS
 90
12
 70
0
 10
-11.063374528
 20
9.4811027219
 10
-11.0626762624
 20
9.481373054
 10
-11.0615743468
 20
9.4816431674
 10
-11.0600696727
 20
9.4819128437
 10
-11.0581634571
 20
9.4821818646
 10
-11.0558572421
 20
9.4824500126
 10
-11.0531528932
 20
9.4827170708
 10
-11.0500525979
 20
9.482982823
 10
-11.0465588643
 20
9.4832470544
 10
-11.0426745185
 20
9.4835095513
 10
-11.0384027026
 20
9.4837701011
 10
-11.0337468721
 20
9.4840284933
  0
LWPOLYLINE
  5
25B
100
AcDbEntity
  8
ASSI
100
AcDbPolyline
 62
253
  6
CONTINUOUS
 90
14
 70
0
 10
-11.063374528
 20
-9.4998972781
 10
-11.0626762624
 20
-9.5001676103
 10
-11.0615743469
 20
-9.5004377237
 10
-11.0600696727
 20
-9.5007074
 10
-11.0581634571
 20
-9.5009764209
 10
-11.0558572421
 20
-9.5012445689
 10
-11.0531528932
 20
-9.5015116271
 10
-11.050052598
 20
-9.5017773793
 10
-11.0465588644
 20
-9.5020416107
 10
-11.0426745185
 20
-9.5023041075
 10
-11.0384027026
 20
-9.5025646574
 10
-11.0337468721
 20
-9.5028230496
 10
-11.0287107933
 20
-9.503079075
 10
-11.0175144903
 20
-9.5035831994
  0
LWPOLYLINE
  5
25C
100
AcDbEntity
  8
0
100
AcDbPolyline
 62
253
  6
CONTINUOUS
 90
42
 70
0
 10
-2.2322937259
 20
-13.5819224117
 10
-2.2341140189
 20
-13.5808371757
 10
-2.2358839879
 20
-13.579712963
 10
-2.2376065319
 20
-13.5785502603
 10
-2.2392845501
 20
-13.5773495543
 10
-2.2409209416
 20
-13.5761113317
 10
-2.2425186054
 20
-13.5748360792
 10
-2.2440804407
 20
-13.5735242834
 10
-2.2456093466
 20
-13.5721764312
 10
-2.2473192934
 20
-13.5705926013
 10
-2.248989716
 20
-13.568963635
 10
-2.2506203133
 20
-13.5672908541
 10
-2.2522107844
 20
-13.5655755807
 10
-2.2537608283
 20
-13.5638191369
 10
-2.2552701439
 20
-13.5620228447
 10
-2.2567384303
 20
-13.560188026
 10
-2.2581652786
 20
-13.5583161521
 10
-2.259549849
 20
-13.5564092913
 10
-2.2608911935
 20
-13.5544696608
 10
-2.2621883646
 20
-13.5524994783
 10
-2.2634404142
 20
-13.550500961
 10
-2.2646463948
 20
-13.5484763264
 10
-2.2658053585
 20
-13.5464277919
 10
-2.2670968414
 20
-13.5440106573
 10
-2.2683218161
 20
-13.5415679568
 10
-2.2694790598
 20
-13.5391036368
 10
-2.2705673497
 20
-13.5366216438
 10
-2.2715854627
 20
-13.534125924
 10
-2.2725321762
 20
-13.5316204238
 10
-2.2734064737
 20
-13.5291086717
 10
-2.2742081659
 20
-13.5265925245
 10
-2.2749372701
 20
-13.5240734212
 10
-2.2755938034
 20
-13.5215528005
 10
-2.2761777831
 20
-13.5190321014
 10
-2.2766892265
 20
-13.5165127629
 10
-2.2770696512
 20
-13.5143547344
 10
-2.2773953948
 20
-13.5121950552
 10
-2.2776650556
 20
-13.5100300176
 10
-2.2778772319
 20
-13.5078559142
 10
-2.2780305218
 20
-13.5056690374
 10
-2.2781235237
 20
-13.5034656799
 10
-2.2781548359
 20
-13.5012421339
  0
LWPOLYLINE
  5
25D
100
AcDbEntity
  8
0
100
AcDbPolyline
 62
253
  6
CONTINUOUS
 90
41
 70
0
 10
-0.5241084917
 20
-13.5819224117
 10
-0.5258994347
 20
-13.5808106942
 10
-0.527642287
 20
-13.579664015
 10
-0.529339912
 20
-13.5784825366
 10
-0.5309951732
 20
-13.5772664219
 10
-0.532610934
 20
-13.5760158335
 10
-0.5341900578
 20
-13.5747309341
 10
-0.535735408
 20
-13.5734118862
 10
-0.5372498481
 20
-13.5720588527
 10
-0.5389456624
 20
-13.5704712996
 10
-0.5406043276
 20
-13.5688408762
 10
-0.5422253273
 20
-13.5671688893
 10
-0.5438081448
 20
-13.5654566456
 10
-0.5453522635
 20
-13.5637054518
 10
-0.5468571669
 20
-13.5619166148
 10
-0.5483223384
 20
-13.5600914412
 10
-0.549980696
 20
-13.5579180524
 10
-0.5515828314
 20
-13.555700034
 10
-0.5531273049
 20
-13.5534404359
 10
-0.5546126769
 20
-13.551142308
 10
-0.5560375078
 20
-13.5488087001
 10
-0.5574003581
 20
-13.5464426623
 10
-0.5586998032
 20
-13.5440472812
 10
-0.5599344787
 20
-13.5416257912
 10
-0.5611030352
 20
-13.5391814636
 10
-0.5622041233
 20
-13.5367175695
 10
-0.5632363937
 20
-13.5342373802
 10
-0.564198497
 20
-13.531744167
 10
-0.5650892371
 20
-13.529240907
 10
-0.5659080316
 20
-13.5267294015
 10
-0.5666544512
 20
-13.5242111578
 10
-0.5673280667
 20
-13.5216876832
 10
-0.567928449
 20
-13.5191604849
 10
-0.5684551689
 20
-13.5166310702
 10
-0.56884747
 20
-13.5144616492
 10
-0.5691837552
 20
-13.5122882778
 10
-0.5694624434
 20
-13.5101075265
 10
-0.5696819533
 20
-13.5079159659
 10
-0.5698407038
 20
-13.5057101665
 10
-0.5699371137
 20
-13.503486699
 10
-0.5699696017
 20
-13.5012421339
  0
LINE
  5
25E
100
AcDbEntity
  8
ASSI
100
AcDbLine
 62
253
  6
CONTINUOUS
 10
-11.1054238245
 20
21.4669581613
 11
-11.1061356259
 21
21.4796434566
  0
LINE
  5
25F
100
AcDbEntity
  8
ASSI
100
AcDbLine
 62
253
  6
CONTINUOUS
 10
-11.1047339133
 20
21.4533052834
 11
-11.1054238245
 21
21.4669581613
  0
LINE
  5
260
100
AcDbEntity
  8
ASSI
100
AcDbLine
 62
253
  6
CONTINUOUS
 10
-11.1040677052
 20
21.4387192239
 11
-11.1047339133
 21
21.4533052834
  0
LINE
  5
261
100
AcDbEntity
  8
ASSI
100
AcDbLine
 62
253
  6
CONTINUOUS
 10
-11.1031162463
 20
21.4151681361
 11
-11.1040677052
 21
21.4387192239
  0
LINE
  5
262
100
AcDbEntity
  8
ASSI
100
AcDbLine
 62
253
  6
CONTINUOUS
 10
-11.1022264654
 20
21.3897172524
 11
-11.1031162463
 21
21.4151681361
  0
LINE
  5
263
100
AcDbEntity
  8
ASSI
100
AcDbLine
 62
253
  6
CONTINUOUS
 10
-10.6064401385
 20
21.9103700001
 11
-10.6075458554
 21
21.9446908696
  0
LINE
  5
264
100
AcDbEntity
  8
ASSI
100
AcDbLine
 62
253
  6
CONTINUOUS
 10
-11.1011440038
 20
21.3530592346
 11
-11.1022264654
 21
21.3897172524
  0
LINE
  5
265
100
AcDbEntity
  8
ASSI
100
AcDbLine
 62
253
  6
CONTINUOUS
 10
-10.6050384512
 20
21.857691386
 11
-10.6064401385
 21
21.9103700001
  0
LINE
  5
266
100
AcDbEntity
  8
ASSI
100
AcDbLine
 62
253
  6
CONTINUOUS
 10
-11.1001893283
 20
21.3135977842
 11
-11.1011440038
 21
21.3530592346
  0
LINE
  5
267
100
AcDbEntity
  8
ASSI
100
AcDbLine
 62
253
  6
CONTINUOUS
 10
-10.6034208128
 20
21.7814216472
 11
-10.6050384512
 21
21.857691386
  0
LWPOLYLINE
  5
268
100
AcDbEntity
  8
ASSI
100
AcDbPolyline
 62
253
  6
CONTINUOUS
 90
46
 70
0
 10
-11.0602312628
 20
0.3860667286
 10
-11.0600764662
 20
0.3773438767
 10
-11.0596175753
 20
0.3686316482
 10
-11.0588551488
 20
0.3599406533
 10
-11.0577901152
 20
0.3512814768
 10
-11.0564237717
 20
0.3426646643
 10
-11.0547577823
 20
0.33410071
 10
-11.052794176
 20
0.3256000438
 10
-11.0505353441
 20
0.3171730184
 10
-11.0479840377
 20
0.3088298968
 10
-11.0451433639
 20
0.30058084
 10
-11.0420167823
 20
0.2924358941
 10
-11.0386081007
 20
0.2844049789
 10
-11.0349214705
 20
0.2764978748
 10
-11.0309613814
 20
0.2687242117
 10
-11.0267326564
 20
0.2610934571
 10
-11.0222404455
 20
0.2536149041
 10
-11.0174902198
 20
0.2462976607
 10
-11.0124877643
 20
0.2391506384
 10
-11.0072391714
 20
0.2321825414
 10
-11.0017508332
 20
0.2254018559
 10
-10.9960294339
 20
0.2188168399
 10
-10.9900819414
 20
0.2124355132
 10
-10.983915599
 20
0.2062656474
 10
-10.9775379166
 20
0.2003147565
 10
-10.9709566612
 20
0.1945900882
 10
-10.9641798481
 20
0.1890986142
 10
-10.9572157306
 20
0.1838470224
 10
-10.9500727901
 20
0.1788417088
 10
-10.9427597258
 20
0.174088769
 10
-10.9352854441
 20
0.1695939916
 10
-10.9276590477
 20
0.1653628506
 10
-10.9198898246
 20
0.1614004991
 10
-10.9119872367
 20
0.1577117627
 10
-10.9039609084
 20
0.1543011337
 10
-10.8958206148
 20
0.1511727659
 10
-10.8875762696
 20
0.1483304693
 10
-10.8792379135
 20
0.1457777054
 10
-10.8708157016
 20
0.1435175831
 10
-10.8623198909
 20
0.141552855
 10
-10.8537608284
 20
0.1398859139
 10
-10.8451489379
 20
0.1385187899
 10
-10.8364947076
 20
0.1374531479
 10
-10.8278086772
 20
0.1366902859
 10
-10.8191014252
 20
0.1362311328
 10
-10.810383556
 20
0.1360762478
  0
LINE
  5
269
100
AcDbEntity
  8
ASSI
100
AcDbLine
 62
253
  6
CONTINUOUS
 10
-11.0991888497
 20
21.2608812621
 11
-11.1001893283
 21
21.3135977842
  0
LWPOLYLINE
  5
26A
100
AcDbEntity
  8
ASSI
100
AcDbPolyline
 62
253
  6
CONTINUOUS
 90
55
 70
0
 10
-11.1140888376
 20
-21.5670262827
 10
-11.1138514182
 20
-21.5815318544
 10
-11.1131923896
 20
-21.5960251815
 10
-11.1121123081
 20
-21.6104940297
 10
-11.1106120855
 20
-21.6249261854
 10
-11.1086929881
 20
-21.6393094658
 10
-11.106356636
 20
-21.6536317295
 10
-11.1036050012
 20
-21.6678808867
 10
-11.1004404067
 20
-21.6820449092
 10
-11.0968655236
 20
-21.6961118406
 10
-11.0928833696
 20
-21.7100698066
 10
-11.0884973063
 20
-21.7239070248
 10
-11.0837110361
 20
-21.7376118147
 10
-11.0785285992
 20
-21.7511726077
 10
-11.0729543702
 20
-21.7645779567
 10
-11.0669930547
 20
-21.7778165456
 10
-11.0606496846
 20
-21.7908771995
 10
-11.0539296147
 20
-21.8037488933
 10
-11.0468385176
 20
-21.8164207617
 10
-11.0393823791
 20
-21.8288821079
 10
-11.0315674933
 20
-21.8411224128
 10
-11.0234004568
 20
-21.853131344
 10
-11.0148881638
 20
-21.8648987644
 10
-11.0060377998
 20
-21.8764147407
 10
-10.9968568357
 20
-21.8876695518
 10
-10.9873530214
 20
-21.8986536972
 10
-10.9775343794
 20
-21.9093579049
 10
-10.967409198
 20
-21.919773139
 10
-10.9569860241
 20
-21.9298906076
 10
-10.9462736564
 20
-21.9397017704
 10
-10.9352811375
 20
-21.9491983453
 10
-10.9240177464
 20
-21.958372316
 10
-10.9124929912
 20
-21.9672159384
 10
-10.9007166001
 20
-21.9757217474
 10
-10.888698514
 20
-21.9838825628
 10
-10.8764488778
 20
-21.9916914959
 10
-10.8639780318
 20
-21.9991419549
 10
-10.8512965031
 20
-22.0062276506
 10
-10.8384149966
 20
-22.0129426018
 10
-10.8253443859
 20
-22.01928114
 10
-10.8120957045
 20
-22.0252379148
 10
-10.7986801359
 20
-22.0308078978
 10
-10.7851090048
 20
-22.0359863873
 10
-10.7713937669
 20
-22.0407690118
 10
-10.7575459998
 20
-22.0451517342
 10
-10.7435773928
 20
-22.0491308549
 10
-10.7294997372
 20
-22.0527030151
 10
-10.7153249166
 20
-22.0558651992
 10
-10.7010648963
 20
-22.058614738
 10
-10.6867317137
 20
-22.0609493106
 10
-10.672337468
 20
-22.0628669462
 10
-10.6578943097
 20
-22.0643660261
 10
-10.6434144309
 20
-22.0654452849
 10
-10.6289100545
 20
-22.0661038115
 10
-10.614393424
 20
-22.0663410501
  0
LINE
  5
26B
100
AcDbEntity
  8
ASSI
100
AcDbLine
 62
253
  6
CONTINUOUS
 10
-10.6017075723
 20
21.6760850416
 11
-10.6034208128
 21
21.7814216472
  0
LINE
  5
26C
100
AcDbEntity
  8
ASSI
100
AcDbLine
 62
253
  6
CONTINUOUS
 10
-11.0984161081
 20
21.2051133976
 11
-11.0991888497
 21
21.2608812621
  0
LINE
  5
26D
100
AcDbEntity
  8
ASSI
100
AcDbLine
 62
253
  6
CONTINUOUS
 10
-10.5998670933
 20
21.5158403604
 11
-10.6017075723
 21
21.6760850416
  0
LINE
  5
26E
100
AcDbEntity
  8
ASSI
100
AcDbLine
 62
253
  6
CONTINUOUS
 10
-11.0978822904
 20
21.1471122133
 11
-11.0984161081
 21
21.2051133976
  0
LINE
  5
26F
100
AcDbEntity
  8
ASSI
100
AcDbLine
 62
253
  6
CONTINUOUS
 10
-10.5983711619
 20
21.292139839
 11
-10.5998670933
 21
21.5158403604
  0
LINE
  5
270
100
AcDbEntity
  8
ASSI
100
AcDbLine
 62
7
  6
CONTINUOUS
 10
-11.2161158466
 20
-21.7201445859
 11
-11.242423156
 21
-13.1093972781
  0
LINE
  5
271
100
AcDbEntity
  8
ASSI
100
AcDbLine
 62
253
  6
CONTINUOUS
 10
-10.5735913902
 20
15.1434759996
 11
-10.5983711619
 21
21.292139839
  0
LINE
  5
272
100
AcDbEntity
  8
ASSI
100
AcDbLine
 62
253
  6
CONTINUOUS
 10
-11.063374528
 20
9.4811027219
 11
-11.0978822904
 21
21.1471122133
  0
LINE
  5
273
100
AcDbEntity
  8
ASSI
100
AcDbLine
 62
253
  6
CONTINUOUS
 10
-10.5636791145
 20
9.4906027219
 11
-10.5735913902
 21
15.1434759996
  0
LINE
  5
274
100
AcDbEntity
  8
ASSI
100
AcDbLine
 62
7
  6
CONTINUOUS
 10
-11.242423156
 20
-0.3593306569
 11
-11.242423156
 21
-13.1093972781
  0
LINE
  5
275
100
AcDbEntity
  8
ASSI
100
AcDbLine
 62
7
  6
CONTINUOUS
 10
-11.242423156
 20
0.3405361006
 11
-11.242423156
 21
13.0906027219
  0
LINE
  5
276
100
AcDbEntity
  8
ASSI
100
AcDbLine
 62
253
  6
CONTINUOUS
 10
-11.0602313297
 20
0.3860667119
 11
-11.063374528
 21
9.4811027219
  0
LINE
  5
277
100
AcDbEntity
  8
ASSI
100
AcDbLine
 62
253
  6
CONTINUOUS
 10
-10.5605359021
 20
0.1381818101
 11
-10.5636791145
 21
9.4906027219
  0
LINE
  5
278
100
AcDbEntity
  8
ASSI
100
AcDbLine
 62
7
  6
CONTINUOUS
 10
-11.2161158466
 20
21.7013500296
 11
-11.242423156
 21
13.0906027219
  0
LINE
  5
279
100
AcDbEntity
  8
ASSI
100
AcDbLine
 62
253
  6
CONTINUOUS
 10
-11.0820211523
 20
-17.7074668392
 11
-11.0602313297
 21
-0.4048612682
  0
LINE
  5
27A
100
AcDbEntity
  8
ASSI
100
AcDbLine
 62
253
  6
CONTINUOUS
 10
-10.5823257383
 20
-17.7628224476
 11
-10.5605359021
 21
-0.1569763664
  0
LINE
  5
27B
100
AcDbEntity
  8
ASSI
100
AcDbLine
 62
253
  6
CONTINUOUS
 10
-10.5991563387
 20
-21.4476770568
 11
-10.5823257383
 21
-17.7628224476
  0
LINE
  5
27C
100
AcDbEntity
  8
ASSI
100
AcDbLine
 62
253
  6
CONTINUOUS
 10
-11.0980665392
 20
-21.1893164042
 11
-11.0820211523
 21
-17.7074668392
  0
LINE
  5
27D
100
AcDbEntity
  8
ASSI
100
AcDbLine
 62
253
  6
CONTINUOUS
 10
-10.6007200859
 20
-21.6172898582
 11
-10.5991563387
 21
-21.4476770568
  0
LINE
  5
27E
100
AcDbEntity
  8
ASSI
100
AcDbLine
 62
253
  6
CONTINUOUS
 10
-11.0986971047
 20
-21.2465321105
 11
-11.0980665392
 21
-21.1893164042
  0
LINE
  5
27F
100
AcDbEntity
  8
ASSI
100
AcDbLine
 62
253
  6
CONTINUOUS
 10
-10.602531047
 20
-21.7493154788
 11
-10.6007200859
 21
-21.6172898582
  0
LWPOLYLINE
  5
280
100
AcDbEntity
  8
ASSI
100
AcDbPolyline
 62
253
  6
CONTINUOUS
 90
55
 70
0
 10
-11.1140888376
 20
21.5482317264
 10
-11.1138514181
 20
21.5627372985
 10
-11.1131923895
 20
21.5772306259
 10
-11.112112308
 20
21.5916994743
 10
-11.1106120854
 20
21.6061316302
 10
-11.1086929879
 20
21.6205149109
 10
-11.1063566357
 20
21.6348371749
 10
-11.1036050009
 20
21.6490863323
 10
-11.1004404062
 20
21.663250355
 10
-11.096865523
 20
21.6773172866
 10
-11.0928833689
 20
21.6912752528
 10
-11.0884973055
 20
21.7051124711
 10
-11.0837110351
 20
21.7188172612
 10
-11.0785285981
 20
21.7323780543
 10
-11.072954369
 20
21.7457834033
 10
-11.0669930532
 20
21.7590219924
 10
-11.060649683
 20
21.7720826463
 10
-11.053929613
 20
21.7849543402
 10
-11.0468385157
 20
21.7976262086
 10
-11.0393823771
 20
21.8100875548
 10
-11.0315674911
 20
21.8223278597
 10
-11.0234004545
 20
21.834336791
 10
-11.0148881614
 20
21.8461042113
 10
-11.0060377973
 20
21.8576201875
 10
-10.9968568331
 20
21.8688749986
 10
-10.9873530187
 20
21.879859144
 10
-10.9775343766
 20
21.8905633515
 10
-10.9674091952
 20
21.9009785855
 10
-10.9569860212
 20
21.9110960541
 10
-10.9462736535
 20
21.9209072167
 10
-10.9352811345
 20
21.9304037915
 10
-10.9240177435
 20
21.9395777621
 10
-10.9124929882
 20
21.9484213844
 10
-10.9007165971
 20
21.9569271932
 10
-10.888698511
 20
21.9650880085
 10
-10.8764488749
 20
21.9728969415
 10
-10.8639780289
 20
21.9803474003
 10
-10.8512965003
 20
21.9874330959
 10
-10.8384149938
 20
21.9941480469
 10
-10.8253443833
 20
22.000486585
 10
-10.8120957019
 20
22.0064433596
 10
-10.7986801335
 20
22.0120133425
 10
-10.7851090025
 20
22.0171918318
 10
-10.7713937648
 20
22.0219744562
 10
-10.7575459978
 20
22.0263571785
 10
-10.7435773909
 20
22.0303362991
 10
-10.7294997356
 20
22.0339084592
 10
-10.7153249151
 20
22.0370706432
 10
-10.701064895
 20
22.039820182
 10
-10.6867317127
 20
22.0421547545
 10
-10.6723374671
 20
22.04407239
 10
-10.6578943091
 20
22.0455714699
 10
-10.6434144304
 20
22.0466507286
 10
-10.6289100542
 20
22.0473092552
 10
-10.614393424
 20
22.0475464938
  0
LWPOLYLINE
  5
281
100
AcDbEntity
  8
ASSI
100
AcDbPolyline
 62
253
  6
CONTINUOUS
 90
46
 70
0
 10
-11.0602312628
 20
-0.4048612849
 10
-11.0600764663
 20
-0.3961384334
 10
-11.0596175753
 20
-0.3874262052
 10
-11.0588551489
 20
-0.3787352108
 10
-11.0577901154
 20
-0.3700760346
 10
-11.0564237721
 20
-0.3614592224
 10
-11.0547577828
 20
-0.3528952685
 10
-11.0527941766
 20
-0.3443946026
 10
-11.0505353449
 20
-0.3359675775
 10
-11.0479840387
 20
-0.3276244562
 10
-11.0451433651
 20
-0.3193753996
 10
-11.0420167838
 20
-0.311230454
 10
-11.0386081024
 20
-0.303199539
 10
-11.0349214724
 20
-0.2952924351
 10
-11.0309613836
 20
-0.2875187722
 10
-11.0267326589
 20
-0.2798880176
 10
-11.0222404483
 20
-0.2724094648
 10
-11.0174902228
 20
-0.2650922214
 10
-11.0124877675
 20
-0.2579451992
 10
-11.0072391748
 20
-0.2509771021
 10
-11.0017508369
 20
-0.2441964166
 10
-10.9960294378
 20
-0.2376114005
 10
-10.9900819455
 20
-0.2312300737
 10
-10.9839156033
 20
-0.2250602078
 10
-10.977537921
 20
-0.2191093168
 10
-10.9709566658
 20
-0.2133846483
 10
-10.9641798528
 20
-0.2078931741
 10
-10.9572157353
 20
-0.2026415821
 10
-10.9500727949
 20
-0.1976362683
 10
-10.9427597306
 20
-0.1928833283
 10
-10.9352854488
 20
-0.1883885506
 10
-10.9276590523
 20
-0.1841574094
 10
-10.9198898291
 20
-0.1801950576
 10
-10.9119872411
 20
-0.1765063209
 10
-10.9039609126
 20
-0.1730956917
 10
-10.8958206188
 20
-0.1699673237
 10
-10.8875762734
 20
-0.1671250268
 10
-10.879237917
 20
-0.1645722626
 10
-10.8708157047
 20
-0.1623121402
 10
-10.8623198937
 20
-0.1603474119
 10
-10.8537608308
 20
-0.1586804706
 10
-10.8451489399
 20
-0.1573133464
 10
-10.8364947091
 20
-0.1562477044
 10
-10.8278086782
 20
-0.1554848422
 10
-10.8191014257
 20
-0.1550256891
 10
-10.810383556
 20
-0.1548708041
  0
LINE
  5
282
100
AcDbEntity
  8
ASSI
100
AcDbLine
 62
253
  6
CONTINUOUS
 10
-11.0995624762
 20
-21.3011733278
 11
-11.0986971047
 21
-21.2465321105
  0
LINE
  5
283
100
AcDbEntity
  8
ASSI
100
AcDbLine
 62
253
  6
CONTINUOUS
 10
-10.6040486086
 20
-21.832054711
 11
-10.602531047
 21
-21.7493154788
  0
LINE
  5
284
100
AcDbEntity
  8
ASSI
100
AcDbLine
 62
253
  6
CONTINUOUS
 10
-11.1004154778
 20
-21.342499656
 11
-11.0995624762
 21
-21.3011733278
  0
LINE
  5
285
100
AcDbEntity
  8
ASSI
100
AcDbLine
 62
253
  6
CONTINUOUS
 10
-10.6053804403
 20
-21.8903747928
 11
-10.6040486086
 21
-21.832054711
  0
LINE
  5
286
100
AcDbEntity
  8
ASSI
100
AcDbLine
 62
253
  6
CONTINUOUS
 10
-11.1014029777
 20
-21.3812932912
 11
-11.1004154778
 21
-21.342499656
  0
LINE
  5
287
100
AcDbEntity
  8
ASSI
100
AcDbLine
 62
253
  6
CONTINUOUS
 10
-10.6064401385
 20
-21.9291645563
 11
-10.6053804403
 21
-21.8903747928
  0
LINE
  5
288
100
AcDbEntity
  8
ASSI
100
AcDbLine
 62
253
  6
CONTINUOUS
 10
-11.1022264654
 20
-21.4085118087
 11
-11.1014029777
 21
-21.3812932912
  0
LINE
  5
289
100
AcDbEntity
  8
ASSI
100
AcDbLine
 62
253
  6
CONTINUOUS
 10
-10.6075458554
 20
-21.9634854259
 11
-10.6064401385
 21
-21.9291645563
  0
LINE
  5
28A
100
AcDbEntity
  8
ASSI
100
AcDbLine
 62
253
  6
CONTINUOUS
 10
-11.1031162463
 20
-21.4339626924
 11
-11.1022264654
 21
-21.4085118087
  0
LINE
  5
28B
100
AcDbEntity
  8
ASSI
100
AcDbLine
 62
253
  6
CONTINUOUS
 10
-11.1040677052
 20
-21.4575137802
 11
-11.1031162463
 21
-21.4339626924
  0
LINE
  5
28C
100
AcDbEntity
  8
ASSI
100
AcDbLine
 62
253
  6
CONTINUOUS
 10
-11.1047339133
 20
-21.4720998397
 11
-11.1040677052
 21
-21.4575137802
  0
LINE
  5
28D
100
AcDbEntity
  8
ASSI
100
AcDbLine
 62
253
  6
CONTINUOUS
 10
-11.1054238245
 20
-21.4857527176
 11
-11.1047339133
 21
-21.4720998397
  0
LINE
  5
28E
100
AcDbEntity
  8
ASSI
100
AcDbLine
 62
253
  6
CONTINUOUS
 10
-11.1061356259
 20
-21.4984380129
 11
-11.1054238245
 21
-21.4857527176
  0
LWPOLYLINE
  5
28F
100
AcDbEntity
  8
0
100
AcDbPolyline
 62
253
  6
CONTINUOUS
 90
52
 70
0
 10
-0.7350287274
 20
12.4285802476
 10
-0.7364536603
 20
12.4277006238
 10
-0.7379160762
 20
12.4268804929
 10
-0.7394156811
 20
12.4261188016
 10
-0.7409521807
 20
12.4254144965
 10
-0.742525281
 20
12.4247665242
 10
-0.744134688
 20
12.4241738315
 10
-0.7457801074
 20
12.4236353649
 10
-0.7474612452
 20
12.4231500713
 10
-0.7491778074
 20
12.4227168973
 10
-0.7509294261
 20
12.4223350704
 10
-0.7527154391
 20
12.4220049419
 10
-0.7545351102
 20
12.421727144
 10
-0.7563877036
 20
12.4215023087
 10
-0.7582724831
 20
12.4213310683
 10
-0.7601887127
 20
12.421214055
 10
-0.7621356566
 20
12.4211519007
 10
-0.7641125785
 20
12.4211452378
 10
-0.7661187427
 20
12.4211946984
 10
-0.7679483959
 20
12.4212877441
 10
-0.7697988737
 20
12.4214273611
 10
-0.7716679106
 20
12.421614149
 10
-0.7735532412
 20
12.4218487069
 10
-0.7754526
 20
12.4221316344
 10
-0.7773640079
 20
12.4224636455
 10
-0.7792866307
 20
12.4228459141
 10
-0.7812199207
 20
12.4232797288
 10
-0.78316333
 20
12.4237663782
 10
-0.7851163108
 20
12.4243071508
 10
-0.7870776914
 20
12.4249032273
 10
-0.7890438047
 20
12.4255553565
 10
-0.7910103597
 20
12.4262641791
 10
-0.7929730657
 20
12.4270303358
 10
-0.7949276316
 20
12.4278544675
 10
-0.7968698468
 20
12.4287372785
 10
-0.7987958206
 20
12.4296797282
 10
-0.8007017431
 20
12.4306828394
 10
-0.8025838037
 20
12.4317476352
 10
-0.8044381924
 20
12.4328751385
 10
-0.8059595434
 20
12.4338633892
 10
-0.8074563131
 20
12.4348966395
 10
-0.8089257831
 20
12.4359756316
 10
-0.8103652349
 20
12.437101108
 10
-0.8117719498
 20
12.4382738109
 10
-0.8131432093
 20
12.4394944826
 10
-0.8142882871
 20
12.4405799545
 10
-0.8154035638
 20
12.4417043209
 10
-0.8164872843
 20
12.4428706884
 10
-0.8175376935
 20
12.4440821636
 10
-0.8185530364
 20
12.4453418534
 10
-0.8195315579
 20
12.4466528643
 10
-0.820471503
 20
12.4480183031
  0
LWPOLYLINE
  5
290
100
AcDbEntity
  8
0
100
AcDbPolyline
 62
253
  6
CONTINUOUS
 90
31
 70
0
 10
-1.8695964298
 20
11.1337094146
 10
-1.8863365823
 20
11.1242395063
 10
-1.9030636079
 20
11.1151183264
 10
-1.9197801899
 20
11.106341224
 10
-1.9364890119
 20
11.0979035483
 10
-1.9531927573
 20
11.0898006487
 10
-1.9698941096
 20
11.0820278744
 10
-1.9865957521
 20
11.0745805745
 10
-2.0033003685
 20
11.0674540984
 10
-2.0200106421
 20
11.0606437953
 10
-2.0367292563
 20
11.0541450145
 10
-2.0534560682
 20
11.0479546119
 10
-2.0701796282
 20
11.0420754707
 10
-2.0868856606
 20
11.0365119809
 10
-2.1035598893
 20
11.0312685324
 10
-2.1201880384
 20
11.0263495151
 10
-2.1367562094
 20
11.0217582638
 10
-2.1532520131
 20
11.017493893
 10
-2.1696634379
 20
11.0135544621
 10
-2.185978472
 20
11.0099380302
 10
-2.2021851036
 20
11.0066426569
 10
-2.2182733227
 20
11.0036663742
 10
-2.2342411255
 20
11.0010071057
 10
-2.2500885099
 20
10.9986627478
 10
-2.2658154737
 20
10.9966311969
 10
-2.2814220149
 20
10.9949103495
 10
-2.2969099541
 20
10.9934987618
 10
-2.312288403
 20
10.9923976297
 10
-2.3275682959
 20
10.9916088091
 10
-2.3427605674
 20
10.9911341558
 10
-2.3578761519
 20
10.9909755257
  0
LINE
  5
291
100
AcDbEntity
  8
ASSI
100
AcDbLine
 62
253
  6
CONTINUOUS
 10
10.8489005602
 20
-9.5028230496
 11
10.8384522281
 21
-9.5033325266
  0
LINE
  5
292
100
AcDbEntity
  8
ASSI
100
AcDbLine
 62
253
  6
CONTINUOUS
 10
10.8384522281
 20
-9.5033325266
 11
10.826517011
 21
-9.5038308906
  0
LINE
  5
293
100
AcDbEntity
  8
ASSI
100
AcDbLine
 62
253
  6
CONTINUOUS
 10
10.826517011
 20
-9.5038308906
 11
10.8131335197
 21
-9.5043165291
  0
LINE
  5
294
100
AcDbEntity
  8
ASSI
100
AcDbLine
 62
253
  6
CONTINUOUS
 10
10.8131335197
 20
-9.5043165291
 11
10.7904387259
 21
-9.5050177026
  0
LINE
  5
295
100
AcDbEntity
  8
ASSI
100
AcDbLine
 62
253
  6
CONTINUOUS
 10
10.7904387259
 20
-9.5050177026
 11
10.7555518191
 21
-9.5058938002
  0
LINE
  5
296
100
AcDbEntity
  8
ASSI
100
AcDbLine
 62
253
  6
CONTINUOUS
 10
10.7555518191
 20
-9.5058938002
 11
10.7362510688
 21
-9.5063034445
  0
LWPOLYLINE
  5
297
100
AcDbEntity
  8
0
100
AcDbPolyline
 62
253
  6
CONTINUOUS
 90
55
 70
0
 10
1.3561970158
 20
-11.2378904678
 10
1.3627561797
 20
-11.2379950297
 10
1.3692548498
 20
-11.2383066834
 10
1.3757097649
 20
-11.2388223809
 10
1.3821376636
 20
-11.2395390745
 10
1.388555285
 20
-11.2404537162
 10
1.3949759717
 20
-11.2415641302
 10
1.4013994829
 20
-11.2428716285
 10
1.407822182
 20
-11.2443783952
 10
1.414240432
 20
-11.2460866145
 10
1.4206505963
 20
-11.2479984705
 10
1.4270479025
 20
-11.2501158227
 10
1.4334230366
 20
-11.2524392332
 10
1.439765549
 20
-11.2549689393
 10
1.4460649901
 20
-11.2577051783
 10
1.4523109103
 20
-11.2606481878
 10
1.4574656725
 20
-11.2632574136
 10
1.4625594733
 20
-11.2660021142
 10
1.4675757749
 20
-11.268874009
 10
1.4725023822
 20
-11.2718675998
 10
1.4773444691
 20
-11.2749885176
 10
1.4821115518
 20
-11.2782451763
 10
1.4868099868
 20
-11.2816440644
 10
1.4914334915
 20
-11.285183971
 10
1.4959726235
 20
-11.2888617601
 10
1.5004179404
 20
-11.2926742957
 10
1.50476
 20
-11.2966184419
 10
1.5089893597
 20
-11.3006910626
 10
1.5130976221
 20
-11.3048881035
 10
1.5170805686
 20
-11.3092018357
 10
1.5209350255
 20
-11.3136236121
 10
1.5246578191
 20
-11.3181447853
 10
1.5282457756
 20
-11.3227567081
 10
1.5316957214
 20
-11.3274507333
 10
1.5350063484
 20
-11.3322212848
 10
1.5381838119
 20
-11.3370750712
 10
1.5412361327
 20
-11.3420218725
 10
1.5441683521
 20
-11.3470667628
 10
1.5469735927
 20
-11.3521959943
 10
1.5496419975
 20
-11.3573911134
 10
1.5526524134
 20
-11.3636895925
 10
1.5554515509
 20
-11.370044572
 10
1.5580393692
 20
-11.3764442474
 10
1.5604158274
 20
-11.3828768141
 10
1.5625808847
 20
-11.3893304675
 10
1.5645349357
 20
-11.3957948778
 10
1.5662801176
 20
-11.4022656135
 10
1.5678190029
 20
-11.4087397181
 10
1.569154164
 20
-11.4152142349
 10
1.5702881737
 20
-11.4216862072
 10
1.5712226236
 20
-11.4281560001
 10
1.5719551829
 20
-11.4346372656
 10
1.5724825397
 20
-11.4411469774
 10
1.5728013824
 20
-11.4477021091
 10
1.5729083992
 20
-11.4543196344
  0
LINE
  5
298
100
AcDbEntity
  8
ASSI
100
AcDbLine
 62
253
  6
CONTINUOUS
 10
-10.9584801821
 20
-9.5054647569
 11
-10.9210973808
 21
-9.5063034445
  0
LINE
  5
299
100
AcDbEntity
  8
ASSI
100
AcDbLine
 62
253
  6
CONTINUOUS
 10
-10.9831913623
 20
-9.5047878712
 11
-10.9584801821
 21
-9.5054647569
  0
LINE
  5
29A
100
AcDbEntity
  8
ASSI
100
AcDbLine
 62
253
  6
CONTINUOUS
 10
-11.0048500138
 20
-9.5040753997
 11
-10.9831913623
 21
-9.5047878712
  0
LINE
  5
29B
100
AcDbEntity
  8
ASSI
100
AcDbLine
 62
253
  6
CONTINUOUS
 10
-11.0175144903
 20
-9.5035831994
 11
-11.0048500138
 21
-9.5040753997
  0
LWPOLYLINE
  5
29C
100
AcDbEntity
  8
ASSI
100
AcDbPolyline
 62
253
  6
CONTINUOUS
 90
17
 70
0
 10
-11.1076193292
 20
21.5020139812
 10
-11.1080013328
 20
21.5069597908
 10
-11.1083873809
 20
21.5116410923
 10
-11.1087774664
 20
21.5160583431
 10
-11.1091709148
 20
21.5202038979
 10
-11.1095677314
 20
21.5240772843
 10
-11.1099679108
 20
21.5276789747
 10
-11.1103707621
 20
21.531002742
 10
-11.1107762908
 20
21.5340481093
 10
-11.1111844914
 20
21.5368155534
 10
-11.1115946564
 20
21.5393002775
 10
-11.1120067963
 20
21.5415018002
 10
-11.1124209007
 20
21.5434206028
 10
-11.1128362309
 20
21.545053332
 10
-11.1132525406
 20
21.5463988702
 10
-11.1136700762
 20
21.5474583349
 10
-11.1140888376
 20
21.5482317264
  0
LINE
  5
29D
100
AcDbEntity
  8
ASSI
100
AcDbLine
 62
253
  6
CONTINUOUS
 10
-11.1068680876
 20
21.4913392273
 11
-11.1076193292
 21
21.5020139812
  0
LINE
  5
29E
100
AcDbEntity
  8
ASSI
100
AcDbLine
 62
253
  6
CONTINUOUS
 10
-11.1061356259
 20
21.4796434566
 11
-11.1068680876
 21
21.4913392273
  0
LWPOLYLINE
  5
29F
100
AcDbEntity
  8
ASSI
100
AcDbPolyline
 62
253
  6
CONTINUOUS
 90
11
 70
0
 10
-10.6102723511
 20
22.0064374662
 10
-10.6106751948
 20
22.0130859726
 10
-10.6110807226
 20
22.0191784527
 10
-10.611488925
 20
22.0247113719
 10
-10.6118990858
 20
22.0296815118
 10
-10.6123112006
 20
22.034085994
 10
-10.6127252738
 20
22.0379222963
 10
-10.613140603
 20
22.0411882229
 10
-10.613556954
 20
22.0438818867
 10
-10.613974561
 20
22.0460017204
 10
-10.614393424
 20
22.0475464938
  0
LINE
  5
2A0
100
AcDbEntity
  8
ASSI
100
AcDbLine
 62
253
  6
CONTINUOUS
 10
-10.6094753747
 20
21.9914880044
 11
-10.6102723511
 21
22.0064374662
  0
LINE
  5
2A1
100
AcDbEntity
  8
ASSI
100
AcDbLine
 62
253
  6
CONTINUOUS
 10
-10.6086918533
 20
21.9743645149
 11
-10.6094753747
 21
21.9914880044
  0
LWPOLYLINE
  5
2A2
100
AcDbEntity
  8
ASSI
100
AcDbPolyline
 62
253
  6
CONTINUOUS
 90
3
 70
0
 10
-10.6075458554
 20
21.9446908696
 10
-10.6079238144
 20
21.9551065629
 10
-10.6086918533
 20
21.9743645149
  0
LINE
  5
2A3
100
AcDbEntity
  8
ASSI
100
AcDbLine
 62
253
  6
CONTINUOUS
 10
-10.6083058112
 20
-21.9837942375
 11
-10.6075458554
 21
-21.9634854259
  0
LINE
  5
2A4
100
AcDbEntity
  8
ASSI
100
AcDbLine
 62
253
  6
CONTINUOUS
 10
-10.609081933
 20
-22.0019902142
 11
-10.6083058112
 21
-21.9837942375
  0
LINE
  5
2A5
100
AcDbEntity
  8
ASSI
100
AcDbLine
 62
253
  6
CONTINUOUS
 10
-11.1068680876
 20
-21.5101337836
 11
-11.1061356259
 21
-21.4984380129
  0
LINE
  5
2A6
100
AcDbEntity
  8
ASSI
100
AcDbLine
 62
253
  6
CONTINUOUS
 10
10.7362510688
 20
-9.5063034445
 11
10.68308629
 21
-9.507234154
  0
LINE
  5
2A7
100
AcDbEntity
  8
ASSI
100
AcDbLine
 62
253
  6
CONTINUOUS
 10
10.68308629
 20
-9.507234154
 11
10.611283269
 21
-9.5081540215
  0
LINE
  5
2A8
100
AcDbEntity
  8
ASSI
100
AcDbLine
 62
253
  6
CONTINUOUS
 10
10.611283269
 20
-9.5081540215
 11
10.5191356643
 21
-9.5089225242
  0
LINE
  5
2A9
100
AcDbEntity
  8
ASSI
100
AcDbLine
 62
253
  6
CONTINUOUS
 10
10.5191356643
 20
-9.5089225242
 11
10.4072599786
 21
-9.5093630538
  0
LINE
  5
2AA
100
AcDbEntity
  8
ASSI
100
AcDbLine
 62
253
  6
CONTINUOUS
 10
10.4072599786
 20
-9.5093630538
 11
-10.5636791145
 21
-9.5093972781
  0
LINE
  5
2AB
100
AcDbEntity
  8
ASSI
100
AcDbLine
 62
253
  6
CONTINUOUS
 10
-10.6764699735
 20
-9.5090775858
 11
-10.5636791145
 21
-9.5093972781
  0
LINE
  5
2AC
100
AcDbEntity
  8
ASSI
100
AcDbLine
 62
253
  6
CONTINUOUS
 10
-10.7834462919
 20
-9.5082846346
 11
-10.6764699735
 21
-9.5090775858
  0
LINE
  5
2AD
100
AcDbEntity
  8
ASSI
100
AcDbLine
 62
253
  6
CONTINUOUS
 10
-10.856525809
 20
-9.5074030708
 11
-10.7834462919
 21
-9.5082846346
  0
LWPOLYLINE
  5
2AE
100
AcDbEntity
  8
ASSI
100
AcDbPolyline
 62
253
  6
CONTINUOUS
 90
3
 70
0
 10
-10.9210973808
 20
-9.5063034445
 10
-10.9110093569
 20
-9.5065005753
 10
-10.856525809
 20
-9.5074030708
  0
LWPOLYLINE
  5
2AF
100
AcDbEntity
  8
0
100
AcDbPolyline
 62
253
  6
CONTINUOUS
 90
31
 70
0
 10
-1.5050005965
 20
11.48302997
 10
-1.5127003883
 20
11.4700472711
 10
-1.5206984548
 20
11.4571435005
 10
-1.5289994609
 20
11.4443163281
 10
-1.5376080717
 20
11.4315634241
 10
-1.5465289524
 20
11.4188824582
 10
-1.5557667678
 20
11.4062711005
 10
-1.5653261831
 20
11.393727021
 10
-1.5752118632
 20
11.3812478897
 10
-1.5854284733
 20
11.3688313764
 10
-1.5959806784
 20
11.3564751512
 10
-1.6068709631
 20
11.3441789745
 10
-1.61809309
 20
11.3319509677
 10
-1.6296386414
 20
11.319801343
 10
-1.6414991994
 20
11.3077403123
 10
-1.6536663464
 20
11.2957780876
 10
-1.6661316646
 20
11.2839248809
 10
-1.6788867361
 20
11.2721909041
 10
-1.6919231431
 20
11.2605863693
 10
-1.705232468
 20
11.2491214884
 10
-1.718806293
 20
11.2378064734
 10
-1.7326385564
 20
11.2266501001
 10
-1.7467326222
 20
11.2156553997
 10
-1.7610942102
 20
11.2048239672
 10
-1.7757290404
 20
11.1941573974
 10
-1.790642833
 20
11.1836572853
 10
-1.8058413078
 20
11.1733252259
 10
-1.8213301848
 20
11.1631628142
 10
-1.8371151842
 20
11.1531716451
 10
-1.8532020258
 20
11.1433533136
 10
-1.8695964298
 20
11.1337094146
  0
LINE
  5
2B0
100
AcDbEntity
  8
0
100
AcDbLine
 62
253
  6
CONTINUOUS
 10
1.9547253707
 20
13.9095766361
 11
2.1484791488
 21
14.1764641332
  0
LINE
  5
2B1
100
AcDbEntity
  8
0
100
AcDbLine
 62
253
  6
CONTINUOUS
 10
1.4792514939
 20
13.2569024696
 11
1.683192322
 21
13.5366905251
  0
LWPOLYLINE
  5
2B2
100
AcDbEntity
  8
0
100
AcDbPolyline
 62
253
  6
CONTINUOUS
 90
43
 70
0
 10
2.1484791488
 20
14.1764641332
 10
2.1497938651
 20
14.1781792238
 10
2.1511445964
 20
14.1798377344
 10
2.1525308691
 20
14.1814429913
 10
2.1539522093
 20
14.1829983211
 10
2.1554081434
 20
14.1845070502
 10
2.1568981975
 20
14.185972505
 10
2.1584218979
 20
14.1873980121
 10
2.1602036548
 20
14.1889816512
 10
2.1620267909
 20
14.1905172434
 10
2.163889358
 20
14.1920045739
 10
2.1657894077
 20
14.1934434277
 10
2.1677249917
 20
14.19483359
 10
2.169694162
 20
14.1961748457
 10
2.1716949701
 20
14.1974669799
 10
2.173725442
 20
14.1987097567
 10
2.1757834996
 20
14.1999028553
 10
2.1778670393
 20
14.2010459339
 10
2.179973957
 20
14.2021386507
 10
2.182102149
 20
14.2031806638
 10
2.1842495114
 20
14.2041716315
 10
2.1864139404
 20
14.205111212
 10
2.1885933052
 20
14.2059990409
 10
2.1907853673
 20
14.2068346635
 10
2.1929878614
 20
14.2076176028
 10
2.1951985219
 20
14.2083473818
 10
2.1974150836
 20
14.2090235231
 10
2.199635281
 20
14.2096455498
 10
2.2018568486
 20
14.2102129847
 10
2.2040777022
 20
14.2107254296
 10
2.2062964813
 20
14.2111828025
 10
2.2085120067
 20
14.2115851
 10
2.2107230991
 20
14.2119323191
 10
2.2129285792
 20
14.2122244564
 10
2.2151272678
 20
14.2124615088
 10
2.2173179855
 20
14.212643473
 10
2.2195003625
 20
14.2127700121
 10
2.221677267
 20
14.2128394535
 10
2.2238523766
 20
14.2128497907
 10
2.226029369
 20
14.2127990173
 10
2.2282119218
 20
14.2126851269
 10
2.2304037126
 20
14.212506113
 10
2.2326084191
 20
14.2122599693
  0
LWPOLYLINE
  5
2B3
100
AcDbEntity
  8
ASSI
100
AcDbPolyline
 62
253
  6
CONTINUOUS
 90
13
 70
0
 10
-10.614393424
 20
-22.0663410501
 10
-10.613974561
 20
-22.0647962767
 10
-10.613556954
 20
-22.062676443
 10
-10.613140603
 20
-22.0599827792
 10
-10.6127252738
 20
-22.0567168526
 10
-10.6123112006
 20
-22.0528805503
 10
-10.6118990858
 20
-22.0484760681
 10
-10.611488925
 20
-22.0435059282
 10
-10.6110807226
 20
-22.037973009
 10
-10.6106751948
 20
-22.0318805289
 10
-10.6102723511
 20
-22.0252320225
 10
-10.609872182
 20
-22.0180313181
 10
-10.609081933
 20
-22.0019902142
  0
LWPOLYLINE
  5
2B4
100
AcDbEntity
  8
0
100
AcDbPolyline
 62
253
  6
CONTINUOUS
 90
54
 70
0
 10
2.4112348242
 20
12.0663489438
 10
2.414130145
 20
12.0721051406
 10
2.4171935205
 20
12.07774162
 10
2.4204290941
 20
12.0832747754
 10
2.4238410093
 20
12.0887210002
 10
2.4274327968
 20
12.0940932326
 10
2.4312055366
 20
12.0993905907
 10
2.4351596963
 20
12.1046087377
 10
2.439295743
 20
12.1097433367
 10
2.4436141442
 20
12.1147900507
 10
2.4481146574
 20
12.1197436926
 10
2.4527941998
 20
12.124595673
 10
2.4576489789
 20
12.1293365526
 10
2.4626752023
 20
12.1339568917
 10
2.4678690772
 20
12.1384472509
 10
2.4723207395
 20
12.1420821189
 10
2.4768726112
 20
12.14560872
 10
2.4815111103
 20
12.1490156064
 10
2.4862268143
 20
12.152294065
 10
2.4910269361
 20
12.1554463214
 10
2.495922848
 20
12.1584773354
 10
2.5009229288
 20
12.1613899754
 10
2.5060235848
 20
12.1641787411
 10
2.5112182293
 20
12.1668360405
 10
2.5165002752
 20
12.1693542814
 10
2.5218631358
 20
12.1717258718
 10
2.5273002241
 20
12.1739432196
 10
2.532804624
 20
12.1760000729
 10
2.5383681014
 20
12.1778955411
 10
2.5439820928
 20
12.1796300739
 10
2.5496380349
 20
12.1812041209
 10
2.5553273642
 20
12.1826181318
 10
2.5610415172
 20
12.1838725563
 10
2.566775341
 20
12.1849682704
 10
2.5725373237
 20
12.1859078567
 10
2.5783393642
 20
12.1866943239
 10
2.5841877539
 20
12.1873298931
 10
2.5900663562
 20
12.1878136346
 10
2.5959534274
 20
12.1881438306
 10
2.6030028503
 20
12.1883362744
 10
2.6100218268
 20
12.1883100136
 10
2.6169990266
 20
12.1880699224
 10
2.623923119
 20
12.1876208751
 10
2.6307827737
 20
12.1869677459
 10
2.6375682979
 20
12.186115194
 10
2.6442765497
 20
12.1850670186
 10
2.6509060249
 20
12.1838268037
 10
2.6574552195
 20
12.1823981335
 10
2.6639226292
 20
12.180784592
 10
2.6703094018
 20
12.1789874689
 10
2.6766272924
 20
12.176998877
 10
2.6828907078
 20
12.1748086343
 10
2.6891140549
 20
12.1724065592
 10
2.6953117407
 20
12.1697824699
  0
LINE
  5
2B5
100
AcDbEntity
  8
ASSI
100
AcDbLine
 62
253
  6
CONTINUOUS
 10
10.5303586493
 20
22.1988406624
 11
10.4295471121
 21
22.0475464938
  0
LINE
  5
2B6
100
AcDbEntity
  8
ASSI
100
AcDbLine
 62
253
  6
CONTINUOUS
 10
10.4295471121
 20
-22.0663410501
 11
10.5303586493
 21
-22.2176352187
  0
LINE
  5
2B7
100
AcDbEntity
  8
0
100
AcDbLine
 62
253
  6
CONTINUOUS
 10
-2.2781548359
 20
-13.5012421339
 11
-2.2781548359
 21
-11.4543196766
  0
LINE
  5
2B8
100
AcDbEntity
  8
0
100
AcDbLine
 62
253
  6
CONTINUOUS
 10
-1.8555558742
 20
12.1796955254
 11
-1.8555558742
 21
14.4576874278
  0
LWPOLYLINE
  5
2B9
100
AcDbEntity
  8
0
100
AcDbPolyline
 62
253
  6
CONTINUOUS
 90
30
 70
0
 10
-1.4259783743
 20
11.7609483033
 10
-1.4260739965
 20
11.7512281271
 10
-1.4263612011
 20
11.7415329013
 10
-1.4268404946
 20
11.731849074
 10
-1.4275123836
 20
11.7221630935
 10
-1.4283773746
 20
11.7124614077
 10
-1.4294359744
 20
11.7027304651
 10
-1.4306886893
 20
11.6929567136
 10
-1.4321362931
 20
11.6831298341
 10
-1.4337806269
 20
11.6732524376
 10
-1.435623799
 20
11.663330368
 10
-1.4376679174
 20
11.6533694688
 10
-1.4399150904
 20
11.6433755838
 10
-1.4423674262
 20
11.6333545566
 10
-1.445027033
 20
11.6233122311
 10
-1.4478958653
 20
11.6132544799
 10
-1.4509752634
 20
11.6031872925
 10
-1.4542664139
 20
11.5931166872
 10
-1.4577705037
 20
11.5830486824
 10
-1.4614887192
 20
11.5729892967
 10
-1.4654222473
 20
11.5629445483
 10
-1.4695722745
 20
11.5529204557
 10
-1.4733825011
 20
11.5441694765
 10
-1.4773627251
 20
11.5354335093
 10
-1.4815162784
 20
11.5267071436
 10
-1.4858464928
 20
11.5179849688
 10
-1.4903567
 20
11.5092615746
 10
-1.4950502319
 20
11.5005315504
 10
-1.4999304201
 20
11.4917894856
 10
-1.5050005965
 20
11.48302997
  0
LWPOLYLINE
  5
2BA
100
AcDbEntity
  8
0
100
AcDbPolyline
 62
253
  6
CONTINUOUS
 90
44
 70
0
 10
-2.2781548359
 20
-11.4543196344
 10
-2.2781265692
 20
-11.4522205521
 10
-2.2780428932
 20
-11.4501459332
 10
-2.2779054938
 20
-11.4480931938
 10
-2.2777160567
 20
-11.4460597499
 10
-2.277476268
 20
-11.4440430177
 10
-2.2771878133
 20
-11.4420404133
 10
-2.2768523787
 20
-11.4400493527
 10
-2.27647165
 20
-11.438067252
 10
-2.2759829629
 20
-11.435810518
 10
-2.2754382199
 20
-11.433563457
 10
-2.2748383229
 20
-11.4313274143
 10
-2.2741841738
 20
-11.4291037352
 10
-2.2734766744
 20
-11.4268937649
 10
-2.2727167266
 20
-11.4246988485
 10
-2.2719052322
 20
-11.4225203314
 10
-2.2708946038
 20
-11.4200013432
 10
-2.2698168405
 20
-11.4175092061
 10
-2.2686737406
 20
-11.4150466192
 10
-2.2674671024
 20
-11.4126162813
 10
-2.2661987242
 20
-11.4102208916
 10
-2.2648704041
 20
-11.4078631489
 10
-2.2636855005
 20
-11.405874249
 10
-2.2624590237
 20
-11.4039167657
 10
-2.2611921184
 20
-11.4019924736
 10
-2.2598859292
 20
-11.4001031474
 10
-2.2585416007
 20
-11.3982505617
 10
-2.2571602775
 20
-11.396436491
 10
-2.2557431041
 20
-11.3946627099
 10
-2.254291144
 20
-11.3929308576
 10
-2.2528051353
 20
-11.3912420313
 10
-2.2512857347
 20
-11.3895971926
 10
-2.2497335993
 20
-11.3879973032
 10
-2.2481493859
 20
-11.3864433249
 10
-2.2465337514
 20
-11.3849362193
 10
-2.2448873526
 20
-11.3834769482
 10
-2.2434215208
 20
-11.3822399735
 10
-2.2419300006
 20
-11.3810403574
 10
-2.2404101545
 20
-11.3798780989
 10
-2.2388593452
 20
-11.3787531969
 10
-2.2372749351
 20
-11.3776656504
 10
-2.2356542868
 20
-11.3766154585
 10
-2.2339947629
 20
-11.3756026202
 10
-2.2322937259
 20
-11.3746271344
  0
LWPOLYLINE
  5
2BB
100
AcDbEntity
  8
0
100
AcDbPolyline
 62
253
  6
CONTINUOUS
 90
55
 70
0
 10
-1.8555558742
 20
14.4576874693
 10
-1.8554513034
 20
14.4642153452
 10
-1.8551396276
 20
14.4706837961
 10
-1.8546239016
 20
14.4771093808
 10
-1.8539071803
 20
14.4835086582
 10
-1.8529925186
 20
14.4898981871
 10
-1.8518821029
 20
14.4962911694
 10
-1.8505746462
 20
14.5026873791
 10
-1.8490679933
 20
14.5090832335
 10
-1.8473599886
 20
14.5154751497
 10
-1.8454484769
 20
14.521859545
 10
-1.8433316231
 20
14.5282317071
 10
-1.8410088731
 20
14.5345824072
 10
-1.838479993
 20
14.5409012869
 10
-1.835744749
 20
14.5471779881
 10
-1.8328029073
 20
14.5534021524
 10
-1.8301947791
 20
14.5585396137
 10
-1.8274512404
 20
14.5636169814
 10
-1.8245805137
 20
14.5686178388
 10
-1.8215880389
 20
14.5735300933
 10
-1.8184681248
 20
14.5783589475
 10
-1.8152122976
 20
14.5831139277
 10
-1.8118140183
 20
14.5878013839
 10
-1.8082744873
 20
14.59241496
 10
-1.8045968399
 20
14.5969451235
 10
-1.8007842112
 20
14.6013823418
 10
-1.7968397364
 20
14.6057170824
 10
-1.7927665507
 20
14.6099398128
 10
-1.7885686929
 20
14.6140420553
 10
-1.7842538154
 20
14.6180195528
 10
-1.7798304743
 20
14.6218691029
 10
-1.7753072253
 20
14.6255875033
 10
-1.7706926246
 20
14.6291715517
 10
-1.7659952282
 20
14.6326180458
 10
-1.7612205247
 20
14.6359256496
 10
-1.7563617346
 20
14.6391004921
 10
-1.751409011
 20
14.6421505686
 10
-1.7463572494
 20
14.645080881
 10
-1.741220314
 20
14.6478844576
 10
-1.7360168112
 20
14.6505513333
 10
-1.7297075627
 20
14.6535599705
 10
-1.7233411564
 20
14.656357364
 10
-1.7169294983
 20
14.6589434687
 10
-1.7104844943
 20
14.6613182399
 10
-1.7040180505
 20
14.6634816328
 10
-1.6975405735
 20
14.6654340449
 10
-1.691056474
 20
14.6671776444
 10
-1.6845686632
 20
14.6687150415
 10
-1.6780800525
 20
14.6700488468
 10
-1.6715935534
 20
14.6711816706
 10
-1.6651087583
 20
14.6721151371
 10
-1.6586119839
 20
14.6728469247
 10
-1.6520862281
 20
14.6733737257
 10
-1.6455144886
 20
14.673692232
 10
-1.6388797632
 20
14.6737991359
  0
LWPOLYLINE
  5
2BC
100
AcDbEntity
  8
0
100
AcDbPolyline
 62
253
  6
CONTINUOUS
 90
42
 70
0
 10
2.803720349
 20
11.8836444144
 10
2.7854267191
 20
11.8443693724
 10
2.7660353764
 20
11.8057721143
 10
2.7455510017
 20
11.7678309302
 10
2.7239782755
 20
11.7305241104
 10
2.7013218784
 20
11.6938299453
 10
2.6775912894
 20
11.6577376752
 10
2.6528151813
 20
11.6222803417
 10
2.6270270257
 20
11.5875019361
 10
2.6002602937
 20
11.55344645
 10
2.5725484569
 20
11.5201578749
 10
2.5439224823
 20
11.487676492
 10
2.5144033211
 20
11.4560277409
 10
2.48400942
 20
11.4252333506
 10
2.4527592258
 20
11.3953150505
 10
2.4206711855
 20
11.3662945696
 10
2.3877643659
 20
11.3381954316
 10
2.3540603141
 20
11.3110483384
 10
2.3195811974
 20
11.2848857862
 10
2.2843491829
 20
11.2597402712
 10
2.2483864379
 20
11.2356442897
 10
2.2117180844
 20
11.2126263446
 10
2.1743810645
 20
11.1906989647
 10
2.136415275
 20
11.1698706852
 10
2.0978606129
 20
11.1501500415
 10
2.0587569751
 20
11.1315455689
 10
2.0191422301
 20
11.1140657668
 10
1.9790461329
 20
11.0977189908
 10
1.9384964102
 20
11.0825135606
 10
1.8975207886
 20
11.0684577959
 10
1.8561469948
 20
11.0555600164
 10
1.8144071606
 20
11.0438293094
 10
1.772351039
 20
11.0332778327
 10
1.7300327881
 20
11.023918512
 10
1.687506566
 20
11.0157642728
 10
1.6448265309
 20
11.0088280406
 10
1.6091744443
 20
11.0039876458
 10
1.5734426926
 20
11.0000098551
 10
1.5376208155
 20
10.996902458
 10
1.5016983527
 20
10.9946732443
 10
1.4656648438
 20
10.9933300036
 10
1.4295098285
 20
10.9928805257
  0
LINE
  5
2BD
100
AcDbEntity
  8
ASSI
100
AcDbLine
 62
253
  6
CONTINUOUS
 10
11.0312695347
 20
21.7013500296
 11
10.9292425256
 21
21.5482317264
  0
LINE
  5
2BE
100
AcDbEntity
  8
ASSI
100
AcDbLine
 62
253
  6
CONTINUOUS
 10
11.057576844
 20
-0.3593306569
 11
10.8753850178
 21
-0.4048612682
  0
LINE
  5
2BF
100
AcDbEntity
  8
ASSI
100
AcDbLine
 62
253
  6
CONTINUOUS
 10
10.8075006423
 20
-0.1093972781
 11
10.6255372441
 21
-0.1548708041
  0
LWPOLYLINE
  5
2C0
100
AcDbEntity
  8
ASSI
100
AcDbPolyline
 62
253
  6
CONTINUOUS
 90
8
 70
0
 10
10.6255372441
 20
-0.1548708041
 10
10.6251871926
 20
-0.1549328519
 10
10.6246364611
 20
-0.1549946911
 10
10.6238850496
 20
-0.1550563217
 10
10.6229320229
 20
-0.1551177943
 10
10.6217783162
 20
-0.1551790583
 10
10.6204267348
 20
-0.1552399625
 10
10.6188768004
 20
-0.1553005052
  0
LWPOLYLINE
  5
2C1
100
AcDbEntity
  8
ASSI
100
AcDbPolyline
 62
253
  6
CONTINUOUS
 90
6
 70
0
 10
10.8753850178
 20
-0.4048612758
 10
10.8746867241
 20
-0.4049289615
 10
10.8735847852
 20
-0.4049964409
 10
10.8720800924
 20
-0.4050637049
 10
10.8701738668
 20
-0.4051307887
 10
10.8678676478
 20
-0.4051976388
  0
LINE
  5
2C2
100
AcDbEntity
  8
ASSI
100
AcDbLine
 62
253
  6
CONTINUOUS
 10
-11.0602313297
 20
-0.4048612682
 11
-11.242423156
 21
-0.3593306569
  0
LINE
  5
2C3
100
AcDbEntity
  8
ASSI
100
AcDbLine
 62
253
  6
CONTINUOUS
 10
-10.810383556
 20
-0.1548708041
 11
-10.9923469542
 21
-0.1093972781
  0
LINE
  5
2C4
100
AcDbEntity
  8
ASSI
100
AcDbLine
 62
253
  6
CONTINUOUS
 10
10.9292425256
 20
-21.5670262827
 11
11.0312695347
 21
-21.7201445859
  0
LINE
  5
2C5
100
AcDbEntity
  8
0
100
AcDbLine
 62
253
  6
CONTINUOUS
 10
-1.4234383743
 20
13.3996363584
 11
-1.4234383743
 21
11.774318573
  0
LINE
  5
2C6
100
AcDbEntity
  8
0
100
AcDbLine
 62
253
  6
CONTINUOUS
 10
-0.7057481726
 20
13.2931680251
 11
-0.7057481726
 21
12.4811794412
  0
LINE
  5
2C7
100
AcDbEntity
  8
0
100
AcDbLine
 62
253
  6
CONTINUOUS
 10
-0.5699696017
 20
-13.5012421339
 11
-0.5699696017
 21
-12.7055165721
  0
LINE
  5
2C8
100
AcDbEntity
  8
0
100
AcDbLine
 62
253
  6
CONTINUOUS
 10
-0.5699696017
 20
-12.2500804676
 11
-0.5699696017
 21
-11.4543196503
  0
LWPOLYLINE
  5
2C9
100
AcDbEntity
  8
0
100
AcDbPolyline
 62
253
  6
CONTINUOUS
 90
41
 70
0
 10
-0.7057481726
 20
12.4811794142
 10
-0.705768031
 20
12.4797560189
 10
-0.7058267014
 20
12.4783503337
 10
-0.7059228259
 20
12.4769609973
 10
-0.7060550468
 20
12.4755866485
 10
-0.7062220066
 20
12.4742259259
 10
-0.7064223474
 20
12.4728774684
 10
-0.7066547117
 20
12.4715399145
 10
-0.7069177416
 20
12.470211903
 10
-0.7072542911
 20
12.4687046266
 10
-0.7076279073
 20
12.4672090796
 10
-0.7080373771
 20
12.4657263057
 10
-0.7084814875
 20
12.4642573486
 10
-0.7089590252
 20
12.4628032523
 10
-0.7094687771
 20
12.4613650604
 10
-0.7100095302
 20
12.4599438167
 10
-0.710678092
 20
12.4583082747
 10
-0.7113859901
 20
12.4566974542
 10
-0.712132016
 20
12.4551115874
 10
-0.7129149612
 20
12.4535509067
 10
-0.7137336174
 20
12.4520156445
 10
-0.7145867759
 20
12.4505060329
 10
-0.7154733197
 20
12.4490223985
 10
-0.7163924974
 20
12.4475654437
 10
-0.7173436488
 20
12.4461359654
 10
-0.7183261139
 20
12.4447347601
 10
-0.7193392327
 20
12.4433626246
 10
-0.7203823449
 20
12.4420203554
 10
-0.7214547059
 20
12.4407088232
 10
-0.7225552317
 20
12.4394291946
 10
-0.7236827535
 20
12.4381827099
 10
-0.7248361027
 20
12.4369706097
 10
-0.7260141107
 20
12.4357941343
 10
-0.7272156087
 20
12.4346545244
 10
-0.7282637883
 20
12.4337077639
 10
-0.729330715
 20
12.4327883769
 10
-0.7304187367
 20
12.4318957406
 10
-0.7315302009
 20
12.4310292322
 10
-0.7326674556
 20
12.430188229
 10
-0.7338328485
 20
12.4293721084
 10
-0.7350287274
 20
12.4285802476
  0
LWPOLYLINE
  5
2CA
100
AcDbEntity
  8
0
100
AcDbPolyline
 62
253
  6
CONTINUOUS
 90
42
 70
0
 10
-0.5699696017
 20
-11.4543196344
 10
-0.5699401711
 20
-11.4521970665
 10
-0.5698531162
 20
-11.4500995299
 10
-0.5697102921
 20
-11.4480246611
 10
-0.5695135542
 20
-11.4459700967
 10
-0.5692647576
 20
-11.4439334732
 10
-0.5689657574
 20
-11.4419124271
 10
-0.5686184091
 20
-11.439904595
 10
-0.5682245676
 20
-11.4379076134
 10
-0.5677196316
 20
-11.4356363838
 10
-0.5671574758
 20
-11.4333773946
 10
-0.566539183
 20
-11.4311318012
 10
-0.5658658358
 20
-11.4289007589
 10
-0.5651385171
 20
-11.4266854231
 10
-0.5643583095
 20
-11.4244869491
 10
-0.5635262958
 20
-11.4223064922
 10
-0.5626435981
 20
-11.4201452906
 10
-0.5617114966
 20
-11.4180049137
 10
-0.5607313108
 20
-11.415887014
 10
-0.5597043604
 20
-11.4137932437
 10
-0.5586319648
 20
-11.4117252552
 10
-0.5575154437
 20
-11.4096847007
 10
-0.5563561165
 20
-11.4076732326
 10
-0.554951265
 20
-11.4053655078
 10
-0.5534922711
 20
-11.4031023752
 10
-0.5519814602
 20
-11.4008865882
 10
-0.5504211575
 20
-11.3987209002
 10
-0.5488136883
 20
-11.3966080646
 10
-0.5471613779
 20
-11.3945508348
 10
-0.5454663706
 20
-11.3925516689
 10
-0.5437300868
 20
-11.3906118434
 10
-0.5419537658
 20
-11.3887323396
 10
-0.540138647
 20
-11.3869141388
 10
-0.5382859697
 20
-11.3851582223
 10
-0.5363969734
 20
-11.3834655712
 10
-0.5347491046
 20
-11.3820656329
 10
-0.5330716741
 20
-11.3807123588
 10
-0.5313608933
 20
-11.3794052111
 10
-0.5296129734
 20
-11.3781436525
 10
-0.5278241257
 20
-11.3769271452
 10
-0.5259905614
 20
-11.3757551517
 10
-0.5241084917
 20
-11.3746271344
  0
LWPOLYLINE
  5
2CB
100
AcDbEntity
  8
0
100
AcDbPolyline
 62
253
  6
CONTINUOUS
 90
53
 70
0
 10
-0.0760398553
 20
12.498677192
 10
-0.0754804539
 20
12.538094252
 10
-0.0738155573
 20
12.5773565105
 10
-0.0710651268
 20
12.6164722768
 10
-0.0672491236
 20
12.6554498606
 10
-0.0623875091
 20
12.6942975713
 10
-0.054867934
 20
12.7426764634
 10
-0.0457693129
 20
12.7908170141
 10
-0.0351151776
 20
12.8386708247
 10
-0.0229290603
 20
12.8861894969
 10
-0.0092343057
 20
12.9333244697
 10
0.0059464911
 20
12.980026532
 10
0.0225909223
 20
13.0262463102
 10
0.0406765802
 20
13.0719344308
 10
0.0601831656
 20
13.1170432055
 10
0.0810988142
 20
13.161531687
 10
0.1034137703
 20
13.2053606133
 10
0.1271182782
 20
13.2484907223
 10
0.1522013631
 20
13.2908790863
 10
0.1786471734
 20
13.3324681145
 10
0.2064386385
 20
13.3731965503
 10
0.2355586878
 20
13.4130031373
 10
0.2597997195
 20
13.4441435918
 10
0.2848706786
 20
13.4746239775
 10
0.310762124
 20
13.5044134135
 10
0.3374646145
 20
13.5334810185
 10
0.364968709
 20
13.5617959113
 10
0.3932612657
 20
13.589330509
 10
0.4223143407
 20
13.6160704216
 10
0.4520962895
 20
13.6420045576
 10
0.4825754677
 20
13.6671218253
 10
0.5137202307
 20
13.6914111331
 10
0.5535388904
 20
13.7205921659
 10
0.5942858891
 20
13.7484442028
 10
0.6358990342
 20
13.7749492658
 10
0.678316133
 20
13.800089377
 10
0.7214782342
 20
13.8238479301
 10
0.7653393518
 20
13.8462138041
 10
0.8098567414
 20
13.8671772495
 10
0.8549876584
 20
13.8867285169
 10
0.9006913878
 20
13.9048562435
 10
0.9469353316
 20
13.9215426127
 10
0.9936889213
 20
13.9367681945
 10
1.0409215883
 20
13.9505135592
 10
1.0885950595
 20
13.9627574156
 10
1.1366402443
 20
13.9734710276
 10
1.1849803473
 20
13.982623798
 10
1.2335385734
 20
13.9901851298
 10
1.2724993407
 20
13.995067558
 10
1.3115637038
 20
13.998894778
 10
1.3507448088
 20
14.0016496845
 10
1.3900558017
 20
14.0033151723
 10
1.4295098285
 20
14.0038741361
  0
LWPOLYLINE
  5
2CC
100
AcDbEntity
  8
ASSI
100
AcDbPolyline
 62
253
  6
CONTINUOUS
 90
19
 70
0
 10
10.9292425256
 20
21.5482317264
 10
10.9288237643
 20
21.5474583349
 10
10.9284062287
 20
21.5463988702
 10
10.927989919
 20
21.545053332
 10
10.9275745888
 20
21.5434206028
 10
10.9271604844
 20
21.5415018002
 10
10.9267483445
 20
21.5393002775
 10
10.9263381795
 20
21.5368155534
 10
10.9259299789
 20
21.5340481093
 10
10.9255244502
 20
21.531002742
 10
10.9251215989
 20
21.5276789747
 10
10.9247214195
 20
21.5240772843
 10
10.9243246029
 20
21.5202038979
 10
10.9239311545
 20
21.5160583431
 10
10.923541069
 20
21.5116410923
 10
10.9231550209
 20
21.5069597908
 10
10.9227730173
 20
21.5020139812
 10
10.922395051
 20
21.4968041209
 10
10.9216531994
 20
21.4856188586
  0
LINE
  5
2CD
100
AcDbEntity
  8
ASSI
100
AcDbLine
 62
7
  6
CONTINUOUS
 10
8.4200428346
 20
-0.1093972781
 11
8.157576844
 21
-0.1355778815
  0
LINE
  5
2CE
100
AcDbEntity
  8
ASSI
100
AcDbLine
 62
253
  6
CONTINUOUS
 10
10.6188768004
 20
-0.1553005052
 11
10.6151875473
 21
-0.1554203651
  0
LINE
  5
2CF
100
AcDbEntity
  8
ASSI
100
AcDbLine
 62
253
  6
CONTINUOUS
 10
10.6151875473
 20
-0.1554203651
 11
10.6107228189
 21
-0.1555381984
  0
LINE
  5
2D0
100
AcDbEntity
  8
ASSI
100
AcDbLine
 62
253
  6
CONTINUOUS
 10
10.8678676478
 20
-0.4051976388
 11
10.8620629407
 21
-0.4053302052
  0
LINE
  5
2D1
100
AcDbEntity
  8
ASSI
100
AcDbLine
 62
253
  6
CONTINUOUS
 10
10.6107228189
 20
-0.1555381984
 11
10.6026064115
 21
-0.1557102979
  0
LINE
  5
2D2
100
AcDbEntity
  8
ASSI
100
AcDbLine
 62
253
  6
CONTINUOUS
 10
10.8620629407
 20
-0.4053302052
 11
10.8504128283
 21
-0.4055256781
  0
LINE
  5
2D3
100
AcDbEntity
  8
ASSI
100
AcDbLine
 62
253
  6
CONTINUOUS
 10
10.6026064115
 20
-0.1557102979
 11
10.585446417
 21
-0.1559817006
  0
LINE
  5
2D4
100
AcDbEntity
  8
ASSI
100
AcDbLine
 62
253
  6
CONTINUOUS
 10
10.8504128283
 20
-0.4055256781
 11
10.8233731164
 21
-0.4058388418
  0
LINE
  5
2D5
100
AcDbEntity
  8
ASSI
100
AcDbLine
 62
253
  6
CONTINUOUS
 10
10.585446417
 20
-0.1559817006
 11
10.5543964548
 21
-0.1563203271
  0
LINE
  5
2D6
100
AcDbEntity
  8
ASSI
100
AcDbLine
 62
253
  6
CONTINUOUS
 10
10.8233731164
 20
-0.4058388418
 11
10.7331060931
 21
-0.4064447229
  0
LINE
  5
2D7
100
AcDbEntity
  8
ASSI
100
AcDbLine
 62
253
  6
CONTINUOUS
 10
10.5543964548
 20
-0.1563203271
 11
10.4855692311
 21
-0.1567543397
  0
LINE
  5
2D8
100
AcDbEntity
  8
ASSI
100
AcDbLine
 62
253
  6
CONTINUOUS
 10
-10.7182417839
 20
0.1376929479
 11
-10.6306828013
 21
0.1380941654
  0
LINE
  5
2D9
100
AcDbEntity
  8
ASSI
100
AcDbLine
 62
253
  6
CONTINUOUS
 10
10.7331060931
 20
-0.4064447229
 11
10.4182991558
 21
-0.4071564769
  0
LINE
  5
2DA
100
AcDbEntity
  8
ASSI
100
AcDbLine
 62
253
  6
CONTINUOUS
 10
10.4182991558
 20
-0.4071564769
 11
-10.5605340717
 21
-0.4071657316
  0
LINE
  5
2DB
100
AcDbEntity
  8
ASSI
100
AcDbLine
 62
253
  6
CONTINUOUS
 10
10.4855692311
 20
-0.1567543397
 11
10.3756895902
 21
-0.1569763664
  0
LINE
  5
2DC
100
AcDbEntity
  8
ASSI
100
AcDbLine
 62
7
  6
CONTINUOUS
 10
10.3756895902
 20
-0.1569763664
 11
-10.5605359021
 21
-0.1569763664
  0
LINE
  5
2DD
100
AcDbEntity
  8
ASSI
100
AcDbLine
 62
7
  6
CONTINUOUS
 10
8.157576844
 20
-0.1355778815
 11
-8.342423156
 21
-0.1355778815
  0
LINE
  5
2DE
100
AcDbEntity
  8
ASSI
100
AcDbLine
 62
7
  6
CONTINUOUS
 10
10.8075006423
 20
-0.1093972781
 11
8.4200428346
 21
-0.1093972781
  0
LINE
  5
2DF
100
AcDbEntity
  8
ASSI
100
AcDbLine
 62
7
  6
CONTINUOUS
 10
-8.6048891465
 20
-0.1093972781
 11
-10.9923469542
 21
-0.1093972781
  0
LINE
  5
2E0
100
AcDbEntity
  8
ASSI
100
AcDbLine
 62
7
  6
CONTINUOUS
 10
-10.9923469542
 20
0.0906027219
 11
-8.6048891465
 21
0.0906027219
  0
LINE
  5
2E1
100
AcDbEntity
  8
ASSI
100
AcDbLine
 62
7
  6
CONTINUOUS
 10
8.4200428346
 20
0.0906027219
 11
10.8075006423
 21
0.0906027219
  0
LINE
  5
2E2
100
AcDbEntity
  8
ASSI
100
AcDbLine
 62
7
  6
CONTINUOUS
 10
-8.342423156
 20
0.1167833252
 11
8.157576844
 21
0.1167833252
  0
LINE
  5
2E3
100
AcDbEntity
  8
ASSI
100
AcDbLine
 62
7
  6
CONTINUOUS
 10
-10.5605359021
 20
0.1381818101
 11
10.3756895902
 21
0.1381818101
  0
LINE
  5
2E4
100
AcDbEntity
  8
ASSI
100
AcDbLine
 62
253
  6
CONTINUOUS
 10
-10.6306828013
 20
0.1380941654
 11
-10.5605359021
 21
0.1381818101
  0
LINE
  5
2E5
100
AcDbEntity
  8
ASSI
100
AcDbLine
 62
253
  6
CONTINUOUS
 10
-10.5605359021
 20
-0.1569763664
 11
-10.6767607236
 21
-0.1567262613
  0
LINE
  5
2E6
100
AcDbEntity
  8
ASSI
100
AcDbLine
 62
253
  6
CONTINUOUS
 10
10.3756895902
 20
0.1381818101
 11
10.4919144117
 21
0.137931705
  0
LINE
  5
2E7
100
AcDbEntity
  8
ASSI
100
AcDbLine
 62
253
  6
CONTINUOUS
 10
-10.5605340717
 20
-0.4071657322
 11
-10.9553355774
 21
-0.4062402061
  0
LINE
  5
2E8
100
AcDbEntity
  8
ASSI
100
AcDbLine
 62
253
  6
CONTINUOUS
 10
10.4919144117
 20
0.137931705
 11
10.5333954719
 21
0.1376929479
  0
LINE
  5
2E9
100
AcDbEntity
  8
ASSI
100
AcDbLine
 62
253
  6
CONTINUOUS
 10
-10.6767607236
 20
-0.1567262613
 11
-10.7392427667
 21
-0.1563203271
  0
LINE
  5
2EA
100
AcDbEntity
  8
ASSI
100
AcDbLine
 62
253
  6
CONTINUOUS
 10
-10.9553355774
 20
-0.4062402061
 11
-11.0143706758
 21
-0.4057777272
  0
LINE
  5
2EB
100
AcDbEntity
  8
ASSI
100
AcDbLine
 62
253
  6
CONTINUOUS
 10
-10.7392427667
 20
-0.1563203271
 11
-10.7702927289
 21
-0.1559817006
  0
LINE
  5
2EC
100
AcDbEntity
  8
ASSI
100
AcDbLine
 62
253
  6
CONTINUOUS
 10
-11.0143706758
 20
-0.4057777272
 11
-11.0352591402
 21
-0.4055256781
  0
LINE
  5
2ED
100
AcDbEntity
  8
ASSI
100
AcDbLine
 62
253
  6
CONTINUOUS
 10
-10.7702927289
 20
-0.1559817006
 11
-10.7874527234
 21
-0.1557102979
  0
LINE
  5
2EE
100
AcDbEntity
  8
ASSI
100
AcDbLine
 62
253
  6
CONTINUOUS
 10
-11.0352591402
 20
-0.4055256781
 11
-11.0469092526
 21
-0.4053302052
  0
LINE
  5
2EF
100
AcDbEntity
  8
ASSI
100
AcDbLine
 62
253
  6
CONTINUOUS
 10
-10.7874527234
 20
-0.1557102979
 11
-10.7955691308
 21
-0.1555381984
  0
LWPOLYLINE
  5
2F0
100
AcDbEntity
  8
ASSI
100
AcDbPolyline
 62
253
  6
CONTINUOUS
 90
7
 70
0
 10
-11.0469092526
 20
-0.4053302052
 10
-11.0527139598
 20
-0.4051976388
 10
-11.0550201787
 20
-0.4051307887
 10
-11.0569264043
 20
-0.4050637049
 10
-11.0584310971
 20
-0.4049964409
 10
-11.059533036
 20
-0.4049289615
 10
-11.0602313297
 20
-0.4048612758
  0
LINE
  5
2F1
100
AcDbEntity
  8
ASSI
100
AcDbLine
 62
253
  6
CONTINUOUS
 10
-10.7955691308
 20
-0.1555381984
 11
-10.8000338592
 21
-0.1554203651
  0
LWPOLYLINE
  5
2F2
100
AcDbEntity
  8
ASSI
100
AcDbPolyline
 62
253
  6
CONTINUOUS
 90
9
 70
0
 10
-10.8000338592
 20
-0.1554203651
 10
-10.8037231123
 20
-0.1553005052
 10
-10.8052730467
 20
-0.1552399625
 10
-10.8066246281
 20
-0.1551790583
 10
-10.8077783348
 20
-0.1551177943
 10
-10.8087313615
 20
-0.1550563217
 10
-10.809482773
 20
-0.1549946911
 10
-10.8100335045
 20
-0.1549328519
 10
-10.810383556
 20
-0.1548708041
  0
LINE
  5
2F3
100
AcDbEntity
  8
ASSI
100
AcDbLine
 62
7
  6
CONTINUOUS
 10
-8.6048891465
 20
-0.1093972781
 11
-8.342423156
 21
-0.1355778815
  0
LWPOLYLINE
  5
2F4
100
AcDbEntity
  8
0
100
AcDbPolyline
 62
253
  6
CONTINUOUS
 90
57
 70
0
 10
0.3574181892
 20
12.498677192
 10
0.3578981816
 20
12.4674959362
 10
0.35930506
 20
12.4368952953
 10
0.3615891767
 20
12.4068715096
 10
0.3647008838
 20
12.3774208193
 10
0.3685905336
 20
12.3485394645
 10
0.3732084782
 20
12.3202236855
 10
0.3785050698
 20
12.2924697223
 10
0.3844306606
 20
12.2652738153
 10
0.3919126769
 20
12.2348743417
 10
0.4000976728
 20
12.2052115469
 10
0.408931924
 20
12.176298131
 10
0.4183617064
 20
12.1481467941
 10
0.4283332958
 20
12.1207702361
 10
0.438792968
 20
12.0941811571
 10
0.4496869986
 20
12.0683922572
 10
0.4609690138
 20
12.0434072894
 10
0.4726220399
 20
12.0191942194
 10
0.4846364535
 20
11.9957120661
 10
0.4970026314
 20
11.9729198481
 10
0.50971095
 20
11.9507765844
 10
0.522751786
 20
11.9292412935
 10
0.536115516
 20
11.9082729944
 10
0.5553474614
 20
11.8798111063
 10
0.575158517
 20
11.8523830231
 10
0.5955137828
 20
11.825991569
 10
0.6163783586
 20
11.8006395684
 10
0.6377173442
 20
11.7763298456
 10
0.6594969659
 20
11.7530589295
 10
0.6816879557
 20
11.7307981683
 10
0.7042621719
 20
11.7095126145
 10
0.727191473
 20
11.689167321
 10
0.7504477172
 20
11.6697273403
 10
0.7740095922
 20
11.6511572551
 10
0.7978831019
 20
11.6334197667
 10
0.8220810793
 20
11.6164771063
 10
0.8466163575
 20
11.6002915049
 10
0.8715017696
 20
11.5848251939
 10
0.9031155128
 20
11.5664585335
 10
0.9352917683
 20
11.5491565728
 10
0.9680259124
 20
11.5329191343
 10
1.0013133216
 20
11.5177460404
 10
1.0283353998
 20
11.5063760903
 10
1.0556876845
 20
11.4957010134
 10
1.0833492515
 20
11.4857346162
 10
1.1112991767
 20
11.4764907048
 10
1.1395165361
 20
11.4679830858
 10
1.1679769642
 20
11.4602254794
 10
1.1966423315
 20
11.4532312618
 10
1.2254710669
 20
11.4470137233
 10
1.2544215995
 20
11.4415861541
 10
1.2834523584
 20
11.4369618446
 10
1.3125310147
 20
11.4331536765
 10
1.3416622081
 20
11.4301728983
 10
1.3708598203
 20
11.42803035
 10
1.4001377332
 20
11.4267368717
 10
1.4295098285
 20
11.4263033034
  0
LINE
  5
2F5
100
AcDbEntity
  8
0
100
AcDbLine
 62
253
  6
CONTINUOUS
 10
1.1394503547
 20
-13.5012421339
 11
1.1394503547
 21
-12.7051638002
  0
LINE
  5
2F6
100
AcDbEntity
  8
0
100
AcDbLine
 62
253
  6
CONTINUOUS
 10
1.1394503547
 20
-12.2507154676
 11
1.1394503547
 21
-11.454319661
  0
LINE
  5
2F7
100
AcDbEntity
  8
0
100
AcDbLine
 62
253
  6
CONTINUOUS
 10
1.5729083992
 20
-11.4543196344
 11
1.5729083992
 21
-13.5012420919
  0
LWPOLYLINE
  5
2F8
100
AcDbEntity
  8
0
100
AcDbPolyline
 62
253
  6
CONTINUOUS
 90
55
 70
0
 10
1.1394503547
 20
-11.4543196344
 10
1.1395548004
 20
-11.4477823818
 10
1.1398661225
 20
-11.4413047611
 10
1.140381299
 20
-11.434870096
 10
1.1410973077
 20
-11.4284617103
 10
1.1420111264
 20
-11.4220629277
 10
1.1431205988
 20
-11.4156604595
 10
1.1444270309
 20
-11.4092545674
 10
1.1459325948
 20
-11.4028489005
 10
1.1476394623
 20
-11.3964471079
 10
1.1495498054
 20
-11.3900528388
 10
1.1516654764
 20
-11.3836708625
 10
1.1539870491
 20
-11.3773104285
 10
1.1565147779
 20
-11.3709819062
 10
1.1592489171
 20
-11.3646956652
 10
1.1621897208
 20
-11.3584620751
 10
1.1647970536
 20
-11.3533168536
 10
1.1675398909
 20
-11.3482318149
 10
1.1704100438
 20
-11.3432233778
 10
1.1734020994
 20
-11.3383036391
 10
1.1765217497
 20
-11.3334674068
 10
1.1797774626
 20
-11.328705167
 10
1.1831757743
 20
-11.3240105834
 10
1.1867154921
 20
-11.3193900308
 10
1.190393491
 20
-11.3148530615
 10
1.1942066463
 20
-11.310409228
 10
1.1981518331
 20
-11.3060680828
 10
1.2022259265
 20
-11.3018391782
 10
1.2064248939
 20
-11.2977310082
 10
1.2107410713
 20
-11.293747833
 10
1.2151658868
 20
-11.289892854
 10
1.2196907688
 20
-11.2861692729
 10
1.2243071453
 20
-11.2825802914
 10
1.2290064445
 20
-11.2791291109
 10
1.2337831593
 20
-11.2758170649
 10
1.2386440405
 20
-11.2726380135
 10
1.2435989035
 20
-11.2695839487
 10
1.2486528317
 20
-11.2666498545
 10
1.2537919803
 20
-11.2638426823
 10
1.2589977721
 20
-11.2611723759
 10
1.2653099043
 20
-11.258159815
 10
1.2716793666
 20
-11.2553587043
 10
1.2780942736
 20
-11.2527690886
 10
1.2845427399
 20
-11.2503910127
 10
1.2910128802
 20
-11.2482245213
 10
1.2974942978
 20
-11.24626922
 10
1.3039825507
 20
-11.2445229561
 10
1.3104746854
 20
-11.2429831376
 10
1.3169677485
 20
-11.2416471725
 10
1.3234587868
 20
-11.2405124688
 10
1.3299481811
 20
-11.2395774211
 10
1.3364496491
 20
-11.2388443698
 10
1.3429802428
 20
-11.2383166424
 10
1.3495570144
 20
-11.237997566
 10
1.3561970158
 20
-11.2378904678
  0
LWPOLYLINE
  5
2F9
100
AcDbEntity
  8
ASSI
100
AcDbPolyline
 62
253
  6
CONTINUOUS
 90
18
 70
0
 10
-11.1140888376
 20
-21.5670262827
 10
-11.1136700762
 20
-21.5662528912
 10
-11.1132525406
 20
-21.5651934264
 10
-11.1128362309
 20
-21.5638478883
 10
-11.1124209007
 20
-21.5622151591
 10
-11.1120067963
 20
-21.5602963565
 10
-11.1115946564
 20
-21.5580948338
 10
-11.1111844914
 20
-21.5556101097
 10
-11.1107762908
 20
-21.5528426656
 10
-11.1103707621
 20
-21.5497972982
 10
-11.1099679108
 20
-21.546473531
 10
-11.1095677314
 20
-21.5428718405
 10
-11.1091709148
 20
-21.5389984542
 10
-11.1087774664
 20
-21.5348528993
 10
-11.1083873809
 20
-21.5304356486
 10
-11.1080013328
 20
-21.5257543471
 10
-11.1076193292
 20
-21.5208085375
 10
-11.1068680876
 20
-21.5101337836
  0
LINE
  5
2FA
100
AcDbEntity
  8
ASSI
100
AcDbLine
 62
7
  6
CONTINUOUS
 10
-8.6048891465
 20
0.0906027219
 11
-8.342423156
 21
0.1167833252
  0
LWPOLYLINE
  5
2FB
100
AcDbEntity
  8
ASSI
100
AcDbPolyline
 62
253
  6
CONTINUOUS
 90
6
 70
0
 10
-11.0602313297
 20
0.3860667195
 10
-11.059533036
 20
0.3861344052
 10
-11.0584310971
 20
0.3862018846
 10
-11.0569264043
 20
0.3862691487
 10
-11.0550201787
 20
0.3863362324
 10
-11.0527139598
 20
0.3864030825
  0
LINE
  5
2FC
100
AcDbEntity
  8
ASSI
100
AcDbLine
 62
253
  6
CONTINUOUS
 10
-10.8037231123
 20
0.136505949
 11
-10.8000338592
 21
0.1366258088
  0
LINE
  5
2FD
100
AcDbEntity
  8
ASSI
100
AcDbLine
 62
253
  6
CONTINUOUS
 10
-10.8000338592
 20
0.1366258088
 11
-10.7955691308
 21
0.1367436421
  0
LINE
  5
2FE
100
AcDbEntity
  8
ASSI
100
AcDbLine
 62
253
  6
CONTINUOUS
 10
-11.0527139598
 20
0.3864030825
 11
-11.0469092526
 21
0.3865356489
  0
LINE
  5
2FF
100
AcDbEntity
  8
ASSI
100
AcDbLine
 62
253
  6
CONTINUOUS
 10
-10.7955691308
 20
0.1367436421
 11
-10.7874527234
 21
0.1369157416
  0
LINE
  5
300
100
AcDbEntity
  8
ASSI
100
AcDbLine
 62
253
  6
CONTINUOUS
 10
-11.0469092526
 20
0.3865356489
 11
-11.0352591402
 21
0.3867311218
  0
LINE
  5
301
100
AcDbEntity
  8
ASSI
100
AcDbLine
 62
253
  6
CONTINUOUS
 10
-10.7874527234
 20
0.1369157416
 11
-10.7702927289
 21
0.1371871443
  0
LINE
  5
302
100
AcDbEntity
  8
ASSI
100
AcDbLine
 62
253
  6
CONTINUOUS
 10
-11.0352591402
 20
0.3867311218
 11
-11.0082194284
 21
0.3870442855
  0
LINE
  5
303
100
AcDbEntity
  8
ASSI
100
AcDbLine
 62
253
  6
CONTINUOUS
 10
-10.7702927289
 20
0.1371871443
 11
-10.7392427667
 21
0.1375257708
  0
LINE
  5
304
100
AcDbEntity
  8
ASSI
100
AcDbLine
 62
253
  6
CONTINUOUS
 10
-10.7392427667
 20
0.1375257708
 11
-10.7182417839
 21
0.1376929479
  0
LINE
  5
305
100
AcDbEntity
  8
ASSI
100
AcDbLine
 62
253
  6
CONTINUOUS
 10
-11.0082194284
 20
0.3870442855
 11
-10.917952405
 21
0.3876501666
  0
LINE
  5
306
100
AcDbEntity
  8
ASSI
100
AcDbLine
 62
253
  6
CONTINUOUS
 10
-10.917952405
 20
0.3876501666
 11
10.7126488965
 21
0.3877445038
  0
LINE
  5
307
100
AcDbEntity
  8
ASSI
100
AcDbLine
 62
253
  6
CONTINUOUS
 10
10.7126488965
 20
0.3877445038
 11
10.8168597121
 21
0.3871045475
  0
LINE
  5
308
100
AcDbEntity
  8
ASSI
100
AcDbLine
 62
253
  6
CONTINUOUS
 10
10.5333954719
 20
0.1376929479
 11
10.5773726196
 21
0.1372893131
  0
LINE
  5
309
100
AcDbEntity
  8
ASSI
100
AcDbLine
 62
253
  6
CONTINUOUS
 10
10.8168597121
 20
0.3871045475
 11
10.8457569423
 21
0.3867951807
  0
LINE
  5
30A
100
AcDbEntity
  8
ASSI
100
AcDbLine
 62
253
  6
CONTINUOUS
 10
10.5773726196
 20
0.1372893131
 11
10.596275794
 21
0.1370268193
  0
LINE
  5
30B
100
AcDbEntity
  8
ASSI
100
AcDbLine
 62
253
  6
CONTINUOUS
 10
10.8457569423
 20
0.3867951807
 11
10.8585691304
 21
0.386601347
  0
LINE
  5
30C
100
AcDbEntity
  8
ASSI
100
AcDbLine
 62
253
  6
CONTINUOUS
 10
10.596275794
 20
0.1370268193
 11
10.6082056452
 21
0.1368016577
  0
LWPOLYLINE
  5
30D
100
AcDbEntity
  8
ASSI
100
AcDbPolyline
 62
253
  6
CONTINUOUS
 90
8
 70
0
 10
10.8585691304
 20
0.386601347
 10
10.865163284
 20
0.3864695575
 10
10.8678676478
 20
0.3864030825
 10
10.8701738668
 20
0.3863362324
 10
10.8720800924
 20
0.3862691487
 10
10.8735847852
 20
0.3862018846
 10
10.8746867241
 20
0.3861344052
 10
10.8753850178
 20
0.3860667195
  0
LINE
  5
30E
100
AcDbEntity
  8
ASSI
100
AcDbLine
 62
253
  6
CONTINUOUS
 10
10.6082056452
 20
0.1368016577
 11
10.6130520006
 21
0.1366849785
  0
LWPOLYLINE
  5
30F
100
AcDbEntity
  8
ASSI
100
AcDbPolyline
 62
253
  6
CONTINUOUS
 90
10
 70
0
 10
10.6130520006
 20
0.1366849785
 10
10.6171289913
 20
0.1365661319
 10
10.6188768004
 20
0.136505949
 10
10.6204267347
 20
0.1364454062
 10
10.6217783162
 20
0.136384502
 10
10.6229320229
 20
0.136323238
 10
10.6238850496
 20
0.1362617654
 10
10.6246364611
 20
0.1362001348
 10
10.6251871926
 20
0.1361382956
 10
10.6255372441
 20
0.1360762478
  0
LINE
  5
310
100
AcDbEntity
  8
ASSI
100
AcDbLine
 62
7
  6
CONTINUOUS
 10
8.4200428346
 20
0.0906027219
 11
8.157576844
 21
0.1167833252
  0
LWPOLYLINE
  5
311
100
AcDbEntity
  8
0
100
AcDbPolyline
 62
253
  6
CONTINUOUS
 90
53
 70
0
 10
2.8521567367
 20
12.8897666363
 10
2.8521131605
 20
12.8868935571
 10
2.8519833602
 20
12.8840644722
 10
2.8517687281
 20
12.8812695765
 10
2.8514706565
 20
12.8784990655
 10
2.8510905379
 20
12.8757431341
 10
2.8506297646
 20
12.8729919776
 10
2.8500892247
 20
12.8702378964
 10
2.8494677897
 20
12.8674816119
 10
2.8487638267
 20
12.8647259506
 10
2.8479757029
 20
12.8619737392
 10
2.8471017854
 20
12.8592278041
 10
2.8461404413
 20
12.8564909721
 10
2.8450903056
 20
12.8537665668
 10
2.8439510841
 20
12.8510599002
 10
2.8427227505
 20
12.8483767817
 10
2.8414052783
 20
12.8457230204
 10
2.839998641
 20
12.8431044256
 10
2.8385028124
 20
12.8405268064
 10
2.8371495576
 20
12.8383543649
 10
2.835730097
 20
12.836219532
 10
2.8342437725
 20
12.8341255438
 10
2.8326899263
 20
12.8320756362
 10
2.8310679003
 20
12.8300730453
 10
2.8293770365
 20
12.8281210071
 10
2.8276166768
 20
12.8262227576
 10
2.8257865285
 20
12.8243810337
 10
2.8238877595
 20
12.8225965751
 10
2.8219219028
 20
12.8208696224
 10
2.8198904915
 20
12.8192004162
 10
2.8177950586
 20
12.8175891972
 10
2.8156371373
 20
12.8160362058
 10
2.8134182607
 20
12.8145416826
 10
2.8111401231
 20
12.8131058476
 10
2.8088050649
 20
12.811728838
 10
2.8064155877
 20
12.8104107701
 10
2.8039741931
 20
12.8091517606
 10
2.8014833827
 20
12.8079519259
 10
2.7989456582
 20
12.8068113825
 10
2.7963635212
 20
12.8057302469
 10
2.7932982913
 20
12.8045440158
 10
2.7901803378
 20
12.8034381098
 10
2.7870139821
 20
12.8024118349
 10
2.783803546
 20
12.8014644971
 10
2.780553351
 20
12.8005954022
 10
2.7772677188
 20
12.7998038563
 10
2.7744249792
 20
12.7991866558
 10
2.7715527758
 20
12.7986259089
 10
2.7686445052
 20
12.7981216041
 10
2.7656935641
 20
12.7976737302
 10
2.762693349
 20
12.7972822759
 10
2.7596372566
 20
12.7969472298
 10
2.7565186835
 20
12.7966685808
  0
LWPOLYLINE
  5
312
100
AcDbEntity
  8
0
100
AcDbPolyline
 62
253
  6
CONTINUOUS
 90
55
 70
0
 10
1.5729083992
 20
-13.5012421339
 10
1.572803077
 20
-13.5078199564
 10
1.5724892084
 20
-13.5143369139
 10
1.5719699402
 20
-13.5208096277
 10
1.5712484195
 20
-13.527254719
 10
1.570327793
 20
-13.5336888092
 10
1.5692103247
 20
-13.540125162
 10
1.5678947457
 20
-13.5465636107
 10
1.5663789043
 20
-13.5530006313
 10
1.5646606484
 20
-13.5594326997
 10
1.5627378264
 20
-13.5658562916
 10
1.5606086178
 20
-13.5722667187
 10
1.5582725292
 20
-13.5786546351
 10
1.5557293985
 20
-13.5850095306
 10
1.5529790637
 20
-13.5913208953
 10
1.550021363
 20
-13.5975782188
 10
1.5473995155
 20
-13.602742026
 10
1.544642005
 20
-13.607844333
 10
1.5417572848
 20
-13.612868467
 10
1.538751005
 20
-13.6178021279
 10
1.5356176009
 20
-13.6226505069
 10
1.5323487046
 20
-13.6274231681
 10
1.5289378713
 20
-13.632126524
 10
1.5253863506
 20
-13.636754381
 10
1.5216973157
 20
-13.6412973939
 10
1.5178739396
 20
-13.6457462174
 10
1.5139193953
 20
-13.6500915064
 10
1.509836856
 20
-13.6543239157
 10
1.5056304122
 20
-13.6584351263
 10
1.5013078235
 20
-13.6624209239
 10
1.4968777672
 20
-13.6662781206
 10
1.4923489202
 20
-13.6700035283
 10
1.4877299597
 20
-13.6735939589
 10
1.4830295628
 20
-13.6770462246
 10
1.4782533248
 20
-13.6803590067
 10
1.4733945136
 20
-13.6835384651
 10
1.4684433155
 20
-13.686592629
 10
1.4633946295
 20
-13.6895265448
 10
1.4582622066
 20
-13.6923333258
 10
1.4530645108
 20
-13.6950031025
 10
1.4467637654
 20
-13.6980149285
 10
1.4404074365
 20
-13.700815217
 10
1.4340073453
 20
-13.7034039289
 10
1.4275753133
 20
-13.7057810251
 10
1.4211231619
 20
-13.7079464663
 10
1.4146612261
 20
-13.7099006555
 10
1.408193897
 20
-13.7116457629
 10
1.4017240789
 20
-13.7131844006
 10
1.3952546766
 20
-13.714519181
 10
1.3887885947
 20
-13.7156527161
 10
1.3823254367
 20
-13.7165866413
 10
1.3758516018
 20
-13.717318684
 10
1.369350188
 20
-13.7178455948
 10
1.3628042933
 20
-13.7181641242
 10
1.3561970158
 20
-13.7182710227
  0
LINE
  5
313
100
AcDbEntity
  8
ASSI
100
AcDbLine
 62
253
  6
CONTINUOUS
 10
-11.2161158466
 20
-21.7201445859
 11
-11.1140888376
 21
-21.5670262827
  0
LINE
  5
314
100
AcDbEntity
  8
ASSI
100
AcDbLine
 62
253
  6
CONTINUOUS
 10
-10.7152049612
 20
-22.2176352187
 11
-10.614393424
 21
-22.0663410501
  0
LINE
  5
315
100
AcDbEntity
  8
ASSI
100
AcDbLine
 62
253
  6
CONTINUOUS
 10
-10.9923469542
 20
0.0906027219
 11
-10.810383556
 21
0.1360762478
  0
LINE
  5
316
100
AcDbEntity
  8
ASSI
100
AcDbLine
 62
253
  6
CONTINUOUS
 10
-11.242423156
 20
0.3405361006
 11
-11.0602313297
 21
0.3860667119
  0
LWPOLYLINE
  5
317
100
AcDbEntity
  8
ASSI
100
AcDbPolyline
 62
253
  6
CONTINUOUS
 90
8
 70
0
 10
-10.810383556
 20
0.1360762478
 10
-10.8100335045
 20
0.1361382956
 10
-10.809482773
 20
0.1362001348
 10
-10.8087313615
 20
0.1362617654
 10
-10.8077783348
 20
0.136323238
 10
-10.8066246281
 20
0.136384502
 10
-10.8052730467
 20
0.1364454062
 10
-10.8037231123
 20
0.136505949
  0
LINE
  5
318
100
AcDbEntity
  8
ASSI
100
AcDbLine
 62
253
  6
CONTINUOUS
 10
10.6255372441
 20
0.1360762478
 11
10.8075006423
 21
0.0906027219
  0
LINE
  5
319
100
AcDbEntity
  8
ASSI
100
AcDbLine
 62
253
  6
CONTINUOUS
 10
10.8753850178
 20
0.3860667119
 11
11.057576844
 21
0.3405361006
  0
LINE
  5
31A
100
AcDbEntity
  8
ASSI
100
AcDbLine
 62
253
  6
CONTINUOUS
 10
-11.1140888376
 20
21.5482317264
 11
-11.2161158466
 21
21.7013500296
  0
LINE
  5
31B
100
AcDbEntity
  8
ASSI
100
AcDbLine
 62
253
  6
CONTINUOUS
 10
-10.614393424
 20
22.0475464938
 11
-10.7152049612
 21
22.1988406624
  0
LWPOLYLINE
  5
31C
100
AcDbEntity
  8
0
100
AcDbPolyline
 62
253
  6
CONTINUOUS
 90
54
 70
0
 10
-2.791228374
 20
11.2105444145
 10
-2.7988714375
 20
11.2244158854
 10
-2.8058966879
 20
11.2385113661
 10
-2.8123493706
 20
11.2529101442
 10
-2.818274731
 20
11.2676915072
 10
-2.823705451
 20
11.2829192374
 10
-2.828623958
 20
11.2985950963
 10
-2.8330001159
 20
11.3147053399
 10
-2.8368037888
 20
11.3312362244
 10
-2.8394137332
 20
11.3447520445
 10
-2.8416192513
 20
11.3585061641
 10
-2.8434015941
 20
11.3724764687
 10
-2.8447420128
 20
11.3866408438
 10
-2.8456217586
 20
11.4009771749
 10
-2.8460242629
 20
11.4154651571
 10
-2.8459416783
 20
11.4300917241
 10
-2.8453683374
 20
11.4448456191
 10
-2.8442985732
 20
11.4597155855
 10
-2.8427267183
 20
11.4746903666
 10
-2.8406485854
 20
11.4897590313
 10
-2.8380659064
 20
11.5049119508
 10
-2.8349818929
 20
11.5201398221
 10
-2.8313997566
 20
11.5354333421
 10
-2.8273227092
 20
11.5507832076
 10
-2.8227538659
 20
11.5661802413
 10
-2.8176959566
 20
11.5816157683
 10
-2.8121516149
 20
11.5970812397
 10
-2.806123474
 20
11.6125681064
 10
-2.7996141677
 20
11.6280678193
 10
-2.7908055513
 20
11.6474458206
 10
-2.7812582345
 20
11.6668037531
 10
-2.7709812229
 20
11.6861148338
 10
-2.7599835225
 20
11.7053522796
 10
-2.748274139
 20
11.7244893072
 10
-2.7358620782
 20
11.7434991337
 10
-2.722756346
 20
11.7623549759
 10
-2.7089659482
 20
11.7810300507
 10
-2.694499229
 20
11.799500919
 10
-2.6793618854
 20
11.8177575173
 10
-2.6635589531
 20
11.8357931263
 10
-2.6470954675
 20
11.8536010263
 10
-2.6299764642
 20
11.871174498
 10
-2.6122069786
 20
11.888506822
 10
-2.5937920462
 20
11.9055912787
 10
-2.5747367026
 20
11.9224211486
 10
-2.5572634339
 20
11.9371614836
 10
-2.539281914
 20
11.9516882934
 10
-2.5207859169
 20
11.9659945171
 10
-2.5017692168
 20
11.9800730937
 10
-2.4822255877
 20
11.9939169623
 10
-2.4621488037
 20
12.0075190619
 10
-2.4415326389
 20
12.0208723314
 10
-2.4203708673
 20
12.03396971
 10
-2.398657263
 20
12.0468041366
  0
LWPOLYLINE
  5
31D
100
AcDbEntity
  8
ASSI
100
AcDbPolyline
 62
253
  6
CONTINUOUS
 90
13
 70
0
 10
10.4295471121
 20
22.0475464938
 10
10.4291282491
 20
22.0460017204
 10
10.4287106421
 20
22.0438818867
 10
10.4282942911
 20
22.0411882229
 10
10.4278789619
 20
22.0379222963
 10
10.4274648886
 20
22.034085994
 10
10.4270527739
 20
22.0296815118
 10
10.4266426131
 20
22.0247113719
 10
10.4262344107
 20
22.0191784527
 10
10.4258288829
 20
22.0130859726
 10
10.4254260392
 20
22.0064374662
 10
10.42502587
 20
21.9992367619
 10
10.4242356211
 20
21.9831956579
  0
LWPOLYLINE
  5
31E
100
AcDbEntity
  8
0
100
AcDbPolyline
 62
253
  6
CONTINUOUS
 90
31
 70
0
 10
-0.7414492828
 20
13.4043988584
 10
-0.739179586
 20
13.4009261455
 10
-0.736976761
 20
13.3974136182
 10
-0.7348404874
 20
13.3938607338
 10
-0.7327704453
 20
13.3902669498
 10
-0.7307663144
 20
13.3866317236
 10
-0.7288277746
 20
13.3829545127
 10
-0.7269545059
 20
13.3792347746
 10
-0.725146547
 20
13.3754722314
 10
-0.7234053724
 20
13.371667664
 10
-0.7217328155
 20
13.3678221182
 10
-0.72013071
 20
13.3639366396
 10
-0.7186008891
 20
13.360012274
 10
-0.7171451864
 20
13.3560500669
 10
-0.7157654353
 20
13.3520510641
 10
-0.7146219612
 20
13.34852271
 10
-0.7135396458
 20
13.3449684973
 10
-0.7125200938
 20
13.3413899384
 10
-0.7115649097
 20
13.3377885457
 10
-0.7106756981
 20
13.3341658318
 10
-0.7098540635
 20
13.3305233091
 10
-0.7091016106
 20
13.3268624902
 10
-0.7084199439
 20
13.3231848873
 10
-0.7078107475
 20
13.3194916746
 10
-0.7072760236
 20
13.315782672
 10
-0.7068178537
 20
13.3120573607
 10
-0.7064383195
 20
13.3083152223
 10
-0.7061395027
 20
13.3045557382
 10
-0.7059234848
 20
13.3007783896
 10
-0.7057923476
 20
13.2969826581
 10
-0.7057481726
 20
13.2931680251
  0
LINE
  5
31F
100
AcDbEntity
  8
0
100
AcDbLine
 62
253
  6
CONTINUOUS
 10
-0.820471503
 20
12.4480183031
 11
-1.4234383743
 21
13.3996363584
  0
LINE
  5
320
100
AcDbEntity
  8
0
100
AcDbLine
 62
253
  6
CONTINUOUS
 10
-1.4552589299
 20
14.5711055248
 11
-0.7389092828
 21
13.4063391362
  0
LWPOLYLINE
  5
321
100
AcDbEntity
  8
0
100
AcDbPolyline
 62
253
  6
CONTINUOUS
 90
39
 70
0
 10
1.4677509386
 20
13.171106914
 10
1.4670592087
 20
13.1731584626
 10
1.4664263569
 20
13.1752079101
 10
1.4658500215
 20
13.1772578194
 10
1.4653278408
 20
13.1793107531
 10
1.4648574532
 20
13.1813692742
 10
1.464436497
 20
13.1834359452
 10
1.4640626104
 20
13.185513329
 10
1.4636833839
 20
13.1879529321
 10
1.4633650659
 20
13.1904088526
 10
1.4631077125
 20
13.1928793387
 10
1.4629113796
 20
13.1953626384
 10
1.4627761232
 20
13.1978569995
 10
1.4627019994
 20
13.2003606702
 10
1.4626890383
 20
13.2028717358
 10
1.4627371664
 20
13.2053876309
 10
1.4628462843
 20
13.2079056275
 10
1.4630162926
 20
13.2104229976
 10
1.4632470921
 20
13.2129370132
 10
1.4635385832
 20
13.2154449462
 10
1.4638906631
 20
13.2179440781
 10
1.4643032139
 20
13.2204317282
 10
1.4647761144
 20
13.2229052252
 10
1.4653092431
 20
13.2253618979
 10
1.4659024787
 20
13.2277990751
 10
1.4665556999
 20
13.2302140856
 10
1.4672688154
 20
13.2326044215
 10
1.4680418547
 20
13.2349682293
 10
1.4688748777
 20
13.2373038191
 10
1.4697679439
 20
13.2396095007
 10
1.4707211131
 20
13.2418835842
 10
1.4717344451
 20
13.2441243795
 10
1.4726514417
 20
13.2460176558
 10
1.4736156998
 20
13.2478863912
 10
1.4746302362
 20
13.2497317434
 10
1.4756980672
 20
13.2515548698
 10
1.4768222095
 20
13.253356928
 10
1.4780056795
 20
13.2551390754
 10
1.4792514939
 20
13.2569024696
  0
LINE
  5
322
100
AcDbEntity
  8
0
100
AcDbLine
 62
253
  6
CONTINUOUS
 10
2.3056318893
 20
14.159138842
 11
2.8304619024
 21
12.949350803
  0
LWPOLYLINE
  5
323
100
AcDbEntity
  8
ASSI
100
AcDbPolyline
 62
253
  6
CONTINUOUS
 90
17
 70
0
 10
10.9227730173
 20
-21.5208085375
 10
10.9231550209
 20
-21.5257543471
 10
10.923541069
 20
-21.5304356486
 10
10.9239311545
 20
-21.5348528993
 10
10.9243246029
 20
-21.5389984542
 10
10.9247214195
 20
-21.5428718405
 10
10.9251215989
 20
-21.546473531
 10
10.9255244502
 20
-21.5497972982
 10
10.9259299789
 20
-21.5528426656
 10
10.9263381795
 20
-21.5556101097
 10
10.9267483445
 20
-21.5580948338
 10
10.9271604844
 20
-21.5602963565
 10
10.9275745888
 20
-21.5622151591
 10
10.927989919
 20
-21.5638478883
 10
10.9284062287
 20
-21.5651934264
 10
10.9288237643
 20
-21.5662528912
 10
10.9292425256
 20
-21.5670262827
  0
LINE
  5
324
100
AcDbEntity
  8
ASSI
100
AcDbLine
 62
253
  6
CONTINUOUS
 10
10.9220217757
 20
-21.5101337836
 11
10.9227730173
 21
-21.5208085375
  0
LINE
  5
325
100
AcDbEntity
  8
ASSI
100
AcDbLine
 62
253
  6
CONTINUOUS
 10
10.921289314
 20
-21.4984380129
 11
10.9220217757
 21
-21.5101337836
  0
LWPOLYLINE
  5
326
100
AcDbEntity
  8
ASSI
100
AcDbPolyline
 62
253
  6
CONTINUOUS
 90
11
 70
0
 10
10.4254260392
 20
-22.0252320225
 10
10.4258288829
 20
-22.0318805289
 10
10.4262344107
 20
-22.037973009
 10
10.4266426131
 20
-22.0435059282
 10
10.4270527739
 20
-22.0484760681
 10
10.4274648886
 20
-22.0528805503
 10
10.4278789619
 20
-22.0567168526
 10
10.4282942911
 20
-22.0599827792
 10
10.4287106421
 20
-22.062676443
 10
10.4291282491
 20
-22.0647962767
 10
10.4295471121
 20
-22.0663410501
  0
LINE
  5
327
100
AcDbEntity
  8
ASSI
100
AcDbLine
 62
253
  6
CONTINUOUS
 10
10.9205775126
 20
-21.4857527176
 11
10.921289314
 21
-21.4984380129
  0
LINE
  5
328
100
AcDbEntity
  8
ASSI
100
AcDbLine
 62
253
  6
CONTINUOUS
 10
10.4246290627
 20
-22.0102825607
 11
10.4254260392
 21
-22.0252320225
  0
LINE
  5
329
100
AcDbEntity
  8
ASSI
100
AcDbLine
 62
253
  6
CONTINUOUS
 10
10.9198876014
 20
-21.4720998397
 11
10.9205775126
 21
-21.4857527176
  0
LINE
  5
32A
100
AcDbEntity
  8
ASSI
100
AcDbLine
 62
253
  6
CONTINUOUS
 10
10.9192213933
 20
-21.4575137802
 11
10.9198876014
 21
-21.4720998397
  0
LINE
  5
32B
100
AcDbEntity
  8
ASSI
100
AcDbLine
 62
253
  6
CONTINUOUS
 10
10.4238455413
 20
-21.9931590712
 11
10.4246290627
 21
-22.0102825607
  0
LINE
  5
32C
100
AcDbEntity
  8
ASSI
100
AcDbLine
 62
253
  6
CONTINUOUS
 10
10.918580592
 20
-21.4420334485
 11
10.9192213933
 21
-21.4575137802
  0
LINE
  5
32D
100
AcDbEntity
  8
ASSI
100
AcDbLine
 62
253
  6
CONTINUOUS
 10
10.4230775025
 20
-21.9739011191
 11
10.4238455413
 21
-21.9931590712
  0
LINE
  5
32E
100
AcDbEntity
  8
ASSI
100
AcDbLine
 62
253
  6
CONTINUOUS
 10
10.4219577055
 20
-21.9411106869
 11
10.4230775025
 21
-21.9739011191
  0
LINE
  5
32F
100
AcDbEntity
  8
ASSI
100
AcDbLine
 62
253
  6
CONTINUOUS
 10
10.420882038
 20
-21.9037892854
 11
10.4219577055
 21
-21.9411106869
  0
LINE
  5
330
100
AcDbEntity
  8
ASSI
100
AcDbLine
 62
253
  6
CONTINUOUS
 10
10.4195259431
 20
-21.8473174725
 11
10.420882038
 21
-21.9037892854
  0
LWPOLYLINE
  5
331
100
AcDbEntity
  8
ASSI
100
AcDbPolyline
 62
253
  6
CONTINUOUS
 90
3
 70
0
 10
10.4176847351
 20
-21.7493154788
 10
10.4179742919
 20
-21.7666886361
 10
10.4195259431
 20
-21.8473174725
  0
LINE
  5
332
100
AcDbEntity
  8
ASSI
100
AcDbLine
 62
253
  6
CONTINUOUS
 10
10.4192022967
 20
21.8132601547
 11
10.4176847351
 21
21.7305209225
  0
LINE
  5
333
100
AcDbEntity
  8
ASSI
100
AcDbLine
 62
253
  6
CONTINUOUS
 10
10.4205341283
 20
21.8715802365
 11
10.4192022967
 21
21.8132601547
  0
LINE
  5
334
100
AcDbEntity
  8
ASSI
100
AcDbLine
 62
253
  6
CONTINUOUS
 10
10.4215938266
 20
21.9103700001
 11
10.4205341283
 21
21.8715802365
  0
LINE
  5
335
100
AcDbEntity
  8
ASSI
100
AcDbLine
 62
253
  6
CONTINUOUS
 10
10.4226995435
 20
21.9446908696
 11
10.4215938266
 21
21.9103700001
  0
LINE
  5
336
100
AcDbEntity
  8
ASSI
100
AcDbLine
 62
253
  6
CONTINUOUS
 10
10.4234594993
 20
21.9649996812
 11
10.4226995435
 21
21.9446908696
  0
LINE
  5
337
100
AcDbEntity
  8
ASSI
100
AcDbLine
 62
253
  6
CONTINUOUS
 10
10.4242356211
 20
21.9831956579
 11
10.4234594993
 21
21.9649996812
  0
LINE
  5
338
100
AcDbEntity
  8
ASSI
100
AcDbLine
 62
253
  6
CONTINUOUS
 10
10.919551537
 20
21.4461287993
 11
10.918580592
 21
21.4232388923
  0
LINE
  5
339
100
AcDbEntity
  8
ASSI
100
AcDbLine
 62
253
  6
CONTINUOUS
 10
10.9202295966
 20
21.460248268
 11
10.919551537
 21
21.4461287993
  0
LINE
  5
33A
100
AcDbEntity
  8
ASSI
100
AcDbLine
 62
253
  6
CONTINUOUS
 10
10.9209307486
 20
21.4734233638
 11
10.9202295966
 21
21.460248268
  0
LINE
  5
33B
100
AcDbEntity
  8
ASSI
100
AcDbLine
 62
253
  6
CONTINUOUS
 10
10.9216531994
 20
21.4856188586
 11
10.9209307486
 21
21.4734233638
  0
LWPOLYLINE
  5
33C
100
AcDbEntity
  8
0
100
AcDbPolyline
 62
253
  6
CONTINUOUS
 90
43
 70
0
 10
-2.2322937259
 20
-11.3746271344
 10
-2.2304602659
 20
-11.3735584082
 10
-2.2286190431
 20
-11.3725526032
 10
-2.2267688621
 20
-11.3716068062
 10
-2.2249085274
 20
-11.3707181041
 10
-2.2230368435
 20
-11.3698835837
 10
-2.2211526151
 20
-11.3691003319
 10
-2.2192546466
 20
-11.3683654354
 10
-2.2173417427
 20
-11.3676759811
 10
-2.2151363231
 20
-11.366940622
 10
-2.2129115188
 20
-11.3662605555
 10
-2.2106690142
 20
-11.3656355262
 10
-2.2084104937
 20
-11.3650652785
 10
-2.2061376414
 20
-11.3645495569
 10
-2.2038521419
 20
-11.3640881061
 10
-2.2015556794
 20
-11.3636806705
 10
-2.1992500003
 20
-11.3633269955
 10
-2.1969370996
 20
-11.3630268301
 10
-2.1946190341
 20
-11.3627799244
 10
-2.1922978611
 20
-11.3625860283
 10
-2.1899756373
 20
-11.3624448918
 10
-2.1876544199
 20
-11.3623562647
 10
-2.1853362659
 20
-11.362319897
 10
-2.1826384022
 20
-11.3623431861
 10
-2.1799509747
 20
-11.3624368768
 10
-2.1772774502
 20
-11.3626005805
 10
-2.1746212953
 20
-11.3628339082
 10
-2.171985977
 20
-11.3631364712
 10
-2.1693749619
 20
-11.3635078805
 10
-2.1671587341
 20
-11.3638807329
 10
-2.1649639744
 20
-11.3643036363
 10
-2.1627917485
 20
-11.3647763468
 10
-2.1606431222
 20
-11.3652986199
 10
-2.158519161
 20
-11.3658702117
 10
-2.1564209306
 20
-11.3664908777
 10
-2.1543494967
 20
-11.367160374
 10
-2.1523053758
 20
-11.3678790359
 10
-2.1502868885
 20
-11.3686495177
 10
-2.148291806
 20
-11.3694750533
 10
-2.1463178995
 20
-11.3703588766
 10
-2.1443629406
 20
-11.3713042216
 10
-2.1424247005
 20
-11.3723143222
 10
-0.5699696017
 20
-12.2500804676
  0
LWPOLYLINE
  5
33D
100
AcDbEntity
  8
0
100
AcDbPolyline
 62
253
  6
CONTINUOUS
 90
43
 70
0
 10
-0.5241084917
 20
-11.3746271344
 10
-0.5222749912
 20
-11.3735583416
 10
-0.5204337264
 20
-11.372552478
 10
-0.5185835022
 20
-11.3716066299
 10
-0.5167231235
 20
-11.3707178838
 10
-0.5148513954
 20
-11.369883326
 10
-0.5129671227
 20
-11.369100043
 10
-0.5110691106
 20
-11.368365121
 10
-0.5091561639
 20
-11.3676756466
 10
-0.5069506971
 20
-11.3669402704
 10
-0.5047258476
 20
-11.3662601928
 10
-0.5024833
 20
-11.3656351579
 10
-0.5002247389
 20
-11.3650649097
 10
-0.4979518489
 20
-11.3645491924
 10
-0.4956663144
 20
-11.3640877499
 10
-0.49336982
 20
-11.3636803265
 10
-0.4910641124
 20
-11.3633266671
 10
-0.4887511865
 20
-11.3630265204
 10
-0.4864330994
 20
-11.3627796359
 10
-0.4841119081
 20
-11.3625857634
 10
-0.4817896696
 20
-11.3624446522
 10
-0.479468441
 20
-11.3623560521
 10
-0.4771502793
 20
-11.3623197126
 10
-0.4744524112
 20
-11.3623430355
 10
-0.4717649846
 20
-11.3624367605
 10
-0.4690914663
 20
-11.3626004983
 10
-0.4664353235
 20
-11.3628338594
 10
-0.4638000231
 20
-11.3631364544
 10
-0.4611890323
 20
-11.3635078938
 10
-0.4589728305
 20
-11.3638807698
 10
-0.4567781014
 20
-11.3643036947
 10
-0.4546059105
 20
-11.3647764238
 10
-0.4524573234
 20
-11.3652987125
 10
-0.4503334055
 20
-11.3658703164
 10
-0.4482352222
 20
-11.3664909907
 10
-0.446163839
 20
-11.367160491
 10
-0.4441197724
 20
-11.3678791522
 10
-0.4421013422
 20
-11.3686496285
 10
-0.4401063192
 20
-11.3694751533
 10
-0.4381324743
 20
-11.3703589605
 10
-0.4361775783
 20
-11.3713042836
 10
-0.434239402
 20
-11.3723143563
 10
1.1394503547
 20
-12.2507154676
  0
LINE
  5
33E
100
AcDbEntity
  8
ASSI
100
AcDbLine
 62
253
  6
CONTINUOUS
 10
-11.0337468721
 20
9.4840284933
 11
-11.02329854
 21
9.4845379704
  0
LINE
  5
33F
100
AcDbEntity
  8
ASSI
100
AcDbLine
 62
253
  6
CONTINUOUS
 10
-11.02329854
 20
9.4845379704
 11
-11.0113633229
 21
9.4850363343
  0
LINE
  5
340
100
AcDbEntity
  8
ASSI
100
AcDbLine
 62
253
  6
CONTINUOUS
 10
-11.0113633229
 20
9.4850363343
 11
-10.9979798316
 21
9.4855219728
  0
LINE
  5
341
100
AcDbEntity
  8
ASSI
100
AcDbLine
 62
253
  6
CONTINUOUS
 10
-10.9979798316
 20
9.4855219728
 11
-10.9752850378
 21
9.4862231464
  0
LINE
  5
342
100
AcDbEntity
  8
ASSI
100
AcDbLine
 62
253
  6
CONTINUOUS
 10
-10.9752850378
 20
9.4862231464
 11
-10.9403981311
 21
9.4870992439
  0
LINE
  5
343
100
AcDbEntity
  8
ASSI
100
AcDbLine
 62
253
  6
CONTINUOUS
 10
-10.9403981311
 20
9.4870992439
 11
-10.8899988072
 21
9.4880841009
  0
LINE
  5
344
100
AcDbEntity
  8
ASSI
100
AcDbLine
 62
253
  6
CONTINUOUS
 10
-10.8899988072
 20
9.4880841009
 11
-10.8209219482
 21
9.4890783131
  0
LINE
  5
345
100
AcDbEntity
  8
ASSI
100
AcDbLine
 62
253
  6
CONTINUOUS
 10
-10.8209219482
 20
9.4890783131
 11
-10.7310400942
 21
9.4899437094
  0
LINE
  5
346
100
AcDbEntity
  8
ASSI
100
AcDbLine
 62
253
  6
CONTINUOUS
 10
-10.7310400942
 20
9.4899437094
 11
-10.6204415036
 21
9.4905036512
  0
LINE
  5
347
100
AcDbEntity
  8
ASSI
100
AcDbLine
 62
253
  6
CONTINUOUS
 10
-10.6204415036
 20
9.4905036512
 11
10.3788328026
 21
9.4906027219
  0
LINE
  5
348
100
AcDbEntity
  8
ASSI
100
AcDbLine
 62
253
  6
CONTINUOUS
 10
10.4916236616
 20
9.4902830295
 11
10.3788328026
 21
9.4906027219
  0
LINE
  5
349
100
AcDbEntity
  8
ASSI
100
AcDbLine
 62
253
  6
CONTINUOUS
 10
10.59859998
 20
9.4894900783
 11
10.4916236616
 21
9.4902830295
  0
LINE
  5
34A
100
AcDbEntity
  8
ASSI
100
AcDbLine
 62
253
  6
CONTINUOUS
 10
10.6716794971
 20
9.4886085145
 11
10.59859998
 21
9.4894900783
  0
LINE
  5
34B
100
AcDbEntity
  8
ASSI
100
AcDbLine
 62
253
  6
CONTINUOUS
 10
10.726163045
 20
9.487706019
 11
10.6716794971
 21
9.4886085145
  0
LINE
  5
34C
100
AcDbEntity
  8
ASSI
100
AcDbLine
 62
253
  6
CONTINUOUS
 10
10.7647489328
 20
9.4868870618
 11
10.726163045
 21
9.487706019
  0
LINE
  5
34D
100
AcDbEntity
  8
ASSI
100
AcDbLine
 62
253
  6
CONTINUOUS
 10
10.7904387259
 20
9.4862231464
 11
10.7647489328
 21
9.4868870618
  0
LINE
  5
34E
100
AcDbEntity
  8
ASSI
100
AcDbLine
 62
253
  6
CONTINUOUS
 10
10.8131335197
 20
9.4855219728
 11
10.7904387259
 21
9.4862231464
  0
LINE
  5
34F
100
AcDbEntity
  8
ASSI
100
AcDbLine
 62
253
  6
CONTINUOUS
 10
10.826517011
 20
9.4850363343
 11
10.8131335197
 21
9.4855219728
  0
LINE
  5
350
100
AcDbEntity
  8
ASSI
100
AcDbLine
 62
253
  6
CONTINUOUS
 10
10.8384522281
 20
9.4845379704
 11
10.826517011
 21
9.4850363343
  0
LINE
  5
351
100
AcDbEntity
  8
ASSI
100
AcDbLine
 62
253
  6
CONTINUOUS
 10
10.9176697151
 20
-21.4172018725
 11
10.918580592
 21
-21.4420334485
  0
LINE
  5
352
100
AcDbEntity
  8
ASSI
100
AcDbLine
 62
253
  6
CONTINUOUS
 10
10.9168236288
 20
-21.390557518
 11
10.9176697151
 21
-21.4172018725
  0
LINE
  5
353
100
AcDbEntity
  8
ASSI
100
AcDbLine
 62
253
  6
CONTINUOUS
 10
10.9158037389
 20
-21.3524483548
 11
10.9168236288
 21
-21.390557518
  0
LINE
  5
354
100
AcDbEntity
  8
ASSI
100
AcDbLine
 62
253
  6
CONTINUOUS
 10
10.9149163199
 20
-21.3117204242
 11
10.9158037389
 21
-21.3524483548
  0
LWPOLYLINE
  5
355
100
AcDbEntity
  8
ASSI
100
AcDbPolyline
 62
253
  6
CONTINUOUS
 90
46
 70
0
 10
10.8753849508
 20
-0.4048612849
 10
10.8752301543
 20
-0.396138433
 10
10.8747712634
 20
-0.3874262044
 10
10.8740088368
 20
-0.3787352096
 10
10.8729438033
 20
-0.3700760331
 10
10.8715774598
 20
-0.3614592205
 10
10.8699114704
 20
-0.3528952663
 10
10.8679478641
 20
-0.3443946001
 10
10.8656890322
 20
-0.3359675746
 10
10.8631377258
 20
-0.3276244531
 10
10.860297052
 20
-0.3193753962
 10
10.8571704704
 20
-0.3112304504
 10
10.8537617888
 20
-0.3031995352
 10
10.8500751585
 20
-0.2952924311
 10
10.8461150695
 20
-0.287518768
 10
10.8418863445
 20
-0.2798880134
 10
10.8373941336
 20
-0.2724094604
 10
10.8326439078
 20
-0.265092217
 10
10.8276414523
 20
-0.2579451947
 10
10.8223928594
 20
-0.2509770977
 10
10.8169045213
 20
-0.2441964122
 10
10.811183122
 20
-0.2376113962
 10
10.8052356295
 20
-0.2312300695
 10
10.7990692871
 20
-0.2250602036
 10
10.7926916046
 20
-0.2191093128
 10
10.7861103493
 20
-0.2133846445
 10
10.7793335362
 20
-0.2078931704
 10
10.7723694187
 20
-0.2026415787
 10
10.7652264782
 20
-0.1976362651
 10
10.7579134139
 20
-0.1928833253
 10
10.7504391322
 20
-0.1883885479
 10
10.7428127358
 20
-0.1841574069
 10
10.7350435126
 20
-0.1801950554
 10
10.7271409248
 20
-0.1765063189
 10
10.7191145965
 20
-0.17309569
 10
10.7109743029
 20
-0.1699673222
 10
10.7027299577
 20
-0.1671250256
 10
10.6943916016
 20
-0.1645722617
 10
10.6859693897
 20
-0.1623121394
 10
10.677473579
 20
-0.1603474113
 10
10.6689145165
 20
-0.1586804702
 10
10.660302626
 20
-0.1573133462
 10
10.6516483957
 20
-0.1562477042
 10
10.6429623653
 20
-0.1554848422
 10
10.6342551133
 20
-0.1550256891
 10
10.6255372441
 20
-0.1548708041
  0
LWPOLYLINE
  5
356
100
AcDbEntity
  8
ASSI
100
AcDbPolyline
 62
253
  6
CONTINUOUS
 90
55
 70
0
 10
10.9292425256
 20
21.5482317264
 10
10.9290051062
 20
21.5627372981
 10
10.9283460777
 20
21.5772306253
 10
10.9272659962
 20
21.5916994735
 10
10.9257657736
 20
21.6061316291
 10
10.9238466762
 20
21.6205149095
 10
10.9215103241
 20
21.6348371732
 10
10.9187586893
 20
21.6490863304
 10
10.9155940947
 20
21.6632503529
 10
10.9120192116
 20
21.6773172843
 10
10.9080370577
 20
21.6912752503
 10
10.9036509944
 20
21.7051124685
 10
10.8988647242
 20
21.7188172585
 10
10.8936822873
 20
21.7323780514
 10
10.8881080583
 20
21.7457834004
 10
10.8821467428
 20
21.7590219893
 10
10.8758033727
 20
21.7720826432
 10
10.8690833028
 20
21.7849543371
 10
10.8619922057
 20
21.7976262054
 10
10.8545360672
 20
21.8100875516
 10
10.8467211813
 20
21.8223278565
 10
10.8385541449
 20
21.8343367877
 10
10.8300418519
 20
21.8461042081
 10
10.8211914879
 20
21.8576201844
 10
10.8120105238
 20
21.8688749955
 10
10.8025067095
 20
21.879859141
 10
10.7926880675
 20
21.8905633486
 10
10.7825628861
 20
21.9009785827
 10
10.7721397122
 20
21.9110960513
 10
10.7614273445
 20
21.9209072141
 10
10.7504348255
 20
21.930403789
 10
10.7391714345
 20
21.9395777597
 10
10.7276466793
 20
21.9484213822
 10
10.7158702882
 20
21.9569271911
 10
10.7038522021
 20
21.9650880065
 10
10.6916025659
 20
21.9728969397
 10
10.6791317199
 20
21.9803473987
 10
10.6664501912
 20
21.9874330944
 10
10.6535686846
 20
21.9941480455
 10
10.640498074
 20
22.0004865837
 10
10.6272493925
 20
22.0064433585
 10
10.613833824
 20
22.0120133416
 10
10.6002626929
 20
22.017191831
 10
10.586547455
 20
22.0219744555
 10
10.5726996879
 20
22.0263571779
 10
10.5587310808
 20
22.0303362987
 10
10.5446534253
 20
22.0339084588
 10
10.5304786047
 20
22.0370706429
 10
10.5162185844
 20
22.0398201817
 10
10.5018854018
 20
22.0421547543
 10
10.487491156
 20
22.0440723899
 10
10.4730479978
 20
22.0455714698
 10
10.458568119
 20
22.0466507286
 10
10.4440637425
 20
22.0473092552
 10
10.4295471121
 20
22.0475464938
  0
LINE
  5
357
100
AcDbEntity
  8
ASSI
100
AcDbLine
 62
253
  6
CONTINUOUS
 10
10.914005404
 20
-21.257689418
 11
10.9149163199
 21
-21.3117204242
  0
LINE
  5
358
100
AcDbEntity
  8
ASSI
100
AcDbLine
 62
253
  6
CONTINUOUS
 10
10.415873774
 20
-21.6172898582
 11
10.4176847351
 21
-21.7493154788
  0
LINE
  5
359
100
AcDbEntity
  8
ASSI
100
AcDbLine
 62
253
  6
CONTINUOUS
 10
10.9133271121
 20
-21.2009303784
 11
10.914005404
 21
-21.257689418
  0
LINE
  5
35A
100
AcDbEntity
  8
ASSI
100
AcDbLine
 62
253
  6
CONTINUOUS
 10
10.4141554161
 20
-21.4253584021
 11
10.415873774
 21
-21.6172898582
  0
LINE
  5
35B
100
AcDbEntity
  8
ASSI
100
AcDbLine
 62
253
  6
CONTINUOUS
 10
10.9085268563
 20
-20.2852163728
 11
10.9133271121
 21
-21.2009303784
  0
LINE
  5
35C
100
AcDbEntity
  8
ASSI
100
AcDbLine
 62
7
  6
CONTINUOUS
 10
11.0312695347
 20
21.7013500296
 11
11.057576844
 21
13.0906027219
  0
LINE
  5
35D
100
AcDbEntity
  8
ASSI
100
AcDbLine
 62
253
  6
CONTINUOUS
 10
10.4131956564
 20
-21.2167936977
 11
10.4141554161
 21
-21.4253584021
  0
LINE
  5
35E
100
AcDbEntity
  8
ASSI
100
AcDbLine
 62
253
  6
CONTINUOUS
 10
10.380567236
 20
-11.2505013647
 11
10.4131956564
 21
-21.2167936977
  0
LINE
  5
35F
100
AcDbEntity
  8
ASSI
100
AcDbLine
 62
253
  6
CONTINUOUS
 10
10.8792491734
 20
-10.3657460811
 11
10.9085268563
 21
-20.2852163728
  0
LINE
  5
360
100
AcDbEntity
  8
ASSI
100
AcDbLine
 62
253
  6
CONTINUOUS
 10
10.380567236
 20
-11.2505013647
 11
10.3756895902
 21
-0.1569763664
  0
LINE
  5
361
100
AcDbEntity
  8
ASSI
100
AcDbLine
 62
253
  6
CONTINUOUS
 10
10.8753850178
 20
-0.4048612682
 11
10.8792491734
 21
-10.3657460811
  0
LINE
  5
362
100
AcDbEntity
  8
ASSI
100
AcDbLine
 62
7
  6
CONTINUOUS
 10
11.057576844
 20
-0.3593306569
 11
11.057576844
 21
-13.1093972781
  0
LINE
  5
363
100
AcDbEntity
  8
ASSI
100
AcDbLine
 62
7
  6
CONTINUOUS
 10
11.057576844
 20
0.3405361006
 11
11.057576844
 21
13.0906027219
  0
LINE
  5
364
100
AcDbEntity
  8
ASSI
100
AcDbLine
 62
7
  6
CONTINUOUS
 10
11.0312695347
 20
-21.7201445859
 11
11.057576844
 21
-13.1093972781
  0
LINE
  5
365
100
AcDbEntity
  8
ASSI
100
AcDbLine
 62
253
  6
CONTINUOUS
 10
10.4047571872
 20
19.4732021405
 11
10.3756895902
 21
0.1381818101
  0
LINE
  5
366
100
AcDbEntity
  8
ASSI
100
AcDbLine
 62
253
  6
CONTINUOUS
 10
10.9064535012
 20
19.8374804685
 11
10.8753850178
 21
0.3860667119
  0
LINE
  5
367
100
AcDbEntity
  8
ASSI
100
AcDbLine
 62
253
  6
CONTINUOUS
 10
10.9132202273
 20
21.1705218479
 11
10.9064535012
 21
19.8374804685
  0
LINE
  5
368
100
AcDbEntity
  8
ASSI
100
AcDbLine
 62
253
  6
CONTINUOUS
 10
10.4150207813
 20
21.5158403604
 11
10.4047571872
 21
19.4732021405
  0
LINE
  5
369
100
AcDbEntity
  8
ASSI
100
AcDbLine
 62
253
  6
CONTINUOUS
 10
10.9138507927
 20
21.2277375542
 11
10.9132202273
 21
21.1705218479
  0
LINE
  5
36A
100
AcDbEntity
  8
ASSI
100
AcDbLine
 62
253
  6
CONTINUOUS
 10
10.4168612604
 20
21.6760850416
 11
10.4150207813
 21
21.5158403604
  0
LINE
  5
36B
100
AcDbEntity
  8
ASSI
100
AcDbLine
 62
253
  6
CONTINUOUS
 10
10.4176847351
 20
21.7305209225
 11
10.4168612604
 21
21.6760850416
  0
LWPOLYLINE
  5
36C
100
AcDbEntity
  8
ASSI
100
AcDbPolyline
 62
253
  6
CONTINUOUS
 90
55
 70
0
 10
10.9292425256
 20
-21.5670262827
 10
10.9290051062
 20
-21.5815318547
 10
10.9283460776
 20
-21.5960251821
 10
10.9272659961
 20
-21.6104940306
 10
10.9257657734
 20
-21.6249261865
 10
10.923846676
 20
-21.6393094672
 10
10.9215103238
 20
-21.6536317311
 10
10.9187586889
 20
-21.6678808886
 10
10.9155940942
 20
-21.6820449113
 10
10.912019211
 20
-21.6961118429
 10
10.908037057
 20
-21.7100698091
 10
10.9036509936
 20
-21.7239070274
 10
10.8988647232
 20
-21.7376118175
 10
10.8936822861
 20
-21.7511726106
 10
10.888108057
 20
-21.7645779596
 10
10.8821467413
 20
-21.7778165487
 10
10.8758033711
 20
-21.7908772026
 10
10.8690833011
 20
-21.8037488965
 10
10.8619922038
 20
-21.8164207649
 10
10.8545360652
 20
-21.8288821111
 10
10.8467211792
 20
-21.841122416
 10
10.8385541426
 20
-21.8531313472
 10
10.8300418495
 20
-21.8648987676
 10
10.8211914854
 20
-21.8764147438
 10
10.8120105212
 20
-21.8876695549
 10
10.8025067068
 20
-21.8986537002
 10
10.7926880647
 20
-21.9093579078
 10
10.7825628832
 20
-21.9197731418
 10
10.7721397093
 20
-21.9298906104
 10
10.7614273415
 20
-21.939701773
 10
10.7504348226
 20
-21.9491983478
 10
10.7391714315
 20
-21.9583723184
 10
10.7276466763
 20
-21.9672159407
 10
10.7158702852
 20
-21.9757217495
 10
10.7038521991
 20
-21.9838825648
 10
10.6916025629
 20
-21.9916914978
 10
10.679131717
 20
-21.9991419566
 10
10.6664501884
 20
-22.0062276522
 10
10.6535686819
 20
-22.0129426032
 10
10.6404980713
 20
-22.0192811413
 10
10.62724939
 20
-22.0252379159
 10
10.6138338216
 20
-22.0308078988
 10
10.6002626906
 20
-22.0359863881
 10
10.5865474529
 20
-22.0407690125
 10
10.5726996859
 20
-22.0451517348
 10
10.558731079
 20
-22.0491308554
 10
10.5446534237
 20
-22.0527030154
 10
10.5304786032
 20
-22.0558651995
 10
10.5162185831
 20
-22.0586147383
 10
10.5018854007
 20
-22.0609493108
 10
10.4874911552
 20
-22.0628669463
 10
10.4730479971
 20
-22.0643660262
 10
10.4585681185
 20
-22.0654452849
 10
10.4440637423
 20
-22.0661038115
 10
10.4295471121
 20
-22.0663410501
  0
LWPOLYLINE
  5
36D
100
AcDbEntity
  8
ASSI
100
AcDbPolyline
 62
253
  6
CONTINUOUS
 90
46
 70
0
 10
10.8753849508
 20
0.3860667286
 10
10.8752301543
 20
0.3773438771
 10
10.8747712634
 20
0.3686316489
 10
10.874008837
 20
0.3599406545
 10
10.8729438035
 20
0.3512814783
 10
10.8715774601
 20
0.3426646661
 10
10.8699114709
 20
0.3341007122
 10
10.8679478647
 20
0.3256000463
 10
10.865689033
 20
0.3171730212
 10
10.8631377268
 20
0.3088298999
 10
10.8602970532
 20
0.3005808433
 10
10.8571704719
 20
0.2924358978
 10
10.8537617905
 20
0.2844049827
 10
10.8500751605
 20
0.2764978788
 10
10.8461150717
 20
0.2687242159
 10
10.8418863469
 20
0.2610934614
 10
10.8373941363
 20
0.2536149085
 10
10.8326439108
 20
0.2462976652
 10
10.8276414556
 20
0.2391506429
 10
10.8223928629
 20
0.2321825459
 10
10.816904525
 20
0.2254018603
 10
10.8111831259
 20
0.2188168443
 10
10.8052356336
 20
0.2124355174
 10
10.7990692914
 20
0.2062656515
 10
10.7926916091
 20
0.2003147605
 10
10.7861103538
 20
0.194590092
 10
10.7793335409
 20
0.1890986178
 10
10.7723694234
 20
0.1838470259
 10
10.765226483
 20
0.178841712
 10
10.7579134186
 20
0.174088772
 10
10.7504391369
 20
0.1695939943
 10
10.7428127404
 20
0.1653628531
 10
10.7350435172
 20
0.1614005013
 10
10.7271409292
 20
0.1577117646
 10
10.7191146007
 20
0.1543011354
 10
10.7109743069
 20
0.1511727674
 10
10.7027299615
 20
0.1483304705
 10
10.6943916051
 20
0.1457777064
 10
10.6859693928
 20
0.1435175839
 10
10.6774735818
 20
0.1415528556
 10
10.6689145189
 20
0.1398859143
 10
10.6603026279
 20
0.1385187902
 10
10.6516483972
 20
0.1374531481
 10
10.6429623663
 20
0.136690286
 10
10.6342551138
 20
0.1362311328
 10
10.6255372441
 20
0.1360762478
  0
LINE
  5
36E
100
AcDbEntity
  8
ASSI
100
AcDbLine
 62
253
  6
CONTINUOUS
 10
10.9147161642
 20
21.2823787715
 11
10.9138507927
 21
21.2277375542
  0
LINE
  5
36F
100
AcDbEntity
  8
ASSI
100
AcDbLine
 62
253
  6
CONTINUOUS
 10
10.9155691659
 20
21.3237050997
 11
10.9147161642
 21
21.2823787715
  0
LINE
  5
370
100
AcDbEntity
  8
ASSI
100
AcDbLine
 62
253
  6
CONTINUOUS
 10
10.9165566658
 20
21.3624987349
 11
10.9155691659
 21
21.3237050997
  0
LINE
  5
371
100
AcDbEntity
  8
ASSI
100
AcDbLine
 62
253
  6
CONTINUOUS
 10
10.9173801535
 20
21.3897172524
 11
10.9165566658
 21
21.3624987349
  0
LWPOLYLINE
  5
372
100
AcDbEntity
  8
ASSI
100
AcDbPolyline
 62
253
  6
CONTINUOUS
 90
3
 70
0
 10
10.918580592
 20
21.4232388923
 10
10.9182699344
 20
21.4151681361
 10
10.9173801535
 20
21.3897172524
  0
LWPOLYLINE
  5
373
100
AcDbEntity
  8
0
100
AcDbPolyline
 62
253
  6
CONTINUOUS
 90
29
 70
0
 10
-0.5699696017
 20
-12.7055165786
 10
-2.1420584257
 20
-13.5830346678
 10
-2.1436275548
 20
-13.5838684543
 10
-2.1452084822
 20
-13.5846708353
 10
-2.1468013524
 20
-13.5854419308
 10
-2.1484063097
 20
-13.5861818603
 10
-2.1500234986
 20
-13.5868907438
 10
-2.1516530637
 20
-13.5875687008
 10
-2.1532951493
 20
-13.5882158512
 10
-2.1549498999
 20
-13.5888323148
 10
-2.1566174599
 20
-13.5894182113
 10
-2.1582979739
 20
-13.5899736604
 10
-2.1599915863
 20
-13.5904987819
 10
-2.1616984414
 20
-13.5909936956
 10
-2.1631885199
 20
-13.5913981517
 10
-2.1646886298
 20
-13.5917793249
 10
-2.1661987473
 20
-13.5921365319
 10
-2.1677188485
 20
-13.5924690894
 10
-2.1692489096
 20
-13.592776314
 10
-2.1707889066
 20
-13.5930575223
 10
-2.1723388158
 20
-13.5933120309
 10
-2.1738986132
 20
-13.5935391567
 10
-2.1754682749
 20
-13.593738216
 10
-2.1770477772
 20
-13.5939085258
 10
-2.1786370961
 20
-13.5940494024
 10
-2.1802362077
 20
-13.5941601627
 10
-2.1818450882
 20
-13.5942401233
 10
-2.1834637138
 20
-13.5942886007
 10
-2.1850920605
 20
-13.5943049117
  0
LWPOLYLINE
  5
374
100
AcDbEntity
  8
0
100
AcDbPolyline
 62
253
  6
CONTINUOUS
 90
29
 70
0
 10
1.1394503547
 20
-12.7051638008
 10
-0.4338731915
 20
-13.5830346678
 10
-0.4354423206
 20
-13.5838684543
 10
-0.437023248
 20
-13.5846708353
 10
-0.4386161182
 20
-13.5854419308
 10
-0.4402210755
 20
-13.5861818603
 10
-0.4418382644
 20
-13.5868907438
 10
-0.4434678295
 20
-13.5875687008
 10
-0.4451099151
 20
-13.5882158512
 10
-0.4467646657
 20
-13.5888323148
 10
-0.4484322257
 20
-13.5894182113
 10
-0.4501127397
 20
-13.5899736604
 10
-0.4518063521
 20
-13.5904987819
 10
-0.4535132072
 20
-13.5909936956
 10
-0.4550032857
 20
-13.5913981517
 10
-0.4565033956
 20
-13.5917793249
 10
-0.4580135131
 20
-13.5921365319
 10
-0.4595336143
 20
-13.5924690894
 10
-0.4610636754
 20
-13.592776314
 10
-0.4626036724
 20
-13.5930575223
 10
-0.4641535816
 20
-13.5933120309
 10
-0.465713379
 20
-13.5935391567
 10
-0.4672830407
 20
-13.593738216
 10
-0.468862543
 20
-13.5939085258
 10
-0.4704518619
 20
-13.5940494024
 10
-0.4720509735
 20
-13.5941601627
 10
-0.473659854
 20
-13.5942401233
 10
-0.4752784796
 20
-13.5942886007
 10
-0.4769068263
 20
-13.5943049117
  0
LWPOLYLINE
  5
375
100
AcDbEntity
  8
0
100
AcDbPolyline
 62
253
  6
CONTINUOUS
 90
43
 70
0
 10
1.4295098285
 20
11.4263033034
 10
1.4589783121
 20
11.4267205082
 10
1.4883119476
 20
11.427966056
 10
1.5175199344
 20
11.4300308464
 10
1.5466114717
 20
11.4329057791
 10
1.5755957588
 20
11.4365817539
 10
1.604481995
 20
11.4410496704
 10
1.6332732562
 20
11.4463008704
 10
1.6619481259
 20
11.4523284641
 10
1.6904790641
 20
11.4591260035
 10
1.7188385309
 20
11.4666870408
 10
1.7469989863
 20
11.4750051281
 10
1.7749328906
 20
11.4840738176
 10
1.8026136588
 20
11.4938871184
 10
1.8300185259
 20
11.5044408679
 10
1.8571256817
 20
11.5157313606
 10
1.8839133162
 20
11.5277548908
 10
1.9103596194
 20
11.5405077528
 10
1.9364427813
 20
11.5539862412
 10
1.962141418
 20
11.5681851759
 10
1.9874358519
 20
11.5830934796
 10
2.0123068313
 20
11.5986986004
 10
2.0367351047
 20
11.6149879868
 10
2.0607014207
 20
11.6319490869
 10
2.0841865277
 20
11.649569349
 10
2.1071725264
 20
11.6678356634
 10
2.1296469261
 20
11.686732688
 10
2.1515985883
 20
11.7062445229
 10
2.1730163743
 20
11.7263552681
 10
2.1938891457
 20
11.7470490235
 10
2.2142057638
 20
11.7683098893
 10
2.2339535418
 20
11.7901203266
 10
2.2531135998
 20
11.8124562422
 10
2.2716655092
 20
11.8352919037
 10
2.2895888419
 20
11.8586015792
 10
2.3068631694
 20
11.8823595365
 10
2.3234680635
 20
11.9065400434
 10
2.3393859109
 20
11.931123854
 10
2.3546103591
 20
11.956117667
 10
2.369137871
 20
11.9815346669
 10
2.382964909
 20
12.0073880387
 10
2.396087936
 20
12.0336909669
 10
2.4112348242
 20
12.0663489438
  0
LWPOLYLINE
  5
376
100
AcDbEntity
  8
0
100
AcDbPolyline
 62
253
  6
CONTINUOUS
 90
42
 70
0
 10
-2.3578761519
 20
10.9909755257
 10
-2.3719744309
 20
10.9911116813
 10
-2.3860292895
 20
10.9915245879
 10
-2.4000448126
 20
10.9922209053
 10
-2.414025085
 20
10.9932072931
 10
-2.4279741912
 20
10.9944904109
 10
-2.4418962162
 20
10.9960769186
 10
-2.4557925351
 20
10.9979736575
 10
-2.469653685
 20
11.0001881959
 10
-2.4834674934
 20
11.0027282836
 10
-2.4972217879
 20
11.0056016706
 10
-2.5109043959
 20
11.0088161069
 10
-2.5245031449
 20
11.0123793424
 10
-2.536083351
 20
11.0157171551
 10
-2.5475859814
 20
11.0193225263
 10
-2.5590040144
 20
11.0232010597
 10
-2.570330428
 20
11.0273583595
 10
-2.5815582004
 20
11.0318000294
 10
-2.5926803096
 20
11.0365316734
 10
-2.6036897338
 20
11.0415588955
 10
-2.6145789386
 20
11.0468857895
 10
-2.6253383398
 20
11.0525104092
 10
-2.635957841
 20
11.0584292984
 10
-2.6464273455
 20
11.0646390008
 10
-2.6567367567
 20
11.0711360601
 10
-2.6668759781
 20
11.0779170202
 10
-2.676834913
 20
11.0849784247
 10
-2.6866031846
 20
11.0923162037
 10
-2.6961692946
 20
11.0999238328
 10
-2.7055214646
 20
11.107794174
 10
-2.7146479161
 20
11.1159200892
 10
-2.7235368705
 20
11.1242944403
 10
-2.7321765495
 20
11.1329100892
 10
-2.7405551744
 20
11.1417598979
 10
-2.7476636942
 20
11.14969167
 10
-2.7545592063
 20
11.1578027742
 10
-2.7612375902
 20
11.166098729
 10
-2.7676947255
 20
11.1745850532
 10
-2.773926492
 20
11.1832672652
 10
-2.7799287691
 20
11.1921508837
 10
-2.7856974366
 20
11.2012414272
 10
-2.791228374
 20
11.2105444145
  0
LWPOLYLINE
  5
377
100
AcDbEntity
  8
0
100
AcDbPolyline
 62
253
  6
CONTINUOUS
 90
53
 70
0
 10
1.4295098285
 20
10.9928805257
 10
1.3901239798
 20
10.9934377826
 10
1.3508822176
 20
10.9950979884
 10
1.3117719479
 20
10.9978437959
 10
1.2727805769
 20
11.0016578578
 10
1.2338955106
 20
11.0065228266
 10
1.1854358418
 20
11.0140560956
 10
1.1371961544
 20
11.0231743052
 10
1.0892500064
 20
11.033847459
 10
1.041670956
 20
11.0460455606
 10
0.9945252106
 20
11.0597406084
 10
0.9478495737
 20
11.0749125808
 10
0.9016734981
 20
11.0915434508
 10
0.8560264366
 20
11.1096151917
 10
0.8109404912
 20
11.1291110105
 10
0.7664583615
 20
11.1500190493
 10
0.7226253964
 20
11.1723286843
 10
0.6794869449
 20
11.1960292914
 10
0.6370907173
 20
11.2211093449
 10
0.5954938703
 20
11.2475537113
 10
0.5547559223
 20
11.2753463553
 10
0.5149363914
 20
11.3044712419
 10
0.4837821811
 20
11.328719409
 10
0.4532852697
 20
11.3538006529
 10
0.4234770774
 20
11.3797056776
 10
0.3943890243
 20
11.4064251874
 10
0.3660525306
 20
11.4339498864
 10
0.3384957188
 20
11.4622666625
 10
0.3117335194
 20
11.4913471397
 10
0.2857775653
 20
11.5211591254
 10
0.2606394893
 20
11.5516704275
 10
0.2363309243
 20
11.5828488536
 10
0.2071287516
 20
11.6227107801
 10
0.1792594589
 20
11.6635006743
 10
0.1527416387
 20
11.7051544233
 10
0.127593884
 20
11.7476079142
 10
0.1038331707
 20
11.7908006082
 10
0.0814700079
 20
11.8346862638
 10
0.0605132882
 20
11.8792222134
 10
0.0409719039
 20
11.9243657897
 10
0.0228564025
 20
11.9700763531
 10
0.0061839523
 20
12.0163213757
 10
-0.0090266238
 20
12.0630703578
 10
-0.0227565024
 20
12.1102927992
 10
-0.0349849901
 20
12.1579506678
 10
-0.0456839124
 20
12.2059758016
 10
-0.0548232245
 20
12.2542925063
 10
-0.0623728817
 20
12.3028250877
 10
-0.0672475921
 20
12.3417643326
 10
-0.0710686697
 20
12.3808062299
 10
-0.0738190894
 20
12.4199637152
 10
-0.0754818263
 20
12.459249724
 10
-0.0760398553
 20
12.498677192
  0
LWPOLYLINE
  5
378
100
AcDbEntity
  8
0
100
AcDbPolyline
 62
253
  6
CONTINUOUS
 90
35
 70
0
 10
2.8304619024
 20
12.949350803
 10
2.8316783063
 20
12.9479085456
 10
2.8328531093
 20
12.9464490004
 10
2.8339870471
 20
12.94497272
 10
2.8350808556
 20
12.9434802571
 10
2.8361352706
 20
12.941972164
 10
2.8371510278
 20
12.9404489935
 10
2.8381288632
 20
12.9389112981
 10
2.8390695125
 20
12.9373596303
 10
2.8399737114
 20
12.9357945428
 10
2.8408421959
 20
12.9342165881
 10
2.8416757018
 20
12.9326263187
 10
2.8424749647
 20
12.9310242873
 10
2.8432407207
 20
12.9294110465
 10
2.8439737053
 20
12.9277871487
 10
2.8446746545
 20
12.9261531465
 10
2.8453443041
 20
12.9245095926
 10
2.8459833899
 20
12.9228570395
 10
2.8465926477
 20
12.9211960398
 10
2.8472430465
 20
12.9193178317
 10
2.8478560021
 20
12.9174293692
 10
2.8484308911
 20
12.9155303888
 10
2.84896709
 20
12.9136206271
 10
2.8494639756
 20
12.9116998206
 10
2.8499209242
 20
12.9097677058
 10
2.8503373127
 20
12.9078240192
 10
2.8507125175
 20
12.9058684973
 10
2.8510459153
 20
12.9039008768
 10
2.8513368826
 20
12.901920894
 10
2.8515847961
 20
12.8999282855
 10
2.8517890323
 20
12.8979227879
 10
2.8519489679
 20
12.8959041376
 10
2.8520639794
 20
12.8938720713
 10
2.8521334435
 20
12.8918263253
 10
2.8521567367
 20
12.8897666363
  0
LWPOLYLINE
  5
379
100
AcDbEntity
  8
ASSI
100
AcDbPolyline
 62
253
  6
CONTINUOUS
 90
12
 70
0
 10
10.8785282161
 20
-9.4998972781
 10
10.8778299505
 20
-9.5001676103
 10
10.8767280349
 20
-9.5004377237
 10
10.8752233608
 20
-9.5007074
 10
10.8733171452
 20
-9.5009764209
 10
10.8710109302
 20
-9.5012445689
 10
10.8683065812
 20
-9.5015116271
 10
10.865206286
 20
-9.5017773793
 10
10.8617125524
 20
-9.5020416107
 10
10.8578282066
 20
-9.5023041075
 10
10.8535563906
 20
-9.5025646574
 10
10.8489005602
 20
-9.5028230496
  0
LINE
  5
37A
100
AcDbEntity
  8
0
100
AcDbLine
 62
253
  6
CONTINUOUS
 10
2.7323181286
 20
12.7995613586
 11
1.5314626037
 21
13.1125105252
  0
LWPOLYLINE
  5
37B
100
AcDbEntity
  8
0
100
AcDbPolyline
 62
253
  6
CONTINUOUS
 90
39
 70
0
 10
1.5314626037
 20
13.1125105252
 10
1.5293464342
 20
13.1131169714
 10
1.5272682481
 20
13.1137737917
 10
1.5252246513
 20
13.114480176
 10
1.5232122498
 20
13.1152353146
 10
1.5212276494
 20
13.1160383976
 10
1.5192674559
 20
13.1168886152
 10
1.5173282752
 20
13.1177851574
 10
1.5150890356
 20
13.1188886058
 10
1.512875036
 20
13.1200527999
 10
1.5106875355
 20
13.1212765345
 10
1.5085277929
 20
13.1225586046
 10
1.5063970673
 20
13.123897805
 10
1.5042966178
 20
13.1252929307
 10
1.5022278406
 20
13.1267426546
 10
1.5001926811
 20
13.1282451632
 10
1.4981932221
 20
13.1297985207
 10
1.4962315464
 20
13.1314007916
 10
1.4943097366
 20
13.1330500404
 10
1.4924298755
 20
13.1347443316
 10
1.4905940342
 20
13.1364817035
 10
1.4888042378
 20
13.1382600907
 10
1.4870624998
 20
13.1400774016
 10
1.4853708335
 20
13.1419315447
 10
1.4837312525
 20
13.1438204285
 10
1.4821457702
 20
13.1457419614
 10
1.4806162211
 20
13.1476942275
 10
1.4791437244
 20
13.1496760138
 10
1.4777292204
 20
13.1516862827
 10
1.4763736492
 20
13.1537239968
 10
1.4750779511
 20
13.1557881187
 10
1.4738430664
 20
13.1578776108
 10
1.4728336723
 20
13.159688645
 10
1.4718700208
 20
13.1615207106
 10
1.4709524842
 20
13.1633769622
 10
1.4700814352
 20
13.1652605539
 10
1.4692572463
 20
13.1671746402
 10
1.4684802899
 20
13.1691223755
 10
1.4677509386
 20
13.171106914
  0
LWPOLYLINE
  5
37C
100
AcDbEntity
  8
ASSI
100
AcDbPolyline
 62
253
  6
CONTINUOUS
 90
13
 70
0
 10
10.8785282161
 20
9.4811027219
 10
10.8778299505
 20
9.481373054
 10
10.8767280349
 20
9.4816431674
 10
10.8752233608
 20
9.4819128437
 10
10.8733171452
 20
9.4821818646
 10
10.8710109302
 20
9.4824500126
 10
10.8683065813
 20
9.4827170708
 10
10.865206286
 20
9.482982823
 10
10.8617125524
 20
9.4832470545
 10
10.8578282066
 20
9.4835095513
 10
10.8535563907
 20
9.4837701011
 10
10.8489005602
 20
9.4840284933
 10
10.8384522281
 20
9.4845379704
  0
LWPOLYLINE
  5
37D
100
AcDbEntity
  8
0
100
AcDbPolyline
 62
253
  6
CONTINUOUS
 90
53
 70
0
 10
2.6953117407
 20
12.1697824699
 10
2.7012652615
 20
12.1669891041
 10
2.7070767508
 20
12.1640301065
 10
2.7127627045
 20
12.160901583
 10
2.7183396183
 20
12.1575996394
 10
2.7238239878
 20
12.1541203816
 10
2.7292288855
 20
12.1504604747
 10
2.73455369
 20
12.1466188209
 10
2.7397943563
 20
12.1425948819
 10
2.7449468397
 20
12.1383881191
 10
2.7500070954
 20
12.1339979941
 10
2.7549701324
 20
12.1294247736
 10
2.7598271752
 20
12.1246719453
 10
2.7645685021
 20
12.1197438017
 10
2.7691843915
 20
12.1146446358
 10
2.7736651217
 20
12.1093787401
 10
2.7772877813
 20
12.104868268
 10
2.7807980721
 20
12.1002597174
 10
2.7841842367
 20
12.0955678133
 10
2.7874373377
 20
12.0908029649
 10
2.7905597168
 20
12.0859583183
 10
2.7935565352
 20
12.0810227038
 10
2.7969907644
 20
12.0749692621
 10
2.8002396574
 20
12.0687800427
 10
2.8032912529
 20
12.0624663461
 10
2.8061335897
 20
12.0560394727
 10
2.8087547065
 20
12.0495107231
 10
2.8111448325
 20
12.0428920628
 10
2.8133029591
 20
12.0361981183
 10
2.8152302681
 20
12.0294441814
 10
2.8169279413
 20
12.0226455437
 10
2.8183971605
 20
12.0158174968
 10
2.8194482346
 20
12.0101125597
 10
2.8203444788
 20
12.0043858779
 10
2.821088891
 20
11.9986255108
 10
2.8216837192
 20
11.9928250644
 10
2.8221282125
 20
11.9870003325
 10
2.8224208698
 20
11.9811726556
 10
2.8225707685
 20
11.9742013056
 10
2.822504749
 20
11.9672675335
 10
2.8222276982
 20
11.9603824272
 10
2.8217445028
 20
11.9535570747
 10
2.8210600498
 20
11.9468025641
 10
2.8201790063
 20
11.9401283515
 10
2.8191051607
 20
11.9335373659
 10
2.8178420818
 20
11.9270309047
 10
2.8163933382
 20
11.9206102649
 10
2.8147624987
 20
11.9142767439
 10
2.8129508806
 20
11.9080291037
 10
2.8109507959
 20
11.901855965
 10
2.8087523053
 20
11.8957434134
 10
2.8063454695
 20
11.8896775347
 10
2.803720349
 20
11.8836444144
  0
LWPOLYLINE
  5
37E
100
AcDbEntity
  8
0
100
AcDbPolyline
 62
253
  6
CONTINUOUS
 90
57
 70
0
 10
1.4295098285
 20
13.5704160806
 10
1.39835654
 20
13.56993666
 10
1.3677822208
 20
13.5685313575
 10
1.3377829704
 20
13.5662496117
 10
1.3083548888
 20
13.5631408614
 10
1.2794940755
 20
13.5592545452
 10
1.2511966304
 20
13.5546401019
 10
1.223458653
 20
13.5493469701
 10
1.1962762432
 20
13.5434245885
 10
1.1658890765
 20
13.5359457223
 10
1.1362355995
 20
13.5277633084
 10
1.1073289571
 20
13.5189311032
 10
1.0791822938
 20
13.5095028635
 10
1.0518087545
 20
13.4995323456
 10
1.0252214841
 20
13.4890733062
 10
0.9994336271
 20
13.4781795017
 10
0.9744493025
 20
13.4668973321
 10
0.9502365256
 20
13.4552437709
 10
0.9267542859
 20
13.443228435
 10
0.9039615727
 20
13.4308609415
 10
0.8818173756
 20
13.4181509072
 10
0.8602806839
 20
13.4051079491
 10
0.8393104871
 20
13.3917416841
 10
0.8108450966
 20
13.3725054934
 10
0.7834126686
 20
13.3526894105
 10
0.7570162166
 20
13.3323283753
 10
0.7316587539
 20
13.3114573279
 10
0.7073432938
 20
13.2901112084
 10
0.6840665641
 20
13.268323868
 10
0.6618001499
 20
13.2461248028
 10
0.6405093507
 20
13.2235424203
 10
0.6201594659
 20
13.2006051277
 10
0.6007157952
 20
13.1773413325
 10
0.5821431442
 20
13.1537726409
 10
0.5644043435
 20
13.1298934538
 10
0.5474617299
 20
13.105691371
 10
0.5312776402
 20
13.0811539922
 10
0.5158144113
 20
13.0562689174
 10
0.4974538615
 20
13.0246595408
 10
0.4801601683
 20
12.9924921285
 10
0.4639326918
 20
12.9597712953
 10
0.4487707925
 20
12.9265016562
 10
0.4374103738
 20
12.8994969517
 10
0.4267450783
 20
12.8721646036
 10
0.4167884692
 20
12.8445252507
 10
0.4075541095
 20
12.8165995316
 10
0.3990555626
 20
12.7884080851
 10
0.3913063331
 20
12.7599749482
 10
0.3843196927
 20
12.7313377511
 10
0.3781088544
 20
12.7025375224
 10
0.3726870313
 20
12.6736152906
 10
0.3680674366
 20
12.6446120842
 10
0.3642629062
 20
12.6155598099
 10
0.3612847667
 20
12.5864538865
 10
0.3591439678
 20
12.5572806111
 10
0.3578514588
 20
12.5280262806
 10
0.3574181892
 20
12.498677192
  0
LWPOLYLINE
  5
37F
100
AcDbEntity
  8
0
100
AcDbPolyline
 62
253
  6
CONTINUOUS
 90
25
 70
0
 10
1.4295098285
 20
14.0038741361
 10
1.4515740814
 20
14.003708923
 10
1.4736281429
 20
14.0032134466
 10
1.4956759168
 20
14.0023879508
 10
1.5177213071
 20
14.0012326795
 10
1.5397682177
 20
13.9997478768
 10
1.5618205523
 20
13.9979337865
 10
1.5838822149
 20
13.9957906526
 10
1.6059571093
 20
13.9933187191
 10
1.6280465369
 20
13.9905184035
 10
1.6501413892
 20
13.9873908171
 10
1.6722299549
 20
13.9839372449
 10
1.6943005229
 20
13.9801589719
 10
1.7163413823
 20
13.976057283
 10
1.7383408218
 20
13.971633463
 10
1.7602871303
 20
13.9668887969
 10
1.7821685968
 20
13.9618245696
 10
1.8039759411
 20
13.956441316
 10
1.8257096074
 20
13.9507365697
 10
1.8473724707
 20
13.9447071146
 10
1.8689674061
 20
13.9383497344
 10
1.8904972887
 20
13.9316612127
 10
1.9119649936
 20
13.9246383333
 10
1.9333733959
 20
13.9172778799
 10
1.9547253707
 20
13.9095766361
  0
LWPOLYLINE
  5
380
100
AcDbEntity
  8
0
100
AcDbPolyline
 62
253
  6
CONTINUOUS
 90
42
 70
0
 10
-1.6388797632
 20
14.6737991359
 10
-1.6341933232
 20
14.6737332917
 10
-1.6295545999
 20
14.6735382973
 10
-1.6249590073
 20
14.6732179602
 10
-1.620401959
 20
14.6727760877
 10
-1.6158788691
 20
14.6722164872
 10
-1.6113851513
 20
14.671542966
 10
-1.6069162195
 20
14.6707593315
 10
-1.6024674876
 20
14.6698693911
 10
-1.5974034164
 20
14.6687263553
 10
-1.5923609473
 20
14.6674510801
 10
-1.5873412892
 20
14.6660452014
 10
-1.5823456508
 20
14.6645103554
 10
-1.5773752409
 20
14.6628481783
 10
-1.5724312682
 20
14.6610603062
 10
-1.5675149416
 20
14.6591483751
 10
-1.5626281398
 20
14.6571143222
 10
-1.5577754218
 20
14.6549612879
 10
-1.5529620167
 20
14.6526927134
 10
-1.5481931535
 20
14.6503120403
 10
-1.5434740613
 20
14.6478227099
 10
-1.5388099691
 20
14.6452281634
 10
-1.5342061059
 20
14.6425318423
 10
-1.528917915
 20
14.6392624522
 10
-1.523726427
 20
14.6358668356
 10
-1.5186392488
 20
14.6323526083
 10
-1.5136639876
 20
14.6287273863
 10
-1.5088082505
 20
14.6249987856
 10
-1.5040796446
 20
14.621174422
 10
-1.4994845899
 20
14.6172610814
 10
-1.4950247587
 20
14.6132622289
 10
-1.4907006361
 20
14.6091804994
 10
-1.4865127073
 20
14.6050185279
 10
-1.4824614574
 20
14.6007789492
 10
-1.4785473717
 20
14.5964643983
 10
-1.4753015831
 20
14.5927068327
 10
-1.4721548464
 20
14.5888875525
 10
-1.4691050835
 20
14.5849979889
 10
-1.4661502164
 20
14.5810295732
 10
-1.4632881668
 20
14.5769737365
 10
-1.4605168566
 20
14.5728219099
 10
-1.4578342077
 20
14.5685655248
  0
LWPOLYLINE
  5
381
100
AcDbEntity
  8
0
100
AcDbPolyline
 62
253
  6
CONTINUOUS
 90
42
 70
0
 10
2.2326084191
 20
14.2122599693
 10
2.2347258317
 20
14.2119883
 10
2.2368109662
 20
14.2116613391
 10
2.2388664743
 20
14.2112807158
 10
2.2408950075
 20
14.2108480592
 10
2.2428992175
 20
14.2103649985
 10
2.2448817559
 20
14.209833163
 10
2.2468452742
 20
14.2092541817
 10
2.2487924241
 20
14.2086296838
 10
2.2510002554
 20
14.2078621308
 10
2.253189081
 20
14.207038508
 10
2.2553578112
 20
14.206160068
 10
2.2575053561
 20
14.2052280631
 10
2.2596306259
 20
14.2042437459
 10
2.2617325308
 20
14.2032083689
 10
2.263809981
 20
14.2021231845
 10
2.26586182
 20
14.2009894884
 10
2.2678866241
 20
14.1998087493
 10
2.269882903
 20
14.198582479
 10
2.2718491664
 20
14.1973121892
 10
2.2737839237
 20
14.1959993918
 10
2.2756856847
 20
14.1946455987
 10
2.277552959
 20
14.1932523215
 10
2.2796858469
 20
14.19157898
 10
2.2817672606
 20
14.1898565647
 10
2.2837946947
 20
14.188087686
 10
2.2857656438
 20
14.1862749544
 10
2.2876776025
 20
14.1844209804
 10
2.2895280654
 20
14.1825283744
 10
2.2910634991
 20
14.1808772398
 10
2.2925513382
 20
14.1792004929
 10
2.2939910093
 20
14.177498986
 10
2.2953819392
 20
14.1757735718
 10
2.2967235544
 20
14.1740251025
 10
2.2980152816
 20
14.1722544306
 10
2.2992565476
 20
14.1704624086
 10
2.3004468693
 20
14.1686490981
 10
2.3015861258
 20
14.1668113973
 10
2.3026742867
 20
14.1649454138
 10
2.3037113212
 20
14.1630472551
 10
2.3046971989
 20
14.1611130287
 10
2.3056318893
 20
14.159138842
  0
LWPOLYLINE
  5
382
100
AcDbEntity
  8
0
100
AcDbPolyline
 62
253
  6
CONTINUOUS
 90
21
 70
0
 10
1.683192322
 20
13.5366905251
 10
1.6699730164
 20
13.5398256057
 10
1.6568146767
 20
13.5428239201
 10
1.6437163464
 20
13.5456828146
 10
1.6306770687
 20
13.5483996355
 10
1.6176958871
 20
13.5509717294
 10
1.6047718447
 20
13.5533964425
 10
1.591903985
 20
13.5556711212
 10
1.5790913514
 20
13.557793112
 10
1.566332987
 20
13.5597597612
 10
1.5536279353
 20
13.5615684152
 10
1.5409754502
 20
13.563216455
 10
1.5283756286
 20
13.5647014003
 10
1.5158287778
 20
13.5660208055
 10
1.5033352053
 20
13.5671722248
 10
1.4908952184
 20
13.5681532127
 10
1.4785091246
 20
13.5689613233
 10
1.4661772313
 20
13.5695941111
 10
1.4538998459
 20
13.5700491303
 10
1.4416772758
 20
13.5703239354
 10
1.4295098285
 20
13.5704160806
  0
LWPOLYLINE
  5
383
100
AcDbEntity
  8
ASSI
100
AcDbPolyline
 62
253
  6
CONTINUOUS
 90
49
 70
0
 10
10.91289107
 20
-21.1422526065
 10
10.9121980431
 20
-21.1443742506
 10
10.9111011602
 20
-21.1464941775
 10
10.9096013091
 20
-21.1486106716
 10
10.9076997036
 20
-21.15072202
 10
10.9053978827
 20
-21.1528265139
 10
10.9026977093
 20
-21.15492245
 10
10.8996013688
 20
-21.157008132
 10
10.8961113671
 20
-21.159081872
 10
10.8922305288
 20
-21.1611419917
 10
10.8879619947
 20
-21.1631868236
 10
10.8833092195
 20
-21.1652147129
 10
10.8782759688
 20
-21.1672240184
 10
10.8728663161
 20
-21.1692131139
 10
10.8670846397
 20
-21.1711803894
 10
10.8609356187
 20
-21.173124253
 10
10.8544242297
 20
-21.1750431313
 10
10.8475557427
 20
-21.1769354713
 10
10.8403357164
 20
-21.1787997416
 10
10.8327699942
 20
-21.1806344333
 10
10.8248646992
 20
-21.1824380616
 10
10.8166262295
 20
-21.1842091666
 10
10.8080612525
 20
-21.1859463152
 10
10.7991767003
 20
-21.1876481012
 10
10.7899797632
 20
-21.1893131474
 10
10.7804778847
 20
-21.1909401063
 10
10.7706787548
 20
-21.1925276611
 10
10.7605903043
 20
-21.1940745269
 10
10.750220698
 20
-21.1955794519
 10
10.7395783282
 20
-21.197041218
 10
10.7286718083
 20
-21.1984586422
 10
10.717509965
 20
-21.1998305773
 10
10.706101832
 20
-21.2011559131
 10
10.6944566422
 20
-21.2024335769
 10
10.6825838203
 20
-21.2036625345
 10
10.6704929753
 20
-21.2048417915
 10
10.6581938928
 20
-21.2059703933
 10
10.6456965266
 20
-21.2070474267
 10
10.6330109912
 20
-21.2080720199
 10
10.6201475533
 20
-21.2090433436
 10
10.6071166238
 20
-21.2099606118
 10
10.5939287488
 20
-21.2108230821
 10
10.5805946017
 20
-21.2116300565
 10
10.5671249741
 20
-21.2123808818
 10
10.5535307674
 20
-21.2130749505
 10
10.5398229837
 20
-21.2137117007
 10
10.5260127172
 20
-21.2142906172
 10
10.5121111448
 20
-21.2148112314
 10
10.4981295174
 20
-21.2152731219
  0
LWPOLYLINE
  5
384
100
AcDbEntity
  8
ASSI
100
AcDbPolyline
 62
253
  6
CONTINUOUS
 90
50
 70
0
 10
10.91289107
 20
21.1234580502
 10
10.9121980433
 20
21.1255796943
 10
10.9111011606
 20
21.1276996213
 10
10.9096013097
 20
21.1298161154
 10
10.9076997043
 20
21.1319274638
 10
10.9053978836
 20
21.1340319577
 10
10.9026977104
 20
21.1361278938
 10
10.89960137
 20
21.1382135759
 10
10.8961113685
 20
21.140287316
 10
10.8922305303
 20
21.1423474356
 10
10.8879619963
 20
21.1443922676
 10
10.8833092212
 20
21.146420157
 10
10.8782759706
 20
21.1484294625
 10
10.8728663181
 20
21.1504185579
 10
10.8670846417
 20
21.1523858335
 10
10.8609356208
 20
21.1543296971
 10
10.8544242319
 20
21.1562485755
 10
10.847555745
 20
21.1581409155
 10
10.8403357187
 20
21.1600051858
 10
10.8327699966
 20
21.1618398776
 10
10.8248647016
 20
21.1636435058
 10
10.8166262319
 20
21.165414611
 10
10.808061255
 20
21.1671517595
 10
10.7991767028
 20
21.1688535456
 10
10.7899797657
 20
21.1705185918
 10
10.7804778872
 20
21.1721455507
 10
10.7706787573
 20
21.1737331055
 10
10.7605903068
 20
21.1752799714
 10
10.7502207004
 20
21.1767848964
 10
10.7395783307
 20
21.1782466625
 10
10.7286718106
 20
21.1796640868
 10
10.7175099673
 20
21.181036022
 10
10.7061018343
 20
21.1823613577
 10
10.6944566444
 20
21.1836390215
 10
10.6825838224
 20
21.1848679792
 10
10.6704929774
 20
21.1860472362
 10
10.6581938948
 20
21.1871758381
 10
10.6456965285
 20
21.1882528715
 10
10.633010993
 20
21.1892774646
 10
10.6201475551
 20
21.1902487884
 10
10.6071166255
 20
21.1911660566
 10
10.5939287504
 20
21.192028527
 10
10.5805946031
 20
21.1928355014
 10
10.5671249755
 20
21.1935863267
 10
10.5535307686
 20
21.1942803954
 10
10.5398229849
 20
21.1949171456
 10
10.5260127182
 20
21.1954960621
 10
10.5121111457
 20
21.1960166763
 10
10.4981295181
 20
21.1964785669
 10
10.4699714167
 20
21.1972247296
  0
LINE
  5
385
100
AcDbEntity
  8
ASSI
100
AcDbLine
 62
7
  6
CONTINUOUS
 10
7.713530545
 20
22.1988406624
 11
7.365311871
 21
22.1672318309
  0
LINE
  5
386
100
AcDbEntity
  8
ASSI
100
AcDbLine
 62
253
  6
CONTINUOUS
 10
-10.6829758293
 20
21.1964785656
 11
-10.6548177281
 21
21.1972247283
  0
LINE
  5
387
100
AcDbEntity
  8
ASSI
100
AcDbLine
 62
253
  6
CONTINUOUS
 10
-10.6548177281
 20
21.1972247283
 11
-10.6264758636
 21
21.1977321339
  0
LINE
  5
388
100
AcDbEntity
  8
ASSI
100
AcDbLine
 62
253
  6
CONTINUOUS
 10
-10.6264758636
 20
21.1977321339
 11
-10.5980419684
 21
21.1979991402
  0
LINE
  5
389
100
AcDbEntity
  8
ASSI
100
AcDbLine
 62
253
  6
CONTINUOUS
 10
10.4131956564
 20
21.1979991415
 11
-10.5980419684
 21
21.1979991415
  0
LINE
  5
38A
100
AcDbEntity
  8
ASSI
100
AcDbLine
 62
253
  6
CONTINUOUS
 10
10.4416295519
 20
21.1977321352
 11
10.4131956564
 21
21.1979991415
  0
LINE
  5
38B
100
AcDbEntity
  8
ASSI
100
AcDbLine
 62
253
  6
CONTINUOUS
 10
10.4699714167
 20
21.1972247296
 11
10.4416295519
 21
21.1977321352
  0
LINE
  5
38C
100
AcDbEntity
  8
ASSI
100
AcDbLine
 62
7
  6
CONTINUOUS
 10
-7.8983768569
 20
22.1988406624
 11
-7.5501581829
 21
22.1672318309
  0
LINE
  5
38D
100
AcDbEntity
  8
ASSI
100
AcDbLine
 62
7
  6
CONTINUOUS
 10
-3.486469455
 20
22.1988406624
 11
-3.834688129
 21
22.1672318309
  0
LINE
  5
38E
100
AcDbEntity
  8
ASSI
100
AcDbLine
 62
253
  6
CONTINUOUS
 10
10.4295471121
 20
22.0475464938
 11
-10.614393424
 21
22.0475464938
  0
LINE
  5
38F
100
AcDbEntity
  8
ASSI
100
AcDbLine
 62
7
  6
CONTINUOUS
 10
7.1921067902
 20
22.1619910529
 11
3.8230468979
 21
22.1619910529
  0
LINE
  5
390
100
AcDbEntity
  8
ASSI
100
AcDbLine
 62
7
  6
CONTINUOUS
 10
-4.0078932098
 20
22.1619910529
 11
-7.3769531021
 21
22.1619910529
  0
LINE
  5
391
100
AcDbEntity
  8
ASSI
100
AcDbLine
 62
7
  6
CONTINUOUS
 10
-10.7152049612
 20
22.1988406624
 11
-7.8983768569
 21
22.1988406624
  0
LINE
  5
392
100
AcDbEntity
  8
ASSI
100
AcDbLine
 62
7
  6
CONTINUOUS
 10
-3.486469455
 20
22.1988406624
 11
3.3016231431
 21
22.1988406624
  0
LINE
  5
393
100
AcDbEntity
  8
ASSI
100
AcDbLine
 62
7
  6
CONTINUOUS
 10
7.713530545
 20
22.1988406624
 11
10.5303586493
 21
22.1988406624
  0
LINE
  5
394
100
AcDbEntity
  8
ASSI
100
AcDbLine
 62
7
  6
CONTINUOUS
 10
3.3016231431
 20
22.1988406624
 11
3.6498418171
 21
22.1672318309
  0
LINE
  5
395
100
AcDbEntity
  8
ASSI
100
AcDbLine
 62
7
  6
CONTINUOUS
 10
-29.7991838651
 20
-22.0663410501
 11
-26.9123191532
 21
-22.2176352187
  0
LINE
  5
396
100
AcDbEntity
  8
ASSI
100
AcDbLine
 62
253
  6
CONTINUOUS
 10
-29.7904656353
 20
-21.5670262827
 11
-26.8687943626
 21
-21.7201445859
  0
LWPOLYLINE
  5
397
100
AcDbEntity
  8
ASSI
100
AcDbPolyline
 62
253
  6
CONTINUOUS
 90
7
 70
0
 10
-30.7285530746
 20
-21.2152731219
 10
-30.7307340507
 20
-21.215675915
 10
-30.7325188825
 20
-21.2160192846
 10
-30.7339061256
 20
-21.2163029529
 10
-30.7348946573
 20
-21.2165266902
 10
-30.7354836774
 20
-21.2166903156
 10
-30.7356727093
 20
-21.2167936965
  0
LINE
  5
398
100
AcDbEntity
  8
ASSI
100
AcDbLine
 62
253
  6
CONTINUOUS
 10
-30.7230100695
 20
-21.2142906172
 11
-30.7285530746
 21
-21.2152731219
  0
LINE
  5
399
100
AcDbEntity
  8
ASSI
100
AcDbLine
 62
253
  6
CONTINUOUS
 10
-30.7117789443
 20
-21.2123808818
 11
-30.7230100695
 21
-21.2142906172
  0
LINE
  5
39A
100
AcDbEntity
  8
ASSI
100
AcDbLine
 62
253
  6
CONTINUOUS
 10
-30.6855001314
 20
-21.2080720199
 11
-30.7117789443
 21
-21.2123808818
  0
LINE
  5
39B
100
AcDbEntity
  8
ASSI
100
AcDbLine
 62
253
  6
CONTINUOUS
 10
-30.6160569962
 20
-21.197041218
 11
-30.6855001314
 21
-21.2080720199
  0
LINE
  5
39C
100
AcDbEntity
  8
ASSI
100
AcDbLine
 62
253
  6
CONTINUOUS
 10
-30.2587100617
 20
-21.1422526065
 11
-30.6160569962
 21
-21.197041218
  0
LINE
  5
39D
100
AcDbEntity
  8
ASSI
100
AcDbLine
 62
253
  6
CONTINUOUS
 10
-26.538327309
 20
-17.9428888793
 11
-26.5154515887
 21
-17.9428888793
  0
LWPOLYLINE
  5
39E
100
AcDbEntity
  8
ASSI
100
AcDbPolyline
 62
253
  6
CONTINUOUS
 90
3
 70
0
 10
-31.7243851876
 20
-9.5093630538
 10
-31.7249914272
 20
-9.509384003
 10
-31.725193442
 20
-9.5093972781
  0
LINE
  5
39F
100
AcDbEntity
  8
ASSI
100
AcDbLine
 62
253
  6
CONTINUOUS
 10
-31.7201476566
 20
-9.5092543626
 11
-31.7243851876
 21
-9.5093630538
  0
LINE
  5
3A0
100
AcDbEntity
  8
ASSI
100
AcDbLine
 62
253
  6
CONTINUOUS
 10
-31.2427334486
 20
-9.4998972781
 11
-31.7201476566
 21
-9.5092543626
  0
LWPOLYLINE
  5
3A1
100
AcDbEntity
  8
ASSI
100
AcDbPolyline
 62
253
  6
CONTINUOUS
 90
28
 70
0
 10
-30.2587100617
 20
21.1234580502
 10
-30.3222355068
 20
20.6950810104
 10
-30.3836847901
 20
20.2664218165
 10
-30.4430579115
 20
19.8374804685
 10
-30.5003561636
 20
19.4082468993
 10
-30.5555782538
 20
18.978731176
 10
-30.6087203047
 20
18.5489635002
 10
-30.6597821682
 20
18.1189438678
 10
-30.7087639923
 20
17.6886722829
 10
-30.7556623437
 20
17.2581789591
 10
-30.8004770757
 20
16.8274638853
 10
-30.8432083349
 20
16.3965270726
 10
-30.8838531277
 20
15.9653987686
 10
-30.9224113076
 20
15.5340789628
 10
-30.9588830209
 20
15.1025676656
 10
-30.9932657132
 20
14.6708951564
 10
-31.0255592383
 20
14.2390614211
 10
-31.0557637424
 20
13.8070664737
 10
-31.0838771089
 20
13.3749406355
 10
-31.1098991916
 20
12.9426838933
 10
-31.1338301369
 20
12.5102962603
 10
-31.1556682674
 20
12.077808098
 10
-31.1754134369
 20
11.6452193793
 10
-31.1930657917
 20
11.2125301313
 10
-31.208624094
 20
10.7797707972
 10
-31.2220879314
 20
10.3469515249
 10
-31.2334577162
 20
9.9140621664
 10
-31.2609133072
 20
8.470625569
  0
LWPOLYLINE
  5
3A2
100
AcDbEntity
  8
ASSI
100
AcDbPolyline
 62
253
  6
CONTINUOUS
 90
58
 70
0
 10
-30.2587100617
 20
-21.1422526065
 10
-30.25677584
 20
-21.1541111092
 10
-30.2545604243
 20
-21.1659067696
 10
-30.2520638143
 20
-21.1776395877
 10
-30.2492842281
 20
-21.1893164042
 10
-30.2462234477
 20
-21.2009303784
 10
-30.2428868197
 20
-21.2124609883
 10
-30.239273885
 20
-21.2239079539
 10
-30.2353851027
 20
-21.2352715552
 10
-30.2312271968
 20
-21.2465321105
 10
-30.2267997094
 20
-21.257689418
 10
-30.2221030983
 20
-21.2687436794
 10
-30.2171454612
 20
-21.2796758184
 10
-30.2119263436
 20
-21.2904856343
 10
-30.2064461998
 20
-21.3011733278
 10
-30.2007144903
 20
-21.3117204242
 10
-30.1947307796
 20
-21.3221266809
 10
-30.1884955032
 20
-21.3323923405
 10
-30.1820194278
 20
-21.342499656
 10
-30.1753021359
 20
-21.3524483548
 10
-30.1683440449
 20
-21.3622387095
 10
-30.1611571741
 20
-21.3718537909
 10
-30.153741132
 20
-21.3812932912
 10
-30.14609631
 20
-21.390557518
 10
-30.1382359018
 20
-21.399630465
 10
-30.1301595284
 20
-21.4085118087
 10
-30.1218675687
 20
-21.4172018725
 10
-30.1133743534
 20
-21.4256856207
 10
-30.1046795383
 20
-21.4339626924
 10
-30.0957834676
 20
-21.4420334485
 10
-30.0867015037
 20
-21.4498839366
 10
-30.0774333194
 20
-21.4575137802
 10
-30.0679792418
 20
-21.4649233556
 10
-30.0583556155
 20
-21.4720998397
 10
-30.0485621538
 20
-21.4790428243
 10
-30.0385991433
 20
-21.4857527176
 10
-30.0284837883
 20
-21.4922179201
 10
-30.0182158186
 20
-21.4984380129
 10
-30.0077955043
 20
-21.5044134149
 10
-29.9972408601
 20
-21.5101337836
 10
-29.9865516528
 20
-21.5155986772
 10
-29.9757281156
 20
-21.5208085375
 10
-29.9647889621
 20
-21.5257543471
 10
-29.9537339911
 20
-21.5304356486
 10
-29.9425634037
 20
-21.5348528993
 10
-29.9312965178
 20
-21.5389984542
 10
-29.919933177
 20
-21.5428718405
 10
-29.9084735377
 20
-21.546473531
 10
-29.8969373855
 20
-21.5497972982
 10
-29.8853245632
 20
-21.5528426656
 10
-29.8736352282
 20
-21.5556101097
 10
-29.8618896383
 20
-21.5580948338
 10
-29.8500874955
 20
-21.5602963565
 10
-29.8382290977
 20
-21.5622151591
 10
-29.8263355976
 20
-21.5638478883
 10
-29.8144140459
 20
-21.5651934264
 10
-29.8024573918
 20
-21.5662528912
 10
-29.7904656353
 20
-21.5670262827
  0
LINE
  5
3A3
100
AcDbEntity
  8
0
100
AcDbLine
 62
253
  6
CONTINUOUS
 10
-31.5466008604
 20
-13.7182710227
 11
-31.5606414483
 21
-13.5012421339
  0
LINE
  5
3A4
100
AcDbEntity
  8
0
100
AcDbLine
 62
253
  6
CONTINUOUS
 10
-31.6671956327
 20
-11.4543196344
 11
-31.6757312805
 21
-11.2378904678
  0
LWPOLYLINE
  5
3A5
100
AcDbEntity
  8
ASSI
100
AcDbPolyline
 62
253
  6
CONTINUOUS
 90
27
 70
0
 10
-31.2334577162
 20
-9.9328567227
 10
-31.2220879314
 20
-10.3657460811
 10
-31.208624094
 20
-10.7985653535
 10
-31.1930657917
 20
-11.2313246876
 10
-31.1754134369
 20
-11.6640139356
 10
-31.1556682674
 20
-12.0966026543
 10
-31.1338301369
 20
-12.5290908166
 10
-31.1098991916
 20
-12.9614784496
 10
-31.0838771089
 20
-13.3937351918
 10
-31.0557637424
 20
-13.82586103
 10
-31.0255592383
 20
-14.2578559774
 10
-30.9932657132
 20
-14.6896897127
 10
-30.9588830209
 20
-15.1213622219
 10
-30.9224113076
 20
-15.552873519
 10
-30.8838531277
 20
-15.9841933249
 10
-30.8432083349
 20
-16.4153216289
 10
-30.8004770757
 20
-16.8462584415
 10
-30.7556623437
 20
-17.2769735154
 10
-30.7087639923
 20
-17.7074668392
 10
-30.6597821682
 20
-18.1377384241
 10
-30.6087203047
 20
-18.5677580565
 10
-30.5555782538
 20
-18.9975257323
 10
-30.5003561636
 20
-19.4270414556
 10
-30.4430579115
 20
-19.8562750248
 10
-30.3836847901
 20
-20.2852163728
 10
-30.3222355068
 20
-20.7138755667
 10
-30.2587100617
 20
-21.1422526065
  0
LINE
  5
3A6
100
AcDbEntity
  8
0
100
AcDbLine
 62
253
  6
CONTINUOUS
 10
-31.6841633855
 20
10.9909755257
 11
-31.6602648964
 21
11.6022415735
  0
LINE
  5
3A7
100
AcDbEntity
  8
0
100
AcDbLine
 62
253
  6
CONTINUOUS
 10
-31.6610869516
 20
11.5828488536
 11
-31.62479485
 21
12.3612716413
  0
LINE
  5
3A8
100
AcDbEntity
  8
0
100
AcDbLine
 62
253
  6
CONTINUOUS
 10
-31.62479485
 20
12.3612716413
 11
-31.6024691808
 21
12.7801421899
  0
LINE
  5
3A9
100
AcDbEntity
  8
0
100
AcDbLine
 62
253
  6
CONTINUOUS
 10
-31.6029961153
 20
12.7706634915
 11
-31.5791177669
 21
13.1835310484
  0
LINE
  5
3AA
100
AcDbEntity
  8
0
100
AcDbLine
 62
253
  6
CONTINUOUS
 10
-31.5803713933
 20
13.1626466204
 11
-31.5460223389
 21
13.7082476949
  0
LINE
  5
3AB
100
AcDbEntity
  8
0
100
AcDbLine
 62
253
  6
CONTINUOUS
 10
-31.5460223389
 20
13.7082476949
 11
-31.5260808858
 21
14.0030018688
  0
LWPOLYLINE
  5
3AC
100
AcDbEntity
  8
ASSI
100
AcDbPolyline
 62
253
  6
CONTINUOUS
 90
16
 70
0
 10
-31.3302707132
 20
0.1695939943
 10
-31.3300413182
 20
0.1653628531
 10
-31.3298045898
 20
0.1614005013
 10
-31.3295608165
 20
0.1577117646
 10
-31.329310295
 20
0.1543011354
 10
-31.3290533306
 20
0.1511727674
 10
-31.328790236
 20
0.1483304705
 10
-31.3285213319
 20
0.1457777064
 10
-31.3282469455
 20
0.1435175839
 10
-31.3279674112
 20
0.1415528556
 10
-31.3276830693
 20
0.1398859143
 10
-31.3273942661
 20
0.1385187902
 10
-31.3271013535
 20
0.1374531481
 10
-31.326804688
 20
0.136690286
 10
-31.326504631
 20
0.1362311328
 10
-31.3262015479
 20
0.1360762478
  0
LINE
  5
3AD
100
AcDbEntity
  8
ASSI
100
AcDbLine
 62
253
  6
CONTINUOUS
 10
-31.3307063951
 20
0.178841712
 11
-31.3302707132
 21
0.1695939943
  0
LINE
  5
3AE
100
AcDbEntity
  8
ASSI
100
AcDbLine
 62
253
  6
CONTINUOUS
 10
-31.3311095137
 20
0.1890986178
 11
-31.3307063951
 21
0.178841712
  0
LINE
  5
3AF
100
AcDbEntity
  8
ASSI
100
AcDbLine
 62
253
  6
CONTINUOUS
 10
-31.331478106
 20
0.2003147605
 11
-31.3311095137
 21
0.1890986178
  0
LINE
  5
3B0
100
AcDbEntity
  8
ASSI
100
AcDbLine
 62
253
  6
CONTINUOUS
 10
-31.3318103767
 20
0.2124355174
 11
-31.331478106
 21
0.2003147605
  0
LINE
  5
3B1
100
AcDbEntity
  8
ASSI
100
AcDbLine
 62
253
  6
CONTINUOUS
 10
-31.3322371907
 20
0.2321825459
 11
-31.3318103767
 21
0.2124355174
  0
LWPOLYLINE
  5
3B2
100
AcDbEntity
  8
ASSI
100
AcDbPolyline
 62
253
  6
CONTINUOUS
 90
18
 70
0
 10
-29.8043062931
 20
-22.0062276522
 10
-29.8042083767
 20
-22.0129426032
 10
-29.8040841296
 20
-22.0192811413
 10
-29.8039336568
 20
-22.0252379159
 10
-29.8037570852
 20
-22.0308078988
 10
-29.803554564
 20
-22.0359863881
 10
-29.8033262641
 20
-22.0407690125
 10
-29.8030723782
 20
-22.0451517348
 10
-29.8027931205
 20
-22.0491308554
 10
-29.802488727
 20
-22.0527030154
 10
-29.8021594544
 20
-22.0558651995
 10
-29.8018055807
 20
-22.0586147383
 10
-29.8014274047
 20
-22.0609493108
 10
-29.8010252456
 20
-22.0628669463
 10
-29.8005994428
 20
-22.0643660262
 10
-29.8001503559
 20
-22.0654452849
 10
-29.7996783638
 20
-22.0661038115
 10
-29.7991838651
 20
-22.0663410501
  0
LINE
  5
3B3
100
AcDbEntity
  8
ASSI
100
AcDbLine
 62
253
  6
CONTINUOUS
 10
-31.3325740093
 20
0.2536149085
 11
-31.3322371907
 21
0.2321825459
  0
LINE
  5
3B4
100
AcDbEntity
  8
ASSI
100
AcDbLine
 62
253
  6
CONTINUOUS
 10
-31.3328171437
 20
0.2764978788
 11
-31.3325740093
 21
0.2536149085
  0
LINE
  5
3B5
100
AcDbEntity
  8
ASSI
100
AcDbLine
 62
253
  6
CONTINUOUS
 10
-29.8044228258
 20
-21.9916914978
 11
-29.8043062931
 21
-22.0062276522
  0
LINE
  5
3B6
100
AcDbEntity
  8
ASSI
100
AcDbLine
 62
253
  6
CONTINUOUS
 10
-31.3327447882
 20
-0.4048612849
 11
-31.3329631078
 21
-0.3700760331
  0
LINE
  5
3B7
100
AcDbEntity
  8
ASSI
100
AcDbLine
 62
253
  6
CONTINUOUS
 10
-31.3329911413
 20
0.3088298999
 11
-31.3328171437
 21
0.2764978788
  0
LWPOLYLINE
  5
3B8
100
AcDbEntity
  8
ASSI
100
AcDbPolyline
 62
253
  6
CONTINUOUS
 90
10
 70
0
 10
-31.3327428716
 20
-0.4048612682
 10
-31.3309211104
 20
-1.4154967914
 10
-31.3270544685
 20
-2.4261141276
 10
-31.3211429459
 20
-3.4367132769
 10
-31.3131864635
 20
-4.447295312
 10
-31.3031851003
 20
-5.4578591601
 10
-31.2911390935
 20
-6.4684016027
 10
-31.2770485222
 20
-7.4789215668
 10
-31.2609133072
 20
-8.4894201252
 10
-31.2334577162
 20
-9.9328567227
  0
LINE
  5
3B9
100
AcDbEntity
  8
ASSI
100
AcDbLine
 62
253
  6
CONTINUOUS
 10
-31.3329631078
 20
-0.3700760331
 11
-31.3330074256
 21
-0.3359675746
  0
LINE
  5
3BA
100
AcDbEntity
  8
ASSI
100
AcDbLine
 62
253
  6
CONTINUOUS
 10
-31.3329905918
 20
0.3426646661
 11
-31.3329911413
 21
0.3088298999
  0
LINE
  5
3BB
100
AcDbEntity
  8
ASSI
100
AcDbLine
 62
253
  6
CONTINUOUS
 10
-31.3330074256
 20
-0.3359675746
 11
-31.3328768795
 21
-0.3031995352
  0
LWPOLYLINE
  5
3BC
100
AcDbEntity
  8
ASSI
100
AcDbPolyline
 62
253
  6
CONTINUOUS
 90
3
 70
0
 10
-31.3327447882
 20
0.3860667286
 10
-31.3328155058
 20
0.3773438771
 10
-31.3329905918
 20
0.3426646661
  0
LWPOLYLINE
  5
3BD
100
AcDbEntity
  8
ASSI
100
AcDbPolyline
 62
253
  6
CONTINUOUS
 90
19
 70
0
 10
-29.8044228259
 20
21.9728969397
 10
-29.8043062932
 20
21.9874330944
 10
-29.8042083767
 20
21.9941480455
 10
-29.8040841297
 20
22.0004865837
 10
-29.8039336568
 20
22.0064433585
 10
-29.8037570853
 20
22.0120133416
 10
-29.8035545641
 20
22.017191831
 10
-29.8033262642
 20
22.0219744555
 10
-29.8030723782
 20
22.0263571779
 10
-29.8027931206
 20
22.0303362987
 10
-29.802488727
 20
22.0339084588
 10
-29.8021594544
 20
22.0370706429
 10
-29.8018055808
 20
22.0398201817
 10
-29.8014274047
 20
22.0421547543
 10
-29.8010252456
 20
22.0440723899
 10
-29.8005994429
 20
22.0455714698
 10
-29.8001503559
 20
22.0466507286
 10
-29.7996783638
 20
22.0473092552
 10
-29.7991838651
 20
22.0475464938
  0
LINE
  5
3BE
100
AcDbEntity
  8
ASSI
100
AcDbLine
 62
253
  6
CONTINUOUS
 10
-31.3328768795
 20
-0.3031995352
 11
-31.3326656164
 21
-0.2798880134
  0
LINE
  5
3BF
100
AcDbEntity
  8
ASSI
100
AcDbLine
 62
253
  6
CONTINUOUS
 10
-31.3326656164
 20
-0.2798880134
 11
-31.3323596659
 21
-0.2579451947
  0
LWPOLYLINE
  5
3C0
100
AcDbEntity
  8
ASSI
100
AcDbPolyline
 62
253
  6
CONTINUOUS
 90
9
 70
0
 10
-31.2609133072
 20
8.470625569
 10
-31.2770485222
 20
7.4601270105
 10
-31.2911390935
 20
6.4496070464
 10
-31.3031851003
 20
5.4390646039
 10
-31.3131864635
 20
4.4285007557
 10
-31.3211429459
 20
3.4179187206
 10
-31.3270544685
 20
2.4073195714
 10
-31.3309211104
 20
1.3967022351
 10
-31.3327428716
 20
0.3860667119
  0
LINE
  5
3C1
100
AcDbEntity
  8
ASSI
100
AcDbLine
 62
253
  6
CONTINUOUS
 10
-31.3323596659
 20
-0.2579451947
 11
-31.3319623787
 21
-0.2376113962
  0
LINE
  5
3C2
100
AcDbEntity
  8
ASSI
100
AcDbLine
 62
253
  6
CONTINUOUS
 10
-31.3319623787
 20
-0.2376113962
 11
-31.3316488869
 21
-0.2250602036
  0
LINE
  5
3C3
100
AcDbEntity
  8
ASSI
100
AcDbLine
 62
253
  6
CONTINUOUS
 10
-31.3316488869
 20
-0.2250602036
 11
-31.3312982418
 21
-0.2133846445
  0
LINE
  5
3C4
100
AcDbEntity
  8
ASSI
100
AcDbLine
 62
253
  6
CONTINUOUS
 10
-31.3312982418
 20
-0.2133846445
 11
-31.3309121513
 21
-0.2026415787
  0
LWPOLYLINE
  5
3C5
100
AcDbEntity
  8
ASSI
100
AcDbPolyline
 62
253
  6
CONTINUOUS
 90
18
 70
0
 10
-31.3309121513
 20
-0.2026415787
 10
-31.3304924955
 20
-0.1928833253
 10
-31.3302707131
 20
-0.1883885479
 10
-31.3300413181
 20
-0.1841574069
 10
-31.3298045898
 20
-0.1801950554
 10
-31.3295608164
 20
-0.1765063189
 10
-31.329310295
 20
-0.17309569
 10
-31.3290533305
 20
-0.1699673222
 10
-31.328790236
 20
-0.1671250256
 10
-31.3285213318
 20
-0.1645722617
 10
-31.3282469454
 20
-0.1623121394
 10
-31.3279674111
 20
-0.1603474113
 10
-31.3276830692
 20
-0.1586804702
 10
-31.3273942661
 20
-0.1573133462
 10
-31.3271013534
 20
-0.1562477042
 10
-31.326804688
 20
-0.1554848422
 10
-31.326504631
 20
-0.1550256891
 10
-31.3262015479
 20
-0.1548708041
  0
LINE
  5
3C6
100
AcDbEntity
  8
ASSI
100
AcDbLine
 62
253
  6
CONTINUOUS
 10
-29.7904656353
 20
21.5482317264
 11
-29.7940654092
 21
21.6205149095
  0
LINE
  5
3C7
100
AcDbEntity
  8
ASSI
100
AcDbLine
 62
253
  6
CONTINUOUS
 10
-29.7940654092
 20
21.6205149095
 11
-29.7972217175
 21
21.6912752503
  0
LINE
  5
3C8
100
AcDbEntity
  8
ASSI
100
AcDbLine
 62
253
  6
CONTINUOUS
 10
-29.7972217175
 20
21.6912752503
 11
-29.7993824326
 21
21.7457834004
  0
LINE
  5
3C9
100
AcDbEntity
  8
ASSI
100
AcDbLine
 62
253
  6
CONTINUOUS
 10
-29.7993824326
 20
21.7457834004
 11
-29.8011874133
 21
21.7976262054
  0
LINE
  5
3CA
100
AcDbEntity
  8
ASSI
100
AcDbLine
 62
253
  6
CONTINUOUS
 10
-29.8011874133
 20
21.7976262054
 11
-29.8026123068
 21
21.8461042081
  0
LINE
  5
3CB
100
AcDbEntity
  8
ASSI
100
AcDbLine
 62
253
  6
CONTINUOUS
 10
-29.8026123068
 20
21.8461042081
 11
-29.8034197795
 21
21.879859141
  0
LINE
  5
3CC
100
AcDbEntity
  8
ASSI
100
AcDbLine
 62
253
  6
CONTINUOUS
 10
-29.8034197795
 20
21.879859141
 11
-29.8039963977
 21
21.9110960513
  0
LINE
  5
3CD
100
AcDbEntity
  8
ASSI
100
AcDbLine
 62
253
  6
CONTINUOUS
 10
-29.8039963977
 20
21.9110960513
 11
-29.804250322
 21
21.930403789
  0
LINE
  5
3CE
100
AcDbEntity
  8
ASSI
100
AcDbLine
 62
253
  6
CONTINUOUS
 10
-29.804250322
 20
21.930403789
 11
-29.8043988044
 21
21.9484213822
  0
LWPOLYLINE
  5
3CF
100
AcDbEntity
  8
ASSI
100
AcDbPolyline
 62
253
  6
CONTINUOUS
 90
3
 70
0
 10
-29.8043988044
 20
21.9484213822
 10
-29.8044413438
 20
21.9650880065
 10
-29.8044228259
 20
21.9728969397
  0
LINE
  5
3D0
100
AcDbEntity
  8
ASSI
100
AcDbLine
 62
253
  6
CONTINUOUS
 10
-29.8044333343
 20
-21.9757217495
 11
-29.8044228258
 21
-21.9916914978
  0
LINE
  5
3D1
100
AcDbEntity
  8
ASSI
100
AcDbLine
 62
253
  6
CONTINUOUS
 10
-29.8043377831
 20
-21.9583723184
 11
-29.8044333343
 21
-21.9757217495
  0
LINE
  5
3D2
100
AcDbEntity
  8
ASSI
100
AcDbLine
 62
253
  6
CONTINUOUS
 10
-29.8041364948
 20
-21.939701773
 11
-29.8043377831
 21
-21.9583723184
  0
LINE
  5
3D3
100
AcDbEntity
  8
ASSI
100
AcDbLine
 62
253
  6
CONTINUOUS
 10
-29.8036378887
 20
-21.9093579078
 11
-29.8041364948
 21
-21.939701773
  0
LINE
  5
3D4
100
AcDbEntity
  8
ASSI
100
AcDbLine
 62
253
  6
CONTINUOUS
 10
-29.802906772
 20
-21.8764147438
 11
-29.8036378887
 21
-21.9093579078
  0
LINE
  5
3D5
100
AcDbEntity
  8
ASSI
100
AcDbLine
 62
253
  6
CONTINUOUS
 10
-29.8019486961
 20
-21.841122416
 11
-29.802906772
 21
-21.8764147438
  0
LINE
  5
3D6
100
AcDbEntity
  8
ASSI
100
AcDbLine
 62
253
  6
CONTINUOUS
 10
-29.8003310285
 20
-21.7908772026
 11
-29.8019486961
 21
-21.841122416
  0
LINE
  5
3D7
100
AcDbEntity
  8
ASSI
100
AcDbLine
 62
253
  6
CONTINUOUS
 10
-29.7983448281
 20
-21.7376118175
 11
-29.8003310285
 21
-21.7908772026
  0
LINE
  5
3D8
100
AcDbEntity
  8
ASSI
100
AcDbLine
 62
253
  6
CONTINUOUS
 10
-29.7960168925
 20
-21.6820449113
 11
-29.7983448281
 21
-21.7376118175
  0
LINE
  5
3D9
100
AcDbEntity
  8
ASSI
100
AcDbLine
 62
253
  6
CONTINUOUS
 10
-29.7926746615
 20
-21.6104940306
 11
-29.7960168925
 21
-21.6820449113
  0
LINE
  5
3DA
100
AcDbEntity
  8
ASSI
100
AcDbLine
 62
253
  6
CONTINUOUS
 10
-29.7904656353
 20
-21.5670262827
 11
-29.7926746615
 21
-21.6104940306
  0
LINE
  5
3DB
100
AcDbEntity
  8
ASSI
100
AcDbLine
 62
253
  6
CONTINUOUS
 10
-26.1154515887
 20
-0.3593306569
 11
-31.3327428716
 21
-0.4048612682
  0
LINE
  5
3DC
100
AcDbEntity
  8
ASSI
100
AcDbLine
 62
7
  6
CONTINUOUS
 10
-26.1154515887
 20
-0.1093972781
 11
-31.5674750817
 21
-0.1569763664
  0
LINE
  5
3DD
100
AcDbEntity
  8
ASSI
100
AcDbLine
 62
253
  6
CONTINUOUS
 10
-31.3327428716
 20
-0.4048612758
 11
-31.8152933685
 21
-0.4071657322
  0
LINE
  5
3DE
100
AcDbEntity
  8
ASSI
100
AcDbLine
 62
7
  6
CONTINUOUS
 10
-31.5674750817
 20
0.1381818101
 11
-26.1154515887
 21
0.0906027219
  0
LINE
  5
3DF
100
AcDbEntity
  8
ASSI
100
AcDbLine
 62
7
  6
CONTINUOUS
 10
-26.5154515887
 20
-17.942887087
 11
-26.5154515887
 21
-17.6814181992
  0
LINE
  5
3E0
100
AcDbEntity
  8
ASSI
100
AcDbLine
 62
7
  6
CONTINUOUS
 10
-26.5154515887
 20
17.662623643
 11
-26.5154515887
 21
17.9240925307
  0
LINE
  5
3E1
100
AcDbEntity
  8
ASSI
100
AcDbLine
 62
7
  6
CONTINUOUS
 10
-26.1154515887
 20
-0.1093972781
 11
-26.1154515887
 21
-13.1093972781
  0
LINE
  5
3E2
100
AcDbEntity
  8
ASSI
100
AcDbLine
 62
7
  6
CONTINUOUS
 10
-26.1154515887
 20
0.0906027219
 11
-26.1154515887
 21
13.0906027219
  0
LINE
  5
3E3
100
AcDbEntity
  8
ASSI
100
AcDbLine
 62
253
  6
CONTINUOUS
 10
-31.8152933685
 20
0.3883711759
 11
-31.3327428716
 21
0.3860667195
  0
LINE
  5
3E4
100
AcDbEntity
  8
ASSI
100
AcDbLine
 62
253
  6
CONTINUOUS
 10
-31.3327428716
 20
0.3860667119
 11
-26.1154515887
 21
0.3405361006
  0
LINE
  5
3E5
100
AcDbEntity
  8
ASSI
100
AcDbLine
 62
7
  6
CONTINUOUS
 10
-26.9123191532
 20
22.1988406624
 11
-26.1154515887
 21
13.0906027219
  0
LINE
  5
3E6
100
AcDbEntity
  8
ASSI
100
AcDbLine
 62
7
  6
CONTINUOUS
 10
-26.9123191532
 20
-22.2176352187
 11
-26.1154515887
 21
-13.1093972781
  0
LWPOLYLINE
  5
3E7
100
AcDbEntity
  8
ASSI
100
AcDbPolyline
 62
253
  6
CONTINUOUS
 90
3
 70
0
 10
-31.2427334486
 20
9.4811027219
 10
-31.7219623224
 20
9.4905036512
 10
-31.7233752138
 20
9.4905398913
  0
LWPOLYLINE
  5
3E8
100
AcDbEntity
  8
ASSI
100
AcDbPolyline
 62
253
  6
CONTINUOUS
 90
3
 70
0
 10
-31.7243851877
 20
9.4905684976
 10
-31.7249914273
 20
9.4905894467
 10
-31.7251934421
 20
9.4906027219
  0
LINE
  5
3E9
100
AcDbEntity
  8
ASSI
100
AcDbLine
 62
253
  6
CONTINUOUS
 10
-26.538327309
 20
17.9240943232
 11
-26.5154515887
 21
17.9240943231
  0
LWPOLYLINE
  5
3EA
100
AcDbEntity
  8
ASSI
100
AcDbPolyline
 62
253
  6
CONTINUOUS
 90
58
 70
0
 10
-29.7904656353
 20
21.5482317264
 10
-29.8024573918
 20
21.5474583349
 10
-29.8144140459
 20
21.5463988702
 10
-29.8263355976
 20
21.545053332
 10
-29.8382290977
 20
21.5434206028
 10
-29.8500874955
 20
21.5415018002
 10
-29.8618896383
 20
21.5393002775
 10
-29.8736352282
 20
21.5368155534
 10
-29.8853245632
 20
21.5340481093
 10
-29.8969373855
 20
21.531002742
 10
-29.9084735377
 20
21.5276789747
 10
-29.919933177
 20
21.5240772843
 10
-29.9312965178
 20
21.5202038979
 10
-29.9425634037
 20
21.5160583431
 10
-29.9537339911
 20
21.5116410923
 10
-29.9647889621
 20
21.5069597908
 10
-29.9757281156
 20
21.5020139812
 10
-29.9865516528
 20
21.4968041209
 10
-29.9972408601
 20
21.4913392273
 10
-30.0077955043
 20
21.4856188586
 10
-30.0182158186
 20
21.4796434566
 10
-30.0284837883
 20
21.4734233638
 10
-30.0385991433
 20
21.4669581613
 10
-30.0485621538
 20
21.460248268
 10
-30.0583556155
 20
21.4533052834
 10
-30.0679792418
 20
21.4461287993
 10
-30.0774333194
 20
21.4387192239
 10
-30.0867015037
 20
21.4310893803
 10
-30.0957834676
 20
21.4232388923
 10
-30.1046795383
 20
21.4151681361
 10
-30.1133743534
 20
21.4068910644
 10
-30.1218675687
 20
21.3984073162
 10
-30.1301595284
 20
21.3897172524
 10
-30.1382359018
 20
21.3808359088
 10
-30.14609631
 20
21.3717629617
 10
-30.153741132
 20
21.3624987349
 10
-30.1611571741
 20
21.3530592346
 10
-30.1683440449
 20
21.3434441533
 10
-30.1753021359
 20
21.3336537985
 10
-30.1820194278
 20
21.3237050997
 10
-30.1884955032
 20
21.3135977842
 10
-30.1947307796
 20
21.3033321246
 10
-30.2007144903
 20
21.2929258679
 10
-30.2064461998
 20
21.2823787715
 10
-30.2119263436
 20
21.271691078
 10
-30.2171454612
 20
21.2608812621
 10
-30.2221030983
 20
21.2499491231
 10
-30.2267997094
 20
21.2388948617
 10
-30.2312271968
 20
21.2277375542
 10
-30.2353851027
 20
21.2164769989
 10
-30.239273885
 20
21.2051133976
 10
-30.2428868197
 20
21.1936664321
 10
-30.2462234477
 20
21.1821358221
 10
-30.2492842281
 20
21.1705218479
 10
-30.2520638143
 20
21.1588450314
 10
-30.2545604243
 20
21.1471122133
 10
-30.25677584
 20
21.1353165529
 10
-30.2587100617
 20
21.1234580502
  0
LINE
  5
3EB
100
AcDbEntity
  8
ASSI
100
AcDbLine
 62
253
  6
CONTINUOUS
 10
-26.8687943626
 20
21.7013500296
 11
-29.7904656353
 21
21.5482317264
  0
LINE
  5
3EC
100
AcDbEntity
  8
ASSI
100
AcDbLine
 62
7
  6
CONTINUOUS
 10
-26.9123191532
 20
22.1988406624
 11
-29.7991838651
 21
22.0475464938
  0
LINE
  5
3ED
100
AcDbEntity
  8
ASSI
100
AcDbLine
 62
253
  6
CONTINUOUS
 10
-30.2587100617
 20
21.1234580502
 11
-30.587205759
 21
21.1737331055
  0
LINE
  5
3EE
100
AcDbEntity
  8
ASSI
100
AcDbLine
 62
253
  6
CONTINUOUS
 10
-30.587205759
 20
21.1737331055
 11
-30.6791472572
 21
21.1882528715
  0
LINE
  5
3EF
100
AcDbEntity
  8
ASSI
100
AcDbLine
 62
253
  6
CONTINUOUS
 10
-30.6791472572
 20
21.1882528715
 11
-30.7072692852
 21
21.1928355014
  0
LINE
  5
3F0
100
AcDbEntity
  8
ASSI
100
AcDbLine
 62
253
  6
CONTINUOUS
 10
-30.7072692852
 20
21.1928355014
 11
-30.7196525345
 21
21.1949171456
  0
LWPOLYLINE
  5
3F1
100
AcDbEntity
  8
ASSI
100
AcDbPolyline
 62
253
  6
CONTINUOUS
 90
9
 70
0
 10
-30.7196525345
 20
21.1949171456
 10
-30.7259777276
 20
21.1960166763
 10
-30.7285530828
 20
21.1964785669
 10
-30.730734059
 20
21.19688136
 10
-30.7325188909
 20
21.1972247296
 10
-30.733906134
 20
21.1975083979
 10
-30.7348946657
 20
21.1977321352
 10
-30.7354836858
 20
21.1978957605
 10
-30.7356727178
 20
21.1979991415
  0
ARC
  5
3F2
100
AcDbEntity
  8
ASSI
100
AcDbCircle
 62
7
  6
CONTINUOUS
 10
-29.7468479088
 20
-21.0677115153
 40
1.0
100
AcDbArc
 50
188.5737414447
 51
267.0
  0
ARC
  5
3F3
100
AcDbEntity
  8
ASSI
100
AcDbCircle
 62
7
  6
CONTINUOUS
 10
-26.8154515887
 20
-17.9428888793
 40
0.3
100
AcDbArc
 50
334.9997013218
 51
0.0003423163
  0
ARC
  5
3F4
100
AcDbEntity
  8
ASSI
100
AcDbCircle
 62
7
  6
CONTINUOUS
 10
-31.5652934337
 20
-0.406966847
 40
0.25
100
AcDbArc
 50
90.5000032275
 51
180.045580992
  0
ARC
  5
3F5
100
AcDbEntity
  8
ASSI
100
AcDbCircle
 62
7
  6
CONTINUOUS
 10
58.2585600915
 20
-7.7993972781
 40
90.0
100
AcDbArc
 50
181.08868532
 51
188.5737414447
  0
ARC
  5
3F6
100
AcDbEntity
  8
0
100
AcDbCircle
 62
253
  6
CONTINUOUS
 10
58.2585600915
 20
-7.7993972781
 40
90.0
100
AcDbArc
 50
182.3274358692
 51
183.6323398017
  0
ARC
  5
3F7
100
AcDbEntity
  8
ASSI
100
AcDbCircle
 62
7
  6
CONTINUOUS
 10
58.2585600915
 20
7.7806027219
 40
90.0
100
AcDbArc
 50
171.4262585553
 51
178.91131468
  0
ARC
  5
3F8
100
AcDbEntity
  8
0
100
AcDbCircle
 62
253
  6
CONTINUOUS
 10
58.2585600915
 20
7.7806027219
 40
90.0
100
AcDbArc
 50
177.2486022028
 51
177.4566863766
  0
ARC
  5
3F9
100
AcDbEntity
  8
0
100
AcDbCircle
 62
253
  6
CONTINUOUS
 10
58.2585600915
 20
7.7806027219
 40
90.0
100
AcDbArc
 50
176.1796751951
 51
177.2438158535
  0
ARC
  5
3FA
100
AcDbEntity
  8
ASSI
100
AcDbCircle
 62
7
  6
CONTINUOUS
 10
-29.7468479088
 20
21.048916959
 40
1.0
100
AcDbArc
 50
93.0
 51
171.4262585553
  0
ARC
  5
3FB
100
AcDbEntity
  8
ASSI
100
AcDbCircle
 62
7
  6
CONTINUOUS
 10
-26.8154515887
 20
17.9240943231
 40
0.3
100
AcDbArc
 50
359.9996576837
 51
25.0002986779
  0
ARC
  5
3FC
100
AcDbEntity
  8
ASSI
100
AcDbCircle
 62
7
  6
CONTINUOUS
 10
-31.5652934337
 20
0.3881722907
 40
0.25
100
AcDbArc
 50
179.954419008
 51
269.4999967725
  0
ARC
  5
3FD
100
AcDbEntity
  8
ASSI
100
AcDbCircle
 62
7
  6
CONTINUOUS
 10
468.1845484113
 20
-0.0093972781
 40
500.0
100
AcDbArc
 50
178.91131468
 51
179.954419088
  0
ARC
  5
3FE
100
AcDbEntity
  8
ASSI
100
AcDbCircle
 62
7
  6
CONTINUOUS
 10
468.1845484113
 20
-0.0093972781
 40
500.0
100
AcDbArc
 50
180.045580912
 51
181.08868532
  0
ELLIPSE
  5
3FF
100
AcDbEntity
  8
ASSI
100
AcDbEllipse
 62
7
  6
CONTINUOUS
 10
-7.3769531021
 20
-22.1912671651
 30
0.0
 11
0.2
 21
0.0
 31
0.0
 40
0.0524077793
 41
1.5707963268
 42
2.617993878
  0
ELLIPSE
  5
400
100
AcDbEntity
  8
ASSI
100
AcDbEllipse
 62
7
  6
CONTINUOUS
 10
3.8230468979
 20
-22.1912671651
 30
0.0
 11
0.2
 21
-0.0
 31
0.0
 40
0.0524077793
 41
1.5707963268
 42
2.617993878
  0
ELLIPSE
  5
401
100
AcDbEntity
  8
ASSI
100
AcDbEllipse
 62
7
  6
CONTINUOUS
 10
-4.0078932098
 20
-22.1912671651
 30
0.0
 11
0.2
 21
-0.0
 31
0.0
 40
0.0524077793
 41
0.5235987756
 42
1.5707963268
  0
ELLIPSE
  5
402
100
AcDbEntity
  8
ASSI
100
AcDbEllipse
 62
7
  6
CONTINUOUS
 10
7.1921067902
 20
-22.1912671651
 30
0.0
 11
0.2
 21
0.0
 31
0.0
 40
0.0524077793
 41
0.5235987756
 42
1.5707963268
  0
ELLIPSE
  5
403
100
AcDbEntity
  8
ASSI
100
AcDbEllipse
 62
7
  6
CONTINUOUS
 10
10.5309675437
 20
-21.7192342573
 30
0.0
 11
0.4943891341
 21
0.0770133648
 31
0.0
 40
0.9960067742
 41
-1.7259388368
 42
-0.1569690096
  0
ELLIPSE
  5
404
100
AcDbEntity
  8
ASSI
100
AcDbEllipse
 62
7
  6
CONTINUOUS
 10
-10.7158138557
 20
-21.7192342573
 30
0.0
 11
0.4943891341
 21
-0.0770133648
 31
0.0
 40
0.9960067742
 41
-2.984623644
 42
-1.4156538168
  0
ELLIPSE
  5
405
100
AcDbEntity
  8
ASSI
100
AcDbEllipse
 62
7
  6
CONTINUOUS
 10
10.807424458
 20
-0.3594067977
 30
0.0
 11
0.2426981267
 21
0.0606514259
 31
0.0
 40
0.9993528196
 41
-0.2447368254
 42
1.3257549497
  0
ELLIPSE
  5
406
100
AcDbEntity
  8
ASSI
100
AcDbEllipse
 62
7
  6
CONTINUOUS
 10
-10.9922707699
 20
-0.3594067977
 30
0.0
 11
0.2426981267
 21
-0.0606514259
 31
0.0
 40
0.9993528196
 41
1.8158377039
 42
3.386329479
  0
ELLIPSE
  5
407
100
AcDbEntity
  8
ASSI
100
AcDbEllipse
 62
7
  6
CONTINUOUS
 10
7.1921067902
 20
22.1724726088
 30
0.0
 11
0.2
 21
0.0
 31
0.0
 40
0.0524077793
 41
-1.5707963268
 42
-0.5235987756
  0
ELLIPSE
  5
408
100
AcDbEntity
  8
ASSI
100
AcDbEllipse
 62
7
  6
CONTINUOUS
 10
-4.0078932098
 20
22.1724726088
 30
0.0
 11
0.2
 21
-0.0
 31
0.0
 40
0.0524077793
 41
-1.5707963268
 42
-0.5235987756
  0
ELLIPSE
  5
409
100
AcDbEntity
  8
ASSI
100
AcDbEllipse
 62
7
  6
CONTINUOUS
 10
3.8230468979
 20
22.1724726088
 30
0.0
 11
0.2
 21
0.0
 31
0.0
 40
0.0524077793
 41
-2.617993878
 42
-1.5707963268
  0
ELLIPSE
  5
40A
100
AcDbEntity
  8
ASSI
100
AcDbEllipse
 62
7
  6
CONTINUOUS
 10
-7.3769531021
 20
22.1724726088
 30
0.0
 11
0.2
 21
0.0
 31
0.0
 40
0.0524077793
 41
-2.617993878
 42
-1.5707963268
  0
ELLIPSE
  5
40B
100
AcDbEntity
  8
ASSI
100
AcDbEllipse
 62
7
  6
CONTINUOUS
 10
-10.7158138557
 20
21.700439701
 30
0.0
 11
0.4943891341
 21
0.0770133648
 31
0.0
 40
0.9960067742
 41
1.4156538168
 42
2.984623644
  0
ELLIPSE
  5
40C
100
AcDbEntity
  8
ASSI
100
AcDbEllipse
 62
7
  6
CONTINUOUS
 10
10.5309675437
 20
21.700439701
 30
0.0
 11
0.4943891341
 21
-0.0770133648
 31
0.0
 40
0.9960067742
 41
0.1569690096
 42
1.7259388368
  0
ELLIPSE
  5
40D
100
AcDbEntity
  8
ASSI
100
AcDbEllipse
 62
7
  6
CONTINUOUS
 10
-10.9922707699
 20
0.3406122415
 30
0.0
 11
0.2426981267
 21
0.0606514259
 31
0.0
 40
0.9993528196
 41
2.8968558282
 42
4.4673476033
  0
ELLIPSE
  5
40E
100
AcDbEntity
  8
ASSI
100
AcDbEllipse
 62
7
  6
CONTINUOUS
 10
10.807424458
 20
0.3406122415
 30
0.0
 11
0.2426981267
 21
-0.0606514259
 31
0.0
 40
0.9993528196
 41
-1.3257549497
 42
0.2447368254
  0
ELLIPSE
  5
40F
100
AcDbEntity
  8
0
100
AcDbEllipse
 62
253
  6
CONTINUOUS
 10
58.2585600915
 20
7.7806027219
 30
0.0
 11
0.0
 21
90.0
 31
0.0
 40
1.0
 41
7.7868637228
 42
7.8020981865
  0
ELLIPSE
  5
410
100
AcDbEntity
  8
0
100
AcDbEllipse
 62
253
  6
CONTINUOUS
 10
58.2585600915
 20
-7.7993972781
 30
0.0
 11
90.0
 21
0.0
 31
0.0
 40
1.0
 41
-3.101871152
 42
-3.0921133759
  0
ELLIPSE
  5
411
100
AcDbEntity
  8
0
100
AcDbEllipse
 62
253
  6
CONTINUOUS
 10
58.2585600915
 20
-7.7993972781
 30
0.0
 11
0.0
 21
90.0
 31
0.0
 40
1.0
 41
1.6253318723
 42
1.6350936431
  0
ENDSEC
  0
SECTION
  2
OBJECTS
  0
DICTIONARY
  5
C
100
AcDbDictionary
280
0
281
1
  3
ACAD_GROUP
350
D
  3
ACAD_MLINESTYLE
350
17
  3
ACAD_LAYOUT
350
1A
  3
ACAD_PLOTSETTINGS
350
19
  3
ACAD_PLOTSTYLENAME
350
E
  0
DICTIONARY
  5
D
102
{ACAD_REACTORS
330
C
102
}
100
AcDbDictionary
280
0
281
1
  0
ACDBDICTIONARYWDFLT
  5
E
102
{ACAD_REACTORS
330
C
102
}
100
AcDbDictionary
281
1
  3
Normal
350
F
100
AcDbDictionaryWithDefault
340
F
  0
DICTIONARY
  5
17
102
{ACAD_REACTORS
330
C
102
}
100
AcDbDictionary
280
0
281
1
  3
Standard
350
18
  0
DICTIONARY
  5
19
102
{ACAD_REACTORS
330
C
102
}
100
AcDbDictionary
281
1
  0
DICTIONARY
  5
1A
102
{ACAD_REACTORS
330
C
102
}
100
AcDbDictionary
281
1
  3
Model
350
412
  3
Layout1
350
413
  0
ACDBPLACEHOLDER
  5
F
102
{ACAD_REACTORS
330
E
102
}
  0
MLINESTYLE
  5
18
102
{ACAD_REACTORS
330
17
102
}
100
AcDbMlineStyle
  2
STANDARD
 70
0
  3

 62
256
 51
90.0
 52
90.0
 71
2
 49
0.5
 62
256
  6
BYLAYER
 49
-0.5
 62
256
  6
BYLAYER
  0
LAYOUT
  5
412
102
{ACAD_REACTORS
330
1A
102
}
100
AcDbPlotSettings
  1

  2
none_device
  4
ISO_A4_(297.00_x_210.00_MM)
  6

 40
0.0
 41
0.0
 42
0.0
 43
0.0
 44
297.0
 45
210.0
 46
0.0
 47
0.0
 48
0.0
 49
0.0
140
0.0
141
0.0
142
1.0
143
1.0
 70
1024
 72
1
 73
0
 74
0
  7

 75
0
147
1.0
148
0.0
149
0.0
100
AcDbLayout
  1
Model
 70
0
 71
0
 10
0.0
 20
0.0
 11
297.0
 21
210.0
 12
0.0
 22
0.0
 32
0.0
 14
0.0
 24
0.0
 34
0.0
 15
0.0
 25
0.0
 35
0.0
146
0.0
 13
0.0
 23
0.0
 33
0.0
 16
1.0
 26
0.0
 36
0.0
 17
0.0
 27
1.0
 37
0.0
 76
0
330
219
345
0
346
0
  0
LAYOUT
  5
413
102
{ACAD_REACTORS
330
1A
102
}
100
AcDbPlotSettings
  1

  2
none_device
  4
ISO_A4_(297.00_x_210.00_MM)
  6

 40
0.0
 41
0.0
 42
0.0
 43
0.0
 44
297.0
 45
210.0
 46
0.0
 47
0.0
 48
0.0
 49
0.0
140
0.0
141
0.0
142
1.0
143
1.0
 70
0
 72
1
 73
0
 74
0
  7

 75
0
147
1.0
148
0.0
149
0.0
100
AcDbLayout
  1
Layout1
 70
0
 71
1
 10
0.0
 20
0.0
 11
297.0
 21
210.0
 12
0.0
 22
0.0
 32
0.0
 14
0.0
 24
0.0
 34
0.0
 15
0.0
 25
0.0
 35
0.0
146
0.0
 13
0.0
 23
0.0
 33
0.0
 16
1.0
 26
0.0
 36
0.0
 17
0.0
 27
1.0
 37
0.0
 76
0
330
21A
345
0
346
0
  0
ENDSEC
  0
EOF
