  0
SECTION
  2
HEADER
  9
$ACADVER
  1
AC1021
  9
$DWGCODEPAGE
  3
ANSI_1252
  9
$EXTMAX
 10
297.0
 20
210.0
 30
0.0
  9
$EXTMIN
 10
0.0
 20
0.0
 30
0.0
  9
$LIMMIN
 10
0.0
 20
0.0
  9
$LIMMAX
 10
297.0
 20
210.0
  9
$VIEWCTR
 10
148.5
 20
105.0
  9
$VIEWSIZE
 40
210.0
  9
$CLAYER
  8
0
  9
$LTSCALE
 40
16.335
  9
$CELTYPE
  6
BYLAYER
  9
$DIMSCALE
 40
1.0
  9
$DIMASZ
 40
3.0
  9
$DIMEXO
 40
0.5
  9
$DIMDLI
 40
11.286
  9
$DIMEXE
 40
1.5
  9
$DIMCEN
 40
2.673
  9
$DIMLFAC
 40
1.0
  9
$DIMBLK
  1
_FILLED
  9
$DIMALT
 70
0
  9
$DIMALTF
 40
25.4
  9
$DIMTXT
 40
3.0
  9
$DIMTOL
 70
1
  9
$DIMLIM
 70
0
  9
$DIMTFAC
 40
1.0
  9
$DIMTP
 40
0.01
  9
$DIMTM
 40
0.01
  9
$DIMGAP
 40
0.625
  9
$DIMDSEP
 70
44
  9
$AUNITS
 70
0
  9
$PDMODE
 70
3
  9
$PDSIZE
 40
3.0
  9
$HANDSEED
  5
438
  9
$TILEMODE
 70
1
  9
$MEASUREMENT
 70
1
  9
$INSUNITS
 70
4
  0
ENDSEC
  0
SECTION
  2
CLASSES
  0
CLASS
  1
ACDBDICTIONARYWDFLT
  2
AcDbDictionaryWithDefault
  3
AutoCAD 2000
 90
0
 91
1
280
0
281
0
  0
CLASS
  1
ACDBPLACEHOLDER
  2
AcDbPlaceHolder
  3
AutoCAD 2000
 90
0
 91
1
280
0
281
0
  0
CLASS
  1
LAYOUT
  2
AcDbLayout
  3
AutoCAD 2000
 90
0
 91
0
280
0
281
0
  0
ENDSEC
  0
SECTION
  2
TABLES
  0
TABLE
  2
VPORT
  5
8
100
AcDbSymbolTable
 70
2
  0
VPORT
  5
1F4
100
AcDbSymbolTableRecord
100
AcDbViewportTableRecord
  2
*ACTIVE
 70
0
 10
0.0
 20
0.0
 11
1.0
 21
1.0
 12
148.5
 22
105.0
 13
0.0
 23
0.0
 14
1.0
 24
1.0
 15
0.0
 25
0.0
 16
0.0
 26
0.0
 36
1.0
 17
0.0
 27
0.0
 37
0.0
 40
210.0
 41
1.4142857143
 42
50.0
 43
0.0
 44
0.0
 50
0.0
 51
0.0
 71
0
 72
100
 73
1
 74
1
 75
0
 76
0
 77
0
 78
0
  0
ENDTAB
  0
TABLE
  2
LTYPE
  5
5
100
AcDbSymbolTable
 70
6
  0
LTYPE
  5
14
100
AcDbSymbolTableRecord
100
AcDbLinetypeTableRecord
  2
BYBLOCK
 70
0
  3

 72
65
 73
0
 40
0.0
  0
LTYPE
  5
15
100
AcDbSymbolTableRecord
100
AcDbLinetypeTableRecord
  2
BYLAYER
 70
0
  3

 72
65
 73
0
 40
0.0
  0
LTYPE
  5
16
100
AcDbSymbolTableRecord
100
AcDbLinetypeTableRecord
  2
CONTINUOUS
 70
64
  3
Solid line
 72
65
 73
0
 40
0.0
  0
LTYPE
  5
1F5
100
AcDbSymbolTableRecord
100
AcDbLinetypeTableRecord
  2
CENTER
 70
64
  3
____ _ ____ _ ____ _ ____ _ ____ _ ____ _ ____
 72
65
 73
4
 40
0.6
 49
0.375
 74
0
 49
-0.075
 74
0
 49
0.075
 74
0
 49
-0.075
 74
0
  0
LTYPE
  5
1F6
100
AcDbSymbolTableRecord
100
AcDbLinetypeTableRecord
  2
HIDDEN
 70
64
  3
- - - - - - - - - - - - - - - - - - - -
 72
65
 73
2
 40
0.2
 49
0.1
 74
0
 49
-0.1
 74
0
  0
LTYPE
  5
1F7
100
AcDbSymbolTableRecord
100
AcDbLinetypeTableRecord
  2
PHANTOM
 70
64
  3
_____ _ _ _____ _ _ _____ _ _ _____
 72
65
 73
6
 40
0.8
 49
0.45
 74
0
 49
-0.05
 74
0
 49
0.1
 74
0
 49
-0.05
 74
0
 49
0.1
 74
0
 49
-0.05
 74
0
  0
LTYPE
  5
1F8
100
AcDbSymbolTableRecord
100
AcDbLinetypeTableRecord
  2
DOT
 70
64
  3
. . . . . . . . . . . . . . . . . . . .
 72
65
 73
2
 40
0.2
 49
0.1
 74
0
 49
-0.1
 74
0
  0
LTYPE
  5
1F9
100
AcDbSymbolTableRecord
100
AcDbLinetypeTableRecord
  2
DASHED
 70
64
  3
- - - - - - - - - - - - - - - - - - - -
 72
65
 73
2
 40
0.2
 49
0.1
 74
0
 49
-0.1
 74
0
  0
ENDTAB
  0
TABLE
  2
LAYER
  5
2
100
AcDbSymbolTable
 70
36
  0
LAYER
  5
10
100
AcDbSymbolTableRecord
100
AcDbLayerTableRecord
  2
0
 70
0
 62
7
  6
CONTINUOUS
370
-3
390
F
  0
LAYER
  5
1FA
100
AcDbSymbolTableRecord
100
AcDbLayerTableRecord
  2
DEFAULT_1
 70
0
 62
7
  6
CENTER
370
-3
390
F
  0
LAYER
  5
1FB
100
AcDbSymbolTableRecord
100
AcDbLayerTableRecord
  2
DEFAULT_2
 70
0
 62
7
  6
HIDDEN
370
-3
390
F
  0
LAYER
  5
1FC
100
AcDbSymbolTableRecord
100
AcDbLayerTableRecord
  2
DEFAULT_3
 70
0
 62
7
  6
PHANTOM
370
-3
390
F
  0
LAYER
  5
1FD
100
AcDbSymbolTableRecord
100
AcDbLayerTableRecord
  2
ASSI
 70
0
 62
7
  6
CONTINUOUS
370
-3
390
F
  0
LAYER
  5
1FE
100
AcDbSymbolTableRecord
100
AcDbLayerTableRecord
  2
COLOR9
 70
0
 62
7
  6
CONTINUOUS
370
-3
390
F
  0
LAYER
  5
1FF
100
AcDbSymbolTableRecord
100
AcDbLayerTableRecord
  2
COORDINATE
 70
0
 62
7
  6
CONTINUOUS
370
-3
390
F
  0
LAYER
  5
200
100
AcDbSymbolTableRecord
100
AcDbLayerTableRecord
  2
COORD_ORIGINE
 70
0
 62
7
  6
CONTINUOUS
370
-3
390
F
  0
LAYER
  5
201
100
AcDbSymbolTableRecord
100
AcDbLayerTableRecord
  2
COPY_PUBLISH
 70
0
 62
7
  6
CONTINUOUS
370
-3
390
F
  0
LAYER
  5
202
100
AcDbSymbolTableRecord
100
AcDbLayerTableRecord
  2
COSMETICI
 70
0
 62
7
  6
CONTINUOUS
370
-3
390
F
  0
LAYER
  5
203
100
AcDbSymbolTableRecord
100
AcDbLayerTableRecord
  2
CURVE
 70
0
 62
7
  6
CONTINUOUS
370
-3
390
F
  0
LAYER
  5
204
100
AcDbSymbolTableRecord
100
AcDbLayerTableRecord
  2
DRAFT
 70
0
 62
7
  6
CONTINUOUS
370
-3
390
F
  0
LAYER
  5
205
100
AcDbSymbolTableRecord
100
AcDbLayerTableRecord
  2
IGES
 70
0
 62
7
  6
CONTINUOUS
370
-3
390
F
  0
LAYER
  5
206
100
AcDbSymbolTableRecord
100
AcDbLayerTableRecord
  2
IGS_SCRITTE
 70
0
 62
7
  6
CONTINUOUS
370
-3
390
F
  0
LAYER
  5
207
100
AcDbSymbolTableRecord
100
AcDbLayerTableRecord
  2
IMPORT_IGES
 70
0
 62
7
  6
CONTINUOUS
370
-3
390
F
  0
LAYER
  5
208
100
AcDbSymbolTableRecord
100
AcDbLayerTableRecord
  2
INTF_YELLOW
 70
0
 62
7
  6
CONTINUOUS
370
-3
390
F
  0
LAYER
  5
209
100
AcDbSymbolTableRecord
100
AcDbLayerTableRecord
  2
LIVELLO_1
 70
0
 62
7
  6
CONTINUOUS
370
-3
390
F
  0
LAYER
  5
20A
100
AcDbSymbolTableRecord
100
AcDbLayerTableRecord
  2
NOTE
 70
0
 62
7
  6
CONTINUOUS
370
-3
390
F
  0
LAYER
  5
20B
100
AcDbSymbolTableRecord
100
AcDbLayerTableRecord
  2
PIANI
 70
0
 62
7
  6
CONTINUOUS
370
-3
390
F
  0
LAYER
  5
20C
100
AcDbSymbolTableRecord
100
AcDbLayerTableRecord
  2
PIANI_ORIGINE
 70
0
 62
7
  6
CONTINUOUS
370
-3
390
F
  0
LAYER
  5
20D
100
AcDbSymbolTableRecord
100
AcDbLayerTableRecord
  2
PIANI_RIFERIMENTO
 70
0
 62
7
  6
CONTINUOUS
370
-3
390
F
  0
LAYER
  5
20E
100
AcDbSymbolTableRecord
100
AcDbLayerTableRecord
  2
PUNTI
 70
0
 62
7
  6
CONTINUOUS
370
-3
390
F
  0
LAYER
  5
20F
100
AcDbSymbolTableRecord
100
AcDbLayerTableRecord
  2
RACCORDO
 70
0
 62
7
  6
CONTINUOUS
370
-3
390
F
  0
LAYER
  5
210
100
AcDbSymbolTableRecord
100
AcDbLayerTableRecord
  2
SIMBOLI
 70
0
 62
7
  6
CONTINUOUS
370
-3
390
F
  0
LAYER
  5
211
100
AcDbSymbolTableRecord
100
AcDbLayerTableRecord
  2
SMUSSO
 70
0
 62
7
  6
CONTINUOUS
370
-3
390
F
  0
LAYER
  5
212
100
AcDbSymbolTableRecord
100
AcDbLayerTableRecord
  2
SNAPLINE
 70
0
 62
7
  6
CONTINUOUS
370
-3
390
F
  0
LAYER
  5
213
100
AcDbSymbolTableRecord
100
AcDbLayerTableRecord
  2
SOLIDO
 70
0
 62
7
  6
CONTINUOUS
370
-3
390
F
  0
LAYER
  5
214
100
AcDbSymbolTableRecord
100
AcDbLayerTableRecord
  2
SUPERFICI
 70
0
 62
7
  6
CONTINUOUS
370
-3
390
F
  0
LAYER
  5
215
100
AcDbSymbolTableRecord
100
AcDbLayerTableRecord
  2
TRASH
 70
0
 62
7
  6
CONTINUOUS
370
-3
390
F
  0
LAYER
  5
216
100
AcDbSymbolTableRecord
100
AcDbLayerTableRecord
  2
WHITE
 70
0
 62
7
  6
CONTINUOUS
370
-3
390
F
  0
ENDTAB
  0
TABLE
  2
STYLE
  5
3
100
AcDbSymbolTable
 70
1
  0
STYLE
  5
11
100
AcDbSymbolTableRecord
100
AcDbTextStyleTableRecord
  2
STANDARD
 70
0
 40
0.0
 41
0.8
 50
0.0
 71
0
 42
0.2
  3
txt
  4

  0
STYLE
  5
217
100
AcDbSymbolTableRecord
100
AcDbTextStyleTableRecord
  2
TEXTSTYLE_1
 70
0
 40
0.0
 41
0.8
 50
0.0
 71
0
 42
0.2
  3
gdt
  4

  0
ENDTAB
  0
TABLE
  2
VIEW
  5
6
100
AcDbSymbolTable
 70
0
  0
ENDTAB
  0
TABLE
  2
UCS
  5
7
100
AcDbSymbolTable
 70
0
  0
ENDTAB
  0
TABLE
  2
APPID
  5
9
100
AcDbSymbolTable
 70
1
  0
APPID
  5
218
100
AcDbSymbolTableRecord
100
AcDbRegAppTableRecord
  2
ACAD
 70
0
  0
ENDTAB
  0
TABLE
  2
BLOCK_RECORD
  5
1
100
AcDbSymbolTable
 70
0
  0
BLOCK_RECORD
  5
219
100
AcDbSymbolTableRecord
100
AcDbBlockTableRecord
  2
*Model_Space
  0
BLOCK_RECORD
  5
21A
100
AcDbSymbolTableRecord
100
AcDbBlockTableRecord
  2
*Paper_Space
  0
BLOCK_RECORD
  5
21B
100
AcDbSymbolTableRecord
100
AcDbBlockTableRecord
  2
_FILLED
  0
BLOCK_RECORD
  5
21C
100
AcDbSymbolTableRecord
100
AcDbBlockTableRecord
  2
*D0
  0
BLOCK_RECORD
  5
21D
100
AcDbSymbolTableRecord
100
AcDbBlockTableRecord
  2
*D1
  0
BLOCK_RECORD
  5
21E
100
AcDbSymbolTableRecord
100
AcDbBlockTableRecord
  2
*D2
  0
ENDTAB
  0
TABLE
  2
DIMSTYLE
  5
A
100
AcDbSymbolTable
 70
1
100
AcDbDimStyleTable
 71
0
  0
DIMSTYLE
105
21F
100
AcDbSymbolTableRecord
100
AcDbDimStyleTableRecord
  2
STANDARD
 70
0
  3

  4

 40
1.0
 41
3.0
 42
0.5
 43
0.38
 44
1.5
 45
0.0
 46
0.0
 47
0.01
 48
0.01
140
3.0
141
0.09
142
0.0
143
25.4
144
1.0
145
0.0
146
1.0
147
0.625
 71
1.0
 72
0.0
 73
0
 74
0
 75
0
 76
0
 77
1
 78
8
170
0
171
1
172
0
173
0
174
0
175
0
176
0
177
0
178
0
270
2
271
2
272
2
273
2
274
2
275
0
280
0
281
0
282
0
283
1
284
8
285
0
286
0
287
3
288
0
340
11
278
44
341
21B
342
21B
343
21B
344
21B
  0
DIMSTYLE
105
220
100
AcDbSymbolTableRecord
100
AcDbDimStyleTableRecord
  2
DIMSTYLE_1
 70
0
  3

  4

 40
1.0
 41
3.0
 42
0.5
 43
0.38
 44
1.5
 45
0.0
 46
0.0
 47
0.0
 48
0.0
140
3.0
141
0.09
142
0.0
143
25.4
144
1.0
145
0.0
146
1.0
147
0.75
 71
0.0
 72
0.0
 73
0
 74
0
 75
0
 76
0
 77
1
 78
8
170
0
171
1
172
0
173
0
174
0
175
0
176
0
177
0
178
0
270
2
271
2
272
2
273
2
274
2
275
0
280
0
281
0
282
0
283
1
284
8
285
0
286
0
287
3
288
0
340
11
278
44
341
21B
342
21B
343
21B
344
21B
  0
DIMSTYLE
105
221
100
AcDbSymbolTableRecord
100
AcDbDimStyleTableRecord
  2
DIMSTYLE_2
 70
0
  3

  4

 40
1.0
 41
3.0
 42
0.5
 43
0.38
 44
1.5
 45
0.0
 46
0.0
 47
0.0
 48
0.0
140
3.0
141
0.09
142
0.0
143
25.4
144
1.0
145
0.0
146
1.0
147
0.75
 71
0.0
 72
0.0
 73
0
 74
0
 75
0
 76
0
 77
1
 78
8
170
0
171
1
172
0
173
0
174
0
175
0
176
0
177
0
178
0
270
2
271
1
272
1
273
2
274
2
275
0
280
0
281
0
282
0
283
1
284
8
285
0
286
0
287
3
288
0
340
11
278
44
341
21B
342
21B
343
21B
344
21B
  0
ENDTAB
  0
ENDSEC
  0
SECTION
  2
BLOCKS
  0
BLOCK
  5
20
100
AcDbEntity
  8
0
100
AcDbBlockBegin
  2
*Model_Space
 70
0
 10
0.0
 20
0.0
 30
0.0
  3
*Model_Space
  1

  0
ENDBLK
  5
21
100
AcDbEntity
  8
0
100
AcDbBlockEnd
  0
BLOCK
  5
1C
100
AcDbEntity
  8
0
100
AcDbBlockBegin
  2
*Paper_Space
 70
0
 10
0.0
 20
0.0
 30
0.0
  3
*Paper_Space
  1

  0
ENDBLK
  5
1D
100
AcDbEntity
  8
0
100
AcDbBlockEnd
  0
BLOCK
  5
222
100
AcDbEntity
  8
0
100
AcDbBlockBegin
  2
_FILLED
 70
64
 10
0.0
 20
0.0
  3
_FILLED
  1

  0
SOLID
  5
223
100
AcDbEntity
  8
0
  6
BYBLOCK
 62
0
100
AcDbTrace
 10
0.0
 20
0.0
 11
-1.0
 21
0.3166666667
 12
-1.0
 22
-0.3166666667
 13
-1.0
 23
-0.3166666667
  0
ENDBLK
  5
224
100
AcDbEntity
  8
0
  6
BYBLOCK
 62
0
100
AcDbBlockEnd
  0
BLOCK
  5
225
100
AcDbEntity
  8
0
100
AcDbBlockBegin
 62
7
  6
CONTINUOUS
  2
*D0
 70
65
 10
0.0
 20
0.0
  3
*D0
  1

  0
MTEXT
  5
226
100
AcDbEntity
  8
0
100
AcDbMText
 62
7
  6
CONTINUOUS
  7
STANDARD
 71
2
 72
1
 10
-0.3876831359
 20
33.9713302099
 30
0.0
 11
1.0
 21
0.0
 31
0.0
 44
0.9
  1
44,7
 40
3.0
 41
13.1785714286
  0
LINE
  5
227
100
AcDbEntity
  8
0
100
AcDbLine
 62
7
  6
CONTINUOUS
 10
-22.7376831359
 20
13.6130922693
 11
-22.7376831359
 21
31.7213302099
  0
LINE
  5
228
100
AcDbEntity
  8
0
100
AcDbLine
 62
7
  6
CONTINUOUS
 10
21.9623168641
 20
13.6130922693
 11
21.9623168641
 21
31.7213302099
  0
LINE
  5
229
100
AcDbEntity
  8
0
100
AcDbLine
 62
7
  6
CONTINUOUS
 10
-22.7376831359
 20
30.2213302099
 11
-0.3876831359
 21
30.2213302099
  0
LINE
  5
22A
100
AcDbEntity
  8
0
100
AcDbLine
 62
7
  6
CONTINUOUS
 10
21.9623168641
 20
30.2213302099
 11
-0.3876831359
 21
30.2213302099
  0
INSERT
  5
22B
100
AcDbEntity
  8
0
100
AcDbBlockReference
 62
7
  6
CONTINUOUS
  2
_FILLED
 10
-22.7376831359
 20
30.2213302099
 41
3.0
 42
3.0
 43
3.0
 50
180.0
  0
INSERT
  5
22C
100
AcDbEntity
  8
0
100
AcDbBlockReference
 62
7
  6
CONTINUOUS
  2
_FILLED
 10
21.9623168641
 20
30.2213302099
 41
3.0
 42
3.0
 43
3.0
  0
ENDBLK
  5
22D
100
AcDbEntity
  8
0
  6
BYBLOCK
 62
0
100
AcDbBlockEnd
  0
BLOCK
  5
22E
100
AcDbEntity
  8
0
100
AcDbBlockBegin
 62
7
  6
CONTINUOUS
  2
*D1
 70
65
 10
0.0
 20
0.0
  3
*D1
  1

  0
MTEXT
  5
22F
100
AcDbEntity
  8
0
100
AcDbMText
 62
7
  6
CONTINUOUS
  7
STANDARD
 71
2
 72
1
 10
26.2123168641
 20
0.0130922693
 30
0.0
 11
0.0
 21
1.0
 31
0.0
 44
0.9
  1
44,4
 40
3.0
 41
13.1785714286
  0
LINE
  5
230
100
AcDbEntity
  8
0
100
AcDbLine
 62
7
  6
CONTINUOUS
 10
21.9350986693
 20
22.2213302099
 11
31.4623168641
 21
22.2213302099
  0
LINE
  5
231
100
AcDbEntity
  8
0
100
AcDbLine
 62
7
  6
CONTINUOUS
 10
21.9350986693
 20
-22.1951456712
 11
31.4623168641
 21
-22.1951456712
  0
LINE
  5
232
100
AcDbEntity
  8
0
100
AcDbLine
 62
7
  6
CONTINUOUS
 10
29.9623168641
 20
22.2213302099
 11
29.9623168641
 21
0.0130922693
  0
LINE
  5
233
100
AcDbEntity
  8
0
100
AcDbLine
 62
7
  6
CONTINUOUS
 10
29.9623168641
 20
-22.1951456712
 11
29.9623168641
 21
0.0130922693
  0
INSERT
  5
234
100
AcDbEntity
  8
0
100
AcDbBlockReference
 62
7
  6
CONTINUOUS
  2
_FILLED
 10
29.9623168641
 20
22.2213302099
 41
3.0
 42
3.0
 43
3.0
 50
90.0
  0
INSERT
  5
235
100
AcDbEntity
  8
0
100
AcDbBlockReference
 62
7
  6
CONTINUOUS
  2
_FILLED
 10
29.9623168641
 20
-22.1951456712
 41
3.0
 42
3.0
 43
3.0
 50
270.0
  0
ENDBLK
  5
236
100
AcDbEntity
  8
0
  6
BYBLOCK
 62
0
100
AcDbBlockEnd
  0
BLOCK
  5
237
100
AcDbEntity
  8
0
100
AcDbBlockBegin
 62
7
  6
CONTINUOUS
  2
*D2
 70
65
 10
0.0
 20
0.0
  3
*D2
  1

  0
MTEXT
  5
238
100
AcDbEntity
  8
0
100
AcDbMText
 62
7
  6
CONTINUOUS
  7
STANDARD
 71
1
 72
1
 10
-32.991408183
 20
33.9713302099
 30
0.0
 11
1.0
 21
0.0
 31
0.0
 44
0.9
  1
5,7
 40
3.0
 41
9.3214285714
  0
LINE
  5
239
100
AcDbEntity
  8
0
100
AcDbLine
 62
7
  6
CONTINUOUS
 10
-38.8077785349
 20
13.6130922693
 11
-38.8077785349
 21
31.7213302099
  0
LINE
  5
23A
100
AcDbEntity
  8
0
100
AcDbLine
 62
7
  6
CONTINUOUS
 10
-44.5076203147
 20
0.9108607235
 11
-44.5076203147
 21
31.7213302099
  0
LINE
  5
23B
100
AcDbEntity
  8
0
100
AcDbLine
 62
7
  6
CONTINUOUS
 10
-38.8077785349
 20
30.2213302099
 11
-26.7771224687
 21
30.2213302099
  0
LINE
  5
23C
100
AcDbEntity
  8
0
100
AcDbLine
 62
7
  6
CONTINUOUS
 10
-26.7771224687
 20
30.2213302099
 11
-41.6576994248
 21
30.2213302099
  0
LINE
  5
23D
100
AcDbEntity
  8
0
100
AcDbLine
 62
7
  6
CONTINUOUS
 10
-44.5076203147
 20
30.2213302099
 11
-48.5076203147
 21
30.2213302099
  0
LINE
  5
23E
100
AcDbEntity
  8
0
100
AcDbLine
 62
7
  6
CONTINUOUS
 10
-48.5076203147
 20
30.2213302099
 11
-41.6576994248
 21
30.2213302099
  0
INSERT
  5
23F
100
AcDbEntity
  8
0
100
AcDbBlockReference
 62
7
  6
CONTINUOUS
  2
_FILLED
 10
-38.8077785349
 20
30.2213302099
 41
3.0
 42
3.0
 43
3.0
 50
180.0
  0
INSERT
  5
240
100
AcDbEntity
  8
0
100
AcDbBlockReference
 62
7
  6
CONTINUOUS
  2
_FILLED
 10
-44.5076203147
 20
30.2213302099
 41
3.0
 42
3.0
 43
3.0
  0
ENDBLK
  5
241
100
AcDbEntity
  8
0
  6
BYBLOCK
 62
0
100
AcDbBlockEnd
  0
ENDSEC
  0
SECTION
  2
ENTITIES
  0
DIMENSION
  5
242
100
AcDbEntity
  8
0
100
AcDbDimension
 62
7
  6
CONTINUOUS
  2
*D0
 10
21.9623168641
 20
30.2213302099
 11
-0.8162547526
 21
30.2213302099
 70
160
 71
2
 42
44.7
  3
DIMSTYLE_1
100
AcDbAlignedDimension
 13
-22.7376831359
 23
13.1130922693
 14
21.9623168641
 24
13.1130922693
100
AcDbRotatedDimension
  0
DIMENSION
  5
243
100
AcDbEntity
  8
0
100
AcDbDimension
 62
7
  6
CONTINUOUS
  2
*D1
 10
29.9623168641
 20
-22.1951456712
 11
29.9623168641
 21
-0.4154786645
 70
160
 71
2
 42
44.4164758811
  3
DIMSTYLE_2
100
AcDbAlignedDimension
 13
21.4350986693
 23
22.2213302099
 14
21.4350986693
 24
-22.1951456712
 50
270.0
100
AcDbRotatedDimension
  0
DIMENSION
  5
244
100
AcDbEntity
  8
0
100
AcDbDimension
 62
7
  6
CONTINUOUS
  2
*D2
 10
-44.5076203147
 20
30.2213302099
 11
-30.3128366776
 21
30.2213302099
 70
160
 71
1
 42
5.6998417798
  3
DIMSTYLE_1
100
AcDbAlignedDimension
 13
-38.8077785349
 23
13.1130922693
 14
-44.5076203147
 24
0.4108607235
 50
180.0
100
AcDbRotatedDimension
  0
LWPOLYLINE
  5
245
100
AcDbEntity
  8
ASSI
100
AcDbPolyline
 62
253
  6
CONTINUOUS
 90
49
 70
0
 10
-22.5929973618
 20
21.1459475977
 10
-22.5921892951
 20
21.1483343617
 10
-22.5908702251
 20
21.1507186809
 10
-22.589041503
 20
21.1530981132
 10
-22.5867050018
 20
21.1554702213
 10
-22.5838631149
 20
21.1578325756
 10
-22.5805187531
 20
21.1601827562
 10
-22.576675342
 20
21.1625183559
 10
-22.5723368184
 20
21.1648369824
 10
-22.5675076262
 20
21.1671362608
 10
-22.5621927118
 20
21.169413836
 10
-22.5563975192
 20
21.171667375
 10
-22.5501279844
 20
21.1738945696
 10
-22.5433905291
 20
21.1760931385
 10
-22.5361920544
 20
21.1782608298
 10
-22.5285399337
 20
21.1803954231
 10
-22.5204420049
 20
21.1824947319
 10
-22.5119065625
 20
21.184556606
 10
-22.5029423494
 20
21.1865789335
 10
-22.4935585474
 20
21.1885596429
 10
-22.4837647682
 20
21.1904967053
 10
-22.4735710434
 20
21.1923881367
 10
-22.4629878145
 20
21.1942319998
 10
-22.4520259215
 20
21.1960264057
 10
-22.4406965926
 20
21.1977695167
 10
-22.4290114323
 20
21.1994595472
 10
-22.4169824095
 20
21.2010947662
 10
-22.4046218454
 20
21.2026734987
 10
-22.3919424007
 20
21.2041941277
 10
-22.3789570629
 20
21.2056550956
 10
-22.3656791325
 20
21.2070549059
 10
-22.3521222101
 20
21.2083921249
 10
-22.3383001817
 20
21.2096653828
 10
-22.3242272051
 20
21.2108733755
 10
-22.309917695
 20
21.2120148656
 10
-22.2953863085
 20
21.213088684
 10
-22.2806479298
 20
21.2140937306
 10
-22.2657176553
 20
21.2150289762
 10
-22.2506107778
 20
21.2158934627
 10
-22.2353427711
 20
21.2166863046
 10
-22.219929274
 20
21.2174066899
 10
-22.2043860743
 20
21.2180538806
 10
-22.1887290927
 20
21.2186272139
 10
-22.1729743664
 20
21.2191261024
 10
-22.1571380329
 20
21.2195500353
 10
-22.1412363129
 20
21.2198985782
 10
-22.1252854944
 20
21.2201713742
 10
-22.1093019156
 20
21.2203681438
 10
-22.0933019483
 20
21.2204886855
  0
LWPOLYLINE
  5
246
100
AcDbEntity
  8
ASSI
100
AcDbPolyline
 62
253
  6
CONTINUOUS
 90
49
 70
0
 10
-22.5929973618
 20
-21.1197630591
 10
-22.5921892956
 20
-21.1221498231
 10
-22.5908702262
 20
-21.1245341424
 10
-22.5890415045
 20
-21.1269135748
 10
-22.5867050039
 20
-21.129285683
 10
-22.5838631174
 20
-21.1316480373
 10
-22.580518756
 20
-21.133998218
 10
-22.5766753453
 20
-21.1363338178
 10
-22.5723368221
 20
-21.1386524444
 10
-22.5675076302
 20
-21.1409517229
 10
-22.5621927161
 20
-21.1432292982
 10
-22.5563975238
 20
-21.1454828373
 10
-22.5501279892
 20
-21.147710032
 10
-22.5433905342
 20
-21.149908601
 10
-22.5361920597
 20
-21.1520762923
 10
-22.5285399392
 20
-21.1542108857
 10
-22.5204420105
 20
-21.1563101946
 10
-22.5119065683
 20
-21.1583720689
 10
-22.5029423553
 20
-21.1603943964
 10
-22.4935585533
 20
-21.1623751059
 10
-22.4837647742
 20
-21.1643121684
 10
-22.4735710495
 20
-21.1662035999
 10
-22.4629878205
 20
-21.168047463
 10
-22.4520259275
 20
-21.1698418691
 10
-22.4406965986
 20
-21.1715849802
 10
-22.4290114382
 20
-21.1732750108
 10
-22.4169824153
 20
-21.1749102299
 10
-22.4046218511
 20
-21.1764889624
 10
-22.3919424063
 20
-21.1780095915
 10
-22.3789570683
 20
-21.1794705594
 10
-22.3656791378
 20
-21.1808703698
 10
-22.3521222152
 20
-21.1822075889
 10
-22.3383001866
 20
-21.1834808469
 10
-22.3242272098
 20
-21.1846888396
 10
-22.3099176994
 20
-21.1858303298
 10
-22.2953863127
 20
-21.1869041482
 10
-22.2806479337
 20
-21.187909195
 10
-22.2657176589
 20
-21.1888444406
 10
-22.2506107811
 20
-21.1897089272
 10
-22.2353427741
 20
-21.1905017691
 10
-22.2199292767
 20
-21.1912221544
 10
-22.2043860767
 20
-21.1918693452
 10
-22.1887290948
 20
-21.1924426785
 10
-22.1729743682
 20
-21.1929415671
 10
-22.1571380343
 20
-21.1933655
 10
-22.1412363139
 20
-21.1937140429
 10
-22.1252854951
 20
-21.1939868389
 10
-22.109301916
 20
-21.1941836085
 10
-22.0933019483
 20
-21.1943041502
  0
LINE
  5
247
100
AcDbEntity
  8
ASSI
100
AcDbLine
 62
7
  6
CONTINUOUS
 10
14.2563631632
 20
-22.1951456712
 11
14.6045818372
 21
-22.1635368397
  0
LINE
  5
248
100
AcDbEntity
  8
ASSI
100
AcDbLine
 62
7
  6
CONTINUOUS
 10
-15.031729435
 20
-22.1951456712
 11
-15.379948109
 21
-22.1635368397
  0
LINE
  5
249
100
AcDbEntity
  8
ASSI
100
AcDbLine
 62
253
  6
CONTINUOUS
 10
-22.6013532824
 20
21.5014165142
 11
-22.6021719443
 21
21.5144876106
  0
LINE
  5
24A
100
AcDbEntity
  8
ASSI
100
AcDbLine
 62
253
  6
CONTINUOUS
 10
-22.600560316
 20
21.4871056774
 11
-22.6013532824
 21
21.5014165142
  0
LINE
  5
24B
100
AcDbEntity
  8
ASSI
100
AcDbLine
 62
253
  6
CONTINUOUS
 10
-22.5997955802
 20
21.4716032113
 11
-22.600560316
 21
21.4871056774
  0
LINE
  5
24C
100
AcDbEntity
  8
ASSI
100
AcDbLine
 62
253
  6
CONTINUOUS
 10
-22.599060725
 20
21.4549425974
 11
-22.5997955802
 21
21.4716032113
  0
LINE
  5
24D
100
AcDbEntity
  8
ASSI
100
AcDbLine
 62
253
  6
CONTINUOUS
 10
-22.103318008
 20
21.9811478621
 11
-22.1041808408
 21
22.0021138873
  0
LINE
  5
24E
100
AcDbEntity
  8
ASSI
100
AcDbLine
 62
253
  6
CONTINUOUS
 10
-22.5980197442
 20
21.4278984672
 11
-22.599060725
 21
21.4549425974
  0
LINE
  5
24F
100
AcDbEntity
  8
ASSI
100
AcDbLine
 62
253
  6
CONTINUOUS
 10
-22.1024763657
 20
21.95756103
 11
-22.103318008
 21
21.9811478621
  0
LINE
  5
250
100
AcDbEntity
  8
ASSI
100
AcDbLine
 62
253
  6
CONTINUOUS
 10
-22.5970581133
 20
21.3985447733
 11
-22.5980197442
 21
21.4278984672
  0
LINE
  5
251
100
AcDbEntity
  8
ASSI
100
AcDbLine
 62
253
  6
CONTINUOUS
 10
-22.1012580542
 20
21.9174176242
 11
-22.1024763657
 21
21.95756103
  0
LINE
  5
252
100
AcDbEntity
  8
ASSI
100
AcDbLine
 62
253
  6
CONTINUOUS
 10
-22.5961820555
 20
21.3670716859
 11
-22.5970581133
 21
21.3985447733
  0
LINE
  5
253
100
AcDbEntity
  8
ASSI
100
AcDbLine
 62
253
  6
CONTINUOUS
 10
-22.0997286342
 20
21.8554164575
 11
-22.1012580542
 21
21.9174176242
  0
LINE
  5
254
100
AcDbEntity
  8
ASSI
100
AcDbLine
 62
253
  6
CONTINUOUS
 10
-22.5951568842
 20
21.3221678906
 11
-22.5961820555
 21
21.3670716859
  0
LWPOLYLINE
  5
255
100
AcDbEntity
  8
ASSI
100
AcDbPolyline
 62
253
  6
CONTINUOUS
 90
43
 70
0
 10
-22.5554912427
 20
0.4085562761
 10
-22.5553137485
 20
0.3992106434
 10
-22.5547872032
 20
0.3898780764
 10
-22.553912343
 20
0.3805716225
 10
-22.5526903909
 20
0.3713042925
 10
-22.5511230554
 20
0.3620890425
 10
-22.5492125276
 20
0.3529387561
 10
-22.5469614785
 20
0.3438662256
 10
-22.5443730553
 20
0.334884135
 10
-22.5414508766
 20
0.3260050417
 10
-22.5381990279
 20
0.3172413591
 10
-22.5346220553
 20
0.3086053391
 10
-22.5307249597
 20
0.3001090555
 10
-22.5265131893
 20
0.2917643864
 10
-22.5219926326
 20
0.283582998
 10
-22.5171696094
 20
0.2755763284
 10
-22.5120508625
 20
0.2677555713
 10
-22.5066435482
 20
0.2601316604
 10
-22.5009552262
 20
0.2527152543
 10
-22.4949938492
 20
0.2455167216
 10
-22.4887677512
 20
0.2385461261
 10
-22.4822856369
 20
0.231813213
 10
-22.4755565684
 20
0.2253273954
 10
-22.4685899534
 20
0.2190977405
 10
-22.4613955314
 20
0.213132958
 10
-22.4539833608
 20
0.2074413866
 10
-22.446363804
 20
0.2020309836
 10
-22.4385475136
 20
0.196909313
 10
-22.430545417
 20
0.192083535
 10
-22.4223687017
 20
0.1875603964
 10
-22.4140287991
 20
0.1833462207
 10
-22.4055373688
 20
0.1794468994
 10
-22.3969062821
 20
0.1758678841
 10
-22.3881476058
 20
0.1726141784
 10
-22.379273585
 20
0.1696903311
 10
-22.3702966258
 20
0.1671004298
 10
-22.3612292787
 20
0.1648480954
 10
-22.35208422
 20
0.1629364767
 10
-22.3428742351
 20
0.1613682462
 10
-22.3336122
 20
0.1601455965
 10
-22.3243110634
 20
0.1592702368
 10
-22.3149838287
 20
0.1587433909
 10
-22.305643536
 20
0.1585657953
  0
LWPOLYLINE
  5
256
100
AcDbEntity
  8
ASSI
100
AcDbPolyline
 62
253
  6
CONTINUOUS
 90
49
 70
0
 10
-22.6093488175
 20
-21.5445367352
 10
-22.6090520683
 20
-21.5608548929
 10
-22.6082217934
 20
-21.5771556174
 10
-22.6068588798
 20
-21.5934214939
 10
-22.6049647834
 20
-21.6096351451
 10
-22.602541528
 20
-21.6257792494
 10
-22.5995917022
 20
-21.6418365594
 10
-22.5961184576
 20
-21.6577899204
 10
-22.5921255046
 20
-21.673622289
 10
-22.5876171092
 20
-21.6893167509
 10
-22.5825980877
 20
-21.7048565391
 10
-22.5770738022
 20
-21.7202250518
 10
-22.5710501545
 20
-21.7354058703
 10
-22.5645335799
 20
-21.7503827765
 10
-22.5575310402
 20
-21.7651397698
 10
-22.5500500164
 20
-21.779661085
 10
-22.542098501
 20
-21.7939312083
 10
-22.5336849887
 20
-21.8079348945
 10
-22.524818468
 20
-21.8216571828
 10
-22.5155084113
 20
-21.8350834133
 10
-22.5057647648
 20
-21.8481992423
 10
-22.4955979382
 20
-21.8609906576
 10
-22.4850187929
 20
-21.8734439937
 10
-22.4740386311
 20
-21.8855459462
 10
-22.4626691833
 20
-21.8972835862
 10
-22.4509225957
 20
-21.9086443739
 10
-22.4388114179
 20
-21.9196161721
 10
-22.4263485885
 20
-21.9301872594
 10
-22.413547422
 20
-21.9403463421
 10
-22.4004215945
 20
-21.9500825671
 10
-22.3869851286
 20
-21.9593855326
 10
-22.3732523791
 20
-21.9682453001
 10
-22.3592380172
 20
-21.9766524043
 10
-22.3449570149
 20
-21.9845978636
 10
-22.3304246292
 20
-21.9920731895
 10
-22.3156563854
 20
-21.9990703959
 10
-22.3006680611
 20
-22.0055820074
 10
-22.2854756689
 20
-22.0116010675
 10
-22.2700954393
 20
-22.0171211456
 10
-22.2545438036
 20
-22.0221363446
 10
-22.2388373762
 20
-22.0266413065
 10
-22.2229929367
 20
-22.0306312185
 10
-22.2070274126
 20
-22.034101818
 10
-22.1909578601
 20
-22.0370493973
 10
-22.1748014472
 20
-22.0394708072
 10
-22.1585754342
 20
-22.0413634611
 10
-22.142297156
 20
-22.0427253368
 10
-22.1259840033
 20
-22.0435549794
 10
-22.109653404
 20
-22.0438515026
  0
LINE
  5
257
100
AcDbEntity
  8
ASSI
100
AcDbLine
 62
253
  6
CONTINUOUS
 10
-22.0979947254
 20
21.7653153617
 11
-22.0997286342
 21
21.8554164575
  0
LINE
  5
258
100
AcDbEntity
  8
ASSI
100
AcDbLine
 62
253
  6
CONTINUOUS
 10
-22.5943054901
 20
21.2743695934
 11
-22.5951568842
 21
21.3221678906
  0
LINE
  5
259
100
AcDbEntity
  8
ASSI
100
AcDbLine
 62
253
  6
CONTINUOUS
 10
-22.0962147489
 20
21.6408859944
 11
-22.0979947254
 21
21.7653153617
  0
LINE
  5
25A
100
AcDbEntity
  8
ASSI
100
AcDbLine
 62
253
  6
CONTINUOUS
 10
-22.5935007713
 20
21.2114164876
 11
-22.5943054901
 21
21.2743695934
  0
LINE
  5
25B
100
AcDbEntity
  8
ASSI
100
AcDbLine
 62
253
  6
CONTINUOUS
 10
-22.0944257277
 20
21.4526783519
 11
-22.0962147489
 21
21.6408859944
  0
LINE
  5
25C
100
AcDbEntity
  8
ASSI
100
AcDbLine
 62
253
  6
CONTINUOUS
 10
-22.5929973618
 20
21.1459475977
 11
-22.5935007713
 21
21.2114164876
  0
LINE
  5
25D
100
AcDbEntity
  8
ASSI
100
AcDbLine
 62
7
  6
CONTINUOUS
 10
-22.7113758266
 20
-21.6976550384
 11
-22.7376831359
 21
-13.0869077307
  0
LINE
  5
25E
100
AcDbEntity
  8
ASSI
100
AcDbLine
 62
253
  6
CONTINUOUS
 10
-22.0933019483
 20
21.2204886889
 11
-22.0944257277
 21
21.4526783519
  0
LINE
  5
25F
100
AcDbEntity
  8
ASSI
100
AcDbLine
 62
253
  6
CONTINUOUS
 10
-22.5641818838
 20
13.3974224713
 11
-22.5929973618
 21
21.1459475977
  0
LINE
  5
260
100
AcDbEntity
  8
ASSI
100
AcDbLine
 62
253
  6
CONTINUOUS
 10
-22.0644864718
 20
13.4286836158
 11
-22.0933019483
 21
21.2204886889
  0
LINE
  5
261
100
AcDbEntity
  8
ASSI
100
AcDbLine
 62
253
  6
CONTINUOUS
 10
-22.5579996533
 20
8.4931151118
 11
-22.5641818838
 21
13.3974224713
  0
LINE
  5
262
100
AcDbEntity
  8
ASSI
100
AcDbLine
 62
253
  6
CONTINUOUS
 10
-22.0583043657
 20
8.5018230447
 11
-22.0644864718
 21
13.4286836158
  0
LINE
  5
263
100
AcDbEntity
  8
ASSI
100
AcDbLine
 62
7
  6
CONTINUOUS
 10
-22.7376831359
 20
-0.3368411094
 11
-22.7376831359
 21
-13.0869077307
  0
LINE
  5
264
100
AcDbEntity
  8
ASSI
100
AcDbLine
 62
7
  6
CONTINUOUS
 10
-22.7376831359
 20
0.3630256481
 11
-22.7376831359
 21
13.1130922693
  0
LINE
  5
265
100
AcDbEntity
  8
ASSI
100
AcDbLine
 62
253
  6
CONTINUOUS
 10
-22.5554913395
 20
0.4085562519
 11
-22.5579996533
 21
8.4931151118
  0
LINE
  5
266
100
AcDbEntity
  8
ASSI
100
AcDbLine
 62
253
  6
CONTINUOUS
 10
-22.0557958821
 20
0.1606713575
 11
-22.0583043657
 21
8.5018230447
  0
LINE
  5
267
100
AcDbEntity
  8
ASSI
100
AcDbLine
 62
253
  6
CONTINUOUS
 10
-22.5700083136
 20
-15.5920166017
 11
-22.5554913395
 21
-0.3823717132
  0
LINE
  5
268
100
AcDbEntity
  8
ASSI
100
AcDbLine
 62
253
  6
CONTINUOUS
 10
-22.0703129006
 20
-15.635669419
 11
-22.0557958821
 21
-0.1344868189
  0
LINE
  5
269
100
AcDbEntity
  8
ASSI
100
AcDbLine
 62
7
  6
CONTINUOUS
 10
-22.7113758266
 20
21.7238395771
 11
-22.7376831359
 21
13.1130922693
  0
LINE
  5
26A
100
AcDbEntity
  8
ASSI
100
AcDbLine
 62
253
  6
CONTINUOUS
 10
-22.5931619242
 20
-21.1461863643
 11
-22.5700083136
 21
-15.5920166017
  0
LINE
  5
26B
100
AcDbEntity
  8
ASSI
100
AcDbLine
 62
253
  6
CONTINUOUS
 10
-22.0946101441
 20
-21.451163527
 11
-22.0703129006
 21
-15.635669419
  0
LINE
  5
26C
100
AcDbEntity
  8
ASSI
100
AcDbLine
 62
253
  6
CONTINUOUS
 10
-22.5937871462
 20
-21.2107761605
 11
-22.5931619242
 21
-21.1461863643
  0
LINE
  5
26D
100
AcDbEntity
  8
ASSI
100
AcDbLine
 62
253
  6
CONTINUOUS
 10
-22.0962147489
 20
-21.6147014558
 11
-22.0946101441
 21
-21.451163527
  0
LINE
  5
26E
100
AcDbEntity
  8
ASSI
100
AcDbLine
 62
253
  6
CONTINUOUS
 10
-22.5945015287
 20
-21.2603800292
 11
-22.5937871462
 21
-21.2107761605
  0
LINE
  5
26F
100
AcDbEntity
  8
ASSI
100
AcDbLine
 62
253
  6
CONTINUOUS
 10
-22.0979947254
 20
-21.7391308231
 11
-22.0962147489
 21
-21.6147014558
  0
LWPOLYLINE
  5
270
100
AcDbEntity
  8
ASSI
100
AcDbPolyline
 62
253
  6
CONTINUOUS
 90
49
 70
0
 10
-22.6093488175
 20
21.5707212739
 10
-22.6090520683
 20
21.5870394325
 10
-22.6082217933
 20
21.6033401579
 10
-22.6068588795
 20
21.6196060353
 10
-22.604964783
 20
21.6358196873
 10
-22.6025415273
 20
21.6519637924
 10
-22.5995917012
 20
21.6680211031
 10
-22.5961184562
 20
21.6839744648
 10
-22.5921255029
 20
21.6998068341
 10
-22.5876171071
 20
21.7155012965
 10
-22.5825980852
 20
21.7310410852
 10
-22.5770737992
 20
21.7464095983
 10
-22.5710501511
 20
21.7615904172
 10
-22.564533576
 20
21.7765673237
 10
-22.5575310358
 20
21.7913243173
 10
-22.5500500116
 20
21.8058456327
 10
-22.5420984957
 20
21.8201157561
 10
-22.5336849829
 20
21.8341194423
 10
-22.5248184618
 20
21.8478417307
 10
-22.5155084047
 20
21.8612679612
 10
-22.5057647579
 20
21.87438379
 10
-22.4955979309
 20
21.8871752052
 10
-22.4850187853
 20
21.899628541
 10
-22.4740386232
 20
21.9117304933
 10
-22.4626691751
 20
21.923468133
 10
-22.4509225874
 20
21.9348289203
 10
-22.4388114094
 20
21.9458007182
 10
-22.4263485799
 20
21.9563718051
 10
-22.4135474133
 20
21.9665308874
 10
-22.4004215858
 20
21.9762671119
 10
-22.38698512
 20
21.9855700771
 10
-22.3732523706
 20
21.9944298441
 10
-22.3592380089
 20
22.0028369478
 10
-22.3449570068
 20
22.0107824066
 10
-22.3304246213
 20
22.018257732
 10
-22.3156563779
 20
22.025254938
 10
-22.300668054
 20
22.0317665491
 10
-22.2854756622
 20
22.0377856087
 10
-22.270095433
 20
22.0433056864
 10
-22.2545437978
 20
22.0483208851
 10
-22.2388373709
 20
22.0528258466
 10
-22.2229929321
 20
22.0568157583
 10
-22.2070274085
 20
22.0602863575
 10
-22.1909578567
 20
22.0632339365
 10
-22.1748014444
 20
22.0656553463
 10
-22.1585754321
 20
22.0675479999
 10
-22.1422971546
 20
22.0689098755
 10
-22.1259840026
 20
22.0697395181
 10
-22.109653404
 20
22.0700360412
  0
LWPOLYLINE
  5
271
100
AcDbEntity
  8
ASSI
100
AcDbPolyline
 62
253
  6
CONTINUOUS
 90
43
 70
0
 10
-22.5554912427
 20
-0.3823717374
 10
-22.5553137485
 20
-0.3730261058
 10
-22.5547872034
 20
-0.3636935399
 10
-22.5539123434
 20
-0.3543870869
 10
-22.5526903916
 20
-0.3451197579
 10
-22.5511230564
 20
-0.3359045089
 10
-22.549212529
 20
-0.3267542234
 10
-22.5469614804
 20
-0.3176816938
 10
-22.5443730576
 20
-0.308699604
 10
-22.5414508795
 20
-0.2998205114
 10
-22.5381990314
 20
-0.2910568294
 10
-22.5346220595
 20
-0.2824208101
 10
-22.5307249645
 20
-0.2739245269
 10
-22.5265131949
 20
-0.2655798582
 10
-22.5219926388
 20
-0.2573984702
 10
-22.5171696163
 20
-0.2493918008
 10
-22.5120508701
 20
-0.2415710438
 10
-22.5066435565
 20
-0.2339471329
 10
-22.5009552351
 20
-0.2265307268
 10
-22.4949938586
 20
-0.219332194
 10
-22.4887677613
 20
-0.2123615982
 10
-22.4822856474
 20
-0.2056286849
 10
-22.4755565793
 20
-0.1991428669
 10
-22.4685899646
 20
-0.1929132116
 10
-22.461395543
 20
-0.1869484285
 10
-22.4539833725
 20
-0.1812568566
 10
-22.4463638158
 20
-0.1758464531
 10
-22.4385475254
 20
-0.1707247818
 10
-22.4305454288
 20
-0.1658990031
 10
-22.4223687133
 20
-0.1613758638
 10
-22.4140288103
 20
-0.1571616874
 10
-22.4055373796
 20
-0.1532623655
 10
-22.3969062924
 20
-0.1496833495
 10
-22.3881476155
 20
-0.1464296431
 10
-22.3792735939
 20
-0.1435057952
 10
-22.370296634
 20
-0.1409158933
 10
-22.3612292859
 20
-0.1386635584
 10
-22.3520842262
 20
-0.1367519392
 10
-22.3428742402
 20
-0.1351837083
 10
-22.3336122039
 20
-0.1339610583
 10
-22.3243110661
 20
-0.1330856983
 10
-22.3149838301
 20
-0.1325588523
 10
-22.305643536
 20
-0.1323812567
  0
LINE
  5
272
100
AcDbEntity
  8
ASSI
100
AcDbLine
 62
253
  6
CONTINUOUS
 10
-22.5953972459
 20
-21.3074987634
 11
-22.5945015287
 21
-21.2603800292
  0
LINE
  5
273
100
AcDbEntity
  8
ASSI
100
AcDbLine
 62
253
  6
CONTINUOUS
 10
-22.0997286342
 20
-21.8292319188
 11
-22.0979947254
 21
-21.7391308231
  0
LINE
  5
274
100
AcDbEntity
  8
ASSI
100
AcDbLine
 62
253
  6
CONTINUOUS
 10
-22.5964641463
 20
-21.3515985463
 11
-22.5953972459
 21
-21.3074987634
  0
LINE
  5
275
100
AcDbEntity
  8
ASSI
100
AcDbLine
 62
253
  6
CONTINUOUS
 10
-22.1012580542
 20
-21.8912330855
 11
-22.0997286342
 21
-21.8292319188
  0
LINE
  5
276
100
AcDbEntity
  8
ASSI
100
AcDbLine
 62
253
  6
CONTINUOUS
 10
-22.5973693793
 20
-21.3823873308
 11
-22.5964641463
 21
-21.3515985463
  0
LINE
  5
277
100
AcDbEntity
  8
ASSI
100
AcDbLine
 62
253
  6
CONTINUOUS
 10
-22.1024763657
 20
-21.9313764914
 11
-22.1012580542
 21
-21.8912330855
  0
LINE
  5
278
100
AcDbEntity
  8
ASSI
100
AcDbLine
 62
253
  6
CONTINUOUS
 10
-22.5983581711
 20
-21.410991757
 11
-22.5973693793
 21
-21.3823873308
  0
LINE
  5
279
100
AcDbEntity
  8
ASSI
100
AcDbLine
 62
253
  6
CONTINUOUS
 10
-22.103318008
 20
-21.9549633234
 11
-22.1024763657
 21
-21.9313764914
  0
LINE
  5
27A
100
AcDbEntity
  8
ASSI
100
AcDbLine
 62
253
  6
CONTINUOUS
 10
-22.599060725
 20
-21.4287580588
 11
-22.5983581711
 21
-21.410991757
  0
LINE
  5
27B
100
AcDbEntity
  8
ASSI
100
AcDbLine
 62
253
  6
CONTINUOUS
 10
-22.1041808408
 20
-21.9759293486
 11
-22.103318008
 21
-21.9549633234
  0
LINE
  5
27C
100
AcDbEntity
  8
ASSI
100
AcDbLine
 62
253
  6
CONTINUOUS
 10
-22.5997955802
 20
-21.4454186727
 11
-22.599060725
 21
-21.4287580588
  0
LINE
  5
27D
100
AcDbEntity
  8
ASSI
100
AcDbLine
 62
253
  6
CONTINUOUS
 10
-22.600560316
 20
-21.4609211387
 11
-22.5997955802
 21
-21.4454186727
  0
LINE
  5
27E
100
AcDbEntity
  8
ASSI
100
AcDbLine
 62
253
  6
CONTINUOUS
 10
-22.6013532824
 20
-21.4752319756
 11
-22.600560316
 21
-21.4609211387
  0
LINE
  5
27F
100
AcDbEntity
  8
ASSI
100
AcDbLine
 62
7
  6
CONTINUOUS
 10
3.0563631632
 20
-22.1951456712
 11
3.4045818372
 21
-22.1635368397
  0
LINE
  5
280
100
AcDbEntity
  8
ASSI
100
AcDbLine
 62
7
  6
CONTINUOUS
 10
-8.2436368368
 20
-22.1951456712
 11
-7.8954181628
 21
-22.1635368397
  0
LINE
  5
281
100
AcDbEntity
  8
ASSI
100
AcDbLine
 62
7
  6
CONTINUOUS
 10
21.4350986693
 20
-22.1951456712
 11
18.668270565
 21
-22.1951456712
  0
LINE
  5
282
100
AcDbEntity
  8
ASSI
100
AcDbLine
 62
7
  6
CONTINUOUS
 10
14.2563631632
 20
-22.1951456712
 11
7.468270565
 21
-22.1951456712
  0
LINE
  5
283
100
AcDbEntity
  8
ASSI
100
AcDbLine
 62
7
  6
CONTINUOUS
 10
3.0563631632
 20
-22.1951456712
 11
-3.831729435
 21
-22.1951456712
  0
LINE
  5
284
100
AcDbEntity
  8
ASSI
100
AcDbLine
 62
7
  6
CONTINUOUS
 10
-8.2436368368
 20
-22.1951456712
 11
-15.031729435
 21
-22.1951456712
  0
LINE
  5
285
100
AcDbEntity
  8
ASSI
100
AcDbLine
 62
7
  6
CONTINUOUS
 10
-19.4436368368
 20
-22.1951456712
 11
-22.2104649412
 21
-22.1951456712
  0
LINE
  5
286
100
AcDbEntity
  8
ASSI
100
AcDbLine
 62
7
  6
CONTINUOUS
 10
18.1468468103
 20
-22.1582960617
 11
14.7777869179
 21
-22.1582960617
  0
LINE
  5
287
100
AcDbEntity
  8
ASSI
100
AcDbLine
 62
7
  6
CONTINUOUS
 10
6.9468468103
 20
-22.1582960617
 11
3.5777869179
 21
-22.1582960617
  0
LINE
  5
288
100
AcDbEntity
  8
ASSI
100
AcDbLine
 62
7
  6
CONTINUOUS
 10
-4.3531531897
 20
-22.1582960617
 11
-7.7222130821
 21
-22.1582960617
  0
LINE
  5
289
100
AcDbEntity
  8
ASSI
100
AcDbLine
 62
7
  6
CONTINUOUS
 10
-15.5531531897
 20
-22.1582960617
 11
-18.9222130821
 21
-22.1582960617
  0
LINE
  5
28A
100
AcDbEntity
  8
ASSI
100
AcDbLine
 62
253
  6
CONTINUOUS
 10
-22.109653404
 20
-22.0438515026
 11
21.3342871322
 21
-22.0438515026
  0
LINE
  5
28B
100
AcDbEntity
  8
ASSI
100
AcDbLine
 62
253
  6
CONTINUOUS
 10
-22.0933019483
 20
-21.1943041503
 11
21.3179356765
 21
-21.1943041503
  0
LINE
  5
28C
100
AcDbEntity
  8
ASSI
100
AcDbLine
 62
7
  6
CONTINUOUS
 10
-3.831729435
 20
-22.1951456712
 11
-4.179948109
 21
-22.1635368397
  0
LINE
  5
28D
100
AcDbEntity
  8
ASSI
100
AcDbLine
 62
7
  6
CONTINUOUS
 10
7.468270565
 20
-22.1951456712
 11
7.120051891
 21
-22.1635368397
  0
LWPOLYLINE
  5
28E
100
AcDbEntity
  8
ASSI
100
AcDbPolyline
 62
253
  6
CONTINUOUS
 90
17
 70
0
 10
-22.6021719443
 20
21.5144876106
 10
-22.6025900098
 20
21.5205449679
 10
-22.6030136137
 20
21.5262782354
 10
-22.6034427438
 20
21.5316881121
 10
-22.6038764731
 20
21.5367629044
 10
-22.604314811
 20
21.5415018829
 10
-22.6047577482
 20
21.5459057769
 10
-22.60520433
 20
21.5499650812
 10
-22.6056545657
 20
21.5536790591
 10
-22.6061084461
 20
21.5570484472
 10
-22.6065649883
 20
21.5600659508
 10
-22.6070242112
 20
21.5627308247
 10
-22.6074860958
 20
21.5650438141
 10
-22.6079496027
 20
21.5669998596
 10
-22.6084143853
 20
21.5685972748
 10
-22.6088807903
 20
21.5698377463
 10
-22.6093488175
 20
21.5707212739
  0
LWPOLYLINE
  5
28F
100
AcDbEntity
  8
ASSI
100
AcDbPolyline
 62
253
  6
CONTINUOUS
 90
11
 70
0
 10
-22.1050620797
 20
22.0203985815
 10
-22.1055086463
 20
22.0285186884
 10
-22.1059588758
 20
22.0359493577
 10
-22.1064127534
 20
22.0426851979
 10
-22.106869285
 20
22.0487213077
 10
-22.1073284657
 20
22.0540533179
 10
-22.1077903002
 20
22.058677422
 10
-22.1082538093
 20
22.06259032
 10
-22.1087186664
 20
22.0657891874
 10
-22.109185198
 20
22.068271695
 10
-22.109653404
 20
22.0700360412
  0
LINE
  5
290
100
AcDbEntity
  8
ASSI
100
AcDbLine
 62
253
  6
CONTINUOUS
 10
-22.1041808408
 20
22.0021138873
 11
-22.1050620797
 21
22.0203985815
  0
LINE
  5
291
100
AcDbEntity
  8
ASSI
100
AcDbLine
 62
7
  6
CONTINUOUS
 10
-19.4436368368
 20
-22.1951456712
 11
-19.0954181628
 21
-22.1635368397
  0
LINE
  5
292
100
AcDbEntity
  8
ASSI
100
AcDbLine
 62
7
  6
CONTINUOUS
 10
18.668270565
 20
-22.1951456712
 11
18.320051891
 21
-22.1635368397
  0
LWPOLYLINE
  5
293
100
AcDbEntity
  8
ASSI
100
AcDbPolyline
 62
253
  6
CONTINUOUS
 90
11
 70
0
 10
-22.558634508
 20
9.5035922693
 10
-22.5578205624
 20
9.5038963821
 10
-22.5564958749
 20
9.5042001835
 10
-22.5546618017
 20
9.5045033625
 10
-22.5523202204
 20
9.5048056088
 10
-22.5494735284
 20
9.5051066129
 10
-22.5461246399
 20
9.5054060666
 10
-22.5422769836
 20
9.5057036635
 10
-22.5379344984
 20
9.5059990987
 10
-22.5331016302
 20
9.5062920699
 10
-22.5277833267
 20
9.5065822771
  0
LWPOLYLINE
  5
294
100
AcDbEntity
  8
ASSI
100
AcDbPolyline
 62
253
  6
CONTINUOUS
 90
13
 70
0
 10
-22.558634508
 20
-9.4774077307
 10
-22.5578205624
 20
-9.4777118434
 10
-22.5564958749
 20
-9.4780156448
 10
-22.5546618017
 20
-9.4783188239
 10
-22.5523202205
 20
-9.4786210701
 10
-22.5494735284
 20
-9.4789220742
 10
-22.54612464
 20
-9.479221528
 10
-22.5422769836
 20
-9.4795191248
 10
-22.5379344985
 20
-9.4798145601
 10
-22.5331016303
 20
-9.4801075313
 10
-22.5277833268
 20
-9.4803977385
 10
-22.5219850327
 20
-9.4806848846
 10
-22.5089727028
 20
-9.4812488211
  0
LWPOLYLINE
  5
295
100
AcDbEntity
  8
0
100
AcDbPolyline
 62
253
  6
CONTINUOUS
 90
43
 70
0
 10
-15.3537720579
 20
-13.4122082357
 10
-15.3484020668
 20
-13.4379409826
 10
-15.34227987
 20
-13.4633884455
 10
-15.3354128159
 20
-13.4885623513
 10
-15.3278082526
 20
-13.5134744266
 10
-15.3194735283
 20
-13.5381363982
 10
-15.3104159915
 20
-13.5625599929
 10
-15.3006439986
 20
-13.5867502751
 10
-15.2901699404
 20
-13.6106856602
 10
-15.2790072158
 20
-13.6343379012
 10
-15.2671692239
 20
-13.6576787513
 10
-15.2546693638
 20
-13.6806799634
 10
-15.2415210345
 20
-13.7033132909
 10
-15.2277365038
 20
-13.7255520053
 10
-15.2133235153
 20
-13.7473754539
 10
-15.1982886811
 20
-13.7687645023
 10
-15.1826386135
 20
-13.7897000163
 10
-15.1663799249
 20
-13.8101628618
 10
-15.1495192273
 20
-13.8301339045
 10
-15.1320649627
 20
-13.8495943456
 10
-15.1140328907
 20
-13.8685267281
 10
-15.0954406006
 20
-13.8869139306
 10
-15.0763056815
 20
-13.9047388313
 10
-15.0566457227
 20
-13.9219843088
 10
-15.0364783135
 20
-13.9386332415
 10
-15.0158212845
 20
-13.9546703319
 10
-14.9946934325
 20
-13.9700875784
 10
-14.973113796
 20
-13.9848788034
 10
-14.9511014133
 20
-13.9990378294
 10
-14.9286753226
 20
-14.0125584788
 10
-14.9058545625
 20
-14.0254345741
 10
-14.8826601167
 20
-14.0376587993
 10
-14.8591207513
 20
-14.049219285
 10
-14.835267178
 20
-14.0601030235
 10
-14.8111301084
 20
-14.0702970068
 10
-14.7867402542
 20
-14.0797882273
 10
-14.7621283268
 20
-14.088563677
 10
-14.7373179192
 20
-14.0966113171
 10
-14.7123041488
 20
-14.1039229837
 10
-14.6870750141
 20
-14.1104914816
 10
-14.6616185137
 20
-14.1163096159
 10
-14.6359226462
 20
-14.1213701915
 10
-14.6099754102
 20
-14.1256660133
  0
LWPOLYLINE
  5
296
100
AcDbEntity
  8
0
100
AcDbPolyline
 62
253
  6
CONTINUOUS
 90
25
 70
0
 10
-14.9925981783
 20
-13.342464069
 10
-15.0056968616
 20
-13.2716564116
 10
-15.01762171
 20
-13.2007647546
 10
-15.0283807291
 20
-13.1297792927
 10
-15.0379819246
 20
-13.0586902206
 10
-15.046433302
 20
-12.987487733
 10
-15.053742867
 20
-12.9161620249
 10
-15.0599186253
 20
-12.8447032908
 10
-15.0649685823
 20
-12.7731017256
 10
-15.0688993144
 20
-12.7013548321
 10
-15.0717116805
 20
-12.6294893446
 10
-15.0734051101
 20
-12.5575393057
 10
-15.0739790327
 20
-12.4855387579
 10
-15.0734328779
 20
-12.4135217435
 10
-15.0717660751
 20
-12.3415223052
 10
-15.068978054
 20
-12.2695744852
 10
-15.0650682441
 20
-12.1977123262
 10
-15.0600346321
 20
-12.1259626182
 10
-15.0538694332
 20
-12.0543231419
 10
-15.0465634201
 20
-11.9827844256
 10
-15.0381073652
 20
-11.9113369976
 10
-15.0284920411
 20
-11.8399713864
 10
-15.0177082202
 20
-11.7686781202
 10
-15.0057466751
 20
-11.6974477273
 10
-14.9925981783
 20
-11.6262707361
  0
LWPOLYLINE
  5
297
100
AcDbEntity
  8
0
100
AcDbPolyline
 62
253
  6
CONTINUOUS
 90
25
 70
0
 10
-14.5343390036
 20
13.4552202737
 10
-14.548543149
 20
13.3783894073
 10
-14.5614693482
 20
13.3014914005
 10
-14.5731270099
 20
13.2245159446
 10
-14.5835255425
 20
13.1474527313
 10
-14.5926743548
 20
13.0702914521
 10
-14.6005828551
 20
12.9930217984
 10
-14.6072604522
 20
12.9156334619
 10
-14.6127165545
 20
12.838116134
 10
-14.6169590008
 20
12.7604673101
 10
-14.6199893499
 20
12.6827157011
 10
-14.6218075908
 20
12.6048978217
 10
-14.6224137124
 20
12.5270501867
 10
-14.6218077039
 20
12.4492093106
 10
-14.619989554
 20
12.3714117084
 10
-14.6169592518
 20
12.2936938946
 10
-14.6127167863
 20
12.2160923841
 10
-14.6072605862
 20
12.1386358929
 10
-14.6005828391
 20
12.0613219429
 10
-14.5926741725
 20
11.9841402572
 10
-14.5835252136
 20
11.9070805592
 10
-14.5731265899
 20
11.830132572
 10
-14.5614689287
 20
11.7532860188
 10
-14.5485428575
 20
11.6765306229
 10
-14.5343390036
 20
11.5998561075
  0
LWPOLYLINE
  5
298
100
AcDbEntity
  8
0
100
AcDbPolyline
 62
253
  6
CONTINUOUS
 90
44
 70
0
 10
-14.172812337
 20
13.3857936071
 10
-14.1701513936
 20
13.3988464693
 10
-14.1671533046
 20
13.4117663311
 10
-14.1638227071
 20
13.4245573228
 10
-14.1601642383
 20
13.4372235745
 10
-14.1561825352
 20
13.4497692165
 10
-14.151882235
 20
13.4621983792
 10
-14.147267975
 20
13.4745151927
 10
-14.1414941978
 20
13.4887449248
 10
-14.1353076634
 20
13.5028135357
 10
-14.1287166371
 20
13.5167072022
 10
-14.1217293846
 20
13.5304121011
 10
-14.114354171
 20
13.5439144091
 10
-14.106599262
 20
13.5572003031
 10
-14.0984723563
 20
13.5702564847
 10
-14.0899788857
 20
13.5830717557
 10
-14.0811237155
 20
13.5956354426
 10
-14.0719117109
 20
13.6079368723
 10
-14.0623477372
 20
13.6199653713
 10
-14.0524366595
 20
13.6317102663
 10
-14.0421839369
 20
13.6431606869
 10
-14.0315974037
 20
13.6543049737
 10
-14.0206854881
 20
13.6651312704
 10
-14.0094566181
 20
13.6756277205
 10
-13.997919222
 20
13.6857824678
 10
-13.9860817277
 20
13.6955836556
 10
-13.9739531052
 20
13.7050208101
 10
-13.9615444906
 20
13.7140889863
 10
-13.9488675617
 20
13.7227846218
 10
-13.9359339965
 20
13.7311041541
 10
-13.9227554727
 20
13.7390440206
 10
-13.9093436682
 20
13.7466006589
 10
-13.8957112794
 20
13.7537699884
 10
-13.881875077
 20
13.7605458555
 10
-13.8678528504
 20
13.7669215885
 10
-13.8536623887
 20
13.7728905159
 10
-13.8393214813
 20
13.778445966
 10
-13.8248479175
 20
13.783581267
 10
-13.8102553924
 20
13.7882903058
 10
-13.7955412245
 20
13.7925692025
 10
-13.7806986384
 20
13.7964146358
 10
-13.7657208585
 20
13.7998232841
 10
-13.7506011091
 20
13.8027918261
 10
-13.7353326149
 20
13.8053169403
  0
LWPOLYLINE
  5
299
100
AcDbEntity
  8
ASSI
100
AcDbPolyline
 62
253
  6
CONTINUOUS
 90
12
 70
0
 10
-22.109653404
 20
-22.0438515026
 10
-22.109185198
 20
-22.0420871564
 10
-22.1087186664
 20
-22.0396046487
 10
-22.1082538093
 20
-22.0364057814
 10
-22.1077903002
 20
-22.0324928833
 10
-22.1073284657
 20
-22.0278687793
 10
-22.106869285
 20
-22.022536769
 10
-22.1064127534
 20
-22.0165006592
 10
-22.1059588758
 20
-22.009764819
 10
-22.1055086463
 20
-22.0023341498
 10
-22.1050620797
 20
-21.9942140428
 10
-22.1041808408
 20
-21.9759293486
  0
LWPOLYLINE
  5
29A
100
AcDbEntity
  8
0
100
AcDbPolyline
 62
253
  6
CONTINUOUS
 90
22
 70
0
 10
-14.5563179116
 20
-14.1330743466
 10
-14.5227461171
 20
-14.1372450483
 10
-14.4891489767
 20
-14.1409943665
 10
-14.4555227184
 20
-14.1443235674
 10
-14.4218635703
 20
-14.1472339169
 10
-14.3881677604
 20
-14.1497266812
 10
-14.3544315165
 20
-14.1518031264
 10
-14.3206510669
 20
-14.1534645184
 10
-14.2868252315
 20
-14.1547118716
 10
-14.2529631987
 20
-14.1555451927
 10
-14.2190767486
 20
-14.1559642368
 10
-14.1851776616
 20
-14.1559687589
 10
-14.151277718
 20
-14.155558514
 10
-14.117388698
 20
-14.1547332571
 10
-14.0835223821
 20
-14.1534927433
 10
-14.0496879729
 20
-14.1518364737
 10
-14.0158843628
 20
-14.1497629348
 10
-13.9821078666
 20
-14.1472703594
 10
-13.9483547993
 20
-14.1443569802
 10
-13.9146214756
 20
-14.1410210298
 10
-13.8809042105
 20
-14.137260741
 10
-13.8471993186
 20
-14.1330743466
  0
LINE
  5
29B
100
AcDbEntity
  8
0
100
AcDbLine
 62
253
  6
CONTINUOUS
 10
-14.6099754102
 20
-14.1256660133
 11
-14.5563179116
 21
-14.1330743466
  0
LWPOLYLINE
  5
29C
100
AcDbEntity
  8
0
100
AcDbPolyline
 62
253
  6
CONTINUOUS
 90
45
 70
0
 10
-14.5550831894
 20
-13.7616346245
 10
-14.5682226665
 20
-13.759513004
 10
-14.5812454906
 20
-13.7570568383
 10
-14.5941555475
 20
-13.7542699342
 10
-14.6069567229
 20
-13.7511560987
 10
-14.6196529028
 20
-13.7477191389
 10
-14.6322479728
 20
-13.7439628617
 10
-14.6447458187
 20
-13.7398910742
 10
-14.6592054589
 20
-13.7347470996
 10
-14.6735233236
 20
-13.7291857197
 10
-14.687684681
 20
-13.7232137922
 10
-14.7016747996
 20
-13.7168381746
 10
-14.7154789474
 20
-13.7100657245
 10
-14.7290823928
 20
-13.7029032996
 10
-14.7424709063
 20
-13.6953572457
 10
-14.7556322677
 20
-13.687431862
 10
-14.768554759
 20
-13.6791309356
 10
-14.7812266623
 20
-13.670458254
 10
-14.7936362596
 20
-13.6614176044
 10
-14.805771833
 20
-13.6520127742
 10
-14.8176219217
 20
-13.6422485403
 10
-14.829176094
 20
-13.6321336384
 10
-14.840424175
 20
-13.6216777938
 10
-14.8513559903
 20
-13.610890732
 10
-14.8619613651
 20
-13.5997821781
 10
-14.8722301249
 20
-13.5883618575
 10
-14.8821530878
 20
-13.5766396606
 10
-14.8917250433
 20
-13.5646261371
 10
-14.9009417736
 20
-13.5523320018
 10
-14.9097990612
 20
-13.5397679697
 10
-14.9182926882
 20
-13.5269447553
 10
-14.9264184369
 20
-13.5138730736
 10
-14.9341713729
 20
-13.5005646798
 10
-14.9415436942
 20
-13.4870354906
 10
-14.9485268821
 20
-13.4733024636
 10
-14.9551124179
 20
-13.459382556
 10
-14.9612917827
 20
-13.445292725
 10
-14.967056458
 20
-13.4310499282
 10
-14.9716614976
 20
-13.4187303961
 10
-14.975952679
 20
-13.4063064623
 10
-14.9799270727
 20
-13.3937736496
 10
-14.9835817491
 20
-13.381127481
 10
-14.9869137785
 20
-13.3683634794
 10
-14.9899202314
 20
-13.3554771678
 10
-14.9925981783
 20
-13.342464069
  0
LWPOLYLINE
  5
29D
100
AcDbEntity
  8
0
100
AcDbPolyline
 62
253
  6
CONTINUOUS
 90
31
 70
0
 10
-12.3214354686
 20
-14.0626951799
 10
-12.3092790093
 20
-14.065370938
 10
-12.2971446179
 20
-14.0678144064
 10
-12.2850137936
 20
-14.0700283544
 10
-12.2728680354
 20
-14.0720155509
 10
-12.2606888425
 20
-14.0737787652
 10
-12.2484577141
 20
-14.0753207663
 10
-12.2361561493
 20
-14.0766443234
 10
-12.2237698764
 20
-14.0777507441
 10
-12.2113015401
 20
-14.0786354898
 10
-12.1987580143
 20
-14.0792925604
 10
-12.1861461728
 20
-14.0797159558
 10
-12.1734728896
 20
-14.0798996761
 10
-12.1607450385
 20
-14.079837721
 10
-12.1479694935
 20
-14.0795240905
 10
-12.1367571937
 20
-14.0790385824
 10
-12.1255183796
 20
-14.0783522991
 10
-12.11425779
 20
-14.0774617484
 10
-12.1029801636
 20
-14.0763634379
 10
-12.091690239
 20
-14.0750538752
 10
-12.080392755
 20
-14.073529568
 10
-12.0690924501
 20
-14.071787024
 10
-12.0577940632
 20
-14.0698227507
 10
-12.0465003606
 20
-14.067633776
 10
-12.0352062206
 20
-14.0652192079
 10
-12.0239045489
 20
-14.0625786745
 10
-12.0125882514
 20
-14.059711804
 10
-12.0012502342
 20
-14.0566182244
 10
-11.9898834029
 20
-14.0532975641
 10
-11.9784806636
 20
-14.049749451
 10
-11.9670349221
 20
-14.0459735133
  0
LWPOLYLINE
  5
29E
100
AcDbEntity
  8
0
100
AcDbPolyline
 62
253
  6
CONTINUOUS
 90
31
 70
0
 10
-9.7147605351
 20
-14.0626951799
 10
-9.7026063464
 20
-14.0653703302
 10
-9.6904739154
 20
-14.0678130966
 10
-9.6783447764
 20
-14.0700262524
 10
-9.6662004637
 20
-14.0720125708
 10
-9.6540225116
 20
-14.0737748252
 10
-9.6417924543
 20
-14.0753157889
 10
-9.6294918261
 20
-14.0766382351
 10
-9.6171063845
 20
-14.0777434774
 10
-9.6046387795
 20
-14.0786269895
 10
-9.5920958843
 20
-14.0792827854
 10
-9.5794845721
 20
-14.079704879
 10
-9.5668117162
 20
-14.0798872843
 10
-9.5540841898
 20
-14.0798240153
 10
-9.5413088659
 20
-14.0795090859
 10
-9.5300966751
 20
-14.0790224657
 10
-9.5188578945
 20
-14.078335109
 10
-9.5075972668
 20
-14.0774435395
 10
-9.4963195348
 20
-14.0763442814
 10
-9.4850294411
 20
-14.0750338586
 10
-9.4737317286
 20
-14.073508795
 10
-9.4624311399
 20
-14.0717656145
 10
-9.4511324179
 20
-14.0698008413
 10
-9.4398383149
 20
-14.0676115564
 10
-9.4285436229
 20
-14.0651970702
 10
-9.4172411434
 20
-14.0625572504
 10
-9.4059236779
 20
-14.0596919645
 10
-9.3945840282
 20
-14.0566010803
 10
-9.3832149956
 20
-14.0532844652
 10
-9.3718093819
 20
-14.049741987
 10
-9.3603599886
 20
-14.0459735133
  0
LWPOLYLINE
  5
29F
100
AcDbEntity
  8
0
100
AcDbPolyline
 62
253
  6
CONTINUOUS
 90
43
 70
0
 10
-13.0497451723
 20
-11.5565265695
 10
-13.0551140694
 20
-11.5307874561
 10
-13.0612352631
 20
-11.5053336188
 10
-13.0681014112
 20
-11.4801533514
 10
-13.075705172
 20
-11.4552349477
 10
-13.0840392034
 20
-11.4305667017
 10
-13.0930961634
 20
-11.4061369072
 10
-13.102867701
 20
-11.3819405206
 10
-13.113341429
 20
-11.3579991491
 10
-13.1245039512
 20
-11.3343410621
 10
-13.1363418713
 20
-11.3109945294
 10
-13.148841793
 20
-11.2879878204
 10
-13.16199032
 20
-11.2653492049
 10
-13.1757751838
 20
-11.2431054318
 10
-13.1901886269
 20
-11.2212771668
 10
-13.2052240196
 20
-11.1998835553
 10
-13.2208747319
 20
-11.1789437425
 10
-13.2371341342
 20
-11.1584768736
 10
-13.2539955966
 20
-11.1385020937
 10
-13.2714506627
 20
-11.1190382162
 10
-13.2894835696
 20
-11.1001027273
 10
-13.3080767279
 20
-11.0817127809
 10
-13.327212548
 20
-11.0638855314
 10
-13.3468734405
 20
-11.046638133
 10
-13.3670418158
 20
-11.0299877398
 10
-13.3876998441
 20
-11.0139496845
 10
-13.4088287342
 20
-10.998532014
 10
-13.4304094547
 20
-10.9837409538
 10
-13.452422974
 20
-10.9695827294
 10
-13.4748502606
 20
-10.956063566
 10
-13.497672283
 20
-10.9431896893
 10
-13.5208680662
 20
-10.930968467
 10
-13.5444088612
 20
-10.9194118366
 10
-13.5682639757
 20
-10.9085328782
 10
-13.5924027173
 20
-10.8983446718
 10
-13.6167943934
 20
-10.8888602972
 10
-13.6414083119
 20
-10.8800928344
 10
-13.6662208957
 20
-10.8720544057
 10
-13.6912370303
 20
-10.8647533017
 10
-13.7164687168
 20
-10.8581968554
 10
-13.7419279562
 20
-10.8523923997
 10
-13.7676267495
 20
-10.8473472675
 10
-13.7935770977
 20
-10.8430687919
  0
LWPOLYLINE
  5
2A0
100
AcDbEntity
  8
0
100
AcDbPolyline
 62
253
  6
CONTINUOUS
 90
25
 70
0
 10
-13.4109543297
 20
-11.6262707361
 10
-13.3979358072
 20
-11.6969383779
 10
-13.3860813461
 20
-11.7677015779
 10
-13.3753835313
 20
-11.838570177
 10
-13.3658349475
 20
-11.909554016
 10
-13.3574281795
 20
-11.9806629358
 10
-13.3501558121
 20
-12.0519067772
 10
-13.3440104299
 20
-12.1232953811
 10
-13.3389846178
 20
-12.1948385884
 10
-13.3350723655
 20
-12.2665389638
 10
-13.332273282
 20
-12.3383699678
 10
-13.3305883813
 20
-12.4102977847
 10
-13.3300186774
 20
-12.4822885988
 10
-13.3305651844
 20
-12.5543085944
 10
-13.3322289163
 20
-12.6263239559
 10
-13.3350108869
 20
-12.6983008676
 10
-13.3389121104
 20
-12.7702055138
 10
-13.3439350366
 20
-12.842011268
 10
-13.3500878586
 20
-12.91372026
 10
-13.3573802055
 20
-12.9853418088
 10
-13.3658217064
 20
-13.0568852333
 10
-13.3754219902
 20
-13.1283598527
 10
-13.386190686
 20
-13.1997749857
 10
-13.3981374228
 20
-13.2711399515
 10
-13.4112718297
 20
-13.342464069
  0
LWPOLYLINE
  5
2A1
100
AcDbEntity
  8
0
100
AcDbPolyline
 62
253
  6
CONTINUOUS
 90
25
 70
0
 10
-12.2290429784
 20
11.6082522186
 10
-12.2150891005
 20
11.6846559296
 10
-12.2023929828
 20
11.761132544
 10
-12.1909458836
 20
11.8376922878
 10
-12.1807390612
 20
11.9143453869
 10
-12.1717637739
 20
11.9911020673
 10
-12.1640112802
 20
12.0679725551
 10
-12.1574728382
 20
12.1449670762
 10
-12.1521397064
 20
12.2220958566
 10
-12.1480046598
 20
12.2993614425
 10
-12.1450665404
 20
12.3767356617
 10
-12.1433257069
 20
12.4541826618
 10
-12.142782518
 20
12.5316665908
 10
-12.1434373326
 20
12.6091515964
 10
-12.1452905093
 20
12.6866018266
 10
-12.1483424068
 20
12.7639814292
 10
-12.1525933839
 20
12.841254552
 10
-12.1580453307
 20
12.9183929919
 10
-12.1647062631
 20
12.9953991415
 10
-12.1725857283
 20
13.0722830424
 10
-12.1816932736
 20
13.1490547363
 10
-12.1920384462
 20
13.2257242647
 10
-12.2036307934
 20
13.3023016693
 10
-12.2164798625
 20
13.3787969918
 10
-12.2305952006
 20
13.4552202737
  0
LWPOLYLINE
  5
2A2
100
AcDbEntity
  8
0
100
AcDbPolyline
 62
253
  6
CONTINUOUS
 90
25
 70
0
 10
-15.3534898357
 20
-11.5565265695
 10
-15.3676616952
 20
-11.6330096012
 10
-15.3805667961
 20
-11.7095901724
 10
-15.3922135123
 20
-11.7862788034
 10
-15.4026102176
 20
-11.863086015
 10
-15.4117652858
 20
-11.9400223277
 10
-15.419687091
 20
-12.0170982622
 10
-15.426384007
 20
-12.094324339
 10
-15.4318644076
 20
-12.1717110787
 10
-15.4361351141
 20
-12.2492611655
 10
-15.4391967374
 20
-12.3269459378
 10
-15.4410483358
 20
-12.4047288978
 10
-15.4416889674
 20
-12.4825735474
 10
-15.4411176905
 20
-12.5604433887
 10
-15.4393335633
 20
-12.6383019238
 10
-15.4363356441
 20
-12.7161126547
 10
-15.4321229912
 20
-12.7938390834
 10
-15.4266930879
 20
-12.8714524705
 10
-15.4200371187
 20
-12.9489551106
 10
-15.4121446933
 20
-13.0263570567
 10
-15.4030054211
 20
-13.103668362
 10
-15.3926089118
 20
-13.1808990794
 10
-15.3809447752
 20
-13.2580592621
 10
-15.3680026206
 20
-13.3351589632
 10
-15.3537720579
 20
-13.4122082357
  0
LWPOLYLINE
  5
2A3
100
AcDbEntity
  8
0
100
AcDbPolyline
 62
253
  6
CONTINUOUS
 90
43
 70
0
 10
-12.591804358
 20
11.6699177742
 10
-12.5950120249
 20
11.6547274746
 10
-12.5986607586
 20
11.6397110004
 10
-12.6027447297
 20
11.6248619718
 10
-12.6072581086
 20
11.6101740091
 10
-12.612195066
 20
11.5956407324
 10
-12.6175497724
 20
11.581255762
 10
-12.6233161868
 20
11.5670161643
 10
-12.6294874226
 20
11.5529327911
 10
-12.6360563818
 20
11.5390199404
 10
-12.6430159663
 20
11.5252919102
 10
-12.650359078
 20
11.5117629984
 10
-12.6580786189
 20
11.4984475032
 10
-12.6661680624
 20
11.485359226
 10
-12.6746231673
 20
11.4725099829
 10
-12.6834402641
 20
11.459911093
 10
-12.692615683
 20
11.4475738761
 10
-12.7021457544
 20
11.4355096514
 10
-12.7120268087
 20
11.4237297384
 10
-12.7222544073
 20
11.4122456703
 10
-12.732821036
 20
11.4010698353
 10
-12.7437184117
 20
11.390214835
 10
-12.7549382512
 20
11.3796932716
 10
-12.7664722714
 20
11.3695177467
 10
-12.7783121893
 20
11.3597008622
 10
-12.79044898
 20
11.3502536227
 10
-12.8028706525
 20
11.3411806435
 10
-12.8155644744
 20
11.3324849426
 10
-12.8285177128
 20
11.3241695379
 10
-12.8417176352
 20
11.3162374475
 10
-12.855151509
 20
11.3086916894
 10
-12.8688057062
 20
11.3015357751
 10
-12.8826630172
 20
11.2947751908
 10
-12.8967053372
 20
11.2884159165
 10
-12.9109145613
 20
11.282463932
 10
-12.9252725846
 20
11.2769252171
 10
-12.9397613021
 20
11.2718057517
 10
-12.9543667528
 20
11.2671109793
 10
-12.96909155
 20
11.262844198
 10
-12.9839424508
 20
11.2590081695
 10
-12.9989262125
 20
11.2556056556
 10
-13.0140495921
 20
11.2526394181
 10
-13.0293193468
 20
11.2501122187
  0
LINE
  5
2A4
100
AcDbEntity
  8
0
100
AcDbLine
 62
253
  6
CONTINUOUS
 10
-9.3582080442
 20
-12.6661890692
 11
-7.7734597513
 21
-12.6507021247
  0
LINE
  5
2A5
100
AcDbEntity
  8
0
100
AcDbLine
 62
253
  6
CONTINUOUS
 10
-11.9648476999
 20
-12.6661890692
 11
-10.3801346848
 21
-12.6507021247
  0
LINE
  5
2A6
100
AcDbEntity
  8
0
100
AcDbLine
 62
253
  6
CONTINUOUS
 10
-10.3968563511
 20
-12.2963015693
 11
-11.9648476999
 21
-12.2941143471
  0
LINE
  5
2A7
100
AcDbEntity
  8
0
100
AcDbLine
 62
253
  6
CONTINUOUS
 10
-13.9318659831
 20
-11.1955996251
 11
-13.8484340408
 21
-11.2067474029
  0
LINE
  5
2A8
100
AcDbEntity
  8
0
100
AcDbLine
 62
253
  6
CONTINUOUS
 10
-13.7935770977
 20
-10.8430687919
 11
-13.8471993186
 21
-10.8356251808
  0
LWPOLYLINE
  5
2A9
100
AcDbEntity
  8
0
100
AcDbPolyline
 62
253
  6
CONTINUOUS
 90
44
 70
0
 10
-13.8484340408
 20
-11.2067474029
 10
-13.8352951093
 20
-11.2088736124
 10
-13.8222727659
 20
-11.2113346365
 10
-13.8093631186
 20
-11.2141266701
 10
-13.7965622757
 20
-11.2172459078
 10
-13.7838663453
 20
-11.2206885445
 10
-13.7712714356
 20
-11.2244507749
 10
-13.7587736547
 20
-11.2285287937
 10
-13.7443139696
 20
-11.2336803909
 10
-13.7299959583
 20
-11.2392497715
 10
-13.7158343888
 20
-11.245230075
 10
-13.7018440289
 20
-11.2516144408
 10
-13.6880396466
 20
-11.2583960085
 10
-13.6744360098
 20
-11.2655679176
 10
-13.6610473922
 20
-11.2731238177
 10
-13.6478860905
 20
-11.2810593992
 10
-13.6349639073
 20
-11.2893708625
 10
-13.622292645
 20
-11.2980544079
 10
-13.6098841062
 20
-11.307106236
 10
-13.5977500933
 20
-11.3165225472
 10
-13.5859021328
 20
-11.326298547
 10
-13.5743506466
 20
-11.3364254619
 10
-13.5631057805
 20
-11.3468935237
 10
-13.5521776803
 20
-11.3576929639
 10
-13.5415764918
 20
-11.3688140143
 10
-13.5313123609
 20
-11.3802469065
 10
-13.5213944264
 20
-11.3919816893
 10
-13.5118277994
 20
-11.4040076803
 10
-13.5026165838
 20
-11.416314014
 10
-13.4937648837
 20
-11.4288898252
 10
-13.4852768032
 20
-11.4417242486
 10
-13.4771564463
 20
-11.4548064187
 10
-13.4694086148
 20
-11.4681244546
 10
-13.462040901
 20
-11.481662412
 10
-13.4550615951
 20
-11.4954033312
 10
-13.4484789871
 20
-11.5093302522
 10
-13.4423013673
 20
-11.5234262151
 10
-13.4365370256
 20
-11.5376742601
 10
-13.4311936053
 20
-11.5520614284
 10
-13.4262761618
 20
-11.5665907655
 10
-13.421789104
 20
-11.5812693182
 10
-13.4177368402
 20
-11.5961041331
 10
-13.4141237793
 20
-11.6111022568
 10
-13.4109543297
 20
-11.6262707361
  0
LINE
  5
2AA
100
AcDbEntity
  8
0
100
AcDbLine
 62
253
  6
CONTINUOUS
 10
-12.3347704683
 20
-11.7710860139
 11
-12.3214354686
 21
-14.0626951799
  0
LINE
  5
2AB
100
AcDbEntity
  8
0
100
AcDbLine
 62
253
  6
CONTINUOUS
 10
-11.4749804976
 20
14.0828119402
 11
-11.4582588314
 21
10.9425252743
  0
LINE
  5
2AC
100
AcDbEntity
  8
0
100
AcDbLine
 62
253
  6
CONTINUOUS
 10
-11.9648476999
 20
-12.2941143471
 11
-11.9670349221
 21
-11.7710860139
  0
LINE
  5
2AD
100
AcDbEntity
  8
0
100
AcDbLine
 62
253
  6
CONTINUOUS
 10
-11.1050932919
 20
10.9636213854
 11
-11.1050932919
 21
13.510112438
  0
LINE
  5
2AE
100
AcDbEntity
  8
0
100
AcDbLine
 62
253
  6
CONTINUOUS
 10
-11.9670349221
 20
-14.0459735133
 11
-11.9648476999
 21
-12.6661890692
  0
LWPOLYLINE
  5
2AF
100
AcDbEntity
  8
0
100
AcDbPolyline
 62
253
  6
CONTINUOUS
 90
55
 70
0
 10
-11.9670349221
 20
-11.7710860139
 10
-11.9667889769
 20
-11.7554941434
 10
-11.9660541643
 20
-11.7400163245
 10
-11.9648350191
 20
-11.7246113569
 10
-11.9631360759
 20
-11.7092380407
 10
-11.9609618694
 20
-11.6938551758
 10
-11.9583144206
 20
-11.6784291481
 10
-11.9551856961
 20
-11.6629566871
 10
-11.9515651487
 20
-11.6474421082
 10
-11.9474422313
 20
-11.6318897269
 10
-11.9428063968
 20
-11.6163038586
 10
-11.9376485296
 20
-11.6006936843
 10
-11.9319652401
 20
-11.5850878463
 10
-11.9257545703
 20
-11.5695198527
 10
-11.9190145622
 20
-11.5540232112
 10
-11.9117432575
 20
-11.5386314298
 10
-11.9052812285
 20
-11.5259145104
 10
-11.8984756846
 20
-11.5133448066
 10
-11.8913534263
 20
-11.5009734454
 10
-11.8839329408
 20
-11.4888383618
 10
-11.8761994613
 20
-11.4769247256
 10
-11.8681299075
 20
-11.4652045145
 10
-11.8597065045
 20
-11.4536583597
 10
-11.8509326993
 20
-11.442301504
 10
-11.8418172444
 20
-11.4311578437
 10
-11.8323688923
 20
-11.4202512746
 10
-11.8225963955
 20
-11.4096056929
 10
-11.8125085064
 20
-11.3992449946
 10
-11.8021164272
 20
-11.3891904455
 10
-11.7914411583
 20
-11.3794527913
 10
-11.7805061499
 20
-11.3700401472
 10
-11.7693348521
 20
-11.3609606285
 10
-11.7579507149
 20
-11.3522223508
 10
-11.7463771886
 20
-11.3438334292
 10
-11.73462902
 20
-11.3357968297
 10
-11.722686144
 20
-11.3280949196
 10
-11.710519792
 20
-11.3207049169
 10
-11.6981150574
 20
-11.3136125696
 10
-11.6855124798
 20
-11.306837746
 10
-11.6727664603
 20
-11.3004088446
 10
-11.6573488474
 20
-11.2931821544
 10
-11.6418391619
 20
-11.2864918949
 10
-11.6262735496
 20
-11.2803354754
 10
-11.6106881565
 20
-11.274710305
 10
-11.5951191283
 20
-11.2696137928
 10
-11.5795970226
 20
-11.2650417023
 10
-11.5641300433
 20
-11.2609832135
 10
-11.548720806
 20
-11.2574258609
 10
-11.5333719263
 20
-11.2543571788
 10
-11.5180860197
 20
-11.2517647014
 10
-11.5028584336
 20
-11.249638572
 10
-11.4876554426
 20
-11.2479793684
 10
-11.4724360528
 20
-11.2467902775
 10
-11.4571592706
 20
-11.246074486
 10
-11.4417841022
 20
-11.2458351807
  0
LWPOLYLINE
  5
2B0
100
AcDbEntity
  8
0
100
AcDbPolyline
 62
253
  6
CONTINUOUS
 90
44
 70
0
 10
-14.9925981783
 20
-11.6262707361
 10
-14.9898747987
 20
-11.6132434048
 10
-14.9868223232
 20
-11.6003468743
 10
-14.9834448418
 20
-11.5875771027
 10
-14.9797464445
 20
-11.5749300483
 10
-14.9757312213
 20
-11.5624016691
 10
-14.9714032621
 20
-11.5499879233
 10
-14.966766657
 20
-11.537684769
 10
-14.9609728514
 20
-11.5234688571
 10
-14.9547722348
 20
-11.5094118613
 10
-14.9481725304
 20
-11.4955276718
 10
-14.9411814618
 20
-11.4818301788
 10
-14.9338067524
 20
-11.4683332726
 10
-14.9260561256
 20
-11.4550508432
 10
-14.9179367391
 20
-11.4419962446
 10
-14.9094534883
 20
-11.4291806864
 10
-14.9006107027
 20
-11.4166148419
 10
-14.891412712
 20
-11.4043093843
 10
-14.8818638458
 20
-11.392274987
 10
-14.8719684337
 20
-11.3805223234
 10
-14.8617314762
 20
-11.3690622994
 10
-14.851160657
 20
-11.3579067525
 10
-14.8402643307
 20
-11.3470677526
 10
-14.8290508517
 20
-11.3365573698
 10
-14.8175285746
 20
-11.3263876743
 10
-14.805705854
 20
-11.316570736
 10
-14.7935915743
 20
-11.3071172447
 10
-14.7811967394
 20
-11.2980323689
 10
-14.7685328829
 20
-11.2893198968
 10
-14.7556115387
 20
-11.2809836167
 10
-14.7424442404
 20
-11.2730273167
 10
-14.7290425219
 20
-11.265454785
 10
-14.7154189827
 20
-11.2582703718
 10
-14.701590486
 20
-11.2514806753
 10
-14.6875749606
 20
-11.2450928557
 10
-14.6733903356
 20
-11.239114073
 10
-14.6590545399
 20
-11.2335514875
 10
-14.6445855024
 20
-11.2284122594
 10
-14.6299970132
 20
-11.2237029888
 10
-14.6152863059
 20
-11.2194280358
 10
-14.6004464752
 20
-11.2155912006
 10
-14.5854706158
 20
-11.2121962833
 10
-14.5703518223
 20
-11.209247084
 10
-14.5550831894
 20
-11.2067474029
  0
LWPOLYLINE
  5
2B1
100
AcDbEntity
  8
0
100
AcDbPolyline
 62
253
  6
CONTINUOUS
 90
15
 70
0
 10
-13.7935770977
 20
-14.1256660133
 10
-13.7854534457
 20
-14.124410822
 10
-13.777308891
 20
-14.1230690116
 10
-13.7691433569
 20
-14.1216415013
 10
-13.7609567663
 20
-14.1201292104
 10
-13.7527490425
 20
-14.1185330583
 10
-13.7445201084
 20
-14.1168539643
 10
-13.7362698873
 20
-14.1150928478
 10
-13.7279982597
 20
-14.1132506356
 10
-13.7197049363
 20
-14.1113282852
 10
-13.7113895852
 20
-14.1093267616
 10
-13.7030518746
 20
-14.1072470298
 10
-13.6946914726
 20
-14.1050900549
 10
-13.6863080475
 20
-14.1028568018
 10
-13.6779012673
 20
-14.1005482355
  0
LWPOLYLINE
  5
2B2
100
AcDbEntity
  8
0
100
AcDbPolyline
 62
253
  6
CONTINUOUS
 90
22
 70
0
 10
-13.8487515408
 20
-13.7616346245
 10
-13.8821261507
 20
-13.7664280899
 10
-13.9155347227
 20
-13.7707356354
 10
-13.9489821748
 20
-13.7745591908
 10
-13.9824734247
 20
-13.777900686
 10
-14.0160133905
 20
-13.7807620507
 10
-14.0496069898
 20
-13.7831452148
 10
-14.0832591407
 20
-13.785052108
 10
-14.116971346
 20
-13.7864842764
 10
-14.1507314491
 20
-13.7874417304
 10
-14.1845238784
 20
-13.7879240969
 10
-14.2183330623
 20
-13.7879310025
 10
-14.2521434291
 20
-13.787462074
 10
-14.2859394074
 20
-13.786516938
 10
-14.3197054255
 20
-13.7850952214
 10
-14.3534293011
 20
-13.7831961631
 10
-14.3871124093
 20
-13.7808174515
 10
-14.4207595143
 20
-13.7779563877
 10
-14.4543753805
 20
-13.7746102722
 10
-14.4879647722
 20
-13.770776406
 10
-14.5215324537
 20
-13.7664520898
 10
-14.5550831894
 20
-13.7616346245
  0
LINE
  5
2B3
100
AcDbEntity
  8
0
100
AcDbLine
 62
253
  6
CONTINUOUS
 10
-13.8471993186
 20
-14.1330743466
 11
-13.7935770977
 21
-14.1256660133
  0
LINE
  5
2B4
100
AcDbEntity
  8
ASSI
100
AcDbLine
 62
253
  6
CONTINUOUS
 10
21.7524170548
 20
-9.4803977385
 11
21.7403464123
 21
-9.4809686756
  0
LWPOLYLINE
  5
2B5
100
AcDbEntity
  8
ASSI
100
AcDbPolyline
 62
253
  6
CONTINUOUS
 90
3
 70
0
 10
21.7403464123
 20
-9.4809686756
 10
21.7264057167
 20
-9.4815250341
 10
21.7187516417
 20
-9.481797032
  0
LWPOLYLINE
  5
2B6
100
AcDbEntity
  8
0
100
AcDbPolyline
 62
253
  6
CONTINUOUS
 90
57
 70
0
 10
-8.8351091687
 20
-10.8780996252
 10
-8.8584419316
 20
-10.8784273593
 10
-8.8817299576
 20
-10.879408427
 10
-8.905018798
 20
-10.8810396263
 10
-8.9283540038
 20
-10.8833177549
 10
-8.9517724536
 20
-10.8862416592
 10
-8.9752763359
 20
-10.8898183782
 10
-8.9988591666
 20
-10.8940569991
 10
-9.0225144618
 20
-10.8989666094
 10
-9.0462297969
 20
-10.9045543635
 10
-9.0699689864
 20
-10.9108196848
 10
-9.0936899041
 20
-10.9177600635
 10
-9.117350424
 20
-10.9253729902
 10
-9.1409124924
 20
-10.9336569808
 10
-9.1643543453
 20
-10.9426146538
 10
-9.1876582909
 20
-10.9522496531
 10
-9.2108066377
 20
-10.9625656226
 10
-9.2337783313
 20
-10.9735643754
 10
-9.2565388673
 20
-10.9852404018
 10
-9.2790503784
 20
-10.997586361
 10
-9.3012749976
 20
-11.0105949125
 10
-9.3231795234
 20
-11.0242622891
 10
-9.3447494174
 20
-11.038599018
 10
-9.3659748067
 20
-11.0536191998
 10
-9.3868458186
 20
-11.069336935
 10
-9.4073441745
 20
-11.0857598071
 10
-9.4274179718
 20
-11.1028693296
 10
-9.4470069023
 20
-11.120640499
 10
-9.4660506575
 20
-11.1390483115
 10
-9.484493965
 20
-11.1580608681
 10
-9.5023016952
 20
-11.1776186886
 10
-9.5194437545
 20
-11.1976553976
 10
-9.5358900493
 20
-11.2181046194
 10
-9.5516188735
 20
-11.2389102467
 10
-9.566642071
 20
-11.2600572447
 10
-9.5809798731
 20
-11.2815408465
 10
-9.5946525111
 20
-11.3033562855
 10
-9.6076768474
 20
-11.3254976968
 10
-9.6200562677
 20
-11.3479548223
 10
-9.6317907885
 20
-11.370716306
 10
-9.6428804266
 20
-11.3937707917
 10
-9.653322997
 20
-11.417101315
 10
-9.6631075093
 20
-11.4406684793
 10
-9.6722207713
 20
-11.4644272794
 10
-9.680649591
 20
-11.4883327103
 10
-9.6883825057
 20
-11.5123364493
 10
-9.6954149699
 20
-11.5363769016
 10
-9.7017441676
 20
-11.5603891547
 10
-9.7073672826
 20
-11.5843082961
 10
-9.7122847958
 20
-11.6080815043
 10
-9.7165103758
 20
-11.6317043211
 10
-9.7200609878
 20
-11.6551843795
 10
-9.7229535974
 20
-11.6785293123
 10
-9.7252022359
 20
-11.7017526207
 10
-9.7268091979
 20
-11.7248912789
 10
-9.727773844
 20
-11.7479881291
 10
-9.7280955348
 20
-11.7710860139
  0
LWPOLYLINE
  5
2B7
100
AcDbEntity
  8
0
100
AcDbPolyline
 62
253
  6
CONTINUOUS
 90
57
 70
0
 10
-11.4417841022
 20
-10.8780996252
 10
-11.4651168651
 20
-10.8784273593
 10
-11.4884048911
 20
-10.879408427
 10
-11.5116937315
 20
-10.8810396263
 10
-11.5350289373
 20
-10.8833177549
 10
-11.5584473871
 20
-10.8862416592
 10
-11.5819512694
 20
-10.8898183782
 10
-11.6055341001
 20
-10.8940569991
 10
-11.6291893953
 20
-10.8989666094
 10
-11.6529047304
 20
-10.9045543635
 10
-11.6766439199
 20
-10.9108196848
 10
-11.7003648376
 20
-10.9177600635
 10
-11.7240253575
 20
-10.9253729902
 10
-11.7475874259
 20
-10.9336569808
 10
-11.7710292788
 20
-10.9426146538
 10
-11.7943332244
 20
-10.9522496531
 10
-11.8174815712
 20
-10.9625656226
 10
-11.8404532648
 20
-10.9735643754
 10
-11.8632138008
 20
-10.9852404018
 10
-11.8857253119
 20
-10.997586361
 10
-11.9079499311
 20
-11.0105949125
 10
-11.9298544569
 20
-11.0242622891
 10
-11.9514243509
 20
-11.038599018
 10
-11.9726497402
 20
-11.0536191998
 10
-11.9935207521
 20
-11.069336935
 10
-12.014019108
 20
-11.0857598071
 10
-12.0340929053
 20
-11.1028693296
 10
-12.0536818358
 20
-11.120640499
 10
-12.072725591
 20
-11.1390483115
 10
-12.0911688985
 20
-11.1580608681
 10
-12.1089766287
 20
-11.1776186886
 10
-12.126118688
 20
-11.1976553976
 10
-12.1425649828
 20
-11.2181046194
 10
-12.158293807
 20
-11.2389102467
 10
-12.1733170045
 20
-11.2600572447
 10
-12.1876548066
 20
-11.2815408465
 10
-12.2013274446
 20
-11.3033562855
 10
-12.2143517809
 20
-11.3254976968
 10
-12.2267312012
 20
-11.3479548223
 10
-12.238465722
 20
-11.370716306
 10
-12.2495553601
 20
-11.3937707917
 10
-12.2599979305
 20
-11.417101315
 10
-12.2697824428
 20
-11.4406684793
 10
-12.2788957048
 20
-11.4644272794
 10
-12.2873245245
 20
-11.4883327103
 10
-12.2950574392
 20
-11.5123364493
 10
-12.3020899034
 20
-11.5363769016
 10
-12.3084191011
 20
-11.5603891547
 10
-12.3140422161
 20
-11.5843082961
 10
-12.3189597293
 20
-11.6080815043
 10
-12.3231853093
 20
-11.6317043211
 10
-12.3267359213
 20
-11.6551843795
 10
-12.3296285309
 20
-11.6785293123
 10
-12.3318771694
 20
-11.7017526207
 10
-12.3334841314
 20
-11.7248912789
 10
-12.3344487775
 20
-11.7479881291
 10
-12.3347704683
 20
-11.7710860139
  0
LINE
  5
2B8
100
AcDbEntity
  8
0
100
AcDbLine
 62
253
  6
CONTINUOUS
 10
-11.4417841022
 20
-11.2458351807
 11
-10.3968563511
 21
-11.2458351807
  0
LINE
  5
2B9
100
AcDbEntity
  8
0
100
AcDbLine
 62
253
  6
CONTINUOUS
 10
-8.8351091687
 20
-11.2458351807
 11
-7.7902166953
 21
-11.2458351807
  0
LINE
  5
2BA
100
AcDbEntity
  8
0
100
AcDbLine
 62
253
  6
CONTINUOUS
 10
-7.7902166953
 20
-10.8780996252
 11
-8.8351091687
 21
-10.8780996252
  0
LINE
  5
2BB
100
AcDbEntity
  8
0
100
AcDbLine
 62
253
  6
CONTINUOUS
 10
-10.3968563511
 20
-10.8780996252
 11
-11.4417841022
 21
-10.8780996252
  0
LINE
  5
2BC
100
AcDbEntity
  8
0
100
AcDbLine
 62
253
  6
CONTINUOUS
 10
-7.7902166953
 20
-12.2963015693
 11
-9.3582080442
 21
-12.2941143471
  0
LINE
  5
2BD
100
AcDbEntity
  8
ASSI
100
AcDbLine
 62
253
  6
CONTINUOUS
 10
-22.5089727028
 20
-9.4812488211
 11
-22.4941179137
 21
-9.481797032
  0
LINE
  5
2BE
100
AcDbEntity
  8
0
100
AcDbLine
 62
253
  6
CONTINUOUS
 10
-13.8471993186
 20
-10.8356251808
 11
-13.9318659831
 21
-10.8259943474
  0
LWPOLYLINE
  5
2BF
100
AcDbEntity
  8
0
100
AcDbPolyline
 62
253
  6
CONTINUOUS
 90
43
 70
0
 10
-14.5343390036
 20
11.5998561075
 10
-14.5289678802
 20
11.5741260979
 10
-14.5228450046
 20
11.5486812317
 10
-14.5159777173
 20
11.5235098157
 10
-14.5083733588
 20
11.4986001562
 10
-14.5000392696
 20
11.4739405598
 10
-14.4909827904
 20
11.4495193332
 10
-14.4812122709
 20
11.4253314362
 10
-14.4707400976
 20
11.4013984424
 10
-14.4595796662
 20
11.3777485786
 10
-14.4477443726
 20
11.3544100716
 10
-14.4352476124
 20
11.3314111485
 10
-14.4221027815
 20
11.3087800359
 10
-14.4083221493
 20
11.2865434417
 10
-14.39391348
 20
11.2647219967
 10
-14.3788834115
 20
11.2433348124
 10
-14.3632385819
 20
11.2224010005
 10
-14.3469856291
 20
11.2019396727
 10
-14.330131191
 20
11.1819699405
 10
-14.3126837272
 20
11.1625105805
 10
-14.2946589843
 20
11.1435790286
 10
-14.2760745302
 20
11.1251923854
 10
-14.2569479333
 20
11.1073677518
 10
-14.2372967615
 20
11.0901222286
 10
-14.217138583
 20
11.0734729164
 10
-14.1964912051
 20
11.0574350995
 10
-14.1753733916
 20
11.0420167961
 10
-14.1538041456
 20
11.0272242079
 10
-14.1318024699
 20
11.0130635367
 10
-14.1093873676
 20
10.999540984
 10
-14.0865778416
 20
10.9866627517
 10
-14.0633948289
 20
10.9744361798
 10
-14.0398670019
 20
10.9628731623
 10
-14.0160249668
 20
10.951986732
 10
-13.99189933
 20
10.9417899212
 10
-13.9675206978
 20
10.9322957626
 10
-13.9429196766
 20
10.9235172886
 10
-13.9181197765
 20
10.915466572
 10
-13.8931161228
 20
10.9081518464
 10
-13.867896745
 20
10.9015803855
 10
-13.8424496723
 20
10.8957594633
 10
-13.816762934
 20
10.8906963535
 10
-13.7908245593
 20
10.8863983299
  0
LWPOLYLINE
  5
2C0
100
AcDbEntity
  8
0
100
AcDbPolyline
 62
253
  6
CONTINUOUS
 90
25
 70
0
 10
-14.173129837
 20
11.6699177742
 10
-14.1862161012
 20
11.7405832609
 10
-14.1981316011
 20
11.811343693
 10
-14.2088839137
 20
11.8822089836
 10
-14.2184806158
 20
11.953189046
 10
-14.2269292843
 20
12.0242937932
 10
-14.2342374962
 20
12.0955331384
 10
-14.2404128284
 20
12.1669169948
 10
-14.2454628578
 20
12.2384552755
 10
-14.2493937338
 20
12.3101505495
 10
-14.2522058969
 20
12.3819760091
 10
-14.2538983596
 20
12.4538975024
 10
-14.2544701349
 20
12.5258808777
 10
-14.2539202356
 20
12.5978919831
 10
-14.2522476746
 20
12.6698966666
 10
-14.2494514646
 20
12.7418607766
 10
-14.2455306184
 20
12.8137501611
 10
-14.2404826917
 20
12.8855379276
 10
-14.2342994105
 20
12.95722622
 10
-14.2269710438
 20
13.0288244418
 10
-14.2184878603
 20
13.1003419963
 10
-14.2088401291
 20
13.1717882867
 10
-14.1980181189
 20
13.2431727164
 10
-14.1860120985
 20
13.3145046888
 10
-14.172812337
 20
13.3857936071
  0
LINE
  5
2C1
100
AcDbEntity
  8
0
100
AcDbLine
 62
253
  6
CONTINUOUS
 10
-9.7280955348
 20
-11.7710860139
 11
-9.7147605351
 21
-14.0626951799
  0
LINE
  5
2C2
100
AcDbEntity
  8
0
100
AcDbLine
 62
253
  6
CONTINUOUS
 10
-9.170636112
 20
10.9722997188
 11
-9.187393056
 21
14.1125863847
  0
LINE
  5
2C3
100
AcDbEntity
  8
0
100
AcDbLine
 62
253
  6
CONTINUOUS
 10
-9.3582080442
 20
-12.2941143471
 11
-9.3603599886
 21
-11.7710860139
  0
LINE
  5
2C4
100
AcDbEntity
  8
0
100
AcDbLine
 62
253
  6
CONTINUOUS
 10
-9.5407002643
 20
14.0920899958
 11
-9.5407002643
 21
11.5452813306
  0
LINE
  5
2C5
100
AcDbEntity
  8
0
100
AcDbLine
 62
253
  6
CONTINUOUS
 10
-9.3603599886
 20
-14.0459735133
 11
-9.3582080442
 21
-12.6661890692
  0
LWPOLYLINE
  5
2C6
100
AcDbEntity
  8
0
100
AcDbPolyline
 62
253
  6
CONTINUOUS
 90
55
 70
0
 10
-9.3603599886
 20
-11.7710860139
 10
-9.3601140642
 20
-11.7554936722
 10
-9.359379313
 20
-11.7400154171
 10
-9.3581602684
 20
-11.7246100391
 10
-9.3564614638
 20
-11.7092363286
 10
-9.3542874323
 20
-11.693853076
 10
-9.3516401937
 20
-11.6784266604
 10
-9.3485117139
 20
-11.6629538148
 10
-9.3448914449
 20
-11.6474388612
 10
-9.340768839
 20
-11.6318861211
 10
-9.3361333483
 20
-11.6162999164
 10
-9.3309758558
 20
-11.6006894329
 10
-9.325292968
 20
-11.5850833137
 10
-9.3190827218
 20
-11.5695150657
 10
-9.3123431544
 20
-11.5540181963
 10
-9.3050723029
 20
-11.5386262124
 10
-9.2986106568
 20
-11.5259091428
 10
-9.2918054934
 20
-11.5133393034
 10
-9.2846836058
 20
-11.5009678184
 10
-9.2772634741
 20
-11.4888326212
 10
-9.2695303257
 20
-11.4769188812
 10
-9.261461075
 20
-11.4651985772
 10
-9.2530379424
 20
-11.4536523418
 10
-9.2442643724
 20
-11.4422954221
 10
-9.2351491155
 20
-11.4311517192
 10
-9.2257009225
 20
-11.4202451343
 10
-9.2159285438
 20
-11.4095995684
 10
-9.2058407301
 20
-11.3992389226
 10
-9.1954486831
 20
-11.3891844665
 10
-9.1847734089
 20
-11.3794469448
 10
-9.1738383651
 20
-11.3700344706
 10
-9.1626670088
 20
-11.3609551571
 10
-9.1512827975
 20
-11.3522171176
 10
-9.1397091885
 20
-11.3438284652
 10
-9.127960935
 20
-11.3357921632
 10
-9.1160179736
 20
-11.3280905748
 10
-9.1038515365
 20
-11.3207009135
 10
-9.0914467164
 20
-11.3136089217
 10
-9.078844047
 20
-11.3068344585
 10
-9.066097922
 20
-11.3004059122
 10
-9.0506801556
 20
-11.2931796295
 10
-9.0351702813
 20
-11.2864897521
 10
-9.01960444
 20
-11.2803336859
 10
-9.0040187726
 20
-11.274708837
 10
-8.9884494198
 20
-11.2696126112
 10
-8.9729269365
 20
-11.2650407696
 10
-8.9574595327
 20
-11.2609824942
 10
-8.9420498327
 20
-11.2574253221
 10
-8.9267004606
 20
-11.2543567903
 10
-8.9114140404
 20
-11.251764436
 10
-8.8961859252
 20
-11.2496384048
 10
-8.8809823832
 20
-11.2479792759
 10
-8.8657624116
 20
-11.246790237
 10
-8.8504850077
 20
-11.2460744761
 10
-8.8351091687
 20
-11.2458351807
  0
LWPOLYLINE
  5
2C7
100
AcDbEntity
  8
0
100
AcDbPolyline
 62
253
  6
CONTINUOUS
 90
25
 70
0
 10
-13.0485104501
 20
-13.4041296246
 10
-13.034554553
 20
-13.3276748642
 10
-13.0218569687
 20
-13.2511493161
 10
-13.0104087582
 20
-13.17454281
 10
-13.0002009829
 20
-13.0978451757
 10
-12.9912247038
 20
-13.0210462428
 10
-12.9834709821
 20
-12.9441358412
 10
-12.976930879
 20
-12.8671038004
 10
-12.9715954557
 20
-12.7899399503
 10
-12.9674572861
 20
-12.7126417718
 10
-12.9645149946
 20
-12.6352373518
 10
-12.9627687187
 20
-12.5577624284
 10
-12.9622185954
 20
-12.4802527396
 10
-12.962864762
 20
-12.4027440236
 10
-12.9647073559
 20
-12.3252720184
 10
-12.9677465142
 20
-12.2478724623
 10
-12.9719823743
 20
-12.1705810932
 10
-12.9774165931
 20
-12.0934260188
 10
-12.9840569076
 20
-12.0164048239
 10
-12.9919125742
 20
-11.939507463
 10
-13.0009928497
 20
-11.8627238903
 10
-13.0113069906
 20
-11.7860440603
 10
-13.0228642536
 20
-11.7094579272
 10
-13.0356738953
 20
-11.6329554455
 10
-13.0497451723
 20
-11.5565265695
  0
LWPOLYLINE
  5
2C8
100
AcDbEntity
  8
0
100
AcDbPolyline
 62
253
  6
CONTINUOUS
 90
44
 70
0
 10
-13.4112718297
 20
-13.342464069
 10
-13.4139630468
 20
-13.3554993247
 10
-13.416985983
 20
-13.3684034194
 10
-13.4203364075
 20
-13.3811804368
 10
-13.4240100896
 20
-13.3938344608
 10
-13.4280027983
 20
-13.4063695752
 10
-13.4323103029
 20
-13.4187898637
 10
-13.4369283726
 20
-13.4310994101
 10
-13.442702815
 20
-13.4453226176
 10
-13.4488864069
 20
-13.4593866601
 10
-13.4554713429
 20
-13.4732775464
 10
-13.4624498176
 20
-13.4869812852
 10
-13.4698140255
 20
-13.5004838852
 10
-13.4775561612
 20
-13.5137713552
 10
-13.4856689893
 20
-13.5268302293
 10
-13.4941475552
 20
-13.5396491423
 10
-13.5029874744
 20
-13.5522172547
 10
-13.5121843624
 20
-13.5645237268
 10
-13.5217338346
 20
-13.5765577189
 10
-13.5316315066
 20
-13.5883083912
 10
-13.5418723305
 20
-13.5997646769
 10
-13.5524486055
 20
-13.6109146002
 10
-13.5633519672
 20
-13.6217459584
 10
-13.5745740515
 20
-13.6322465483
 10
-13.5861064941
 20
-13.6424041672
 10
-13.5979409308
 20
-13.6522066121
 10
-13.6100684057
 20
-13.6616431244
 10
-13.6224775957
 20
-13.6707087222
 10
-13.6351565864
 20
-13.6793998681
 10
-13.648093463
 20
-13.6877130245
 10
-13.6612763109
 20
-13.6956446539
 10
-13.6746932154
 20
-13.7031912187
 10
-13.6883312437
 20
-13.7103486536
 10
-13.7021733897
 20
-13.7171107819
 10
-13.7162016291
 20
-13.7234708988
 10
-13.7303979377
 20
-13.7294222997
 10
-13.744744291
 20
-13.7349582799
 10
-13.7592226649
 20
-13.740072135
 10
-13.7738191812
 20
-13.7447577131
 10
-13.7885365461
 20
-13.7490110747
 10
-13.8033816121
 20
-13.7528288332
 10
-13.8183612316
 20
-13.7562076021
 10
-13.833482257
 20
-13.7591439947
 10
-13.8487515408
 20
-13.7616346245
  0
LWPOLYLINE
  5
2C9
100
AcDbEntity
  8
ASSI
100
AcDbPolyline
 62
253
  6
CONTINUOUS
 90
18
 70
0
 10
-22.6093488175
 20
-21.5445367352
 10
-22.6088807903
 20
-21.5436532076
 10
-22.6084143853
 20
-21.5424127362
 10
-22.6079496027
 20
-21.5408153209
 10
-22.6074860958
 20
-21.5388592754
 10
-22.6070242112
 20
-21.5365462861
 10
-22.6065649883
 20
-21.5338814122
 10
-22.6061084461
 20
-21.5308639086
 10
-22.6056545657
 20
-21.5274945204
 10
-22.60520433
 20
-21.5237805426
 10
-22.6047577482
 20
-21.5197212382
 10
-22.604314811
 20
-21.5153173442
 10
-22.6038764731
 20
-21.5105783658
 10
-22.6034427438
 20
-21.5055035735
 10
-22.6030136137
 20
-21.5000936968
 10
-22.6025900098
 20
-21.4943604293
 10
-22.6021719443
 20
-21.488303072
 10
-22.6013532824
 20
-21.4752319756
  0
LWPOLYLINE
  5
2CA
100
AcDbEntity
  8
0
100
AcDbPolyline
 62
253
  6
CONTINUOUS
 90
43
 70
0
 10
-14.6102929102
 20
-10.8430687919
 10
-14.6362390186
 20
-10.847350859
 10
-14.6619290515
 20
-10.8524002118
 10
-14.6873744715
 20
-10.8582086441
 10
-14.7125867414
 20
-10.8647679498
 10
-14.7375773238
 20
-10.8720699225
 10
-14.7623576814
 20
-10.8801063562
 10
-14.7869325735
 20
-10.8888683279
 10
-14.8112799452
 20
-10.8983440479
 10
-14.8353710385
 20
-10.9085210101
 10
-14.859177095
 20
-10.9193867081
 10
-14.8826693565
 20
-10.9309286355
 10
-14.9058190649
 20
-10.9431342862
 10
-14.9285990429
 20
-10.955992237
 10
-14.9509884378
 20
-10.969495398
 10
-14.9729679777
 20
-10.9836377627
 10
-14.9945183907
 20
-10.9984133243
 10
-15.0156204051
 20
-11.0138160762
 10
-15.036254749
 20
-11.0298400117
 10
-15.0564024178
 20
-11.0464773097
 10
-15.0760454756
 20
-11.0637128913
 10
-15.0951662536
 20
-11.081529863
 10
-15.1137470831
 20
-11.0999113313
 10
-15.1317702954
 20
-11.1188404029
 10
-15.1492182217
 20
-11.1383001843
 10
-15.1660749979
 20
-11.1582734598
 10
-15.182331979
 20
-11.178741724
 10
-15.1979823244
 20
-11.1996861495
 10
-15.2130191937
 20
-11.2210879087
 10
-15.2274357465
 20
-11.2429281741
 10
-15.2412251424
 20
-11.2651881182
 10
-15.2543793459
 20
-11.2878470765
 10
-15.2668855425
 20
-11.3108770372
 10
-15.2787297227
 20
-11.3342481516
 10
-15.289897877
 20
-11.3579305711
 10
-15.3003759959
 20
-11.3818944468
 10
-15.3101500699
 20
-11.4061099302
 10
-15.3192073155
 20
-11.4305541703
 10
-15.3275398526
 20
-11.4552323069
 10
-15.3351410273
 20
-11.4801564775
 10
-15.3420041854
 20
-11.5053388198
 10
-15.3481226729
 20
-11.5307914713
 10
-15.3534898357
 20
-11.5565265695
  0
LINE
  5
2CB
100
AcDbEntity
  8
0
100
AcDbLine
 62
253
  6
CONTINUOUS
 10
-14.5566354116
 20
-10.8356251808
 11
-14.6102929102
 21
-10.8430687919
  0
LINE
  5
2CC
100
AcDbEntity
  8
0
100
AcDbLine
 62
253
  6
CONTINUOUS
 10
-14.5550831894
 20
-11.2067474029
 11
-14.4716512471
 21
-11.1955996251
  0
LINE
  5
2CD
100
AcDbEntity
  8
0
100
AcDbLine
 62
253
  6
CONTINUOUS
 10
-14.4716512471
 20
-10.8259943474
 11
-14.5566354116
 21
-10.8356251808
  0
LWPOLYLINE
  5
2CE
100
AcDbEntity
  8
0
100
AcDbPolyline
 62
253
  6
CONTINUOUS
 90
91
 70
0
 10
-14.4716512471
 20
-11.1955996251
 10
-14.470215487
 20
-11.1954550966
 10
-14.4688242527
 20
-11.1950718223
 10
-14.467473164
 20
-11.1944926021
 10
-14.4661578408
 20
-11.1937602354
 10
-14.4648739029
 20
-11.192917522
 10
-14.4627955318
 20
-11.1913505854
 10
-14.4607939583
 20
-11.1895934937
 10
-14.4588709659
 20
-11.1876437222
 10
-14.4570286235
 20
-11.1855022595
 10
-14.4552701423
 20
-11.1831841448
 10
-14.4535990194
 20
-11.1807079305
 10
-14.4520151879
 20
-11.1780898718
 10
-14.4505043253
 20
-11.1753370354
 10
-14.4490485452
 20
-11.1724541912
 10
-14.4476336161
 20
-11.1694447172
 10
-14.4462599266
 20
-11.1663064247
 10
-14.4449315201
 20
-11.1630357331
 10
-14.443652032
 20
-11.1596293006
 10
-14.4424234653
 20
-11.1560847386
 10
-14.4412474145
 20
-11.1523998971
 10
-14.4401251025
 20
-11.1485718842
 10
-14.4390562628
 20
-11.1445948412
 10
-14.4380402569
 20
-11.1404621675
 10
-14.437075844
 20
-11.1361680023
 10
-14.4361593732
 20
-11.1317094433
 10
-14.435286591
 20
-11.1270843277
 10
-14.4344534218
 20
-11.1222894662
 10
-14.4336565002
 20
-11.1173175626
 10
-14.4328926384
 20
-11.1121602938
 10
-14.4321598805
 20
-11.1068084356
 10
-14.431461198
 20
-11.1012491578
 10
-14.4308007943
 20
-11.095468729
 10
-14.4301826827
 20
-11.0894538518
 10
-14.4296101162
 20
-11.0831929655
 10
-14.429086158
 20
-11.0766749432
 10
-14.4286140871
 20
-11.0698895262
 10
-14.4281980466
 20
-11.0628299271
 10
-14.4278423956
 20
-11.0554902269
 10
-14.4275507604
 20
-11.0478806354
 10
-14.4273238359
 20
-11.0400758789
 10
-14.427161584
 20
-11.0321668129
 10
-14.4270630726
 20
-11.0242389928
 10
-14.4270237934
 20
-11.0163567738
 10
-14.4270383441
 20
-11.0085792111
 10
-14.4271023065
 20
-11.0009591224
 10
-14.4272152009
 20
-10.993524377
 10
-14.4273775317
 20
-10.9862966066
 10
-14.4275895186
 20
-10.9792902477
 10
-14.4278502424
 20
-10.9724909546
 10
-14.4281584992
 20
-10.9658771861
 10
-14.4285131218
 20
-10.959430589
 10
-14.4289130899
 20
-10.9531455621
 10
-14.4293574204
 20
-10.9470196923
 10
-14.4298450933
 20
-10.9410508332
 10
-14.4303749428
 20
-10.9352379057
 10
-14.4309457667
 20
-10.9295800973
 10
-14.4315560984
 20
-10.9240760706
 10
-14.4322034145
 20
-10.9187223889
 10
-14.4328849269
 20
-10.9135150903
 10
-14.4335987866
 20
-10.9084502353
 10
-14.4343468984
 20
-10.9035239747
 10
-14.4351321058
 20
-10.8987324817
 10
-14.4359576006
 20
-10.8940727017
 10
-14.4368279685
 20
-10.8895446696
 10
-14.4377481432
 20
-10.8851491927
 10
-14.4387222908
 20
-10.8808868837
 10
-14.4397515066
 20
-10.876757577
 10
-14.4408361179
 20
-10.8727609129
 10
-14.4419764425
 20
-10.8688961216
 10
-14.4431727598
 20
-10.8651607952
 10
-14.4444253392
 20
-10.8615521159
 10
-14.4457334564
 20
-10.8580677226
 10
-14.4470924102
 20
-10.8547070784
 10
-14.4484965057
 20
-10.851470103
 10
-14.4499438817
 20
-10.8483579119
 10
-14.451448014
 20
-10.8453764043
 10
-14.4530262125
 20
-10.8425326754
 10
-14.4546941057
 20
-10.8398351278
 10
-14.4564605972
 20
-10.8372973947
 10
-14.4583329092
 20
-10.8349344167
 10
-14.4598093384
 20
-10.8332860209
 10
-14.4613428361
 20
-10.8317516337
 10
-14.462927006
 20
-10.8303369445
 10
-14.4645559387
 20
-10.8290411819
 10
-14.4656651658
 20
-10.8282466583
 10
-14.4667975718
 20
-10.8275297807
 10
-14.4679590134
 20
-10.8269163997
 10
-14.4691544261
 20
-10.8264337957
 10
-14.4703850608
 20
-10.8261149683
 10
-14.4716512471
 20
-10.8259943474
  0
LWPOLYLINE
  5
2CF
100
AcDbEntity
  8
0
100
AcDbPolyline
 62
253
  6
CONTINUOUS
 90
96
 70
0
 10
-13.9318659831
 20
-10.8259943474
 10
-13.9330309447
 20
-10.8260957761
 10
-13.9341673058
 20
-10.8263652665
 10
-13.9352769071
 20
-10.8267781089
 10
-13.9368920305
 20
-10.8276117414
 10
-13.9384464238
 20
-10.8286299648
 10
-13.9399621645
 20
-10.8297725914
 10
-13.9414465021
 20
-10.8310210639
 10
-13.9428910558
 20
-10.832371623
 10
-13.9442915872
 20
-10.8338232012
 10
-13.946087013
 20
-10.8359127817
 10
-13.9477984065
 20
-10.838168429
 10
-13.9494242976
 20
-10.8405778964
 10
-13.9509661742
 20
-10.8431297216
 10
-13.9524373577
 20
-10.8458155807
 10
-13.953854128
 20
-10.8486279342
 10
-13.9552299764
 20
-10.8515610089
 10
-13.9565672408
 20
-10.8546160968
 10
-13.9578654706
 20
-10.8577962562
 10
-13.95912383
 20
-10.8611045516
 10
-13.9603399419
 20
-10.8645440723
 10
-13.9615110436
 20
-10.8681179139
 10
-13.9626348501
 20
-10.8718296319
 10
-13.9637109849
 20
-10.8756846224
 10
-13.964739549
 20
-10.8796887414
 10
-13.9657208817
 20
-10.8838475068
 10
-13.9666562749
 20
-10.888165083
 10
-13.9675472587
 20
-10.8926452965
 10
-13.9683960141
 20
-10.8972922654
 10
-13.9692073254
 20
-10.9021112756
 10
-13.9699866278
 20
-10.9071079049
 10
-13.970737971
 20
-10.9122887756
 10
-13.9714598634
 20
-10.9176646885
 10
-13.972149428
 20
-10.923247489
 10
-13.9728038195
 20
-10.9290492087
 10
-13.9734203189
 20
-10.9350826252
 10
-13.9739962389
 20
-10.9413607021
 10
-13.9743998673
 20
-10.9462378908
 10
-13.9747776358
 20
-10.9512671066
 10
-13.9751280218
 20
-10.9564554628
 10
-13.9754495031
 20
-10.9618100727
 10
-13.9757404633
 20
-10.9673323494
 10
-13.9759989114
 20
-10.9730009055
 10
-13.9762227625
 20
-10.978788653
 10
-13.9764099319
 20
-10.9846685042
 10
-13.9766005241
 20
-10.9926022275
 10
-13.9767274373
 20
-11.0005721332
 10
-13.9767959111
 20
-11.00849882
 10
-13.9768104836
 20
-11.0163096832
 10
-13.9767728876
 20
-11.0239593049
 10
-13.9766841547
 20
-11.0314090638
 10
-13.9765450527
 20
-11.0386300099
 10
-13.9763552943
 20
-11.0456318787
 10
-13.9761143286
 20
-11.0524340772
 10
-13.9758217782
 20
-11.0590542293
 10
-13.9754779603
 20
-11.0655028272
 10
-13.9750833657
 20
-11.0717885801
 10
-13.9746386565
 20
-11.0779184022
 10
-13.9741451806
 20
-11.0838920264
 10
-13.9736044573
 20
-11.089707391
 10
-13.9730181471
 20
-11.0953634802
 10
-13.9723884747
 20
-11.1008634642
 10
-13.9717178058
 20
-11.1062115598
 10
-13.9710082231
 20
-11.1114120155
 10
-13.9702606772
 20
-11.116469208
 10
-13.9694758354
 20
-11.1213875462
 10
-13.9686530439
 20
-11.1261707001
 10
-13.9677863637
 20
-11.130819386
 10
-13.9668685348
 20
-11.1353335816
 10
-13.9658932529
 20
-11.1397129977
 10
-13.9648580366
 20
-11.1439562784
 10
-13.9637613604
 20
-11.1480618009
 10
-13.9626018708
 20
-11.1520288247
 10
-13.9613789029
 20
-11.1558601385
 10
-13.960091964
 20
-11.1595594133
 10
-13.9590847127
 20
-11.1622489791
 10
-13.9580423749
 20
-11.1648651982
 10
-13.956966379
 20
-11.1674070911
 10
-13.9558591698
 20
-11.169874319
 10
-13.9547226433
 20
-11.1722666949
 10
-13.9535554831
 20
-11.174583998
 10
-13.9523543739
 20
-11.1768250037
 10
-13.951111217
 20
-11.178984506
 10
-13.9493744234
 20
-11.1817265917
 10
-13.9475376533
 20
-11.1842995632
 10
-13.9455922058
 20
-11.1866902261
 10
-13.9440578585
 20
-11.1883554514
 10
-13.9424615677
 20
-11.1899039722
 10
-13.9408111641
 20
-11.1913268212
 10
-13.9391255934
 20
-11.1926119804
 10
-13.9374042416
 20
-11.1937559199
 10
-13.9365207446
 20
-11.1942594884
 10
-13.9356214052
 20
-11.1947020253
 10
-13.9343996356
 20
-11.1951740881
 10
-13.9331491876
 20
-11.1954833774
 10
-13.9318659831
 20
-11.1955996251
  0
LINE
  5
2D0
100
AcDbEntity
  8
ASSI
100
AcDbLine
 62
253
  6
CONTINUOUS
 10
21.7187516417
 20
-9.481797032
 11
21.6931498844
 21
-9.482584973
  0
LINE
  5
2D1
100
AcDbEntity
  8
ASSI
100
AcDbLine
 62
253
  6
CONTINUOUS
 10
21.6931498844
 20
-9.482584973
 11
21.663776873
 21
-9.4833252437
  0
LINE
  5
2D2
100
AcDbEntity
  8
ASSI
100
AcDbLine
 62
253
  6
CONTINUOUS
 10
21.663776873
 20
-9.4833252437
 11
21.6192186145
 21
-9.4842264074
  0
LINE
  5
2D3
100
AcDbEntity
  8
ASSI
100
AcDbLine
 62
253
  6
CONTINUOUS
 10
21.6192186145
 20
-9.4842264074
 11
21.5558932713
 21
-9.4851944383
  0
LINE
  5
2D4
100
AcDbEntity
  8
ASSI
100
AcDbLine
 62
253
  6
CONTINUOUS
 10
21.5558932713
 20
-9.4851944383
 11
21.4708768086
 21
-9.4860917189
  0
LINE
  5
2D5
100
AcDbEntity
  8
ASSI
100
AcDbLine
 62
253
  6
CONTINUOUS
 10
21.4708768086
 20
-9.4860917189
 11
21.3632265632
 21
-9.486733566
  0
LINE
  5
2D6
100
AcDbEntity
  8
ASSI
100
AcDbLine
 62
253
  6
CONTINUOUS
 10
21.3632265632
 20
-9.486733566
 11
-22.0589390944
 21
-9.4869077307
  0
LINE
  5
2D7
100
AcDbEntity
  8
ASSI
100
AcDbLine
 62
253
  6
CONTINUOUS
 10
-22.1855371588
 20
-9.4865141908
 11
-22.0589390944
 21
-9.4869077307
  0
LINE
  5
2D8
100
AcDbEntity
  8
ASSI
100
AcDbLine
 62
253
  6
CONTINUOUS
 10
-22.2898142239
 20
-9.4856811682
 11
-22.1855371588
 21
-9.4865141908
  0
LINE
  5
2D9
100
AcDbEntity
  8
ASSI
100
AcDbLine
 62
253
  6
CONTINUOUS
 10
-22.3701974234
 20
-9.4846360109
 11
-22.2898142239
 21
-9.4856811682
  0
LINE
  5
2DA
100
AcDbEntity
  8
ASSI
100
AcDbLine
 62
253
  6
CONTINUOUS
 10
-22.4175981995
 20
-9.483788888
 11
-22.3701974234
 21
-9.4846360109
  0
LINE
  5
2DB
100
AcDbEntity
  8
ASSI
100
AcDbLine
 62
253
  6
CONTINUOUS
 10
-22.4591315168
 20
-9.4828373729
 11
-22.4175981995
 21
-9.483788888
  0
LWPOLYLINE
  5
2DC
100
AcDbEntity
  8
ASSI
100
AcDbPolyline
 62
253
  6
CONTINUOUS
 90
3
 70
0
 10
-22.4941179137
 20
-9.481797032
 10
-22.4860183139
 20
-9.4820645362
 10
-22.4591315168
 20
-9.4828373729
  0
LWPOLYLINE
  5
2DD
100
AcDbEntity
  8
0
100
AcDbPolyline
 62
253
  6
CONTINUOUS
 90
43
 70
0
 10
-12.2305952006
 20
13.4552202737
 10
-12.2359665499
 20
13.4809634032
 10
-12.2420888349
 20
13.5064219023
 10
-12.2489548251
 20
13.5316074638
 10
-12.2565572901
 20
13.5565317806
 10
-12.2648889996
 20
13.5812065457
 10
-12.2739427229
 20
13.6056434517
 10
-12.2837102222
 20
13.6298475365
 10
-12.2941792289
 20
13.6537972163
 10
-12.3053364671
 20
13.6774642525
 10
-12.3171686605
 20
13.7008204061
 10
-12.3296625332
 20
13.7238374383
 10
-12.3428048091
 20
13.7464871103
 10
-12.3565833381
 20
13.7687426948
 10
-12.3709904745
 20
13.790583511
 10
-12.3860196986
 20
13.8119903896
 10
-12.4016644905
 20
13.8329441614
 10
-12.4179183306
 20
13.8534256571
 10
-12.4347746991
 20
13.8734157073
 10
-12.4522252356
 20
13.8928954718
 10
-12.4702542171
 20
13.9118474257
 10
-12.4888440801
 20
13.9302543728
 10
-12.5079772609
 20
13.9480991172
 10
-12.5276361961
 20
13.9653644629
 10
-12.5478033219
 20
13.9820332139
 10
-12.5684608324
 20
13.9980899981
 10
-12.5895899517
 20
14.0135267394
 10
-12.6111716617
 20
14.0283371856
 10
-12.6331869439
 20
14.0425150846
 10
-12.6556167803
 20
14.0560541842
 10
-12.6784421526
 20
14.0689482322
 10
-12.7016420795
 20
14.081189828
 10
-12.7251877278
 20
14.0927669763
 10
-12.7490483013
 20
14.1036665333
 10
-12.7731930039
 20
14.1138753554
 10
-12.7975910393
 20
14.1233802987
 10
-12.8222116115
 20
14.1321682195
 10
-12.8470310653
 20
14.1402269502
 10
-12.8720543106
 20
14.1475482272
 10
-12.8972933984
 20
14.1541247632
 10
-12.9227603796
 20
14.1599492708
 10
-12.9484673052
 20
14.1650144626
 10
-12.9744262262
 20
14.1693130513
  0
LWPOLYLINE
  5
2DE
100
AcDbEntity
  8
0
100
AcDbPolyline
 62
253
  6
CONTINUOUS
 90
25
 70
0
 10
-12.591486858
 20
13.3857936071
 10
-12.5784536196
 20
13.3150027301
 10
-12.5665891079
 20
13.2441278075
 10
-12.5558854342
 20
13.1731590872
 10
-12.5463347098
 20
13.1020868173
 10
-12.5379290463
 20
13.0309012458
 10
-12.5306605549
 20
12.9595926206
 10
-12.524521347
 20
12.8881511897
 10
-12.5195035341
 20
12.8165672012
 10
-12.5156006392
 20
12.7448381604
 10
-12.5128118314
 20
12.6729906023
 10
-12.5111376917
 20
12.6010583191
 10
-12.5105788011
 20
12.5290751032
 10
-12.5111357403
 20
12.4570747468
 10
-12.5128090904
 20
12.3850910423
 10
-12.5155994321
 20
12.3131577819
 10
-12.5195073463
 20
12.2413087581
 10
-12.5245348425
 20
12.169570563
 10
-12.5306896438
 20
12.0979409892
 10
-12.5379809021
 20
12.0264106293
 10
-12.546417769
 20
11.9549700756
 10
-12.5560093963
 20
11.8836099207
 10
-12.5667649358
 20
11.8123207572
 10
-12.5786935391
 20
11.7410931776
 10
-12.591804358
 20
11.6699177742
  0
LWPOLYLINE
  5
2DF
100
AcDbEntity
  8
0
100
AcDbPolyline
 62
253
  6
CONTINUOUS
 90
31
 70
0
 10
-10.3801346848
 20
-12.6507021247
 10
-10.3774901875
 20
-12.6385069776
 10
-10.3750755978
 20
-12.6263351079
 10
-10.3728883076
 20
-12.6141684998
 10
-10.3709257088
 20
-12.6019891374
 10
-10.3691851934
 20
-12.5897790048
 10
-10.3676641534
 20
-12.5775200863
 10
-10.3663599806
 20
-12.5651943658
 10
-10.3652714784
 20
-12.5527879551
 10
-10.3644030957
 20
-12.5403034756
 10
-10.3637606928
 20
-12.5277476763
 10
-10.36335013
 20
-12.5151273062
 10
-10.3631772675
 20
-12.5024491141
 10
-10.3632479658
 20
-12.4897198491
 10
-10.3635680849
 20
-12.4769462602
 10
-10.36405731
 20
-12.4657383312
 10
-10.3647453746
 20
-12.4545062466
 10
-10.3656356688
 20
-12.4432546193
 10
-10.3667315823
 20
-12.431988062
 10
-10.3680365051
 20
-12.4207111876
 10
-10.3695538271
 20
-12.4094286089
 10
-10.3712869382
 20
-12.3981449386
 10
-10.3732392283
 20
-12.3868647896
 10
-10.3754135043
 20
-12.3755908171
 10
-10.377810242
 20
-12.3643178453
 10
-10.3804293339
 20
-12.3530387411
 10
-10.3832706727
 20
-12.3417463712
 10
-10.3863341511
 20
-12.3304336024
 10
-10.3896196619
 20
-12.3190933013
 10
-10.3931270976
 20
-12.3077183347
 10
-10.3968563511
 20
-12.2963015693
  0
LWPOLYLINE
  5
2E0
100
AcDbEntity
  8
0
100
AcDbPolyline
 62
253
  6
CONTINUOUS
 90
31
 70
0
 10
-10.3801346848
 20
-11.2321826807
 10
-10.3774917707
 20
-11.2200270316
 10
-10.3750790986
 20
-11.2078923849
 10
-10.3728940228
 20
-11.1957607621
 10
-10.3709338977
 20
-11.1836141847
 10
-10.3691960774
 20
-11.1714346744
 10
-10.3676779163
 20
-11.1592042527
 10
-10.3663767687
 20
-11.1469049412
 10
-10.3652914016
 20
-11.1345228844
 10
-10.3644262328
 20
-11.1220607196
 10
-10.3637870929
 20
-11.109525207
 10
-10.3633798122
 20
-11.0969231067
 10
-10.3632102214
 20
-11.0842611792
 10
-10.3632841509
 20
-11.0715461845
 10
-10.3636074312
 20
-11.0587848829
 10
-10.3640993382
 20
-11.0475860917
 10
-10.3647899699
 20
-11.0363616674
 10
-10.3656826779
 20
-11.0251162548
 10
-10.3667808138
 20
-11.0138544988
 10
-10.368087729
 20
-11.0025810442
 10
-10.3696067752
 20
-10.9913005357
 10
-10.3713413039
 20
-10.9800176183
 10
-10.3732946665
 20
-10.9687369367
 10
-10.3754695401
 20
-10.9574611245
 10
-10.3778659028
 20
-10.9461847707
 10
-10.3804830582
 20
-10.9349004529
 10
-10.3833203099
 20
-10.9236007489
 10
-10.3863769615
 20
-10.9122782365
 10
-10.3896523165
 20
-10.9009254932
 10
-10.3931456785
 20
-10.8895350969
 10
-10.3968563511
 20
-10.8780996252
  0
LINE
  5
2E1
100
AcDbEntity
  8
ASSI
100
AcDbLine
 62
253
  6
CONTINUOUS
 10
-22.7113758266
 20
-21.6976550384
 11
-22.6093488175
 21
-21.5445367352
  0
LINE
  5
2E2
100
AcDbEntity
  8
ASSI
100
AcDbLine
 62
253
  6
CONTINUOUS
 10
-22.6093488175
 20
21.5707212739
 11
-22.7113758266
 21
21.7238395771
  0
LWPOLYLINE
  5
2E3
100
AcDbEntity
  8
0
100
AcDbPolyline
 62
253
  6
CONTINUOUS
 90
31
 70
0
 10
-7.7734597513
 20
-12.6507021247
 10
-7.7708181893
 20
-12.6385034198
 10
-7.7684063991
 20
-12.6263281757
 10
-7.766221783
 20
-12.6141583996
 10
-7.7642617432
 20
-12.6019760991
 10
-7.7625236819
 20
-12.5897632815
 10
-7.7610050012
 20
-12.5775019542
 10
-7.7597031036
 20
-12.5651741247
 10
-7.7586167993
 20
-12.5527659231
 10
-7.7577505323
 20
-12.5402799697
 10
-7.7571101548
 20
-12.5277230077
 10
-7.7567015188
 20
-12.5151017802
 10
-7.7565304765
 20
-12.5024230303
 10
-7.7566028801
 20
-12.4896935012
 10
-7.7569245817
 20
-12.4769199359
 10
-7.7574150838
 20
-12.4657122586
 10
-7.7581043179
 20
-12.4544806344
 10
-7.7589956666
 20
-12.4432296691
 10
-7.7600925125
 20
-12.4319639683
 10
-7.7613982383
 20
-12.4206881377
 10
-7.7629162266
 20
-12.4094067829
 10
-7.76464986
 20
-12.3981245097
 10
-7.7666025213
 20
-12.3868459237
 10
-7.7687770108
 20
-12.3755736753
 10
-7.7711738008
 20
-12.3643025939
 10
-7.7737927814
 20
-12.3530255538
 10
-7.7766338427
 20
-12.3417354292
 10
-7.7796968746
 20
-12.3304250943
 10
-7.7829817673
 20
-12.3190874231
 10
-7.7864884108
 20
-12.3077152901
 10
-7.7902166953
 20
-12.2963015693
  0
LWPOLYLINE
  5
2E4
100
AcDbEntity
  8
0
100
AcDbPolyline
 62
253
  6
CONTINUOUS
 90
31
 70
0
 10
-7.7734597513
 20
-11.2321826807
 10
-7.7708197815
 20
-11.2200235337
 10
-7.7684099164
 20
-11.2078855686
 10
-7.7662275208
 20
-11.19575083
 10
-7.7642699591
 20
-11.1836013628
 10
-7.7625345959
 20
-11.1714192115
 10
-7.7610187958
 20
-11.1591864209
 10
-7.7597199233
 20
-11.1468850358
 10
-7.7586367526
 20
-11.1345012191
 10
-7.7577736966
 20
-11.1220376069
 10
-7.7571365777
 20
-11.1095009535
 10
-7.7567312186
 20
-11.0968980132
 10
-7.7565634417
 20
-11.0842355405
 10
-7.7566390696
 20
-11.0715202896
 10
-7.7569639247
 20
-11.0587590149
 10
-7.7574571017
 20
-11.0475604743
 10
-7.7581488957
 20
-11.0363365055
 10
-7.7590426511
 20
-11.0250917463
 10
-7.7601417123
 20
-11.0138308343
 10
-7.7614494239
 20
-11.002558407
 10
-7.7629691303
 20
-10.9912791022
 10
-7.7647041759
 20
-10.9799975573
 10
-7.7666579052
 20
-10.9687184101
 10
-7.7688329888
 20
-10.9574442895
 10
-7.7712294023
 20
-10.9461697897
 10
-7.773846447
 20
-10.9348874965
 10
-7.7766834246
 20
-10.9235899954
 10
-7.7797396366
 20
-10.9122698721
 10
-7.7830143847
 20
-10.9009197122
 10
-7.7865069704
 20
-10.8895321014
 10
-7.7902166953
 20
-10.8780996252
  0
LINE
  5
2E5
100
AcDbEntity
  8
ASSI
100
AcDbLine
 62
253
  6
CONTINUOUS
 10
-22.2104649412
 20
-22.1951456712
 11
-22.109653404
 21
-22.0438515026
  0
LINE
  5
2E6
100
AcDbEntity
  8
ASSI
100
AcDbLine
 62
253
  6
CONTINUOUS
 10
21.9623168641
 20
-0.3368411094
 11
21.7801250677
 21
-0.3823717132
  0
LINE
  5
2E7
100
AcDbEntity
  8
ASSI
100
AcDbLine
 62
253
  6
CONTINUOUS
 10
21.7122406623
 20
-0.0869077307
 11
21.5302772641
 21
-0.1323812567
  0
LINE
  5
2E8
100
AcDbEntity
  8
ASSI
100
AcDbLine
 62
253
  6
CONTINUOUS
 10
-22.5554913395
 20
-0.3823717132
 11
-22.7376831359
 21
-0.3368411094
  0
LINE
  5
2E9
100
AcDbEntity
  8
ASSI
100
AcDbLine
 62
253
  6
CONTINUOUS
 10
-22.305643536
 20
-0.1323812567
 11
-22.4876069342
 21
-0.0869077307
  0
LINE
  5
2EA
100
AcDbEntity
  8
ASSI
100
AcDbLine
 62
253
  6
CONTINUOUS
 10
-22.109653404
 20
22.0700360412
 11
-22.2104649412
 21
22.2213302099
  0
LWPOLYLINE
  5
2EB
100
AcDbEntity
  8
ASSI
100
AcDbPolyline
 62
253
  6
CONTINUOUS
 90
8
 70
0
 10
21.5302772641
 20
-0.1323812567
 10
21.5299002148
 20
-0.1324469575
 10
21.5292983334
 20
-0.1325124155
 10
21.5284716199
 20
-0.1325776309
 10
21.527418914
 20
-0.1326426635
 10
21.5261413761
 20
-0.1327074533
 10
21.5246424869
 20
-0.1327718206
 10
21.5229216467
 20
-0.132835763
  0
LINE
  5
2EC
100
AcDbEntity
  8
ASSI
100
AcDbLine
 62
7
  6
CONTINUOUS
 10
19.3747828547
 20
-0.0869077307
 11
19.1123168641
 21
-0.113088334
  0
LWPOLYLINE
  5
2ED
100
AcDbEntity
  8
ASSI
100
AcDbPolyline
 62
253
  6
CONTINUOUS
 90
5
 70
0
 10
21.7801250677
 20
-0.3823717243
 10
21.7793731388
 20
-0.3824433979
 10
21.7781687308
 20
-0.3825148308
 10
21.7765129407
 20
-0.3825860121
 10
21.774407285
 20
-0.3826569832
  0
LINE
  5
2EE
100
AcDbEntity
  8
ASSI
100
AcDbLine
 62
7
  6
CONTINUOUS
 10
-20.1501491265
 20
-0.0869077307
 11
-19.8876831359
 21
-0.113088334
  0
LINE
  5
2EF
100
AcDbEntity
  8
0
100
AcDbLine
 62
253
  6
CONTINUOUS
 10
-11.1060102292
 20
13.5101124959
 11
-9.6028594343
 21
10.9518386077
  0
LINE
  5
2F0
100
AcDbEntity
  8
0
100
AcDbLine
 62
253
  6
CONTINUOUS
 10
-9.5399238803
 20
11.5452813853
 11
-11.0430746753
 21
14.1041902735
  0
LINE
  5
2F1
100
AcDbEntity
  8
ASSI
100
AcDbLine
 62
253
  6
CONTINUOUS
 10
21.5229216467
 20
-0.132835763
 11
21.518821192
 21
-0.1329622072
  0
LINE
  5
2F2
100
AcDbEntity
  8
ASSI
100
AcDbLine
 62
253
  6
CONTINUOUS
 10
21.518821192
 20
-0.1329622072
 11
21.5138552752
 21
-0.1330862651
  0
LINE
  5
2F3
100
AcDbEntity
  8
ASSI
100
AcDbLine
 62
253
  6
CONTINUOUS
 10
21.774407285
 20
-0.3826569832
 11
21.7688543786
 21
-0.3827979379
  0
LINE
  5
2F4
100
AcDbEntity
  8
ASSI
100
AcDbLine
 62
253
  6
CONTINUOUS
 10
21.5138552752
 20
-0.1330862651
 11
21.504826998
 21
-0.1332668744
  0
LINE
  5
2F5
100
AcDbEntity
  8
ASSI
100
AcDbLine
 62
253
  6
CONTINUOUS
 10
21.7688543786
 20
-0.3827979379
 11
21.761529914
 21
-0.3829370873
  0
LINE
  5
2F6
100
AcDbEntity
  8
ASSI
100
AcDbLine
 62
253
  6
CONTINUOUS
 10
21.504826998
 20
-0.1332668744
 11
21.4857576975
 21
-0.1335497263
  0
LINE
  5
2F7
100
AcDbEntity
  8
ASSI
100
AcDbLine
 62
253
  6
CONTINUOUS
 10
21.761529914
 20
-0.3829370873
 11
21.74167939
 21
-0.3832078737
  0
LINE
  5
2F8
100
AcDbEntity
  8
ASSI
100
AcDbLine
 62
253
  6
CONTINUOUS
 10
21.4857576975
 20
-0.1335497263
 11
21.4457955441
 21
-0.1339413433
  0
LINE
  5
2F9
100
AcDbEntity
  8
ASSI
100
AcDbLine
 62
253
  6
CONTINUOUS
 10
21.74167939
 20
-0.3832078737
 11
21.6823070589
 21
-0.3837061555
  0
LINE
  5
2FA
100
AcDbEntity
  8
ASSI
100
AcDbLine
 62
253
  6
CONTINUOUS
 10
21.4457955441
 20
-0.1339413433
 11
21.3617395953
 21
-0.1343682002
  0
LINE
  5
2FB
100
AcDbEntity
  8
ASSI
100
AcDbLine
 62
253
  6
CONTINUOUS
 10
21.6823070589
 20
-0.3837061555
 11
21.457212303
 21
-0.3845199097
  0
LINE
  5
2FC
100
AcDbEntity
  8
ASSI
100
AcDbLine
 62
253
  6
CONTINUOUS
 10
-22.1974329865
 20
0.1602874367
 11
-22.0932960006
 21
0.1606466706
  0
LINE
  5
2FD
100
AcDbEntity
  8
ASSI
100
AcDbLine
 62
253
  6
CONTINUOUS
 10
21.3617395953
 20
-0.1343682002
 11
21.2804296102
 21
-0.1344868189
  0
LINE
  5
2FE
100
AcDbEntity
  8
ASSI
100
AcDbLine
 62
253
  6
CONTINUOUS
 10
-22.0932960006
 20
0.1606466706
 11
-22.0557958821
 21
0.1606713575
  0
LINE
  5
2FF
100
AcDbEntity
  8
ASSI
100
AcDbLine
 62
253
  6
CONTINUOUS
 10
21.457212303
 20
-0.3845199097
 11
-22.0557931988
 21
-0.3846761841
  0
LINE
  5
300
100
AcDbEntity
  8
ASSI
100
AcDbLine
 62
7
  6
CONTINUOUS
 10
21.2804296102
 20
-0.1344868189
 11
-22.0557958821
 21
-0.1344868189
  0
LINE
  5
301
100
AcDbEntity
  8
ASSI
100
AcDbLine
 62
7
  6
CONTINUOUS
 10
19.1123168641
 20
-0.113088334
 11
-19.8876831359
 21
-0.113088334
  0
LINE
  5
302
100
AcDbEntity
  8
ASSI
100
AcDbLine
 62
7
  6
CONTINUOUS
 10
21.7122406623
 20
-0.0869077307
 11
19.3747828547
 21
-0.0869077307
  0
LINE
  5
303
100
AcDbEntity
  8
ASSI
100
AcDbLine
 62
7
  6
CONTINUOUS
 10
-20.1501491265
 20
-0.0869077307
 11
-22.4876069342
 21
-0.0869077307
  0
LINE
  5
304
100
AcDbEntity
  8
ASSI
100
AcDbLine
 62
7
  6
CONTINUOUS
 10
-22.4876069342
 20
0.1130922693
 11
-20.1501491265
 21
0.1130922693
  0
LINE
  5
305
100
AcDbEntity
  8
ASSI
100
AcDbLine
 62
7
  6
CONTINUOUS
 10
19.3747828547
 20
0.1130922693
 11
21.7122406623
 21
0.1130922693
  0
LINE
  5
306
100
AcDbEntity
  8
ASSI
100
AcDbLine
 62
7
  6
CONTINUOUS
 10
-19.8876831359
 20
0.1392728727
 11
19.1123168641
 21
0.1392728727
  0
LINE
  5
307
100
AcDbEntity
  8
ASSI
100
AcDbLine
 62
7
  6
CONTINUOUS
 10
-22.0557958821
 20
0.1606713575
 11
21.2804296102
 21
0.1606713575
  0
LINE
  5
308
100
AcDbEntity
  8
ASSI
100
AcDbLine
 62
253
  6
CONTINUOUS
 10
-22.0557958821
 20
-0.1344868189
 11
-22.1716457165
 21
-0.134238428
  0
LINE
  5
309
100
AcDbEntity
  8
ASSI
100
AcDbLine
 62
253
  6
CONTINUOUS
 10
21.2804296102
 20
0.1606713575
 11
21.3962794447
 21
0.1604229667
  0
LINE
  5
30A
100
AcDbEntity
  8
ASSI
100
AcDbLine
 62
253
  6
CONTINUOUS
 10
-22.0557931988
 20
-0.3846761849
 11
-22.4390376289
 21
-0.383819006
  0
LINE
  5
30B
100
AcDbEntity
  8
ASSI
100
AcDbLine
 62
253
  6
CONTINUOUS
 10
21.3962794447
 20
0.1604229667
 11
21.4220667147
 21
0.1602874367
  0
LINE
  5
30C
100
AcDbEntity
  8
ASSI
100
AcDbLine
 62
253
  6
CONTINUOUS
 10
-22.1716457165
 20
-0.134238428
 11
-22.2374042469
 21
-0.1338044625
  0
LINE
  5
30D
100
AcDbEntity
  8
ASSI
100
AcDbLine
 62
253
  6
CONTINUOUS
 10
-22.4390376289
 20
-0.383819006
 11
-22.5110250807
 21
-0.3832736439
  0
LINE
  5
30E
100
AcDbEntity
  8
ASSI
100
AcDbLine
 62
253
  6
CONTINUOUS
 10
-22.2374042469
 20
-0.1338044625
 11
-22.2693344244
 21
-0.1334396394
  0
LINE
  5
30F
100
AcDbEntity
  8
ASSI
100
AcDbLine
 62
253
  6
CONTINUOUS
 10
-22.5110250807
 20
-0.3832736439
 11
-22.5325777101
 21
-0.3830057984
  0
LINE
  5
310
100
AcDbEntity
  8
ASSI
100
AcDbLine
 62
253
  6
CONTINUOUS
 10
-22.5325777101
 20
-0.3830057984
 11
-22.5407783537
 21
-0.3828677438
  0
LINE
  5
311
100
AcDbEntity
  8
ASSI
100
AcDbLine
 62
253
  6
CONTINUOUS
 10
-22.2693344244
 20
-0.1334396394
 11
-22.2834119113
 21
-0.1332074353
  0
LWPOLYLINE
  5
312
100
AcDbEntity
  8
ASSI
100
AcDbPolyline
 62
253
  6
CONTINUOUS
 90
7
 70
0
 10
-22.5407783537
 20
-0.3828677438
 10
-22.5472199435
 20
-0.382727681
 10
-22.5497735568
 20
-0.3826569832
 10
-22.5518792125
 20
-0.3825860121
 10
-22.5535350026
 20
-0.3825148308
 10
-22.5547394106
 20
-0.3824433979
 10
-22.5554913395
 20
-0.3823717243
  0
LINE
  5
313
100
AcDbEntity
  8
ASSI
100
AcDbLine
 62
253
  6
CONTINUOUS
 10
-22.2834119113
 20
-0.1332074353
 11
-22.2918125413
 21
-0.133024534
  0
LWPOLYLINE
  5
314
100
AcDbEntity
  8
ASSI
100
AcDbPolyline
 62
253
  6
CONTINUOUS
 90
10
 70
0
 10
-22.2918125413
 20
-0.133024534
 10
-22.296345727
 20
-0.1328992829
 10
-22.2982879185
 20
-0.132835763
 10
-22.3000087587
 20
-0.1327718206
 10
-22.301507648
 20
-0.1327074533
 10
-22.3027851859
 20
-0.1326426635
 10
-22.3038378917
 20
-0.1325776309
 10
-22.3046646052
 20
-0.1325124155
 10
-22.3052664866
 20
-0.1324469575
 10
-22.305643536
 20
-0.1323812567
  0
LINE
  5
315
100
AcDbEntity
  8
ASSI
100
AcDbLine
 62
7
  6
CONTINUOUS
 10
-20.1501491265
 20
0.1130922693
 11
-19.8876831359
 21
0.1392728727
  0
LINE
  5
316
100
AcDbEntity
  8
ASSI
100
AcDbLine
 62
253
  6
CONTINUOUS
 10
-22.2982879185
 20
0.1590203017
 11
-22.2941874639
 21
0.1591467458
  0
LINE
  5
317
100
AcDbEntity
  8
ASSI
100
AcDbLine
 62
253
  6
CONTINUOUS
 10
-22.2941874639
 20
0.1591467458
 11
-22.289221547
 21
0.1592708038
  0
LINE
  5
318
100
AcDbEntity
  8
ASSI
100
AcDbLine
 62
253
  6
CONTINUOUS
 10
-22.5497735568
 20
0.4088415218
 11
-22.5442206504
 21
0.4089824766
  0
LINE
  5
319
100
AcDbEntity
  8
ASSI
100
AcDbLine
 62
253
  6
CONTINUOUS
 10
-22.289221547
 20
0.1592708038
 11
-22.2801932698
 21
0.159451413
  0
LINE
  5
31A
100
AcDbEntity
  8
ASSI
100
AcDbLine
 62
253
  6
CONTINUOUS
 10
-22.5442206504
 20
0.4089824766
 11
-22.5368961858
 21
0.4091216259
  0
LINE
  5
31B
100
AcDbEntity
  8
ASSI
100
AcDbLine
 62
253
  6
CONTINUOUS
 10
-22.2801932698
 20
0.159451413
 11
-22.2611239693
 21
0.159734265
  0
LINE
  5
31C
100
AcDbEntity
  8
ASSI
100
AcDbLine
 62
253
  6
CONTINUOUS
 10
-22.5368961858
 20
0.4091216259
 11
-22.5170456618
 21
0.4093924123
  0
LINE
  5
31D
100
AcDbEntity
  8
ASSI
100
AcDbLine
 62
253
  6
CONTINUOUS
 10
-22.2611239693
 20
0.159734265
 11
-22.2211618159
 21
0.160125882
  0
LINE
  5
31E
100
AcDbEntity
  8
ASSI
100
AcDbLine
 62
253
  6
CONTINUOUS
 10
-22.5170456618
 20
0.4093924123
 11
-22.4576733307
 21
0.4098906941
  0
LINE
  5
31F
100
AcDbEntity
  8
ASSI
100
AcDbLine
 62
253
  6
CONTINUOUS
 10
-22.2211618159
 20
0.160125882
 11
-22.1974329865
 21
0.1602874367
  0
LINE
  5
320
100
AcDbEntity
  8
ASSI
100
AcDbLine
 62
253
  6
CONTINUOUS
 10
-22.4576733307
 20
0.4098906941
 11
-22.2325785748
 21
0.4107044484
  0
LINE
  5
321
100
AcDbEntity
  8
ASSI
100
AcDbLine
 62
253
  6
CONTINUOUS
 10
-22.2325785748
 20
0.4107044484
 11
21.6223029674
 21
0.4102123706
  0
LINE
  5
322
100
AcDbEntity
  8
ASSI
100
AcDbLine
 62
253
  6
CONTINUOUS
 10
21.6223029674
 20
0.4102123706
 11
21.7223849545
 21
0.4095870597
  0
LINE
  5
323
100
AcDbEntity
  8
ASSI
100
AcDbLine
 62
253
  6
CONTINUOUS
 10
21.4220667147
 20
0.1602874367
 11
21.472052186
 21
0.1598908619
  0
LINE
  5
324
100
AcDbEntity
  8
ASSI
100
AcDbLine
 62
253
  6
CONTINUOUS
 10
21.7223849545
 20
0.4095870597
 11
21.7524605965
 21
0.4092584028
  0
LINE
  5
325
100
AcDbEntity
  8
ASSI
100
AcDbLine
 62
253
  6
CONTINUOUS
 10
21.472052186
 20
0.1598908619
 11
21.4977882545
 21
0.159567515
  0
LINE
  5
326
100
AcDbEntity
  8
ASSI
100
AcDbLine
 62
253
  6
CONTINUOUS
 10
21.7524605965
 20
0.4092584028
 11
21.7654120819
 21
0.4090522825
  0
LINE
  5
327
100
AcDbEntity
  8
ASSI
100
AcDbLine
 62
253
  6
CONTINUOUS
 10
21.4977882545
 20
0.159567515
 11
21.5110552523
 21
0.1593317716
  0
LWPOLYLINE
  5
328
100
AcDbEntity
  8
ASSI
100
AcDbPolyline
 62
253
  6
CONTINUOUS
 90
7
 70
0
 10
21.7654120819
 20
0.4090522825
 10
21.7718536717
 20
0.4089122197
 10
21.774407285
 20
0.4088415218
 10
21.7765129407
 20
0.4087705507
 10
21.7781687308
 20
0.4086993695
 10
21.7793731388
 20
0.4086279366
 10
21.7801250677
 20
0.4085562629
  0
LINE
  5
329
100
AcDbEntity
  8
ASSI
100
AcDbLine
 62
253
  6
CONTINUOUS
 10
21.5110552523
 20
0.1593317716
 11
21.5164462694
 21
0.1592090726
  0
LWPOLYLINE
  5
32A
100
AcDbEntity
  8
ASSI
100
AcDbPolyline
 62
253
  6
CONTINUOUS
 90
10
 70
0
 10
21.5164462694
 20
0.1592090726
 10
21.5209794552
 20
0.1590838216
 10
21.5229216467
 20
0.1590203017
 10
21.5246424869
 20
0.1589563592
 10
21.5261413761
 20
0.158891992
 10
21.527418914
 20
0.1588272021
 10
21.5284716199
 20
0.1587621695
 10
21.5292983334
 20
0.1586969542
 10
21.5299002148
 20
0.1586314961
 10
21.5302772641
 20
0.1585657953
  0
LINE
  5
32B
100
AcDbEntity
  8
ASSI
100
AcDbLine
 62
7
  6
CONTINUOUS
 10
19.3747828547
 20
0.1130922693
 11
19.1123168641
 21
0.1392728727
  0
LWPOLYLINE
  5
32C
100
AcDbEntity
  8
ASSI
100
AcDbPolyline
 62
253
  6
CONTINUOUS
 90
8
 70
0
 10
-22.305643536
 20
0.1585657953
 10
-22.3052664866
 20
0.1586314961
 10
-22.3046646052
 20
0.1586969542
 10
-22.3038378917
 20
0.1587621695
 10
-22.3027851859
 20
0.1588272021
 10
-22.301507648
 20
0.158891992
 10
-22.3000087587
 20
0.1589563592
 10
-22.2982879185
 20
0.1590203017
  0
LWPOLYLINE
  5
32D
100
AcDbEntity
  8
ASSI
100
AcDbPolyline
 62
253
  6
CONTINUOUS
 90
5
 70
0
 10
-22.5554913395
 20
0.4085562629
 10
-22.5547394106
 20
0.4086279366
 10
-22.5535350026
 20
0.4086993695
 10
-22.5518792125
 20
0.4087705507
 10
-22.5497735568
 20
0.4088415218
  0
LINE
  5
32E
100
AcDbEntity
  8
ASSI
100
AcDbLine
 62
253
  6
CONTINUOUS
 10
21.4350986693
 20
22.2213302099
 11
21.3342871322
 21
22.0700360412
  0
LINE
  5
32F
100
AcDbEntity
  8
ASSI
100
AcDbLine
 62
253
  6
CONTINUOUS
 10
21.9360095547
 20
21.7238395771
 11
21.8339825457
 21
21.5707212739
  0
LINE
  5
330
100
AcDbEntity
  8
ASSI
100
AcDbLine
 62
253
  6
CONTINUOUS
 10
-22.4876069342
 20
0.1130922693
 11
-22.305643536
 21
0.1585657953
  0
LINE
  5
331
100
AcDbEntity
  8
ASSI
100
AcDbLine
 62
253
  6
CONTINUOUS
 10
-22.7376831359
 20
0.3630256481
 11
-22.5554913395
 21
0.4085562519
  0
LINE
  5
332
100
AcDbEntity
  8
ASSI
100
AcDbLine
 62
253
  6
CONTINUOUS
 10
21.5302772641
 20
0.1585657953
 11
21.7122406623
 21
0.1130922693
  0
LINE
  5
333
100
AcDbEntity
  8
ASSI
100
AcDbLine
 62
253
  6
CONTINUOUS
 10
21.7801250677
 20
0.4085562519
 11
21.9623168641
 21
0.3630256481
  0
LINE
  5
334
100
AcDbEntity
  8
ASSI
100
AcDbLine
 62
253
  6
CONTINUOUS
 10
21.3342871322
 20
-22.0438515026
 11
21.4350986693
 21
-22.1951456712
  0
LINE
  5
335
100
AcDbEntity
  8
ASSI
100
AcDbLine
 62
253
  6
CONTINUOUS
 10
21.8339825457
 20
-21.5445367352
 11
21.9360095547
 21
-21.6976550384
  0
LWPOLYLINE
  5
336
100
AcDbEntity
  8
0
100
AcDbPolyline
 62
253
  6
CONTINUOUS
 90
31
 70
0
 10
-11.4582588314
 20
10.9425252743
 10
-11.445937615
 20
10.9398848123
 10
-11.4336539578
 20
10.9374866309
 10
-11.4213884223
 20
10.9353277146
 10
-11.4091215706
 20
10.9334050481
 10
-11.3968339649
 20
10.9317156158
 10
-11.3845061677
 20
10.9302564023
 10
-11.372118741
 20
10.9290243922
 10
-11.3596567312
 20
10.9280181316
 10
-11.3471231206
 20
10.9272424124
 10
-11.3345253758
 20
10.9267035883
 10
-11.321870963
 20
10.9264080129
 10
-11.3091673488
 20
10.9263620396
 10
-11.2964219995
 20
10.9265720221
 10
-11.2836423815
 20
10.927044314
 10
-11.2724379866
 20
10.9276775894
 10
-11.2612181468
 20
10.9285199144
 10
-11.2499879375
 20
10.9295746434
 10
-11.2387524344
 20
10.9308451309
 10
-11.227516713
 20
10.9323347315
 10
-11.2162858488
 20
10.9340467996
 10
-11.2050649174
 20
10.9359846897
 10
-11.1938589942
 20
10.9381517564
 10
-11.1826708401
 20
10.9405503388
 10
-11.1714939564
 20
10.9431787154
 10
-11.1603195298
 20
10.9460341492
 10
-11.1491387469
 20
10.9491139033
 10
-11.1379427943
 20
10.9524152409
 10
-11.1267228587
 20
10.955935425
 10
-11.1154701266
 20
10.9596717188
 10
-11.1041757848
 20
10.9636213854
  0
LWPOLYLINE
  5
337
100
AcDbEntity
  8
0
100
AcDbPolyline
 62
253
  6
CONTINUOUS
 90
33
 70
0
 10
-9.6028594343
 20
10.9518386077
 10
-9.5890935667
 20
10.9478792375
 10
-9.5752640625
 20
10.9442442369
 10
-9.5613711257
 20
10.9409292228
 10
-9.54741496
 20
10.9379298121
 10
-9.5333957693
 20
10.9352416216
 10
-9.5193142662
 20
10.9328610388
 10
-9.505173198
 20
10.9307875336
 10
-9.4909758205
 20
10.9290213467
 10
-9.4767253899
 20
10.9275627187
 10
-9.462425162
 20
10.9264118902
 10
-9.4480783986
 20
10.9255693588
 10
-9.4336883835
 20
10.9250366507
 10
-9.4192584064
 20
10.9248155491
 10
-9.404791757
 20
10.9249078372
 10
-9.3902917249
 20
10.9253152982
 10
-9.3781849136
 20
10.9258976224
 10
-9.3660571647
 20
10.9267054665
 10
-9.3539084386
 20
10.9277442418
 10
-9.3417386958
 20
10.9290193598
 10
-9.3295478965
 20
10.9305362317
 10
-9.3173360013
 20
10.9323002692
 10
-9.305104096
 20
10.9343156014
 10
-9.2928577695
 20
10.9365812294
 10
-9.2806037359
 20
10.9390948724
 10
-9.2683487097
 20
10.9418542493
 10
-9.2560994051
 20
10.944857079
 10
-9.2438625364
 20
10.9481010807
 10
-9.2292006242
 20
10.9523074
 10
-9.214556657
 20
10.9568440728
 10
-9.1999210035
 20
10.9616974498
 10
-9.1852840323
 20
10.9668538816
 10
-9.170636112
 20
10.9722997188
  0
LWPOLYLINE
  5
338
100
AcDbEntity
  8
ASSI
100
AcDbPolyline
 62
253
  6
CONTINUOUS
 90
18
 70
0
 10
21.8339825457
 20
21.5707212739
 10
21.8335145185
 20
21.5698377463
 10
21.8330481135
 20
21.5685972748
 10
21.8325833309
 20
21.5669998596
 10
21.832119824
 20
21.5650438141
 10
21.8316579394
 20
21.5627308247
 10
21.8311987165
 20
21.5600659508
 10
21.8307421743
 20
21.5570484472
 10
21.8302882939
 20
21.5536790591
 10
21.8298380581
 20
21.5499650812
 10
21.8293914764
 20
21.5459057769
 10
21.8289485392
 20
21.5415018829
 10
21.8285102013
 20
21.5367629044
 10
21.828076472
 20
21.5316881121
 10
21.8276473419
 20
21.5262782354
 10
21.827223738
 20
21.5205449679
 10
21.8268056724
 20
21.5144876106
 10
21.8259870106
 20
21.5014165142
  0
LWPOLYLINE
  5
339
100
AcDbEntity
  8
0
100
AcDbPolyline
 62
253
  6
CONTINUOUS
 90
43
 70
0
 10
-13.6779012673
 20
-14.1005482355
 10
-13.6554723908
 20
-14.093689471
 10
-13.6333156803
 20
-14.086257433
 10
-13.6114226054
 20
-14.0782560557
 10
-13.5897846359
 20
-14.0696892733
 10
-13.5683932416
 20
-14.06056102
 10
-13.5472398922
 20
-14.05087523
 10
-13.5263206348
 20
-14.0406369776
 10
-13.5056498263
 20
-14.0298558964
 10
-13.4852464009
 20
-14.01854276
 10
-13.4651292929
 20
-14.0067083422
 10
-13.4453174364
 20
-13.9943634164
 10
-13.4258297657
 20
-13.9815187565
 10
-13.4066842082
 20
-13.9681842992
 10
-13.3878946639
 20
-13.9543666349
 10
-13.3694740262
 20
-13.9400715174
 10
-13.3514351881
 20
-13.9253047002
 10
-13.333791043
 20
-13.9100719369
 10
-13.3165544841
 20
-13.8943789814
 10
-13.2997381569
 20
-13.8782327429
 10
-13.2833537165
 20
-13.8616447541
 10
-13.2674125703
 20
-13.8446277033
 10
-13.2519261256
 20
-13.8271942787
 10
-13.2369057899
 20
-13.8093571688
 10
-13.2223629705
 20
-13.7911290619
 10
-13.2083079714
 20
-13.7725226828
 10
-13.1947466829
 20
-13.7535509032
 10
-13.1816838921
 20
-13.734226631
 10
-13.1691243858
 20
-13.7145627745
 10
-13.1570729509
 20
-13.6945722415
 10
-13.1455343745
 20
-13.6742679404
 10
-13.1345142777
 20
-13.6536641962
 10
-13.1240216194
 20
-13.632781002
 10
-13.1140661925
 20
-13.611639768
 10
-13.1046577902
 20
-13.5902619045
 10
-13.0958062054
 20
-13.5686688215
 10
-13.0875212312
 20
-13.5468819294
 10
-13.0798117536
 20
-13.5249176321
 10
-13.0726830296
 20
-13.5027723094
 10
-13.0661394095
 20
-13.4804373348
 10
-13.0601852432
 20
-13.4579040819
 10
-13.0548248808
 20
-13.4351639244
 10
-13.0500626723
 20
-13.4122082357
  0
LINE
  5
33A
100
AcDbEntity
  8
ASSI
100
AcDbLine
 62
253
  6
CONTINUOUS
 10
-22.5277833267
 20
9.5065822771
 11
-22.5157126841
 21
9.5071532143
  0
LINE
  5
33B
100
AcDbEntity
  8
ASSI
100
AcDbLine
 62
253
  6
CONTINUOUS
 10
-22.5157126841
 20
9.5071532143
 11
-22.5017719885
 21
9.5077095728
  0
LINE
  5
33C
100
AcDbEntity
  8
ASSI
100
AcDbLine
 62
253
  6
CONTINUOUS
 10
-22.5017719885
 20
9.5077095728
 11
-22.4860183138
 21
9.5082490748
  0
LINE
  5
33D
100
AcDbEntity
  8
ASSI
100
AcDbLine
 62
253
  6
CONTINUOUS
 10
-22.4860183138
 20
9.5082490748
 11
-22.4591315166
 21
9.5090219115
  0
LINE
  5
33E
100
AcDbEntity
  8
ASSI
100
AcDbLine
 62
253
  6
CONTINUOUS
 10
-22.4591315166
 20
9.5090219115
 11
-22.4175981994
 21
9.5099734266
  0
LINE
  5
33F
100
AcDbEntity
  8
ASSI
100
AcDbLine
 62
253
  6
CONTINUOUS
 10
-22.4175981994
 20
9.5099734266
 11
-22.3575193779
 21
9.5110143541
  0
LINE
  5
340
100
AcDbEntity
  8
ASSI
100
AcDbLine
 62
253
  6
CONTINUOUS
 10
-22.3575193779
 20
9.5110143541
 11
-22.2755072682
 21
9.5120112229
  0
LINE
  5
341
100
AcDbEntity
  8
ASSI
100
AcDbLine
 62
253
  6
CONTINUOUS
 10
-22.2755072682
 20
9.5120112229
 11
-22.1699974076
 21
9.5127812869
  0
LINE
  5
342
100
AcDbEntity
  8
ASSI
100
AcDbLine
 62
253
  6
CONTINUOUS
 10
-22.1699974076
 20
9.5127812869
 11
-22.0589390944
 21
9.5130922693
  0
LINE
  5
343
100
AcDbEntity
  8
ASSI
100
AcDbLine
 62
253
  6
CONTINUOUS
 10
21.3789776861
 20
9.512854437
 11
-22.0589390944
 21
9.5130922693
  0
LINE
  5
344
100
AcDbEntity
  8
ASSI
100
AcDbLine
 62
253
  6
CONTINUOUS
 10
21.485612324
 20
9.5121481199
 11
21.3789776861
 21
9.512854437
  0
LINE
  5
345
100
AcDbEntity
  8
ASSI
100
AcDbLine
 62
253
  6
CONTINUOUS
 10
21.569169382
 20
9.5112005601
 11
21.485612324
 21
9.5121481199
  0
LINE
  5
346
100
AcDbEntity
  8
ASSI
100
AcDbLine
 62
253
  6
CONTINUOUS
 10
21.630903065
 20
9.5101955665
 11
21.569169382
 21
9.5112005601
  0
LINE
  5
347
100
AcDbEntity
  8
ASSI
100
AcDbLine
 62
253
  6
CONTINUOUS
 10
21.6739708988
 20
9.5092687527
 11
21.630903065
 21
9.5101955665
  0
LINE
  5
348
100
AcDbEntity
  8
ASSI
100
AcDbLine
 62
253
  6
CONTINUOUS
 10
21.7021152097
 20
9.5085118115
 11
21.6739708988
 21
9.5092687527
  0
LINE
  5
349
100
AcDbEntity
  8
ASSI
100
AcDbLine
 62
253
  6
CONTINUOUS
 10
21.7187516418
 20
9.5079815706
 11
21.7021152097
 21
9.5085118115
  0
LINE
  5
34A
100
AcDbEntity
  8
ASSI
100
AcDbLine
 62
253
  6
CONTINUOUS
 10
21.733606431
 20
9.5074333597
 11
21.7187516418
 21
9.5079815706
  0
LWPOLYLINE
  5
34B
100
AcDbEntity
  8
0
100
AcDbPolyline
 62
253
  6
CONTINUOUS
 90
22
 70
0
 10
-13.7368848371
 20
10.8793074966
 10
-13.70335319
 20
10.8750994269
 10
-13.6697921339
 20
10.8713161352
 10
-13.6361978318
 20
10.8679563923
 10
-13.6025664469
 20
10.8650189691
 10
-13.5688941422
 20
10.8625026362
 10
-13.5351770811
 20
10.8604061645
 10
-13.5014114265
 20
10.8587283248
 10
-13.4675959734
 20
10.8574681468
 10
-13.4337400446
 20
10.8566256967
 10
-13.3998555944
 20
10.8562013
 10
-13.3659545772
 20
10.8561952817
 10
-13.3320489477
 20
10.8566079673
 10
-13.2981506601
 20
10.857439682
 10
-13.264271669
 20
10.858690751
 10
-13.2304213164
 20
10.8603617622
 10
-13.1965984943
 20
10.8624543529
 10
-13.1627994822
 20
10.8649704231
 10
-13.1290205596
 20
10.8679118727
 10
-13.0952580062
 20
10.8712806015
 10
-13.0615081014
 20
10.8750785095
 10
-13.0277671247
 20
10.8793074966
  0
LINE
  5
34C
100
AcDbEntity
  8
0
100
AcDbLine
 62
253
  6
CONTINUOUS
 10
-13.7908245593
 20
10.8863983299
 11
-13.7368848371
 21
10.8793074966
  0
LWPOLYLINE
  5
34D
100
AcDbEntity
  8
0
100
AcDbPolyline
 62
253
  6
CONTINUOUS
 90
44
 70
0
 10
-13.7356501149
 20
11.2501122187
 10
-13.7487899365
 20
11.2522497721
 10
-13.7618132728
 20
11.2547212827
 10
-13.7747240126
 20
11.2575230091
 10
-13.7875260445
 20
11.2606512098
 10
-13.8002232575
 20
11.2641021435
 10
-13.8128195401
 20
11.2678720686
 10
-13.8253187812
 20
11.2719572439
 10
-13.8397802734
 20
11.2771165899
 10
-13.8541001854
 20
11.2826931443
 10
-13.8682637283
 20
11.2886801178
 10
-13.882256113
 20
11.2950707208
 10
-13.8960625507
 20
11.301858164
 10
-13.9096682525
 20
11.3090356579
 10
-13.9230589199
 20
11.316596924
 10
-13.9362222174
 20
11.3245377278
 10
-13.9491462996
 20
11.3328543455
 10
-13.9618193214
 20
11.3415430536
 10
-13.9742294378
 20
11.3506001284
 10
-13.9863648036
 20
11.3600218462
 10
-13.9982138516
 20
11.3698034769
 10
-14.009766127
 20
11.3799362641
 10
-14.0210114528
 20
11.3904104448
 10
-14.0319396522
 20
11.4012162561
 10
-14.0425405482
 20
11.4123439351
 10
-14.0528039639
 20
11.4237837187
 10
-14.0627207432
 20
11.4355256468
 10
-14.0722858132
 20
11.4475589693
 10
-14.0814951217
 20
11.4598727392
 10
-14.0903446167
 20
11.472456009
 10
-14.098830246
 20
11.4852978315
 10
-14.1069479574
 20
11.4983872596
 10
-14.1146930059
 20
11.5117123417
 10
-14.1220578743
 20
11.5252571097
 10
-14.1290343526
 20
11.5390045916
 10
-14.1356142308
 20
11.552937815
 10
-14.1417892986
 20
11.5670398077
 10
-14.1475513461
 20
11.5812935975
 10
-14.1528928085
 20
11.5956862128
 10
-14.1578087026
 20
11.6102206848
 10
-14.1622946904
 20
11.6249040451
 10
-14.166346434
 20
11.6397433256
 10
-14.1699595955
 20
11.6547455581
 10
-14.173129837
 20
11.6699177742
  0
LWPOLYLINE
  5
34E
100
AcDbEntity
  8
0
100
AcDbPolyline
 62
253
  6
CONTINUOUS
 90
33
 70
0
 10
-11.0430746753
 20
14.1041902735
 10
-11.0568391689
 20
14.108117604
 10
-11.0706667828
 20
14.1117206265
 10
-11.0845573331
 20
14.115003717
 10
-11.0985106358
 20
14.1179712513
 10
-11.112526507
 20
14.1206276054
 10
-11.1266042451
 20
14.1229763859
 10
-11.1407410775
 20
14.1250181229
 10
-11.154933714
 20
14.1267525773
 10
-11.1691788643
 20
14.12817951
 10
-11.1834732381
 20
14.1292986819
 10
-11.1978135401
 20
14.1301095993
 10
-11.2121964544
 20
14.1306107508
 10
-11.2266186602
 20
14.1308003705
 10
-11.2410768365
 20
14.1306766925
 10
-11.2555676625
 20
14.1302379507
 10
-11.2676662206
 20
14.1296296558
 10
-11.2797851734
 20
14.1287959441
 10
-11.2919245488
 20
14.1277314192
 10
-11.3040843744
 20
14.126430685
 10
-11.3162646777
 20
14.124888345
 10
-11.3284654866
 20
14.1230990031
 10
-11.3406857011
 20
14.121058545
 10
-11.3529197111
 20
14.1187679847
 10
-11.3651607793
 20
14.1162296183
 10
-11.377402168
 20
14.1134457419
 10
-11.3896371398
 20
14.1104186515
 10
-11.401858957
 20
14.1071506432
 10
-11.4165018408
 20
14.1029158548
 10
-11.4311257584
 20
14.0983510207
 10
-11.4457403881
 20
14.0934697104
 10
-11.4603554084
 20
14.0882854937
 10
-11.4749804976
 20
14.0828119402
  0
LWPOLYLINE
  5
34F
100
AcDbEntity
  8
0
100
AcDbPolyline
 62
253
  6
CONTINUOUS
 90
43
 70
0
 10
-12.974109626
 20
10.8863983299
 10
-12.9481557037
 20
10.8906764682
 10
-12.9224519784
 20
10.8956655713
 10
-12.8969898893
 20
10.901376583
 10
-12.8717608761
 20
10.9078204471
 10
-12.8467563781
 20
10.9150081075
 10
-12.8219678349
 20
10.9229505078
 10
-12.7973927636
 20
10.9316537661
 10
-12.7730529924
 20
10.9411046968
 10
-12.7489764274
 20
10.9512852889
 10
-12.7251909746
 20
10.9621775309
 10
-12.7017245398
 20
10.9737634118
 10
-12.6786050291
 20
10.9860249201
 10
-12.6558584329
 20
10.9989453815
 10
-12.63350308
 20
11.0125134686
 10
-12.6115553836
 20
11.0267191908
 10
-12.5900317568
 20
11.0415525575
 10
-12.5689486128
 20
11.0570035781
 10
-12.5483223648
 20
11.0730622621
 10
-12.5281700224
 20
11.0897179946
 10
-12.5085109811
 20
11.1069576641
 10
-12.4893652327
 20
11.1247675348
 10
-12.4707527692
 20
11.1431338709
 10
-12.4526935823
 20
11.1620429366
 10
-12.435207664
 20
11.1814809961
 10
-12.4183129072
 20
11.2014335559
 10
-12.4020188092
 20
11.2218830907
 10
-12.3863327684
 20
11.2428113179
 10
-12.3712621832
 20
11.2641999543
 10
-12.3568144518
 20
11.2860307171
 10
-12.3429969727
 20
11.3082853234
 10
-12.3298181946
 20
11.3309435155
 10
-12.3172907671
 20
11.3539771366
 10
-12.3054283902
 20
11.3773560553
 10
-12.2942447638
 20
11.4010501399
 10
-12.283753588
 20
11.4250292591
 10
-12.2739685626
 20
11.4492632812
 10
-12.264902186
 20
11.4737291261
 10
-12.2565621496
 20
11.4984319191
 10
-12.2489549431
 20
11.5233838371
 10
-12.2420870563
 20
11.5485970567
 10
-12.2359649789
 20
11.5740837546
 10
-12.2305952006
 20
11.5998561075
  0
LINE
  5
350
100
AcDbEntity
  8
0
100
AcDbLine
 62
253
  6
CONTINUOUS
 10
-13.0277671247
 20
10.8793074966
 11
-12.974109626
 21
10.8863983299
  0
LINE
  5
351
100
AcDbEntity
  8
0
100
AcDbLine
 62
253
  6
CONTINUOUS
 10
-13.0280484484
 20
14.1764391624
 11
-13.1124337892
 21
14.1860699957
  0
LINE
  5
352
100
AcDbEntity
  8
0
100
AcDbLine
 62
253
  6
CONTINUOUS
 10
-13.1124337892
 20
13.8161824958
 11
-13.0293193468
 21
13.8053169403
  0
LINE
  5
353
100
AcDbEntity
  8
0
100
AcDbLine
 62
253
  6
CONTINUOUS
 10
-12.9744262262
 20
14.1693130513
 11
-13.0280484484
 21
14.1764391624
  0
LWPOLYLINE
  5
354
100
AcDbEntity
  8
0
100
AcDbPolyline
 62
253
  6
CONTINUOUS
 90
43
 70
0
 10
-13.0293193468
 20
13.8053169403
 10
-13.0139960571
 20
13.8027923304
 10
-12.9988293572
 20
13.7998169839
 10
-12.9838130918
 20
13.7963965517
 10
-12.968941106
 20
13.7925366848
 10
-12.9542072445
 20
13.7882430343
 10
-12.9396053523
 20
13.7835212511
 10
-12.9251327814
 20
13.7783771348
 10
-12.9108009124
 20
13.7728170788
 10
-12.8966246333
 20
13.7668476251
 10
-12.8826188321
 20
13.7604753156
 10
-12.8687983965
 20
13.7537066921
 10
-12.8551782146
 20
13.7465482967
 10
-12.8417726882
 20
13.7390061575
 10
-12.8285942758
 20
13.7310842474
 10
-12.8156549499
 20
13.7227860254
 10
-12.8029666828
 20
13.7141149507
 10
-12.7905414472
 20
13.7050744823
 10
-12.7783912153
 20
13.6956680792
 10
-12.7665276775
 20
13.6859002532
 10
-12.7549613944
 20
13.6757797256
 10
-12.7437026446
 20
13.6653162706
 10
-12.7327617067
 20
13.6545196622
 10
-12.722148859
 20
13.6433996744
 10
-12.7118743801
 20
13.6319660813
 10
-12.701947503
 20
13.6202288748
 10
-12.6923732793
 20
13.6081989187
 10
-12.6831557149
 20
13.5958872948
 10
-12.674298816
 20
13.5833050847
 10
-12.6658065885
 20
13.5704633703
 10
-12.6576830386
 20
13.5573732332
 10
-12.6499328719
 20
13.5440467462
 10
-12.6425635931
 20
13.5304999463
 10
-12.6355834067
 20
13.5167498617
 10
-12.629000517
 20
13.5028135202
 10
-12.6228231284
 20
13.48870795
 10
-12.6170594453
 20
13.4744501791
 10
-12.6117170343
 20
13.4600532202
 10
-12.6068009112
 20
13.4455140251
 10
-12.6023154541
 20
13.4308255299
 10
-12.5982650408
 20
13.415980671
 10
-12.5946540494
 20
13.4009723846
 10
-12.591486858
 20
13.3857936071
  0
LWPOLYLINE
  5
355
100
AcDbEntity
  8
0
100
AcDbPolyline
 62
253
  6
CONTINUOUS
 90
31
 70
0
 10
-9.187393056
 20
14.1125863847
 10
-9.1996593266
 20
14.1152786794
 10
-9.2118905544
 20
14.1177262102
 10
-9.2241066223
 20
14.1199321973
 10
-9.2363274131
 20
14.1218998606
 10
-9.2485728099
 20
14.1236324201
 10
-9.2608626954
 20
14.1251330958
 10
-9.2732169524
 20
14.1264051077
 10
-9.2856508893
 20
14.1274500559
 10
-9.2981615152
 20
14.1282630605
 10
-9.310741265
 20
14.128837622
 10
-9.3233825733
 20
14.1291672405
 10
-9.3360778747
 20
14.1292454163
 10
-9.3488196039
 20
14.1290656497
 10
-9.3616001955
 20
14.1286214411
 10
-9.3728091214
 20
14.1280108651
 10
-9.3840367981
 20
14.1271893426
 10
-9.3952780144
 20
14.1261533673
 10
-9.4065275593
 20
14.1248994325
 10
-9.4177802216
 20
14.1234240316
 10
-9.4290307903
 20
14.1217236582
 10
-9.4402740542
 20
14.1197948057
 10
-9.4515048022
 20
14.1176339675
 10
-9.4627201694
 20
14.1152386429
 10
-9.4739266753
 20
14.1126103548
 10
-9.4851331857
 20
14.1097516317
 10
-9.4963485661
 20
14.1066650024
 10
-9.5075816823
 20
14.1033529955
 10
-9.5188414
 20
14.0998181397
 10
-9.5301365848
 20
14.0960629636
 10
-9.5414761025
 20
14.0920899958
  0
LWPOLYLINE
  5
356
100
AcDbEntity
  8
0
100
AcDbPolyline
 62
253
  6
CONTINUOUS
 90
22
 70
0
 10
-13.0293193468
 20
11.2501122187
 10
-13.0627343546
 20
11.2453552704
 10
-13.0961791807
 20
11.2410809682
 10
-13.1296586371
 20
11.2372873406
 10
-13.163177536
 20
11.2339724161
 10
-13.1967406894
 20
11.231134223
 10
-13.2303529095
 20
11.2287707898
 10
-13.2640190083
 20
11.2268801449
 10
-13.2977404495
 20
11.225460693
 10
-13.3315053028
 20
11.2245123444
 10
-13.3652982894
 20
11.2240353857
 10
-13.3991041306
 20
11.2240301034
 10
-13.4329075475
 20
11.2244967842
 10
-13.4666932613
 20
11.2254357145
 10
-13.5004459934
 20
11.226847181
 10
-13.534153794
 20
11.2287318483
 10
-13.5678180303
 20
11.2310918936
 10
-13.6014433985
 20
11.2339298719
 10
-13.6350345948
 20
11.2372483384
 10
-13.6685963155
 20
11.2410498483
 10
-13.7021332568
 20
11.2453369567
 10
-13.7356501149
 20
11.2501122187
  0
LWPOLYLINE
  5
357
100
AcDbEntity
  8
ASSI
100
AcDbPolyline
 62
253
  6
CONTINUOUS
 90
13
 70
0
 10
21.3342871322
 20
22.0700360412
 10
21.3338189261
 20
22.068271695
 10
21.3333523946
 20
22.0657891874
 10
21.3328875375
 20
22.06259032
 10
21.3324240284
 20
22.058677422
 10
21.3319621938
 20
22.0540533179
 10
21.3315030132
 20
22.0487213077
 10
21.3310464816
 20
22.0426851979
 10
21.330592604
 20
22.0359493577
 10
21.3301423744
 20
22.0285186884
 10
21.3296958079
 20
22.0203985815
 10
21.3292528894
 20
22.0115948737
 10
21.3283808536
 20
21.9919624397
  0
LWPOLYLINE
  5
358
100
AcDbEntity
  8
ASSI
100
AcDbPolyline
 62
253
  6
CONTINUOUS
 90
11
 70
0
 10
21.7832682361
 20
-9.4774077307
 10
21.7824542905
 20
-9.4777118434
 10
21.7811296031
 20
-9.4780156448
 10
21.7792955298
 20
-9.4783188239
 10
21.7769539486
 20
-9.4786210701
 10
21.7741072566
 20
-9.4789220742
 10
21.7707583681
 20
-9.479221528
 10
21.7669107117
 20
-9.4795191248
 10
21.7625682266
 20
-9.4798145601
 10
21.7577353584
 20
-9.4801075313
 10
21.7524170548
 20
-9.4803977385
  0
LWPOLYLINE
  5
359
100
AcDbEntity
  8
0
100
AcDbPolyline
 62
253
  6
CONTINUOUS
 90
43
 70
0
 10
-13.7908245593
 20
14.1693130513
 10
-13.8167909836
 20
14.1650051512
 10
-13.8424993754
 20
14.1599291362
 10
-13.8679612177
 20
14.1540933798
 10
-13.8931879933
 20
14.1475062555
 10
-13.9181911852
 20
14.1401761367
 10
-13.9429822764
 20
14.132111397
 10
-13.9675660612
 20
14.1233211279
 10
-13.9919205794
 20
14.113817294
 10
-14.0160171823
 20
14.1036125777
 10
-14.0398272212
 20
14.0927196616
 10
-14.0633220471
 20
14.0811512283
 10
-14.0864730114
 20
14.0689199604
 10
-14.1092530613
 20
14.0560374471
 10
-14.1316415277
 20
14.042510905
 10
-14.1536193375
 20
14.0283464571
 10
-14.1751674177
 20
14.0135502267
 10
-14.1962666953
 20
13.9981283369
 10
-14.2168980972
 20
13.9820869109
 10
-14.237042814
 20
13.9654338542
 10
-14.2566830909
 20
13.9481842014
 10
-14.2758014371
 20
13.9303547695
 10
-14.2943803616
 20
13.9119623754
 10
-14.3124023732
 20
13.8930238362
 10
-14.329849981
 20
13.8735559688
 10
-14.3467074777
 20
13.853575896
 10
-14.362966291
 20
13.8331019638
 10
-14.3786196324
 20
13.8121528238
 10
-14.3936607131
 20
13.7907471278
 10
-14.4080827447
 20
13.7689035277
 10
-14.4218789385
 20
13.746640675
 10
-14.4350413086
 20
13.7239790425
 10
-14.4475570796
 20
13.700946386
 10
-14.4594122788
 20
13.677572282
 10
-14.4705929335
 20
13.6538863072
 10
-14.4810850708
 20
13.6299180383
 10
-14.4908747182
 20
13.605697052
 10
-14.499949112
 20
13.5812459799
 10
-14.5083003249
 20
13.5565596746
 10
-14.5159216386
 20
13.5316260438
 10
-14.5228063351
 20
13.5064329949
 10
-14.5289476962
 20
13.4809684357
 10
-14.5343390036
 20
13.4552202737
  0
LINE
  5
35A
100
AcDbEntity
  8
0
100
AcDbLine
 62
253
  6
CONTINUOUS
 10
-13.7368848371
 20
14.1764391624
 11
-13.7908245593
 21
14.1693130513
  0
LINE
  5
35B
100
AcDbEntity
  8
0
100
AcDbLine
 62
253
  6
CONTINUOUS
 10
-13.7353326149
 20
13.8053169403
 11
-13.6525003927
 21
13.8161824958
  0
LINE
  5
35C
100
AcDbEntity
  8
0
100
AcDbLine
 62
253
  6
CONTINUOUS
 10
-13.6525003927
 20
14.1860699957
 11
-13.7368848371
 21
14.1764391624
  0
LWPOLYLINE
  5
35D
100
AcDbEntity
  8
0
100
AcDbPolyline
 62
253
  6
CONTINUOUS
 90
95
 70
0
 10
-13.6525003927
 20
13.8161824958
 10
-13.6510674094
 20
13.8163252803
 10
-13.6496778462
 20
13.816704065
 10
-13.6483274027
 20
13.8172769661
 10
-13.6470117783
 20
13.8180020998
 10
-13.6457266724
 20
13.8188375824
 10
-13.6436447018
 20
13.8203939537
 10
-13.6416380535
 20
13.8221412347
 10
-13.6397092222
 20
13.8240801544
 10
-13.6378608386
 20
13.8262084297
 10
-13.6360960784
 20
13.8285117295
 10
-13.6344182532
 20
13.8309727102
 10
-13.6328272036
 20
13.8335760449
 10
-13.6313088849
 20
13.8363144714
 10
-13.6298457813
 20
13.8391827442
 10
-13.6284239134
 20
13.8421770611
 10
-13.6270434467
 20
13.8452993954
 10
-13.6257080835
 20
13.8485531637
 10
-13.6244211962
 20
13.8519415732
 10
-13.6231848392
 20
13.8554669917
 10
-13.6220007374
 20
13.8591315776
 10
-13.6208702271
 20
13.8629382045
 10
-13.61979309
 20
13.866892608
 10
-13.6187687191
 20
13.8710012393
 10
-13.6177959477
 20
13.8752698647
 10
-13.6168713704
 20
13.8797015115
 10
-13.6159910221
 20
13.8842985223
 10
-13.6151509959
 20
13.8890641244
 10
-13.6143476185
 20
13.8940050849
 10
-13.613577275
 20
13.8991290556
 10
-13.6128376473
 20
13.9044446238
 10
-13.6121316048
 20
13.9099641195
 10
-13.6114633141
 20
13.9157008079
 10
-13.6108367414
 20
13.9216676394
 10
-13.6102550535
 20
13.9278763045
 10
-13.6097212171
 20
13.9343381785
 10
-13.6093541187
 20
13.9393574645
 10
-13.6090174067
 20
13.9445295925
 10
-13.6087128821
 20
13.9498585759
 10
-13.6084423459
 20
13.9553484278
 10
-13.6082073555
 20
13.9609964665
 10
-13.6080084934
 20
13.9667732305
 10
-13.6078460986
 20
13.9726425632
 10
-13.6077205098
 20
13.9785683079
 10
-13.6076098162
 20
13.9864982601
 10
-13.607559472
 20
13.9944007172
 10
-13.6075637911
 20
14.0022121747
 10
-13.6076181276
 20
14.0098754211
 10
-13.607721996
 20
14.0173584181
 10
-13.6078759513
 20
14.0246354209
 10
-13.6080802635
 20
14.0316886224
 10
-13.6083340641
 20
14.0385319666
 10
-13.6086361999
 20
14.0451873357
 10
-13.608985554
 20
14.0516735303
 10
-13.609381155
 20
14.0579970255
 10
-13.6098220675
 20
14.0641612153
 10
-13.6103073067
 20
14.0701689691
 10
-13.6108356881
 20
14.0760210594
 10
-13.6114059774
 20
14.081717734
 10
-13.6120166847
 20
14.0872598714
 10
-13.6126652966
 20
14.0926508721
 10
-13.6133490438
 20
14.0978947667
 10
-13.614066023
 20
14.1029955556
 10
-13.6148177945
 20
14.1079571162
 10
-13.6156067846
 20
14.1127832954
 10
-13.6164359036
 20
14.1174771951
 10
-13.617309999
 20
14.1220389383
 10
-13.6182344024
 20
14.1264679029
 10
-13.6192136535
 20
14.1307635401
 10
-13.6202491248
 20
14.1349255949
 10
-13.6213413968
 20
14.1389538852
 10
-13.6224909082
 20
14.142848815
 10
-13.6236975315
 20
14.1466131316
 10
-13.6249609973
 20
14.1502501682
 10
-13.6259455841
 20
14.1528960915
 10
-13.6269609587
 20
14.1554717106
 10
-13.6280057763
 20
14.1579765716
 10
-13.6290774521
 20
14.1604107419
 10
-13.6301743752
 20
14.1627740548
 10
-13.6313000709
 20
14.1650648861
 10
-13.6324601779
 20
14.1672808745
 10
-13.6336636517
 20
14.1694181675
 10
-13.6353499194
 20
14.1721374734
 10
-13.6371374612
 20
14.1746951511
 10
-13.63903306
 20
14.177076987
 10
-13.640528182
 20
14.1787390184
 10
-13.6420813453
 20
14.1802857527
 10
-13.6436859396
 20
14.1817105548
 10
-13.6453351367
 20
14.1830138133
 10
-13.6464572987
 20
14.1838118122
 10
-13.6476020862
 20
14.1845311303
 10
-13.6487753604
 20
14.1851461528
 10
-13.6499820816
 20
14.1856298094
 10
-13.6512236069
 20
14.1859492068
 10
-13.6525003927
 20
14.1860699957
  0
LWPOLYLINE
  5
35E
100
AcDbEntity
  8
0
100
AcDbPolyline
 62
253
  6
CONTINUOUS
 90
97
 70
0
 10
-13.1124337892
 20
14.1860699957
 10
-13.1135999508
 20
14.1859696705
 10
-13.1147380884
 20
14.1857030036
 10
-13.1158501202
 20
14.1852941705
 10
-13.1174701224
 20
14.1844676493
 10
-13.1190304136
 20
14.1834565067
 10
-13.1205528442
 20
14.1823199846
 10
-13.1220446122
 20
14.1810770996
 10
-13.1234968775
 20
14.179731975
 10
-13.1249052044
 20
14.1782859334
 10
-13.1267110514
 20
14.1762041857
 10
-13.1284329934
 20
14.1739567036
 10
-13.1300697092
 20
14.1715554278
 10
-13.1316227559
 20
14.1690115738
 10
-13.1331052049
 20
14.1663334555
 10
-13.1345330061
 20
14.1635286616
 10
-13.1359193833
 20
14.1606030314
 10
-13.1372666562
 20
14.1575554079
 10
-13.1385744185
 20
14.1543828845
 10
-13.1398418677
 20
14.1510825336
 10
-13.1410666175
 20
14.1476513413
 10
-13.1422458857
 20
14.1440862721
 10
-13.1433773762
 20
14.1403838348
 10
-13.1444607379
 20
14.136538714
 10
-13.145496106
 20
14.1325451382
 10
-13.1464838507
 20
14.1283976606
 10
-13.1474252818
 20
14.1240921327
 10
-13.1483219443
 20
14.1196247305
 10
-13.1491760408
 20
14.1149913742
 10
-13.1499924047
 20
14.1101869613
 10
-13.1507765272
 20
14.1052061334
 10
-13.1515325081
 20
14.1000425005
 10
-13.1522588828
 20
14.0946855455
 10
-13.1529527952
 20
14.0891237198
 10
-13.1536114152
 20
14.0833452592
 10
-13.1542320156
 20
14.0773375383
 10
-13.154811895
 20
14.0710877163
 10
-13.1552183986
 20
14.0662333857
 10
-13.1555989908
 20
14.06122807
 10
-13.1559521856
 20
14.0560641887
 10
-13.1562764967
 20
14.0507341616
 10
-13.1565703325
 20
14.0452359361
 10
-13.1568316789
 20
14.0395895703
 10
-13.1570584166
 20
14.0338206502
 10
-13.1572484261
 20
14.0279547616
 10
-13.1574426579
 20
14.0200302802
 10
-13.157572894
 20
14.0120594694
 10
-13.157644201
 20
14.0041229022
 10
-13.1576609899
 20
13.9962945574
 10
-13.1576250483
 20
13.988622037
 10
-13.1575375082
 20
13.9811463489
 10
-13.1573992268
 20
13.9738985924
 10
-13.1572099642
 20
13.9668702341
 10
-13.1569692057
 20
13.9600428319
 10
-13.1566765999
 20
13.9533993855
 10
-13.1563324483
 20
13.9469286607
 10
-13.1559372154
 20
13.9406208649
 10
-13.1554915406
 20
13.934468241
 10
-13.1549967623
 20
13.928471174
 10
-13.1544543939
 20
13.9226320846
 10
-13.1538660857
 20
13.9169522949
 10
-13.1532340367
 20
13.9114287347
 10
-13.1525605829
 20
13.9060572352
 10
-13.1518478021
 20
13.900833594
 10
-13.1510967386
 20
13.8957534735
 10
-13.1503081784
 20
13.8908125021
 10
-13.1494815475
 20
13.8860070136
 10
-13.148610832
 20
13.8813361631
 10
-13.1476886578
 20
13.8767998106
 10
-13.1467086184
 20
13.8723981536
 10
-13.1456681779
 20
13.8681327376
 10
-13.1445657678
 20
13.8640054455
 10
-13.143399981
 20
13.8600172105
 10
-13.1421700555
 20
13.8561651692
 10
-13.1408753908
 20
13.8524455083
 10
-13.1398617913
 20
13.8497408257
 10
-13.1388126566
 20
13.8471097465
 10
-13.1377294259
 20
13.8445533398
 10
-13.136614421
 20
13.8420718139
 10
-13.1354695117
 20
13.8396653226
 10
-13.1342938778
 20
13.8373346618
 10
-13.1330844386
 20
13.8350811754
 10
-13.1318317608
 20
13.8329077568
 10
-13.1305266311
 20
13.8308191181
 10
-13.129167069
 20
13.8288256965
 10
-13.1277516366
 20
13.8269371911
 10
-13.1262738338
 20
13.825154623
 10
-13.1247282236
 20
13.8234788132
 10
-13.1231186829
 20
13.8219184608
 10
-13.1214546879
 20
13.820485528
 10
-13.1197551142
 20
13.8191915942
 10
-13.1180194249
 20
13.8180399664
 10
-13.1171285223
 20
13.8175328598
 10
-13.1162215834
 20
13.8170870832
 10
-13.1149893763
 20
13.8166114181
 10
-13.1137281387
 20
13.8162996783
 10
-13.1124337892
 20
13.8161824958
  0
LWPOLYLINE
  5
35F
100
AcDbEntity
  8
ASSI
100
AcDbPolyline
 62
253
  6
CONTINUOUS
 90
13
 70
0
 10
21.7832682361
 20
9.5035922693
 10
21.7824542906
 20
9.5038963821
 10
21.7811296031
 20
9.5042001835
 10
21.7792955299
 20
9.5045033625
 10
21.7769539486
 20
9.5048056088
 10
21.7741072566
 20
9.5051066129
 10
21.7707583682
 20
9.5054060666
 10
21.7669107118
 20
9.5057036635
 10
21.7625682267
 20
9.5059990987
 10
21.7577353584
 20
9.5062920699
 10
21.7524170549
 20
9.5065822771
 10
21.7466187609
 20
9.5068694232
 10
21.733606431
 20
9.5074333597
  0
LWPOLYLINE
  5
360
100
AcDbEntity
  8
ASSI
100
AcDbPolyline
 62
253
  6
CONTINUOUS
 90
16
 70
0
 10
21.827223738
 20
-21.4943604293
 10
21.8276473419
 20
-21.5000936968
 10
21.828076472
 20
-21.5055035735
 10
21.8285102013
 20
-21.5105783658
 10
21.8289485392
 20
-21.5153173442
 10
21.8293914764
 20
-21.5197212382
 10
21.8298380581
 20
-21.5237805426
 10
21.8302882939
 20
-21.5274945204
 10
21.8307421743
 20
-21.5308639086
 10
21.8311987165
 20
-21.5338814122
 10
21.8316579394
 20
-21.5365462861
 10
21.832119824
 20
-21.5388592754
 10
21.8325833309
 20
-21.5408153209
 10
21.8330481135
 20
-21.5424127362
 10
21.8335145185
 20
-21.5436532076
 10
21.8339825457
 20
-21.5445367352
  0
LINE
  5
361
100
AcDbEntity
  8
ASSI
100
AcDbLine
 62
253
  6
CONTINUOUS
 10
21.8263931331
 20
-21.4819223239
 11
21.827223738
 21
-21.4943604293
  0
LINE
  5
362
100
AcDbEntity
  8
ASSI
100
AcDbLine
 62
253
  6
CONTINUOUS
 10
21.8255873189
 20
-21.4682313573
 11
21.8263931331
 21
-21.4819223239
  0
LWPOLYLINE
  5
363
100
AcDbEntity
  8
ASSI
100
AcDbPolyline
 62
253
  6
CONTINUOUS
 90
11
 70
0
 10
21.3296958079
 20
-21.9942140428
 10
21.3301423744
 20
-22.0023341498
 10
21.330592604
 20
-22.009764819
 10
21.3310464816
 20
-22.0165006592
 10
21.3315030132
 20
-22.022536769
 10
21.3319621938
 20
-22.0278687793
 10
21.3324240284
 20
-22.0324928833
 10
21.3328875375
 20
-22.0364057814
 10
21.3333523946
 20
-22.0396046487
 10
21.3338189261
 20
-22.0420871564
 10
21.3342871322
 20
-22.0438515026
  0
LINE
  5
364
100
AcDbEntity
  8
ASSI
100
AcDbLine
 62
253
  6
CONTINUOUS
 10
21.8248080353
 20
-21.4533171197
 11
21.8255873189
 21
-21.4682313573
  0
LINE
  5
365
100
AcDbEntity
  8
ASSI
100
AcDbLine
 62
253
  6
CONTINUOUS
 10
21.3288145689
 20
-21.9759293486
 11
21.3296958079
 21
-21.9942140428
  0
LWPOLYLINE
  5
366
100
AcDbEntity
  8
ASSI
100
AcDbPolyline
 62
253
  6
CONTINUOUS
 90
3
 70
0
 10
21.8236944531
 20
-21.4287580588
 10
21.8240578473
 20
-21.4372264251
 10
21.8248080353
 20
-21.4533171197
  0
LINE
  5
367
100
AcDbEntity
  8
ASSI
100
AcDbLine
 62
253
  6
CONTINUOUS
 10
21.3279517362
 20
-21.9549633234
 11
21.3288145689
 21
-21.9759293486
  0
LINE
  5
368
100
AcDbEntity
  8
ASSI
100
AcDbLine
 62
253
  6
CONTINUOUS
 10
21.3271100938
 20
-21.9313764914
 11
21.3279517362
 21
-21.9549633234
  0
LINE
  5
369
100
AcDbEntity
  8
ASSI
100
AcDbLine
 62
253
  6
CONTINUOUS
 10
21.3258917824
 20
-21.8912330855
 11
21.3271100938
 21
-21.9313764914
  0
LINE
  5
36A
100
AcDbEntity
  8
ASSI
100
AcDbLine
 62
253
  6
CONTINUOUS
 10
21.3243623624
 20
-21.8292319188
 11
21.3258917824
 21
-21.8912330855
  0
LINE
  5
36B
100
AcDbEntity
  8
ASSI
100
AcDbLine
 62
253
  6
CONTINUOUS
 10
21.3236436818
 20
-21.7947976172
 11
21.3243623624
 21
-21.8292319188
  0
LINE
  5
36C
100
AcDbEntity
  8
ASSI
100
AcDbLine
 62
253
  6
CONTINUOUS
 10
21.3251125249
 20
21.8875924935
 11
21.3236436818
 21
21.8209821559
  0
LINE
  5
36D
100
AcDbEntity
  8
ASSI
100
AcDbLine
 62
253
  6
CONTINUOUS
 10
21.3262914606
 20
21.9314214292
 11
21.3251125249
 21
21.8875924935
  0
LINE
  5
36E
100
AcDbEntity
  8
ASSI
100
AcDbLine
 62
253
  6
CONTINUOUS
 10
21.3275281453
 20
21.9696779681
 11
21.3262914606
 21
21.9314214292
  0
LINE
  5
36F
100
AcDbEntity
  8
ASSI
100
AcDbLine
 62
253
  6
CONTINUOUS
 10
21.3283808536
 20
21.9919624397
 11
21.3275281453
 21
21.9696779681
  0
LINE
  5
370
100
AcDbEntity
  8
ASSI
100
AcDbLine
 62
253
  6
CONTINUOUS
 10
21.8244293084
 20
21.4716032113
 11
21.8236944531
 21
21.4549425974
  0
LINE
  5
371
100
AcDbEntity
  8
ASSI
100
AcDbLine
 62
253
  6
CONTINUOUS
 10
21.8251940441
 20
21.4871056774
 11
21.8244293084
 21
21.4716032113
  0
LINE
  5
372
100
AcDbEntity
  8
ASSI
100
AcDbLine
 62
253
  6
CONTINUOUS
 10
21.8259870106
 20
21.5014165142
 11
21.8251940441
 21
21.4871056774
  0
LINE
  5
373
100
AcDbEntity
  8
ASSI
100
AcDbLine
 62
7
  6
CONTINUOUS
 10
18.668270565
 20
22.2213302099
 11
18.320051891
 21
22.1897213783
  0
LINE
  5
374
100
AcDbEntity
  8
ASSI
100
AcDbLine
 62
253
  6
CONTINUOUS
 10
21.3179356765
 20
21.2204886889
 11
-22.0933019483
 21
21.2204886889
  0
LINE
  5
375
100
AcDbEntity
  8
ASSI
100
AcDbLine
 62
7
  6
CONTINUOUS
 10
-19.4436368368
 20
22.2213302099
 11
-19.0954181628
 21
22.1897213783
  0
LINE
  5
376
100
AcDbEntity
  8
ASSI
100
AcDbLine
 62
253
  6
CONTINUOUS
 10
21.8226534724
 20
-21.4017139286
 11
21.8236944531
 21
-21.4287580588
  0
LINE
  5
377
100
AcDbEntity
  8
ASSI
100
AcDbLine
 62
253
  6
CONTINUOUS
 10
21.8216918415
 20
-21.3723602346
 11
21.8226534724
 21
-21.4017139286
  0
LINE
  5
378
100
AcDbEntity
  8
ASSI
100
AcDbLine
 62
253
  6
CONTINUOUS
 10
21.8208157837
 20
-21.3408871473
 11
21.8216918415
 21
-21.3723602346
  0
LINE
  5
379
100
AcDbEntity
  8
ASSI
100
AcDbLine
 62
253
  6
CONTINUOUS
 10
21.8197906124
 20
-21.295983352
 11
21.8208157837
 21
-21.3408871473
  0
LWPOLYLINE
  5
37A
100
AcDbEntity
  8
ASSI
100
AcDbPolyline
 62
253
  6
CONTINUOUS
 90
43
 70
0
 10
21.7801249709
 20
-0.3823717374
 10
21.7799474767
 20
-0.3730261048
 10
21.7794209314
 20
-0.3636935378
 10
21.7785460712
 20
-0.3543870838
 10
21.7773241191
 20
-0.3451197538
 10
21.7757567836
 20
-0.3359045039
 10
21.7738462558
 20
-0.3267542174
 10
21.7715952067
 20
-0.317681687
 10
21.7690067835
 20
-0.3086995964
 10
21.7660846048
 20
-0.2998205031
 10
21.762832756
 20
-0.2910568204
 10
21.7592557835
 20
-0.2824208005
 10
21.7553586879
 20
-0.2739245169
 10
21.7511469175
 20
-0.2655798477
 10
21.7466263608
 20
-0.2573984594
 10
21.7418033375
 20
-0.2493917898
 10
21.7366845906
 20
-0.2415710326
 10
21.7312772764
 20
-0.2339471217
 10
21.7255889544
 20
-0.2265307157
 10
21.7196275773
 20
-0.2193321829
 10
21.7134014794
 20
-0.2123615874
 10
21.7069193651
 20
-0.2056286744
 10
21.7001902966
 20
-0.1991428567
 10
21.6932236815
 20
-0.1929132019
 10
21.6860292596
 20
-0.1869484193
 10
21.678617089
 20
-0.181256848
 10
21.6709975322
 20
-0.175846445
 10
21.6631812417
 20
-0.1707247743
 10
21.6551791452
 20
-0.1658989964
 10
21.6470024299
 20
-0.1613758577
 10
21.6386625273
 20
-0.157161682
 10
21.630171097
 20
-0.1532623608
 10
21.6215400103
 20
-0.1496833455
 10
21.612781334
 20
-0.1464296397
 10
21.6039073132
 20
-0.1435057924
 10
21.594930354
 20
-0.1409158911
 10
21.5858630068
 20
-0.1386635567
 10
21.5767179482
 20
-0.136751938
 10
21.5675079633
 20
-0.1351837076
 10
21.5582459282
 20
-0.1339610578
 10
21.5489447916
 20
-0.1330856981
 10
21.5396175569
 20
-0.1325588522
 10
21.5302772641
 20
-0.1323812567
  0
LWPOLYLINE
  5
37B
100
AcDbEntity
  8
ASSI
100
AcDbPolyline
 62
253
  6
CONTINUOUS
 90
49
 70
0
 10
21.8339825457
 20
21.5707212739
 10
21.8336857965
 20
21.5870394316
 10
21.8328555216
 20
21.603340156
 10
21.8314926079
 20
21.6196060326
 10
21.8295985116
 20
21.6358196838
 10
21.8271752562
 20
21.651963788
 10
21.8242254304
 20
21.668021098
 10
21.8207521858
 20
21.6839744591
 10
21.8167592328
 20
21.6998068277
 10
21.8122508373
 20
21.7155012896
 10
21.8072318159
 20
21.7310410777
 10
21.8017075304
 20
21.7464095904
 10
21.7956838827
 20
21.761590409
 10
21.789167308
 20
21.7765673151
 10
21.7821647683
 20
21.7913243085
 10
21.7746837446
 20
21.8058456236
 10
21.7667322292
 20
21.820115747
 10
21.7583187169
 20
21.8341194331
 10
21.7494521961
 20
21.8478417215
 10
21.7401421394
 20
21.861267952
 10
21.730398493
 20
21.874383781
 10
21.7202316664
 20
21.8871751963
 10
21.7096525211
 20
21.8996285323
 10
21.6986723593
 20
21.9117304848
 10
21.6873029114
 20
21.9234681248
 10
21.6755563239
 20
21.9348289125
 10
21.6634451461
 20
21.9458007108
 10
21.6509823166
 20
21.956371798
 10
21.6381811502
 20
21.9665308808
 10
21.6250553226
 20
21.9762671057
 10
21.6116188568
 20
21.9855700713
 10
21.5978861073
 20
21.9944298388
 10
21.5838717454
 20
22.002836943
 10
21.5695907431
 20
22.0107824022
 10
21.5550583573
 20
22.0182577282
 10
21.5402901136
 20
22.0252549346
 10
21.5253017893
 20
22.0317665461
 10
21.5101093971
 20
22.0377856061
 10
21.4947291675
 20
22.0433056843
 10
21.4791775318
 20
22.0483208833
 10
21.4634711043
 20
22.0528258452
 10
21.4476266649
 20
22.0568157572
 10
21.4316611407
 20
22.0602863567
 10
21.4155915883
 20
22.0632339359
 10
21.3994351754
 20
22.0656553459
 10
21.3832091624
 20
22.0675479997
 10
21.3669308842
 20
22.0689098754
 10
21.3506177315
 20
22.069739518
 10
21.3342871322
 20
22.0700360412
  0
LINE
  5
37C
100
AcDbEntity
  8
ASSI
100
AcDbLine
 62
253
  6
CONTINUOUS
 10
21.8189392183
 20
-21.2481850547
 11
21.8197906124
 21
-21.295983352
  0
LINE
  5
37D
100
AcDbEntity
  8
ASSI
100
AcDbLine
 62
253
  6
CONTINUOUS
 10
21.3219964332
 20
-21.6994988422
 11
21.3236436818
 21
-21.7947976172
  0
LINE
  5
37E
100
AcDbEntity
  8
ASSI
100
AcDbLine
 62
253
  6
CONTINUOUS
 10
21.8181344995
 20
-21.185231949
 11
21.8189392183
 21
-21.2481850547
  0
LINE
  5
37F
100
AcDbEntity
  8
ASSI
100
AcDbLine
 62
253
  6
CONTINUOUS
 10
21.3200952523
 20
-21.5467453056
 11
21.3219964332
 21
-21.6994988422
  0
LINE
  5
380
100
AcDbEntity
  8
ASSI
100
AcDbLine
 62
253
  6
CONTINUOUS
 10
21.3185763372
 20
-21.3509092612
 11
21.3200952523
 21
-21.5467453056
  0
LINE
  5
381
100
AcDbEntity
  8
ASSI
100
AcDbLine
 62
253
  6
CONTINUOUS
 10
21.81763109
 20
-21.1197630591
 11
21.8181344995
 21
-21.185231949
  0
LINE
  5
382
100
AcDbEntity
  8
ASSI
100
AcDbLine
 62
7
  6
CONTINUOUS
 10
21.9360095547
 20
21.7238395771
 11
21.9623168641
 21
13.1130922693
  0
LINE
  5
383
100
AcDbEntity
  8
ASSI
100
AcDbLine
 62
253
  6
CONTINUOUS
 10
21.3179356765
 20
-21.1943041503
 11
21.3185763372
 21
-21.3509092612
  0
LINE
  5
384
100
AcDbEntity
  8
ASSI
100
AcDbLine
 62
253
  6
CONTINUOUS
 10
21.2891201999
 20
-13.4024990771
 11
21.3179356765
 21
-21.1943041503
  0
LINE
  5
385
100
AcDbEntity
  8
ASSI
100
AcDbLine
 62
253
  6
CONTINUOUS
 10
21.788815612
 20
-13.3712379327
 11
21.81763109
 21
-21.1197630591
  0
LINE
  5
386
100
AcDbEntity
  8
ASSI
100
AcDbLine
 62
253
  6
CONTINUOUS
 10
21.2818827479
 20
-6.4530150951
 11
21.2891201999
 21
-13.4024990771
  0
LINE
  5
387
100
AcDbEntity
  8
ASSI
100
AcDbLine
 62
253
  6
CONTINUOUS
 10
21.7815778738
 20
-6.445912042
 11
21.788815612
 21
-13.3712379327
  0
LINE
  5
388
100
AcDbEntity
  8
ASSI
100
AcDbLine
 62
253
  6
CONTINUOUS
 10
21.2818827479
 20
-6.4530150951
 11
21.2804296102
 21
-0.1344868189
  0
LINE
  5
389
100
AcDbEntity
  8
ASSI
100
AcDbLine
 62
253
  6
CONTINUOUS
 10
21.7801250677
 20
-0.3823717132
 11
21.7815778738
 21
-6.445912042
  0
LINE
  5
38A
100
AcDbEntity
  8
ASSI
100
AcDbLine
 62
7
  6
CONTINUOUS
 10
21.9623168641
 20
-0.3368411094
 11
21.9623168641
 21
-13.0869077307
  0
LINE
  5
38B
100
AcDbEntity
  8
ASSI
100
AcDbLine
 62
7
  6
CONTINUOUS
 10
21.9623168641
 20
0.3630256481
 11
21.9623168641
 21
13.1130922693
  0
LINE
  5
38C
100
AcDbEntity
  8
ASSI
100
AcDbLine
 62
7
  6
CONTINUOUS
 10
21.9360095547
 20
-21.6976550384
 11
21.9623168641
 21
-13.0869077307
  0
LINE
  5
38D
100
AcDbEntity
  8
ASSI
100
AcDbLine
 62
253
  6
CONTINUOUS
 10
21.2985829551
 20
16.7767018013
 11
21.2804296102
 21
0.1606713575
  0
LINE
  5
38E
100
AcDbEntity
  8
ASSI
100
AcDbLine
 62
253
  6
CONTINUOUS
 10
21.7982783689
 20
16.7268413353
 11
21.7801250677
 21
0.4085562519
  0
LINE
  5
38F
100
AcDbEntity
  8
ASSI
100
AcDbLine
 62
253
  6
CONTINUOUS
 10
21.3190594559
 20
21.4526783519
 11
21.2985829551
 21
16.7767018013
  0
LINE
  5
390
100
AcDbEntity
  8
ASSI
100
AcDbLine
 62
253
  6
CONTINUOUS
 10
21.8178962977
 20
21.1854608425
 11
21.7982783689
 21
16.7268413353
  0
LINE
  5
391
100
AcDbEntity
  8
ASSI
100
AcDbLine
 62
253
  6
CONTINUOUS
 10
21.3208484771
 20
21.6408859944
 11
21.3190594559
 21
21.4526783519
  0
LINE
  5
392
100
AcDbEntity
  8
ASSI
100
AcDbLine
 62
253
  6
CONTINUOUS
 10
21.818582027
 20
21.249567659
 11
21.8178962977
 21
21.1854608425
  0
LINE
  5
393
100
AcDbEntity
  8
ASSI
100
AcDbLine
 62
253
  6
CONTINUOUS
 10
21.3226284536
 20
21.7653153617
 11
21.3208484771
 21
21.6408859944
  0
LINE
  5
394
100
AcDbEntity
  8
ASSI
100
AcDbLine
 62
253
  6
CONTINUOUS
 10
21.8193424939
 20
21.2985960533
 11
21.818582027
 21
21.249567659
  0
LWPOLYLINE
  5
395
100
AcDbEntity
  8
ASSI
100
AcDbPolyline
 62
253
  6
CONTINUOUS
 90
49
 70
0
 10
21.8339825457
 20
-21.5445367352
 10
21.8336857965
 20
-21.5608548939
 10
21.8328555215
 20
-21.5771556192
 10
21.8314926077
 20
-21.5934214966
 10
21.8295985111
 20
-21.6096351487
 10
21.8271752554
 20
-21.6257792537
 10
21.8242254294
 20
-21.6418365644
 10
21.8207521844
 20
-21.6577899262
 10
21.8167592311
 20
-21.6736222954
 10
21.8122508352
 20
-21.6893167578
 10
21.8072318133
 20
-21.7048565465
 10
21.8017075274
 20
-21.7202250597
 10
21.7956838793
 20
-21.7354058786
 10
21.7891673041
 20
-21.750382785
 10
21.782164764
 20
-21.7651397787
 10
21.7746837398
 20
-21.779661094
 10
21.7667322239
 20
-21.7939312174
 10
21.7583187111
 20
-21.8079349037
 10
21.74945219
 20
-21.821657192
 10
21.7401421329
 20
-21.8350834225
 10
21.7303984861
 20
-21.8481992514
 10
21.7202316591
 20
-21.8609906665
 10
21.7096525135
 20
-21.8734440024
 10
21.6986723514
 20
-21.8855459546
 10
21.6873029033
 20
-21.8972835943
 10
21.6755563156
 20
-21.9086443817
 10
21.6634451375
 20
-21.9196161796
 10
21.650982308
 20
-21.9301872664
 10
21.6381811415
 20
-21.9403463488
 10
21.625055314
 20
-21.9500825733
 10
21.6116188482
 20
-21.9593855384
 10
21.5978860988
 20
-21.9682453054
 10
21.5838717371
 20
-21.9766524091
 10
21.569590735
 20
-21.9845978679
 10
21.5550583495
 20
-21.9920731934
 10
21.5402901061
 20
-21.9990703993
 10
21.5253017822
 20
-22.0055820104
 10
21.5101093903
 20
-22.01160107
 10
21.4947291612
 20
-22.0171211478
 10
21.479177526
 20
-22.0221363464
 10
21.4634710991
 20
-22.026641308
 10
21.4476266602
 20
-22.0306312196
 10
21.4316611367
 20
-22.0341018188
 10
21.4155915849
 20
-22.0370493978
 10
21.3994351726
 20
-22.0394708076
 10
21.3832091603
 20
-22.0413634613
 10
21.3669308828
 20
-22.0427253369
 10
21.3506177308
 20
-22.0435549794
 10
21.3342871322
 20
-22.0438515026
  0
LWPOLYLINE
  5
396
100
AcDbEntity
  8
ASSI
100
AcDbPolyline
 62
253
  6
CONTINUOUS
 90
43
 70
0
 10
21.7801249709
 20
0.4085562761
 10
21.7799474767
 20
0.3992106445
 10
21.7794209316
 20
0.3898780785
 10
21.7785460715
 20
0.3805716256
 10
21.7773241197
 20
0.3713042966
 10
21.7757567845
 20
0.3620890476
 10
21.7738462571
 20
0.352938762
 10
21.7715952085
 20
0.3438662324
 10
21.7690067858
 20
0.3348841427
 10
21.7660846077
 20
0.3260050501
 10
21.7628327596
 20
0.3172413681
 10
21.7592557876
 20
0.3086053487
 10
21.7553586927
 20
0.3001090656
 10
21.7511469231
 20
0.2917643969
 10
21.746626367
 20
0.2835830088
 10
21.7418033445
 20
0.2755763395
 10
21.7366845983
 20
0.2677555824
 10
21.7312772846
 20
0.2601316716
 10
21.7255889633
 20
0.2527152655
 10
21.7196275868
 20
0.2455167326
 10
21.7134014894
 20
0.2385461369
 10
21.7069193756
 20
0.2318132235
 10
21.7001903075
 20
0.2253274055
 10
21.6932236928
 20
0.2190977503
 10
21.6860292712
 20
0.2131329672
 10
21.6786171007
 20
0.2074413953
 10
21.670997544
 20
0.2020309917
 10
21.6631812536
 20
0.1969093204
 10
21.6551791569
 20
0.1920835418
 10
21.6470024414
 20
0.1875604025
 10
21.6386625385
 20
0.1833462261
 10
21.6301711078
 20
0.1794469041
 10
21.6215400206
 20
0.1758678882
 10
21.6127813437
 20
0.1726141818
 10
21.6039073221
 20
0.1696903338
 10
21.5949303621
 20
0.167100432
 10
21.585863014
 20
0.164848097
 10
21.5767179544
 20
0.1629364778
 10
21.5675079684
 20
0.161368247
 10
21.5582459321
 20
0.1601455969
 10
21.5489447942
 20
0.159270237
 10
21.5396175583
 20
0.1587433909
 10
21.5302772641
 20
0.1585657953
  0
LINE
  5
397
100
AcDbEntity
  8
ASSI
100
AcDbLine
 62
253
  6
CONTINUOUS
 10
21.3236436818
 20
21.8209821559
 11
21.3226284536
 21
21.7653153617
  0
LINE
  5
398
100
AcDbEntity
  8
ASSI
100
AcDbLine
 62
253
  6
CONTINUOUS
 10
21.8202820622
 20
21.3450095421
 11
21.8193424939
 21
21.2985960533
  0
LINE
  5
399
100
AcDbEntity
  8
ASSI
100
AcDbLine
 62
253
  6
CONTINUOUS
 10
21.8213901039
 20
21.3882816732
 11
21.8202820622
 21
21.3450095421
  0
LINE
  5
39A
100
AcDbEntity
  8
ASSI
100
AcDbLine
 62
253
  6
CONTINUOUS
 10
21.8223238816
 20
21.4183634774
 11
21.8213901039
 21
21.3882816732
  0
LWPOLYLINE
  5
39B
100
AcDbEntity
  8
ASSI
100
AcDbPolyline
 62
253
  6
CONTINUOUS
 90
3
 70
0
 10
21.8236944531
 20
21.4549425974
 10
21.8233391428
 20
21.446197506
 10
21.8223238816
 20
21.4183634774
  0
LINE
  5
39C
100
AcDbEntity
  8
ASSI
100
AcDbLine
 62
7
  6
CONTINUOUS
 10
7.468270565
 20
22.2213302099
 11
7.120051891
 21
22.1897213783
  0
LINE
  5
39D
100
AcDbEntity
  8
ASSI
100
AcDbLine
 62
7
  6
CONTINUOUS
 10
-3.831729435
 20
22.2213302099
 11
-4.179948109
 21
22.1897213783
  0
LINE
  5
39E
100
AcDbEntity
  8
ASSI
100
AcDbLine
 62
253
  6
CONTINUOUS
 10
21.3342871322
 20
22.0700360412
 11
-22.109653404
 21
22.0700360412
  0
LINE
  5
39F
100
AcDbEntity
  8
ASSI
100
AcDbLine
 62
7
  6
CONTINUOUS
 10
-18.9222130821
 20
22.1844806004
 11
-15.5531531897
 21
22.1844806004
  0
LINE
  5
3A0
100
AcDbEntity
  8
ASSI
100
AcDbLine
 62
7
  6
CONTINUOUS
 10
-7.7222130821
 20
22.1844806004
 11
-4.3531531897
 21
22.1844806004
  0
LINE
  5
3A1
100
AcDbEntity
  8
ASSI
100
AcDbLine
 62
7
  6
CONTINUOUS
 10
3.5777869179
 20
22.1844806004
 11
6.9468468103
 21
22.1844806004
  0
LINE
  5
3A2
100
AcDbEntity
  8
ASSI
100
AcDbLine
 62
7
  6
CONTINUOUS
 10
14.7777869179
 20
22.1844806004
 11
18.1468468103
 21
22.1844806004
  0
LINE
  5
3A3
100
AcDbEntity
  8
ASSI
100
AcDbLine
 62
7
  6
CONTINUOUS
 10
-22.2104649412
 20
22.2213302099
 11
-19.4436368368
 21
22.2213302099
  0
LINE
  5
3A4
100
AcDbEntity
  8
ASSI
100
AcDbLine
 62
7
  6
CONTINUOUS
 10
-15.031729435
 20
22.2213302099
 11
-8.2436368368
 21
22.2213302099
  0
LINE
  5
3A5
100
AcDbEntity
  8
ASSI
100
AcDbLine
 62
7
  6
CONTINUOUS
 10
-3.831729435
 20
22.2213302099
 11
3.0563631632
 21
22.2213302099
  0
LINE
  5
3A6
100
AcDbEntity
  8
ASSI
100
AcDbLine
 62
7
  6
CONTINUOUS
 10
7.468270565
 20
22.2213302099
 11
14.2563631632
 21
22.2213302099
  0
LINE
  5
3A7
100
AcDbEntity
  8
ASSI
100
AcDbLine
 62
7
  6
CONTINUOUS
 10
18.668270565
 20
22.2213302099
 11
21.4350986693
 21
22.2213302099
  0
LINE
  5
3A8
100
AcDbEntity
  8
ASSI
100
AcDbLine
 62
7
  6
CONTINUOUS
 10
-8.2436368368
 20
22.2213302099
 11
-7.8954181628
 21
22.1897213783
  0
LINE
  5
3A9
100
AcDbEntity
  8
ASSI
100
AcDbLine
 62
7
  6
CONTINUOUS
 10
3.0563631632
 20
22.2213302099
 11
3.4045818372
 21
22.1897213783
  0
LINE
  5
3AA
100
AcDbEntity
  8
ASSI
100
AcDbLine
 62
7
  6
CONTINUOUS
 10
-15.031729435
 20
22.2213302099
 11
-15.379948109
 21
22.1897213783
  0
LINE
  5
3AB
100
AcDbEntity
  8
ASSI
100
AcDbLine
 62
7
  6
CONTINUOUS
 10
14.2563631632
 20
22.2213302099
 11
14.6045818372
 21
22.1897213783
  0
LWPOLYLINE
  5
3AC
100
AcDbEntity
  8
ASSI
100
AcDbPolyline
 62
253
  6
CONTINUOUS
 90
49
 70
0
 10
21.81763109
 20
-21.1197630591
 10
21.8168230233
 20
-21.122149823
 10
21.8155039533
 20
-21.1245341423
 10
21.8136752312
 20
-21.1269135746
 10
21.81133873
 20
-21.1292856827
 10
21.8084968431
 20
-21.1316480369
 10
21.8051524813
 20
-21.1339982175
 10
21.8013090702
 20
-21.1363338172
 10
21.7969705466
 20
-21.1386524438
 10
21.7921413544
 20
-21.1409517222
 10
21.78682644
 20
-21.1432292973
 10
21.7810312474
 20
-21.1454828364
 10
21.7747617125
 20
-21.147710031
 10
21.7680242573
 20
-21.1499085999
 10
21.7608257826
 20
-21.1520762911
 10
21.7531736619
 20
-21.1542108844
 10
21.745075733
 20
-21.1563101932
 10
21.7365402907
 20
-21.1583720674
 10
21.7275760776
 20
-21.1603943948
 10
21.7181922755
 20
-21.1623751042
 10
21.7083984964
 20
-21.1643121667
 10
21.6982047716
 20
-21.1662035981
 10
21.6876215426
 20
-21.1680474611
 10
21.6766596496
 20
-21.1698418671
 10
21.6653303208
 20
-21.1715849781
 10
21.6536451605
 20
-21.1732750086
 10
21.6416161377
 20
-21.1749102276
 10
21.6292555736
 20
-21.1764889601
 10
21.6165761289
 20
-21.178009589
 10
21.603590791
 20
-21.1794705569
 10
21.5903128607
 20
-21.1808703672
 10
21.5767559382
 20
-21.1822075862
 10
21.5629339099
 20
-21.1834808441
 10
21.5488609333
 20
-21.1846888368
 10
21.5345514232
 20
-21.1858303269
 10
21.5200200366
 20
-21.1869041453
 10
21.505281658
 20
-21.187909192
 10
21.4903513834
 20
-21.1888444376
 10
21.4752445059
 20
-21.189708924
 10
21.4599764992
 20
-21.190501766
 10
21.4445630021
 20
-21.1912221512
 10
21.4290198025
 20
-21.1918693419
 10
21.4133628209
 20
-21.1924426752
 10
21.3976080946
 20
-21.1929415638
 10
21.381771761
 20
-21.1933654966
 10
21.3658700411
 20
-21.1937140396
 10
21.3499192226
 20
-21.1939868355
 10
21.3339356438
 20
-21.1941836051
 10
21.3179356765
 20
-21.1943041468
  0
LWPOLYLINE
  5
3AD
100
AcDbEntity
  8
ASSI
100
AcDbPolyline
 62
253
  6
CONTINUOUS
 90
49
 70
0
 10
21.81763109
 20
21.1459475977
 10
21.8168230238
 20
21.1483343618
 10
21.8155039544
 20
21.1507186811
 10
21.8136752327
 20
21.1530981135
 10
21.811338732
 20
21.1554702216
 10
21.8084968456
 20
21.157832576
 10
21.8051524842
 20
21.1601827566
 10
21.8013090735
 20
21.1625183565
 10
21.7969705503
 20
21.1648369831
 10
21.7921413584
 20
21.1671362616
 10
21.7868264443
 20
21.1694138368
 10
21.781031252
 20
21.1716673759
 10
21.7747617174
 20
21.1738945706
 10
21.7680242624
 20
21.1760931396
 10
21.7608257879
 20
21.178260831
 10
21.7531736674
 20
21.1803954243
 10
21.7450757387
 20
21.1824947333
 10
21.7365402965
 20
21.1845566075
 10
21.7275760834
 20
21.1865789351
 10
21.7181922815
 20
21.1885596445
 10
21.7083985024
 20
21.1904967071
 10
21.6982047777
 20
21.1923881386
 10
21.6876215487
 20
21.1942320017
 10
21.6766596557
 20
21.1960264078
 10
21.6653303268
 20
21.1977695188
 10
21.6536451664
 20
21.1994595494
 10
21.6416161435
 20
21.2010947685
 10
21.6292555793
 20
21.2026735011
 10
21.6165761345
 20
21.2041941302
 10
21.6035907965
 20
21.2056550981
 10
21.590312866
 20
21.2070549085
 10
21.5767559434
 20
21.2083921275
 10
21.5629339148
 20
21.2096653855
 10
21.5488609379
 20
21.2108733783
 10
21.5345514276
 20
21.2120148685
 10
21.5200200408
 20
21.2130886869
 10
21.5052816619
 20
21.2140937336
 10
21.4903513871
 20
21.2150289793
 10
21.4752445093
 20
21.2158934658
 10
21.4599765023
 20
21.2166863078
 10
21.4445630049
 20
21.2174066931
 10
21.4290198049
 20
21.2180538838
 10
21.413362823
 20
21.2186272172
 10
21.3976080964
 20
21.2191261058
 10
21.3817717625
 20
21.2195500386
 10
21.3658700421
 20
21.2198985816
 10
21.3499192233
 20
21.2201713776
 10
21.3339356442
 20
21.2203681472
 10
21.3179356765
 20
21.2204886889
  0
LINE
  5
3AE
100
AcDbEntity
  8
ASSI
100
AcDbLine
 62
7
  6
CONTINUOUS
 10
-42.4915108113
 20
-22.0438515026
 11
-39.6046460994
 21
-22.1951456712
  0
LINE
  5
3AF
100
AcDbEntity
  8
ASSI
100
AcDbLine
 62
253
  6
CONTINUOUS
 10
-42.4827925816
 20
-21.5445367352
 11
-39.5611213088
 21
-21.6976550384
  0
LWPOLYLINE
  5
3B0
100
AcDbEntity
  8
ASSI
100
AcDbPolyline
 62
253
  6
CONTINUOUS
 90
7
 70
0
 10
-43.4189853549
 20
-21.1924426752
 10
-43.4217441908
 20
-21.1929415638
 10
-43.4240030144
 20
-21.1933654966
 10
-43.4257595121
 20
-21.1937140396
 10
-43.4270118847
 20
-21.1939868355
 10
-43.4277588494
 20
-21.1941836051
 10
-43.4279996411
 20
-21.1943041468
  0
LINE
  5
3B1
100
AcDbEntity
  8
ASSI
100
AcDbLine
 62
253
  6
CONTINUOUS
 10
-43.411979459
 20
-21.1912221512
 11
-43.4189853549
 21
-21.1924426752
  0
LINE
  5
3B2
100
AcDbEntity
  8
ASSI
100
AcDbLine
 62
253
  6
CONTINUOUS
 10
-43.3978076447
 20
-21.1888444376
 11
-43.411979459
 21
-21.1912221512
  0
LINE
  5
3B3
100
AcDbEntity
  8
ASSI
100
AcDbLine
 62
253
  6
CONTINUOUS
 10
-43.3647669092
 20
-21.1834808441
 11
-43.3978076447
 21
-21.1888444376
  0
LINE
  5
3B4
100
AcDbEntity
  8
ASSI
100
AcDbLine
 62
253
  6
CONTINUOUS
 10
-43.2548950222
 20
-21.1662035981
 11
-43.3647669092
 21
-21.1834808441
  0
LINE
  5
3B5
100
AcDbEntity
  8
ASSI
100
AcDbLine
 62
253
  6
CONTINUOUS
 10
-42.9510370079
 20
-21.1197630591
 11
-43.2548950222
 21
-21.1662035981
  0
LINE
  5
3B6
100
AcDbEntity
  8
ASSI
100
AcDbLine
 62
253
  6
CONTINUOUS
 10
-39.2306542553
 20
-17.9203993319
 11
-39.2077785349
 21
-17.9203993319
  0
LWPOLYLINE
  5
3B7
100
AcDbEntity
  8
ASSI
100
AcDbPolyline
 62
253
  6
CONTINUOUS
 90
3
 70
0
 10
-44.4164974638
 20
-9.4868670719
 10
-44.4172646923
 20
-9.4868922563
 10
-44.417520388
 20
-9.4869077307
  0
LINE
  5
3B8
100
AcDbEntity
  8
ASSI
100
AcDbLine
 62
253
  6
CONTINUOUS
 10
-43.9350603949
 20
-9.4774077307
 11
-44.415219488
 21
-9.4868322032
  0
LWPOLYLINE
  5
3B9
100
AcDbEntity
  8
ASSI
100
AcDbPolyline
 62
253
  6
CONTINUOUS
 90
22
 70
0
 10
-42.9510370079
 20
21.1459475977
 10
-43.0323336142
 20
20.5951072951
 10
-43.110196341
 20
20.0438147695
 10
-43.1846251884
 20
19.492070021
 10
-43.2556227714
 20
18.9398516326
 10
-43.323186475
 20
18.3871810212
 10
-43.3873084543
 20
17.8341224374
 10
-43.4479883048
 20
17.2806758726
 10
-43.505226431
 20
16.7268413353
 10
-43.5590162017
 20
16.1726831015
 10
-43.6093572165
 20
15.6182011403
 10
-43.6562498757
 20
15.0633954827
 10
-43.6996887486
 20
14.5083304975
 10
-43.7396734354
 20
13.9530061482
 10
-43.7762043359
 20
13.3974224713
 10
-43.8092772187
 20
12.8416439452
 10
-43.838891684
 20
12.2856704936
 10
-43.8650481316
 20
11.7295021928
 10
-43.8877435297
 20
11.1732037493
 10
-43.9069768676
 20
10.616796732
 10
-43.922749156
 20
10.060259572
 10
-43.9350603949
 20
9.5035922693
  0
LWPOLYLINE
  5
3BA
100
AcDbEntity
  8
ASSI
100
AcDbPolyline
 62
253
  6
CONTINUOUS
 90
52
 70
0
 10
-42.9510370079
 20
-21.1197630591
 10
-42.9488560767
 20
-21.1330152827
 10
-42.9463245583
 20
-21.1461863643
 10
-42.9434424529
 20
-21.1592763038
 10
-42.940207143
 20
-21.1722946974
 10
-42.9366212461
 20
-21.185231949
 10
-42.9326926142
 20
-21.1980592703
 10
-42.9284205417
 20
-21.2107761605
 10
-42.9238057342
 20
-21.2233831203
 10
-42.9188581606
 20
-21.2358528643
 10
-42.9135771158
 20
-21.2481850547
 10
-42.9079633049
 20
-21.2603800292
 10
-42.9020288113
 20
-21.2724115146
 10
-42.895772936
 20
-21.2842791778
 10
-42.889196378
 20
-21.295983352
 10
-42.8823133186
 20
-21.3074987634
 10
-42.8751230955
 20
-21.3188250034
 10
-42.867626371
 20
-21.3299624807
 10
-42.8598393124
 20
-21.3408871473
 10
-42.8517612897
 20
-21.3515985463
 10
-42.843392933
 20
-21.3620971345
 10
-42.8347522993
 20
-21.3723602346
 10
-42.8258388075
 20
-21.3823873308
 10
-42.8166530388
 20
-21.3921789388
 10
-42.8072147942
 20
-21.4017139286
 10
-42.7975235165
 20
-21.410991757
 10
-42.7875797629
 20
-21.4200129673
 10
-42.7774050058
 20
-21.4287580588
 10
-42.7669987575
 20
-21.4372264251
 10
-42.7563615056
 20
-21.4454186727
 10
-42.7455161854
 20
-21.4533171197
 10
-42.7344623377
 20
-21.4609211387
 10
-42.7232004217
 20
-21.4682313573
 10
-42.7117547497
 20
-21.4752319756
 10
-42.7001249237
 20
-21.4819223239
 10
-42.6883113418
 20
-21.488303072
 10
-42.67633951
 20
-21.4943604293
 10
-42.6642090824
 20
-21.5000936968
 10
-42.651920405
 20
-21.5055035735
 10
-42.6395000213
 20
-21.5105783658
 10
-42.6269476667
 20
-21.5153173442
 10
-42.6142636058
 20
-21.5197212382
 10
-42.6014751769
 20
-21.5237805426
 10
-42.5885821108
 20
-21.5274945204
 10
-42.5755846765
 20
-21.5308639086
 10
-42.562511019
 20
-21.5338814122
 10
-42.5493605974
 20
-21.5365462861
 10
-42.5361339525
 20
-21.5388592754
 10
-42.5228608517
 20
-21.5408153209
 10
-42.5095512176
 20
-21.5424127362
 10
-42.4961951275
 20
-21.5436532076
 10
-42.4827925816
 20
-21.5445367352
  0
LINE
  5
3BB
100
AcDbEntity
  8
0
100
AcDbLine
 62
253
  6
CONTINUOUS
 10
-44.2090370908
 20
-14.1330743466
 11
-44.2074132449
 21
-14.1559687589
  0
LINE
  5
3BC
100
AcDbEntity
  8
0
100
AcDbLine
 62
253
  6
CONTINUOUS
 10
-44.2095613
 20
-14.1256660133
 11
-44.2369416726
 21
-13.725840093
  0
LINE
  5
3BD
100
AcDbEntity
  8
0
100
AcDbLine
 62
253
  6
CONTINUOUS
 10
-44.2631958057
 20
-13.3152962731
 11
-44.2362337756
 21
-13.7365168337
  0
LINE
  5
3BE
100
AcDbEntity
  8
0
100
AcDbLine
 62
253
  6
CONTINUOUS
 10
-44.2615163682
 20
-13.342464069
 11
-44.286215295
 21
-12.9283891692
  0
LINE
  5
3BF
100
AcDbEntity
  8
0
100
AcDbLine
 62
253
  6
CONTINUOUS
 10
-44.3083614824
 20
-12.5262965937
 11
-44.2852782353
 21
-12.9447077221
  0
LINE
  5
3C0
100
AcDbEntity
  8
0
100
AcDbLine
 62
253
  6
CONTINUOUS
 10
-44.3294633386
 20
-12.1086423937
 11
-44.3082877542
 21
-12.5277476763
  0
LINE
  5
3C1
100
AcDbEntity
  8
0
100
AcDbLine
 62
253
  6
CONTINUOUS
 10
-44.3285908963
 20
-12.1267031096
 11
-44.3472053825
 21
-11.7232510069
  0
LINE
  5
3C2
100
AcDbEntity
  8
0
100
AcDbLine
 62
253
  6
CONTINUOUS
 10
-44.3471782132
 20
-11.7238797653
 11
-44.3543678394
 21
-11.5565265695
  0
LINE
  5
3C3
100
AcDbEntity
  8
0
100
AcDbLine
 62
253
  6
CONTINUOUS
 10
-44.3815220038
 20
-10.8430687919
 11
-44.3674150351
 21
-11.2321826807
  0
LWPOLYLINE
  5
3C4
100
AcDbEntity
  8
ASSI
100
AcDbPolyline
 62
253
  6
CONTINUOUS
 90
22
 70
0
 10
-43.9350603949
 20
-9.4774077307
 10
-43.922749156
 20
-10.0340750333
 10
-43.9069768676
 20
-10.5906121933
 10
-43.8877435297
 20
-11.1470192106
 10
-43.8650481316
 20
-11.7033176541
 10
-43.838891684
 20
-12.259485955
 10
-43.8092772187
 20
-12.8154594065
 10
-43.7762043359
 20
-13.3712379327
 10
-43.7396734354
 20
-13.9268216096
 10
-43.6996887486
 20
-14.4821459589
 10
-43.6562498757
 20
-15.0372109441
 10
-43.6093572165
 20
-15.5920166017
 10
-43.5590162017
 20
-16.1464985628
 10
-43.505226431
 20
-16.7006567966
 10
-43.4479883048
 20
-17.2544913339
 10
-43.3873084543
 20
-17.8079378988
 10
-43.323186475
 20
-18.3609964826
 10
-43.2556227714
 20
-18.9136670939
 10
-43.1846251884
 20
-19.4658854823
 10
-43.110196341
 20
-20.0176302309
 10
-43.0323336142
 20
-20.5689227565
 10
-42.9510370079
 20
-21.1197630591
  0
LWPOLYLINE
  5
3C5
100
AcDbEntity
  8
ASSI
100
AcDbPolyline
 62
253
  6
CONTINUOUS
 90
10
 70
0
 10
-43.9350603949
 20
9.5035922693
 10
-43.9532402535
 20
8.4931151118
 10
-43.9693754686
 20
7.4826165489
 10
-43.98346604
 20
6.4720965807
 10
-43.9955120784
 20
5.4615541333
 10
-44.0055134732
 20
4.4509902805
 10
-44.0134698923
 20
3.4404082439
 10
-44.0193812248
 20
2.4298090971
 10
-44.0232475816
 20
1.4191917665
 10
-44.0250689625
 20
0.4085562519
  0
LINE
  5
3C6
100
AcDbEntity
  8
0
100
AcDbLine
 62
253
  6
CONTINUOUS
 10
-44.3811787123
 20
10.8793074966
 11
-44.3819662133
 21
10.8561952817
  0
LINE
  5
3C7
100
AcDbEntity
  8
0
100
AcDbLine
 62
253
  6
CONTINUOUS
 10
-44.3809359249
 20
10.8863983299
 11
-44.3538215537
 21
11.5956862128
  0
LINE
  5
3C8
100
AcDbEntity
  8
0
100
AcDbLine
 62
253
  6
CONTINUOUS
 10
-44.3360248358
 20
11.9964518759
 11
-44.3549425364
 21
11.5690146874
  0
LINE
  5
3C9
100
AcDbEntity
  8
0
100
AcDbLine
 62
253
  6
CONTINUOUS
 10
-44.3206858204
 20
12.3132488026
 11
-44.3379797157
 21
11.9543273435
  0
LINE
  5
3CA
100
AcDbEntity
  8
0
100
AcDbLine
 62
253
  6
CONTINUOUS
 10
-44.2655928302
 20
13.3024701708
 11
-44.2908915524
 21
12.872335396
  0
LINE
  5
3CB
100
AcDbEntity
  8
0
100
AcDbLine
 62
253
  6
CONTINUOUS
 10
-44.2210310071
 20
13.9875241764
 11
-44.2677244567
 21
13.2675352441
  0
LWPOLYLINE
  5
3CC
100
AcDbEntity
  8
ASSI
100
AcDbPolyline
 62
253
  6
CONTINUOUS
 90
16
 70
0
 10
-44.0228349849
 20
0.1969093204
 10
-44.0225976594
 20
0.1920835418
 10
-44.0223515951
 20
0.1875604025
 10
-44.0220971358
 20
0.1833462261
 10
-44.0218346374
 20
0.1794469041
 10
-44.0215644668
 20
0.1758678882
 10
-44.0212870017
 20
0.1726141818
 10
-44.0210026301
 20
0.1696903338
 10
-44.0207117494
 20
0.167100432
 10
-44.0204147665
 20
0.164848097
 10
-44.0201120964
 20
0.1629364778
 10
-44.0198041624
 20
0.161368247
 10
-44.0194913948
 20
0.1601455969
 10
-44.0191742311
 20
0.159270237
 10
-44.0188531146
 20
0.1587433909
 10
-44.0185284942
 20
0.1585657953
  0
LINE
  5
3CD
100
AcDbEntity
  8
ASSI
100
AcDbLine
 62
253
  6
CONTINUOUS
 10
-44.0232821045
 20
0.2074413953
 11
-44.0228349849
 21
0.1969093204
  0
LINE
  5
3CE
100
AcDbEntity
  8
ASSI
100
AcDbLine
 62
253
  6
CONTINUOUS
 10
-44.0236904545
 20
0.2190977503
 11
-44.0232821045
 21
0.2074413953
  0
LINE
  5
3CF
100
AcDbEntity
  8
ASSI
100
AcDbLine
 62
253
  6
CONTINUOUS
 10
-44.024057752
 20
0.2318132235
 11
-44.0236904545
 21
0.2190977503
  0
LINE
  5
3D0
100
AcDbEntity
  8
ASSI
100
AcDbLine
 62
253
  6
CONTINUOUS
 10
-44.0243819438
 20
0.2455167326
 11
-44.024057752
 21
0.2318132235
  0
LINE
  5
3D1
100
AcDbEntity
  8
ASSI
100
AcDbLine
 62
253
  6
CONTINUOUS
 10
-44.0247835123
 20
0.2677555824
 11
-44.0243819438
 21
0.2455167326
  0
LINE
  5
3D2
100
AcDbEntity
  8
ASSI
100
AcDbLine
 62
253
  6
CONTINUOUS
 10
-44.025079026
 20
0.2917643969
 11
-44.0247835123
 21
0.2677555824
  0
LINE
  5
3D3
100
AcDbEntity
  8
ASSI
100
AcDbLine
 62
253
  6
CONTINUOUS
 10
-44.0252647703
 20
0.3172413681
 11
-44.025079026
 21
0.2917643969
  0
LWPOLYLINE
  5
3D4
100
AcDbEntity
  8
ASSI
100
AcDbPolyline
 62
253
  6
CONTINUOUS
 90
18
 70
0
 10
-42.4967535372
 20
-21.9682453054
 10
-42.4967047425
 20
-21.9766524091
 10
-42.4966224428
 20
-21.9845978679
 10
-42.4965067259
 20
-21.9920731934
 10
-42.4963577155
 20
-21.9990703993
 10
-42.4961755708
 20
-22.0055820104
 10
-42.4959604863
 20
-22.01160107
 10
-42.4957126919
 20
-22.0171211478
 10
-42.4954324523
 20
-22.0221363464
 10
-42.4951200668
 20
-22.026641308
 10
-42.4947758692
 20
-22.0306312196
 10
-42.4944002272
 20
-22.0341018188
 10
-42.4939935422
 20
-22.0370493978
 10
-42.4935562485
 20
-22.0394708076
 10
-42.4930888135
 20
-22.0413634613
 10
-42.4925917364
 20
-22.0427253369
 10
-42.4920655483
 20
-22.0435549794
 10
-42.4915108113
 20
-22.0438515026
  0
LINE
  5
3D5
100
AcDbEntity
  8
ASSI
100
AcDbLine
 62
253
  6
CONTINUOUS
 10
-44.0250717345
 20
-0.3823717374
 11
-44.0252990197
 21
-0.3451197538
  0
LWPOLYLINE
  5
3D6
100
AcDbEntity
  8
ASSI
100
AcDbPolyline
 62
253
  6
CONTINUOUS
 90
10
 70
0
 10
-44.0250689625
 20
-0.3823717132
 10
-44.0232475816
 20
-1.3930072278
 10
-44.0193812248
 20
-2.4036245585
 10
-44.0134698923
 20
-3.4142237052
 10
-44.0055134732
 20
-4.4248057419
 10
-43.9955120784
 20
-5.4353695946
 10
-43.98346604
 20
-6.445912042
 10
-43.9693754686
 20
-7.4564320103
 10
-43.9532402535
 20
-8.4669305731
 10
-43.9350603949
 20
-9.4774077307
  0
LINE
  5
3D7
100
AcDbEntity
  8
ASSI
100
AcDbLine
 62
253
  6
CONTINUOUS
 10
-44.0253378436
 20
0.352938762
 11
-44.0252647703
 21
0.3172413681
  0
LINE
  5
3D8
100
AcDbEntity
  8
ASSI
100
AcDbLine
 62
253
  6
CONTINUOUS
 10
-44.0252990197
 20
-0.3451197538
 11
-44.0253264059
 21
-0.3086995964
  0
LINE
  5
3D9
100
AcDbEntity
  8
ASSI
100
AcDbLine
 62
253
  6
CONTINUOUS
 10
-44.025210151
 20
0.3898780785
 11
-44.0253378436
 21
0.352938762
  0
LINE
  5
3DA
100
AcDbEntity
  8
ASSI
100
AcDbLine
 62
253
  6
CONTINUOUS
 10
-44.0253264059
 20
-0.3086995964
 11
-44.0252152251
 21
-0.2824208005
  0
LINE
  5
3DB
100
AcDbEntity
  8
ASSI
100
AcDbLine
 62
253
  6
CONTINUOUS
 10
-44.0250717345
 20
0.4085562761
 11
-44.025210151
 21
0.3898780785
  0
LINE
  5
3DC
100
AcDbEntity
  8
ASSI
100
AcDbLine
 62
253
  6
CONTINUOUS
 10
-44.0252152251
 20
-0.2824208005
 11
-44.0249925626
 21
-0.2573984594
  0
LINE
  5
3DD
100
AcDbEntity
  8
ASSI
100
AcDbLine
 62
253
  6
CONTINUOUS
 10
-44.0249925626
 20
-0.2573984594
 11
-44.0246612175
 21
-0.2339471217
  0
LINE
  5
3DE
100
AcDbEntity
  8
ASSI
100
AcDbLine
 62
253
  6
CONTINUOUS
 10
-44.0246612175
 20
-0.2339471217
 11
-44.0243819437
 21
-0.2193321829
  0
LINE
  5
3DF
100
AcDbEntity
  8
ASSI
100
AcDbLine
 62
253
  6
CONTINUOUS
 10
-44.0243819437
 20
-0.2193321829
 11
-44.0240577518
 21
-0.2056286744
  0
LINE
  5
3E0
100
AcDbEntity
  8
ASSI
100
AcDbLine
 62
253
  6
CONTINUOUS
 10
-44.0240577518
 20
-0.2056286744
 11
-44.0236904543
 21
-0.1929132019
  0
LINE
  5
3E1
100
AcDbEntity
  8
ASSI
100
AcDbLine
 62
253
  6
CONTINUOUS
 10
-44.0236904543
 20
-0.1929132019
 11
-44.0232821043
 21
-0.181256848
  0
LWPOLYLINE
  5
3E2
100
AcDbEntity
  8
ASSI
100
AcDbPolyline
 62
253
  6
CONTINUOUS
 90
17
 70
0
 10
-44.0232821043
 20
-0.181256848
 10
-44.0228349846
 20
-0.1707247743
 10
-44.0225976592
 20
-0.1658989964
 10
-44.0223515948
 20
-0.1613758577
 10
-44.0220971355
 20
-0.157161682
 10
-44.0218346371
 20
-0.1532623608
 10
-44.0215644665
 20
-0.1496833455
 10
-44.0212870014
 20
-0.1464296397
 10
-44.0210026298
 20
-0.1435057924
 10
-44.0207117492
 20
-0.1409158911
 10
-44.0204147663
 20
-0.1386635567
 10
-44.0201120963
 20
-0.136751938
 10
-44.0198041622
 20
-0.1351837076
 10
-44.0194913947
 20
-0.1339610578
 10
-44.019174231
 20
-0.1330856981
 10
-44.0188531145
 20
-0.1325588522
 10
-44.0185284942
 20
-0.1323812567
  0
LINE
  5
3E3
100
AcDbEntity
  8
ASSI
100
AcDbLine
 62
253
  6
CONTINUOUS
 10
-42.4827925816
 20
21.5707212739
 11
-42.4860511508
 21
21.6358196838
  0
LINE
  5
3E4
100
AcDbEntity
  8
ASSI
100
AcDbLine
 62
253
  6
CONTINUOUS
 10
-42.4860511508
 20
21.6358196838
 11
-42.4889562175
 21
21.6998068277
  0
LINE
  5
3E5
100
AcDbEntity
  8
ASSI
100
AcDbLine
 62
253
  6
CONTINUOUS
 10
-42.4889562175
 20
21.6998068277
 11
-42.4914581904
 21
21.761590409
  0
LINE
  5
3E6
100
AcDbEntity
  8
ASSI
100
AcDbLine
 62
253
  6
CONTINUOUS
 10
-42.4914581904
 20
21.761590409
 11
-42.4935143593
 21
21.820115747
  0
LINE
  5
3E7
100
AcDbEntity
  8
ASSI
100
AcDbLine
 62
253
  6
CONTINUOUS
 10
-42.4935143593
 20
21.820115747
 11
-42.4947425086
 21
21.861267952
  0
LINE
  5
3E8
100
AcDbEntity
  8
ASSI
100
AcDbLine
 62
253
  6
CONTINUOUS
 10
-42.4947425086
 20
21.861267952
 11
-42.4956881805
 21
21.8996285323
  0
LINE
  5
3E9
100
AcDbEntity
  8
ASSI
100
AcDbLine
 62
253
  6
CONTINUOUS
 10
-42.4956881805
 20
21.8996285323
 11
-42.4961570951
 21
21.9234681248
  0
LINE
  5
3EA
100
AcDbEntity
  8
ASSI
100
AcDbLine
 62
253
  6
CONTINUOUS
 10
-42.4961570951
 20
21.9234681248
 11
-42.4964943648
 21
21.9458007108
  0
LINE
  5
3EB
100
AcDbEntity
  8
ASSI
100
AcDbLine
 62
253
  6
CONTINUOUS
 10
-42.4964943648
 20
21.9458007108
 11
-42.4966985488
 21
21.9665308808
  0
LWPOLYLINE
  5
3EC
100
AcDbEntity
  8
ASSI
100
AcDbPolyline
 62
253
  6
CONTINUOUS
 90
20
 70
0
 10
-42.4966985488
 20
21.9665308808
 10
-42.4967687747
 20
21.9855700713
 10
-42.4967535373
 20
21.9944298388
 10
-42.4967047427
 20
22.002836943
 10
-42.4966224429
 20
22.0107824022
 10
-42.4965067261
 20
22.0182577282
 10
-42.4963577157
 20
22.0252549346
 10
-42.496175571
 20
22.0317665461
 10
-42.4959604865
 20
22.0377856061
 10
-42.4957126921
 20
22.0433056843
 10
-42.4954324524
 20
22.0483208833
 10
-42.4951200669
 20
22.0528258452
 10
-42.4947758693
 20
22.0568157572
 10
-42.4944002274
 20
22.0602863567
 10
-42.4939935423
 20
22.0632339359
 10
-42.4935562486
 20
22.0656553459
 10
-42.4930888136
 20
22.0675479997
 10
-42.4925917364
 20
22.0689098754
 10
-42.4920655483
 20
22.069739518
 10
-42.4915108113
 20
22.0700360412
  0
LINE
  5
3ED
100
AcDbEntity
  8
ASSI
100
AcDbLine
 62
253
  6
CONTINUOUS
 10
-42.4967504386
 20
-21.9500825733
 11
-42.4967535372
 21
-21.9682453054
  0
LINE
  5
3EE
100
AcDbEntity
  8
ASSI
100
AcDbLine
 62
253
  6
CONTINUOUS
 10
-42.4966131604
 20
-21.9301872664
 11
-42.4967504386
 21
-21.9500825733
  0
LINE
  5
3EF
100
AcDbEntity
  8
ASSI
100
AcDbLine
 62
253
  6
CONTINUOUS
 10
-42.4963422889
 20
-21.9086443817
 11
-42.4966131604
 21
-21.9301872664
  0
LINE
  5
3F0
100
AcDbEntity
  8
ASSI
100
AcDbLine
 62
253
  6
CONTINUOUS
 10
-42.4959389814
 20
-21.8855459546
 11
-42.4963422889
 21
-21.9086443817
  0
LINE
  5
3F1
100
AcDbEntity
  8
ASSI
100
AcDbLine
 62
253
  6
CONTINUOUS
 10
-42.4950896246
 20
-21.8481992514
 11
-42.4959389814
 21
-21.8855459546
  0
LINE
  5
3F2
100
AcDbEntity
  8
ASSI
100
AcDbLine
 62
253
  6
CONTINUOUS
 10
-42.4939544553
 20
-21.8079349037
 11
-42.4950896246
 21
-21.8481992514
  0
LINE
  5
3F3
100
AcDbEntity
  8
ASSI
100
AcDbLine
 62
253
  6
CONTINUOUS
 10
-42.4925443804
 20
-21.7651397787
 11
-42.4939544553
 21
-21.8079349037
  0
LINE
  5
3F4
100
AcDbEntity
  8
ASSI
100
AcDbLine
 62
253
  6
CONTINUOUS
 10
-42.4902604307
 20
-21.7048565465
 11
-42.4925443804
 21
-21.7651397787
  0
LINE
  5
3F5
100
AcDbEntity
  8
ASSI
100
AcDbLine
 62
253
  6
CONTINUOUS
 10
-42.4875511235
 20
-21.6418365644
 11
-42.4902604307
 21
-21.7048565465
  0
LINE
  5
3F6
100
AcDbEntity
  8
ASSI
100
AcDbLine
 62
253
  6
CONTINUOUS
 10
-42.4844627083
 20
-21.5771556192
 11
-42.4875511235
 21
-21.6418365644
  0
LINE
  5
3F7
100
AcDbEntity
  8
ASSI
100
AcDbLine
 62
253
  6
CONTINUOUS
 10
-42.4827925816
 20
-21.5445367352
 11
-42.4844627083
 21
-21.5771556192
  0
LINE
  5
3F8
100
AcDbEntity
  8
ASSI
100
AcDbLine
 62
253
  6
CONTINUOUS
 10
-38.8077785349
 20
-0.3368411094
 11
-44.0250689625
 21
-0.3823717132
  0
LINE
  5
3F9
100
AcDbEntity
  8
ASSI
100
AcDbLine
 62
7
  6
CONTINUOUS
 10
-38.8077785349
 20
-0.0869077307
 11
-44.2598020279
 21
-0.1344868189
  0
LINE
  5
3FA
100
AcDbEntity
  8
ASSI
100
AcDbLine
 62
253
  6
CONTINUOUS
 10
-44.0250689625
 20
-0.3823717243
 11
-44.5076203147
 21
-0.3846761849
  0
LINE
  5
3FB
100
AcDbEntity
  8
ASSI
100
AcDbLine
 62
7
  6
CONTINUOUS
 10
-44.2598020279
 20
0.1606713575
 11
-38.8077785349
 21
0.1130922693
  0
LINE
  5
3FC
100
AcDbEntity
  8
ASSI
100
AcDbLine
 62
7
  6
CONTINUOUS
 10
-39.2077785349
 20
-17.9203993319
 11
-39.2077785349
 21
-17.6589286518
  0
LINE
  5
3FD
100
AcDbEntity
  8
ASSI
100
AcDbLine
 62
7
  6
CONTINUOUS
 10
-39.2077785349
 20
17.6851131904
 11
-39.2077785349
 21
17.9465838705
  0
LINE
  5
3FE
100
AcDbEntity
  8
ASSI
100
AcDbLine
 62
7
  6
CONTINUOUS
 10
-38.8077785349
 20
-0.0869077307
 11
-38.8077785349
 21
-13.0869077307
  0
LINE
  5
3FF
100
AcDbEntity
  8
ASSI
100
AcDbLine
 62
7
  6
CONTINUOUS
 10
-38.8077785349
 20
0.1130922693
 11
-38.8077785349
 21
13.1130922693
  0
LINE
  5
400
100
AcDbEntity
  8
ASSI
100
AcDbLine
 62
253
  6
CONTINUOUS
 10
-44.5076203147
 20
0.4108607235
 11
-44.0250689625
 21
0.4085562629
  0
LINE
  5
401
100
AcDbEntity
  8
ASSI
100
AcDbLine
 62
253
  6
CONTINUOUS
 10
-44.0250689625
 20
0.4085562519
 11
-38.8077785349
 21
0.3630256481
  0
LINE
  5
402
100
AcDbEntity
  8
ASSI
100
AcDbLine
 62
7
  6
CONTINUOUS
 10
-39.6046460994
 20
22.2213302099
 11
-38.8077785349
 21
13.1130922693
  0
LINE
  5
403
100
AcDbEntity
  8
ASSI
100
AcDbLine
 62
7
  6
CONTINUOUS
 10
-38.8077785349
 20
-13.0869077307
 11
-39.6046460994
 21
-22.1951456712
  0
LWPOLYLINE
  5
404
100
AcDbEntity
  8
ASSI
100
AcDbPolyline
 62
253
  6
CONTINUOUS
 90
3
 70
0
 10
-43.9350603949
 20
9.5035922693
 10
-44.4134320735
 20
9.5129722247
 10
-44.4152194884
 20
9.5130167419
  0
LWPOLYLINE
  5
405
100
AcDbEntity
  8
ASSI
100
AcDbPolyline
 62
253
  6
CONTINUOUS
 90
3
 70
0
 10
-44.4164974642
 20
9.5130516105
 10
-44.4172646927
 20
9.5130767949
 10
-44.4175203884
 20
9.5130922693
  0
LINE
  5
406
100
AcDbEntity
  8
ASSI
100
AcDbLine
 62
253
  6
CONTINUOUS
 10
-39.2306542553
 20
17.9465838707
 11
-39.2077785349
 21
17.9465838705
  0
LWPOLYLINE
  5
407
100
AcDbEntity
  8
ASSI
100
AcDbPolyline
 62
253
  6
CONTINUOUS
 90
52
 70
0
 10
-42.4827925816
 20
21.5707212739
 10
-42.4961951275
 20
21.5698377463
 10
-42.5095512176
 20
21.5685972748
 10
-42.5228608517
 20
21.5669998596
 10
-42.5361339525
 20
21.5650438141
 10
-42.5493605974
 20
21.5627308247
 10
-42.562511019
 20
21.5600659508
 10
-42.5755846765
 20
21.5570484472
 10
-42.5885821108
 20
21.5536790591
 10
-42.6014751769
 20
21.5499650812
 10
-42.6142636058
 20
21.5459057769
 10
-42.6269476667
 20
21.5415018829
 10
-42.6395000213
 20
21.5367629044
 10
-42.651920405
 20
21.5316881121
 10
-42.6642090824
 20
21.5262782354
 10
-42.67633951
 20
21.5205449679
 10
-42.6883113418
 20
21.5144876106
 10
-42.7001249237
 20
21.5081068626
 10
-42.7117547497
 20
21.5014165142
 10
-42.7232004217
 20
21.4944158959
 10
-42.7344623377
 20
21.4871056774
 10
-42.7455161854
 20
21.4795016583
 10
-42.7563615056
 20
21.4716032113
 10
-42.7669987575
 20
21.4634109638
 10
-42.7774050058
 20
21.4549425974
 10
-42.7875797629
 20
21.446197506
 10
-42.7975235165
 20
21.4371762957
 10
-42.8072147942
 20
21.4278984672
 10
-42.8166530388
 20
21.4183634774
 10
-42.8258388075
 20
21.4085718694
 10
-42.8347522993
 20
21.3985447733
 10
-42.843392933
 20
21.3882816732
 10
-42.8517612897
 20
21.3777830849
 10
-42.8598393124
 20
21.3670716859
 10
-42.867626371
 20
21.3561470194
 10
-42.8751230955
 20
21.3450095421
 10
-42.8823133186
 20
21.333683302
 10
-42.889196378
 20
21.3221678906
 10
-42.895772936
 20
21.3104637165
 10
-42.9020288113
 20
21.2985960533
 10
-42.9079633049
 20
21.2865645679
 10
-42.9135771158
 20
21.2743695934
 10
-42.9188581606
 20
21.2620374029
 10
-42.9238057342
 20
21.249567659
 10
-42.9284205417
 20
21.2369606991
 10
-42.9326926142
 20
21.2242438089
 10
-42.9366212461
 20
21.2114164876
 10
-42.940207143
 20
21.1984792361
 10
-42.9434424529
 20
21.1854608425
 10
-42.9463245583
 20
21.1723709029
 10
-42.9488560767
 20
21.1591998213
 10
-42.9510370079
 20
21.1459475977
  0
LINE
  5
408
100
AcDbEntity
  8
ASSI
100
AcDbLine
 62
253
  6
CONTINUOUS
 10
-39.5611213088
 20
21.7238395771
 11
-42.4827925816
 21
21.5707212739
  0
LINE
  5
409
100
AcDbEntity
  8
ASSI
100
AcDbLine
 62
7
  6
CONTINUOUS
 10
-39.6046460994
 20
22.2213302099
 11
-42.4915108113
 21
22.0700360412
  0
LINE
  5
40A
100
AcDbEntity
  8
ASSI
100
AcDbLine
 62
253
  6
CONTINUOUS
 10
-42.9510370079
 20
21.1459475977
 11
-43.2667553434
 21
21.1942320017
  0
LINE
  5
40B
100
AcDbEntity
  8
ASSI
100
AcDbLine
 62
253
  6
CONTINUOUS
 10
-43.2667553434
 20
21.1942320017
 11
-43.3647669281
 21
21.2096653855
  0
LINE
  5
40C
100
AcDbEntity
  8
ASSI
100
AcDbLine
 62
253
  6
CONTINUOUS
 10
-43.3647669281
 20
21.2096653855
 11
-43.3978076654
 21
21.2150289793
  0
LINE
  5
40D
100
AcDbEntity
  8
ASSI
100
AcDbLine
 62
253
  6
CONTINUOUS
 10
-43.3978076654
 20
21.2150289793
 11
-43.4119794806
 21
21.2174066931
  0
LWPOLYLINE
  5
40E
100
AcDbEntity
  8
ASSI
100
AcDbPolyline
 62
253
  6
CONTINUOUS
 90
8
 70
0
 10
-43.4119794806
 20
21.2174066931
 10
-43.418985377
 20
21.2186272172
 10
-43.421744213
 20
21.2191261058
 10
-43.4240030368
 20
21.2195500386
 10
-43.4257595346
 20
21.2198985816
 10
-43.4270119073
 20
21.2201713776
 10
-43.4277588721
 20
21.2203681472
 10
-43.4279996638
 20
21.2204886889
  0
ARC
  5
40F
100
AcDbEntity
  8
ASSI
100
AcDbCircle
 62
7
  6
CONTINUOUS
 10
45.5662331452
 20
-7.7769077307
 40
90.0
100
AcDbArc
 50
181.08868532
 51
188.5737414447
  0
ARC
  5
410
100
AcDbEntity
  8
ASSI
100
AcDbCircle
 62
7
  6
CONTINUOUS
 10
-42.4391748551
 20
-21.0452219678
 40
1.0
100
AcDbArc
 50
188.5737414447
 51
267.0
  0
ARC
  5
411
100
AcDbEntity
  8
ASSI
100
AcDbCircle
 62
7
  6
CONTINUOUS
 10
-39.5077785349
 20
-17.9203993319
 40
0.3
100
AcDbArc
 50
335.0
 51
360.0
  0
ARC
  5
412
100
AcDbEntity
  8
ASSI
100
AcDbCircle
 62
7
  6
CONTINUOUS
 10
-44.257620364
 20
-0.3844772994
 40
0.25
100
AcDbArc
 50
90.5000068929
 51
180.0455810216
  0
ARC
  5
413
100
AcDbEntity
  8
ASSI
100
AcDbCircle
 62
7
  6
CONTINUOUS
 10
45.5662331452
 20
7.8030922693
 40
90.0
100
AcDbArc
 50
171.4262585553
 51
178.91131468
  0
ARC
  5
414
100
AcDbEntity
  8
0
100
AcDbCircle
 62
253
  6
CONTINUOUS
 10
45.5662331452
 20
7.8030922693
 40
90.0
100
AcDbArc
 50
176.1219459169
 51
177.9875308984
  0
ARC
  5
415
100
AcDbEntity
  8
ASSI
100
AcDbCircle
 62
7
  6
CONTINUOUS
 10
-42.4391748551
 20
21.0714065065
 40
1.0
100
AcDbArc
 50
93.0
 51
171.4262585553
  0
ARC
  5
416
100
AcDbEntity
  8
ASSI
100
AcDbCircle
 62
7
  6
CONTINUOUS
 10
-39.5077785349
 20
17.9465838705
 40
0.3
100
AcDbArc
 50
0.0
 51
25.0003852136
  0
ARC
  5
417
100
AcDbEntity
  8
ASSI
100
AcDbCircle
 62
7
  6
CONTINUOUS
 10
-44.257620364
 20
0.410661838
 40
0.25
100
AcDbArc
 50
179.9544189784
 51
269.4999931072
  0
ARC
  5
418
100
AcDbEntity
  8
ASSI
100
AcDbCircle
 62
7
  6
CONTINUOUS
 10
455.4922214651
 20
0.0130922693
 40
500.0
100
AcDbArc
 50
178.91131468
 51
179.954419088
  0
ARC
  5
419
100
AcDbEntity
  8
ASSI
100
AcDbCircle
 62
7
  6
CONTINUOUS
 10
455.4922214651
 20
0.0130922693
 40
500.0
100
AcDbArc
 50
180.045580912
 51
181.08868532
  0
ELLIPSE
  5
41A
100
AcDbEntity
  8
ASSI
100
AcDbEllipse
 62
7
  6
CONTINUOUS
 10
3.5777869179
 20
22.1949621563
 30
0.0
 11
0.2
 21
0.0
 31
0.0
 40
0.0524077793
 41
-2.617993878
 42
-1.5707963268
  0
ELLIPSE
  5
41B
100
AcDbEntity
  8
ASSI
100
AcDbEllipse
 62
7
  6
CONTINUOUS
 10
14.7777869179
 20
22.1949621563
 30
0.0
 11
0.2
 21
0.0
 31
0.0
 40
0.0524077793
 41
-2.617993878
 42
-1.5707963268
  0
ELLIPSE
  5
41C
100
AcDbEntity
  8
ASSI
100
AcDbEllipse
 62
7
  6
CONTINUOUS
 10
18.1468468103
 20
22.1949621563
 30
0.0
 11
0.2
 21
0.0
 31
0.0
 40
0.0524077793
 41
-1.5707963268
 42
-0.5235987756
  0
ELLIPSE
  5
41D
100
AcDbEntity
  8
ASSI
100
AcDbEllipse
 62
7
  6
CONTINUOUS
 10
6.9468468103
 20
22.1949621563
 30
0.0
 11
0.2
 21
0.0
 31
0.0
 40
0.0524077793
 41
-1.5707963268
 42
-0.5235987756
  0
ELLIPSE
  5
41E
100
AcDbEntity
  8
ASSI
100
AcDbEllipse
 62
7
  6
CONTINUOUS
 10
-4.3531531897
 20
22.1949621563
 30
0.0
 11
0.2
 21
0.0
 31
0.0
 40
0.0524077793
 41
-1.5707963268
 42
-0.5235987756
  0
ELLIPSE
  5
41F
100
AcDbEntity
  8
ASSI
100
AcDbEllipse
 62
7
  6
CONTINUOUS
 10
-7.7222130821
 20
22.1949621563
 30
0.0
 11
0.2
 21
0.0
 31
0.0
 40
0.0524077793
 41
-2.617993878
 42
-1.5707963268
  0
ELLIPSE
  5
420
100
AcDbEntity
  8
ASSI
100
AcDbEllipse
 62
7
  6
CONTINUOUS
 10
-18.9222130821
 20
22.1949621563
 30
0.0
 11
0.2
 21
-0.0
 31
0.0
 40
0.0524077793
 41
-2.617993878
 42
-1.5707963268
  0
ELLIPSE
  5
421
100
AcDbEntity
  8
ASSI
100
AcDbEllipse
 62
7
  6
CONTINUOUS
 10
-15.5531531897
 20
22.1949621563
 30
0.0
 11
0.2
 21
0.0
 31
0.0
 40
0.0524077793
 41
-1.5707963268
 42
-0.5235987756
  0
ELLIPSE
  5
422
100
AcDbEntity
  8
ASSI
100
AcDbEllipse
 62
7
  6
CONTINUOUS
 10
-22.2110738356
 20
21.7229292484
 30
0.0
 11
0.4943891341
 21
0.0770133648
 31
0.0
 40
0.9960067742
 41
1.4156538168
 42
2.984623644
  0
ELLIPSE
  5
423
100
AcDbEntity
  8
ASSI
100
AcDbEllipse
 62
7
  6
CONTINUOUS
 10
21.4357075638
 20
21.7229292484
 30
0.0
 11
0.4943891341
 21
-0.0770133648
 31
0.0
 40
0.9960067742
 41
0.1569690096
 42
1.7259388368
  0
ELLIPSE
  5
424
100
AcDbEntity
  8
ASSI
100
AcDbEllipse
 62
7
  6
CONTINUOUS
 10
-22.4875307498
 20
0.3631017889
 30
0.0
 11
0.2426981267
 21
0.0606514259
 31
0.0
 40
0.9993528196
 41
2.8968558282
 42
4.4673476033
  0
ELLIPSE
  5
425
100
AcDbEntity
  8
ASSI
100
AcDbEllipse
 62
7
  6
CONTINUOUS
 10
21.712164478
 20
0.3631017889
 30
0.0
 11
0.2426981267
 21
-0.0606514259
 31
0.0
 40
0.9993528196
 41
-1.3257549497
 42
0.2447368254
  0
ELLIPSE
  5
426
100
AcDbEntity
  8
ASSI
100
AcDbEllipse
 62
7
  6
CONTINUOUS
 10
-4.3531531897
 20
-22.1687776176
 30
0.0
 11
0.2
 21
0.0
 31
0.0
 40
0.0524077793
 41
0.5235987756
 42
1.5707963268
  0
ELLIPSE
  5
427
100
AcDbEntity
  8
ASSI
100
AcDbEllipse
 62
7
  6
CONTINUOUS
 10
-15.5531531897
 20
-22.1687776176
 30
0.0
 11
0.2
 21
0.0
 31
0.0
 40
0.0524077793
 41
0.5235987756
 42
1.5707963268
  0
ELLIPSE
  5
428
100
AcDbEntity
  8
ASSI
100
AcDbEllipse
 62
7
  6
CONTINUOUS
 10
-18.9222130821
 20
-22.1687776176
 30
0.0
 11
0.2
 21
0.0
 31
0.0
 40
0.0524077793
 41
1.5707963268
 42
2.617993878
  0
ELLIPSE
  5
429
100
AcDbEntity
  8
ASSI
100
AcDbEllipse
 62
7
  6
CONTINUOUS
 10
-7.7222130821
 20
-22.1687776176
 30
0.0
 11
0.2
 21
0.0
 31
0.0
 40
0.0524077793
 41
1.5707963268
 42
2.617993878
  0
ELLIPSE
  5
42A
100
AcDbEntity
  8
ASSI
100
AcDbEllipse
 62
7
  6
CONTINUOUS
 10
3.5777869179
 20
-22.1687776176
 30
0.0
 11
0.2
 21
0.0
 31
0.0
 40
0.0524077793
 41
1.5707963268
 42
2.617993878
  0
ELLIPSE
  5
42B
100
AcDbEntity
  8
ASSI
100
AcDbEllipse
 62
7
  6
CONTINUOUS
 10
6.9468468103
 20
-22.1687776176
 30
0.0
 11
0.2
 21
0.0
 31
0.0
 40
0.0524077793
 41
0.5235987756
 42
1.5707963268
  0
ELLIPSE
  5
42C
100
AcDbEntity
  8
ASSI
100
AcDbEllipse
 62
7
  6
CONTINUOUS
 10
18.1468468103
 20
-22.1687776176
 30
0.0
 11
0.2
 21
0.0
 31
0.0
 40
0.0524077793
 41
0.5235987756
 42
1.5707963268
  0
ELLIPSE
  5
42D
100
AcDbEntity
  8
ASSI
100
AcDbEllipse
 62
7
  6
CONTINUOUS
 10
14.7777869179
 20
-22.1687776176
 30
0.0
 11
0.2
 21
0.0
 31
0.0
 40
0.0524077793
 41
1.5707963268
 42
2.617993878
  0
ELLIPSE
  5
42E
100
AcDbEntity
  8
ASSI
100
AcDbEllipse
 62
7
  6
CONTINUOUS
 10
21.4357075638
 20
-21.6967447098
 30
0.0
 11
0.4943891341
 21
0.0770133648
 31
0.0
 40
0.9960067742
 41
-1.7259388368
 42
-0.1569690096
  0
ELLIPSE
  5
42F
100
AcDbEntity
  8
ASSI
100
AcDbEllipse
 62
7
  6
CONTINUOUS
 10
-22.2110738356
 20
-21.6967447098
 30
0.0
 11
0.4943891341
 21
-0.0770133648
 31
0.0
 40
0.9960067742
 41
-2.984623644
 42
-1.4156538168
  0
ELLIPSE
  5
430
100
AcDbEntity
  8
ASSI
100
AcDbEllipse
 62
7
  6
CONTINUOUS
 10
21.712164478
 20
-0.3369172503
 30
0.0
 11
0.2426981267
 21
0.0606514259
 31
0.0
 40
0.9993528196
 41
-0.2447368254
 42
1.3257549497
  0
ELLIPSE
  5
431
100
AcDbEntity
  8
ASSI
100
AcDbEllipse
 62
7
  6
CONTINUOUS
 10
-22.4875307498
 20
-0.3369172503
 30
0.0
 11
0.2426981267
 21
-0.0606514259
 31
0.0
 40
0.9993528196
 41
1.8158377039
 42
3.386329479
  0
ELLIPSE
  5
432
100
AcDbEntity
  8
0
100
AcDbEllipse
 62
253
  6
CONTINUOUS
 10
45.5662331452
 20
7.8030922693
 30
0.0
 11
0.0
 21
90.0
 31
0.0
 40
1.0
 41
1.5365306655
 42
1.5366094987
  0
ELLIPSE
  5
433
100
AcDbEntity
  8
0
100
AcDbEllipse
 62
253
  6
CONTINUOUS
 10
45.5662331452
 20
7.8030922693
 30
0.0
 11
-0.0
 21
90.0
 31
0.0
 40
1.0
 41
1.5031276002
 42
1.5359066598
  0
ELLIPSE
  5
434
100
AcDbEntity
  8
0
100
AcDbEllipse
 62
253
  6
CONTINUOUS
 10
45.5662331452
 20
-7.7769077307
 30
0.0
 11
0.0
 21
90.0
 31
0.0
 40
1.0
 41
-4.6679946406
 42
-4.642489992
  0
ELLIPSE
  5
435
100
AcDbEntity
  8
0
100
AcDbEllipse
 62
253
  6
CONTINUOUS
 10
45.5662331452
 20
-7.7769077307
 30
0.0
 11
90.0
 21
-0.0
 31
0.0
 40
1.0
 41
-3.0709922592
 42
-3.0709097386
  0
ENDSEC
  0
SECTION
  2
OBJECTS
  0
DICTIONARY
  5
C
100
AcDbDictionary
280
0
281
1
  3
ACAD_GROUP
350
D
  3
ACAD_MLINESTYLE
350
17
  3
ACAD_LAYOUT
350
1A
  3
ACAD_PLOTSETTINGS
350
19
  3
ACAD_PLOTSTYLENAME
350
E
  0
DICTIONARY
  5
D
102
{ACAD_REACTORS
330
C
102
}
100
AcDbDictionary
280
0
281
1
  0
ACDBDICTIONARYWDFLT
  5
E
102
{ACAD_REACTORS
330
C
102
}
100
AcDbDictionary
281
1
  3
Normal
350
F
100
AcDbDictionaryWithDefault
340
F
  0
DICTIONARY
  5
17
102
{ACAD_REACTORS
330
C
102
}
100
AcDbDictionary
280
0
281
1
  3
Standard
350
18
  0
DICTIONARY
  5
19
102
{ACAD_REACTORS
330
C
102
}
100
AcDbDictionary
281
1
  0
DICTIONARY
  5
1A
102
{ACAD_REACTORS
330
C
102
}
100
AcDbDictionary
281
1
  3
Model
350
436
  3
Layout1
350
437
  0
ACDBPLACEHOLDER
  5
F
102
{ACAD_REACTORS
330
E
102
}
  0
MLINESTYLE
  5
18
102
{ACAD_REACTORS
330
17
102
}
100
AcDbMlineStyle
  2
STANDARD
 70
0
  3

 62
256
 51
90.0
 52
90.0
 71
2
 49
0.5
 62
256
  6
BYLAYER
 49
-0.5
 62
256
  6
BYLAYER
  0
LAYOUT
  5
436
102
{ACAD_REACTORS
330
1A
102
}
100
AcDbPlotSettings
  1

  2
none_device
  4
ISO_A4_(297.00_x_210.00_MM)
  6

 40
0.0
 41
0.0
 42
0.0
 43
0.0
 44
297.0
 45
210.0
 46
0.0
 47
0.0
 48
0.0
 49
0.0
140
0.0
141
0.0
142
1.0
143
1.0
 70
1024
 72
1
 73
0
 74
0
  7

 75
0
147
1.0
148
0.0
149
0.0
100
AcDbLayout
  1
Model
 70
0
 71
0
 10
0.0
 20
0.0
 11
297.0
 21
210.0
 12
0.0
 22
0.0
 32
0.0
 14
0.0
 24
0.0
 34
0.0
 15
0.0
 25
0.0
 35
0.0
146
0.0
 13
0.0
 23
0.0
 33
0.0
 16
1.0
 26
0.0
 36
0.0
 17
0.0
 27
1.0
 37
0.0
 76
0
330
219
345
0
346
0
  0
LAYOUT
  5
437
102
{ACAD_REACTORS
330
1A
102
}
100
AcDbPlotSettings
  1

  2
none_device
  4
ISO_A4_(297.00_x_210.00_MM)
  6

 40
0.0
 41
0.0
 42
0.0
 43
0.0
 44
297.0
 45
210.0
 46
0.0
 47
0.0
 48
0.0
 49
0.0
140
0.0
141
0.0
142
1.0
143
1.0
 70
0
 72
1
 73
0
 74
0
  7

 75
0
147
1.0
148
0.0
149
0.0
100
AcDbLayout
  1
Layout1
 70
0
 71
1
 10
0.0
 20
0.0
 11
297.0
 21
210.0
 12
0.0
 22
0.0
 32
0.0
 14
0.0
 24
0.0
 34
0.0
 15
0.0
 25
0.0
 35
0.0
146
0.0
 13
0.0
 23
0.0
 33
0.0
 16
1.0
 26
0.0
 36
0.0
 17
0.0
 27
1.0
 37
0.0
 76
0
330
21A
345
0
346
0
  0
ENDSEC
  0
EOF
