  0
SECTION
  2
HEADER
  9
$ACADVER
  1
AC1021
  9
$DWGCODEPAGE
  3
ANSI_1252
  9
$EXTMAX
 10
297.0
 20
210.0
 30
0.0
  9
$EXTMIN
 10
0.0
 20
0.0
 30
0.0
  9
$LIMMIN
 10
0.0
 20
0.0
  9
$LIMMAX
 10
297.0
 20
210.0
  9
$VIEWCTR
 10
148.5
 20
105.0
  9
$VIEWSIZE
 40
210.0
  9
$CLAYER
  8
0
  9
$LTSCALE
 40
16.335
  9
$CELTYPE
  6
BYLAYER
  9
$DIMSCALE
 40
1.0
  9
$DIMASZ
 40
3.0
  9
$DIMEXO
 40
0.5
  9
$DIMDLI
 40
11.286
  9
$DIMEXE
 40
1.5
  9
$DIMCEN
 40
2.673
  9
$DIMLFAC
 40
1.0
  9
$DIMBLK
  1
_FILLED
  9
$DIMALT
 70
0
  9
$DIMALTF
 40
25.4
  9
$DIMTXT
 40
3.0
  9
$DIMTOL
 70
1
  9
$DIMLIM
 70
0
  9
$DIMTFAC
 40
1.0
  9
$DIMTP
 40
0.01
  9
$DIMTM
 40
0.01
  9
$DIMGAP
 40
0.625
  9
$DIMDSEP
 70
44
  9
$AUNITS
 70
0
  9
$PDMODE
 70
3
  9
$PDSIZE
 40
3.0
  9
$HANDSEED
  5
3ED
  9
$TILEMODE
 70
1
  9
$MEASUREMENT
 70
1
  9
$INSUNITS
 70
4
  0
ENDSEC
  0
SECTION
  2
CLASSES
  0
CLASS
  1
ACDBDICTIONARYWDFLT
  2
AcDbDictionaryWithDefault
  3
AutoCAD 2000
 90
0
 91
1
280
0
281
0
  0
CLASS
  1
ACDBPLACEHOLDER
  2
AcDbPlaceHolder
  3
AutoCAD 2000
 90
0
 91
1
280
0
281
0
  0
CLASS
  1
LAYOUT
  2
AcDbLayout
  3
AutoCAD 2000
 90
0
 91
0
280
0
281
0
  0
ENDSEC
  0
SECTION
  2
TABLES
  0
TABLE
  2
VPORT
  5
8
100
AcDbSymbolTable
 70
2
  0
VPORT
  5
1F4
100
AcDbSymbolTableRecord
100
AcDbViewportTableRecord
  2
*ACTIVE
 70
0
 10
0.0
 20
0.0
 11
1.0
 21
1.0
 12
148.5
 22
105.0
 13
0.0
 23
0.0
 14
1.0
 24
1.0
 15
0.0
 25
0.0
 16
0.0
 26
0.0
 36
1.0
 17
0.0
 27
0.0
 37
0.0
 40
210.0
 41
1.4142857143
 42
50.0
 43
0.0
 44
0.0
 50
0.0
 51
0.0
 71
0
 72
100
 73
1
 74
1
 75
0
 76
0
 77
0
 78
0
  0
ENDTAB
  0
TABLE
  2
LTYPE
  5
5
100
AcDbSymbolTable
 70
6
  0
LTYPE
  5
14
100
AcDbSymbolTableRecord
100
AcDbLinetypeTableRecord
  2
BYBLOCK
 70
0
  3

 72
65
 73
0
 40
0.0
  0
LTYPE
  5
15
100
AcDbSymbolTableRecord
100
AcDbLinetypeTableRecord
  2
BYLAYER
 70
0
  3

 72
65
 73
0
 40
0.0
  0
LTYPE
  5
16
100
AcDbSymbolTableRecord
100
AcDbLinetypeTableRecord
  2
CONTINUOUS
 70
64
  3
Solid line
 72
65
 73
0
 40
0.0
  0
LTYPE
  5
1F5
100
AcDbSymbolTableRecord
100
AcDbLinetypeTableRecord
  2
CENTER
 70
64
  3
____ _ ____ _ ____ _ ____ _ ____ _ ____ _ ____
 72
65
 73
4
 40
0.6
 49
0.375
 74
0
 49
-0.075
 74
0
 49
0.075
 74
0
 49
-0.075
 74
0
  0
LTYPE
  5
1F6
100
AcDbSymbolTableRecord
100
AcDbLinetypeTableRecord
  2
HIDDEN
 70
64
  3
- - - - - - - - - - - - - - - - - - - -
 72
65
 73
2
 40
0.2
 49
0.1
 74
0
 49
-0.1
 74
0
  0
LTYPE
  5
1F7
100
AcDbSymbolTableRecord
100
AcDbLinetypeTableRecord
  2
PHANTOM
 70
64
  3
_____ _ _ _____ _ _ _____ _ _ _____
 72
65
 73
6
 40
0.8
 49
0.45
 74
0
 49
-0.05
 74
0
 49
0.1
 74
0
 49
-0.05
 74
0
 49
0.1
 74
0
 49
-0.05
 74
0
  0
LTYPE
  5
1F8
100
AcDbSymbolTableRecord
100
AcDbLinetypeTableRecord
  2
DOT
 70
64
  3
. . . . . . . . . . . . . . . . . . . .
 72
65
 73
2
 40
0.2
 49
0.1
 74
0
 49
-0.1
 74
0
  0
LTYPE
  5
1F9
100
AcDbSymbolTableRecord
100
AcDbLinetypeTableRecord
  2
DASHED
 70
64
  3
- - - - - - - - - - - - - - - - - - - -
 72
65
 73
2
 40
0.2
 49
0.1
 74
0
 49
-0.1
 74
0
  0
ENDTAB
  0
TABLE
  2
LAYER
  5
2
100
AcDbSymbolTable
 70
36
  0
LAYER
  5
10
100
AcDbSymbolTableRecord
100
AcDbLayerTableRecord
  2
0
 70
0
 62
7
  6
CONTINUOUS
370
-3
390
F
  0
LAYER
  5
1FA
100
AcDbSymbolTableRecord
100
AcDbLayerTableRecord
  2
DEFAULT_1
 70
0
 62
7
  6
CENTER
370
-3
390
F
  0
LAYER
  5
1FB
100
AcDbSymbolTableRecord
100
AcDbLayerTableRecord
  2
DEFAULT_2
 70
0
 62
7
  6
HIDDEN
370
-3
390
F
  0
LAYER
  5
1FC
100
AcDbSymbolTableRecord
100
AcDbLayerTableRecord
  2
DEFAULT_3
 70
0
 62
7
  6
PHANTOM
370
-3
390
F
  0
LAYER
  5
1FD
100
AcDbSymbolTableRecord
100
AcDbLayerTableRecord
  2
ASSI
 70
0
 62
7
  6
CONTINUOUS
370
-3
390
F
  0
LAYER
  5
1FE
100
AcDbSymbolTableRecord
100
AcDbLayerTableRecord
  2
COLOR9
 70
0
 62
7
  6
CONTINUOUS
370
-3
390
F
  0
LAYER
  5
1FF
100
AcDbSymbolTableRecord
100
AcDbLayerTableRecord
  2
COORDINATE
 70
0
 62
7
  6
CONTINUOUS
370
-3
390
F
  0
LAYER
  5
200
100
AcDbSymbolTableRecord
100
AcDbLayerTableRecord
  2
COORD_ORIGINE
 70
0
 62
7
  6
CONTINUOUS
370
-3
390
F
  0
LAYER
  5
201
100
AcDbSymbolTableRecord
100
AcDbLayerTableRecord
  2
COPY_PUBLISH
 70
0
 62
7
  6
CONTINUOUS
370
-3
390
F
  0
LAYER
  5
202
100
AcDbSymbolTableRecord
100
AcDbLayerTableRecord
  2
COSMETICI
 70
0
 62
7
  6
CONTINUOUS
370
-3
390
F
  0
LAYER
  5
203
100
AcDbSymbolTableRecord
100
AcDbLayerTableRecord
  2
CURVE
 70
0
 62
7
  6
CONTINUOUS
370
-3
390
F
  0
LAYER
  5
204
100
AcDbSymbolTableRecord
100
AcDbLayerTableRecord
  2
DRAFT
 70
0
 62
7
  6
CONTINUOUS
370
-3
390
F
  0
LAYER
  5
205
100
AcDbSymbolTableRecord
100
AcDbLayerTableRecord
  2
IGES
 70
0
 62
7
  6
CONTINUOUS
370
-3
390
F
  0
LAYER
  5
206
100
AcDbSymbolTableRecord
100
AcDbLayerTableRecord
  2
IGS_SCRITTE
 70
0
 62
7
  6
CONTINUOUS
370
-3
390
F
  0
LAYER
  5
207
100
AcDbSymbolTableRecord
100
AcDbLayerTableRecord
  2
IMPORT_IGES
 70
0
 62
7
  6
CONTINUOUS
370
-3
390
F
  0
LAYER
  5
208
100
AcDbSymbolTableRecord
100
AcDbLayerTableRecord
  2
INTF_YELLOW
 70
0
 62
7
  6
CONTINUOUS
370
-3
390
F
  0
LAYER
  5
209
100
AcDbSymbolTableRecord
100
AcDbLayerTableRecord
  2
LIVELLO_1
 70
0
 62
7
  6
CONTINUOUS
370
-3
390
F
  0
LAYER
  5
20A
100
AcDbSymbolTableRecord
100
AcDbLayerTableRecord
  2
NOTE
 70
0
 62
7
  6
CONTINUOUS
370
-3
390
F
  0
LAYER
  5
20B
100
AcDbSymbolTableRecord
100
AcDbLayerTableRecord
  2
PIANI
 70
0
 62
7
  6
CONTINUOUS
370
-3
390
F
  0
LAYER
  5
20C
100
AcDbSymbolTableRecord
100
AcDbLayerTableRecord
  2
PIANI_ORIGINE
 70
0
 62
7
  6
CONTINUOUS
370
-3
390
F
  0
LAYER
  5
20D
100
AcDbSymbolTableRecord
100
AcDbLayerTableRecord
  2
PIANI_RIFERIMENTO
 70
0
 62
7
  6
CONTINUOUS
370
-3
390
F
  0
LAYER
  5
20E
100
AcDbSymbolTableRecord
100
AcDbLayerTableRecord
  2
PUNTI
 70
0
 62
7
  6
CONTINUOUS
370
-3
390
F
  0
LAYER
  5
20F
100
AcDbSymbolTableRecord
100
AcDbLayerTableRecord
  2
RACCORDO
 70
0
 62
7
  6
CONTINUOUS
370
-3
390
F
  0
LAYER
  5
210
100
AcDbSymbolTableRecord
100
AcDbLayerTableRecord
  2
SIMBOLI
 70
0
 62
7
  6
CONTINUOUS
370
-3
390
F
  0
LAYER
  5
211
100
AcDbSymbolTableRecord
100
AcDbLayerTableRecord
  2
SMUSSO
 70
0
 62
7
  6
CONTINUOUS
370
-3
390
F
  0
LAYER
  5
212
100
AcDbSymbolTableRecord
100
AcDbLayerTableRecord
  2
SNAPLINE
 70
0
 62
7
  6
CONTINUOUS
370
-3
390
F
  0
LAYER
  5
213
100
AcDbSymbolTableRecord
100
AcDbLayerTableRecord
  2
SOLIDO
 70
0
 62
7
  6
CONTINUOUS
370
-3
390
F
  0
LAYER
  5
214
100
AcDbSymbolTableRecord
100
AcDbLayerTableRecord
  2
SUPERFICI
 70
0
 62
7
  6
CONTINUOUS
370
-3
390
F
  0
LAYER
  5
215
100
AcDbSymbolTableRecord
100
AcDbLayerTableRecord
  2
TRASH
 70
0
 62
7
  6
CONTINUOUS
370
-3
390
F
  0
LAYER
  5
216
100
AcDbSymbolTableRecord
100
AcDbLayerTableRecord
  2
WHITE
 70
0
 62
7
  6
CONTINUOUS
370
-3
390
F
  0
ENDTAB
  0
TABLE
  2
STYLE
  5
3
100
AcDbSymbolTable
 70
1
  0
STYLE
  5
11
100
AcDbSymbolTableRecord
100
AcDbTextStyleTableRecord
  2
STANDARD
 70
0
 40
0.0
 41
0.8
 50
0.0
 71
0
 42
0.2
  3
txt
  4

  0
STYLE
  5
217
100
AcDbSymbolTableRecord
100
AcDbTextStyleTableRecord
  2
TEXTSTYLE_1
 70
0
 40
0.0
 41
0.8
 50
0.0
 71
0
 42
0.2
  3
gdt
  4

  0
ENDTAB
  0
TABLE
  2
VIEW
  5
6
100
AcDbSymbolTable
 70
0
  0
ENDTAB
  0
TABLE
  2
UCS
  5
7
100
AcDbSymbolTable
 70
0
  0
ENDTAB
  0
TABLE
  2
APPID
  5
9
100
AcDbSymbolTable
 70
1
  0
APPID
  5
218
100
AcDbSymbolTableRecord
100
AcDbRegAppTableRecord
  2
ACAD
 70
0
  0
ENDTAB
  0
TABLE
  2
BLOCK_RECORD
  5
1
100
AcDbSymbolTable
 70
0
  0
BLOCK_RECORD
  5
219
100
AcDbSymbolTableRecord
100
AcDbBlockTableRecord
  2
*Model_Space
  0
BLOCK_RECORD
  5
21A
100
AcDbSymbolTableRecord
100
AcDbBlockTableRecord
  2
*Paper_Space
  0
BLOCK_RECORD
  5
21B
100
AcDbSymbolTableRecord
100
AcDbBlockTableRecord
  2
_FILLED
  0
BLOCK_RECORD
  5
21C
100
AcDbSymbolTableRecord
100
AcDbBlockTableRecord
  2
*D0
  0
BLOCK_RECORD
  5
21D
100
AcDbSymbolTableRecord
100
AcDbBlockTableRecord
  2
*D1
  0
BLOCK_RECORD
  5
21E
100
AcDbSymbolTableRecord
100
AcDbBlockTableRecord
  2
*D2
  0
ENDTAB
  0
TABLE
  2
DIMSTYLE
  5
A
100
AcDbSymbolTable
 70
1
100
AcDbDimStyleTable
 71
0
  0
DIMSTYLE
105
21F
100
AcDbSymbolTableRecord
100
AcDbDimStyleTableRecord
  2
STANDARD
 70
0
  3

  4

 40
1.0
 41
3.0
 42
0.5
 43
0.38
 44
1.5
 45
0.0
 46
0.0
 47
0.01
 48
0.01
140
3.0
141
0.09
142
0.0
143
25.4
144
1.0
145
0.0
146
1.0
147
0.625
 71
1.0
 72
0.0
 73
0
 74
0
 75
0
 76
0
 77
1
 78
8
170
0
171
1
172
0
173
0
174
0
175
0
176
0
177
0
178
0
270
2
271
2
272
2
273
2
274
2
275
0
280
0
281
0
282
0
283
1
284
8
285
0
286
0
287
3
288
0
340
11
278
44
341
21B
342
21B
343
21B
344
21B
  0
DIMSTYLE
105
220
100
AcDbSymbolTableRecord
100
AcDbDimStyleTableRecord
  2
DIMSTYLE_1
 70
0
  3

  4

 40
1.0
 41
3.0
 42
0.5
 43
0.38
 44
1.5
 45
0.0
 46
0.0
 47
0.0
 48
0.0
140
3.0
141
0.09
142
0.0
143
25.4
144
1.0
145
0.0
146
1.0
147
0.75
 71
0.0
 72
0.0
 73
0
 74
0
 75
0
 76
0
 77
1
 78
8
170
0
171
1
172
0
173
0
174
0
175
0
176
0
177
0
178
0
270
2
271
2
272
2
273
2
274
2
275
0
280
0
281
0
282
0
283
1
284
8
285
0
286
0
287
3
288
0
340
11
278
44
341
21B
342
21B
343
21B
344
21B
  0
DIMSTYLE
105
221
100
AcDbSymbolTableRecord
100
AcDbDimStyleTableRecord
  2
DIMSTYLE_2
 70
0
  3

  4

 40
1.0
 41
3.0
 42
0.5
 43
0.38
 44
1.5
 45
0.0
 46
0.0
 47
0.0
 48
0.0
140
3.0
141
0.09
142
0.0
143
25.4
144
1.0
145
0.0
146
1.0
147
0.75
 71
0.0
 72
0.0
 73
0
 74
0
 75
0
 76
0
 77
1
 78
8
170
0
171
1
172
0
173
0
174
0
175
0
176
0
177
0
178
0
270
2
271
1
272
1
273
2
274
2
275
0
280
0
281
0
282
0
283
1
284
8
285
0
286
0
287
3
288
0
340
11
278
44
341
21B
342
21B
343
21B
344
21B
  0
ENDTAB
  0
ENDSEC
  0
SECTION
  2
BLOCKS
  0
BLOCK
  5
20
100
AcDbEntity
  8
0
100
AcDbBlockBegin
  2
*Model_Space
 70
0
 10
0.0
 20
0.0
 30
0.0
  3
*Model_Space
  1

  0
ENDBLK
  5
21
100
AcDbEntity
  8
0
100
AcDbBlockEnd
  0
BLOCK
  5
1C
100
AcDbEntity
  8
0
100
AcDbBlockBegin
  2
*Paper_Space
 70
0
 10
0.0
 20
0.0
 30
0.0
  3
*Paper_Space
  1

  0
ENDBLK
  5
1D
100
AcDbEntity
  8
0
100
AcDbBlockEnd
  0
BLOCK
  5
222
100
AcDbEntity
  8
0
100
AcDbBlockBegin
  2
_FILLED
 70
64
 10
0.0
 20
0.0
  3
_FILLED
  1

  0
SOLID
  5
223
100
AcDbEntity
  8
0
  6
BYBLOCK
 62
0
100
AcDbTrace
 10
0.0
 20
0.0
 11
-1.0
 21
0.3166666667
 12
-1.0
 22
-0.3166666667
 13
-1.0
 23
-0.3166666667
  0
ENDBLK
  5
224
100
AcDbEntity
  8
0
  6
BYBLOCK
 62
0
100
AcDbBlockEnd
  0
BLOCK
  5
225
100
AcDbEntity
  8
0
100
AcDbBlockBegin
 62
7
  6
CONTINUOUS
  2
*D0
 70
65
 10
0.0
 20
0.0
  3
*D0
  1

  0
MTEXT
  5
226
100
AcDbEntity
  8
0
100
AcDbMText
 62
7
  6
CONTINUOUS
  7
STANDARD
 71
2
 72
1
 10
-0.3876831359
 20
33.9713302099
 30
0.0
 11
1.0
 21
0.0
 31
0.0
 44
0.9
  1
44,7
 40
3.0
 41
13.1785714286
  0
LINE
  5
227
100
AcDbEntity
  8
0
100
AcDbLine
 62
7
  6
CONTINUOUS
 10
-22.7376831359
 20
13.6130922693
 11
-22.7376831359
 21
31.7213302099
  0
LINE
  5
228
100
AcDbEntity
  8
0
100
AcDbLine
 62
7
  6
CONTINUOUS
 10
21.9623168641
 20
13.6130922693
 11
21.9623168641
 21
31.7213302099
  0
LINE
  5
229
100
AcDbEntity
  8
0
100
AcDbLine
 62
7
  6
CONTINUOUS
 10
-22.7376831359
 20
30.2213302099
 11
-0.3876831359
 21
30.2213302099
  0
LINE
  5
22A
100
AcDbEntity
  8
0
100
AcDbLine
 62
7
  6
CONTINUOUS
 10
21.9623168641
 20
30.2213302099
 11
-0.3876831359
 21
30.2213302099
  0
INSERT
  5
22B
100
AcDbEntity
  8
0
100
AcDbBlockReference
 62
7
  6
CONTINUOUS
  2
_FILLED
 10
-22.7376831359
 20
30.2213302099
 41
3.0
 42
3.0
 43
3.0
 50
180.0
  0
INSERT
  5
22C
100
AcDbEntity
  8
0
100
AcDbBlockReference
 62
7
  6
CONTINUOUS
  2
_FILLED
 10
21.9623168641
 20
30.2213302099
 41
3.0
 42
3.0
 43
3.0
  0
ENDBLK
  5
22D
100
AcDbEntity
  8
0
  6
BYBLOCK
 62
0
100
AcDbBlockEnd
  0
BLOCK
  5
22E
100
AcDbEntity
  8
0
100
AcDbBlockBegin
 62
7
  6
CONTINUOUS
  2
*D1
 70
65
 10
0.0
 20
0.0
  3
*D1
  1

  0
MTEXT
  5
22F
100
AcDbEntity
  8
0
100
AcDbMText
 62
7
  6
CONTINUOUS
  7
STANDARD
 71
2
 72
1
 10
26.2123168641
 20
0.0130922693
 30
0.0
 11
0.0
 21
1.0
 31
0.0
 44
0.9
  1
44,4
 40
3.0
 41
13.1785714286
  0
LINE
  5
230
100
AcDbEntity
  8
0
100
AcDbLine
 62
7
  6
CONTINUOUS
 10
21.9350986693
 20
22.2213302099
 11
31.4623168641
 21
22.2213302099
  0
LINE
  5
231
100
AcDbEntity
  8
0
100
AcDbLine
 62
7
  6
CONTINUOUS
 10
21.9350986693
 20
-22.1951456712
 11
31.4623168641
 21
-22.1951456712
  0
LINE
  5
232
100
AcDbEntity
  8
0
100
AcDbLine
 62
7
  6
CONTINUOUS
 10
29.9623168641
 20
22.2213302099
 11
29.9623168641
 21
0.0130922693
  0
LINE
  5
233
100
AcDbEntity
  8
0
100
AcDbLine
 62
7
  6
CONTINUOUS
 10
29.9623168641
 20
-22.1951456712
 11
29.9623168641
 21
0.0130922693
  0
INSERT
  5
234
100
AcDbEntity
  8
0
100
AcDbBlockReference
 62
7
  6
CONTINUOUS
  2
_FILLED
 10
29.9623168641
 20
22.2213302099
 41
3.0
 42
3.0
 43
3.0
 50
90.0
  0
INSERT
  5
235
100
AcDbEntity
  8
0
100
AcDbBlockReference
 62
7
  6
CONTINUOUS
  2
_FILLED
 10
29.9623168641
 20
-22.1951456712
 41
3.0
 42
3.0
 43
3.0
 50
270.0
  0
ENDBLK
  5
236
100
AcDbEntity
  8
0
  6
BYBLOCK
 62
0
100
AcDbBlockEnd
  0
BLOCK
  5
237
100
AcDbEntity
  8
0
100
AcDbBlockBegin
 62
7
  6
CONTINUOUS
  2
*D2
 70
65
 10
0.0
 20
0.0
  3
*D2
  1

  0
MTEXT
  5
238
100
AcDbEntity
  8
0
100
AcDbMText
 62
7
  6
CONTINUOUS
  7
STANDARD
 71
1
 72
1
 10
-36.2043332202
 20
33.9713302099
 30
0.0
 11
1.0
 21
0.0
 31
0.0
 44
0.9
  1
5,7
 40
3.0
 41
9.3214285714
  0
LINE
  5
239
100
AcDbEntity
  8
0
100
AcDbLine
 62
7
  6
CONTINUOUS
 10
-41.6199278491
 20
13.6130922693
 11
-41.6199278491
 21
31.7213302099
  0
LINE
  5
23A
100
AcDbEntity
  8
0
100
AcDbLine
 62
7
  6
CONTINUOUS
 10
-47.3197696289
 20
0.9108607235
 11
-47.3197696289
 21
31.7213302099
  0
LINE
  5
23B
100
AcDbEntity
  8
0
100
AcDbLine
 62
7
  6
CONTINUOUS
 10
-41.6199278491
 20
30.2213302099
 11
-29.9900475059
 21
30.2213302099
  0
LINE
  5
23C
100
AcDbEntity
  8
0
100
AcDbLine
 62
7
  6
CONTINUOUS
 10
-29.9900475059
 20
30.2213302099
 11
-44.469848739
 21
30.2213302099
  0
LINE
  5
23D
100
AcDbEntity
  8
0
100
AcDbLine
 62
7
  6
CONTINUOUS
 10
-47.3197696289
 20
30.2213302099
 11
-51.3197696289
 21
30.2213302099
  0
LINE
  5
23E
100
AcDbEntity
  8
0
100
AcDbLine
 62
7
  6
CONTINUOUS
 10
-51.3197696289
 20
30.2213302099
 11
-44.469848739
 21
30.2213302099
  0
INSERT
  5
23F
100
AcDbEntity
  8
0
100
AcDbBlockReference
 62
7
  6
CONTINUOUS
  2
_FILLED
 10
-41.6199278491
 20
30.2213302099
 41
3.0
 42
3.0
 43
3.0
 50
180.0
  0
INSERT
  5
240
100
AcDbEntity
  8
0
100
AcDbBlockReference
 62
7
  6
CONTINUOUS
  2
_FILLED
 10
-47.3197696289
 20
30.2213302099
 41
3.0
 42
3.0
 43
3.0
  0
ENDBLK
  5
241
100
AcDbEntity
  8
0
  6
BYBLOCK
 62
0
100
AcDbBlockEnd
  0
ENDSEC
  0
SECTION
  2
ENTITIES
  0
DIMENSION
  5
242
100
AcDbEntity
  8
0
100
AcDbDimension
 62
7
  6
CONTINUOUS
  2
*D0
 10
21.9623168641
 20
30.2213302099
 11
-0.8162547526
 21
30.2213302099
 70
160
 71
2
 42
44.7
  3
DIMSTYLE_1
100
AcDbAlignedDimension
 13
-22.7376831359
 23
13.1130922693
 14
21.9623168641
 24
13.1130922693
100
AcDbRotatedDimension
  0
DIMENSION
  5
243
100
AcDbEntity
  8
0
100
AcDbDimension
 62
7
  6
CONTINUOUS
  2
*D1
 10
29.9623168641
 20
-22.1951456712
 11
29.9623168641
 21
-0.4154786645
 70
160
 71
2
 42
44.4164758811
  3
DIMSTYLE_2
100
AcDbAlignedDimension
 13
21.4350986693
 23
22.2213302099
 14
21.4350986693
 24
-22.1951456712
 50
270.0
100
AcDbRotatedDimension
  0
DIMENSION
  5
244
100
AcDbEntity
  8
0
100
AcDbDimension
 62
7
  6
CONTINUOUS
  2
*D2
 10
-47.3197696289
 20
30.2213302099
 11
-33.5257613869
 21
30.2213302099
 70
160
 71
1
 42
5.6998417798
  3
DIMSTYLE_1
100
AcDbAlignedDimension
 13
-41.6199278491
 23
13.1130922693
 14
-47.3197696289
 24
0.4108607235
 50
180.0
100
AcDbRotatedDimension
  0
LWPOLYLINE
  5
245
100
AcDbEntity
  8
ASSI
100
AcDbPolyline
 62
253
  6
CONTINUOUS
 90
49
 70
0
 10
-22.5929973618
 20
21.1459475977
 10
-22.5921892951
 20
21.1483343617
 10
-22.5908702251
 20
21.1507186809
 10
-22.589041503
 20
21.1530981132
 10
-22.5867050018
 20
21.1554702213
 10
-22.5838631149
 20
21.1578325756
 10
-22.5805187531
 20
21.1601827562
 10
-22.576675342
 20
21.1625183559
 10
-22.5723368184
 20
21.1648369824
 10
-22.5675076262
 20
21.1671362608
 10
-22.5621927118
 20
21.169413836
 10
-22.5563975192
 20
21.171667375
 10
-22.5501279844
 20
21.1738945696
 10
-22.5433905291
 20
21.1760931385
 10
-22.5361920544
 20
21.1782608298
 10
-22.5285399337
 20
21.1803954231
 10
-22.5204420049
 20
21.1824947319
 10
-22.5119065625
 20
21.184556606
 10
-22.5029423494
 20
21.1865789335
 10
-22.4935585474
 20
21.1885596429
 10
-22.4837647682
 20
21.1904967053
 10
-22.4735710434
 20
21.1923881367
 10
-22.4629878145
 20
21.1942319998
 10
-22.4520259215
 20
21.1960264057
 10
-22.4406965926
 20
21.1977695167
 10
-22.4290114323
 20
21.1994595472
 10
-22.4169824095
 20
21.2010947662
 10
-22.4046218454
 20
21.2026734987
 10
-22.3919424007
 20
21.2041941277
 10
-22.3789570629
 20
21.2056550956
 10
-22.3656791325
 20
21.2070549059
 10
-22.3521222101
 20
21.2083921249
 10
-22.3383001817
 20
21.2096653828
 10
-22.3242272051
 20
21.2108733755
 10
-22.309917695
 20
21.2120148656
 10
-22.2953863085
 20
21.213088684
 10
-22.2806479298
 20
21.2140937306
 10
-22.2657176553
 20
21.2150289762
 10
-22.2506107778
 20
21.2158934627
 10
-22.2353427711
 20
21.2166863046
 10
-22.219929274
 20
21.2174066899
 10
-22.2043860743
 20
21.2180538806
 10
-22.1887290927
 20
21.2186272139
 10
-22.1729743664
 20
21.2191261024
 10
-22.1571380329
 20
21.2195500353
 10
-22.1412363129
 20
21.2198985782
 10
-22.1252854944
 20
21.2201713742
 10
-22.1093019156
 20
21.2203681438
 10
-22.0933019483
 20
21.2204886855
  0
LWPOLYLINE
  5
246
100
AcDbEntity
  8
ASSI
100
AcDbPolyline
 62
253
  6
CONTINUOUS
 90
49
 70
0
 10
-22.5929973618
 20
-21.1197630591
 10
-22.5921892956
 20
-21.1221498231
 10
-22.5908702262
 20
-21.1245341424
 10
-22.5890415045
 20
-21.1269135748
 10
-22.5867050039
 20
-21.129285683
 10
-22.5838631174
 20
-21.1316480373
 10
-22.580518756
 20
-21.133998218
 10
-22.5766753453
 20
-21.1363338178
 10
-22.5723368221
 20
-21.1386524444
 10
-22.5675076302
 20
-21.1409517229
 10
-22.5621927161
 20
-21.1432292982
 10
-22.5563975238
 20
-21.1454828373
 10
-22.5501279892
 20
-21.147710032
 10
-22.5433905342
 20
-21.149908601
 10
-22.5361920597
 20
-21.1520762923
 10
-22.5285399392
 20
-21.1542108857
 10
-22.5204420105
 20
-21.1563101946
 10
-22.5119065683
 20
-21.1583720689
 10
-22.5029423553
 20
-21.1603943964
 10
-22.4935585533
 20
-21.1623751059
 10
-22.4837647742
 20
-21.1643121684
 10
-22.4735710495
 20
-21.1662035999
 10
-22.4629878205
 20
-21.168047463
 10
-22.4520259275
 20
-21.1698418691
 10
-22.4406965986
 20
-21.1715849802
 10
-22.4290114382
 20
-21.1732750108
 10
-22.4169824153
 20
-21.1749102299
 10
-22.4046218511
 20
-21.1764889624
 10
-22.3919424063
 20
-21.1780095915
 10
-22.3789570683
 20
-21.1794705594
 10
-22.3656791378
 20
-21.1808703698
 10
-22.3521222152
 20
-21.1822075889
 10
-22.3383001866
 20
-21.1834808469
 10
-22.3242272098
 20
-21.1846888396
 10
-22.3099176994
 20
-21.1858303298
 10
-22.2953863127
 20
-21.1869041482
 10
-22.2806479337
 20
-21.187909195
 10
-22.2657176589
 20
-21.1888444406
 10
-22.2506107811
 20
-21.1897089272
 10
-22.2353427741
 20
-21.1905017691
 10
-22.2199292767
 20
-21.1912221544
 10
-22.2043860767
 20
-21.1918693452
 10
-22.1887290948
 20
-21.1924426785
 10
-22.1729743682
 20
-21.1929415671
 10
-22.1571380343
 20
-21.1933655
 10
-22.1412363139
 20
-21.1937140429
 10
-22.1252854951
 20
-21.1939868389
 10
-22.109301916
 20
-21.1941836085
 10
-22.0933019483
 20
-21.1943041502
  0
LINE
  5
247
100
AcDbEntity
  8
ASSI
100
AcDbLine
 62
7
  6
CONTINUOUS
 10
14.2563631632
 20
-22.1951456712
 11
14.6045818372
 21
-22.1635368397
  0
LINE
  5
248
100
AcDbEntity
  8
ASSI
100
AcDbLine
 62
7
  6
CONTINUOUS
 10
-15.031729435
 20
-22.1951456712
 11
-15.379948109
 21
-22.1635368397
  0
LINE
  5
249
100
AcDbEntity
  8
ASSI
100
AcDbLine
 62
253
  6
CONTINUOUS
 10
-22.6013532824
 20
21.5014165142
 11
-22.6021719443
 21
21.5144876106
  0
LINE
  5
24A
100
AcDbEntity
  8
ASSI
100
AcDbLine
 62
253
  6
CONTINUOUS
 10
-22.600560316
 20
21.4871056774
 11
-22.6013532824
 21
21.5014165142
  0
LINE
  5
24B
100
AcDbEntity
  8
ASSI
100
AcDbLine
 62
253
  6
CONTINUOUS
 10
-22.5997955802
 20
21.4716032113
 11
-22.600560316
 21
21.4871056774
  0
LINE
  5
24C
100
AcDbEntity
  8
ASSI
100
AcDbLine
 62
253
  6
CONTINUOUS
 10
-22.599060725
 20
21.4549425974
 11
-22.5997955802
 21
21.4716032113
  0
LINE
  5
24D
100
AcDbEntity
  8
ASSI
100
AcDbLine
 62
253
  6
CONTINUOUS
 10
-22.103318008
 20
21.9811478621
 11
-22.1041808408
 21
22.0021138873
  0
LINE
  5
24E
100
AcDbEntity
  8
ASSI
100
AcDbLine
 62
253
  6
CONTINUOUS
 10
-22.5980197442
 20
21.4278984672
 11
-22.599060725
 21
21.4549425974
  0
LINE
  5
24F
100
AcDbEntity
  8
ASSI
100
AcDbLine
 62
253
  6
CONTINUOUS
 10
-22.1024763657
 20
21.95756103
 11
-22.103318008
 21
21.9811478621
  0
LINE
  5
250
100
AcDbEntity
  8
ASSI
100
AcDbLine
 62
253
  6
CONTINUOUS
 10
-22.5970581133
 20
21.3985447733
 11
-22.5980197442
 21
21.4278984672
  0
LINE
  5
251
100
AcDbEntity
  8
ASSI
100
AcDbLine
 62
253
  6
CONTINUOUS
 10
-22.1012580542
 20
21.9174176242
 11
-22.1024763657
 21
21.95756103
  0
LINE
  5
252
100
AcDbEntity
  8
ASSI
100
AcDbLine
 62
253
  6
CONTINUOUS
 10
-22.5961820555
 20
21.3670716859
 11
-22.5970581133
 21
21.3985447733
  0
LINE
  5
253
100
AcDbEntity
  8
ASSI
100
AcDbLine
 62
253
  6
CONTINUOUS
 10
-22.0997286342
 20
21.8554164575
 11
-22.1012580542
 21
21.9174176242
  0
LINE
  5
254
100
AcDbEntity
  8
ASSI
100
AcDbLine
 62
253
  6
CONTINUOUS
 10
-22.5951568842
 20
21.3221678906
 11
-22.5961820555
 21
21.3670716859
  0
LWPOLYLINE
  5
255
100
AcDbEntity
  8
ASSI
100
AcDbPolyline
 62
253
  6
CONTINUOUS
 90
43
 70
0
 10
-22.5554912427
 20
0.4085562761
 10
-22.5553137485
 20
0.3992106434
 10
-22.5547872032
 20
0.3898780764
 10
-22.553912343
 20
0.3805716225
 10
-22.5526903909
 20
0.3713042925
 10
-22.5511230554
 20
0.3620890425
 10
-22.5492125276
 20
0.3529387561
 10
-22.5469614785
 20
0.3438662256
 10
-22.5443730553
 20
0.334884135
 10
-22.5414508766
 20
0.3260050417
 10
-22.5381990279
 20
0.3172413591
 10
-22.5346220553
 20
0.3086053391
 10
-22.5307249597
 20
0.3001090555
 10
-22.5265131893
 20
0.2917643864
 10
-22.5219926326
 20
0.283582998
 10
-22.5171696094
 20
0.2755763284
 10
-22.5120508625
 20
0.2677555713
 10
-22.5066435482
 20
0.2601316604
 10
-22.5009552262
 20
0.2527152543
 10
-22.4949938492
 20
0.2455167216
 10
-22.4887677512
 20
0.2385461261
 10
-22.4822856369
 20
0.231813213
 10
-22.4755565684
 20
0.2253273954
 10
-22.4685899534
 20
0.2190977405
 10
-22.4613955314
 20
0.213132958
 10
-22.4539833608
 20
0.2074413866
 10
-22.446363804
 20
0.2020309836
 10
-22.4385475136
 20
0.196909313
 10
-22.430545417
 20
0.192083535
 10
-22.4223687017
 20
0.1875603964
 10
-22.4140287991
 20
0.1833462207
 10
-22.4055373688
 20
0.1794468994
 10
-22.3969062821
 20
0.1758678841
 10
-22.3881476058
 20
0.1726141784
 10
-22.379273585
 20
0.1696903311
 10
-22.3702966258
 20
0.1671004298
 10
-22.3612292787
 20
0.1648480954
 10
-22.35208422
 20
0.1629364767
 10
-22.3428742351
 20
0.1613682462
 10
-22.3336122
 20
0.1601455965
 10
-22.3243110634
 20
0.1592702368
 10
-22.3149838287
 20
0.1587433909
 10
-22.305643536
 20
0.1585657953
  0
LWPOLYLINE
  5
256
100
AcDbEntity
  8
ASSI
100
AcDbPolyline
 62
253
  6
CONTINUOUS
 90
49
 70
0
 10
-22.6093488175
 20
-21.5445367352
 10
-22.6090520683
 20
-21.5608548929
 10
-22.6082217934
 20
-21.5771556174
 10
-22.6068588798
 20
-21.5934214939
 10
-22.6049647834
 20
-21.6096351451
 10
-22.602541528
 20
-21.6257792494
 10
-22.5995917022
 20
-21.6418365594
 10
-22.5961184576
 20
-21.6577899204
 10
-22.5921255046
 20
-21.673622289
 10
-22.5876171092
 20
-21.6893167509
 10
-22.5825980877
 20
-21.7048565391
 10
-22.5770738022
 20
-21.7202250518
 10
-22.5710501545
 20
-21.7354058703
 10
-22.5645335799
 20
-21.7503827765
 10
-22.5575310402
 20
-21.7651397698
 10
-22.5500500164
 20
-21.779661085
 10
-22.542098501
 20
-21.7939312083
 10
-22.5336849887
 20
-21.8079348945
 10
-22.524818468
 20
-21.8216571828
 10
-22.5155084113
 20
-21.8350834133
 10
-22.5057647648
 20
-21.8481992423
 10
-22.4955979382
 20
-21.8609906576
 10
-22.4850187929
 20
-21.8734439937
 10
-22.4740386311
 20
-21.8855459462
 10
-22.4626691833
 20
-21.8972835862
 10
-22.4509225957
 20
-21.9086443739
 10
-22.4388114179
 20
-21.9196161721
 10
-22.4263485885
 20
-21.9301872594
 10
-22.413547422
 20
-21.9403463421
 10
-22.4004215945
 20
-21.9500825671
 10
-22.3869851286
 20
-21.9593855326
 10
-22.3732523791
 20
-21.9682453001
 10
-22.3592380172
 20
-21.9766524043
 10
-22.3449570149
 20
-21.9845978636
 10
-22.3304246292
 20
-21.9920731895
 10
-22.3156563854
 20
-21.9990703959
 10
-22.3006680611
 20
-22.0055820074
 10
-22.2854756689
 20
-22.0116010675
 10
-22.2700954393
 20
-22.0171211456
 10
-22.2545438036
 20
-22.0221363446
 10
-22.2388373762
 20
-22.0266413065
 10
-22.2229929367
 20
-22.0306312185
 10
-22.2070274126
 20
-22.034101818
 10
-22.1909578601
 20
-22.0370493973
 10
-22.1748014472
 20
-22.0394708072
 10
-22.1585754342
 20
-22.0413634611
 10
-22.142297156
 20
-22.0427253368
 10
-22.1259840033
 20
-22.0435549794
 10
-22.109653404
 20
-22.0438515026
  0
LINE
  5
257
100
AcDbEntity
  8
ASSI
100
AcDbLine
 62
253
  6
CONTINUOUS
 10
-22.0979947254
 20
21.7653153617
 11
-22.0997286342
 21
21.8554164575
  0
LINE
  5
258
100
AcDbEntity
  8
ASSI
100
AcDbLine
 62
253
  6
CONTINUOUS
 10
-22.5943054901
 20
21.2743695934
 11
-22.5951568842
 21
21.3221678906
  0
LINE
  5
259
100
AcDbEntity
  8
ASSI
100
AcDbLine
 62
253
  6
CONTINUOUS
 10
-22.0962147489
 20
21.6408859944
 11
-22.0979947254
 21
21.7653153617
  0
LINE
  5
25A
100
AcDbEntity
  8
ASSI
100
AcDbLine
 62
253
  6
CONTINUOUS
 10
-22.5935007713
 20
21.2114164876
 11
-22.5943054901
 21
21.2743695934
  0
LINE
  5
25B
100
AcDbEntity
  8
ASSI
100
AcDbLine
 62
253
  6
CONTINUOUS
 10
-22.0944257277
 20
21.4526783519
 11
-22.0962147489
 21
21.6408859944
  0
LINE
  5
25C
100
AcDbEntity
  8
ASSI
100
AcDbLine
 62
253
  6
CONTINUOUS
 10
-22.5929973618
 20
21.1459475977
 11
-22.5935007713
 21
21.2114164876
  0
LINE
  5
25D
100
AcDbEntity
  8
ASSI
100
AcDbLine
 62
7
  6
CONTINUOUS
 10
-22.7113758266
 20
-21.6976550384
 11
-22.7376831359
 21
-13.0869077307
  0
LINE
  5
25E
100
AcDbEntity
  8
ASSI
100
AcDbLine
 62
253
  6
CONTINUOUS
 10
-22.0933019483
 20
21.2204886889
 11
-22.0944257277
 21
21.4526783519
  0
LINE
  5
25F
100
AcDbEntity
  8
ASSI
100
AcDbLine
 62
253
  6
CONTINUOUS
 10
-22.5641818838
 20
13.3974224713
 11
-22.5929973618
 21
21.1459475977
  0
LINE
  5
260
100
AcDbEntity
  8
ASSI
100
AcDbLine
 62
253
  6
CONTINUOUS
 10
-22.0644864718
 20
13.4286836158
 11
-22.0933019483
 21
21.2204886889
  0
LINE
  5
261
100
AcDbEntity
  8
ASSI
100
AcDbLine
 62
253
  6
CONTINUOUS
 10
-22.5579996533
 20
8.4931151118
 11
-22.5641818838
 21
13.3974224713
  0
LINE
  5
262
100
AcDbEntity
  8
ASSI
100
AcDbLine
 62
253
  6
CONTINUOUS
 10
-22.0583043657
 20
8.5018230447
 11
-22.0644864718
 21
13.4286836158
  0
LINE
  5
263
100
AcDbEntity
  8
ASSI
100
AcDbLine
 62
7
  6
CONTINUOUS
 10
-22.7376831359
 20
-0.3368411094
 11
-22.7376831359
 21
-13.0869077307
  0
LINE
  5
264
100
AcDbEntity
  8
ASSI
100
AcDbLine
 62
7
  6
CONTINUOUS
 10
-22.7376831359
 20
0.3630256481
 11
-22.7376831359
 21
13.1130922693
  0
LINE
  5
265
100
AcDbEntity
  8
ASSI
100
AcDbLine
 62
253
  6
CONTINUOUS
 10
-22.5554913395
 20
0.4085562519
 11
-22.5579996533
 21
8.4931151118
  0
LINE
  5
266
100
AcDbEntity
  8
ASSI
100
AcDbLine
 62
253
  6
CONTINUOUS
 10
-22.0557958821
 20
0.1606713575
 11
-22.0583043657
 21
8.5018230447
  0
LINE
  5
267
100
AcDbEntity
  8
ASSI
100
AcDbLine
 62
253
  6
CONTINUOUS
 10
-22.5700083136
 20
-15.5920166017
 11
-22.5554913395
 21
-0.3823717132
  0
LINE
  5
268
100
AcDbEntity
  8
ASSI
100
AcDbLine
 62
253
  6
CONTINUOUS
 10
-22.0703129006
 20
-15.635669419
 11
-22.0557958821
 21
-0.1344868189
  0
LINE
  5
269
100
AcDbEntity
  8
ASSI
100
AcDbLine
 62
7
  6
CONTINUOUS
 10
-22.7113758266
 20
21.7238395771
 11
-22.7376831359
 21
13.1130922693
  0
LINE
  5
26A
100
AcDbEntity
  8
ASSI
100
AcDbLine
 62
253
  6
CONTINUOUS
 10
-22.5931619242
 20
-21.1461863643
 11
-22.5700083136
 21
-15.5920166017
  0
LINE
  5
26B
100
AcDbEntity
  8
ASSI
100
AcDbLine
 62
253
  6
CONTINUOUS
 10
-22.0946101441
 20
-21.451163527
 11
-22.0703129006
 21
-15.635669419
  0
LINE
  5
26C
100
AcDbEntity
  8
ASSI
100
AcDbLine
 62
253
  6
CONTINUOUS
 10
-22.5937871462
 20
-21.2107761605
 11
-22.5931619242
 21
-21.1461863643
  0
LINE
  5
26D
100
AcDbEntity
  8
ASSI
100
AcDbLine
 62
253
  6
CONTINUOUS
 10
-22.0962147489
 20
-21.6147014558
 11
-22.0946101441
 21
-21.451163527
  0
LINE
  5
26E
100
AcDbEntity
  8
ASSI
100
AcDbLine
 62
253
  6
CONTINUOUS
 10
-22.5945015287
 20
-21.2603800292
 11
-22.5937871462
 21
-21.2107761605
  0
LINE
  5
26F
100
AcDbEntity
  8
ASSI
100
AcDbLine
 62
253
  6
CONTINUOUS
 10
-22.0979947254
 20
-21.7391308231
 11
-22.0962147489
 21
-21.6147014558
  0
LWPOLYLINE
  5
270
100
AcDbEntity
  8
ASSI
100
AcDbPolyline
 62
253
  6
CONTINUOUS
 90
49
 70
0
 10
-22.6093488175
 20
21.5707212739
 10
-22.6090520683
 20
21.5870394325
 10
-22.6082217933
 20
21.6033401579
 10
-22.6068588795
 20
21.6196060353
 10
-22.604964783
 20
21.6358196873
 10
-22.6025415273
 20
21.6519637924
 10
-22.5995917012
 20
21.6680211031
 10
-22.5961184562
 20
21.6839744648
 10
-22.5921255029
 20
21.6998068341
 10
-22.5876171071
 20
21.7155012965
 10
-22.5825980852
 20
21.7310410852
 10
-22.5770737992
 20
21.7464095983
 10
-22.5710501511
 20
21.7615904172
 10
-22.564533576
 20
21.7765673237
 10
-22.5575310358
 20
21.7913243173
 10
-22.5500500116
 20
21.8058456327
 10
-22.5420984957
 20
21.8201157561
 10
-22.5336849829
 20
21.8341194423
 10
-22.5248184618
 20
21.8478417307
 10
-22.5155084047
 20
21.8612679612
 10
-22.5057647579
 20
21.87438379
 10
-22.4955979309
 20
21.8871752052
 10
-22.4850187853
 20
21.899628541
 10
-22.4740386232
 20
21.9117304933
 10
-22.4626691751
 20
21.923468133
 10
-22.4509225874
 20
21.9348289203
 10
-22.4388114094
 20
21.9458007182
 10
-22.4263485799
 20
21.9563718051
 10
-22.4135474133
 20
21.9665308874
 10
-22.4004215858
 20
21.9762671119
 10
-22.38698512
 20
21.9855700771
 10
-22.3732523706
 20
21.9944298441
 10
-22.3592380089
 20
22.0028369478
 10
-22.3449570068
 20
22.0107824066
 10
-22.3304246213
 20
22.018257732
 10
-22.3156563779
 20
22.025254938
 10
-22.300668054
 20
22.0317665491
 10
-22.2854756622
 20
22.0377856087
 10
-22.270095433
 20
22.0433056864
 10
-22.2545437978
 20
22.0483208851
 10
-22.2388373709
 20
22.0528258466
 10
-22.2229929321
 20
22.0568157583
 10
-22.2070274085
 20
22.0602863575
 10
-22.1909578567
 20
22.0632339365
 10
-22.1748014444
 20
22.0656553463
 10
-22.1585754321
 20
22.0675479999
 10
-22.1422971546
 20
22.0689098755
 10
-22.1259840026
 20
22.0697395181
 10
-22.109653404
 20
22.0700360412
  0
LWPOLYLINE
  5
271
100
AcDbEntity
  8
ASSI
100
AcDbPolyline
 62
253
  6
CONTINUOUS
 90
43
 70
0
 10
-22.5554912427
 20
-0.3823717374
 10
-22.5553137485
 20
-0.3730261058
 10
-22.5547872034
 20
-0.3636935399
 10
-22.5539123434
 20
-0.3543870869
 10
-22.5526903916
 20
-0.3451197579
 10
-22.5511230564
 20
-0.3359045089
 10
-22.549212529
 20
-0.3267542234
 10
-22.5469614804
 20
-0.3176816938
 10
-22.5443730576
 20
-0.308699604
 10
-22.5414508795
 20
-0.2998205114
 10
-22.5381990314
 20
-0.2910568294
 10
-22.5346220595
 20
-0.2824208101
 10
-22.5307249645
 20
-0.2739245269
 10
-22.5265131949
 20
-0.2655798582
 10
-22.5219926388
 20
-0.2573984702
 10
-22.5171696163
 20
-0.2493918008
 10
-22.5120508701
 20
-0.2415710438
 10
-22.5066435565
 20
-0.2339471329
 10
-22.5009552351
 20
-0.2265307268
 10
-22.4949938586
 20
-0.219332194
 10
-22.4887677613
 20
-0.2123615982
 10
-22.4822856474
 20
-0.2056286849
 10
-22.4755565793
 20
-0.1991428669
 10
-22.4685899646
 20
-0.1929132116
 10
-22.461395543
 20
-0.1869484285
 10
-22.4539833725
 20
-0.1812568566
 10
-22.4463638158
 20
-0.1758464531
 10
-22.4385475254
 20
-0.1707247818
 10
-22.4305454288
 20
-0.1658990031
 10
-22.4223687133
 20
-0.1613758638
 10
-22.4140288103
 20
-0.1571616874
 10
-22.4055373796
 20
-0.1532623655
 10
-22.3969062924
 20
-0.1496833495
 10
-22.3881476155
 20
-0.1464296431
 10
-22.3792735939
 20
-0.1435057952
 10
-22.370296634
 20
-0.1409158933
 10
-22.3612292859
 20
-0.1386635584
 10
-22.3520842262
 20
-0.1367519392
 10
-22.3428742402
 20
-0.1351837083
 10
-22.3336122039
 20
-0.1339610583
 10
-22.3243110661
 20
-0.1330856983
 10
-22.3149838301
 20
-0.1325588523
 10
-22.305643536
 20
-0.1323812567
  0
LINE
  5
272
100
AcDbEntity
  8
ASSI
100
AcDbLine
 62
253
  6
CONTINUOUS
 10
-22.5953972459
 20
-21.3074987634
 11
-22.5945015287
 21
-21.2603800292
  0
LINE
  5
273
100
AcDbEntity
  8
ASSI
100
AcDbLine
 62
253
  6
CONTINUOUS
 10
-22.0997286342
 20
-21.8292319188
 11
-22.0979947254
 21
-21.7391308231
  0
LINE
  5
274
100
AcDbEntity
  8
ASSI
100
AcDbLine
 62
253
  6
CONTINUOUS
 10
-22.5964641463
 20
-21.3515985463
 11
-22.5953972459
 21
-21.3074987634
  0
LINE
  5
275
100
AcDbEntity
  8
ASSI
100
AcDbLine
 62
253
  6
CONTINUOUS
 10
-22.1012580542
 20
-21.8912330855
 11
-22.0997286342
 21
-21.8292319188
  0
LINE
  5
276
100
AcDbEntity
  8
ASSI
100
AcDbLine
 62
253
  6
CONTINUOUS
 10
-22.5973693793
 20
-21.3823873308
 11
-22.5964641463
 21
-21.3515985463
  0
LINE
  5
277
100
AcDbEntity
  8
ASSI
100
AcDbLine
 62
253
  6
CONTINUOUS
 10
-22.1024763657
 20
-21.9313764914
 11
-22.1012580542
 21
-21.8912330855
  0
LINE
  5
278
100
AcDbEntity
  8
ASSI
100
AcDbLine
 62
253
  6
CONTINUOUS
 10
-22.5983581711
 20
-21.410991757
 11
-22.5973693793
 21
-21.3823873308
  0
LINE
  5
279
100
AcDbEntity
  8
ASSI
100
AcDbLine
 62
253
  6
CONTINUOUS
 10
-22.103318008
 20
-21.9549633234
 11
-22.1024763657
 21
-21.9313764914
  0
LINE
  5
27A
100
AcDbEntity
  8
ASSI
100
AcDbLine
 62
253
  6
CONTINUOUS
 10
-22.599060725
 20
-21.4287580588
 11
-22.5983581711
 21
-21.410991757
  0
LINE
  5
27B
100
AcDbEntity
  8
ASSI
100
AcDbLine
 62
253
  6
CONTINUOUS
 10
-22.1041808408
 20
-21.9759293486
 11
-22.103318008
 21
-21.9549633234
  0
LINE
  5
27C
100
AcDbEntity
  8
ASSI
100
AcDbLine
 62
253
  6
CONTINUOUS
 10
-22.5997955802
 20
-21.4454186727
 11
-22.599060725
 21
-21.4287580588
  0
LINE
  5
27D
100
AcDbEntity
  8
ASSI
100
AcDbLine
 62
253
  6
CONTINUOUS
 10
-22.600560316
 20
-21.4609211387
 11
-22.5997955802
 21
-21.4454186727
  0
LINE
  5
27E
100
AcDbEntity
  8
ASSI
100
AcDbLine
 62
253
  6
CONTINUOUS
 10
-22.6013532824
 20
-21.4752319756
 11
-22.600560316
 21
-21.4609211387
  0
LINE
  5
27F
100
AcDbEntity
  8
ASSI
100
AcDbLine
 62
7
  6
CONTINUOUS
 10
3.0563631632
 20
-22.1951456712
 11
3.4045818372
 21
-22.1635368397
  0
LINE
  5
280
100
AcDbEntity
  8
ASSI
100
AcDbLine
 62
7
  6
CONTINUOUS
 10
-8.2436368368
 20
-22.1951456712
 11
-7.8954181628
 21
-22.1635368397
  0
LINE
  5
281
100
AcDbEntity
  8
ASSI
100
AcDbLine
 62
7
  6
CONTINUOUS
 10
21.4350986693
 20
-22.1951456712
 11
18.668270565
 21
-22.1951456712
  0
LINE
  5
282
100
AcDbEntity
  8
ASSI
100
AcDbLine
 62
7
  6
CONTINUOUS
 10
14.2563631632
 20
-22.1951456712
 11
7.468270565
 21
-22.1951456712
  0
LINE
  5
283
100
AcDbEntity
  8
ASSI
100
AcDbLine
 62
7
  6
CONTINUOUS
 10
3.0563631632
 20
-22.1951456712
 11
-3.831729435
 21
-22.1951456712
  0
LINE
  5
284
100
AcDbEntity
  8
ASSI
100
AcDbLine
 62
7
  6
CONTINUOUS
 10
-8.2436368368
 20
-22.1951456712
 11
-15.031729435
 21
-22.1951456712
  0
LINE
  5
285
100
AcDbEntity
  8
ASSI
100
AcDbLine
 62
7
  6
CONTINUOUS
 10
-19.4436368368
 20
-22.1951456712
 11
-22.2104649412
 21
-22.1951456712
  0
LINE
  5
286
100
AcDbEntity
  8
ASSI
100
AcDbLine
 62
7
  6
CONTINUOUS
 10
18.1468468103
 20
-22.1582960617
 11
14.7777869179
 21
-22.1582960617
  0
LINE
  5
287
100
AcDbEntity
  8
ASSI
100
AcDbLine
 62
7
  6
CONTINUOUS
 10
6.9468468103
 20
-22.1582960617
 11
3.5777869179
 21
-22.1582960617
  0
LINE
  5
288
100
AcDbEntity
  8
ASSI
100
AcDbLine
 62
7
  6
CONTINUOUS
 10
-4.3531531897
 20
-22.1582960617
 11
-7.7222130821
 21
-22.1582960617
  0
LINE
  5
289
100
AcDbEntity
  8
ASSI
100
AcDbLine
 62
7
  6
CONTINUOUS
 10
-15.5531531897
 20
-22.1582960617
 11
-18.9222130821
 21
-22.1582960617
  0
LINE
  5
28A
100
AcDbEntity
  8
ASSI
100
AcDbLine
 62
253
  6
CONTINUOUS
 10
-22.109653404
 20
-22.0438515026
 11
21.3342871322
 21
-22.0438515026
  0
LINE
  5
28B
100
AcDbEntity
  8
ASSI
100
AcDbLine
 62
253
  6
CONTINUOUS
 10
-22.0933019483
 20
-21.1943041503
 11
21.3179356765
 21
-21.1943041503
  0
LINE
  5
28C
100
AcDbEntity
  8
ASSI
100
AcDbLine
 62
7
  6
CONTINUOUS
 10
-3.831729435
 20
-22.1951456712
 11
-4.179948109
 21
-22.1635368397
  0
LINE
  5
28D
100
AcDbEntity
  8
ASSI
100
AcDbLine
 62
7
  6
CONTINUOUS
 10
7.468270565
 20
-22.1951456712
 11
7.120051891
 21
-22.1635368397
  0
LWPOLYLINE
  5
28E
100
AcDbEntity
  8
ASSI
100
AcDbPolyline
 62
253
  6
CONTINUOUS
 90
17
 70
0
 10
-22.6021719443
 20
21.5144876106
 10
-22.6025900098
 20
21.5205449679
 10
-22.6030136137
 20
21.5262782354
 10
-22.6034427438
 20
21.5316881121
 10
-22.6038764731
 20
21.5367629044
 10
-22.604314811
 20
21.5415018829
 10
-22.6047577482
 20
21.5459057769
 10
-22.60520433
 20
21.5499650812
 10
-22.6056545657
 20
21.5536790591
 10
-22.6061084461
 20
21.5570484472
 10
-22.6065649883
 20
21.5600659508
 10
-22.6070242112
 20
21.5627308247
 10
-22.6074860958
 20
21.5650438141
 10
-22.6079496027
 20
21.5669998596
 10
-22.6084143853
 20
21.5685972748
 10
-22.6088807903
 20
21.5698377463
 10
-22.6093488175
 20
21.5707212739
  0
LWPOLYLINE
  5
28F
100
AcDbEntity
  8
ASSI
100
AcDbPolyline
 62
253
  6
CONTINUOUS
 90
11
 70
0
 10
-22.1050620797
 20
22.0203985815
 10
-22.1055086463
 20
22.0285186884
 10
-22.1059588758
 20
22.0359493577
 10
-22.1064127534
 20
22.0426851979
 10
-22.106869285
 20
22.0487213077
 10
-22.1073284657
 20
22.0540533179
 10
-22.1077903002
 20
22.058677422
 10
-22.1082538093
 20
22.06259032
 10
-22.1087186664
 20
22.0657891874
 10
-22.109185198
 20
22.068271695
 10
-22.109653404
 20
22.0700360412
  0
LINE
  5
290
100
AcDbEntity
  8
ASSI
100
AcDbLine
 62
253
  6
CONTINUOUS
 10
-22.1041808408
 20
22.0021138873
 11
-22.1050620797
 21
22.0203985815
  0
LINE
  5
291
100
AcDbEntity
  8
ASSI
100
AcDbLine
 62
7
  6
CONTINUOUS
 10
-19.4436368368
 20
-22.1951456712
 11
-19.0954181628
 21
-22.1635368397
  0
LINE
  5
292
100
AcDbEntity
  8
ASSI
100
AcDbLine
 62
7
  6
CONTINUOUS
 10
18.668270565
 20
-22.1951456712
 11
18.320051891
 21
-22.1635368397
  0
LWPOLYLINE
  5
293
100
AcDbEntity
  8
0
100
AcDbPolyline
 62
253
  6
CONTINUOUS
 90
54
 70
0
 10
-14.3362675499
 20
12.0673514342
 10
-14.3453424452
 20
12.0585092363
 10
-14.3540969554
 20
12.049489005
 10
-14.3625530577
 20
12.0402758502
 10
-14.3707327297
 20
12.0308548823
 10
-14.3786532068
 20
12.0212145241
 10
-14.3863127569
 20
12.011356451
 10
-14.3937049057
 20
12.001285651
 10
-14.4008231793
 20
11.9910071123
 10
-14.4076604392
 20
11.9805268259
 10
-14.4142068899
 20
11.9698547942
 10
-14.4204520716
 20
11.9590020227
 10
-14.4263855246
 20
11.9479795166
 10
-14.4319979616
 20
11.9367976682
 10
-14.437284786
 20
11.9254644174
 10
-14.4422425735
 20
11.913987091
 10
-14.4468679
 20
11.9023730161
 10
-14.4517430945
 20
11.8889424485
 10
-14.4561780385
 20
11.8753580334
 10
-14.4601711889
 20
11.8616349636
 10
-14.4637210025
 20
11.8477884322
 10
-14.4668259361
 20
11.8338336322
 10
-14.4694844465
 20
11.8197857567
 10
-14.4716949904
 20
11.8056599987
 10
-14.4734562733
 20
11.7914713993
 10
-14.4747679946
 20
11.7772343922
 10
-14.4756301025
 20
11.7629632594
 10
-14.4760425449
 20
11.7486722829
 10
-14.47600527
 20
11.7343757443
 10
-14.4755182257
 20
11.7200879258
 10
-14.4745813602
 20
11.7058231091
 10
-14.4731948566
 20
11.6915954638
 10
-14.4713598376
 20
11.6774187099
 10
-14.4690776612
 20
11.6633064547
 10
-14.4663496853
 20
11.6492723059
 10
-14.4631772677
 20
11.635329871
 10
-14.4595617664
 20
11.6214927575
 10
-14.4555045392
 20
11.6077745729
 10
-14.4515934031
 20
11.5958794604
 10
-14.4473473611
 20
11.5840951939
 10
-14.4427686641
 20
11.5724311459
 10
-14.4378595629
 20
11.5608966891
 10
-14.4326233038
 20
11.5495019893
 10
-14.4270671148
 20
11.538260384
 10
-14.4211992192
 20
11.5271860038
 10
-14.4150278405
 20
11.5162929793
 10
-14.4085604913
 20
11.5055940965
 10
-14.4018018404
 20
11.4950967631
 10
-14.3947558459
 20
11.4848070423
 10
-14.3874264659
 20
11.4747309972
 10
-14.3798132265
 20
11.4648714739
 10
-14.3718979257
 20
11.4552184492
 10
-14.3636579298
 20
11.4457586828
 10
-14.355070605
 20
11.4364789344
  0
LINE
  5
294
100
AcDbEntity
  8
0
100
AcDbLine
 62
253
  6
CONTINUOUS
 10
-11.9372001605
 20
14.3443908781
 11
-14.3362675499
 21
12.0673514342
  0
LINE
  5
295
100
AcDbEntity
  8
0
100
AcDbLine
 62
253
  6
CONTINUOUS
 10
-13.939251449
 20
11.7780736565
 11
-11.6286628968
 21
13.9709403227
  0
LWPOLYLINE
  5
296
100
AcDbEntity
  8
ASSI
100
AcDbPolyline
 62
253
  6
CONTINUOUS
 90
11
 70
0
 10
-22.558634508
 20
9.5035922693
 10
-22.5578205624
 20
9.5038963821
 10
-22.5564958749
 20
9.5042001835
 10
-22.5546618017
 20
9.5045033625
 10
-22.5523202204
 20
9.5048056088
 10
-22.5494735284
 20
9.5051066129
 10
-22.5461246399
 20
9.5054060666
 10
-22.5422769836
 20
9.5057036635
 10
-22.5379344984
 20
9.5059990987
 10
-22.5331016302
 20
9.5062920699
 10
-22.5277833267
 20
9.5065822771
  0
LWPOLYLINE
  5
297
100
AcDbEntity
  8
ASSI
100
AcDbPolyline
 62
253
  6
CONTINUOUS
 90
13
 70
0
 10
-22.558634508
 20
-9.4774077307
 10
-22.5578205624
 20
-9.4777118434
 10
-22.5564958749
 20
-9.4780156448
 10
-22.5546618017
 20
-9.4783188239
 10
-22.5523202205
 20
-9.4786210701
 10
-22.5494735284
 20
-9.4789220742
 10
-22.54612464
 20
-9.479221528
 10
-22.5422769836
 20
-9.4795191248
 10
-22.5379344985
 20
-9.4798145601
 10
-22.5331016303
 20
-9.4801075313
 10
-22.5277833268
 20
-9.4803977385
 10
-22.5219850327
 20
-9.4806848846
 10
-22.5089727028
 20
-9.4812488211
  0
LWPOLYLINE
  5
298
100
AcDbEntity
  8
0
100
AcDbPolyline
 62
253
  6
CONTINUOUS
 90
51
 70
0
 10
-11.9559483671
 20
-14.3177477284
 10
-11.9465415223
 20
-14.3265034902
 10
-11.9368991276
 20
-14.3348911943
 10
-11.9270070955
 20
-14.3429330842
 10
-11.9168513384
 20
-14.3506514033
 10
-11.9064177689
 20
-14.3580683954
 10
-11.8956937308
 20
-14.3652018671
 10
-11.8846722931
 20
-14.372051878
 10
-11.8733479561
 20
-14.378614051
 10
-11.8617152203
 20
-14.3848840089
 10
-11.8497685859
 20
-14.3908573745
 10
-11.8375084015
 20
-14.3965276898
 10
-11.8249584084
 20
-14.4018801741
 10
-11.8121481962
 20
-14.4068979655
 10
-11.7991073544
 20
-14.4115642025
 10
-11.7858654725
 20
-14.4158620234
 10
-11.7724493792
 20
-14.4197765277
 10
-11.7588748592
 20
-14.4233006603
 10
-11.7451549365
 20
-14.4264293268
 10
-11.7313026352
 20
-14.4291574333
 10
-11.717330979
 20
-14.4314798855
 10
-11.7032544461
 20
-14.433391474
 10
-11.6890933313
 20
-14.4348865282
 10
-11.6748693834
 20
-14.435959262
 10
-11.6606043514
 20
-14.4366038893
 10
-11.6463199842
 20
-14.4368146241
 10
-11.6320373136
 20
-14.4365874539
 10
-11.6177745035
 20
-14.4359254606
 10
-11.6035490009
 20
-14.4348334994
 10
-11.5893782526
 20
-14.4333164258
 10
-11.5752797056
 20
-14.4313790951
 10
-11.5612710316
 20
-14.429026455
 10
-11.5473708019
 20
-14.4262638226
 10
-11.5335978124
 20
-14.4230966075
 10
-11.5199708594
 20
-14.4195302191
 10
-11.5065087388
 20
-14.4155700668
 10
-11.493232765
 20
-14.4112241978
 10
-11.4801743243
 20
-14.4065112094
 10
-11.4673673213
 20
-14.4014523367
 10
-11.4548456607
 20
-14.3960688148
 10
-11.4426432471
 20
-14.3903818787
 10
-11.4307866207
 20
-14.3844100026
 10
-11.419272865
 20
-14.3781606181
 10
-11.4080916992
 20
-14.3716383958
 10
-11.3972328423
 20
-14.3648480064
 10
-11.3866860135
 20
-14.3577941206
 10
-11.3764400812
 20
-14.3504771742
 10
-11.3664805104
 20
-14.3428806624
 10
-11.3567919156
 20
-14.3349838458
 10
-11.3473589112
 20
-14.3267659847
 10
-11.3381661113
 20
-14.3182063395
  0
LINE
  5
299
100
AcDbEntity
  8
0
100
AcDbLine
 62
253
  6
CONTINUOUS
 10
-11.646703375
 20
-13.9447557841
 11
-13.9587030382
 21
-11.7514305068
  0
LINE
  5
29A
100
AcDbEntity
  8
0
100
AcDbLine
 62
253
  6
CONTINUOUS
 10
-14.3545549726
 20
-12.0416607845
 11
-11.9559483671
 21
-14.3177477284
  0
LWPOLYLINE
  5
29B
100
AcDbEntity
  8
ASSI
100
AcDbPolyline
 62
253
  6
CONTINUOUS
 90
12
 70
0
 10
-22.109653404
 20
-22.0438515026
 10
-22.109185198
 20
-22.0420871564
 10
-22.1087186664
 20
-22.0396046487
 10
-22.1082538093
 20
-22.0364057814
 10
-22.1077903002
 20
-22.0324928833
 10
-22.1073284657
 20
-22.0278687793
 10
-22.106869285
 20
-22.022536769
 10
-22.1064127534
 20
-22.0165006592
 10
-22.1059588758
 20
-22.009764819
 10
-22.1055086463
 20
-22.0023341498
 10
-22.1050620797
 20
-21.9942140428
 10
-22.1041808408
 20
-21.9759293486
  0
LWPOLYLINE
  5
29C
100
AcDbEntity
  8
0
100
AcDbPolyline
 62
253
  6
CONTINUOUS
 90
39
 70
0
 10
-14.4944313579
 20
-11.7138596735
 10
-14.4948245044
 20
-11.7226670398
 10
-14.4949901434
 20
-11.7314498839
 10
-14.4949339353
 20
-11.7402090466
 10
-14.4946615403
 20
-11.7489453684
 10
-14.4941786189
 20
-11.7576596903
 10
-14.4934908314
 20
-11.7663528528
 10
-14.4926038381
 20
-11.7750256968
 10
-14.4913240964
 20
-11.7851182857
 10
-14.4897857441
 20
-11.7951786764
 10
-14.4879936074
 20
-11.8052011825
 10
-14.4859525123
 20
-11.8151801173
 10
-14.483667285
 20
-11.8251097942
 10
-14.4811427518
 20
-11.8349845266
 10
-14.4783834549
 20
-11.8447987689
 10
-14.4753928009
 20
-11.8545475391
 10
-14.4721739126
 20
-11.8642259959
 10
-14.4687299128
 20
-11.8738292984
 10
-14.4650639242
 20
-11.8833526053
 10
-14.4611790695
 20
-11.8927910756
 10
-14.4570780522
 20
-11.902139832
 10
-14.4527618982
 20
-11.9113938521
 10
-14.448231214
 20
-11.9205480776
 10
-14.4434866063
 20
-11.92959745
 10
-14.4385286815
 20
-11.9385369107
 10
-14.4333580463
 20
-11.9473614014
 10
-14.4279752538
 20
-11.9560653736
 10
-14.4223806441
 20
-11.9646413188
 10
-14.4165745035
 20
-11.9730812388
 10
-14.4105571187
 20
-11.981377135
 10
-14.4043287763
 20
-11.989521009
 10
-14.3978897627
 20
-11.9975048626
 10
-14.3922022952
 20
-12.0042149177
 10
-14.3863553204
 20
-12.0107975629
 10
-14.3803438994
 20
-12.017248831
 10
-14.3741630931
 20
-12.0235647545
 10
-14.3678079625
 20
-12.0297413662
 10
-14.3612735687
 20
-12.0357746986
 10
-14.3545549726
 20
-12.0416607845
  0
LWPOLYLINE
  5
29D
100
AcDbEntity
  8
0
100
AcDbPolyline
 62
253
  6
CONTINUOUS
 90
39
 70
0
 10
-8.9202956668
 20
-11.4102943958
 10
-8.9257628301
 20
-11.4039327796
 10
-8.9314292997
 20
-11.3977358893
 10
-8.9372903557
 20
-11.3916967368
 10
-8.9433412781
 20
-11.3858083341
 10
-8.9495773472
 20
-11.3800636932
 10
-8.9559938429
 20
-11.3744558262
 10
-8.9625860454
 20
-11.3689777451
 10
-8.9693492346
 20
-11.3636224618
 10
-8.9762786908
 20
-11.3583829884
 10
-8.983369694
 20
-11.3532523369
 10
-8.991432397
 20
-11.3476735298
 10
-8.9996827346
 20
-11.3422275707
 10
-9.0081147277
 20
-11.3369215869
 10
-9.0167223972
 20
-11.3317627055
 10
-9.0254997642
 20
-11.3267580538
 10
-9.0344408495
 20
-11.321914759
 10
-9.0435396741
 20
-11.3172399482
 10
-9.0527902588
 20
-11.3127407487
 10
-9.0621866247
 20
-11.3084242876
 10
-9.0717220269
 20
-11.3042973497
 10
-9.081386658
 20
-11.3003653503
 10
-9.091169945
 20
-11.296633362
 10
-9.1010613147
 20
-11.2931064576
 10
-9.1110501939
 20
-11.28978971
 10
-9.1211260097
 20
-11.2866881917
 10
-9.1312781887
 20
-11.2838069757
 10
-9.1414961581
 20
-11.2811511346
 10
-9.1517693445
 20
-11.2787257412
 10
-9.1610554018
 20
-11.2767440626
 10
-9.1703802174
 20
-11.2749565539
 10
-9.1797463882
 20
-11.2733666133
 10
-9.189156511
 20
-11.2719776393
 10
-9.1986131826
 20
-11.27079303
 10
-9.2081189996
 20
-11.2698161838
 10
-9.217676559
 20
-11.269050499
 10
-9.2272884574
 20
-11.2684993739
 10
-9.2369572917
 20
-11.2681662067
 10
-9.2466856585
 20
-11.2680543958
  0
LINE
  5
29E
100
AcDbEntity
  8
ASSI
100
AcDbLine
 62
253
  6
CONTINUOUS
 10
21.7524170548
 20
-9.4803977385
 11
21.7403464123
 21
-9.4809686756
  0
LWPOLYLINE
  5
29F
100
AcDbEntity
  8
ASSI
100
AcDbPolyline
 62
253
  6
CONTINUOUS
 90
3
 70
0
 10
21.7403464123
 20
-9.4809686756
 10
21.7264057167
 20
-9.4815250341
 10
21.7187516417
 20
-9.481797032
  0
LWPOLYLINE
  5
2A0
100
AcDbEntity
  8
0
100
AcDbPolyline
 62
253
  6
CONTINUOUS
 90
55
 70
0
 10
-14.0457685916
 20
-11.2680543958
 10
-14.0594288571
 20
-11.2682718524
 10
-14.0729594749
 20
-11.2689197777
 10
-14.0863952738
 20
-11.2699915048
 10
-14.0997710823
 20
-11.2714803666
 10
-14.1131217293
 20
-11.2733796963
 10
-14.1264750529
 20
-11.2756847066
 10
-14.1398309287
 20
-11.2783981284
 10
-14.1531822418
 20
-11.2815245725
 10
-14.1665218773
 20
-11.2850686494
 10
-14.1798427202
 20
-11.2890349699
 10
-14.1931350958
 20
-11.2934274081
 10
-14.2063790904
 20
-11.2982468924
 10
-14.2195522303
 20
-11.3034936145
 10
-14.2326320421
 20
-11.3091677663
 10
-14.2455960521
 20
-11.3152695397
 10
-14.2562909758
 20
-11.320678107
 10
-14.2668544009
 20
-11.3263656523
 10
-14.2772508535
 20
-11.3323140612
 10
-14.2874540309
 20
-11.3385109798
 10
-14.2974743168
 20
-11.3449670977
 10
-14.3073312663
 20
-11.3516988652
 10
-14.3170381018
 20
-11.3587189732
 10
-14.3265827147
 20
-11.3660250752
 10
-14.3359466639
 20
-11.3736110656
 10
-14.345111508
 20
-11.3814708385
 10
-14.3540588059
 20
-11.389598288
 10
-14.3627701161
 20
-11.3979873085
 10
-14.3712289583
 20
-11.4066297018
 10
-14.3794266944
 20
-11.415508901
 10
-14.3873566471
 20
-11.4246062469
 10
-14.3950121393
 20
-11.4339030802
 10
-14.4023864937
 20
-11.4433807417
 10
-14.4094730331
 20
-11.4530205722
 10
-14.4162690068
 20
-11.4628101703
 10
-14.4227873711
 20
-11.4727621656
 10
-14.429045009
 20
-11.4828954458
 10
-14.4350530906
 20
-11.4932201471
 10
-14.4407999343
 20
-11.5037113999
 10
-14.4462681462
 20
-11.5143355835
 10
-14.4524426962
 20
-11.5272188987
 10
-14.4581907976
 20
-11.5402241102
 10
-14.4635122796
 20
-11.5533301083
 10
-14.4684069714
 20
-11.5665157831
 10
-14.4728747021
 20
-11.5797600248
 10
-14.4769159287
 20
-11.5930439089
 10
-14.4805336199
 20
-11.6063572534
 10
-14.4837313724
 20
-11.6196920616
 10
-14.4865127825
 20
-11.6330403367
 10
-14.4888814469
 20
-11.6463940822
 10
-14.4908391372
 20
-11.6597524589
 10
-14.492380326
 20
-11.6731432578
 10
-14.4934976607
 20
-11.6866014275
 10
-14.4941837888
 20
-11.7001619166
 10
-14.4944313579
 20
-11.7138596735
  0
LINE
  5
2A1
100
AcDbEntity
  8
0
100
AcDbLine
 62
253
  6
CONTINUOUS
 10
-9.2466856585
 20
-11.2680543958
 11
-14.0457685916
 21
-11.2680543958
  0
LINE
  5
2A2
100
AcDbEntity
  8
0
100
AcDbLine
 62
253
  6
CONTINUOUS
 10
-13.9587030382
 20
-11.7514305068
 11
-9.3361148228
 21
-11.7518891179
  0
LINE
  5
2A3
100
AcDbEntity
  8
ASSI
100
AcDbLine
 62
253
  6
CONTINUOUS
 10
-22.5089727028
 20
-9.4812488211
 11
-22.4941179137
 21
-9.481797032
  0
LWPOLYLINE
  5
2A4
100
AcDbEntity
  8
0
100
AcDbPolyline
 62
253
  6
CONTINUOUS
 90
39
 70
0
 10
-8.7809349139
 20
11.7400442121
 10
-8.7805417674
 20
11.7488515785
 10
-8.7803761284
 20
11.7576344226
 10
-8.7804323365
 20
11.7663935852
 10
-8.7807047315
 20
11.7751299071
 10
-8.7811876529
 20
11.7838442289
 10
-8.7818754404
 20
11.7925373915
 10
-8.7827624337
 20
11.8012102354
 10
-8.7840421754
 20
11.8113028243
 10
-8.7855805277
 20
11.8213632151
 10
-8.7873726645
 20
11.8313857212
 10
-8.7894137595
 20
11.8413646559
 10
-8.7916989868
 20
11.8512943328
 10
-8.79422352
 20
11.8611690653
 10
-8.7969828169
 20
11.8709833076
 10
-8.7999734709
 20
11.8807320777
 10
-8.8031923592
 20
11.8904105346
 10
-8.806636359
 20
11.900013837
 10
-8.8103023476
 20
11.909537144
 10
-8.8141872023
 20
11.9189756143
 10
-8.8182882196
 20
11.9283243706
 10
-8.8226043736
 20
11.9375783908
 10
-8.8271350578
 20
11.9467326163
 10
-8.8318796655
 20
11.9557819886
 10
-8.8368375903
 20
11.9647214494
 10
-8.8420082255
 20
11.9735459401
 10
-8.847391018
 20
11.9822499122
 10
-8.8529856278
 20
11.9908258575
 10
-8.8587917683
 20
11.9992657774
 10
-8.8648091531
 20
12.0075616736
 10
-8.8710374955
 20
12.0157055477
 10
-8.8774765091
 20
12.0236894012
 10
-8.8831639766
 20
12.0303994563
 10
-8.8890109514
 20
12.0369821015
 10
-8.8950223724
 20
12.0434333696
 10
-8.9012031787
 20
12.0497492931
 10
-8.9075583093
 20
12.0559259048
 10
-8.9140927031
 20
12.0619592373
 10
-8.9208112992
 20
12.0678453231
  0
LWPOLYLINE
  5
2A5
100
AcDbEntity
  8
ASSI
100
AcDbPolyline
 62
253
  6
CONTINUOUS
 90
18
 70
0
 10
-22.6093488175
 20
-21.5445367352
 10
-22.6088807903
 20
-21.5436532076
 10
-22.6084143853
 20
-21.5424127362
 10
-22.6079496027
 20
-21.5408153209
 10
-22.6074860958
 20
-21.5388592754
 10
-22.6070242112
 20
-21.5365462861
 10
-22.6065649883
 20
-21.5338814122
 10
-22.6061084461
 20
-21.5308639086
 10
-22.6056545657
 20
-21.5274945204
 10
-22.60520433
 20
-21.5237805426
 10
-22.6047577482
 20
-21.5197212382
 10
-22.604314811
 20
-21.5153173442
 10
-22.6038764731
 20
-21.5105783658
 10
-22.6034427438
 20
-21.5055035735
 10
-22.6030136137
 20
-21.5000936968
 10
-22.6025900098
 20
-21.4943604293
 10
-22.6021719443
 20
-21.488303072
 10
-22.6013532824
 20
-21.4752319756
  0
LINE
  5
2A6
100
AcDbEntity
  8
ASSI
100
AcDbLine
 62
253
  6
CONTINUOUS
 10
21.7187516417
 20
-9.481797032
 11
21.6931498844
 21
-9.482584973
  0
LINE
  5
2A7
100
AcDbEntity
  8
ASSI
100
AcDbLine
 62
253
  6
CONTINUOUS
 10
21.6931498844
 20
-9.482584973
 11
21.663776873
 21
-9.4833252437
  0
LINE
  5
2A8
100
AcDbEntity
  8
ASSI
100
AcDbLine
 62
253
  6
CONTINUOUS
 10
21.663776873
 20
-9.4833252437
 11
21.6192186145
 21
-9.4842264074
  0
LINE
  5
2A9
100
AcDbEntity
  8
ASSI
100
AcDbLine
 62
253
  6
CONTINUOUS
 10
21.6192186145
 20
-9.4842264074
 11
21.5558932713
 21
-9.4851944383
  0
LINE
  5
2AA
100
AcDbEntity
  8
ASSI
100
AcDbLine
 62
253
  6
CONTINUOUS
 10
21.5558932713
 20
-9.4851944383
 11
21.4708768086
 21
-9.4860917189
  0
LINE
  5
2AB
100
AcDbEntity
  8
ASSI
100
AcDbLine
 62
253
  6
CONTINUOUS
 10
21.4708768086
 20
-9.4860917189
 11
21.3632265632
 21
-9.486733566
  0
LINE
  5
2AC
100
AcDbEntity
  8
ASSI
100
AcDbLine
 62
253
  6
CONTINUOUS
 10
21.3632265632
 20
-9.486733566
 11
-22.0589390944
 21
-9.4869077307
  0
LINE
  5
2AD
100
AcDbEntity
  8
ASSI
100
AcDbLine
 62
253
  6
CONTINUOUS
 10
-22.1855371588
 20
-9.4865141908
 11
-22.0589390944
 21
-9.4869077307
  0
LINE
  5
2AE
100
AcDbEntity
  8
ASSI
100
AcDbLine
 62
253
  6
CONTINUOUS
 10
-22.2898142239
 20
-9.4856811682
 11
-22.1855371588
 21
-9.4865141908
  0
LINE
  5
2AF
100
AcDbEntity
  8
ASSI
100
AcDbLine
 62
253
  6
CONTINUOUS
 10
-22.3701974234
 20
-9.4846360109
 11
-22.2898142239
 21
-9.4856811682
  0
LINE
  5
2B0
100
AcDbEntity
  8
ASSI
100
AcDbLine
 62
253
  6
CONTINUOUS
 10
-22.4175981995
 20
-9.483788888
 11
-22.3701974234
 21
-9.4846360109
  0
LINE
  5
2B1
100
AcDbEntity
  8
ASSI
100
AcDbLine
 62
253
  6
CONTINUOUS
 10
-22.4591315168
 20
-9.4828373729
 11
-22.4175981995
 21
-9.483788888
  0
LWPOLYLINE
  5
2B2
100
AcDbEntity
  8
ASSI
100
AcDbPolyline
 62
253
  6
CONTINUOUS
 90
3
 70
0
 10
-22.4941179137
 20
-9.481797032
 10
-22.4860183139
 20
-9.4820645362
 10
-22.4591315168
 20
-9.4828373729
  0
LINE
  5
2B3
100
AcDbEntity
  8
ASSI
100
AcDbLine
 62
253
  6
CONTINUOUS
 10
-22.7113758266
 20
-21.6976550384
 11
-22.6093488175
 21
-21.5445367352
  0
LINE
  5
2B4
100
AcDbEntity
  8
ASSI
100
AcDbLine
 62
253
  6
CONTINUOUS
 10
-22.6093488175
 20
21.5707212739
 11
-22.7113758266
 21
21.7238395771
  0
LINE
  5
2B5
100
AcDbEntity
  8
ASSI
100
AcDbLine
 62
253
  6
CONTINUOUS
 10
-22.2104649412
 20
-22.1951456712
 11
-22.109653404
 21
-22.0438515026
  0
LINE
  5
2B6
100
AcDbEntity
  8
ASSI
100
AcDbLine
 62
253
  6
CONTINUOUS
 10
21.9623168641
 20
-0.3368411094
 11
21.7801250677
 21
-0.3823717132
  0
LINE
  5
2B7
100
AcDbEntity
  8
ASSI
100
AcDbLine
 62
253
  6
CONTINUOUS
 10
21.7122406623
 20
-0.0869077307
 11
21.5302772641
 21
-0.1323812567
  0
LINE
  5
2B8
100
AcDbEntity
  8
ASSI
100
AcDbLine
 62
253
  6
CONTINUOUS
 10
-22.5554913395
 20
-0.3823717132
 11
-22.7376831359
 21
-0.3368411094
  0
LINE
  5
2B9
100
AcDbEntity
  8
ASSI
100
AcDbLine
 62
253
  6
CONTINUOUS
 10
-22.305643536
 20
-0.1323812567
 11
-22.4876069342
 21
-0.0869077307
  0
LINE
  5
2BA
100
AcDbEntity
  8
ASSI
100
AcDbLine
 62
253
  6
CONTINUOUS
 10
-22.109653404
 20
22.0700360412
 11
-22.2104649412
 21
22.2213302099
  0
LWPOLYLINE
  5
2BB
100
AcDbEntity
  8
ASSI
100
AcDbPolyline
 62
253
  6
CONTINUOUS
 90
8
 70
0
 10
21.5302772641
 20
-0.1323812567
 10
21.5299002148
 20
-0.1324469575
 10
21.5292983334
 20
-0.1325124155
 10
21.5284716199
 20
-0.1325776309
 10
21.527418914
 20
-0.1326426635
 10
21.5261413761
 20
-0.1327074533
 10
21.5246424869
 20
-0.1327718206
 10
21.5229216467
 20
-0.132835763
  0
LINE
  5
2BC
100
AcDbEntity
  8
ASSI
100
AcDbLine
 62
7
  6
CONTINUOUS
 10
19.3747828547
 20
-0.0869077307
 11
19.1123168641
 21
-0.113088334
  0
LWPOLYLINE
  5
2BD
100
AcDbEntity
  8
ASSI
100
AcDbPolyline
 62
253
  6
CONTINUOUS
 90
5
 70
0
 10
21.7801250677
 20
-0.3823717243
 10
21.7793731388
 20
-0.3824433979
 10
21.7781687308
 20
-0.3825148308
 10
21.7765129407
 20
-0.3825860121
 10
21.774407285
 20
-0.3826569832
  0
LINE
  5
2BE
100
AcDbEntity
  8
ASSI
100
AcDbLine
 62
7
  6
CONTINUOUS
 10
-20.1501491265
 20
-0.0869077307
 11
-19.8876831359
 21
-0.113088334
  0
LWPOLYLINE
  5
2BF
100
AcDbEntity
  8
0
100
AcDbPolyline
 62
253
  6
CONTINUOUS
 90
39
 70
0
 10
-14.355070605
 20
11.4364789344
 10
-14.3496034417
 20
11.4301173183
 10
-14.3439369722
 20
11.4239204279
 10
-14.3380759162
 20
11.4178812754
 10
-14.3320249937
 20
11.4119928727
 10
-14.3257889246
 20
11.4062482319
 10
-14.3193724289
 20
11.4006403649
 10
-14.3127802265
 20
11.3951622837
 10
-14.3060170372
 20
11.3898070005
 10
-14.299087581
 20
11.3845675271
 10
-14.2919965778
 20
11.3794368756
 10
-14.2839338748
 20
11.3738580684
 10
-14.2756835373
 20
11.3684121093
 10
-14.2672515442
 20
11.3631061255
 10
-14.2586438746
 20
11.3579472442
 10
-14.2498665076
 20
11.3529425925
 10
-14.2409254223
 20
11.3480992977
 10
-14.2318265978
 20
11.3434244869
 10
-14.222576013
 20
11.3389252873
 10
-14.2131796472
 20
11.3346088262
 10
-14.2036442449
 20
11.3304818884
 10
-14.1939796138
 20
11.3265498889
 10
-14.1841963268
 20
11.3228179007
 10
-14.1743049572
 20
11.3192909963
 10
-14.1643160779
 20
11.3159742486
 10
-14.1542402622
 20
11.3128727304
 10
-14.1440880831
 20
11.3099915143
 10
-14.1338701137
 20
11.3073356732
 10
-14.1235969273
 20
11.3049102798
 10
-14.1143108701
 20
11.3029286012
 10
-14.1049860544
 20
11.3011410925
 10
-14.0956198836
 20
11.299551152
 10
-14.0862097608
 20
11.298162178
 10
-14.0767530892
 20
11.2969775687
 10
-14.0672472722
 20
11.2960007225
 10
-14.0576897128
 20
11.2952350377
 10
-14.0480778144
 20
11.2946839125
 10
-14.0384089802
 20
11.2943507453
 10
-14.0286806133
 20
11.2942389344
  0
LINE
  5
2C0
100
AcDbEntity
  8
ASSI
100
AcDbLine
 62
253
  6
CONTINUOUS
 10
21.5229216467
 20
-0.132835763
 11
21.518821192
 21
-0.1329622072
  0
LINE
  5
2C1
100
AcDbEntity
  8
ASSI
100
AcDbLine
 62
253
  6
CONTINUOUS
 10
21.518821192
 20
-0.1329622072
 11
21.5138552752
 21
-0.1330862651
  0
LINE
  5
2C2
100
AcDbEntity
  8
ASSI
100
AcDbLine
 62
253
  6
CONTINUOUS
 10
21.774407285
 20
-0.3826569832
 11
21.7688543786
 21
-0.3827979379
  0
LINE
  5
2C3
100
AcDbEntity
  8
ASSI
100
AcDbLine
 62
253
  6
CONTINUOUS
 10
21.5138552752
 20
-0.1330862651
 11
21.504826998
 21
-0.1332668744
  0
LINE
  5
2C4
100
AcDbEntity
  8
ASSI
100
AcDbLine
 62
253
  6
CONTINUOUS
 10
21.7688543786
 20
-0.3827979379
 11
21.761529914
 21
-0.3829370873
  0
LINE
  5
2C5
100
AcDbEntity
  8
ASSI
100
AcDbLine
 62
253
  6
CONTINUOUS
 10
21.504826998
 20
-0.1332668744
 11
21.4857576975
 21
-0.1335497263
  0
LINE
  5
2C6
100
AcDbEntity
  8
ASSI
100
AcDbLine
 62
253
  6
CONTINUOUS
 10
21.761529914
 20
-0.3829370873
 11
21.74167939
 21
-0.3832078737
  0
LINE
  5
2C7
100
AcDbEntity
  8
ASSI
100
AcDbLine
 62
253
  6
CONTINUOUS
 10
21.4857576975
 20
-0.1335497263
 11
21.4457955441
 21
-0.1339413433
  0
LINE
  5
2C8
100
AcDbEntity
  8
ASSI
100
AcDbLine
 62
253
  6
CONTINUOUS
 10
21.74167939
 20
-0.3832078737
 11
21.6823070589
 21
-0.3837061555
  0
LINE
  5
2C9
100
AcDbEntity
  8
ASSI
100
AcDbLine
 62
253
  6
CONTINUOUS
 10
21.4457955441
 20
-0.1339413433
 11
21.3617395953
 21
-0.1343682002
  0
LINE
  5
2CA
100
AcDbEntity
  8
ASSI
100
AcDbLine
 62
253
  6
CONTINUOUS
 10
21.6823070589
 20
-0.3837061555
 11
21.457212303
 21
-0.3845199097
  0
LINE
  5
2CB
100
AcDbEntity
  8
ASSI
100
AcDbLine
 62
253
  6
CONTINUOUS
 10
-22.1974329865
 20
0.1602874367
 11
-22.0932960006
 21
0.1606466706
  0
LINE
  5
2CC
100
AcDbEntity
  8
ASSI
100
AcDbLine
 62
253
  6
CONTINUOUS
 10
21.3617395953
 20
-0.1343682002
 11
21.2804296102
 21
-0.1344868189
  0
LINE
  5
2CD
100
AcDbEntity
  8
ASSI
100
AcDbLine
 62
253
  6
CONTINUOUS
 10
-22.0932960006
 20
0.1606466706
 11
-22.0557958821
 21
0.1606713575
  0
LINE
  5
2CE
100
AcDbEntity
  8
ASSI
100
AcDbLine
 62
253
  6
CONTINUOUS
 10
21.457212303
 20
-0.3845199097
 11
-22.0557931988
 21
-0.3846761841
  0
LINE
  5
2CF
100
AcDbEntity
  8
ASSI
100
AcDbLine
 62
7
  6
CONTINUOUS
 10
21.2804296102
 20
-0.1344868189
 11
-22.0557958821
 21
-0.1344868189
  0
LINE
  5
2D0
100
AcDbEntity
  8
ASSI
100
AcDbLine
 62
7
  6
CONTINUOUS
 10
19.1123168641
 20
-0.113088334
 11
-19.8876831359
 21
-0.113088334
  0
LINE
  5
2D1
100
AcDbEntity
  8
ASSI
100
AcDbLine
 62
7
  6
CONTINUOUS
 10
21.7122406623
 20
-0.0869077307
 11
19.3747828547
 21
-0.0869077307
  0
LINE
  5
2D2
100
AcDbEntity
  8
ASSI
100
AcDbLine
 62
7
  6
CONTINUOUS
 10
-20.1501491265
 20
-0.0869077307
 11
-22.4876069342
 21
-0.0869077307
  0
LINE
  5
2D3
100
AcDbEntity
  8
ASSI
100
AcDbLine
 62
7
  6
CONTINUOUS
 10
-22.4876069342
 20
0.1130922693
 11
-20.1501491265
 21
0.1130922693
  0
LINE
  5
2D4
100
AcDbEntity
  8
ASSI
100
AcDbLine
 62
7
  6
CONTINUOUS
 10
19.3747828547
 20
0.1130922693
 11
21.7122406623
 21
0.1130922693
  0
LINE
  5
2D5
100
AcDbEntity
  8
ASSI
100
AcDbLine
 62
7
  6
CONTINUOUS
 10
-19.8876831359
 20
0.1392728727
 11
19.1123168641
 21
0.1392728727
  0
LINE
  5
2D6
100
AcDbEntity
  8
ASSI
100
AcDbLine
 62
7
  6
CONTINUOUS
 10
-22.0557958821
 20
0.1606713575
 11
21.2804296102
 21
0.1606713575
  0
LINE
  5
2D7
100
AcDbEntity
  8
ASSI
100
AcDbLine
 62
253
  6
CONTINUOUS
 10
-22.0557958821
 20
-0.1344868189
 11
-22.1716457165
 21
-0.134238428
  0
LINE
  5
2D8
100
AcDbEntity
  8
ASSI
100
AcDbLine
 62
253
  6
CONTINUOUS
 10
21.2804296102
 20
0.1606713575
 11
21.3962794447
 21
0.1604229667
  0
LINE
  5
2D9
100
AcDbEntity
  8
ASSI
100
AcDbLine
 62
253
  6
CONTINUOUS
 10
-22.0557931988
 20
-0.3846761849
 11
-22.4390376289
 21
-0.383819006
  0
LINE
  5
2DA
100
AcDbEntity
  8
ASSI
100
AcDbLine
 62
253
  6
CONTINUOUS
 10
21.3962794447
 20
0.1604229667
 11
21.4220667147
 21
0.1602874367
  0
LINE
  5
2DB
100
AcDbEntity
  8
ASSI
100
AcDbLine
 62
253
  6
CONTINUOUS
 10
-22.1716457165
 20
-0.134238428
 11
-22.2374042469
 21
-0.1338044625
  0
LINE
  5
2DC
100
AcDbEntity
  8
ASSI
100
AcDbLine
 62
253
  6
CONTINUOUS
 10
-22.4390376289
 20
-0.383819006
 11
-22.5110250807
 21
-0.3832736439
  0
LINE
  5
2DD
100
AcDbEntity
  8
ASSI
100
AcDbLine
 62
253
  6
CONTINUOUS
 10
-22.2374042469
 20
-0.1338044625
 11
-22.2693344244
 21
-0.1334396394
  0
LINE
  5
2DE
100
AcDbEntity
  8
ASSI
100
AcDbLine
 62
253
  6
CONTINUOUS
 10
-22.5110250807
 20
-0.3832736439
 11
-22.5325777101
 21
-0.3830057984
  0
LINE
  5
2DF
100
AcDbEntity
  8
ASSI
100
AcDbLine
 62
253
  6
CONTINUOUS
 10
-22.5325777101
 20
-0.3830057984
 11
-22.5407783537
 21
-0.3828677438
  0
LINE
  5
2E0
100
AcDbEntity
  8
ASSI
100
AcDbLine
 62
253
  6
CONTINUOUS
 10
-22.2693344244
 20
-0.1334396394
 11
-22.2834119113
 21
-0.1332074353
  0
LWPOLYLINE
  5
2E1
100
AcDbEntity
  8
ASSI
100
AcDbPolyline
 62
253
  6
CONTINUOUS
 90
7
 70
0
 10
-22.5407783537
 20
-0.3828677438
 10
-22.5472199435
 20
-0.382727681
 10
-22.5497735568
 20
-0.3826569832
 10
-22.5518792125
 20
-0.3825860121
 10
-22.5535350026
 20
-0.3825148308
 10
-22.5547394106
 20
-0.3824433979
 10
-22.5554913395
 20
-0.3823717243
  0
LINE
  5
2E2
100
AcDbEntity
  8
ASSI
100
AcDbLine
 62
253
  6
CONTINUOUS
 10
-22.2834119113
 20
-0.1332074353
 11
-22.2918125413
 21
-0.133024534
  0
LWPOLYLINE
  5
2E3
100
AcDbEntity
  8
ASSI
100
AcDbPolyline
 62
253
  6
CONTINUOUS
 90
10
 70
0
 10
-22.2918125413
 20
-0.133024534
 10
-22.296345727
 20
-0.1328992829
 10
-22.2982879185
 20
-0.132835763
 10
-22.3000087587
 20
-0.1327718206
 10
-22.301507648
 20
-0.1327074533
 10
-22.3027851859
 20
-0.1326426635
 10
-22.3038378917
 20
-0.1325776309
 10
-22.3046646052
 20
-0.1325124155
 10
-22.3052664866
 20
-0.1324469575
 10
-22.305643536
 20
-0.1323812567
  0
LINE
  5
2E4
100
AcDbEntity
  8
0
100
AcDbLine
 62
253
  6
CONTINUOUS
 10
-9.3361148228
 20
-11.7518891179
 11
-11.646703375
 21
-13.9447557841
  0
LINE
  5
2E5
100
AcDbEntity
  8
ASSI
100
AcDbLine
 62
7
  6
CONTINUOUS
 10
-20.1501491265
 20
0.1130922693
 11
-19.8876831359
 21
0.1392728727
  0
LINE
  5
2E6
100
AcDbEntity
  8
ASSI
100
AcDbLine
 62
253
  6
CONTINUOUS
 10
-22.2982879185
 20
0.1590203017
 11
-22.2941874639
 21
0.1591467458
  0
LINE
  5
2E7
100
AcDbEntity
  8
ASSI
100
AcDbLine
 62
253
  6
CONTINUOUS
 10
-22.2941874639
 20
0.1591467458
 11
-22.289221547
 21
0.1592708038
  0
LINE
  5
2E8
100
AcDbEntity
  8
ASSI
100
AcDbLine
 62
253
  6
CONTINUOUS
 10
-22.5497735568
 20
0.4088415218
 11
-22.5442206504
 21
0.4089824766
  0
LINE
  5
2E9
100
AcDbEntity
  8
ASSI
100
AcDbLine
 62
253
  6
CONTINUOUS
 10
-22.289221547
 20
0.1592708038
 11
-22.2801932698
 21
0.159451413
  0
LINE
  5
2EA
100
AcDbEntity
  8
ASSI
100
AcDbLine
 62
253
  6
CONTINUOUS
 10
-22.5442206504
 20
0.4089824766
 11
-22.5368961858
 21
0.4091216259
  0
LINE
  5
2EB
100
AcDbEntity
  8
ASSI
100
AcDbLine
 62
253
  6
CONTINUOUS
 10
-22.2801932698
 20
0.159451413
 11
-22.2611239693
 21
0.159734265
  0
LINE
  5
2EC
100
AcDbEntity
  8
ASSI
100
AcDbLine
 62
253
  6
CONTINUOUS
 10
-22.5368961858
 20
0.4091216259
 11
-22.5170456618
 21
0.4093924123
  0
LINE
  5
2ED
100
AcDbEntity
  8
ASSI
100
AcDbLine
 62
253
  6
CONTINUOUS
 10
-22.2611239693
 20
0.159734265
 11
-22.2211618159
 21
0.160125882
  0
LINE
  5
2EE
100
AcDbEntity
  8
ASSI
100
AcDbLine
 62
253
  6
CONTINUOUS
 10
-22.5170456618
 20
0.4093924123
 11
-22.4576733307
 21
0.4098906941
  0
LINE
  5
2EF
100
AcDbEntity
  8
ASSI
100
AcDbLine
 62
253
  6
CONTINUOUS
 10
-22.2211618159
 20
0.160125882
 11
-22.1974329865
 21
0.1602874367
  0
LINE
  5
2F0
100
AcDbEntity
  8
ASSI
100
AcDbLine
 62
253
  6
CONTINUOUS
 10
-22.4576733307
 20
0.4098906941
 11
-22.2325785748
 21
0.4107044484
  0
LINE
  5
2F1
100
AcDbEntity
  8
ASSI
100
AcDbLine
 62
253
  6
CONTINUOUS
 10
-22.2325785748
 20
0.4107044484
 11
21.6223029674
 21
0.4102123706
  0
LINE
  5
2F2
100
AcDbEntity
  8
ASSI
100
AcDbLine
 62
253
  6
CONTINUOUS
 10
21.6223029674
 20
0.4102123706
 11
21.7223849545
 21
0.4095870597
  0
LINE
  5
2F3
100
AcDbEntity
  8
ASSI
100
AcDbLine
 62
253
  6
CONTINUOUS
 10
21.4220667147
 20
0.1602874367
 11
21.472052186
 21
0.1598908619
  0
LINE
  5
2F4
100
AcDbEntity
  8
ASSI
100
AcDbLine
 62
253
  6
CONTINUOUS
 10
21.7223849545
 20
0.4095870597
 11
21.7524605965
 21
0.4092584028
  0
LINE
  5
2F5
100
AcDbEntity
  8
ASSI
100
AcDbLine
 62
253
  6
CONTINUOUS
 10
21.472052186
 20
0.1598908619
 11
21.4977882545
 21
0.159567515
  0
LINE
  5
2F6
100
AcDbEntity
  8
ASSI
100
AcDbLine
 62
253
  6
CONTINUOUS
 10
21.7524605965
 20
0.4092584028
 11
21.7654120819
 21
0.4090522825
  0
LINE
  5
2F7
100
AcDbEntity
  8
ASSI
100
AcDbLine
 62
253
  6
CONTINUOUS
 10
21.4977882545
 20
0.159567515
 11
21.5110552523
 21
0.1593317716
  0
LWPOLYLINE
  5
2F8
100
AcDbEntity
  8
ASSI
100
AcDbPolyline
 62
253
  6
CONTINUOUS
 90
7
 70
0
 10
21.7654120819
 20
0.4090522825
 10
21.7718536717
 20
0.4089122197
 10
21.774407285
 20
0.4088415218
 10
21.7765129407
 20
0.4087705507
 10
21.7781687308
 20
0.4086993695
 10
21.7793731388
 20
0.4086279366
 10
21.7801250677
 20
0.4085562629
  0
LINE
  5
2F9
100
AcDbEntity
  8
ASSI
100
AcDbLine
 62
253
  6
CONTINUOUS
 10
21.5110552523
 20
0.1593317716
 11
21.5164462694
 21
0.1592090726
  0
LWPOLYLINE
  5
2FA
100
AcDbEntity
  8
ASSI
100
AcDbPolyline
 62
253
  6
CONTINUOUS
 90
10
 70
0
 10
21.5164462694
 20
0.1592090726
 10
21.5209794552
 20
0.1590838216
 10
21.5229216467
 20
0.1590203017
 10
21.5246424869
 20
0.1589563592
 10
21.5261413761
 20
0.158891992
 10
21.527418914
 20
0.1588272021
 10
21.5284716199
 20
0.1587621695
 10
21.5292983334
 20
0.1586969542
 10
21.5299002148
 20
0.1586314961
 10
21.5302772641
 20
0.1585657953
  0
LINE
  5
2FB
100
AcDbEntity
  8
ASSI
100
AcDbLine
 62
7
  6
CONTINUOUS
 10
19.3747828547
 20
0.1130922693
 11
19.1123168641
 21
0.1392728727
  0
LWPOLYLINE
  5
2FC
100
AcDbEntity
  8
0
100
AcDbPolyline
 62
253
  6
CONTINUOUS
 90
54
 70
0
 10
-8.9390987219
 20
-12.0411668956
 10
-8.9300238266
 20
-12.0323246977
 10
-8.9212693165
 20
-12.0233044663
 10
-8.9128132141
 20
-12.0140913116
 10
-8.9046335421
 20
-12.0046703436
 10
-8.896713065
 20
-11.9950299855
 10
-8.889053515
 20
-11.9851719123
 10
-8.8816613661
 20
-11.9751011123
 10
-8.8745430925
 20
-11.9648225736
 10
-8.8677058326
 20
-11.9543422872
 10
-8.8611593819
 20
-11.9436702556
 10
-8.8549142002
 20
-11.9328174841
 10
-8.8489807473
 20
-11.921794978
 10
-8.8433683102
 20
-11.9106131295
 10
-8.8380814858
 20
-11.8992798787
 10
-8.8331236983
 20
-11.8878025524
 10
-8.8284983718
 20
-11.8761884774
 10
-8.8236231773
 20
-11.8627579099
 10
-8.8191882333
 20
-11.8491734947
 10
-8.8151950829
 20
-11.8354504249
 10
-8.8116452693
 20
-11.8216038935
 10
-8.8085403357
 20
-11.8076490936
 10
-8.8058818254
 20
-11.7936012181
 10
-8.8036712814
 20
-11.77947546
 10
-8.8019099985
 20
-11.7652868606
 10
-8.8005982772
 20
-11.7510498536
 10
-8.7997361693
 20
-11.7367787208
 10
-8.7993237269
 20
-11.7224877442
 10
-8.7993610019
 20
-11.7081912057
 10
-8.7998480461
 20
-11.6939033871
 10
-8.8007849116
 20
-11.6796385705
 10
-8.8021714153
 20
-11.6654109252
 10
-8.8040064342
 20
-11.6512341712
 10
-8.8062886106
 20
-11.637121916
 10
-8.8090165866
 20
-11.6230877672
 10
-8.8121890041
 20
-11.6091453323
 10
-8.8158045055
 20
-11.5953082188
 10
-8.8198617327
 20
-11.5815900343
 10
-8.8237728687
 20
-11.5696949218
 10
-8.8280189107
 20
-11.5579106552
 10
-8.8325976077
 20
-11.5462466072
 10
-8.8375067089
 20
-11.5347121505
 10
-8.842742968
 20
-11.5233174507
 10
-8.848299157
 20
-11.5120758454
 10
-8.8541670526
 20
-11.5010014652
 10
-8.8603384313
 20
-11.4901084407
 10
-8.8668057805
 20
-11.4794095578
 10
-8.8735644314
 20
-11.4689122244
 10
-8.8806104259
 20
-11.4586225036
 10
-8.8879398059
 20
-11.4485464586
 10
-8.8955530454
 20
-11.4386869352
 10
-8.9034683461
 20
-11.4290339105
 10
-8.911708342
 20
-11.4195741442
 10
-8.9202956668
 20
-11.4102943958
  0
LINE
  5
2FD
100
AcDbEntity
  8
0
100
AcDbLine
 62
253
  6
CONTINUOUS
 10
-11.3381661113
 20
-14.3182063395
 11
-8.9390987219
 21
-12.0411668956
  0
LWPOLYLINE
  5
2FE
100
AcDbEntity
  8
ASSI
100
AcDbPolyline
 62
253
  6
CONTINUOUS
 90
8
 70
0
 10
-22.305643536
 20
0.1585657953
 10
-22.3052664866
 20
0.1586314961
 10
-22.3046646052
 20
0.1586969542
 10
-22.3038378917
 20
0.1587621695
 10
-22.3027851859
 20
0.1588272021
 10
-22.301507648
 20
0.158891992
 10
-22.3000087587
 20
0.1589563592
 10
-22.2982879185
 20
0.1590203017
  0
LWPOLYLINE
  5
2FF
100
AcDbEntity
  8
ASSI
100
AcDbPolyline
 62
253
  6
CONTINUOUS
 90
5
 70
0
 10
-22.5554913395
 20
0.4085562629
 10
-22.5547394106
 20
0.4086279366
 10
-22.5535350026
 20
0.4086993695
 10
-22.5518792125
 20
0.4087705507
 10
-22.5497735568
 20
0.4088415218
  0
LWPOLYLINE
  5
300
100
AcDbEntity
  8
0
100
AcDbPolyline
 62
253
  6
CONTINUOUS
 90
51
 70
0
 10
-11.3194179047
 20
14.343932267
 10
-11.3288247495
 20
14.3526880289
 10
-11.3384671442
 20
14.361075733
 10
-11.3483591763
 20
14.3691176228
 10
-11.3585149334
 20
14.376835942
 10
-11.3689485029
 20
14.3842529341
 10
-11.379672541
 20
14.3913864058
 10
-11.3906939787
 20
14.3982364167
 10
-11.4020183157
 20
14.4047985897
 10
-11.4136510516
 20
14.4110685476
 10
-11.425597686
 20
14.4170419131
 10
-11.4378578704
 20
14.4227122285
 10
-11.4504078634
 20
14.4280647127
 10
-11.4632180756
 20
14.4330825041
 10
-11.4762589174
 20
14.4377487411
 10
-11.4895007993
 20
14.442046562
 10
-11.5029168927
 20
14.4459610664
 10
-11.5164914126
 20
14.4494851989
 10
-11.5302113353
 20
14.4526138655
 10
-11.5440636367
 20
14.4553419719
 10
-11.5580352928
 20
14.4576644241
 10
-11.5721118257
 20
14.4595760127
 10
-11.5862729405
 20
14.4610710669
 10
-11.6004968884
 20
14.4621438007
 10
-11.6147619204
 20
14.462788428
 10
-11.6290462877
 20
14.4629991628
 10
-11.6433289583
 20
14.4627719926
 10
-11.6575917683
 20
14.4621099992
 10
-11.6718172709
 20
14.4610180381
 10
-11.6859880192
 20
14.4595009644
 10
-11.7000865662
 20
14.4575636337
 10
-11.7140952402
 20
14.4552109936
 10
-11.72799547
 20
14.4524483613
 10
-11.7417684594
 20
14.4492811462
 10
-11.7553954124
 20
14.4457147577
 10
-11.768857533
 20
14.4417546055
 10
-11.7821335069
 20
14.4374087364
 10
-11.7951919476
 20
14.4326957481
 10
-11.8079989505
 20
14.4276368754
 10
-11.8205206111
 20
14.4222533535
 10
-11.8327230247
 20
14.4165664173
 10
-11.8445796511
 20
14.4105945413
 10
-11.8560934068
 20
14.4043451567
 10
-11.8672745726
 20
14.3978229344
 10
-11.8781334295
 20
14.391032545
 10
-11.8886802583
 20
14.3839786593
 10
-11.8989261907
 20
14.3766617128
 10
-11.9088857614
 20
14.3690652011
 10
-11.9185743562
 20
14.3611683844
 10
-11.9280073607
 20
14.3529505233
 10
-11.9372001605
 20
14.3443908781
  0
LINE
  5
301
100
AcDbEntity
  8
0
100
AcDbLine
 62
253
  6
CONTINUOUS
 10
-11.6286628968
 20
13.9709403227
 11
-9.3166632336
 21
11.7776150454
  0
LINE
  5
302
100
AcDbEntity
  8
0
100
AcDbLine
 62
253
  6
CONTINUOUS
 10
-8.9208112992
 20
12.0678453231
 11
-11.3194179047
 21
14.343932267
  0
LINE
  5
303
100
AcDbEntity
  8
ASSI
100
AcDbLine
 62
253
  6
CONTINUOUS
 10
21.4350986693
 20
22.2213302099
 11
21.3342871322
 21
22.0700360412
  0
LINE
  5
304
100
AcDbEntity
  8
ASSI
100
AcDbLine
 62
253
  6
CONTINUOUS
 10
21.9360095547
 20
21.7238395771
 11
21.8339825457
 21
21.5707212739
  0
LINE
  5
305
100
AcDbEntity
  8
ASSI
100
AcDbLine
 62
253
  6
CONTINUOUS
 10
-22.4876069342
 20
0.1130922693
 11
-22.305643536
 21
0.1585657953
  0
LINE
  5
306
100
AcDbEntity
  8
ASSI
100
AcDbLine
 62
253
  6
CONTINUOUS
 10
-22.7376831359
 20
0.3630256481
 11
-22.5554913395
 21
0.4085562519
  0
LINE
  5
307
100
AcDbEntity
  8
ASSI
100
AcDbLine
 62
253
  6
CONTINUOUS
 10
21.5302772641
 20
0.1585657953
 11
21.7122406623
 21
0.1130922693
  0
LINE
  5
308
100
AcDbEntity
  8
ASSI
100
AcDbLine
 62
253
  6
CONTINUOUS
 10
21.7801250677
 20
0.4085562519
 11
21.9623168641
 21
0.3630256481
  0
LINE
  5
309
100
AcDbEntity
  8
ASSI
100
AcDbLine
 62
253
  6
CONTINUOUS
 10
21.3342871322
 20
-22.0438515026
 11
21.4350986693
 21
-22.1951456712
  0
LINE
  5
30A
100
AcDbEntity
  8
ASSI
100
AcDbLine
 62
253
  6
CONTINUOUS
 10
21.8339825457
 20
-21.5445367352
 11
21.9360095547
 21
-21.6976550384
  0
LWPOLYLINE
  5
30B
100
AcDbEntity
  8
ASSI
100
AcDbPolyline
 62
253
  6
CONTINUOUS
 90
18
 70
0
 10
21.8339825457
 20
21.5707212739
 10
21.8335145185
 20
21.5698377463
 10
21.8330481135
 20
21.5685972748
 10
21.8325833309
 20
21.5669998596
 10
21.832119824
 20
21.5650438141
 10
21.8316579394
 20
21.5627308247
 10
21.8311987165
 20
21.5600659508
 10
21.8307421743
 20
21.5570484472
 10
21.8302882939
 20
21.5536790591
 10
21.8298380581
 20
21.5499650812
 10
21.8293914764
 20
21.5459057769
 10
21.8289485392
 20
21.5415018829
 10
21.8285102013
 20
21.5367629044
 10
21.828076472
 20
21.5316881121
 10
21.8276473419
 20
21.5262782354
 10
21.827223738
 20
21.5205449679
 10
21.8268056724
 20
21.5144876106
 10
21.8259870106
 20
21.5014165142
  0
LINE
  5
30C
100
AcDbEntity
  8
ASSI
100
AcDbLine
 62
253
  6
CONTINUOUS
 10
-22.5277833267
 20
9.5065822771
 11
-22.5157126841
 21
9.5071532143
  0
LINE
  5
30D
100
AcDbEntity
  8
ASSI
100
AcDbLine
 62
253
  6
CONTINUOUS
 10
-22.5157126841
 20
9.5071532143
 11
-22.5017719885
 21
9.5077095728
  0
LINE
  5
30E
100
AcDbEntity
  8
ASSI
100
AcDbLine
 62
253
  6
CONTINUOUS
 10
-22.5017719885
 20
9.5077095728
 11
-22.4860183138
 21
9.5082490748
  0
LINE
  5
30F
100
AcDbEntity
  8
ASSI
100
AcDbLine
 62
253
  6
CONTINUOUS
 10
-22.4860183138
 20
9.5082490748
 11
-22.4591315166
 21
9.5090219115
  0
LINE
  5
310
100
AcDbEntity
  8
ASSI
100
AcDbLine
 62
253
  6
CONTINUOUS
 10
-22.4591315166
 20
9.5090219115
 11
-22.4175981994
 21
9.5099734266
  0
LINE
  5
311
100
AcDbEntity
  8
ASSI
100
AcDbLine
 62
253
  6
CONTINUOUS
 10
-22.4175981994
 20
9.5099734266
 11
-22.3575193779
 21
9.5110143541
  0
LINE
  5
312
100
AcDbEntity
  8
ASSI
100
AcDbLine
 62
253
  6
CONTINUOUS
 10
-22.3575193779
 20
9.5110143541
 11
-22.2755072682
 21
9.5120112229
  0
LINE
  5
313
100
AcDbEntity
  8
ASSI
100
AcDbLine
 62
253
  6
CONTINUOUS
 10
-22.2755072682
 20
9.5120112229
 11
-22.1699974076
 21
9.5127812869
  0
LINE
  5
314
100
AcDbEntity
  8
ASSI
100
AcDbLine
 62
253
  6
CONTINUOUS
 10
-22.1699974076
 20
9.5127812869
 11
-22.0589390944
 21
9.5130922693
  0
LINE
  5
315
100
AcDbEntity
  8
ASSI
100
AcDbLine
 62
253
  6
CONTINUOUS
 10
21.3789776861
 20
9.512854437
 11
-22.0589390944
 21
9.5130922693
  0
LINE
  5
316
100
AcDbEntity
  8
ASSI
100
AcDbLine
 62
253
  6
CONTINUOUS
 10
21.485612324
 20
9.5121481199
 11
21.3789776861
 21
9.512854437
  0
LINE
  5
317
100
AcDbEntity
  8
ASSI
100
AcDbLine
 62
253
  6
CONTINUOUS
 10
21.569169382
 20
9.5112005601
 11
21.485612324
 21
9.5121481199
  0
LINE
  5
318
100
AcDbEntity
  8
ASSI
100
AcDbLine
 62
253
  6
CONTINUOUS
 10
21.630903065
 20
9.5101955665
 11
21.569169382
 21
9.5112005601
  0
LINE
  5
319
100
AcDbEntity
  8
ASSI
100
AcDbLine
 62
253
  6
CONTINUOUS
 10
21.6739708988
 20
9.5092687527
 11
21.630903065
 21
9.5101955665
  0
LINE
  5
31A
100
AcDbEntity
  8
ASSI
100
AcDbLine
 62
253
  6
CONTINUOUS
 10
21.7021152097
 20
9.5085118115
 11
21.6739708988
 21
9.5092687527
  0
LINE
  5
31B
100
AcDbEntity
  8
ASSI
100
AcDbLine
 62
253
  6
CONTINUOUS
 10
21.7187516418
 20
9.5079815706
 11
21.7021152097
 21
9.5085118115
  0
LINE
  5
31C
100
AcDbEntity
  8
ASSI
100
AcDbLine
 62
253
  6
CONTINUOUS
 10
21.733606431
 20
9.5074333597
 11
21.7187516418
 21
9.5079815706
  0
LWPOLYLINE
  5
31D
100
AcDbEntity
  8
0
100
AcDbPolyline
 62
253
  6
CONTINUOUS
 90
55
 70
0
 10
-9.2295976802
 20
11.2942389344
 10
-9.2159374147
 20
11.2944563911
 10
-9.2024067969
 20
11.2951043164
 10
-9.1889709981
 20
11.2961760434
 10
-9.1755951895
 20
11.2976649053
 10
-9.1622445425
 20
11.299564235
 10
-9.148891219
 20
11.3018692452
 10
-9.1355353432
 20
11.304582667
 10
-9.12218403
 20
11.3077091111
 10
-9.1088443946
 20
11.3112531881
 10
-9.0955235517
 20
11.3152195086
 10
-9.082231176
 20
11.3196119468
 10
-9.0689871814
 20
11.324431431
 10
-9.0558140415
 20
11.3296781531
 10
-9.0427342297
 20
11.3353523049
 10
-9.0297702197
 20
11.3414540783
 10
-9.019075296
 20
11.3468626456
 10
-9.0085118709
 20
11.352550191
 10
-8.9981154184
 20
11.3584985998
 10
-8.9879122409
 20
11.3646955185
 10
-8.977891955
 20
11.3711516364
 10
-8.9680350055
 20
11.3778834038
 10
-8.95832817
 20
11.3849035118
 10
-8.9487835571
 20
11.3922096139
 10
-8.9394196079
 20
11.3997956043
 10
-8.9302547638
 20
11.4076553771
 10
-8.921307466
 20
11.4157828267
 10
-8.9125961557
 20
11.4241718471
 10
-8.9041373135
 20
11.4328142405
 10
-8.8959395775
 20
11.4416934397
 10
-8.8880096247
 20
11.4507907855
 10
-8.8803541325
 20
11.4600876188
 10
-8.8729797781
 20
11.4695652804
 10
-8.8658932388
 20
11.4792051109
 10
-8.859097265
 20
11.4889947089
 10
-8.8525789007
 20
11.4989467043
 10
-8.8463212628
 20
11.5090799845
 10
-8.8403131813
 20
11.5194046858
 10
-8.8345663375
 20
11.5298959386
 10
-8.8290981256
 20
11.5405201221
 10
-8.8229235757
 20
11.5534034373
 10
-8.8171754742
 20
11.5664086489
 10
-8.8118539922
 20
11.579514647
 10
-8.8069593004
 20
11.5927003218
 10
-8.8024915697
 20
11.6059445634
 10
-8.7984503431
 20
11.6192284476
 10
-8.7948326519
 20
11.6325417921
 10
-8.7916348995
 20
11.6458766002
 10
-8.7888534894
 20
11.6592248754
 10
-8.786484825
 20
11.6725786209
 10
-8.7845271346
 20
11.6859369976
 10
-8.7829859458
 20
11.6993277965
 10
-8.7818686111
 20
11.7127859662
 10
-8.781182483
 20
11.7263464552
 10
-8.7809349139
 20
11.7400442121
  0
LINE
  5
31E
100
AcDbEntity
  8
0
100
AcDbLine
 62
253
  6
CONTINUOUS
 10
-14.0286806133
 20
11.2942389344
 11
-9.2295976802
 21
11.2942389344
  0
LINE
  5
31F
100
AcDbEntity
  8
0
100
AcDbLine
 62
253
  6
CONTINUOUS
 10
-9.3166632336
 20
11.7776150454
 11
-13.939251449
 21
11.7780736565
  0
LWPOLYLINE
  5
320
100
AcDbEntity
  8
ASSI
100
AcDbPolyline
 62
253
  6
CONTINUOUS
 90
13
 70
0
 10
21.3342871322
 20
22.0700360412
 10
21.3338189261
 20
22.068271695
 10
21.3333523946
 20
22.0657891874
 10
21.3328875375
 20
22.06259032
 10
21.3324240284
 20
22.058677422
 10
21.3319621938
 20
22.0540533179
 10
21.3315030132
 20
22.0487213077
 10
21.3310464816
 20
22.0426851979
 10
21.330592604
 20
22.0359493577
 10
21.3301423744
 20
22.0285186884
 10
21.3296958079
 20
22.0203985815
 10
21.3292528894
 20
22.0115948737
 10
21.3283808536
 20
21.9919624397
  0
LWPOLYLINE
  5
321
100
AcDbEntity
  8
ASSI
100
AcDbPolyline
 62
253
  6
CONTINUOUS
 90
11
 70
0
 10
21.7832682361
 20
-9.4774077307
 10
21.7824542905
 20
-9.4777118434
 10
21.7811296031
 20
-9.4780156448
 10
21.7792955298
 20
-9.4783188239
 10
21.7769539486
 20
-9.4786210701
 10
21.7741072566
 20
-9.4789220742
 10
21.7707583681
 20
-9.479221528
 10
21.7669107117
 20
-9.4795191248
 10
21.7625682266
 20
-9.4798145601
 10
21.7577353584
 20
-9.4801075313
 10
21.7524170548
 20
-9.4803977385
  0
LWPOLYLINE
  5
322
100
AcDbEntity
  8
ASSI
100
AcDbPolyline
 62
253
  6
CONTINUOUS
 90
13
 70
0
 10
21.7832682361
 20
9.5035922693
 10
21.7824542906
 20
9.5038963821
 10
21.7811296031
 20
9.5042001835
 10
21.7792955299
 20
9.5045033625
 10
21.7769539486
 20
9.5048056088
 10
21.7741072566
 20
9.5051066129
 10
21.7707583682
 20
9.5054060666
 10
21.7669107118
 20
9.5057036635
 10
21.7625682267
 20
9.5059990987
 10
21.7577353584
 20
9.5062920699
 10
21.7524170549
 20
9.5065822771
 10
21.7466187609
 20
9.5068694232
 10
21.733606431
 20
9.5074333597
  0
LWPOLYLINE
  5
323
100
AcDbEntity
  8
ASSI
100
AcDbPolyline
 62
253
  6
CONTINUOUS
 90
16
 70
0
 10
21.827223738
 20
-21.4943604293
 10
21.8276473419
 20
-21.5000936968
 10
21.828076472
 20
-21.5055035735
 10
21.8285102013
 20
-21.5105783658
 10
21.8289485392
 20
-21.5153173442
 10
21.8293914764
 20
-21.5197212382
 10
21.8298380581
 20
-21.5237805426
 10
21.8302882939
 20
-21.5274945204
 10
21.8307421743
 20
-21.5308639086
 10
21.8311987165
 20
-21.5338814122
 10
21.8316579394
 20
-21.5365462861
 10
21.832119824
 20
-21.5388592754
 10
21.8325833309
 20
-21.5408153209
 10
21.8330481135
 20
-21.5424127362
 10
21.8335145185
 20
-21.5436532076
 10
21.8339825457
 20
-21.5445367352
  0
LINE
  5
324
100
AcDbEntity
  8
ASSI
100
AcDbLine
 62
253
  6
CONTINUOUS
 10
21.8263931331
 20
-21.4819223239
 11
21.827223738
 21
-21.4943604293
  0
LINE
  5
325
100
AcDbEntity
  8
ASSI
100
AcDbLine
 62
253
  6
CONTINUOUS
 10
21.8255873189
 20
-21.4682313573
 11
21.8263931331
 21
-21.4819223239
  0
LWPOLYLINE
  5
326
100
AcDbEntity
  8
ASSI
100
AcDbPolyline
 62
253
  6
CONTINUOUS
 90
11
 70
0
 10
21.3296958079
 20
-21.9942140428
 10
21.3301423744
 20
-22.0023341498
 10
21.330592604
 20
-22.009764819
 10
21.3310464816
 20
-22.0165006592
 10
21.3315030132
 20
-22.022536769
 10
21.3319621938
 20
-22.0278687793
 10
21.3324240284
 20
-22.0324928833
 10
21.3328875375
 20
-22.0364057814
 10
21.3333523946
 20
-22.0396046487
 10
21.3338189261
 20
-22.0420871564
 10
21.3342871322
 20
-22.0438515026
  0
LINE
  5
327
100
AcDbEntity
  8
ASSI
100
AcDbLine
 62
253
  6
CONTINUOUS
 10
21.8248080353
 20
-21.4533171197
 11
21.8255873189
 21
-21.4682313573
  0
LINE
  5
328
100
AcDbEntity
  8
ASSI
100
AcDbLine
 62
253
  6
CONTINUOUS
 10
21.3288145689
 20
-21.9759293486
 11
21.3296958079
 21
-21.9942140428
  0
LWPOLYLINE
  5
329
100
AcDbEntity
  8
ASSI
100
AcDbPolyline
 62
253
  6
CONTINUOUS
 90
3
 70
0
 10
21.8236944531
 20
-21.4287580588
 10
21.8240578473
 20
-21.4372264251
 10
21.8248080353
 20
-21.4533171197
  0
LINE
  5
32A
100
AcDbEntity
  8
ASSI
100
AcDbLine
 62
253
  6
CONTINUOUS
 10
21.3279517362
 20
-21.9549633234
 11
21.3288145689
 21
-21.9759293486
  0
LINE
  5
32B
100
AcDbEntity
  8
ASSI
100
AcDbLine
 62
253
  6
CONTINUOUS
 10
21.3271100938
 20
-21.9313764914
 11
21.3279517362
 21
-21.9549633234
  0
LINE
  5
32C
100
AcDbEntity
  8
ASSI
100
AcDbLine
 62
253
  6
CONTINUOUS
 10
21.3258917824
 20
-21.8912330855
 11
21.3271100938
 21
-21.9313764914
  0
LINE
  5
32D
100
AcDbEntity
  8
ASSI
100
AcDbLine
 62
253
  6
CONTINUOUS
 10
21.3243623624
 20
-21.8292319188
 11
21.3258917824
 21
-21.8912330855
  0
LINE
  5
32E
100
AcDbEntity
  8
ASSI
100
AcDbLine
 62
253
  6
CONTINUOUS
 10
21.3236436818
 20
-21.7947976172
 11
21.3243623624
 21
-21.8292319188
  0
LINE
  5
32F
100
AcDbEntity
  8
ASSI
100
AcDbLine
 62
253
  6
CONTINUOUS
 10
21.3251125249
 20
21.8875924935
 11
21.3236436818
 21
21.8209821559
  0
LINE
  5
330
100
AcDbEntity
  8
ASSI
100
AcDbLine
 62
253
  6
CONTINUOUS
 10
21.3262914606
 20
21.9314214292
 11
21.3251125249
 21
21.8875924935
  0
LINE
  5
331
100
AcDbEntity
  8
ASSI
100
AcDbLine
 62
253
  6
CONTINUOUS
 10
21.3275281453
 20
21.9696779681
 11
21.3262914606
 21
21.9314214292
  0
LINE
  5
332
100
AcDbEntity
  8
ASSI
100
AcDbLine
 62
253
  6
CONTINUOUS
 10
21.3283808536
 20
21.9919624397
 11
21.3275281453
 21
21.9696779681
  0
LINE
  5
333
100
AcDbEntity
  8
ASSI
100
AcDbLine
 62
253
  6
CONTINUOUS
 10
21.8244293084
 20
21.4716032113
 11
21.8236944531
 21
21.4549425974
  0
LINE
  5
334
100
AcDbEntity
  8
ASSI
100
AcDbLine
 62
253
  6
CONTINUOUS
 10
21.8251940441
 20
21.4871056774
 11
21.8244293084
 21
21.4716032113
  0
LINE
  5
335
100
AcDbEntity
  8
ASSI
100
AcDbLine
 62
253
  6
CONTINUOUS
 10
21.8259870106
 20
21.5014165142
 11
21.8251940441
 21
21.4871056774
  0
LINE
  5
336
100
AcDbEntity
  8
ASSI
100
AcDbLine
 62
7
  6
CONTINUOUS
 10
18.668270565
 20
22.2213302099
 11
18.320051891
 21
22.1897213783
  0
LINE
  5
337
100
AcDbEntity
  8
ASSI
100
AcDbLine
 62
253
  6
CONTINUOUS
 10
21.3179356765
 20
21.2204886889
 11
-22.0933019483
 21
21.2204886889
  0
LINE
  5
338
100
AcDbEntity
  8
ASSI
100
AcDbLine
 62
7
  6
CONTINUOUS
 10
-19.4436368368
 20
22.2213302099
 11
-19.0954181628
 21
22.1897213783
  0
LINE
  5
339
100
AcDbEntity
  8
ASSI
100
AcDbLine
 62
253
  6
CONTINUOUS
 10
21.8226534724
 20
-21.4017139286
 11
21.8236944531
 21
-21.4287580588
  0
LINE
  5
33A
100
AcDbEntity
  8
ASSI
100
AcDbLine
 62
253
  6
CONTINUOUS
 10
21.8216918415
 20
-21.3723602346
 11
21.8226534724
 21
-21.4017139286
  0
LINE
  5
33B
100
AcDbEntity
  8
ASSI
100
AcDbLine
 62
253
  6
CONTINUOUS
 10
21.8208157837
 20
-21.3408871473
 11
21.8216918415
 21
-21.3723602346
  0
LINE
  5
33C
100
AcDbEntity
  8
ASSI
100
AcDbLine
 62
253
  6
CONTINUOUS
 10
21.8197906124
 20
-21.295983352
 11
21.8208157837
 21
-21.3408871473
  0
LWPOLYLINE
  5
33D
100
AcDbEntity
  8
ASSI
100
AcDbPolyline
 62
253
  6
CONTINUOUS
 90
43
 70
0
 10
21.7801249709
 20
-0.3823717374
 10
21.7799474767
 20
-0.3730261048
 10
21.7794209314
 20
-0.3636935378
 10
21.7785460712
 20
-0.3543870838
 10
21.7773241191
 20
-0.3451197538
 10
21.7757567836
 20
-0.3359045039
 10
21.7738462558
 20
-0.3267542174
 10
21.7715952067
 20
-0.317681687
 10
21.7690067835
 20
-0.3086995964
 10
21.7660846048
 20
-0.2998205031
 10
21.762832756
 20
-0.2910568204
 10
21.7592557835
 20
-0.2824208005
 10
21.7553586879
 20
-0.2739245169
 10
21.7511469175
 20
-0.2655798477
 10
21.7466263608
 20
-0.2573984594
 10
21.7418033375
 20
-0.2493917898
 10
21.7366845906
 20
-0.2415710326
 10
21.7312772764
 20
-0.2339471217
 10
21.7255889544
 20
-0.2265307157
 10
21.7196275773
 20
-0.2193321829
 10
21.7134014794
 20
-0.2123615874
 10
21.7069193651
 20
-0.2056286744
 10
21.7001902966
 20
-0.1991428567
 10
21.6932236815
 20
-0.1929132019
 10
21.6860292596
 20
-0.1869484193
 10
21.678617089
 20
-0.181256848
 10
21.6709975322
 20
-0.175846445
 10
21.6631812417
 20
-0.1707247743
 10
21.6551791452
 20
-0.1658989964
 10
21.6470024299
 20
-0.1613758577
 10
21.6386625273
 20
-0.157161682
 10
21.630171097
 20
-0.1532623608
 10
21.6215400103
 20
-0.1496833455
 10
21.612781334
 20
-0.1464296397
 10
21.6039073132
 20
-0.1435057924
 10
21.594930354
 20
-0.1409158911
 10
21.5858630068
 20
-0.1386635567
 10
21.5767179482
 20
-0.136751938
 10
21.5675079633
 20
-0.1351837076
 10
21.5582459282
 20
-0.1339610578
 10
21.5489447916
 20
-0.1330856981
 10
21.5396175569
 20
-0.1325588522
 10
21.5302772641
 20
-0.1323812567
  0
LWPOLYLINE
  5
33E
100
AcDbEntity
  8
ASSI
100
AcDbPolyline
 62
253
  6
CONTINUOUS
 90
49
 70
0
 10
21.8339825457
 20
21.5707212739
 10
21.8336857965
 20
21.5870394316
 10
21.8328555216
 20
21.603340156
 10
21.8314926079
 20
21.6196060326
 10
21.8295985116
 20
21.6358196838
 10
21.8271752562
 20
21.651963788
 10
21.8242254304
 20
21.668021098
 10
21.8207521858
 20
21.6839744591
 10
21.8167592328
 20
21.6998068277
 10
21.8122508373
 20
21.7155012896
 10
21.8072318159
 20
21.7310410777
 10
21.8017075304
 20
21.7464095904
 10
21.7956838827
 20
21.761590409
 10
21.789167308
 20
21.7765673151
 10
21.7821647683
 20
21.7913243085
 10
21.7746837446
 20
21.8058456236
 10
21.7667322292
 20
21.820115747
 10
21.7583187169
 20
21.8341194331
 10
21.7494521961
 20
21.8478417215
 10
21.7401421394
 20
21.861267952
 10
21.730398493
 20
21.874383781
 10
21.7202316664
 20
21.8871751963
 10
21.7096525211
 20
21.8996285323
 10
21.6986723593
 20
21.9117304848
 10
21.6873029114
 20
21.9234681248
 10
21.6755563239
 20
21.9348289125
 10
21.6634451461
 20
21.9458007108
 10
21.6509823166
 20
21.956371798
 10
21.6381811502
 20
21.9665308808
 10
21.6250553226
 20
21.9762671057
 10
21.6116188568
 20
21.9855700713
 10
21.5978861073
 20
21.9944298388
 10
21.5838717454
 20
22.002836943
 10
21.5695907431
 20
22.0107824022
 10
21.5550583573
 20
22.0182577282
 10
21.5402901136
 20
22.0252549346
 10
21.5253017893
 20
22.0317665461
 10
21.5101093971
 20
22.0377856061
 10
21.4947291675
 20
22.0433056843
 10
21.4791775318
 20
22.0483208833
 10
21.4634711043
 20
22.0528258452
 10
21.4476266649
 20
22.0568157572
 10
21.4316611407
 20
22.0602863567
 10
21.4155915883
 20
22.0632339359
 10
21.3994351754
 20
22.0656553459
 10
21.3832091624
 20
22.0675479997
 10
21.3669308842
 20
22.0689098754
 10
21.3506177315
 20
22.069739518
 10
21.3342871322
 20
22.0700360412
  0
LINE
  5
33F
100
AcDbEntity
  8
ASSI
100
AcDbLine
 62
253
  6
CONTINUOUS
 10
21.8189392183
 20
-21.2481850547
 11
21.8197906124
 21
-21.295983352
  0
LINE
  5
340
100
AcDbEntity
  8
ASSI
100
AcDbLine
 62
253
  6
CONTINUOUS
 10
21.3219964332
 20
-21.6994988422
 11
21.3236436818
 21
-21.7947976172
  0
LINE
  5
341
100
AcDbEntity
  8
ASSI
100
AcDbLine
 62
253
  6
CONTINUOUS
 10
21.8181344995
 20
-21.185231949
 11
21.8189392183
 21
-21.2481850547
  0
LINE
  5
342
100
AcDbEntity
  8
ASSI
100
AcDbLine
 62
253
  6
CONTINUOUS
 10
21.3200952523
 20
-21.5467453056
 11
21.3219964332
 21
-21.6994988422
  0
LINE
  5
343
100
AcDbEntity
  8
ASSI
100
AcDbLine
 62
253
  6
CONTINUOUS
 10
21.3185763372
 20
-21.3509092612
 11
21.3200952523
 21
-21.5467453056
  0
LINE
  5
344
100
AcDbEntity
  8
ASSI
100
AcDbLine
 62
253
  6
CONTINUOUS
 10
21.81763109
 20
-21.1197630591
 11
21.8181344995
 21
-21.185231949
  0
LINE
  5
345
100
AcDbEntity
  8
ASSI
100
AcDbLine
 62
7
  6
CONTINUOUS
 10
21.9360095547
 20
21.7238395771
 11
21.9623168641
 21
13.1130922693
  0
LINE
  5
346
100
AcDbEntity
  8
ASSI
100
AcDbLine
 62
253
  6
CONTINUOUS
 10
21.3179356765
 20
-21.1943041503
 11
21.3185763372
 21
-21.3509092612
  0
LINE
  5
347
100
AcDbEntity
  8
ASSI
100
AcDbLine
 62
253
  6
CONTINUOUS
 10
21.2891201999
 20
-13.4024990771
 11
21.3179356765
 21
-21.1943041503
  0
LINE
  5
348
100
AcDbEntity
  8
ASSI
100
AcDbLine
 62
253
  6
CONTINUOUS
 10
21.788815612
 20
-13.3712379327
 11
21.81763109
 21
-21.1197630591
  0
LINE
  5
349
100
AcDbEntity
  8
ASSI
100
AcDbLine
 62
253
  6
CONTINUOUS
 10
21.2818827479
 20
-6.4530150951
 11
21.2891201999
 21
-13.4024990771
  0
LINE
  5
34A
100
AcDbEntity
  8
ASSI
100
AcDbLine
 62
253
  6
CONTINUOUS
 10
21.7815778738
 20
-6.445912042
 11
21.788815612
 21
-13.3712379327
  0
LINE
  5
34B
100
AcDbEntity
  8
ASSI
100
AcDbLine
 62
253
  6
CONTINUOUS
 10
21.2818827479
 20
-6.4530150951
 11
21.2804296102
 21
-0.1344868189
  0
LINE
  5
34C
100
AcDbEntity
  8
ASSI
100
AcDbLine
 62
253
  6
CONTINUOUS
 10
21.7801250677
 20
-0.3823717132
 11
21.7815778738
 21
-6.445912042
  0
LINE
  5
34D
100
AcDbEntity
  8
ASSI
100
AcDbLine
 62
7
  6
CONTINUOUS
 10
21.9623168641
 20
-0.3368411094
 11
21.9623168641
 21
-13.0869077307
  0
LINE
  5
34E
100
AcDbEntity
  8
ASSI
100
AcDbLine
 62
7
  6
CONTINUOUS
 10
21.9623168641
 20
0.3630256481
 11
21.9623168641
 21
13.1130922693
  0
LINE
  5
34F
100
AcDbEntity
  8
ASSI
100
AcDbLine
 62
7
  6
CONTINUOUS
 10
21.9360095547
 20
-21.6976550384
 11
21.9623168641
 21
-13.0869077307
  0
LINE
  5
350
100
AcDbEntity
  8
ASSI
100
AcDbLine
 62
253
  6
CONTINUOUS
 10
21.2985829551
 20
16.7767018013
 11
21.2804296102
 21
0.1606713575
  0
LINE
  5
351
100
AcDbEntity
  8
ASSI
100
AcDbLine
 62
253
  6
CONTINUOUS
 10
21.7982783689
 20
16.7268413353
 11
21.7801250677
 21
0.4085562519
  0
LINE
  5
352
100
AcDbEntity
  8
ASSI
100
AcDbLine
 62
253
  6
CONTINUOUS
 10
21.3190594559
 20
21.4526783519
 11
21.2985829551
 21
16.7767018013
  0
LINE
  5
353
100
AcDbEntity
  8
ASSI
100
AcDbLine
 62
253
  6
CONTINUOUS
 10
21.8178962977
 20
21.1854608425
 11
21.7982783689
 21
16.7268413353
  0
LINE
  5
354
100
AcDbEntity
  8
ASSI
100
AcDbLine
 62
253
  6
CONTINUOUS
 10
21.3208484771
 20
21.6408859944
 11
21.3190594559
 21
21.4526783519
  0
LINE
  5
355
100
AcDbEntity
  8
ASSI
100
AcDbLine
 62
253
  6
CONTINUOUS
 10
21.818582027
 20
21.249567659
 11
21.8178962977
 21
21.1854608425
  0
LINE
  5
356
100
AcDbEntity
  8
ASSI
100
AcDbLine
 62
253
  6
CONTINUOUS
 10
21.3226284536
 20
21.7653153617
 11
21.3208484771
 21
21.6408859944
  0
LINE
  5
357
100
AcDbEntity
  8
ASSI
100
AcDbLine
 62
253
  6
CONTINUOUS
 10
21.8193424939
 20
21.2985960533
 11
21.818582027
 21
21.249567659
  0
LWPOLYLINE
  5
358
100
AcDbEntity
  8
ASSI
100
AcDbPolyline
 62
253
  6
CONTINUOUS
 90
49
 70
0
 10
21.8339825457
 20
-21.5445367352
 10
21.8336857965
 20
-21.5608548939
 10
21.8328555215
 20
-21.5771556192
 10
21.8314926077
 20
-21.5934214966
 10
21.8295985111
 20
-21.6096351487
 10
21.8271752554
 20
-21.6257792537
 10
21.8242254294
 20
-21.6418365644
 10
21.8207521844
 20
-21.6577899262
 10
21.8167592311
 20
-21.6736222954
 10
21.8122508352
 20
-21.6893167578
 10
21.8072318133
 20
-21.7048565465
 10
21.8017075274
 20
-21.7202250597
 10
21.7956838793
 20
-21.7354058786
 10
21.7891673041
 20
-21.750382785
 10
21.782164764
 20
-21.7651397787
 10
21.7746837398
 20
-21.779661094
 10
21.7667322239
 20
-21.7939312174
 10
21.7583187111
 20
-21.8079349037
 10
21.74945219
 20
-21.821657192
 10
21.7401421329
 20
-21.8350834225
 10
21.7303984861
 20
-21.8481992514
 10
21.7202316591
 20
-21.8609906665
 10
21.7096525135
 20
-21.8734440024
 10
21.6986723514
 20
-21.8855459546
 10
21.6873029033
 20
-21.8972835943
 10
21.6755563156
 20
-21.9086443817
 10
21.6634451375
 20
-21.9196161796
 10
21.650982308
 20
-21.9301872664
 10
21.6381811415
 20
-21.9403463488
 10
21.625055314
 20
-21.9500825733
 10
21.6116188482
 20
-21.9593855384
 10
21.5978860988
 20
-21.9682453054
 10
21.5838717371
 20
-21.9766524091
 10
21.569590735
 20
-21.9845978679
 10
21.5550583495
 20
-21.9920731934
 10
21.5402901061
 20
-21.9990703993
 10
21.5253017822
 20
-22.0055820104
 10
21.5101093903
 20
-22.01160107
 10
21.4947291612
 20
-22.0171211478
 10
21.479177526
 20
-22.0221363464
 10
21.4634710991
 20
-22.026641308
 10
21.4476266602
 20
-22.0306312196
 10
21.4316611367
 20
-22.0341018188
 10
21.4155915849
 20
-22.0370493978
 10
21.3994351726
 20
-22.0394708076
 10
21.3832091603
 20
-22.0413634613
 10
21.3669308828
 20
-22.0427253369
 10
21.3506177308
 20
-22.0435549794
 10
21.3342871322
 20
-22.0438515026
  0
LWPOLYLINE
  5
359
100
AcDbEntity
  8
ASSI
100
AcDbPolyline
 62
253
  6
CONTINUOUS
 90
43
 70
0
 10
21.7801249709
 20
0.4085562761
 10
21.7799474767
 20
0.3992106445
 10
21.7794209316
 20
0.3898780785
 10
21.7785460715
 20
0.3805716256
 10
21.7773241197
 20
0.3713042966
 10
21.7757567845
 20
0.3620890476
 10
21.7738462571
 20
0.352938762
 10
21.7715952085
 20
0.3438662324
 10
21.7690067858
 20
0.3348841427
 10
21.7660846077
 20
0.3260050501
 10
21.7628327596
 20
0.3172413681
 10
21.7592557876
 20
0.3086053487
 10
21.7553586927
 20
0.3001090656
 10
21.7511469231
 20
0.2917643969
 10
21.746626367
 20
0.2835830088
 10
21.7418033445
 20
0.2755763395
 10
21.7366845983
 20
0.2677555824
 10
21.7312772846
 20
0.2601316716
 10
21.7255889633
 20
0.2527152655
 10
21.7196275868
 20
0.2455167326
 10
21.7134014894
 20
0.2385461369
 10
21.7069193756
 20
0.2318132235
 10
21.7001903075
 20
0.2253274055
 10
21.6932236928
 20
0.2190977503
 10
21.6860292712
 20
0.2131329672
 10
21.6786171007
 20
0.2074413953
 10
21.670997544
 20
0.2020309917
 10
21.6631812536
 20
0.1969093204
 10
21.6551791569
 20
0.1920835418
 10
21.6470024414
 20
0.1875604025
 10
21.6386625385
 20
0.1833462261
 10
21.6301711078
 20
0.1794469041
 10
21.6215400206
 20
0.1758678882
 10
21.6127813437
 20
0.1726141818
 10
21.6039073221
 20
0.1696903338
 10
21.5949303621
 20
0.167100432
 10
21.585863014
 20
0.164848097
 10
21.5767179544
 20
0.1629364778
 10
21.5675079684
 20
0.161368247
 10
21.5582459321
 20
0.1601455969
 10
21.5489447942
 20
0.159270237
 10
21.5396175583
 20
0.1587433909
 10
21.5302772641
 20
0.1585657953
  0
LINE
  5
35A
100
AcDbEntity
  8
ASSI
100
AcDbLine
 62
253
  6
CONTINUOUS
 10
21.3236436818
 20
21.8209821559
 11
21.3226284536
 21
21.7653153617
  0
LINE
  5
35B
100
AcDbEntity
  8
ASSI
100
AcDbLine
 62
253
  6
CONTINUOUS
 10
21.8202820622
 20
21.3450095421
 11
21.8193424939
 21
21.2985960533
  0
LINE
  5
35C
100
AcDbEntity
  8
ASSI
100
AcDbLine
 62
253
  6
CONTINUOUS
 10
21.8213901039
 20
21.3882816732
 11
21.8202820622
 21
21.3450095421
  0
LINE
  5
35D
100
AcDbEntity
  8
ASSI
100
AcDbLine
 62
253
  6
CONTINUOUS
 10
21.8223238816
 20
21.4183634774
 11
21.8213901039
 21
21.3882816732
  0
LWPOLYLINE
  5
35E
100
AcDbEntity
  8
ASSI
100
AcDbPolyline
 62
253
  6
CONTINUOUS
 90
3
 70
0
 10
21.8236944531
 20
21.4549425974
 10
21.8233391428
 20
21.446197506
 10
21.8223238816
 20
21.4183634774
  0
LINE
  5
35F
100
AcDbEntity
  8
ASSI
100
AcDbLine
 62
7
  6
CONTINUOUS
 10
7.468270565
 20
22.2213302099
 11
7.120051891
 21
22.1897213783
  0
LINE
  5
360
100
AcDbEntity
  8
ASSI
100
AcDbLine
 62
7
  6
CONTINUOUS
 10
-3.831729435
 20
22.2213302099
 11
-4.179948109
 21
22.1897213783
  0
LINE
  5
361
100
AcDbEntity
  8
ASSI
100
AcDbLine
 62
253
  6
CONTINUOUS
 10
21.3342871322
 20
22.0700360412
 11
-22.109653404
 21
22.0700360412
  0
LINE
  5
362
100
AcDbEntity
  8
ASSI
100
AcDbLine
 62
7
  6
CONTINUOUS
 10
-18.9222130821
 20
22.1844806004
 11
-15.5531531897
 21
22.1844806004
  0
LINE
  5
363
100
AcDbEntity
  8
ASSI
100
AcDbLine
 62
7
  6
CONTINUOUS
 10
-7.7222130821
 20
22.1844806004
 11
-4.3531531897
 21
22.1844806004
  0
LINE
  5
364
100
AcDbEntity
  8
ASSI
100
AcDbLine
 62
7
  6
CONTINUOUS
 10
3.5777869179
 20
22.1844806004
 11
6.9468468103
 21
22.1844806004
  0
LINE
  5
365
100
AcDbEntity
  8
ASSI
100
AcDbLine
 62
7
  6
CONTINUOUS
 10
14.7777869179
 20
22.1844806004
 11
18.1468468103
 21
22.1844806004
  0
LINE
  5
366
100
AcDbEntity
  8
ASSI
100
AcDbLine
 62
7
  6
CONTINUOUS
 10
-22.2104649412
 20
22.2213302099
 11
-19.4436368368
 21
22.2213302099
  0
LINE
  5
367
100
AcDbEntity
  8
ASSI
100
AcDbLine
 62
7
  6
CONTINUOUS
 10
-15.031729435
 20
22.2213302099
 11
-8.2436368368
 21
22.2213302099
  0
LINE
  5
368
100
AcDbEntity
  8
ASSI
100
AcDbLine
 62
7
  6
CONTINUOUS
 10
-3.831729435
 20
22.2213302099
 11
3.0563631632
 21
22.2213302099
  0
LINE
  5
369
100
AcDbEntity
  8
ASSI
100
AcDbLine
 62
7
  6
CONTINUOUS
 10
7.468270565
 20
22.2213302099
 11
14.2563631632
 21
22.2213302099
  0
LINE
  5
36A
100
AcDbEntity
  8
ASSI
100
AcDbLine
 62
7
  6
CONTINUOUS
 10
18.668270565
 20
22.2213302099
 11
21.4350986693
 21
22.2213302099
  0
LINE
  5
36B
100
AcDbEntity
  8
ASSI
100
AcDbLine
 62
7
  6
CONTINUOUS
 10
-8.2436368368
 20
22.2213302099
 11
-7.8954181628
 21
22.1897213783
  0
LINE
  5
36C
100
AcDbEntity
  8
ASSI
100
AcDbLine
 62
7
  6
CONTINUOUS
 10
3.0563631632
 20
22.2213302099
 11
3.4045818372
 21
22.1897213783
  0
LINE
  5
36D
100
AcDbEntity
  8
ASSI
100
AcDbLine
 62
7
  6
CONTINUOUS
 10
-15.031729435
 20
22.2213302099
 11
-15.379948109
 21
22.1897213783
  0
LINE
  5
36E
100
AcDbEntity
  8
ASSI
100
AcDbLine
 62
7
  6
CONTINUOUS
 10
14.2563631632
 20
22.2213302099
 11
14.6045818372
 21
22.1897213783
  0
LWPOLYLINE
  5
36F
100
AcDbEntity
  8
ASSI
100
AcDbPolyline
 62
253
  6
CONTINUOUS
 90
49
 70
0
 10
21.81763109
 20
-21.1197630591
 10
21.8168230233
 20
-21.122149823
 10
21.8155039533
 20
-21.1245341423
 10
21.8136752312
 20
-21.1269135746
 10
21.81133873
 20
-21.1292856827
 10
21.8084968431
 20
-21.1316480369
 10
21.8051524813
 20
-21.1339982175
 10
21.8013090702
 20
-21.1363338172
 10
21.7969705466
 20
-21.1386524438
 10
21.7921413544
 20
-21.1409517222
 10
21.78682644
 20
-21.1432292973
 10
21.7810312474
 20
-21.1454828364
 10
21.7747617125
 20
-21.147710031
 10
21.7680242573
 20
-21.1499085999
 10
21.7608257826
 20
-21.1520762911
 10
21.7531736619
 20
-21.1542108844
 10
21.745075733
 20
-21.1563101932
 10
21.7365402907
 20
-21.1583720674
 10
21.7275760776
 20
-21.1603943948
 10
21.7181922755
 20
-21.1623751042
 10
21.7083984964
 20
-21.1643121667
 10
21.6982047716
 20
-21.1662035981
 10
21.6876215426
 20
-21.1680474611
 10
21.6766596496
 20
-21.1698418671
 10
21.6653303208
 20
-21.1715849781
 10
21.6536451605
 20
-21.1732750086
 10
21.6416161377
 20
-21.1749102276
 10
21.6292555736
 20
-21.1764889601
 10
21.6165761289
 20
-21.178009589
 10
21.603590791
 20
-21.1794705569
 10
21.5903128607
 20
-21.1808703672
 10
21.5767559382
 20
-21.1822075862
 10
21.5629339099
 20
-21.1834808441
 10
21.5488609333
 20
-21.1846888368
 10
21.5345514232
 20
-21.1858303269
 10
21.5200200366
 20
-21.1869041453
 10
21.505281658
 20
-21.187909192
 10
21.4903513834
 20
-21.1888444376
 10
21.4752445059
 20
-21.189708924
 10
21.4599764992
 20
-21.190501766
 10
21.4445630021
 20
-21.1912221512
 10
21.4290198025
 20
-21.1918693419
 10
21.4133628209
 20
-21.1924426752
 10
21.3976080946
 20
-21.1929415638
 10
21.381771761
 20
-21.1933654966
 10
21.3658700411
 20
-21.1937140396
 10
21.3499192226
 20
-21.1939868355
 10
21.3339356438
 20
-21.1941836051
 10
21.3179356765
 20
-21.1943041468
  0
LWPOLYLINE
  5
370
100
AcDbEntity
  8
ASSI
100
AcDbPolyline
 62
253
  6
CONTINUOUS
 90
49
 70
0
 10
21.81763109
 20
21.1459475977
 10
21.8168230238
 20
21.1483343618
 10
21.8155039544
 20
21.1507186811
 10
21.8136752327
 20
21.1530981135
 10
21.811338732
 20
21.1554702216
 10
21.8084968456
 20
21.157832576
 10
21.8051524842
 20
21.1601827566
 10
21.8013090735
 20
21.1625183565
 10
21.7969705503
 20
21.1648369831
 10
21.7921413584
 20
21.1671362616
 10
21.7868264443
 20
21.1694138368
 10
21.781031252
 20
21.1716673759
 10
21.7747617174
 20
21.1738945706
 10
21.7680242624
 20
21.1760931396
 10
21.7608257879
 20
21.178260831
 10
21.7531736674
 20
21.1803954243
 10
21.7450757387
 20
21.1824947333
 10
21.7365402965
 20
21.1845566075
 10
21.7275760834
 20
21.1865789351
 10
21.7181922815
 20
21.1885596445
 10
21.7083985024
 20
21.1904967071
 10
21.6982047777
 20
21.1923881386
 10
21.6876215487
 20
21.1942320017
 10
21.6766596557
 20
21.1960264078
 10
21.6653303268
 20
21.1977695188
 10
21.6536451664
 20
21.1994595494
 10
21.6416161435
 20
21.2010947685
 10
21.6292555793
 20
21.2026735011
 10
21.6165761345
 20
21.2041941302
 10
21.6035907965
 20
21.2056550981
 10
21.590312866
 20
21.2070549085
 10
21.5767559434
 20
21.2083921275
 10
21.5629339148
 20
21.2096653855
 10
21.5488609379
 20
21.2108733783
 10
21.5345514276
 20
21.2120148685
 10
21.5200200408
 20
21.2130886869
 10
21.5052816619
 20
21.2140937336
 10
21.4903513871
 20
21.2150289793
 10
21.4752445093
 20
21.2158934658
 10
21.4599765023
 20
21.2166863078
 10
21.4445630049
 20
21.2174066931
 10
21.4290198049
 20
21.2180538838
 10
21.413362823
 20
21.2186272172
 10
21.3976080964
 20
21.2191261058
 10
21.3817717625
 20
21.2195500386
 10
21.3658700421
 20
21.2198985816
 10
21.3499192233
 20
21.2201713776
 10
21.3339356442
 20
21.2203681472
 10
21.3179356765
 20
21.2204886889
  0
LINE
  5
371
100
AcDbEntity
  8
ASSI
100
AcDbLine
 62
7
  6
CONTINUOUS
 10
-45.3036601255
 20
-22.0438515026
 11
-42.4167954136
 21
-22.1951456712
  0
LINE
  5
372
100
AcDbEntity
  8
ASSI
100
AcDbLine
 62
253
  6
CONTINUOUS
 10
-45.2949418958
 20
-21.5445367352
 11
-42.373270623
 21
-21.6976550384
  0
LWPOLYLINE
  5
373
100
AcDbEntity
  8
ASSI
100
AcDbPolyline
 62
253
  6
CONTINUOUS
 90
7
 70
0
 10
-46.2311346692
 20
-21.1924426752
 10
-46.233893505
 20
-21.1929415638
 10
-46.2361523287
 20
-21.1933654966
 10
-46.2379088263
 20
-21.1937140396
 10
-46.2391611989
 20
-21.1939868355
 10
-46.2399081636
 20
-21.1941836051
 10
-46.2401489553
 20
-21.1943041468
  0
LINE
  5
374
100
AcDbEntity
  8
ASSI
100
AcDbLine
 62
253
  6
CONTINUOUS
 10
-46.2241287732
 20
-21.1912221512
 11
-46.2311346692
 21
-21.1924426752
  0
LINE
  5
375
100
AcDbEntity
  8
ASSI
100
AcDbLine
 62
253
  6
CONTINUOUS
 10
-46.2099569589
 20
-21.1888444376
 11
-46.2241287732
 21
-21.1912221512
  0
LINE
  5
376
100
AcDbEntity
  8
ASSI
100
AcDbLine
 62
253
  6
CONTINUOUS
 10
-46.1769162235
 20
-21.1834808441
 11
-46.2099569589
 21
-21.1888444376
  0
LINE
  5
377
100
AcDbEntity
  8
ASSI
100
AcDbLine
 62
253
  6
CONTINUOUS
 10
-46.0670443364
 20
-21.1662035981
 11
-46.1769162235
 21
-21.1834808441
  0
LINE
  5
378
100
AcDbEntity
  8
ASSI
100
AcDbLine
 62
253
  6
CONTINUOUS
 10
-45.7631863221
 20
-21.1197630591
 11
-46.0670443364
 21
-21.1662035981
  0
LINE
  5
379
100
AcDbEntity
  8
ASSI
100
AcDbLine
 62
253
  6
CONTINUOUS
 10
-42.0428035695
 20
-17.9203993319
 11
-42.0199278491
 21
-17.9203993319
  0
LWPOLYLINE
  5
37A
100
AcDbEntity
  8
ASSI
100
AcDbPolyline
 62
253
  6
CONTINUOUS
 90
3
 70
0
 10
-47.228646778
 20
-9.4868670719
 10
-47.2294140065
 20
-9.4868922563
 10
-47.2296697022
 20
-9.4869077307
  0
LINE
  5
37B
100
AcDbEntity
  8
ASSI
100
AcDbLine
 62
253
  6
CONTINUOUS
 10
-46.7472097091
 20
-9.4774077307
 11
-47.2273688022
 21
-9.4868322032
  0
LWPOLYLINE
  5
37C
100
AcDbEntity
  8
ASSI
100
AcDbPolyline
 62
253
  6
CONTINUOUS
 90
22
 70
0
 10
-45.7631863221
 20
21.1459475977
 10
-45.8444829284
 20
20.5951072951
 10
-45.9223456552
 20
20.0438147695
 10
-45.9967745026
 20
19.492070021
 10
-46.0677720856
 20
18.9398516326
 10
-46.1353357892
 20
18.3871810212
 10
-46.1994577685
 20
17.8341224374
 10
-46.260137619
 20
17.2806758726
 10
-46.3173757453
 20
16.7268413353
 10
-46.3711655159
 20
16.1726831015
 10
-46.4215065307
 20
15.6182011403
 10
-46.4683991899
 20
15.0633954827
 10
-46.5118380628
 20
14.5083304975
 10
-46.5518227496
 20
13.9530061482
 10
-46.5883536501
 20
13.3974224713
 10
-46.6214265329
 20
12.8416439452
 10
-46.6510409982
 20
12.2856704936
 10
-46.6771974458
 20
11.7295021928
 10
-46.6998928439
 20
11.1732037493
 10
-46.7191261818
 20
10.616796732
 10
-46.7348984702
 20
10.060259572
 10
-46.7472097091
 20
9.5035922693
  0
LWPOLYLINE
  5
37D
100
AcDbEntity
  8
ASSI
100
AcDbPolyline
 62
253
  6
CONTINUOUS
 90
52
 70
0
 10
-45.7631863221
 20
-21.1197630591
 10
-45.7610053909
 20
-21.1330152827
 10
-45.7584738725
 20
-21.1461863643
 10
-45.7555917671
 20
-21.1592763038
 10
-45.7523564572
 20
-21.1722946974
 10
-45.7487705603
 20
-21.185231949
 10
-45.7448419284
 20
-21.1980592703
 10
-45.7405698559
 20
-21.2107761605
 10
-45.7359550484
 20
-21.2233831203
 10
-45.7310074748
 20
-21.2358528643
 10
-45.72572643
 20
-21.2481850547
 10
-45.7201126191
 20
-21.2603800292
 10
-45.7141781255
 20
-21.2724115146
 10
-45.7079222502
 20
-21.2842791778
 10
-45.7013456922
 20
-21.295983352
 10
-45.6944626328
 20
-21.3074987634
 10
-45.6872724097
 20
-21.3188250034
 10
-45.6797756852
 20
-21.3299624807
 10
-45.6719886266
 20
-21.3408871473
 10
-45.663910604
 20
-21.3515985463
 10
-45.6555422472
 20
-21.3620971345
 10
-45.6469016135
 20
-21.3723602346
 10
-45.6379881217
 20
-21.3823873308
 10
-45.628802353
 20
-21.3921789388
 10
-45.6193641084
 20
-21.4017139286
 10
-45.6096728307
 20
-21.410991757
 10
-45.5997290771
 20
-21.4200129673
 10
-45.58955432
 20
-21.4287580588
 10
-45.5791480717
 20
-21.4372264251
 10
-45.5685108198
 20
-21.4454186727
 10
-45.5576654996
 20
-21.4533171197
 10
-45.5466116519
 20
-21.4609211387
 10
-45.5353497359
 20
-21.4682313573
 10
-45.5239040639
 20
-21.4752319756
 10
-45.5122742379
 20
-21.4819223239
 10
-45.500460656
 20
-21.488303072
 10
-45.4884888242
 20
-21.4943604293
 10
-45.4763583966
 20
-21.5000936968
 10
-45.4640697192
 20
-21.5055035735
 10
-45.4516493355
 20
-21.5105783658
 10
-45.4390969809
 20
-21.5153173442
 10
-45.4264129201
 20
-21.5197212382
 10
-45.4136244911
 20
-21.5237805426
 10
-45.400731425
 20
-21.5274945204
 10
-45.3877339907
 20
-21.5308639086
 10
-45.3746603332
 20
-21.5338814122
 10
-45.3615099116
 20
-21.5365462861
 10
-45.3482832667
 20
-21.5388592754
 10
-45.335010166
 20
-21.5408153209
 10
-45.3217005318
 20
-21.5424127362
 10
-45.3083444417
 20
-21.5436532076
 10
-45.2949418958
 20
-21.5445367352
  0
LINE
  5
37E
100
AcDbEntity
  8
0
100
AcDbLine
 62
253
  6
CONTINUOUS
 10
-47.0079204476
 20
-14.3177477284
 11
-46.9991648019
 21
-14.4368146241
  0
LINE
  5
37F
100
AcDbEntity
  8
0
100
AcDbLine
 62
253
  6
CONTINUOUS
 10
-47.1597660999
 20
-11.7138596735
 11
-47.144814279
 21
-12.0416607845
  0
LWPOLYLINE
  5
380
100
AcDbEntity
  8
ASSI
100
AcDbPolyline
 62
253
  6
CONTINUOUS
 90
22
 70
0
 10
-46.7472097091
 20
-9.4774077307
 10
-46.7348984702
 20
-10.0340750333
 10
-46.7191261818
 20
-10.5906121933
 10
-46.6998928439
 20
-11.1470192106
 10
-46.6771974458
 20
-11.7033176541
 10
-46.6510409982
 20
-12.259485955
 10
-46.6214265329
 20
-12.8154594065
 10
-46.5883536501
 20
-13.3712379327
 10
-46.5518227496
 20
-13.9268216096
 10
-46.5118380628
 20
-14.4821459589
 10
-46.4683991899
 20
-15.0372109441
 10
-46.4215065307
 20
-15.5920166017
 10
-46.3711655159
 20
-16.1464985628
 10
-46.3173757453
 20
-16.7006567966
 10
-46.260137619
 20
-17.2544913339
 10
-46.1994577685
 20
-17.8079378988
 10
-46.1353357892
 20
-18.3609964826
 10
-46.0677720856
 20
-18.9136670939
 10
-45.9967745026
 20
-19.4658854823
 10
-45.9223456552
 20
-20.0176302309
 10
-45.8444829284
 20
-20.5689227565
 10
-45.7631863221
 20
-21.1197630591
  0
LWPOLYLINE
  5
381
100
AcDbEntity
  8
ASSI
100
AcDbPolyline
 62
253
  6
CONTINUOUS
 90
10
 70
0
 10
-46.7472097091
 20
9.5035922693
 10
-46.7653895678
 20
8.4931151118
 10
-46.7815247828
 20
7.4826165489
 10
-46.7956153542
 20
6.4720965807
 10
-46.8076613926
 20
5.4615541333
 10
-46.8176627875
 20
4.4509902805
 10
-46.8256192065
 20
3.4404082439
 10
-46.831530539
 20
2.4298090971
 10
-46.8353968958
 20
1.4191917665
 10
-46.8372182768
 20
0.4085562519
  0
LINE
  5
382
100
AcDbEntity
  8
0
100
AcDbLine
 62
253
  6
CONTINUOUS
 10
-47.1781789836
 20
11.2942389344
 11
-47.1539372935
 21
11.8709833076
  0
LINE
  5
383
100
AcDbEntity
  8
0
100
AcDbLine
 62
253
  6
CONTINUOUS
 10
-47.1546712953
 20
11.854726181
 11
-47.144814279
 21
12.0678453231
  0
LWPOLYLINE
  5
384
100
AcDbEntity
  8
ASSI
100
AcDbPolyline
 62
253
  6
CONTINUOUS
 90
16
 70
0
 10
-46.8349842991
 20
0.1969093204
 10
-46.8347469736
 20
0.1920835418
 10
-46.8345009093
 20
0.1875604025
 10
-46.83424645
 20
0.1833462261
 10
-46.8339839516
 20
0.1794469041
 10
-46.833713781
 20
0.1758678882
 10
-46.8334363159
 20
0.1726141818
 10
-46.8331519443
 20
0.1696903338
 10
-46.8328610637
 20
0.167100432
 10
-46.8325640807
 20
0.164848097
 10
-46.8322614106
 20
0.1629364778
 10
-46.8319534766
 20
0.161368247
 10
-46.8316407091
 20
0.1601455969
 10
-46.8313235453
 20
0.159270237
 10
-46.8310024288
 20
0.1587433909
 10
-46.8306778084
 20
0.1585657953
  0
LINE
  5
385
100
AcDbEntity
  8
ASSI
100
AcDbLine
 62
253
  6
CONTINUOUS
 10
-46.8354314187
 20
0.2074413953
 11
-46.8349842991
 21
0.1969093204
  0
LINE
  5
386
100
AcDbEntity
  8
ASSI
100
AcDbLine
 62
253
  6
CONTINUOUS
 10
-46.8358397687
 20
0.2190977503
 11
-46.8354314187
 21
0.2074413953
  0
LINE
  5
387
100
AcDbEntity
  8
ASSI
100
AcDbLine
 62
253
  6
CONTINUOUS
 10
-46.8362070662
 20
0.2318132235
 11
-46.8358397687
 21
0.2190977503
  0
LINE
  5
388
100
AcDbEntity
  8
ASSI
100
AcDbLine
 62
253
  6
CONTINUOUS
 10
-46.836531258
 20
0.2455167326
 11
-46.8362070662
 21
0.2318132235
  0
LINE
  5
389
100
AcDbEntity
  8
ASSI
100
AcDbLine
 62
253
  6
CONTINUOUS
 10
-46.8369328265
 20
0.2677555824
 11
-46.836531258
 21
0.2455167326
  0
LINE
  5
38A
100
AcDbEntity
  8
ASSI
100
AcDbLine
 62
253
  6
CONTINUOUS
 10
-46.8372283402
 20
0.2917643969
 11
-46.8369328265
 21
0.2677555824
  0
LINE
  5
38B
100
AcDbEntity
  8
ASSI
100
AcDbLine
 62
253
  6
CONTINUOUS
 10
-46.8374140845
 20
0.3172413681
 11
-46.8372283402
 21
0.2917643969
  0
LWPOLYLINE
  5
38C
100
AcDbEntity
  8
ASSI
100
AcDbPolyline
 62
253
  6
CONTINUOUS
 90
18
 70
0
 10
-45.3089028514
 20
-21.9682453054
 10
-45.3088540567
 20
-21.9766524091
 10
-45.308771757
 20
-21.9845978679
 10
-45.3086560401
 20
-21.9920731934
 10
-45.3085070297
 20
-21.9990703993
 10
-45.308324885
 20
-22.0055820104
 10
-45.3081098005
 20
-22.01160107
 10
-45.3078620061
 20
-22.0171211478
 10
-45.3075817665
 20
-22.0221363464
 10
-45.307269381
 20
-22.026641308
 10
-45.3069251834
 20
-22.0306312196
 10
-45.3065495414
 20
-22.0341018188
 10
-45.3061428564
 20
-22.0370493978
 10
-45.3057055627
 20
-22.0394708076
 10
-45.3052381277
 20
-22.0413634613
 10
-45.3047410506
 20
-22.0427253369
 10
-45.3042148625
 20
-22.0435549794
 10
-45.3036601255
 20
-22.0438515026
  0
LINE
  5
38D
100
AcDbEntity
  8
ASSI
100
AcDbLine
 62
253
  6
CONTINUOUS
 10
-46.8372210487
 20
-0.3823717374
 11
-46.8374483339
 21
-0.3451197538
  0
LWPOLYLINE
  5
38E
100
AcDbEntity
  8
ASSI
100
AcDbPolyline
 62
253
  6
CONTINUOUS
 90
10
 70
0
 10
-46.8372182768
 20
-0.3823717132
 10
-46.8353968958
 20
-1.3930072278
 10
-46.831530539
 20
-2.4036245585
 10
-46.8256192065
 20
-3.4142237052
 10
-46.8176627875
 20
-4.4248057419
 10
-46.8076613926
 20
-5.4353695946
 10
-46.7956153542
 20
-6.445912042
 10
-46.7815247828
 20
-7.4564320103
 10
-46.7653895678
 20
-8.4669305731
 10
-46.7472097091
 20
-9.4774077307
  0
LINE
  5
38F
100
AcDbEntity
  8
ASSI
100
AcDbLine
 62
253
  6
CONTINUOUS
 10
-46.8374871578
 20
0.352938762
 11
-46.8374140845
 21
0.3172413681
  0
LINE
  5
390
100
AcDbEntity
  8
ASSI
100
AcDbLine
 62
253
  6
CONTINUOUS
 10
-46.8374483339
 20
-0.3451197538
 11
-46.8374757201
 21
-0.3086995964
  0
LINE
  5
391
100
AcDbEntity
  8
ASSI
100
AcDbLine
 62
253
  6
CONTINUOUS
 10
-46.8373594652
 20
0.3898780785
 11
-46.8374871578
 21
0.352938762
  0
LINE
  5
392
100
AcDbEntity
  8
ASSI
100
AcDbLine
 62
253
  6
CONTINUOUS
 10
-46.8374757201
 20
-0.3086995964
 11
-46.8373645393
 21
-0.2824208005
  0
LINE
  5
393
100
AcDbEntity
  8
ASSI
100
AcDbLine
 62
253
  6
CONTINUOUS
 10
-46.8372210487
 20
0.4085562761
 11
-46.8373594652
 21
0.3898780785
  0
LINE
  5
394
100
AcDbEntity
  8
ASSI
100
AcDbLine
 62
253
  6
CONTINUOUS
 10
-46.8373645393
 20
-0.2824208005
 11
-46.8371418768
 21
-0.2573984594
  0
LINE
  5
395
100
AcDbEntity
  8
ASSI
100
AcDbLine
 62
253
  6
CONTINUOUS
 10
-46.8371418768
 20
-0.2573984594
 11
-46.8368105317
 21
-0.2339471217
  0
LINE
  5
396
100
AcDbEntity
  8
ASSI
100
AcDbLine
 62
253
  6
CONTINUOUS
 10
-46.8368105317
 20
-0.2339471217
 11
-46.8365312579
 21
-0.2193321829
  0
LINE
  5
397
100
AcDbEntity
  8
ASSI
100
AcDbLine
 62
253
  6
CONTINUOUS
 10
-46.8365312579
 20
-0.2193321829
 11
-46.836207066
 21
-0.2056286744
  0
LINE
  5
398
100
AcDbEntity
  8
ASSI
100
AcDbLine
 62
253
  6
CONTINUOUS
 10
-46.836207066
 20
-0.2056286744
 11
-46.8358397685
 21
-0.1929132019
  0
LINE
  5
399
100
AcDbEntity
  8
ASSI
100
AcDbLine
 62
253
  6
CONTINUOUS
 10
-46.8358397685
 20
-0.1929132019
 11
-46.8354314185
 21
-0.181256848
  0
LWPOLYLINE
  5
39A
100
AcDbEntity
  8
ASSI
100
AcDbPolyline
 62
253
  6
CONTINUOUS
 90
17
 70
0
 10
-46.8354314185
 20
-0.181256848
 10
-46.8349842988
 20
-0.1707247743
 10
-46.8347469734
 20
-0.1658989964
 10
-46.834500909
 20
-0.1613758577
 10
-46.8342464497
 20
-0.157161682
 10
-46.8339839513
 20
-0.1532623608
 10
-46.8337137807
 20
-0.1496833455
 10
-46.8334363157
 20
-0.1464296397
 10
-46.833151944
 20
-0.1435057924
 10
-46.8328610634
 20
-0.1409158911
 10
-46.8325640805
 20
-0.1386635567
 10
-46.8322614105
 20
-0.136751938
 10
-46.8319534764
 20
-0.1351837076
 10
-46.831640709
 20
-0.1339610578
 10
-46.8313235452
 20
-0.1330856981
 10
-46.8310024287
 20
-0.1325588522
 10
-46.8306778084
 20
-0.1323812567
  0
LINE
  5
39B
100
AcDbEntity
  8
ASSI
100
AcDbLine
 62
253
  6
CONTINUOUS
 10
-45.2949418958
 20
21.5707212739
 11
-45.2982004651
 21
21.6358196838
  0
LINE
  5
39C
100
AcDbEntity
  8
ASSI
100
AcDbLine
 62
253
  6
CONTINUOUS
 10
-45.2982004651
 20
21.6358196838
 11
-45.3011055317
 21
21.6998068277
  0
LINE
  5
39D
100
AcDbEntity
  8
ASSI
100
AcDbLine
 62
253
  6
CONTINUOUS
 10
-45.3011055317
 20
21.6998068277
 11
-45.3036075046
 21
21.761590409
  0
LINE
  5
39E
100
AcDbEntity
  8
ASSI
100
AcDbLine
 62
253
  6
CONTINUOUS
 10
-45.3036075046
 20
21.761590409
 11
-45.3056636736
 21
21.820115747
  0
LINE
  5
39F
100
AcDbEntity
  8
ASSI
100
AcDbLine
 62
253
  6
CONTINUOUS
 10
-45.3056636736
 20
21.820115747
 11
-45.3068918229
 21
21.861267952
  0
LINE
  5
3A0
100
AcDbEntity
  8
ASSI
100
AcDbLine
 62
253
  6
CONTINUOUS
 10
-45.3068918229
 20
21.861267952
 11
-45.3078374948
 21
21.8996285323
  0
LINE
  5
3A1
100
AcDbEntity
  8
ASSI
100
AcDbLine
 62
253
  6
CONTINUOUS
 10
-45.3078374948
 20
21.8996285323
 11
-45.3083064093
 21
21.9234681248
  0
LINE
  5
3A2
100
AcDbEntity
  8
ASSI
100
AcDbLine
 62
253
  6
CONTINUOUS
 10
-45.3083064093
 20
21.9234681248
 11
-45.308643679
 21
21.9458007108
  0
LINE
  5
3A3
100
AcDbEntity
  8
ASSI
100
AcDbLine
 62
253
  6
CONTINUOUS
 10
-45.308643679
 20
21.9458007108
 11
-45.308847863
 21
21.9665308808
  0
LWPOLYLINE
  5
3A4
100
AcDbEntity
  8
ASSI
100
AcDbPolyline
 62
253
  6
CONTINUOUS
 90
20
 70
0
 10
-45.308847863
 20
21.9665308808
 10
-45.308918089
 20
21.9855700713
 10
-45.3089028515
 20
21.9944298388
 10
-45.3088540569
 20
22.002836943
 10
-45.3087717572
 20
22.0107824022
 10
-45.3086560403
 20
22.0182577282
 10
-45.3085070299
 20
22.0252549346
 10
-45.3083248852
 20
22.0317665461
 10
-45.3081098007
 20
22.0377856061
 10
-45.3078620063
 20
22.0433056843
 10
-45.3075817666
 20
22.0483208833
 10
-45.3072693812
 20
22.0528258452
 10
-45.3069251836
 20
22.0568157572
 10
-45.3065495416
 20
22.0602863567
 10
-45.3061428565
 20
22.0632339359
 10
-45.3057055629
 20
22.0656553459
 10
-45.3052381278
 20
22.0675479997
 10
-45.3047410506
 20
22.0689098754
 10
-45.3042148625
 20
22.069739518
 10
-45.3036601255
 20
22.0700360412
  0
LINE
  5
3A5
100
AcDbEntity
  8
ASSI
100
AcDbLine
 62
253
  6
CONTINUOUS
 10
-45.3088997528
 20
-21.9500825733
 11
-45.3089028514
 21
-21.9682453054
  0
LINE
  5
3A6
100
AcDbEntity
  8
ASSI
100
AcDbLine
 62
253
  6
CONTINUOUS
 10
-45.3087624746
 20
-21.9301872664
 11
-45.3088997528
 21
-21.9500825733
  0
LINE
  5
3A7
100
AcDbEntity
  8
ASSI
100
AcDbLine
 62
253
  6
CONTINUOUS
 10
-45.3084916031
 20
-21.9086443817
 11
-45.3087624746
 21
-21.9301872664
  0
LINE
  5
3A8
100
AcDbEntity
  8
ASSI
100
AcDbLine
 62
253
  6
CONTINUOUS
 10
-45.3080882956
 20
-21.8855459546
 11
-45.3084916031
 21
-21.9086443817
  0
LINE
  5
3A9
100
AcDbEntity
  8
ASSI
100
AcDbLine
 62
253
  6
CONTINUOUS
 10
-45.3072389388
 20
-21.8481992514
 11
-45.3080882956
 21
-21.8855459546
  0
LINE
  5
3AA
100
AcDbEntity
  8
ASSI
100
AcDbLine
 62
253
  6
CONTINUOUS
 10
-45.3061037695
 20
-21.8079349037
 11
-45.3072389388
 21
-21.8481992514
  0
LINE
  5
3AB
100
AcDbEntity
  8
ASSI
100
AcDbLine
 62
253
  6
CONTINUOUS
 10
-45.3046936946
 20
-21.7651397787
 11
-45.3061037695
 21
-21.8079349037
  0
LINE
  5
3AC
100
AcDbEntity
  8
ASSI
100
AcDbLine
 62
253
  6
CONTINUOUS
 10
-45.3024097449
 20
-21.7048565465
 11
-45.3046936946
 21
-21.7651397787
  0
LINE
  5
3AD
100
AcDbEntity
  8
ASSI
100
AcDbLine
 62
253
  6
CONTINUOUS
 10
-45.2997004377
 20
-21.6418365644
 11
-45.3024097449
 21
-21.7048565465
  0
LINE
  5
3AE
100
AcDbEntity
  8
ASSI
100
AcDbLine
 62
253
  6
CONTINUOUS
 10
-45.2966120225
 20
-21.5771556192
 11
-45.2997004377
 21
-21.6418365644
  0
LINE
  5
3AF
100
AcDbEntity
  8
ASSI
100
AcDbLine
 62
253
  6
CONTINUOUS
 10
-45.2949418958
 20
-21.5445367352
 11
-45.2966120225
 21
-21.5771556192
  0
LINE
  5
3B0
100
AcDbEntity
  8
ASSI
100
AcDbLine
 62
253
  6
CONTINUOUS
 10
-41.6199278491
 20
-0.3368411094
 11
-46.8372182768
 21
-0.3823717132
  0
LINE
  5
3B1
100
AcDbEntity
  8
ASSI
100
AcDbLine
 62
7
  6
CONTINUOUS
 10
-41.6199278491
 20
-0.0869077307
 11
-47.0719513421
 21
-0.1344868189
  0
LINE
  5
3B2
100
AcDbEntity
  8
ASSI
100
AcDbLine
 62
253
  6
CONTINUOUS
 10
-46.8372182767
 20
-0.3823717243
 11
-47.3197696289
 21
-0.3846761849
  0
LINE
  5
3B3
100
AcDbEntity
  8
ASSI
100
AcDbLine
 62
7
  6
CONTINUOUS
 10
-47.0719513421
 20
0.1606713575
 11
-41.6199278491
 21
0.1130922693
  0
LINE
  5
3B4
100
AcDbEntity
  8
ASSI
100
AcDbLine
 62
7
  6
CONTINUOUS
 10
-42.0199278491
 20
-17.9203993319
 11
-42.0199278491
 21
-17.6589286518
  0
LINE
  5
3B5
100
AcDbEntity
  8
ASSI
100
AcDbLine
 62
7
  6
CONTINUOUS
 10
-42.0199278491
 20
17.6851131904
 11
-42.0199278491
 21
17.9465838705
  0
LINE
  5
3B6
100
AcDbEntity
  8
ASSI
100
AcDbLine
 62
7
  6
CONTINUOUS
 10
-41.6199278491
 20
-0.0869077307
 11
-41.6199278491
 21
-13.0869077307
  0
LINE
  5
3B7
100
AcDbEntity
  8
ASSI
100
AcDbLine
 62
7
  6
CONTINUOUS
 10
-41.6199278491
 20
0.1130922693
 11
-41.6199278491
 21
13.1130922693
  0
LINE
  5
3B8
100
AcDbEntity
  8
ASSI
100
AcDbLine
 62
253
  6
CONTINUOUS
 10
-47.3197696289
 20
0.4108607235
 11
-46.8372182768
 21
0.4085562629
  0
LINE
  5
3B9
100
AcDbEntity
  8
ASSI
100
AcDbLine
 62
253
  6
CONTINUOUS
 10
-46.8372182768
 20
0.4085562519
 11
-41.6199278491
 21
0.3630256481
  0
LINE
  5
3BA
100
AcDbEntity
  8
ASSI
100
AcDbLine
 62
7
  6
CONTINUOUS
 10
-42.4167954136
 20
22.2213302099
 11
-41.6199278491
 21
13.1130922693
  0
LINE
  5
3BB
100
AcDbEntity
  8
ASSI
100
AcDbLine
 62
7
  6
CONTINUOUS
 10
-41.6199278491
 20
-13.0869077307
 11
-42.4167954136
 21
-22.1951456712
  0
LWPOLYLINE
  5
3BC
100
AcDbEntity
  8
ASSI
100
AcDbPolyline
 62
253
  6
CONTINUOUS
 90
3
 70
0
 10
-46.7472097091
 20
9.5035922693
 10
-47.2255813877
 20
9.5129722247
 10
-47.2273688026
 20
9.5130167419
  0
LWPOLYLINE
  5
3BD
100
AcDbEntity
  8
ASSI
100
AcDbPolyline
 62
253
  6
CONTINUOUS
 90
3
 70
0
 10
-47.2286467784
 20
9.5130516105
 10
-47.2294140069
 20
9.5130767949
 10
-47.2296697026
 20
9.5130922693
  0
LINE
  5
3BE
100
AcDbEntity
  8
ASSI
100
AcDbLine
 62
253
  6
CONTINUOUS
 10
-42.0428035695
 20
17.9465838707
 11
-42.0199278491
 21
17.9465838705
  0
LWPOLYLINE
  5
3BF
100
AcDbEntity
  8
ASSI
100
AcDbPolyline
 62
253
  6
CONTINUOUS
 90
52
 70
0
 10
-45.2949418958
 20
21.5707212739
 10
-45.3083444417
 20
21.5698377463
 10
-45.3217005318
 20
21.5685972748
 10
-45.335010166
 20
21.5669998596
 10
-45.3482832667
 20
21.5650438141
 10
-45.3615099116
 20
21.5627308247
 10
-45.3746603332
 20
21.5600659508
 10
-45.3877339907
 20
21.5570484472
 10
-45.400731425
 20
21.5536790591
 10
-45.4136244911
 20
21.5499650812
 10
-45.4264129201
 20
21.5459057769
 10
-45.4390969809
 20
21.5415018829
 10
-45.4516493355
 20
21.5367629044
 10
-45.4640697192
 20
21.5316881121
 10
-45.4763583966
 20
21.5262782354
 10
-45.4884888242
 20
21.5205449679
 10
-45.500460656
 20
21.5144876106
 10
-45.5122742379
 20
21.5081068626
 10
-45.5239040639
 20
21.5014165142
 10
-45.5353497359
 20
21.4944158959
 10
-45.5466116519
 20
21.4871056774
 10
-45.5576654996
 20
21.4795016583
 10
-45.5685108198
 20
21.4716032113
 10
-45.5791480717
 20
21.4634109638
 10
-45.58955432
 20
21.4549425974
 10
-45.5997290771
 20
21.446197506
 10
-45.6096728307
 20
21.4371762957
 10
-45.6193641084
 20
21.4278984672
 10
-45.628802353
 20
21.4183634774
 10
-45.6379881217
 20
21.4085718694
 10
-45.6469016135
 20
21.3985447733
 10
-45.6555422472
 20
21.3882816732
 10
-45.663910604
 20
21.3777830849
 10
-45.6719886266
 20
21.3670716859
 10
-45.6797756852
 20
21.3561470194
 10
-45.6872724097
 20
21.3450095421
 10
-45.6944626328
 20
21.333683302
 10
-45.7013456922
 20
21.3221678906
 10
-45.7079222502
 20
21.3104637165
 10
-45.7141781255
 20
21.2985960533
 10
-45.7201126191
 20
21.2865645679
 10
-45.72572643
 20
21.2743695934
 10
-45.7310074748
 20
21.2620374029
 10
-45.7359550484
 20
21.249567659
 10
-45.7405698559
 20
21.2369606991
 10
-45.7448419284
 20
21.2242438089
 10
-45.7487705603
 20
21.2114164876
 10
-45.7523564572
 20
21.1984792361
 10
-45.7555917671
 20
21.1854608425
 10
-45.7584738725
 20
21.1723709029
 10
-45.7610053909
 20
21.1591998213
 10
-45.7631863221
 20
21.1459475977
  0
LINE
  5
3C0
100
AcDbEntity
  8
ASSI
100
AcDbLine
 62
253
  6
CONTINUOUS
 10
-42.373270623
 20
21.7238395771
 11
-45.2949418958
 21
21.5707212739
  0
LINE
  5
3C1
100
AcDbEntity
  8
ASSI
100
AcDbLine
 62
7
  6
CONTINUOUS
 10
-42.4167954136
 20
22.2213302099
 11
-45.3036601255
 21
22.0700360412
  0
LINE
  5
3C2
100
AcDbEntity
  8
ASSI
100
AcDbLine
 62
253
  6
CONTINUOUS
 10
-45.7631863221
 20
21.1459475977
 11
-46.0789046576
 21
21.1942320017
  0
LINE
  5
3C3
100
AcDbEntity
  8
ASSI
100
AcDbLine
 62
253
  6
CONTINUOUS
 10
-46.0789046576
 20
21.1942320017
 11
-46.1769162423
 21
21.2096653855
  0
LINE
  5
3C4
100
AcDbEntity
  8
ASSI
100
AcDbLine
 62
253
  6
CONTINUOUS
 10
-46.1769162423
 20
21.2096653855
 11
-46.2099569796
 21
21.2150289793
  0
LINE
  5
3C5
100
AcDbEntity
  8
ASSI
100
AcDbLine
 62
253
  6
CONTINUOUS
 10
-46.2099569796
 20
21.2150289793
 11
-46.2241287948
 21
21.2174066931
  0
LWPOLYLINE
  5
3C6
100
AcDbEntity
  8
ASSI
100
AcDbPolyline
 62
253
  6
CONTINUOUS
 90
8
 70
0
 10
-46.2241287948
 20
21.2174066931
 10
-46.2311346912
 20
21.2186272172
 10
-46.2338935272
 20
21.2191261058
 10
-46.236152351
 20
21.2195500386
 10
-46.2379088488
 20
21.2198985816
 10
-46.2391612215
 20
21.2201713776
 10
-46.2399081863
 20
21.2203681472
 10
-46.240148978
 20
21.2204886889
  0
ARC
  5
3C7
100
AcDbEntity
  8
ASSI
100
AcDbCircle
 62
7
  6
CONTINUOUS
 10
452.6800721509
 20
0.0130922693
 40
500.0
100
AcDbArc
 50
180.045580912
 51
181.08868532
  0
ARC
  5
3C8
100
AcDbEntity
  8
ASSI
100
AcDbCircle
 62
7
  6
CONTINUOUS
 10
452.6800721509
 20
0.0130922693
 40
500.0
100
AcDbArc
 50
178.91131468
 51
179.954419088
  0
ARC
  5
3C9
100
AcDbEntity
  8
ASSI
100
AcDbCircle
 62
7
  6
CONTINUOUS
 10
42.754083831
 20
-7.7769077307
 40
90.0
100
AcDbArc
 50
181.08868532
 51
188.5737414447
  0
ARC
  5
3CA
100
AcDbEntity
  8
ASSI
100
AcDbCircle
 62
7
  6
CONTINUOUS
 10
42.754083831
 20
7.8030922693
 40
90.0
100
AcDbArc
 50
171.4262585553
 51
178.91131468
  0
ARC
  5
3CB
100
AcDbEntity
  8
ASSI
100
AcDbCircle
 62
7
  6
CONTINUOUS
 10
-45.2513241693
 20
-21.0452219678
 40
1.0
100
AcDbArc
 50
188.5737414447
 51
267.0
  0
ARC
  5
3CC
100
AcDbEntity
  8
ASSI
100
AcDbCircle
 62
7
  6
CONTINUOUS
 10
-45.2513241693
 20
21.0714065065
 40
1.0
100
AcDbArc
 50
93.0
 51
171.4262585553
  0
ARC
  5
3CD
100
AcDbEntity
  8
ASSI
100
AcDbCircle
 62
7
  6
CONTINUOUS
 10
-42.3199278491
 20
-17.9203993319
 40
0.3
100
AcDbArc
 50
335.0
 51
360.0
  0
ARC
  5
3CE
100
AcDbEntity
  8
ASSI
100
AcDbCircle
 62
7
  6
CONTINUOUS
 10
-42.3199278491
 20
17.9465838705
 40
0.3
100
AcDbArc
 50
0.0
 51
25.0003852136
  0
ARC
  5
3CF
100
AcDbEntity
  8
ASSI
100
AcDbCircle
 62
7
  6
CONTINUOUS
 10
-47.0697696782
 20
-0.3844772994
 40
0.25
100
AcDbArc
 50
90.5000068929
 51
180.0455810216
  0
ARC
  5
3D0
100
AcDbEntity
  8
ASSI
100
AcDbCircle
 62
7
  6
CONTINUOUS
 10
-47.0697696782
 20
0.410661838
 40
0.25
100
AcDbArc
 50
179.9544189784
 51
269.4999931072
  0
ELLIPSE
  5
3D1
100
AcDbEntity
  8
ASSI
100
AcDbEllipse
 62
7
  6
CONTINUOUS
 10
-4.3531531897
 20
-22.1687776176
 30
0.0
 11
0.2
 21
0.0
 31
0.0
 40
0.0524077793
 41
0.5235987756
 42
1.5707963268
  0
ELLIPSE
  5
3D2
100
AcDbEntity
  8
ASSI
100
AcDbEllipse
 62
7
  6
CONTINUOUS
 10
-15.5531531897
 20
-22.1687776176
 30
0.0
 11
0.2
 21
0.0
 31
0.0
 40
0.0524077793
 41
0.5235987756
 42
1.5707963268
  0
ELLIPSE
  5
3D3
100
AcDbEntity
  8
ASSI
100
AcDbEllipse
 62
7
  6
CONTINUOUS
 10
-18.9222130821
 20
-22.1687776176
 30
0.0
 11
0.2
 21
-0.0
 31
0.0
 40
0.0524077793
 41
1.5707963268
 42
2.617993878
  0
ELLIPSE
  5
3D4
100
AcDbEntity
  8
ASSI
100
AcDbEllipse
 62
7
  6
CONTINUOUS
 10
-7.7222130821
 20
-22.1687776176
 30
0.0
 11
0.2
 21
0.0
 31
0.0
 40
0.0524077793
 41
1.5707963268
 42
2.617993878
  0
ELLIPSE
  5
3D5
100
AcDbEntity
  8
ASSI
100
AcDbEllipse
 62
7
  6
CONTINUOUS
 10
3.5777869179
 20
-22.1687776176
 30
0.0
 11
0.2
 21
0.0
 31
0.0
 40
0.0524077793
 41
1.5707963268
 42
2.617993878
  0
ELLIPSE
  5
3D6
100
AcDbEntity
  8
ASSI
100
AcDbEllipse
 62
7
  6
CONTINUOUS
 10
6.9468468103
 20
-22.1687776176
 30
0.0
 11
0.2
 21
-0.0
 31
0.0
 40
0.0524077793
 41
0.5235987756
 42
1.5707963268
  0
ELLIPSE
  5
3D7
100
AcDbEntity
  8
ASSI
100
AcDbEllipse
 62
7
  6
CONTINUOUS
 10
18.1468468103
 20
-22.1687776176
 30
0.0
 11
0.2
 21
0.0
 31
0.0
 40
0.0524077793
 41
0.5235987756
 42
1.5707963268
  0
ELLIPSE
  5
3D8
100
AcDbEntity
  8
ASSI
100
AcDbEllipse
 62
7
  6
CONTINUOUS
 10
14.7777869179
 20
-22.1687776176
 30
0.0
 11
0.2
 21
0.0
 31
0.0
 40
0.0524077793
 41
1.5707963268
 42
2.617993878
  0
ELLIPSE
  5
3D9
100
AcDbEntity
  8
ASSI
100
AcDbEllipse
 62
7
  6
CONTINUOUS
 10
21.4357075638
 20
-21.6967447098
 30
0.0
 11
0.4943891341
 21
0.0770133648
 31
0.0
 40
0.9960067742
 41
-1.7259388368
 42
-0.1569690096
  0
ELLIPSE
  5
3DA
100
AcDbEntity
  8
ASSI
100
AcDbEllipse
 62
7
  6
CONTINUOUS
 10
-22.2110738356
 20
-21.6967447098
 30
0.0
 11
0.4943891341
 21
-0.0770133648
 31
0.0
 40
0.9960067742
 41
-2.984623644
 42
-1.4156538168
  0
ELLIPSE
  5
3DB
100
AcDbEntity
  8
ASSI
100
AcDbEllipse
 62
7
  6
CONTINUOUS
 10
21.712164478
 20
-0.3369172503
 30
0.0
 11
0.2426981267
 21
0.0606514259
 31
0.0
 40
0.9993528196
 41
-0.2447368254
 42
1.3257549497
  0
ELLIPSE
  5
3DC
100
AcDbEntity
  8
ASSI
100
AcDbEllipse
 62
7
  6
CONTINUOUS
 10
-22.4875307498
 20
-0.3369172503
 30
0.0
 11
0.2426981267
 21
-0.0606514259
 31
0.0
 40
0.9993528196
 41
1.8158377039
 42
3.386329479
  0
ELLIPSE
  5
3DD
100
AcDbEntity
  8
ASSI
100
AcDbEllipse
 62
7
  6
CONTINUOUS
 10
3.5777869179
 20
22.1949621563
 30
0.0
 11
0.2
 21
0.0
 31
0.0
 40
0.0524077793
 41
-2.617993878
 42
-1.5707963268
  0
ELLIPSE
  5
3DE
100
AcDbEntity
  8
ASSI
100
AcDbEllipse
 62
7
  6
CONTINUOUS
 10
14.7777869179
 20
22.1949621563
 30
0.0
 11
0.2
 21
0.0
 31
0.0
 40
0.0524077793
 41
-2.617993878
 42
-1.5707963268
  0
ELLIPSE
  5
3DF
100
AcDbEntity
  8
ASSI
100
AcDbEllipse
 62
7
  6
CONTINUOUS
 10
18.1468468103
 20
22.1949621563
 30
0.0
 11
0.2
 21
0.0
 31
0.0
 40
0.0524077793
 41
-1.5707963268
 42
-0.5235987756
  0
ELLIPSE
  5
3E0
100
AcDbEntity
  8
ASSI
100
AcDbEllipse
 62
7
  6
CONTINUOUS
 10
6.9468468103
 20
22.1949621563
 30
0.0
 11
0.2
 21
0.0
 31
0.0
 40
0.0524077793
 41
-1.5707963268
 42
-0.5235987756
  0
ELLIPSE
  5
3E1
100
AcDbEntity
  8
ASSI
100
AcDbEllipse
 62
7
  6
CONTINUOUS
 10
-4.3531531897
 20
22.1949621563
 30
0.0
 11
0.2
 21
0.0
 31
0.0
 40
0.0524077793
 41
-1.5707963268
 42
-0.5235987756
  0
ELLIPSE
  5
3E2
100
AcDbEntity
  8
ASSI
100
AcDbEllipse
 62
7
  6
CONTINUOUS
 10
-7.7222130821
 20
22.1949621563
 30
0.0
 11
0.2
 21
-0.0
 31
0.0
 40
0.0524077793
 41
-2.617993878
 42
-1.5707963268
  0
ELLIPSE
  5
3E3
100
AcDbEntity
  8
ASSI
100
AcDbEllipse
 62
7
  6
CONTINUOUS
 10
-18.9222130821
 20
22.1949621563
 30
0.0
 11
0.2
 21
0.0
 31
0.0
 40
0.0524077793
 41
-2.617993878
 42
-1.5707963268
  0
ELLIPSE
  5
3E4
100
AcDbEntity
  8
ASSI
100
AcDbEllipse
 62
7
  6
CONTINUOUS
 10
-15.5531531897
 20
22.1949621563
 30
0.0
 11
0.2
 21
-0.0
 31
0.0
 40
0.0524077793
 41
-1.5707963268
 42
-0.5235987756
  0
ELLIPSE
  5
3E5
100
AcDbEntity
  8
ASSI
100
AcDbEllipse
 62
7
  6
CONTINUOUS
 10
-22.2110738356
 20
21.7229292484
 30
0.0
 11
0.4943891341
 21
0.0770133648
 31
0.0
 40
0.9960067742
 41
1.4156538168
 42
2.984623644
  0
ELLIPSE
  5
3E6
100
AcDbEntity
  8
ASSI
100
AcDbEllipse
 62
7
  6
CONTINUOUS
 10
21.4357075638
 20
21.7229292484
 30
0.0
 11
0.4943891341
 21
-0.0770133648
 31
0.0
 40
0.9960067742
 41
0.1569690096
 42
1.7259388368
  0
ELLIPSE
  5
3E7
100
AcDbEntity
  8
ASSI
100
AcDbEllipse
 62
7
  6
CONTINUOUS
 10
-22.4875307498
 20
0.3631017889
 30
0.0
 11
0.2426981267
 21
0.0606514259
 31
0.0
 40
0.9993528196
 41
2.8968558282
 42
4.4673476033
  0
ELLIPSE
  5
3E8
100
AcDbEntity
  8
ASSI
100
AcDbEllipse
 62
7
  6
CONTINUOUS
 10
21.712164478
 20
0.3631017889
 30
0.0
 11
0.2426981267
 21
-0.0606514259
 31
0.0
 40
0.9993528196
 41
-1.3257549497
 42
0.2447368254
  0
ELLIPSE
  5
3E9
100
AcDbEntity
  8
0
100
AcDbEllipse
 62
253
  6
CONTINUOUS
 10
42.754083831
 20
-7.7769077307
 30
0.0
 11
90.0
 21
0.0
 31
0.0
 40
1.0
 41
3.1857683845
 42
3.214337892
  0
ELLIPSE
  5
3EA
100
AcDbEntity
  8
0
100
AcDbEllipse
 62
253
  6
CONTINUOUS
 10
42.754083831
 20
7.8030922693
 30
0.0
 11
90.0
 21
0.0
 31
0.0
 40
1.0
 41
9.3561086332
 42
9.3806022299
  0
ENDSEC
  0
SECTION
  2
OBJECTS
  0
DICTIONARY
  5
C
100
AcDbDictionary
280
0
281
1
  3
ACAD_GROUP
350
D
  3
ACAD_MLINESTYLE
350
17
  3
ACAD_LAYOUT
350
1A
  3
ACAD_PLOTSETTINGS
350
19
  3
ACAD_PLOTSTYLENAME
350
E
  0
DICTIONARY
  5
D
102
{ACAD_REACTORS
330
C
102
}
100
AcDbDictionary
280
0
281
1
  0
ACDBDICTIONARYWDFLT
  5
E
102
{ACAD_REACTORS
330
C
102
}
100
AcDbDictionary
281
1
  3
Normal
350
F
100
AcDbDictionaryWithDefault
340
F
  0
DICTIONARY
  5
17
102
{ACAD_REACTORS
330
C
102
}
100
AcDbDictionary
280
0
281
1
  3
Standard
350
18
  0
DICTIONARY
  5
19
102
{ACAD_REACTORS
330
C
102
}
100
AcDbDictionary
281
1
  0
DICTIONARY
  5
1A
102
{ACAD_REACTORS
330
C
102
}
100
AcDbDictionary
281
1
  3
Model
350
3EB
  3
Layout1
350
3EC
  0
ACDBPLACEHOLDER
  5
F
102
{ACAD_REACTORS
330
E
102
}
  0
MLINESTYLE
  5
18
102
{ACAD_REACTORS
330
17
102
}
100
AcDbMlineStyle
  2
STANDARD
 70
0
  3

 62
256
 51
90.0
 52
90.0
 71
2
 49
0.5
 62
256
  6
BYLAYER
 49
-0.5
 62
256
  6
BYLAYER
  0
LAYOUT
  5
3EB
102
{ACAD_REACTORS
330
1A
102
}
100
AcDbPlotSettings
  1

  2
none_device
  4
ISO_A4_(297.00_x_210.00_MM)
  6

 40
0.0
 41
0.0
 42
0.0
 43
0.0
 44
297.0
 45
210.0
 46
0.0
 47
0.0
 48
0.0
 49
0.0
140
0.0
141
0.0
142
1.0
143
1.0
 70
1024
 72
1
 73
0
 74
0
  7

 75
0
147
1.0
148
0.0
149
0.0
100
AcDbLayout
  1
Model
 70
0
 71
0
 10
0.0
 20
0.0
 11
297.0
 21
210.0
 12
0.0
 22
0.0
 32
0.0
 14
0.0
 24
0.0
 34
0.0
 15
0.0
 25
0.0
 35
0.0
146
0.0
 13
0.0
 23
0.0
 33
0.0
 16
1.0
 26
0.0
 36
0.0
 17
0.0
 27
1.0
 37
0.0
 76
0
330
219
345
0
346
0
  0
LAYOUT
  5
3EC
102
{ACAD_REACTORS
330
1A
102
}
100
AcDbPlotSettings
  1

  2
none_device
  4
ISO_A4_(297.00_x_210.00_MM)
  6

 40
0.0
 41
0.0
 42
0.0
 43
0.0
 44
297.0
 45
210.0
 46
0.0
 47
0.0
 48
0.0
 49
0.0
140
0.0
141
0.0
142
1.0
143
1.0
 70
0
 72
1
 73
0
 74
0
  7

 75
0
147
1.0
148
0.0
149
0.0
100
AcDbLayout
  1
Layout1
 70
0
 71
1
 10
0.0
 20
0.0
 11
297.0
 21
210.0
 12
0.0
 22
0.0
 32
0.0
 14
0.0
 24
0.0
 34
0.0
 15
0.0
 25
0.0
 35
0.0
146
0.0
 13
0.0
 23
0.0
 33
0.0
 16
1.0
 26
0.0
 36
0.0
 17
0.0
 27
1.0
 37
0.0
 76
0
330
21A
345
0
346
0
  0
ENDSEC
  0
EOF
