  0
SECTION
  2
HEADER
  9
$ACADVER
  1
AC1021
  9
$DWGCODEPAGE
  3
ANSI_1252
  9
$EXTMAX
 10
297.0
 20
210.0
 30
0.0
  9
$EXTMIN
 10
0.0
 20
0.0
 30
0.0
  9
$LIMMIN
 10
0.0
 20
0.0
  9
$LIMMAX
 10
297.0
 20
210.0
  9
$VIEWCTR
 10
148.5
 20
105.0
  9
$VIEWSIZE
 40
210.0
  9
$CLAYER
  8
0
  9
$LTSCALE
 40
16.335
  9
$CELTYPE
  6
BYLAYER
  9
$DIMSCALE
 40
1.0
  9
$DIMASZ
 40
3.0
  9
$DIMEXO
 40
0.5
  9
$DIMDLI
 40
11.286
  9
$DIMEXE
 40
1.5
  9
$DIMCEN
 40
2.673
  9
$DIMLFAC
 40
1.0
  9
$DIMBLK
  1
_FILLED
  9
$DIMALT
 70
0
  9
$DIMALTF
 40
25.4
  9
$DIMTXT
 40
3.0
  9
$DIMTOL
 70
1
  9
$DIMLIM
 70
0
  9
$DIMTFAC
 40
1.0
  9
$DIMTP
 40
0.01
  9
$DIMTM
 40
0.01
  9
$DIMGAP
 40
0.625
  9
$DIMDSEP
 70
44
  9
$AUNITS
 70
0
  9
$PDMODE
 70
3
  9
$PDSIZE
 40
3.0
  9
$HANDSEED
  5
44C
  9
$TILEMODE
 70
1
  9
$MEASUREMENT
 70
1
  9
$INSUNITS
 70
4
  0
ENDSEC
  0
SECTION
  2
CLASSES
  0
CLASS
  1
ACDBDICTIONARYWDFLT
  2
AcDbDictionaryWithDefault
  3
AutoCAD 2000
 90
0
 91
1
280
0
281
0
  0
CLASS
  1
ACDBPLACEHOLDER
  2
AcDbPlaceHolder
  3
AutoCAD 2000
 90
0
 91
1
280
0
281
0
  0
CLASS
  1
LAYOUT
  2
AcDbLayout
  3
AutoCAD 2000
 90
0
 91
0
280
0
281
0
  0
ENDSEC
  0
SECTION
  2
TABLES
  0
TABLE
  2
VPORT
  5
8
100
AcDbSymbolTable
 70
2
  0
VPORT
  5
1F4
100
AcDbSymbolTableRecord
100
AcDbViewportTableRecord
  2
*ACTIVE
 70
0
 10
0.0
 20
0.0
 11
1.0
 21
1.0
 12
148.5
 22
105.0
 13
0.0
 23
0.0
 14
1.0
 24
1.0
 15
0.0
 25
0.0
 16
0.0
 26
0.0
 36
1.0
 17
0.0
 27
0.0
 37
0.0
 40
210.0
 41
1.4142857143
 42
50.0
 43
0.0
 44
0.0
 50
0.0
 51
0.0
 71
0
 72
100
 73
1
 74
1
 75
0
 76
0
 77
0
 78
0
  0
ENDTAB
  0
TABLE
  2
LTYPE
  5
5
100
AcDbSymbolTable
 70
6
  0
LTYPE
  5
14
100
AcDbSymbolTableRecord
100
AcDbLinetypeTableRecord
  2
BYBLOCK
 70
0
  3

 72
65
 73
0
 40
0.0
  0
LTYPE
  5
15
100
AcDbSymbolTableRecord
100
AcDbLinetypeTableRecord
  2
BYLAYER
 70
0
  3

 72
65
 73
0
 40
0.0
  0
LTYPE
  5
16
100
AcDbSymbolTableRecord
100
AcDbLinetypeTableRecord
  2
CONTINUOUS
 70
64
  3
Solid line
 72
65
 73
0
 40
0.0
  0
LTYPE
  5
1F5
100
AcDbSymbolTableRecord
100
AcDbLinetypeTableRecord
  2
CENTER
 70
64
  3
____ _ ____ _ ____ _ ____ _ ____ _ ____ _ ____
 72
65
 73
4
 40
0.6
 49
0.375
 74
0
 49
-0.075
 74
0
 49
0.075
 74
0
 49
-0.075
 74
0
  0
LTYPE
  5
1F6
100
AcDbSymbolTableRecord
100
AcDbLinetypeTableRecord
  2
HIDDEN
 70
64
  3
- - - - - - - - - - - - - - - - - - - -
 72
65
 73
2
 40
0.2
 49
0.1
 74
0
 49
-0.1
 74
0
  0
LTYPE
  5
1F7
100
AcDbSymbolTableRecord
100
AcDbLinetypeTableRecord
  2
PHANTOM
 70
64
  3
_____ _ _ _____ _ _ _____ _ _ _____
 72
65
 73
6
 40
0.8
 49
0.45
 74
0
 49
-0.05
 74
0
 49
0.1
 74
0
 49
-0.05
 74
0
 49
0.1
 74
0
 49
-0.05
 74
0
  0
LTYPE
  5
1F8
100
AcDbSymbolTableRecord
100
AcDbLinetypeTableRecord
  2
DOT
 70
64
  3
. . . . . . . . . . . . . . . . . . . .
 72
65
 73
2
 40
0.2
 49
0.1
 74
0
 49
-0.1
 74
0
  0
LTYPE
  5
1F9
100
AcDbSymbolTableRecord
100
AcDbLinetypeTableRecord
  2
DASHED
 70
64
  3
- - - - - - - - - - - - - - - - - - - -
 72
65
 73
2
 40
0.2
 49
0.1
 74
0
 49
-0.1
 74
0
  0
ENDTAB
  0
TABLE
  2
LAYER
  5
2
100
AcDbSymbolTable
 70
36
  0
LAYER
  5
10
100
AcDbSymbolTableRecord
100
AcDbLayerTableRecord
  2
0
 70
0
 62
7
  6
CONTINUOUS
370
-3
390
F
  0
LAYER
  5
1FA
100
AcDbSymbolTableRecord
100
AcDbLayerTableRecord
  2
DEFAULT_1
 70
0
 62
7
  6
CENTER
370
-3
390
F
  0
LAYER
  5
1FB
100
AcDbSymbolTableRecord
100
AcDbLayerTableRecord
  2
DEFAULT_2
 70
0
 62
7
  6
HIDDEN
370
-3
390
F
  0
LAYER
  5
1FC
100
AcDbSymbolTableRecord
100
AcDbLayerTableRecord
  2
DEFAULT_3
 70
0
 62
7
  6
PHANTOM
370
-3
390
F
  0
LAYER
  5
1FD
100
AcDbSymbolTableRecord
100
AcDbLayerTableRecord
  2
ASSI
 70
0
 62
7
  6
CONTINUOUS
370
-3
390
F
  0
LAYER
  5
1FE
100
AcDbSymbolTableRecord
100
AcDbLayerTableRecord
  2
COLOR9
 70
0
 62
7
  6
CONTINUOUS
370
-3
390
F
  0
LAYER
  5
1FF
100
AcDbSymbolTableRecord
100
AcDbLayerTableRecord
  2
COORDINATE
 70
0
 62
7
  6
CONTINUOUS
370
-3
390
F
  0
LAYER
  5
200
100
AcDbSymbolTableRecord
100
AcDbLayerTableRecord
  2
COORD_ORIGINE
 70
0
 62
7
  6
CONTINUOUS
370
-3
390
F
  0
LAYER
  5
201
100
AcDbSymbolTableRecord
100
AcDbLayerTableRecord
  2
COPY_PUBLISH
 70
0
 62
7
  6
CONTINUOUS
370
-3
390
F
  0
LAYER
  5
202
100
AcDbSymbolTableRecord
100
AcDbLayerTableRecord
  2
COSMETICI
 70
0
 62
7
  6
CONTINUOUS
370
-3
390
F
  0
LAYER
  5
203
100
AcDbSymbolTableRecord
100
AcDbLayerTableRecord
  2
CURVE
 70
0
 62
7
  6
CONTINUOUS
370
-3
390
F
  0
LAYER
  5
204
100
AcDbSymbolTableRecord
100
AcDbLayerTableRecord
  2
DRAFT
 70
0
 62
7
  6
CONTINUOUS
370
-3
390
F
  0
LAYER
  5
205
100
AcDbSymbolTableRecord
100
AcDbLayerTableRecord
  2
IGES
 70
0
 62
7
  6
CONTINUOUS
370
-3
390
F
  0
LAYER
  5
206
100
AcDbSymbolTableRecord
100
AcDbLayerTableRecord
  2
IGS_SCRITTE
 70
0
 62
7
  6
CONTINUOUS
370
-3
390
F
  0
LAYER
  5
207
100
AcDbSymbolTableRecord
100
AcDbLayerTableRecord
  2
IMPORT_IGES
 70
0
 62
7
  6
CONTINUOUS
370
-3
390
F
  0
LAYER
  5
208
100
AcDbSymbolTableRecord
100
AcDbLayerTableRecord
  2
INTF_YELLOW
 70
0
 62
7
  6
CONTINUOUS
370
-3
390
F
  0
LAYER
  5
209
100
AcDbSymbolTableRecord
100
AcDbLayerTableRecord
  2
LIVELLO_1
 70
0
 62
7
  6
CONTINUOUS
370
-3
390
F
  0
LAYER
  5
20A
100
AcDbSymbolTableRecord
100
AcDbLayerTableRecord
  2
NOTE
 70
0
 62
7
  6
CONTINUOUS
370
-3
390
F
  0
LAYER
  5
20B
100
AcDbSymbolTableRecord
100
AcDbLayerTableRecord
  2
PIANI
 70
0
 62
7
  6
CONTINUOUS
370
-3
390
F
  0
LAYER
  5
20C
100
AcDbSymbolTableRecord
100
AcDbLayerTableRecord
  2
PIANI_ORIGINE
 70
0
 62
7
  6
CONTINUOUS
370
-3
390
F
  0
LAYER
  5
20D
100
AcDbSymbolTableRecord
100
AcDbLayerTableRecord
  2
PIANI_RIFERIMENTO
 70
0
 62
7
  6
CONTINUOUS
370
-3
390
F
  0
LAYER
  5
20E
100
AcDbSymbolTableRecord
100
AcDbLayerTableRecord
  2
PUNTI
 70
0
 62
7
  6
CONTINUOUS
370
-3
390
F
  0
LAYER
  5
20F
100
AcDbSymbolTableRecord
100
AcDbLayerTableRecord
  2
RACCORDO
 70
0
 62
7
  6
CONTINUOUS
370
-3
390
F
  0
LAYER
  5
210
100
AcDbSymbolTableRecord
100
AcDbLayerTableRecord
  2
SIMBOLI
 70
0
 62
7
  6
CONTINUOUS
370
-3
390
F
  0
LAYER
  5
211
100
AcDbSymbolTableRecord
100
AcDbLayerTableRecord
  2
SMUSSO
 70
0
 62
7
  6
CONTINUOUS
370
-3
390
F
  0
LAYER
  5
212
100
AcDbSymbolTableRecord
100
AcDbLayerTableRecord
  2
SNAPLINE
 70
0
 62
7
  6
CONTINUOUS
370
-3
390
F
  0
LAYER
  5
213
100
AcDbSymbolTableRecord
100
AcDbLayerTableRecord
  2
SOLIDO
 70
0
 62
7
  6
CONTINUOUS
370
-3
390
F
  0
LAYER
  5
214
100
AcDbSymbolTableRecord
100
AcDbLayerTableRecord
  2
SUPERFICI
 70
0
 62
7
  6
CONTINUOUS
370
-3
390
F
  0
LAYER
  5
215
100
AcDbSymbolTableRecord
100
AcDbLayerTableRecord
  2
TRASH
 70
0
 62
7
  6
CONTINUOUS
370
-3
390
F
  0
LAYER
  5
216
100
AcDbSymbolTableRecord
100
AcDbLayerTableRecord
  2
WHITE
 70
0
 62
7
  6
CONTINUOUS
370
-3
390
F
  0
ENDTAB
  0
TABLE
  2
STYLE
  5
3
100
AcDbSymbolTable
 70
1
  0
STYLE
  5
11
100
AcDbSymbolTableRecord
100
AcDbTextStyleTableRecord
  2
STANDARD
 70
0
 40
0.0
 41
0.8
 50
0.0
 71
0
 42
0.2
  3
txt
  4

  0
STYLE
  5
217
100
AcDbSymbolTableRecord
100
AcDbTextStyleTableRecord
  2
TEXTSTYLE_1
 70
0
 40
0.0
 41
0.8
 50
0.0
 71
0
 42
0.2
  3
gdt
  4

  0
ENDTAB
  0
TABLE
  2
VIEW
  5
6
100
AcDbSymbolTable
 70
0
  0
ENDTAB
  0
TABLE
  2
UCS
  5
7
100
AcDbSymbolTable
 70
0
  0
ENDTAB
  0
TABLE
  2
APPID
  5
9
100
AcDbSymbolTable
 70
1
  0
APPID
  5
218
100
AcDbSymbolTableRecord
100
AcDbRegAppTableRecord
  2
ACAD
 70
0
  0
ENDTAB
  0
TABLE
  2
BLOCK_RECORD
  5
1
100
AcDbSymbolTable
 70
0
  0
BLOCK_RECORD
  5
219
100
AcDbSymbolTableRecord
100
AcDbBlockTableRecord
  2
*Model_Space
  0
BLOCK_RECORD
  5
21A
100
AcDbSymbolTableRecord
100
AcDbBlockTableRecord
  2
*Paper_Space
  0
BLOCK_RECORD
  5
21B
100
AcDbSymbolTableRecord
100
AcDbBlockTableRecord
  2
_FILLED
  0
BLOCK_RECORD
  5
21C
100
AcDbSymbolTableRecord
100
AcDbBlockTableRecord
  2
*D0
  0
BLOCK_RECORD
  5
21D
100
AcDbSymbolTableRecord
100
AcDbBlockTableRecord
  2
*D1
  0
BLOCK_RECORD
  5
21E
100
AcDbSymbolTableRecord
100
AcDbBlockTableRecord
  2
*D2
  0
ENDTAB
  0
TABLE
  2
DIMSTYLE
  5
A
100
AcDbSymbolTable
 70
1
100
AcDbDimStyleTable
 71
0
  0
DIMSTYLE
105
21F
100
AcDbSymbolTableRecord
100
AcDbDimStyleTableRecord
  2
STANDARD
 70
0
  3

  4

 40
1.0
 41
3.0
 42
0.5
 43
0.38
 44
1.5
 45
0.0
 46
0.0
 47
0.01
 48
0.01
140
3.0
141
0.09
142
0.0
143
25.4
144
1.0
145
0.0
146
1.0
147
0.625
 71
1.0
 72
0.0
 73
0
 74
0
 75
0
 76
0
 77
1
 78
8
170
0
171
1
172
0
173
0
174
0
175
0
176
0
177
0
178
0
270
2
271
2
272
2
273
2
274
2
275
0
280
0
281
0
282
0
283
1
284
8
285
0
286
0
287
3
288
0
340
11
278
44
341
21B
342
21B
343
21B
344
21B
  0
DIMSTYLE
105
220
100
AcDbSymbolTableRecord
100
AcDbDimStyleTableRecord
  2
DIMSTYLE_1
 70
0
  3

  4

 40
1.0
 41
3.0
 42
0.5
 43
0.38
 44
1.5
 45
0.0
 46
0.0
 47
0.0
 48
0.0
140
3.0
141
0.09
142
0.0
143
25.4
144
1.0
145
0.0
146
1.0
147
0.75
 71
0.0
 72
0.0
 73
0
 74
0
 75
0
 76
0
 77
1
 78
8
170
0
171
1
172
0
173
0
174
0
175
0
176
0
177
0
178
0
270
2
271
2
272
2
273
2
274
2
275
0
280
0
281
0
282
0
283
1
284
8
285
0
286
0
287
3
288
0
340
11
278
44
341
21B
342
21B
343
21B
344
21B
  0
DIMSTYLE
105
221
100
AcDbSymbolTableRecord
100
AcDbDimStyleTableRecord
  2
DIMSTYLE_2
 70
0
  3

  4

 40
1.0
 41
3.0
 42
0.5
 43
0.38
 44
1.5
 45
0.0
 46
0.0
 47
0.0
 48
0.0
140
3.0
141
0.09
142
0.0
143
25.4
144
1.0
145
0.0
146
1.0
147
0.75
 71
0.0
 72
0.0
 73
0
 74
0
 75
0
 76
0
 77
1
 78
8
170
0
171
1
172
0
173
0
174
0
175
0
176
0
177
0
178
0
270
2
271
1
272
1
273
2
274
2
275
0
280
0
281
0
282
0
283
1
284
8
285
0
286
0
287
3
288
0
340
11
278
44
341
21B
342
21B
343
21B
344
21B
  0
ENDTAB
  0
ENDSEC
  0
SECTION
  2
BLOCKS
  0
BLOCK
  5
20
100
AcDbEntity
  8
0
100
AcDbBlockBegin
  2
*Model_Space
 70
0
 10
0.0
 20
0.0
 30
0.0
  3
*Model_Space
  1

  0
ENDBLK
  5
21
100
AcDbEntity
  8
0
100
AcDbBlockEnd
  0
BLOCK
  5
1C
100
AcDbEntity
  8
0
100
AcDbBlockBegin
  2
*Paper_Space
 70
0
 10
0.0
 20
0.0
 30
0.0
  3
*Paper_Space
  1

  0
ENDBLK
  5
1D
100
AcDbEntity
  8
0
100
AcDbBlockEnd
  0
BLOCK
  5
222
100
AcDbEntity
  8
0
100
AcDbBlockBegin
  2
_FILLED
 70
64
 10
0.0
 20
0.0
  3
_FILLED
  1

  0
SOLID
  5
223
100
AcDbEntity
  8
0
  6
BYBLOCK
 62
0
100
AcDbTrace
 10
0.0
 20
0.0
 11
-1.0
 21
0.3166666667
 12
-1.0
 22
-0.3166666667
 13
-1.0
 23
-0.3166666667
  0
ENDBLK
  5
224
100
AcDbEntity
  8
0
  6
BYBLOCK
 62
0
100
AcDbBlockEnd
  0
BLOCK
  5
225
100
AcDbEntity
  8
0
100
AcDbBlockBegin
 62
7
  6
CONTINUOUS
  2
*D0
 70
65
 10
0.0
 20
0.0
  3
*D0
  1

  0
MTEXT
  5
226
100
AcDbEntity
  8
0
100
AcDbMText
 62
7
  6
CONTINUOUS
  7
STANDARD
 71
2
 72
1
 10
-0.075222101
 20
33.9713302099
 30
0.0
 11
1.0
 21
0.0
 31
0.0
 44
0.9
  1
44,7
 40
3.0
 41
13.1785714286
  0
LINE
  5
227
100
AcDbEntity
  8
0
100
AcDbLine
 62
7
  6
CONTINUOUS
 10
-22.425222101
 20
13.6130922693
 11
-22.425222101
 21
31.7213302099
  0
LINE
  5
228
100
AcDbEntity
  8
0
100
AcDbLine
 62
7
  6
CONTINUOUS
 10
22.274777899
 20
13.6130922693
 11
22.274777899
 21
31.7213302099
  0
LINE
  5
229
100
AcDbEntity
  8
0
100
AcDbLine
 62
7
  6
CONTINUOUS
 10
-22.425222101
 20
30.2213302099
 11
-0.075222101
 21
30.2213302099
  0
LINE
  5
22A
100
AcDbEntity
  8
0
100
AcDbLine
 62
7
  6
CONTINUOUS
 10
22.274777899
 20
30.2213302099
 11
-0.075222101
 21
30.2213302099
  0
INSERT
  5
22B
100
AcDbEntity
  8
0
100
AcDbBlockReference
 62
7
  6
CONTINUOUS
  2
_FILLED
 10
-22.425222101
 20
30.2213302099
 41
3.0
 42
3.0
 43
3.0
 50
180.0
  0
INSERT
  5
22C
100
AcDbEntity
  8
0
100
AcDbBlockReference
 62
7
  6
CONTINUOUS
  2
_FILLED
 10
22.274777899
 20
30.2213302099
 41
3.0
 42
3.0
 43
3.0
  0
ENDBLK
  5
22D
100
AcDbEntity
  8
0
  6
BYBLOCK
 62
0
100
AcDbBlockEnd
  0
BLOCK
  5
22E
100
AcDbEntity
  8
0
100
AcDbBlockBegin
 62
7
  6
CONTINUOUS
  2
*D1
 70
65
 10
0.0
 20
0.0
  3
*D1
  1

  0
MTEXT
  5
22F
100
AcDbEntity
  8
0
100
AcDbMText
 62
7
  6
CONTINUOUS
  7
STANDARD
 71
2
 72
1
 10
26.524777899
 20
0.0130922693
 30
0.0
 11
0.0
 21
1.0
 31
0.0
 44
0.9
  1
44,4
 40
3.0
 41
13.1785714286
  0
LINE
  5
230
100
AcDbEntity
  8
0
100
AcDbLine
 62
7
  6
CONTINUOUS
 10
22.2475597042
 20
22.2213302099
 11
31.774777899
 21
22.2213302099
  0
LINE
  5
231
100
AcDbEntity
  8
0
100
AcDbLine
 62
7
  6
CONTINUOUS
 10
22.2475597042
 20
-22.1951456712
 11
31.774777899
 21
-22.1951456712
  0
LINE
  5
232
100
AcDbEntity
  8
0
100
AcDbLine
 62
7
  6
CONTINUOUS
 10
30.274777899
 20
22.2213302099
 11
30.274777899
 21
0.0130922693
  0
LINE
  5
233
100
AcDbEntity
  8
0
100
AcDbLine
 62
7
  6
CONTINUOUS
 10
30.274777899
 20
-22.1951456712
 11
30.274777899
 21
0.0130922693
  0
INSERT
  5
234
100
AcDbEntity
  8
0
100
AcDbBlockReference
 62
7
  6
CONTINUOUS
  2
_FILLED
 10
30.274777899
 20
22.2213302099
 41
3.0
 42
3.0
 43
3.0
 50
90.0
  0
INSERT
  5
235
100
AcDbEntity
  8
0
100
AcDbBlockReference
 62
7
  6
CONTINUOUS
  2
_FILLED
 10
30.274777899
 20
-22.1951456712
 41
3.0
 42
3.0
 43
3.0
 50
270.0
  0
ENDBLK
  5
236
100
AcDbEntity
  8
0
  6
BYBLOCK
 62
0
100
AcDbBlockEnd
  0
BLOCK
  5
237
100
AcDbEntity
  8
0
100
AcDbBlockBegin
 62
7
  6
CONTINUOUS
  2
*D2
 70
65
 10
0.0
 20
0.0
  3
*D2
  1

  0
MTEXT
  5
238
100
AcDbEntity
  8
0
100
AcDbMText
 62
7
  6
CONTINUOUS
  7
STANDARD
 71
1
 72
1
 10
-34.7908860094
 20
33.9713302099
 30
0.0
 11
1.0
 21
0.0
 31
0.0
 44
0.9
  1
5,7
 40
3.0
 41
9.3214285714
  0
LINE
  5
239
100
AcDbEntity
  8
0
100
AcDbLine
 62
7
  6
CONTINUOUS
 10
-40.6825447444
 20
13.6130922693
 11
-40.6825447444
 21
31.7213302099
  0
LINE
  5
23A
100
AcDbEntity
  8
0
100
AcDbLine
 62
7
  6
CONTINUOUS
 10
-46.3823865242
 20
0.9108607235
 11
-46.3823865242
 21
31.7213302099
  0
LINE
  5
23B
100
AcDbEntity
  8
0
100
AcDbLine
 62
7
  6
CONTINUOUS
 10
-40.6825447444
 20
30.2213302099
 11
-28.5766002951
 21
30.2213302099
  0
LINE
  5
23C
100
AcDbEntity
  8
0
100
AcDbLine
 62
7
  6
CONTINUOUS
 10
-28.5766002951
 20
30.2213302099
 11
-43.5324656343
 21
30.2213302099
  0
LINE
  5
23D
100
AcDbEntity
  8
0
100
AcDbLine
 62
7
  6
CONTINUOUS
 10
-46.3823865242
 20
30.2213302099
 11
-50.3823865242
 21
30.2213302099
  0
LINE
  5
23E
100
AcDbEntity
  8
0
100
AcDbLine
 62
7
  6
CONTINUOUS
 10
-50.3823865242
 20
30.2213302099
 11
-43.5324656343
 21
30.2213302099
  0
INSERT
  5
23F
100
AcDbEntity
  8
0
100
AcDbBlockReference
 62
7
  6
CONTINUOUS
  2
_FILLED
 10
-40.6825447444
 20
30.2213302099
 41
3.0
 42
3.0
 43
3.0
 50
180.0
  0
INSERT
  5
240
100
AcDbEntity
  8
0
100
AcDbBlockReference
 62
7
  6
CONTINUOUS
  2
_FILLED
 10
-46.3823865242
 20
30.2213302099
 41
3.0
 42
3.0
 43
3.0
  0
ENDBLK
  5
241
100
AcDbEntity
  8
0
  6
BYBLOCK
 62
0
100
AcDbBlockEnd
  0
ENDSEC
  0
SECTION
  2
ENTITIES
  0
DIMENSION
  5
242
100
AcDbEntity
  8
0
100
AcDbDimension
 62
7
  6
CONTINUOUS
  2
*D0
 10
22.274777899
 20
30.2213302099
 11
-0.5037934613
 21
30.2213302099
 70
160
 71
2
 42
44.7
  3
DIMSTYLE_1
100
AcDbAlignedDimension
 13
-22.425222101
 23
13.1130922693
 14
22.274777899
 24
13.1130922693
100
AcDbRotatedDimension
  0
DIMENSION
  5
243
100
AcDbEntity
  8
0
100
AcDbDimension
 62
7
  6
CONTINUOUS
  2
*D1
 10
30.274777899
 20
-22.1951456712
 11
30.274777899
 21
-0.4154792578
 70
160
 71
2
 42
44.4164758811
  3
DIMSTYLE_2
100
AcDbAlignedDimension
 13
21.7475597042
 23
22.2213302099
 14
21.7475597042
 24
-22.1951456712
 50
270.0
100
AcDbRotatedDimension
  0
DIMENSION
  5
244
100
AcDbEntity
  8
0
100
AcDbDimension
 62
7
  6
CONTINUOUS
  2
*D2
 10
-46.3823865242
 20
30.2213302099
 11
-32.11231493
 21
30.2213302099
 70
160
 71
1
 42
5.6998417798
  3
DIMSTYLE_1
100
AcDbAlignedDimension
 13
-40.6825447444
 23
13.1130922693
 14
-46.3823865242
 24
0.4108607235
 50
180.0
100
AcDbRotatedDimension
  0
LWPOLYLINE
  5
245
100
AcDbEntity
  8
ASSI
100
AcDbPolyline
 62
253
  6
CONTINUOUS
 90
49
 70
0
 10
-22.2805363269
 20
21.1459475977
 10
-22.2797282602
 20
21.1483343617
 10
-22.2784091902
 20
21.1507186809
 10
-22.2765804681
 20
21.1530981132
 10
-22.2742439669
 20
21.1554702213
 10
-22.27140208
 20
21.1578325756
 10
-22.2680577182
 20
21.1601827562
 10
-22.2642143071
 20
21.1625183559
 10
-22.2598757835
 20
21.1648369824
 10
-22.2550465913
 20
21.1671362608
 10
-22.2497316769
 20
21.169413836
 10
-22.2439364843
 20
21.171667375
 10
-22.2376669495
 20
21.1738945696
 10
-22.2309294942
 20
21.1760931385
 10
-22.2237310195
 20
21.1782608298
 10
-22.2160788988
 20
21.1803954231
 10
-22.20798097
 20
21.1824947319
 10
-22.1994455276
 20
21.184556606
 10
-22.1904813145
 20
21.1865789335
 10
-22.1810975124
 20
21.1885596429
 10
-22.1713037333
 20
21.1904967053
 10
-22.1611100085
 20
21.1923881367
 10
-22.1505267795
 20
21.1942319998
 10
-22.1395648866
 20
21.1960264057
 10
-22.1282355577
 20
21.1977695167
 10
-22.1165503974
 20
21.1994595472
 10
-22.1045213746
 20
21.2010947662
 10
-22.0921608105
 20
21.2026734987
 10
-22.0794813658
 20
21.2041941277
 10
-22.066496028
 20
21.2056550956
 10
-22.0532180976
 20
21.2070549059
 10
-22.0396611752
 20
21.2083921249
 10
-22.0258391468
 20
21.2096653828
 10
-22.0117661702
 20
21.2108733755
 10
-21.9974566601
 20
21.2120148656
 10
-21.9829252735
 20
21.213088684
 10
-21.9681868949
 20
21.2140937306
 10
-21.9532566203
 20
21.2150289762
 10
-21.9381497429
 20
21.2158934627
 10
-21.9228817362
 20
21.2166863046
 10
-21.9074682391
 20
21.2174066899
 10
-21.8919250394
 20
21.2180538806
 10
-21.8762680578
 20
21.2186272139
 10
-21.8605133315
 20
21.2191261024
 10
-21.8446769979
 20
21.2195500353
 10
-21.828775278
 20
21.2198985782
 10
-21.8128244595
 20
21.2201713742
 10
-21.7968408807
 20
21.2203681438
 10
-21.7808409134
 20
21.2204886855
  0
LWPOLYLINE
  5
246
100
AcDbEntity
  8
ASSI
100
AcDbPolyline
 62
253
  6
CONTINUOUS
 90
49
 70
0
 10
-22.2805363269
 20
-21.1197630591
 10
-22.2797282607
 20
-21.1221498231
 10
-22.2784091913
 20
-21.1245341424
 10
-22.2765804696
 20
-21.1269135748
 10
-22.2742439689
 20
-21.129285683
 10
-22.2714020825
 20
-21.1316480373
 10
-22.2680577211
 20
-21.133998218
 10
-22.2642143104
 20
-21.1363338178
 10
-22.2598757872
 20
-21.1386524444
 10
-22.2550465953
 20
-21.1409517229
 10
-22.2497316812
 20
-21.1432292982
 10
-22.2439364889
 20
-21.1454828373
 10
-22.2376669543
 20
-21.147710032
 10
-22.2309294993
 20
-21.149908601
 10
-22.2237310248
 20
-21.1520762923
 10
-22.2160789043
 20
-21.1542108857
 10
-22.2079809756
 20
-21.1563101946
 10
-22.1994455334
 20
-21.1583720689
 10
-22.1904813203
 20
-21.1603943964
 10
-22.1810975184
 20
-21.1623751059
 10
-22.1713037393
 20
-21.1643121684
 10
-22.1611100146
 20
-21.1662035999
 10
-22.1505267856
 20
-21.168047463
 10
-22.1395648926
 20
-21.1698418691
 10
-22.1282355637
 20
-21.1715849802
 10
-22.1165504033
 20
-21.1732750108
 10
-22.1045213804
 20
-21.1749102299
 10
-22.0921608162
 20
-21.1764889624
 10
-22.0794813714
 20
-21.1780095915
 10
-22.0664960334
 20
-21.1794705594
 10
-22.0532181029
 20
-21.1808703698
 10
-22.0396611803
 20
-21.1822075889
 10
-22.0258391517
 20
-21.1834808469
 10
-22.0117661748
 20
-21.1846888396
 10
-21.9974566645
 20
-21.1858303298
 10
-21.9829252777
 20
-21.1869041482
 10
-21.9681868988
 20
-21.187909195
 10
-21.953256624
 20
-21.1888444406
 10
-21.9381497462
 20
-21.1897089272
 10
-21.9228817392
 20
-21.1905017691
 10
-21.9074682418
 20
-21.1912221544
 10
-21.8919250418
 20
-21.1918693452
 10
-21.8762680599
 20
-21.1924426785
 10
-21.8605133333
 20
-21.1929415671
 10
-21.8446769994
 20
-21.1933655
 10
-21.828775279
 20
-21.1937140429
 10
-21.8128244602
 20
-21.1939868389
 10
-21.7968408811
 20
-21.1941836085
 10
-21.7808409134
 20
-21.1943041502
  0
LINE
  5
247
100
AcDbEntity
  8
ASSI
100
AcDbLine
 62
7
  6
CONTINUOUS
 10
14.5688241981
 20
-22.1951456712
 11
14.9170428721
 21
-22.1635368397
  0
LINE
  5
248
100
AcDbEntity
  8
ASSI
100
AcDbLine
 62
7
  6
CONTINUOUS
 10
-14.7192684001
 20
-22.1951456712
 11
-15.0674870741
 21
-22.1635368397
  0
LINE
  5
249
100
AcDbEntity
  8
ASSI
100
AcDbLine
 62
253
  6
CONTINUOUS
 10
-22.2888922475
 20
21.5014165142
 11
-22.2897109093
 21
21.5144876106
  0
LINE
  5
24A
100
AcDbEntity
  8
ASSI
100
AcDbLine
 62
253
  6
CONTINUOUS
 10
-22.2880992811
 20
21.4871056774
 11
-22.2888922475
 21
21.5014165142
  0
LINE
  5
24B
100
AcDbEntity
  8
ASSI
100
AcDbLine
 62
253
  6
CONTINUOUS
 10
-22.2873345453
 20
21.4716032113
 11
-22.2880992811
 21
21.4871056774
  0
LINE
  5
24C
100
AcDbEntity
  8
ASSI
100
AcDbLine
 62
253
  6
CONTINUOUS
 10
-22.28659969
 20
21.4549425974
 11
-22.2873345453
 21
21.4716032113
  0
LINE
  5
24D
100
AcDbEntity
  8
ASSI
100
AcDbLine
 62
253
  6
CONTINUOUS
 10
-21.7908569731
 20
21.9811478621
 11
-21.7917198058
 21
22.0021138873
  0
LINE
  5
24E
100
AcDbEntity
  8
ASSI
100
AcDbLine
 62
253
  6
CONTINUOUS
 10
-22.2855587093
 20
21.4278984672
 11
-22.28659969
 21
21.4549425974
  0
LINE
  5
24F
100
AcDbEntity
  8
ASSI
100
AcDbLine
 62
253
  6
CONTINUOUS
 10
-21.7900153307
 20
21.95756103
 11
-21.7908569731
 21
21.9811478621
  0
LINE
  5
250
100
AcDbEntity
  8
ASSI
100
AcDbLine
 62
253
  6
CONTINUOUS
 10
-22.2845970784
 20
21.3985447733
 11
-22.2855587093
 21
21.4278984672
  0
LINE
  5
251
100
AcDbEntity
  8
ASSI
100
AcDbLine
 62
253
  6
CONTINUOUS
 10
-21.7887970193
 20
21.9174176242
 11
-21.7900153307
 21
21.95756103
  0
LINE
  5
252
100
AcDbEntity
  8
ASSI
100
AcDbLine
 62
253
  6
CONTINUOUS
 10
-22.2837210206
 20
21.3670716859
 11
-22.2845970784
 21
21.3985447733
  0
LINE
  5
253
100
AcDbEntity
  8
ASSI
100
AcDbLine
 62
253
  6
CONTINUOUS
 10
-21.7872675993
 20
21.8554164575
 11
-21.7887970193
 21
21.9174176242
  0
LINE
  5
254
100
AcDbEntity
  8
ASSI
100
AcDbLine
 62
253
  6
CONTINUOUS
 10
-22.2826958493
 20
21.3221678906
 11
-22.2837210206
 21
21.3670716859
  0
LWPOLYLINE
  5
255
100
AcDbEntity
  8
ASSI
100
AcDbPolyline
 62
253
  6
CONTINUOUS
 90
43
 70
0
 10
-22.2430302078
 20
0.4085562761
 10
-22.2428527136
 20
0.3992106434
 10
-22.2423261683
 20
0.3898780764
 10
-22.2414513081
 20
0.3805716225
 10
-22.240229356
 20
0.3713042925
 10
-22.2386620205
 20
0.3620890425
 10
-22.2367514927
 20
0.3529387561
 10
-22.2345004436
 20
0.3438662256
 10
-22.2319120204
 20
0.334884135
 10
-22.2289898417
 20
0.3260050417
 10
-22.225737993
 20
0.3172413591
 10
-22.2221610204
 20
0.3086053391
 10
-22.2182639248
 20
0.3001090555
 10
-22.2140521544
 20
0.2917643864
 10
-22.2095315977
 20
0.283582998
 10
-22.2047085744
 20
0.2755763284
 10
-22.1995898276
 20
0.2677555713
 10
-22.1941825133
 20
0.2601316604
 10
-22.1884941913
 20
0.2527152543
 10
-22.1825328142
 20
0.2455167216
 10
-22.1763067163
 20
0.2385461261
 10
-22.169824602
 20
0.231813213
 10
-22.1630955335
 20
0.2253273954
 10
-22.1561289184
 20
0.2190977405
 10
-22.1489344965
 20
0.213132958
 10
-22.1415223259
 20
0.2074413866
 10
-22.1339027691
 20
0.2020309836
 10
-22.1260864786
 20
0.196909313
 10
-22.1180843821
 20
0.192083535
 10
-22.1099076668
 20
0.1875603964
 10
-22.1015677642
 20
0.1833462207
 10
-22.0930763339
 20
0.1794468994
 10
-22.0844452472
 20
0.1758678841
 10
-22.0756865709
 20
0.1726141784
 10
-22.0668125501
 20
0.1696903311
 10
-22.0578355909
 20
0.1671004298
 10
-22.0487682438
 20
0.1648480954
 10
-22.0396231851
 20
0.1629364767
 10
-22.0304132002
 20
0.1613682462
 10
-22.0211511651
 20
0.1601455965
 10
-22.0118500285
 20
0.1592702368
 10
-22.0025227938
 20
0.1587433909
 10
-21.9931825011
 20
0.1585657953
  0
LWPOLYLINE
  5
256
100
AcDbEntity
  8
ASSI
100
AcDbPolyline
 62
253
  6
CONTINUOUS
 90
49
 70
0
 10
-22.2968877826
 20
-21.5445367352
 10
-22.2965910334
 20
-21.5608548929
 10
-22.2957607585
 20
-21.5771556174
 10
-22.2943978448
 20
-21.5934214939
 10
-22.2925037485
 20
-21.6096351451
 10
-22.2900804931
 20
-21.6257792494
 10
-22.2871306673
 20
-21.6418365594
 10
-22.2836574227
 20
-21.6577899204
 10
-22.2796644697
 20
-21.673622289
 10
-22.2751560743
 20
-21.6893167509
 10
-22.2701370528
 20
-21.7048565391
 10
-22.2646127673
 20
-21.7202250518
 10
-22.2585891196
 20
-21.7354058703
 10
-22.252072545
 20
-21.7503827765
 10
-22.2450700052
 20
-21.7651397698
 10
-22.2375889815
 20
-21.779661085
 10
-22.2296374661
 20
-21.7939312083
 10
-22.2212239538
 20
-21.8079348945
 10
-22.212357433
 20
-21.8216571828
 10
-22.2030473763
 20
-21.8350834133
 10
-22.1933037299
 20
-21.8481992423
 10
-22.1831369033
 20
-21.8609906576
 10
-22.172557758
 20
-21.8734439937
 10
-22.1615775962
 20
-21.8855459462
 10
-22.1502081484
 20
-21.8972835862
 10
-22.1384615608
 20
-21.9086443739
 10
-22.126350383
 20
-21.9196161721
 10
-22.1138875536
 20
-21.9301872594
 10
-22.1010863871
 20
-21.9403463421
 10
-22.0879605595
 20
-21.9500825671
 10
-22.0745240937
 20
-21.9593855326
 10
-22.0607913442
 20
-21.9682453001
 10
-22.0467769823
 20
-21.9766524043
 10
-22.03249598
 20
-21.9845978636
 10
-22.0179635943
 20
-21.9920731895
 10
-22.0031953505
 20
-21.9990703959
 10
-21.9882070262
 20
-22.0055820074
 10
-21.973014634
 20
-22.0116010675
 10
-21.9576344044
 20
-22.0171211456
 10
-21.9420827687
 20
-22.0221363446
 10
-21.9263763412
 20
-22.0266413065
 10
-21.9105319018
 20
-22.0306312185
 10
-21.8945663776
 20
-22.034101818
 10
-21.8784968252
 20
-22.0370493973
 10
-21.8623404123
 20
-22.0394708072
 10
-21.8461143993
 20
-22.0413634611
 10
-21.8298361211
 20
-22.0427253368
 10
-21.8135229684
 20
-22.0435549794
 10
-21.7971923691
 20
-22.0438515026
  0
LINE
  5
257
100
AcDbEntity
  8
ASSI
100
AcDbLine
 62
253
  6
CONTINUOUS
 10
-21.7855336905
 20
21.7653153617
 11
-21.7872675993
 21
21.8554164575
  0
LINE
  5
258
100
AcDbEntity
  8
ASSI
100
AcDbLine
 62
253
  6
CONTINUOUS
 10
-22.2818444552
 20
21.2743695934
 11
-22.2826958493
 21
21.3221678906
  0
LINE
  5
259
100
AcDbEntity
  8
ASSI
100
AcDbLine
 62
253
  6
CONTINUOUS
 10
-21.783753714
 20
21.6408859944
 11
-21.7855336905
 21
21.7653153617
  0
LINE
  5
25A
100
AcDbEntity
  8
ASSI
100
AcDbLine
 62
253
  6
CONTINUOUS
 10
-22.2810397364
 20
21.2114164876
 11
-22.2818444552
 21
21.2743695934
  0
LINE
  5
25B
100
AcDbEntity
  8
ASSI
100
AcDbLine
 62
253
  6
CONTINUOUS
 10
-21.7819646928
 20
21.4526783519
 11
-21.783753714
 21
21.6408859944
  0
LINE
  5
25C
100
AcDbEntity
  8
ASSI
100
AcDbLine
 62
253
  6
CONTINUOUS
 10
-22.2805363269
 20
21.1459475977
 11
-22.2810397364
 21
21.2114164876
  0
LINE
  5
25D
100
AcDbEntity
  8
ASSI
100
AcDbLine
 62
7
  6
CONTINUOUS
 10
-22.3989147916
 20
-21.6976550384
 11
-22.425222101
 21
-13.0869077307
  0
LINE
  5
25E
100
AcDbEntity
  8
ASSI
100
AcDbLine
 62
253
  6
CONTINUOUS
 10
-21.7808409134
 20
21.2204886889
 11
-21.7819646928
 21
21.4526783519
  0
LINE
  5
25F
100
AcDbEntity
  8
ASSI
100
AcDbLine
 62
253
  6
CONTINUOUS
 10
-22.2517208489
 20
13.3974224713
 11
-22.2805363269
 21
21.1459475977
  0
LINE
  5
260
100
AcDbEntity
  8
ASSI
100
AcDbLine
 62
253
  6
CONTINUOUS
 10
-21.7520254368
 20
13.4286836158
 11
-21.7808409134
 21
21.2204886889
  0
LINE
  5
261
100
AcDbEntity
  8
ASSI
100
AcDbLine
 62
253
  6
CONTINUOUS
 10
-22.2455386184
 20
8.4931151118
 11
-22.2517208489
 21
13.3974224713
  0
LINE
  5
262
100
AcDbEntity
  8
ASSI
100
AcDbLine
 62
253
  6
CONTINUOUS
 10
-21.7458433308
 20
8.5018230447
 11
-21.7520254368
 21
13.4286836158
  0
LINE
  5
263
100
AcDbEntity
  8
ASSI
100
AcDbLine
 62
7
  6
CONTINUOUS
 10
-22.425222101
 20
-0.3368411094
 11
-22.425222101
 21
-13.0869077307
  0
LINE
  5
264
100
AcDbEntity
  8
ASSI
100
AcDbLine
 62
7
  6
CONTINUOUS
 10
-22.425222101
 20
0.3630256481
 11
-22.425222101
 21
13.1130922693
  0
LINE
  5
265
100
AcDbEntity
  8
ASSI
100
AcDbLine
 62
253
  6
CONTINUOUS
 10
-22.2430303046
 20
0.4085562519
 11
-22.2455386184
 21
8.4931151118
  0
LINE
  5
266
100
AcDbEntity
  8
ASSI
100
AcDbLine
 62
253
  6
CONTINUOUS
 10
-21.7433348471
 20
0.1606713575
 11
-21.7458433308
 21
8.5018230447
  0
LINE
  5
267
100
AcDbEntity
  8
ASSI
100
AcDbLine
 62
253
  6
CONTINUOUS
 10
-22.2575472787
 20
-15.5920166017
 11
-22.2430303046
 21
-0.3823717132
  0
LINE
  5
268
100
AcDbEntity
  8
ASSI
100
AcDbLine
 62
253
  6
CONTINUOUS
 10
-21.7578518657
 20
-15.635669419
 11
-21.7433348471
 21
-0.1344868189
  0
LINE
  5
269
100
AcDbEntity
  8
ASSI
100
AcDbLine
 62
7
  6
CONTINUOUS
 10
-22.3989147916
 20
21.7238395771
 11
-22.425222101
 21
13.1130922693
  0
LINE
  5
26A
100
AcDbEntity
  8
ASSI
100
AcDbLine
 62
253
  6
CONTINUOUS
 10
-22.2807008893
 20
-21.1461863643
 11
-22.2575472787
 21
-15.5920166017
  0
LINE
  5
26B
100
AcDbEntity
  8
ASSI
100
AcDbLine
 62
253
  6
CONTINUOUS
 10
-21.7821491092
 20
-21.451163527
 11
-21.7578518657
 21
-15.635669419
  0
LINE
  5
26C
100
AcDbEntity
  8
ASSI
100
AcDbLine
 62
253
  6
CONTINUOUS
 10
-22.2813261113
 20
-21.2107761605
 11
-22.2807008893
 21
-21.1461863643
  0
LINE
  5
26D
100
AcDbEntity
  8
ASSI
100
AcDbLine
 62
253
  6
CONTINUOUS
 10
-21.783753714
 20
-21.6147014558
 11
-21.7821491092
 21
-21.451163527
  0
LINE
  5
26E
100
AcDbEntity
  8
ASSI
100
AcDbLine
 62
253
  6
CONTINUOUS
 10
-22.2820404938
 20
-21.2603800292
 11
-22.2813261113
 21
-21.2107761605
  0
LINE
  5
26F
100
AcDbEntity
  8
ASSI
100
AcDbLine
 62
253
  6
CONTINUOUS
 10
-21.7855336905
 20
-21.7391308231
 11
-21.783753714
 21
-21.6147014558
  0
LWPOLYLINE
  5
270
100
AcDbEntity
  8
ASSI
100
AcDbPolyline
 62
253
  6
CONTINUOUS
 90
49
 70
0
 10
-22.2968877826
 20
21.5707212739
 10
-22.2965910334
 20
21.5870394325
 10
-22.2957607584
 20
21.6033401579
 10
-22.2943978446
 20
21.6196060353
 10
-22.2925037481
 20
21.6358196873
 10
-22.2900804923
 20
21.6519637924
 10
-22.2871306663
 20
21.6680211031
 10
-22.2836574213
 20
21.6839744648
 10
-22.279664468
 20
21.6998068341
 10
-22.2751560721
 20
21.7155012965
 10
-22.2701370503
 20
21.7310410852
 10
-22.2646127643
 20
21.7464095983
 10
-22.2585891162
 20
21.7615904172
 10
-22.2520725411
 20
21.7765673237
 10
-22.2450700009
 20
21.7913243173
 10
-22.2375889767
 20
21.8058456327
 10
-22.2296374608
 20
21.8201157561
 10
-22.221223948
 20
21.8341194423
 10
-22.2123574269
 20
21.8478417307
 10
-22.2030473698
 20
21.8612679612
 10
-22.193303723
 20
21.87438379
 10
-22.183136896
 20
21.8871752052
 10
-22.1725577504
 20
21.899628541
 10
-22.1615775883
 20
21.9117304933
 10
-22.1502081402
 20
21.923468133
 10
-22.1384615525
 20
21.9348289203
 10
-22.1263503745
 20
21.9458007182
 10
-22.1138875449
 20
21.9563718051
 10
-22.1010863784
 20
21.9665308874
 10
-22.0879605509
 20
21.9762671119
 10
-22.0745240851
 20
21.9855700771
 10
-22.0607913357
 20
21.9944298441
 10
-22.046776974
 20
22.0028369478
 10
-22.0324959719
 20
22.0107824066
 10
-22.0179635864
 20
22.018257732
 10
-22.003195343
 20
22.025254938
 10
-21.9882070191
 20
22.0317665491
 10
-21.9730146272
 20
22.0377856087
 10
-21.9576343981
 20
22.0433056864
 10
-21.9420827629
 20
22.0483208851
 10
-21.926376336
 20
22.0528258466
 10
-21.9105318971
 20
22.0568157583
 10
-21.8945663736
 20
22.0602863575
 10
-21.8784968218
 20
22.0632339365
 10
-21.8623404095
 20
22.0656553463
 10
-21.8461143972
 20
22.0675479999
 10
-21.8298361197
 20
22.0689098755
 10
-21.8135229677
 20
22.0697395181
 10
-21.7971923691
 20
22.0700360412
  0
LWPOLYLINE
  5
271
100
AcDbEntity
  8
ASSI
100
AcDbPolyline
 62
253
  6
CONTINUOUS
 90
43
 70
0
 10
-22.2430302078
 20
-0.3823717374
 10
-22.2428527136
 20
-0.3730261058
 10
-22.2423261685
 20
-0.3636935399
 10
-22.2414513084
 20
-0.3543870869
 10
-22.2402293567
 20
-0.3451197579
 10
-22.2386620215
 20
-0.3359045089
 10
-22.236751494
 20
-0.3267542234
 10
-22.2345004454
 20
-0.3176816938
 10
-22.2319120227
 20
-0.308699604
 10
-22.2289898446
 20
-0.2998205114
 10
-22.2257379965
 20
-0.2910568294
 10
-22.2221610246
 20
-0.2824208101
 10
-22.2182639296
 20
-0.2739245269
 10
-22.21405216
 20
-0.2655798582
 10
-22.2095316039
 20
-0.2573984702
 10
-22.2047085814
 20
-0.2493918008
 10
-22.1995898352
 20
-0.2415710438
 10
-22.1941825216
 20
-0.2339471329
 10
-22.1884942002
 20
-0.2265307268
 10
-22.1825328237
 20
-0.219332194
 10
-22.1763067264
 20
-0.2123615982
 10
-22.1698246125
 20
-0.2056286849
 10
-22.1630955444
 20
-0.1991428669
 10
-22.1561289297
 20
-0.1929132116
 10
-22.1489345081
 20
-0.1869484285
 10
-22.1415223376
 20
-0.1812568566
 10
-22.1339027809
 20
-0.1758464531
 10
-22.1260864905
 20
-0.1707247818
 10
-22.1180843938
 20
-0.1658990031
 10
-22.1099076783
 20
-0.1613758638
 10
-22.1015677754
 20
-0.1571616874
 10
-22.0930763447
 20
-0.1532623655
 10
-22.0844452575
 20
-0.1496833495
 10
-22.0756865806
 20
-0.1464296431
 10
-22.066812559
 20
-0.1435057952
 10
-22.0578355991
 20
-0.1409158933
 10
-22.0487682509
 20
-0.1386635584
 10
-22.0396231913
 20
-0.1367519392
 10
-22.0304132053
 20
-0.1351837083
 10
-22.021151169
 20
-0.1339610583
 10
-22.0118500311
 20
-0.1330856983
 10
-22.0025227952
 20
-0.1325588523
 10
-21.9931825011
 20
-0.1323812567
  0
LINE
  5
272
100
AcDbEntity
  8
ASSI
100
AcDbLine
 62
253
  6
CONTINUOUS
 10
-22.282936211
 20
-21.3074987634
 11
-22.2820404938
 21
-21.2603800292
  0
LINE
  5
273
100
AcDbEntity
  8
ASSI
100
AcDbLine
 62
253
  6
CONTINUOUS
 10
-21.7872675993
 20
-21.8292319188
 11
-21.7855336905
 21
-21.7391308231
  0
LINE
  5
274
100
AcDbEntity
  8
ASSI
100
AcDbLine
 62
253
  6
CONTINUOUS
 10
-22.2840031114
 20
-21.3515985463
 11
-22.282936211
 21
-21.3074987634
  0
LINE
  5
275
100
AcDbEntity
  8
ASSI
100
AcDbLine
 62
253
  6
CONTINUOUS
 10
-21.7887970193
 20
-21.8912330855
 11
-21.7872675993
 21
-21.8292319188
  0
LINE
  5
276
100
AcDbEntity
  8
ASSI
100
AcDbLine
 62
253
  6
CONTINUOUS
 10
-22.2849083444
 20
-21.3823873308
 11
-22.2840031114
 21
-21.3515985463
  0
LINE
  5
277
100
AcDbEntity
  8
ASSI
100
AcDbLine
 62
253
  6
CONTINUOUS
 10
-21.7900153307
 20
-21.9313764914
 11
-21.7887970193
 21
-21.8912330855
  0
LINE
  5
278
100
AcDbEntity
  8
ASSI
100
AcDbLine
 62
253
  6
CONTINUOUS
 10
-22.2858971362
 20
-21.410991757
 11
-22.2849083444
 21
-21.3823873308
  0
LINE
  5
279
100
AcDbEntity
  8
ASSI
100
AcDbLine
 62
253
  6
CONTINUOUS
 10
-21.7908569731
 20
-21.9549633234
 11
-21.7900153307
 21
-21.9313764914
  0
LINE
  5
27A
100
AcDbEntity
  8
ASSI
100
AcDbLine
 62
253
  6
CONTINUOUS
 10
-22.28659969
 20
-21.4287580588
 11
-22.2858971362
 21
-21.410991757
  0
LINE
  5
27B
100
AcDbEntity
  8
ASSI
100
AcDbLine
 62
253
  6
CONTINUOUS
 10
-21.7917198058
 20
-21.9759293486
 11
-21.7908569731
 21
-21.9549633234
  0
LINE
  5
27C
100
AcDbEntity
  8
ASSI
100
AcDbLine
 62
253
  6
CONTINUOUS
 10
-22.2873345453
 20
-21.4454186727
 11
-22.28659969
 21
-21.4287580588
  0
LINE
  5
27D
100
AcDbEntity
  8
ASSI
100
AcDbLine
 62
253
  6
CONTINUOUS
 10
-22.2880992811
 20
-21.4609211387
 11
-22.2873345453
 21
-21.4454186727
  0
LINE
  5
27E
100
AcDbEntity
  8
ASSI
100
AcDbLine
 62
253
  6
CONTINUOUS
 10
-22.2888922475
 20
-21.4752319756
 11
-22.2880992811
 21
-21.4609211387
  0
LINE
  5
27F
100
AcDbEntity
  8
ASSI
100
AcDbLine
 62
7
  6
CONTINUOUS
 10
3.3688241981
 20
-22.1951456712
 11
3.7170428721
 21
-22.1635368397
  0
LINE
  5
280
100
AcDbEntity
  8
ASSI
100
AcDbLine
 62
7
  6
CONTINUOUS
 10
-7.9311758019
 20
-22.1951456712
 11
-7.5829571279
 21
-22.1635368397
  0
LINE
  5
281
100
AcDbEntity
  8
ASSI
100
AcDbLine
 62
7
  6
CONTINUOUS
 10
21.7475597042
 20
-22.1951456712
 11
18.9807315999
 21
-22.1951456712
  0
LINE
  5
282
100
AcDbEntity
  8
ASSI
100
AcDbLine
 62
7
  6
CONTINUOUS
 10
14.5688241981
 20
-22.1951456712
 11
7.7807315999
 21
-22.1951456712
  0
LINE
  5
283
100
AcDbEntity
  8
ASSI
100
AcDbLine
 62
7
  6
CONTINUOUS
 10
3.3688241981
 20
-22.1951456712
 11
-3.5192684001
 21
-22.1951456712
  0
LINE
  5
284
100
AcDbEntity
  8
ASSI
100
AcDbLine
 62
7
  6
CONTINUOUS
 10
-7.9311758019
 20
-22.1951456712
 11
-14.7192684001
 21
-22.1951456712
  0
LINE
  5
285
100
AcDbEntity
  8
ASSI
100
AcDbLine
 62
7
  6
CONTINUOUS
 10
-19.1311758019
 20
-22.1951456712
 11
-21.8980039062
 21
-22.1951456712
  0
LINE
  5
286
100
AcDbEntity
  8
ASSI
100
AcDbLine
 62
7
  6
CONTINUOUS
 10
18.4593078452
 20
-22.1582960617
 11
15.0902479528
 21
-22.1582960617
  0
LINE
  5
287
100
AcDbEntity
  8
ASSI
100
AcDbLine
 62
7
  6
CONTINUOUS
 10
7.2593078452
 20
-22.1582960617
 11
3.8902479528
 21
-22.1582960617
  0
LINE
  5
288
100
AcDbEntity
  8
ASSI
100
AcDbLine
 62
7
  6
CONTINUOUS
 10
-4.0406921548
 20
-22.1582960617
 11
-7.4097520472
 21
-22.1582960617
  0
LINE
  5
289
100
AcDbEntity
  8
ASSI
100
AcDbLine
 62
7
  6
CONTINUOUS
 10
-15.2406921548
 20
-22.1582960617
 11
-18.6097520472
 21
-22.1582960617
  0
LINE
  5
28A
100
AcDbEntity
  8
ASSI
100
AcDbLine
 62
253
  6
CONTINUOUS
 10
-21.7971923691
 20
-22.0438515026
 11
21.6467481671
 21
-22.0438515026
  0
LINE
  5
28B
100
AcDbEntity
  8
ASSI
100
AcDbLine
 62
253
  6
CONTINUOUS
 10
-21.7808409134
 20
-21.1943041503
 11
21.6303967114
 21
-21.1943041503
  0
LINE
  5
28C
100
AcDbEntity
  8
ASSI
100
AcDbLine
 62
7
  6
CONTINUOUS
 10
-3.5192684001
 20
-22.1951456712
 11
-3.8674870741
 21
-22.1635368397
  0
LINE
  5
28D
100
AcDbEntity
  8
ASSI
100
AcDbLine
 62
7
  6
CONTINUOUS
 10
7.7807315999
 20
-22.1951456712
 11
7.4325129259
 21
-22.1635368397
  0
LWPOLYLINE
  5
28E
100
AcDbEntity
  8
ASSI
100
AcDbPolyline
 62
253
  6
CONTINUOUS
 90
17
 70
0
 10
-22.2897109093
 20
21.5144876106
 10
-22.2901289749
 20
21.5205449679
 10
-22.2905525788
 20
21.5262782354
 10
-22.2909817089
 20
21.5316881121
 10
-22.2914154382
 20
21.5367629044
 10
-22.2918537761
 20
21.5415018829
 10
-22.2922967133
 20
21.5459057769
 10
-22.292743295
 20
21.5499650812
 10
-22.2931935308
 20
21.5536790591
 10
-22.2936474112
 20
21.5570484472
 10
-22.2941039534
 20
21.5600659508
 10
-22.2945631763
 20
21.5627308247
 10
-22.2950250609
 20
21.5650438141
 10
-22.2954885678
 20
21.5669998596
 10
-22.2959533504
 20
21.5685972748
 10
-22.2964197554
 20
21.5698377463
 10
-22.2968877826
 20
21.5707212739
  0
LWPOLYLINE
  5
28F
100
AcDbEntity
  8
ASSI
100
AcDbPolyline
 62
253
  6
CONTINUOUS
 90
11
 70
0
 10
-21.7926010448
 20
22.0203985815
 10
-21.7930476114
 20
22.0285186884
 10
-21.7934978409
 20
22.0359493577
 10
-21.7939517185
 20
22.0426851979
 10
-21.7944082501
 20
22.0487213077
 10
-21.7948674307
 20
22.0540533179
 10
-21.7953292653
 20
22.058677422
 10
-21.7957927744
 20
22.06259032
 10
-21.7962576315
 20
22.0657891874
 10
-21.796724163
 20
22.068271695
 10
-21.7971923691
 20
22.0700360412
  0
LINE
  5
290
100
AcDbEntity
  8
ASSI
100
AcDbLine
 62
253
  6
CONTINUOUS
 10
-21.7917198058
 20
22.0021138873
 11
-21.7926010448
 21
22.0203985815
  0
LWPOLYLINE
  5
291
100
AcDbEntity
  8
0
100
AcDbPolyline
 62
253
  6
CONTINUOUS
 90
53
 70
0
 10
-13.3916670316
 20
14.6179407493
 10
-13.3860959481
 20
14.62334016
 10
-13.3804030163
 20
14.6285139731
 10
-13.374577226
 20
14.6334787057
 10
-13.3686075672
 20
14.6382508748
 10
-13.3624830298
 20
14.6428469976
 10
-13.3561947015
 20
14.6472800609
 10
-13.3497420602
 20
14.6515489301
 10
-13.3431266815
 20
14.6556489407
 10
-13.3363501411
 20
14.6595754278
 10
-13.3294140147
 20
14.6633237267
 10
-13.3223210089
 20
14.6668885475
 10
-13.3150783541
 20
14.6702620992
 10
-13.3076944121
 20
14.6734359655
 10
-13.3001775442
 20
14.6764017302
 10
-13.292536112
 20
14.6791509772
 10
-13.2860815855
 20
14.6812702605
 10
-13.2795659281
 20
14.6832267384
 10
-13.2730087053
 20
14.6850138098
 10
-13.266424122
 20
14.6866261025
 10
-13.2598049409
 20
14.6880631594
 10
-13.2531385641
 20
14.6893257524
 10
-13.2450651267
 20
14.6906100292
 10
-13.2369213228
 20
14.691635748
 10
-13.2287228884
 20
14.692394467
 10
-13.2204855598
 20
14.6928777449
 10
-13.2122250731
 20
14.6930771399
 10
-13.2039567086
 20
14.692986612
 10
-13.1956939233
 20
14.6926097264
 10
-13.1874497181
 20
14.6919524498
 10
-13.1792370941
 20
14.6910207488
 10
-13.1710690523
 20
14.6898205903
 10
-13.1643024547
 20
14.6886187533
 10
-13.1575633792
 20
14.6872324578
 10
-13.1508393596
 20
14.6856595304
 10
-13.1441244411
 20
14.6838994172
 10
-13.1374387134
 20
14.681958041
 10
-13.1308087775
 20
14.6798429438
 10
-13.1229582228
 20
14.6770857912
 10
-13.1152378937
 20
14.6741003133
 10
-13.1076593699
 20
14.6708974825
 10
-13.1002342314
 20
14.6674882714
 10
-13.0929740579
 20
14.6638836523
 10
-13.085888332
 20
14.6600934793
 10
-13.0789781468
 20
14.6561231334
 10
-13.072242498
 20
14.6519768769
 10
-13.0656803813
 20
14.6476589724
 10
-13.0592907927
 20
14.6431736825
 10
-13.0530710168
 20
14.6385217104
 10
-13.0470114953
 20
14.6336895232
 10
-13.0411009588
 20
14.6286600287
 10
-13.0353281378
 20
14.6234161348
 10
-13.029681763
 20
14.6179407493
  0
LINE
  5
292
100
AcDbEntity
  8
ASSI
100
AcDbLine
 62
7
  6
CONTINUOUS
 10
-19.1311758019
 20
-22.1951456712
 11
-18.7829571279
 21
-22.1635368397
  0
LINE
  5
293
100
AcDbEntity
  8
ASSI
100
AcDbLine
 62
7
  6
CONTINUOUS
 10
18.9807315999
 20
-22.1951456712
 11
18.6325129259
 21
-22.1635368397
  0
LINE
  5
294
100
AcDbEntity
  8
0
100
AcDbLine
 62
253
  6
CONTINUOUS
 10
-13.3916670316
 20
10.7518490836
 11
-12.6341826064
 21
11.5099332501
  0
LINE
  5
295
100
AcDbEntity
  8
0
100
AcDbLine
 62
253
  6
CONTINUOUS
 10
-10.2832009998
 20
13.8608090828
 11
-9.5257152878
 21
14.6179407493
  0
LWPOLYLINE
  5
296
100
AcDbEntity
  8
0
100
AcDbPolyline
 62
253
  6
CONTINUOUS
 90
37
 70
0
 10
-12.2723737268
 20
13.4989649162
 10
-12.2764530939
 20
13.494936777
 10
-12.2806201122
 20
13.4910241785
 10
-12.2848737043
 20
13.4872243232
 10
-12.2892127929
 20
13.4835344137
 10
-12.2936363006
 20
13.4799516524
 10
-12.2981431502
 20
13.4764732419
 10
-12.3027322642
 20
13.4730963847
 10
-12.307402091
 20
13.4698189678
 10
-12.3121491824
 20
13.4666416157
 10
-12.3169696154
 20
13.4635656374
 10
-12.3218594675
 20
13.4605923419
 10
-12.326814816
 20
13.4577230382
 10
-12.3318317382
 20
13.4549590352
 10
-12.3369063115
 20
13.4523016419
 10
-12.3420349692
 20
13.4497520779
 10
-12.3472155699
 20
13.447311205
 10
-12.3524463282
 20
13.4449797957
 10
-12.3577254586
 20
13.4427586223
 10
-12.3630511758
 20
13.4406484573
 10
-12.3684216943
 20
13.4386500732
 10
-12.3738352288
 20
13.4367642423
 10
-12.3792899164
 20
13.4349919492
 10
-12.3847835846
 20
13.4333350271
 10
-12.3903139833
 20
13.4317955212
 10
-12.3958788627
 20
13.4303754769
 10
-12.4014759726
 20
13.4290769396
 10
-12.4071030632
 20
13.4279019544
 10
-12.4127578843
 20
13.4268525667
 10
-12.417727169
 20
13.4260391824
 10
-12.4227164787
 20
13.4253260513
 10
-12.4277263298
 20
13.4247157003
 10
-12.4327572385
 20
13.4242106561
 10
-12.4378097213
 20
13.4238134455
 10
-12.4428842945
 20
13.4235265952
 10
-12.4479814745
 20
13.4233526321
 10
-12.4531017777
 20
13.4232940829
  0
LWPOLYLINE
  5
297
100
AcDbEntity
  8
0
100
AcDbPolyline
 62
253
  6
CONTINUOUS
 90
53
 70
0
 10
-9.5257152878
 20
14.6179407493
 10
-9.5201547066
 20
14.6233275696
 10
-9.5144717815
 20
14.6284888998
 10
-9.5086556403
 20
14.6334411711
 10
-9.5026954111
 20
14.6382008148
 10
-9.4965802218
 20
14.6427842621
 10
-9.4903012815
 20
14.6472044409
 10
-9.4838581246
 20
14.6514602662
 10
-9.4772523664
 20
14.6555471493
 10
-9.4704856225
 20
14.6594605017
 10
-9.4635595082
 20
14.6631957351
 10
-9.456476757
 20
14.6667476447
 10
-9.4492445744
 20
14.6701085612
 10
-9.441871284
 20
14.6732701991
 10
-9.4343652092
 20
14.676224273
 10
-9.4267346737
 20
14.6789624973
 10
-9.4202892636
 20
14.6810732007
 10
-9.4137826525
 20
14.6830217349
 10
-9.40723429
 20
14.6848015798
 10
-9.4006582964
 20
14.6864074344
 10
-9.3940474733
 20
14.6878388734
 10
-9.3873892926
 20
14.6890966903
 10
-9.379325553
 20
14.6903763807
 10
-9.3711913007
 20
14.6913988125
 10
-9.3630022584
 20
14.6921556001
 10
-9.3547741485
 20
14.692638358
 10
-9.3465226938
 20
14.6928387005
 10
-9.3382631465
 20
14.6927506071
 10
-9.3300088793
 20
14.6923775171
 10
-9.3217727942
 20
14.6917252346
 10
-9.3135677937
 20
14.690799564
 10
-9.3054067801
 20
14.6896063095
 10
-9.2986455314
 20
14.6884107896
 10
-9.291911375
 20
14.6870312919
 10
-9.2851918967
 20
14.6854656302
 10
-9.2784811843
 20
14.6837132286
 10
-9.2717993337
 20
14.6817799534
 10
-9.2651729425
 20
14.6796732817
 10
-9.2573261994
 20
14.6769265859
 10
-9.2496092009
 20
14.6739518842
 10
-9.2420335289
 20
14.6707600953
 10
-9.2346107655
 20
14.6673621375
 10
-9.2273524929
 20
14.6637689296
 10
-9.2202681886
 20
14.6599902715
 10
-9.2133589123
 20
14.6560314888
 10
-9.2066236193
 20
14.6518967886
 10
-9.2000612647
 20
14.6475903777
 10
-9.1936708039
 20
14.6431164634
 10
-9.1874494997
 20
14.6384757259
 10
-9.1813878462
 20
14.6336547388
 10
-9.1754746449
 20
14.6286365491
 10
-9.1696986977
 20
14.6234042036
 10
-9.1640488061
 20
14.6179407493
  0
LWPOLYLINE
  5
298
100
AcDbEntity
  8
0
100
AcDbPolyline
 62
253
  6
CONTINUOUS
 90
53
 70
0
 10
-12.6341826064
 20
11.5099332501
 10
-12.6285801661
 20
11.5153175541
 10
-12.6228568083
 20
11.5204759364
 10
-12.6170016209
 20
11.5254247186
 10
-12.6110036917
 20
11.5301802226
 10
-12.6048521085
 20
11.53475877
 10
-12.5985380237
 20
11.5391732073
 10
-12.5920608467
 20
11.54342248
 10
-12.5854220516
 20
11.5475020586
 10
-12.5786231124
 20
11.5514074133
 10
-12.5716655029
 20
11.5551340145
 10
-12.564551868
 20
11.5586766945
 10
-12.5572895357
 20
11.5620277326
 10
-12.549887005
 20
11.5651787701
 10
-12.5423527749
 20
11.5681214483
 10
-12.5346953443
 20
11.5708474083
 10
-12.5282286573
 20
11.5729471866
 10
-12.5217021455
 20
11.5748841679
 10
-12.5151356383
 20
11.5766518588
 10
-12.5085435879
 20
11.578244994
 10
-12.5019189394
 20
11.5796632221
 10
-12.4952492608
 20
11.5809074202
 10
-12.4871748502
 20
11.5821703885
 10
-12.4790330955
 20
11.5831760245
 10
-12.4708393976
 20
11.5839163366
 10
-12.4626091575
 20
11.5843833328
 10
-12.454357776
 20
11.5845690215
 10
-12.4461002573
 20
11.5844677409
 10
-12.4378500183
 20
11.5840831504
 10
-12.4296200793
 20
11.5834212391
 10
-12.4214234605
 20
11.5824879966
 10
-12.4132731819
 20
11.5812894121
 10
-12.4065227628
 20
11.5800912885
 10
-12.3998012259
 20
11.5787109301
 10
-12.3930962309
 20
11.5771462081
 10
-12.3864018482
 20
11.5753965795
 10
-12.3797377916
 20
11.5734678437
 10
-12.3731301858
 20
11.5713673859
 10
-12.365306731
 20
11.5686302188
 10
-12.3576135713
 20
11.5656671101
 10
-12.3500620933
 20
11.5624887631
 10
-12.3426636838
 20
11.5591058813
 10
-12.3354297293
 20
11.5555291681
 10
-12.3283695619
 20
11.5517682404
 10
-12.3214842956
 20
11.547828369
 10
-12.3147729895
 20
11.5437137381
 10
-12.308234703
 20
11.539428532
 10
-12.3018684953
 20
11.534976935
 10
-12.2956717298
 20
11.5303596411
 10
-12.2896349863
 20
11.525563383
 10
-12.2837471487
 20
11.5205714035
 10
-12.2779971009
 20
11.515366945
 10
-12.2723737268
 20
11.5099332501
  0
LWPOLYLINE
  5
299
100
AcDbEntity
  8
ASSI
100
AcDbPolyline
 62
253
  6
CONTINUOUS
 90
11
 70
0
 10
-22.246173473
 20
9.5035922693
 10
-22.2453595275
 20
9.5038963821
 10
-22.24403484
 20
9.5042001835
 10
-22.2422007668
 20
9.5045033625
 10
-22.2398591855
 20
9.5048056088
 10
-22.2370124935
 20
9.5051066129
 10
-22.233663605
 20
9.5054060666
 10
-22.2298159486
 20
9.5057036635
 10
-22.2254734635
 20
9.5059990987
 10
-22.2206405953
 20
9.5062920699
 10
-22.2153222917
 20
9.5065822771
  0
LWPOLYLINE
  5
29A
100
AcDbEntity
  8
ASSI
100
AcDbPolyline
 62
253
  6
CONTINUOUS
 90
13
 70
0
 10
-22.246173473
 20
-9.4774077307
 10
-22.2453595275
 20
-9.4777118434
 10
-22.24403484
 20
-9.4780156448
 10
-22.2422007668
 20
-9.4783188239
 10
-22.2398591856
 20
-9.4786210701
 10
-22.2370124935
 20
-9.4789220742
 10
-22.2336636051
 20
-9.479221528
 10
-22.2298159487
 20
-9.4795191248
 10
-22.2254734636
 20
-9.4798145601
 10
-22.2206405954
 20
-9.4801075313
 10
-22.2153222918
 20
-9.4803977385
 10
-22.2095239978
 20
-9.4806848846
 10
-22.1965116679
 20
-9.4812488211
  0
LINE
  5
29B
100
AcDbEntity
  8
0
100
AcDbLine
 62
253
  6
CONTINUOUS
 10
-12.6471751584
 20
-12.0093658114
 11
-13.1084213477
 21
-11.7437195852
  0
LINE
  5
29C
100
AcDbEntity
  8
0
100
AcDbLine
 62
253
  6
CONTINUOUS
 10
-9.7772819883
 20
-13.6670287513
 11
-10.2339880877
 21
-13.4028687514
  0
LWPOLYLINE
  5
29D
100
AcDbEntity
  8
0
100
AcDbPolyline
 62
253
  6
CONTINUOUS
 90
53
 70
0
 10
-10.2339880877
 20
-13.4028687514
 10
-10.2406529957
 20
-13.3989099317
 10
-10.2471304391
 20
-13.3947724233
 10
-10.2534392718
 20
-13.3904501016
 10
-10.2595983475
 20
-13.3859368424
 10
-10.2656265201
 20
-13.3812265212
 10
-10.2715386983
 20
-13.3763140934
 10
-10.2773340107
 20
-13.371198833
 10
-10.2830076406
 20
-13.3658810941
 10
-10.2885547717
 20
-13.3603612304
 10
-10.2939705872
 20
-13.3546395959
 10
-10.2992493649
 20
-13.3487174865
 10
-10.3043817593
 20
-13.3425999662
 10
-10.3093575192
 20
-13.336293041
 10
-10.3141663933
 20
-13.3298027171
 10
-10.3187981305
 20
-13.3231350004
 10
-10.3225142817
 20
-13.3174497176
 10
-10.3260888443
 20
-13.3116628302
 10
-10.32951036
 20
-13.3057917522
 10
-10.3327699657
 20
-13.2998489982
 10
-10.3358691778
 20
-13.293827486
 10
-10.3388121073
 20
-13.2877152338
 10
-10.3421399208
 20
-13.2802495239
 10
-10.3452365272
 20
-13.2726490263
 10
-10.3480898462
 20
-13.2649268725
 10
-10.3506877975
 20
-13.2570961936
 10
-10.3530183008
 20
-13.249170121
 10
-10.3550716799
 20
-13.2411619607
 10
-10.3568478751
 20
-13.2330857184
 10
-10.3583492308
 20
-13.2249555743
 10
-10.3595780916
 20
-13.2167857087
 10
-10.3605368019
 20
-13.2085903021
 10
-10.361131009
 20
-13.2017480296
 10
-10.3615403295
 20
-13.1948851524
 10
-10.3617658531
 20
-13.1879889552
 10
-10.3618085433
 20
-13.1810534667
 10
-10.3616688576
 20
-13.17409969
 10
-10.3613471275
 20
-13.1671553723
 10
-10.3607223845
 20
-13.1588680957
 10
-10.3598435406
 20
-13.1506484489
 10
-10.3587181618
 20
-13.1425104851
 10
-10.3573538142
 20
-13.1344682572
 10
-10.3557580641
 20
-13.1265358185
 10
-10.3539379384
 20
-13.1187248863
 10
-10.351898308
 20
-13.1110378351
 10
-10.3496435047
 20
-13.1034747039
 10
-10.3471778601
 20
-13.0960355312
 10
-10.3445057062
 20
-13.0887203561
 10
-10.3416283991
 20
-13.0815266852
 10
-10.3385353933
 20
-13.0744418978
 10
-10.3352131679
 20
-13.0674508408
 10
-10.3316482019
 20
-13.0605383615
 10
-10.3278269742
 20
-13.053689307
  0
LWPOLYLINE
  5
29E
100
AcDbEntity
  8
0
100
AcDbPolyline
 62
253
  6
CONTINUOUS
 90
53
 70
0
 10
-13.1084213477
 20
-11.7437195852
 10
-13.1150782105
 20
-11.7397110238
 10
-13.12154811
 20
-11.7355271686
 10
-13.1278497511
 20
-11.7311616575
 10
-13.1340018387
 20
-11.7266081284
 10
-13.1400230778
 20
-11.7218602189
 10
-13.1459282557
 20
-11.7169126619
 10
-13.1517164898
 20
-11.7117645694
 10
-13.1573829802
 20
-11.7064161485
 10
-13.1629229267
 20
-11.7008676062
 10
-13.1683315294
 20
-11.6951191493
 10
-13.1736030576
 20
-11.6891719592
 10
-13.178728059
 20
-11.6830311138
 10
-13.1836961511
 20
-11.6767026652
 10
-13.1884969509
 20
-11.6701926656
 10
-13.1931200758
 20
-11.6635071672
 10
-13.1968285485
 20
-11.6578085683
 10
-13.2003949159
 20
-11.6520098708
 10
-13.2038076684
 20
-11.6461286471
 10
-13.2070578984
 20
-11.6401775613
 10
-13.2101471057
 20
-11.6341496416
 10
-13.2130793922
 20
-11.6280330077
 10
-13.2163936275
 20
-11.6205647813
 10
-13.2194759999
 20
-11.612964556
 10
-13.222314706
 20
-11.6052451891
 10
-13.2248979423
 20
-11.5974195379
 10
-13.2272139051
 20
-11.5895004595
 10
-13.2292531723
 20
-11.5815010453
 10
-13.2310158463
 20
-11.5734353226
 10
-13.232504411
 20
-11.5653175528
 10
-13.2337213503
 20
-11.5571619972
 10
-13.234669148
 20
-11.5489829173
 10
-13.235255132
 20
-11.5421558666
 10
-13.2356571036
 20
-11.5353098181
 10
-13.2358762293
 20
-11.5284322068
 10
-13.2359135497
 20
-11.5215171048
 10
-13.2357696014
 20
-11.5145851332
 10
-13.2354447947
 20
-11.5076635503
 10
-13.2348179981
 20
-11.4994041966
 10
-13.2339388255
 20
-11.491212874
 10
-13.2328147457
 20
-11.4831034022
 10
-13.2314532277
 20
-11.4750896005
 10
-13.2298617405
 20
-11.4671852884
 10
-13.2280472293
 20
-11.4594020105
 10
-13.2260145456
 20
-11.4517422125
 10
-13.2237680173
 20
-11.444206065
 10
-13.2213119722
 20
-11.4367937391
 10
-13.2186507383
 20
-11.4295054054
 10
-13.2157856863
 20
-11.4223386836
 10
-13.2127063582
 20
-11.4152809883
 10
-13.209399339
 20
-11.408317183
 10
-13.2058512138
 20
-11.4014321312
 10
-13.2020485675
 20
-11.3946106963
  0
LWPOLYLINE
  5
29F
100
AcDbEntity
  8
0
100
AcDbPolyline
 62
253
  6
CONTINUOUS
 90
53
 70
0
 10
-12.3019360905
 20
-13.053689307
 10
-12.2981627396
 20
-13.0604764109
 10
-12.2946405503
 20
-13.0673236199
 10
-12.2913564257
 20
-13.0742456003
 10
-12.2882972689
 20
-13.0812570188
 10
-12.285449983
 20
-13.0883725419
 10
-12.2828043128
 20
-13.0956039521
 10
-12.2803613692
 20
-13.102951496
 10
-12.2781251049
 20
-13.1104125358
 10
-12.2760994724
 20
-13.1179844342
 10
-12.2742884243
 20
-13.1256645535
 10
-12.2726962281
 20
-13.1334489699
 10
-12.27132841
 20
-13.1413286146
 10
-12.2701908112
 20
-13.1492931326
 10
-12.2692892728
 20
-13.1573321688
 10
-12.2686296361
 20
-13.1654353682
 10
-12.2682685663
 20
-13.1722271014
 10
-12.2680806847
 20
-13.1790353534
 10
-12.268067136
 20
-13.185839276
 10
-12.2682292736
 20
-13.1926235553
 10
-12.2685692856
 20
-13.199395013
 10
-12.269089569
 20
-13.2061660045
 10
-12.2699551799
 20
-13.2143015523
 10
-12.2710876019
 20
-13.2224370302
 10
-12.2724906035
 20
-13.2305552474
 10
-12.2741679535
 20
-13.238639013
 10
-12.2761234207
 20
-13.2466711363
 10
-12.2783586245
 20
-13.254635445
 10
-12.2808665881
 20
-13.262519841
 10
-12.2836381857
 20
-13.2703132448
 10
-12.2866642912
 20
-13.2780045769
 10
-12.2899357787
 20
-13.2855827578
 10
-12.2928446537
 20
-13.2918064639
 10
-12.2959229621
 20
-13.2979553885
 10
-12.2991760707
 20
-13.3040410213
 10
-12.3026061126
 20
-13.3100689977
 10
-12.3062022854
 20
-13.3160215354
 10
-12.3099505533
 20
-13.3218749979
 10
-12.3146312796
 20
-13.3287405133
 10
-12.3194973699
 20
-13.3354210008
 10
-12.3245353832
 20
-13.3419081373
 10
-12.3297318785
 20
-13.3481936001
 10
-12.3350734149
 20
-13.3542690662
 10
-12.340548164
 20
-13.3601279486
 10
-12.3461507483
 20
-13.3657706035
 10
-12.351877403
 20
-13.3711991228
 10
-12.3577243634
 20
-13.3764155984
 10
-12.3636878646
 20
-13.3814221225
 10
-12.3697679568
 20
-13.3862215051
 10
-12.3759799501
 20
-13.3908194298
 10
-12.3823429697
 20
-13.3952222983
 10
-12.3888761406
 20
-13.3994365123
 10
-12.3955985881
 20
-13.4034684736
  0
LWPOLYLINE
  5
2A0
100
AcDbEntity
  8
0
100
AcDbPolyline
 62
253
  6
CONTINUOUS
 90
53
 70
0
 10
-13.2020485675
 20
-13.5733662514
 10
-13.2058145933
 20
-13.5665792371
 10
-13.2093308137
 20
-13.5597327307
 10
-13.2126102531
 20
-13.5528119701
 10
-13.2156659359
 20
-13.5458021935
 10
-13.2185108865
 20
-13.5386886389
 10
-13.221155289
 20
-13.5314594426
 10
-13.2235979664
 20
-13.5241143347
 10
-13.2258349014
 20
-13.5166559436
 10
-13.2278620766
 20
-13.5090868976
 10
-13.2296754748
 20
-13.501409825
 10
-13.2312707633
 20
-13.4936286359
 10
-13.2326423477
 20
-13.4857523663
 10
-13.2337843184
 20
-13.4777913342
 10
-13.2346907658
 20
-13.4697558571
 10
-13.2353557801
 20
-13.4616562529
 10
-13.2357216353
 20
-13.4548675083
 10
-13.2359145143
 20
-13.4480621739
 10
-13.2359332066
 20
-13.4412610273
 10
-13.2357762964
 20
-13.4344793188
 10
-13.2354415462
 20
-13.4277101891
 10
-13.2349265131
 20
-13.4209412509
 10
-13.2340671161
 20
-13.4128077794
 10
-13.2329407056
 20
-13.4046739938
 10
-13.2315433934
 20
-13.3965571415
 10
-13.2298712911
 20
-13.3884744698
 10
-13.2279205102
 20
-13.3804432259
 10
-13.2256893333
 20
-13.3724796291
 10
-13.2231847261
 20
-13.364595787
 10
-13.2204158255
 20
-13.3568027794
 10
-13.2173917681
 20
-13.3491116859
 10
-13.2141216907
 20
-13.3415335862
 10
-13.2112135136
 20
-13.3353098245
 10
-13.2081354871
 20
-13.329160716
 10
-13.2048822642
 20
-13.323074752
 10
-13.2014517351
 20
-13.3170462867
 10
-13.1978547387
 20
-13.3110931273
 10
-13.1941053514
 20
-13.3052389441
 10
-13.1894229461
 20
-13.2983724724
 10
-13.1845548681
 20
-13.2916909429
 10
-13.179514618
 20
-13.2852026864
 10
-13.1743156962
 20
-13.2789160341
 10
-13.1689716033
 20
-13.2728393168
 10
-13.1634942243
 20
-13.2669791273
 10
-13.1578889817
 20
-13.2613351061
 10
-13.1521596827
 20
-13.2559051554
 10
-13.1463101343
 20
-13.2506871775
 10
-13.1403441437
 20
-13.2456790745
 10
-13.1342616823
 20
-13.2408780215
 10
-13.1280473789
 20
-13.2362782848
 10
-13.1216820265
 20
-13.2318734034
 10
-13.1151464184
 20
-13.2276569163
 10
-13.1084213477
 20
-13.2236223626
  0
LWPOLYLINE
  5
2A1
100
AcDbEntity
  8
ASSI
100
AcDbPolyline
 62
253
  6
CONTINUOUS
 90
12
 70
0
 10
-21.7971923691
 20
-22.0438515026
 10
-21.796724163
 20
-22.0420871564
 10
-21.7962576315
 20
-22.0396046487
 10
-21.7957927744
 20
-22.0364057814
 10
-21.7953292653
 20
-22.0324928833
 10
-21.7948674307
 20
-22.0278687793
 10
-21.7944082501
 20
-22.022536769
 10
-21.7939517185
 20
-22.0165006592
 10
-21.7934978409
 20
-22.009764819
 10
-21.7930476114
 20
-22.0023341498
 10
-21.7926010448
 20
-21.9942140428
 10
-21.7917198058
 20
-21.9759293486
  0
LINE
  5
2A2
100
AcDbEntity
  8
0
100
AcDbLine
 62
253
  6
CONTINUOUS
 10
-12.2723737268
 20
11.1480890835
 11
-13.029681763
 21
10.390639917
  0
LINE
  5
2A3
100
AcDbEntity
  8
0
100
AcDbLine
 62
253
  6
CONTINUOUS
 10
-9.1640488061
 20
14.2561318605
 11
-9.9216743423
 21
13.4989649162
  0
LWPOLYLINE
  5
2A4
100
AcDbEntity
  8
0
100
AcDbPolyline
 62
253
  6
CONTINUOUS
 90
37
 70
0
 10
-9.9216743423
 20
13.4989649162
 10
-9.9257494383
 20
13.4949381185
 10
-9.929912165
 20
13.4910267282
 10
-9.9341614453
 20
13.4872279521
 10
-9.938496202
 20
13.4835389969
 10
-9.9429153581
 20
13.4799570697
 10
-9.9474178363
 20
13.4764793772
 10
-9.9520025597
 20
13.4731031262
 10
-9.9566679784
 20
13.4698262078
 10
-9.9614106525
 20
13.4666492496
 10
-9.9662266696
 20
13.4635735634
 10
-9.971112117
 20
13.4606004612
 10
-9.9760630823
 20
13.4577312548
 10
-9.9810756528
 20
13.4549672561
 10
-9.9861459162
 20
13.4523097768
 10
-9.991270314
 20
13.4497600405
 10
-9.9964467044
 20
13.4473189175
 10
-10.0016732999
 20
13.4449871897
 10
-10.0069483129
 20
13.4427656391
 10
-10.0122699558
 20
13.4406550475
 10
-10.0176364411
 20
13.4386561969
 10
-10.0230459811
 20
13.4367698693
 10
-10.0284967116
 20
13.4349970583
 10
-10.0339864614
 20
13.4333396048
 10
-10.0395129827
 20
13.4317995613
 10
-10.0450740276
 20
13.4303789805
 10
-10.0506673483
 20
13.4290799149
 10
-10.0562906969
 20
13.4279044172
 10
-10.0619418257
 20
13.4268545399
 10
-10.0669079215
 20
13.4260407521
 10
-10.0718940815
 20
13.4253272479
 10
-10.0769008215
 20
13.4247165613
 10
-10.0819286576
 20
13.4242112264
 10
-10.0869781057
 20
13.4238137771
 10
-10.0920496819
 20
13.4235267475
 10
-10.0971439021
 20
13.4233526714
 10
-10.1022612822
 20
13.4232940829
  0
LWPOLYLINE
  5
2A5
100
AcDbEntity
  8
0
100
AcDbPolyline
 62
253
  6
CONTINUOUS
 90
36
 70
0
 10
-13.029681763
 20
10.390639917
 10
-13.0337800747
 20
10.386631833
 10
-13.0379645675
 20
10.382738355
 10
-13.0422342037
 20
10.3789567513
 10
-13.0465879457
 20
10.3752842902
 10
-13.0510247557
 20
10.37171824
 10
-13.0555435962
 20
10.3682558691
 10
-13.0601434295
 20
10.3648944457
 10
-13.0648227601
 20
10.3616319062
 10
-13.0695782608
 20
10.3584688581
 10
-13.0744061466
 20
10.3554065773
 10
-13.0793026327
 20
10.3524463392
 10
-13.0842639339
 20
10.3495894196
 10
-13.0892862654
 20
10.346837094
 10
-13.0943658422
 20
10.3441906381
 10
-13.0994992141
 20
10.3416512516
 10
-13.1046842705
 20
10.3392198298
 10
-13.1099192356
 20
10.336897192
 10
-13.1152023338
 20
10.3346841577
 10
-13.1205317891
 20
10.3325815462
 10
-13.1259058259
 20
10.3305901769
 10
-13.1313226685
 20
10.3287108691
 10
-13.136780465
 20
10.3269446477
 10
-13.1422770599
 20
10.325293359
 10
-13.1478102218
 20
10.3237590552
 10
-13.1533777192
 20
10.322343788
 10
-13.1589773206
 20
10.3210496094
 10
-13.1646067945
 20
10.3198785714
 10
-13.1702639094
 20
10.3188327258
 10
-13.1759469332
 20
10.3179144076
 10
-13.1816561309
 20
10.3171270829
 10
-13.1873922668
 20
10.316474501
 10
-13.1931561054
 20
10.3159604109
 10
-13.198948411
 20
10.3155885619
 10
-13.2047699479
 20
10.3153627031
 10
-13.2106214806
 20
10.3152865837
  0
LWPOLYLINE
  5
2A6
100
AcDbEntity
  8
0
100
AcDbPolyline
 62
253
  6
CONTINUOUS
 90
53
 70
0
 10
-10.2832009998
 20
11.5099332501
 10
-10.2776380331
 20
11.5153106096
 10
-10.2719526915
 20
11.5204623133
 10
-10.2661341708
 20
11.5254047196
 10
-10.2601716671
 20
11.5301541866
 10
-10.2540543765
 20
11.5347270725
 10
-10.2477735654
 20
11.5391362541
 10
-10.2413287833
 20
11.5433806821
 10
-10.23472165
 20
11.5474558258
 10
-10.2279537854
 20
11.5513571545
 10
-10.2210268094
 20
11.5550801374
 10
-10.2139434618
 20
11.5586196311
 10
-10.2067109613
 20
11.5619680409
 10
-10.1993376465
 20
11.5651171592
 10
-10.191831856
 20
11.5680587785
 10
-10.1842019283
 20
11.5707846915
 10
-10.1777572838
 20
11.5728853057
 10
-10.1712516877
 20
11.5748239775
 10
-10.1647046038
 20
11.5765942601
 10
-10.1581301785
 20
11.578190916
 10
-10.1515212861
 20
11.5796135444
 10
-10.1448654836
 20
11.5808629538
 10
-10.1368052674
 20
11.5821331368
 10
-10.1286752101
 20
11.5831468607
 10
-10.1204909398
 20
11.5838959375
 10
-10.1122680845
 20
11.5843721793
 10
-10.1040222721
 20
11.584567398
 10
-10.0957686707
 20
11.5844757359
 10
-10.0875206084
 20
11.5841006555
 10
-10.0792909535
 20
11.5834479497
 10
-10.0710925741
 20
11.5825234112
 10
-10.0629383385
 20
11.5813328329
 10
-10.0561828462
 20
11.5801407124
 10
-10.0494545889
 20
11.5787656602
 10
-10.0427412097
 20
11.577205472
 10
-10.0360368179
 20
11.5754595438
 10
-10.0293613862
 20
11.5735336743
 10
-10.0227413534
 20
11.5714352624
 10
-10.0149019719
 20
11.5686994987
 10
-10.0071919573
 20
11.5657367242
 10
-9.9996228304
 20
11.562557734
 10
-9.9922061122
 20
11.5591733234
 10
-9.9849533236
 20
11.5555942877
 10
-9.9778738945
 20
11.5518303172
 10
-9.9709688914
 20
11.5478866836
 10
-9.9642372898
 20
11.5437675536
 10
-9.9576780652
 20
11.539477094
 10
-9.9512901933
 20
11.5350194717
 10
-9.945070962
 20
11.5303953613
 10
-9.9390109101
 20
11.5255914694
 10
-9.9330988887
 20
11.5205910105
 10
-9.927323749
 20
11.5153771993
 10
-9.9216743423
 20
11.5099332501
  0
LWPOLYLINE
  5
2A7
100
AcDbEntity
  8
0
100
AcDbPolyline
 62
253
  6
CONTINUOUS
 90
55
 70
0
 10
-11.3150050046
 20
-14.6626029178
 10
-11.3227370472
 20
-14.6624792071
 10
-11.33039625
 20
-14.6621106296
 10
-11.338002077
 20
-14.6615010173
 10
-11.3455739926
 20
-14.6606542023
 10
-11.3531314609
 20
-14.6595740166
 10
-11.3606899543
 20
-14.658263293
 10
-11.3682489788
 20
-14.6567208682
 10
-11.3758040485
 20
-14.6549445797
 10
-11.3833506776
 20
-14.6529322648
 10
-11.3908843802
 20
-14.6506817613
 10
-11.3983994608
 20
-14.6481912572
 10
-11.4058853848
 20
-14.6454603438
 10
-11.4133304078
 20
-14.6424889631
 10
-11.4207227854
 20
-14.639277057
 10
-11.4280507732
 20
-14.6358245676
 10
-11.434097849
 20
-14.632765185
 10
-11.4400737306
 20
-14.6295477337
 10
-11.4459600949
 20
-14.6261812571
 10
-11.4517432445
 20
-14.6226718873
 10
-11.4574279861
 20
-14.619014111
 10
-11.4630237523
 20
-14.6151995036
 10
-11.4685367406
 20
-14.6112215465
 10
-11.4739602071
 20
-14.6070813445
 10
-11.4792841727
 20
-14.6027819084
 10
-11.4844986584
 20
-14.5983262489
 10
-11.4895936851
 20
-14.5937173767
 10
-11.4945592736
 20
-14.5889583026
 10
-11.4993866302
 20
-14.5840528187
 10
-11.5040717025
 20
-14.5790078422
 10
-11.5086116235
 20
-14.5738310721
 10
-11.513003526
 20
-14.5685302068
 10
-11.5172445431
 20
-14.5631129452
 10
-11.5213318076
 20
-14.557586986
 10
-11.5252641418
 20
-14.5519570091
 10
-11.5290471259
 20
-14.5462156196
 10
-11.5326880294
 20
-14.5403524037
 10
-11.5361906505
 20
-14.5343627232
 10
-11.5395449028
 20
-14.528265041
 10
-11.5427372288
 20
-14.5220835955
 10
-11.5463390205
 20
-14.5145851055
 10
-11.5496876837
 20
-14.5070168903
 10
-11.5527827866
 20
-14.4993949409
 10
-11.5556238977
 20
-14.491735248
 10
-11.5582105855
 20
-14.4840538025
 10
-11.5605431142
 20
-14.4763643002
 10
-11.5626245331
 20
-14.4686712567
 10
-11.5644585871
 20
-14.4609768928
 10
-11.5660490213
 20
-14.4532834291
 10
-11.5673995808
 20
-14.4455930863
 10
-11.5685127036
 20
-14.4379043878
 10
-11.5693855989
 20
-14.4302010679
 10
-11.570014169
 20
-14.4224631638
 10
-11.5703943162
 20
-14.4146707125
 10
-11.5705219425
 20
-14.4068037512
  0
LINE
  5
2A8
100
AcDbEntity
  8
0
100
AcDbLine
 62
253
  6
CONTINUOUS
 10
-9.9785417053
 20
-12.9600620848
 11
-9.5211653281
 21
-13.2236223626
  0
LINE
  5
2A9
100
AcDbEntity
  8
0
100
AcDbLine
 62
253
  6
CONTINUOUS
 10
-12.8524457987
 20
-11.3003484742
 11
-12.3955985881
 21
-11.5645084741
  0
LWPOLYLINE
  5
2AA
100
AcDbEntity
  8
0
100
AcDbPolyline
 62
253
  6
CONTINUOUS
 90
53
 70
0
 10
-9.5211653281
 20
-13.2236223626
 10
-9.514532667
 20
-13.227605392
 10
-9.5080859006
 20
-13.2317651472
 10
-9.501806454
 20
-13.2361078606
 10
-9.4956757525
 20
-13.2406397644
 10
-9.4896752211
 20
-13.2453670911
 10
-9.4837901835
 20
-13.2502949674
 10
-9.478021557
 20
-13.255424099
 10
-9.4723741575
 20
-13.2607540858
 10
-9.4668528008
 20
-13.266284528
 10
-9.4614623027
 20
-13.2720150255
 10
-9.4562083538
 20
-13.2779442628
 10
-9.4511001432
 20
-13.2840672617
 10
-9.4461477347
 20
-13.2903781283
 10
-9.4413611922
 20
-13.2968709689
 10
-9.4367505795
 20
-13.3035398896
 10
-9.4330509576
 20
-13.3092253012
 10
-9.4294917454
 20
-13.315011832
 10
-9.4260841904
 20
-13.3208824164
 10
-9.422836998
 20
-13.3268248168
 10
-9.4197487051
 20
-13.3328461083
 10
-9.4168153067
 20
-13.338958194
 10
-9.4134972182
 20
-13.3464236947
 10
-9.4104084987
 20
-13.3540239868
 10
-9.4075612366
 20
-13.3617459771
 10
-9.4049675203
 20
-13.3695765728
 10
-9.4026394382
 20
-13.3775026808
 10
-9.4005866941
 20
-13.3855110716
 10
-9.3988094531
 20
-13.39358797
 10
-9.397305496
 20
-13.4017194644
 10
-9.3960726033
 20
-13.4098916429
 10
-9.3951085556
 20
-13.418090594
 10
-9.3945089865
 20
-13.4249369105
 10
-9.3940935136
 20
-13.4318047636
 10
-9.3938610767
 20
-13.4387067587
 10
-9.3938107448
 20
-13.4456487906
 10
-9.3939421052
 20
-13.4526099125
 10
-9.3942548743
 20
-13.4595624668
 10
-9.3948680888
 20
-13.4678609109
 10
-9.3957346189
 20
-13.4760931793
 10
-9.3968469598
 20
-13.4842452602
 10
-9.3981976063
 20
-13.492303142
 10
-9.3997790537
 20
-13.500252813
 10
-9.4015843318
 20
-13.508082598
 10
-9.4036086112
 20
-13.5157901672
 10
-9.4058475973
 20
-13.5233755271
 10
-9.4082969954
 20
-13.5308386844
 10
-9.4109525111
 20
-13.5381796457
 10
-9.4138127822
 20
-13.5454009336
 10
-9.4168881769
 20
-13.5525151351
 10
-9.4201919958
 20
-13.5595373533
 10
-9.4237375394
 20
-13.566482691
 10
-9.4275381083
 20
-13.5733662514
  0
LWPOLYLINE
  5
2AB
100
AcDbEntity
  8
0
100
AcDbPolyline
 62
253
  6
CONTINUOUS
 90
53
 70
0
 10
-12.3955985881
 20
-11.5645084741
 10
-12.3889695291
 20
-11.5684983043
 10
-12.3825250121
 20
-11.5726621388
 10
-12.3762463627
 20
-11.5770065177
 10
-12.3701149066
 20
-11.5815379808
 10
-12.3641119696
 20
-11.5862630682
 10
-12.3582228201
 20
-11.5911871783
 10
-12.3524484984
 20
-11.5963111435
 10
-12.3467939874
 20
-11.6016346544
 10
-12.3412642703
 20
-11.6071574017
 10
-12.3358643299
 20
-11.6128790762
 10
-12.3306000246
 20
-11.6187984574
 10
-12.3254807133
 20
-11.6249106792
 10
-12.3205166301
 20
-11.6312099646
 10
-12.315718009
 20
-11.6376905363
 10
-12.3110950843
 20
-11.6443466171
 10
-12.3073851492
 20
-11.650020986
 10
-12.3038156931
 20
-11.6557962819
 10
-12.3003980768
 20
-11.661655562
 10
-12.2971411106
 20
-11.6675867071
 10
-12.2940434033
 20
-11.6735968908
 10
-12.2911010135
 20
-11.6796981101
 10
-12.2877728063
 20
-11.6871510067
 10
-12.2846749159
 20
-11.6947392507
 10
-12.2818196778
 20
-11.7024498229
 10
-12.2792194275
 20
-11.7102697042
 10
-12.2768865003
 20
-11.7181858751
 10
-12.2748307818
 20
-11.7261851523
 10
-12.2730523581
 20
-11.7342536949
 10
-12.2715488655
 20
-11.7423774978
 10
-12.2703179402
 20
-11.7505425559
 10
-12.2693572185
 20
-11.758734864
 10
-12.2687613554
 20
-11.7655759501
 10
-12.2683503528
 20
-11.7724388335
 10
-12.2681230714
 20
-11.7793361134
 10
-12.2680784982
 20
-11.78627368
 10
-12.2682161251
 20
-11.7932305858
 10
-12.2685355702
 20
-11.8001791743
 10
-12.2691572079
 20
-11.8084731872
 10
-12.2700324995
 20
-11.8167013642
 10
-12.2711538306
 20
-11.824849672
 10
-12.2725135867
 20
-11.8329040774
 10
-12.2741041532
 20
-11.840850547
 10
-12.2759184502
 20
-11.8486773683
 10
-12.2779515356
 20
-11.8563821112
 10
-12.2801990023
 20
-11.8639646661
 10
-12.2826564427
 20
-11.8714249236
 10
-12.2853194496
 20
-11.8787627743
 10
-12.2881865946
 20
-11.8859806909
 10
-12.2912683649
 20
-11.8930914747
 10
-12.2945782268
 20
-11.9001105089
 10
-12.2981296466
 20
-11.9070531772
 10
-12.3019360905
 20
-11.9139348629
  0
LWPOLYLINE
  5
2AC
100
AcDbEntity
  8
0
100
AcDbPolyline
 62
253
  6
CONTINUOUS
 90
53
 70
0
 10
-10.3278269742
 20
-11.9139348629
 10
-10.3315876614
 20
-11.9071981821
 10
-10.3350995118
 20
-11.9004008005
 10
-10.3383755881
 20
-11.8935279256
 10
-10.3414289533
 20
-11.886564765
 10
-10.34427267
 20
-11.8794965262
 10
-10.3469169493
 20
-11.8723113618
 10
-10.3493605957
 20
-11.8650092045
 10
-10.3515995619
 20
-11.8575929322
 10
-10.3536298006
 20
-11.8500654227
 10
-10.3554472646
 20
-11.8424295537
 10
-10.3570476125
 20
-11.8346893897
 10
-10.3584253266
 20
-11.8268537422
 10
-10.3595745952
 20
-11.8189326095
 10
-10.3604896063
 20
-11.8109359896
 10
-10.3611645483
 20
-11.8028738809
 10
-10.3615397584
 20
-11.7961150374
 10
-10.3617428797
 20
-11.7893378048
 10
-10.3617725741
 20
-11.7825623295
 10
-10.3616272928
 20
-11.7758033371
 10
-10.3613046448
 20
-11.7690538724
 10
-10.3608020284
 20
-11.7623015595
 10
-10.3599577168
 20
-11.7541841139
 10
-10.3588463052
 20
-11.7460624472
 10
-10.3574635947
 20
-11.7379542609
 10
-10.3558053862
 20
-11.7298772564
 10
-10.3538674806
 20
-11.7218491351
 10
-10.3516478479
 20
-11.7138864671
 10
-10.3491531344
 20
-11.7060012977
 10
-10.3463921556
 20
-11.6982045407
 10
-10.3433737269
 20
-11.6905071101
 10
-10.3401066637
 20
-11.6829199199
 10
-10.3371987866
 20
-11.6766863783
 10
-10.3341189394
 20
-11.6705254777
 10
-10.3308616928
 20
-11.6644257243
 10
-10.3274249007
 20
-11.658381556
 10
-10.3238195486
 20
-11.6524111391
 10
-10.320059905
 20
-11.6465385717
 10
-10.3153629375
 20
-11.6396490533
 10
-10.3104780712
 20
-11.6329436067
 10
-10.3054190405
 20
-11.6264306991
 10
-10.3001995798
 20
-11.6201187977
 10
-10.2948334234
 20
-11.6140163698
 10
-10.289332652
 20
-11.608130106
 10
-10.2837027312
 20
-11.6024595903
 10
-10.2779474727
 20
-11.5970026302
 10
-10.2720706885
 20
-11.5917570333
 10
-10.2660761904
 20
-11.5867206069
 10
-10.2599639235
 20
-11.5818904321
 10
-10.2537183672
 20
-11.5772606834
 10
-10.247320134
 20
-11.5728248088
 10
-10.2407498366
 20
-11.5685762563
 10
-10.2339880877
 20
-11.5645084741
  0
LWPOLYLINE
  5
2AD
100
AcDbEntity
  8
0
100
AcDbPolyline
 62
253
  6
CONTINUOUS
 90
55
 70
0
 10
-14.2669792315
 20
12.504307972
 10
-14.2668540809
 20
12.5120809241
 10
-14.2664813114
 20
12.5197799226
 10
-14.2658649467
 20
12.5274242402
 10
-14.2650090103
 20
12.5350331496
 10
-14.263917526
 20
12.5426259235
 10
-14.2625934924
 20
12.5502179172
 10
-14.2610358083
 20
12.5578088162
 10
-14.2592423476
 20
12.5653943887
 10
-14.2572109842
 20
12.5729704029
 10
-14.254939592
 20
12.5805326269
 10
-14.2524264196
 20
12.5880755417
 10
-14.2496712143
 20
12.5955884786
 10
-14.2466740985
 20
12.6030594817
 10
-14.2434351943
 20
12.6104765952
 10
-14.2399546238
 20
12.6178278632
 10
-14.2368712012
 20
12.6238930296
 10
-14.2336295348
 20
12.6298854523
 10
-14.2302391201
 20
12.6357864164
 10
-14.2267065018
 20
12.6415819057
 10
-14.223026424
 20
12.6472766995
 10
-14.2191906801
 20
12.6528802755
 10
-14.2151929439
 20
12.6583989294
 10
-14.2110344098
 20
12.6638262269
 10
-14.2067181525
 20
12.6691525516
 10
-14.2022472464
 20
12.6743682868
 10
-14.1976247662
 20
12.6794638161
 10
-14.1928537865
 20
12.684429523
 10
-14.1879381741
 20
12.6892569115
 10
-14.1828849652
 20
12.6939419681
 10
-14.1777019882
 20
12.6984818
 10
-14.1723970715
 20
12.7028735142
 10
-14.1669780436
 20
12.7071142181
 10
-14.1614527329
 20
12.7112010186
 10
-14.1558259406
 20
12.7151327128
 10
-14.150090359
 20
12.7189148569
 10
-14.1442356534
 20
12.7225546971
 10
-14.1382571842
 20
12.7260560467
 10
-14.132173093
 20
12.7294089875
 10
-14.1260072168
 20
12.7326001686
 10
-14.1185295251
 20
12.7362010274
 10
-14.1109840989
 20
12.7395492317
 10
-14.1033866488
 20
12.7426442863
 10
-14.0957528855
 20
12.7454856961
 10
-14.0880985195
 20
12.7480729658
 10
-14.0804370229
 20
12.7504062909
 10
-14.072772914
 20
12.752488628
 10
-14.0651084722
 20
12.7543236247
 10
-14.0574459773
 20
12.7559149283
 10
-14.049787709
 20
12.757266186
 10
-14.0421322709
 20
12.7583797646
 10
-14.0344635636
 20
12.759252908
 10
-14.0267618115
 20
12.7598815796
 10
-14.0190072392
 20
12.7602617428
 10
-14.0111800713
 20
12.7603893609
  0
LWPOLYLINE
  5
2AE
100
AcDbEntity
  8
0
100
AcDbPolyline
 62
253
  6
CONTINUOUS
 90
55
 70
0
 10
-12.6841347315
 20
12.504307972
 10
-12.6842588457
 20
12.4965600793
 10
-12.6846285994
 20
12.4888852629
 10
-12.6852401089
 20
12.4812641212
 10
-12.6860894908
 20
12.4736772529
 10
-12.6871728614
 20
12.4661052566
 10
-12.6884873454
 20
12.4585326978
 10
-12.6900340994
 20
12.4509600104
 10
-12.6918152884
 20
12.4433915951
 10
-12.6938330772
 20
12.4358318528
 10
-12.6960896306
 20
12.4282851844
 10
-12.6985867566
 20
12.4207572269
 10
-12.7013248356
 20
12.4132585629
 10
-12.7043038911
 20
12.4058010112
 10
-12.7075239465
 20
12.3983963907
 10
-12.7109850255
 20
12.39105652
 10
-12.7140518597
 20
12.3849998867
 10
-12.7172769195
 20
12.379014889
 10
-12.7206510363
 20
12.3731199896
 10
-12.7241679654
 20
12.3673289975
 10
-12.7278331554
 20
12.3616371059
 10
-12.7316549781
 20
12.3560348544
 10
-12.7356399094
 20
12.3505160087
 10
-12.7397868409
 20
12.3450872393
 10
-12.7440927681
 20
12.3397584433
 10
-12.7485546863
 20
12.3345395174
 10
-12.7531695912
 20
12.3294403587
 10
-12.7579344781
 20
12.3244708639
 10
-12.762845552
 20
12.3196397627
 10
-12.7678958551
 20
12.314951115
 10
-12.7730776393
 20
12.3104078133
 10
-12.7783831563
 20
12.3060127503
 10
-12.7838046577
 20
12.3017688185
 10
-12.7893343955
 20
12.2976789105
 10
-12.7949676432
 20
12.2937442231
 10
-12.8007117625
 20
12.2899591697
 10
-12.8065771368
 20
12.2863164678
 10
-12.8125683919
 20
12.2828122999
 10
-12.8186671217
 20
12.2794567077
 10
-12.8248491623
 20
12.2762631976
 10
-12.8323478568
 20
12.2726601337
 10
-12.839915758
 20
12.269310351
 10
-12.8475369011
 20
12.2662142829
 10
-12.8551953212
 20
12.2633723629
 10
-12.8628750536
 20
12.2607850242
 10
-12.8705624118
 20
12.2584520025
 10
-12.8782528229
 20
12.2563702421
 10
-12.8859439921
 20
12.2545359894
 10
-12.893633625
 20
12.252945491
 10
-12.9013194268
 20
12.2515949932
 10
-12.9090028275
 20
12.2504820417
 10
-12.9167001544
 20
12.2496093783
 10
-12.9244314592
 20
12.2489810442
 10
-12.9322167937
 20
12.2486010804
 10
-12.9400762098
 20
12.2484735277
  0
LWPOLYLINE
  5
2AF
100
AcDbEntity
  8
0
100
AcDbPolyline
 62
253
  6
CONTINUOUS
 90
37
 70
0
 10
-9.1640488061
 20
10.390639917
 10
-9.1681566017
 20
10.3866543823
 10
-9.1723485579
 20
10.3827808805
 10
-9.1766237094
 20
10.3790168377
 10
-9.1809810907
 20
10.3753596803
 10
-9.1854197365
 20
10.3718068345
 10
-9.1899386814
 20
10.3683557266
 10
-9.1945369601
 20
10.3650037829
 10
-9.1992131892
 20
10.3617490721
 10
-9.2039643137
 20
10.3585922329
 10
-9.2087868608
 20
10.3555345465
 10
-9.2136773576
 20
10.3525772941
 10
-9.2186323311
 20
10.3497217568
 10
-9.2236483087
 20
10.3469692159
 10
-9.2287218172
 20
10.3443209525
 10
-9.2338496605
 20
10.3417782051
 10
-9.2390297486
 20
10.3393420418
 10
-9.2442602679
 20
10.3370134879
 10
-9.2495394053
 20
10.3347935688
 10
-9.2548653471
 20
10.3326833098
 10
-9.2602362801
 20
10.3306837364
 10
-9.2656503909
 20
10.328795874
 10
-9.2711057993
 20
10.3270209374
 10
-9.276600359
 20
10.3253609006
 10
-9.2821318568
 20
10.3238179269
 10
-9.2876980797
 20
10.3223941797
 10
-9.2932968147
 20
10.3210918224
 10
-9.2989258486
 20
10.3199130185
 10
-9.3045829683
 20
10.3188599314
 10
-9.3095545794
 20
10.3180434963
 10
-9.3145465082
 20
10.3173275492
 10
-9.3195592635
 20
10.31671467
 10
-9.3245933541
 20
10.3162074384
 10
-9.3296492888
 20
10.3158084341
 10
-9.3347275764
 20
10.3155202371
 10
-9.3398287259
 20
10.315345427
 10
-9.3449532459
 20
10.3152865837
  0
LWPOLYLINE
  5
2B0
100
AcDbEntity
  8
0
100
AcDbPolyline
 62
253
  6
CONTINUOUS
 90
29
 70
0
 10
-9.6496806656
 20
-13.7007895847
 10
-9.6544366783
 20
-13.7007439898
 10
-9.6591825605
 20
-13.7006077725
 10
-9.6639189484
 20
-13.700381784
 10
-9.6686464784
 20
-13.7000668754
 10
-9.6733657866
 20
-13.699663898
 10
-9.6780775094
 20
-13.6991737029
 10
-9.6827822829
 20
-13.6985971412
 10
-9.6874803199
 20
-13.6979349693
 10
-9.6921701387
 20
-13.697187565
 10
-9.6968498338
 20
-13.6963552112
 10
-9.7015175001
 20
-13.6954381907
 10
-9.7061712322
 20
-13.6944367866
 10
-9.7108091248
 20
-13.6933512816
 10
-9.7154292725
 20
-13.6921819588
 10
-9.7200297719
 20
-13.6909290861
 10
-9.724608726
 20
-13.6895928712
 10
-9.72916424
 20
-13.6881735068
 10
-9.7336944188
 20
-13.6866711857
 10
-9.7381973673
 20
-13.6850861007
 10
-9.7426711906
 20
-13.6834184445
 10
-9.7471139936
 20
-13.6816684099
 10
-9.7515241615
 20
-13.6798359009
 10
-9.7559012006
 20
-13.677919667
 10
-9.7602448973
 20
-13.6759181689
 10
-9.7645550379
 20
-13.6738298676
 10
-9.768831409
 20
-13.6716532236
 10
-9.773073797
 20
-13.6693866979
 10
-9.7772819883
 20
-13.6670287513
  0
LWPOLYLINE
  5
2B1
100
AcDbEntity
  8
0
100
AcDbPolyline
 62
253
  6
CONTINUOUS
 90
43
 70
0
 10
-12.9802219065
 20
-13.7007895847
 10
-12.9856365131
 20
-13.7007195163
 10
-12.9910241497
 20
-13.7005111769
 10
-12.996391383
 20
-13.7001673657
 10
-13.0017447795
 20
-13.6996908814
 10
-13.0070909059
 20
-13.699084523
 10
-13.0124363287
 20
-13.6983510894
 10
-13.0188570971
 20
-13.6973063735
 10
-13.0252853184
 20
-13.6960827519
 10
-13.031720003
 20
-13.694680277
 10
-13.0381601609
 20
-13.6930990009
 10
-13.0446048024
 20
-13.6913389759
 10
-13.0510511629
 20
-13.6894009479
 10
-13.0574893789
 20
-13.6872884384
 10
-13.0639078123
 20
-13.6850056626
 10
-13.0702948248
 20
-13.6825568357
 10
-13.0766387783
 20
-13.679946173
 10
-13.0829290857
 20
-13.6771777391
 10
-13.0891593644
 20
-13.6742549957
 10
-13.095324283
 20
-13.6711812542
 10
-13.1014185098
 20
-13.6679598255
 10
-13.1074367134
 20
-13.6645940209
 10
-13.113373391
 20
-13.6610871501
 10
-13.1192223542
 20
-13.6574425174
 10
-13.1249772436
 20
-13.6536634257
 10
-13.1306316995
 20
-13.6497531776
 10
-13.1361793622
 20
-13.6457150762
 10
-13.1416133188
 20
-13.6415532799
 10
-13.1469244422
 20
-13.6372753699
 10
-13.152103052
 20
-13.6328897829
 10
-13.1571394676
 20
-13.6284049556
 10
-13.1620240086
 20
-13.623829325
 10
-13.1667486264
 20
-13.6191700126
 10
-13.1713118
 20
-13.6144288798
 10
-13.1757136404
 20
-13.6096064727
 10
-13.1799542584
 20
-13.6047033376
 10
-13.184033765
 20
-13.5997200205
 10
-13.1873105018
 20
-13.5955052263
 10
-13.1904763318
 20
-13.5912284019
 10
-13.1935321543
 20
-13.5868828198
 10
-13.1964788683
 20
-13.5824617523
 10
-13.199317373
 20
-13.5779584721
 10
-13.2020485675
 20
-13.5733662514
  0
LWPOLYLINE
  5
2B2
100
AcDbEntity
  8
0
100
AcDbPolyline
 62
253
  6
CONTINUOUS
 90
55
 70
0
 10
-11.3150050046
 20
-13.041306807
 10
-11.3315257066
 20
-13.0410470161
 10
-11.3479266714
 20
-13.0402707248
 10
-11.364251769
 20
-13.0389825554
 10
-11.3805448695
 20
-13.0371871299
 10
-11.3968498429
 20
-13.0348890707
 10
-11.4132024601
 20
-13.032090352
 10
-11.4296060947
 20
-13.0287823573
 10
-11.446056021
 20
-13.0249538221
 10
-11.4625475135
 20
-13.0205934819
 10
-11.4790758465
 20
-13.0156900724
 10
-11.4956311709
 20
-13.0102338344
 10
-11.5121831435
 20
-13.0042210308
 10
-11.5286962978
 20
-12.9976494295
 10
-11.5451351672
 20
-12.9905167986
 10
-11.561464285
 20
-12.9828209063
 10
-11.5749568626
 20
-12.9759806921
 10
-11.588294498
 20
-12.9687759346
 10
-11.601423095
 20
-12.9612347945
 10
-11.6143025617
 20
-12.9533766087
 10
-11.6269488244
 20
-12.9451854201
 10
-11.6393918138
 20
-12.936636448
 10
-11.6516521813
 20
-12.9277105904
 10
-11.6637134614
 20
-12.9184114602
 10
-11.6755499091
 20
-12.9087483488
 10
-11.6871357795
 20
-12.8987305478
 10
-11.698445328
 20
-12.8883673489
 10
-11.7094528095
 20
-12.8776680435
 10
-11.7201353146
 20
-12.8666445489
 10
-11.7304812753
 20
-12.855319285
 10
-11.7404819587
 20
-12.8437172976
 10
-11.7501286322
 20
-12.8318636323
 10
-11.759412563
 20
-12.8197833349
 10
-11.7683250185
 20
-12.8075014509
 10
-11.7768627911
 20
-12.7950337434
 10
-11.7850447744
 20
-12.7823588446
 10
-11.7928953871
 20
-12.769446104
 10
-11.8004299746
 20
-12.7562795596
 10
-11.8076275881
 20
-12.7429020037
 10
-11.8144582056
 20
-12.7293709169
 10
-11.8221373383
 20
-12.7130016768
 10
-11.8292474721
 20
-12.6965322036
 10
-11.8357913146
 20
-12.6800005762
 10
-11.841771573
 20
-12.6634448739
 10
-11.8471909548
 20
-12.6469031757
 10
-11.8520538809
 20
-12.6304077079
 10
-11.8563716259
 20
-12.6139672855
 10
-11.8601571781
 20
-12.5975848707
 10
-11.8634235256
 20
-12.5812634255
 10
-11.8661836566
 20
-12.5650059123
 10
-11.8684477918
 20
-12.5488075418
 10
-11.8702150819
 20
-12.5326325196
 10
-11.8714819099
 20
-12.5164372999
 10
-11.8722446591
 20
-12.5001783369
 10
-11.8724997126
 20
-12.483812085
  0
LWPOLYLINE
  5
2B3
100
AcDbEntity
  8
0
100
AcDbPolyline
 62
253
  6
CONTINUOUS
 90
55
 70
0
 10
-11.3150050046
 20
-13.6232843069
 10
-11.3072571996
 20
-13.6234081801
 10
-11.2995824331
 20
-13.6237772377
 10
-11.2919612393
 20
-13.6243876363
 10
-11.2843741525
 20
-13.6252355325
 10
-11.2768017068
 20
-13.6263170832
 10
-11.269228421
 20
-13.6276294494
 10
-11.2616547509
 20
-13.62917381
 10
-11.254085137
 20
-13.6309523482
 10
-11.2465240197
 20
-13.6329672473
 10
-11.2389758392
 20
-13.6352206907
 10
-11.2314462658
 20
-13.6377145047
 10
-11.2239458887
 20
-13.6404490887
 10
-11.2164865269
 20
-13.6434244849
 10
-11.2090799994
 20
-13.6466407359
 10
-11.2017381252
 20
-13.6500978839
 10
-11.1956797453
 20
-13.6531613639
 10
-11.189692914
 20
-13.656383032
 10
-11.183796074
 20
-13.6597537573
 10
-11.1780030168
 20
-13.6632673279
 10
-11.1723089287
 20
-13.6669292083
 10
-11.1667043448
 20
-13.6707477821
 10
-11.1611830317
 20
-13.6747295344
 10
-11.1557516829
 20
-13.6788733555
 10
-11.1504202233
 20
-13.6831762375
 10
-11.1451985778
 20
-13.6876351721
 10
-11.1400966716
 20
-13.6922471513
 10
-11.1351244297
 20
-13.697009167
 10
-11.1302906039
 20
-13.7019174234
 10
-11.1255992542
 20
-13.7069649739
 10
-11.1210532673
 20
-13.7121440842
 10
-11.1166555301
 20
-13.7174470201
 10
-11.1124089292
 20
-13.7228660474
 10
-11.1083163516
 20
-13.7283934318
 10
-11.1043789883
 20
-13.734024459
 10
-11.1005912471
 20
-13.7397664949
 10
-11.0969458402
 20
-13.7456299252
 10
-11.0934389506
 20
-13.7516193746
 10
-11.0900806443
 20
-13.7577164233
 10
-11.0868844579
 20
-13.7638968903
 10
-11.0832782674
 20
-13.7713938202
 10
-11.0799254641
 20
-13.7789600915
 10
-11.0768264895
 20
-13.7865797436
 10
-11.0739817852
 20
-13.7942368161
 10
-11.0713917928
 20
-13.8019153484
 10
-11.0690562572
 20
-13.8096016666
 10
-11.0669721378
 20
-13.8172912433
 10
-11.0651356976
 20
-13.8249818373
 10
-11.0635431993
 20
-13.8326712079
 10
-11.062190906
 20
-13.840357114
 10
-11.0610763847
 20
-13.8480410147
 10
-11.0602024189
 20
-13.8557391694
 10
-11.0595730965
 20
-13.8634715375
 10
-11.0591925054
 20
-13.8712580783
 10
-11.0590647333
 20
-13.8791187513
  0
LWPOLYLINE
  5
2B4
100
AcDbEntity
  8
0
100
AcDbPolyline
 62
253
  6
CONTINUOUS
 90
53
 70
0
 10
-9.4275381083
 20
-11.3946106963
 10
-9.42378869
 20
-11.4013639458
 10
-9.4202884131
 20
-11.4081772175
 10
-9.4170243003
 20
-11.4150651757
 10
-9.4139833741
 20
-11.4220424847
 10
-9.4111526571
 20
-11.4291238088
 10
-9.4085219956
 20
-11.4363209064
 10
-9.4060925309
 20
-11.443633913
 10
-9.4038682282
 20
-11.4510600582
 10
-9.4018530524
 20
-11.4585965716
 10
-9.4000509687
 20
-11.4662406827
 10
-9.3984662408
 20
-11.4739883984
 10
-9.3971043275
 20
-11.4818308349
 10
-9.3959709862
 20
-11.4897578854
 10
-9.3950719744
 20
-11.4977594435
 10
-9.3944130495
 20
-11.5058254024
 10
-9.3940511461
 20
-11.5125865229
 10
-9.3938611831
 20
-11.5193650045
 10
-9.3938443757
 20
-11.5261405041
 10
-9.3940021511
 20
-11.5328981123
 10
-9.3943367846
 20
-11.5396446544
 10
-9.3948507637
 20
-11.5463923897
 10
-9.3957077147
 20
-11.5545020889
 10
-9.3968304299
 20
-11.5626138304
 10
-9.3982228341
 20
-11.5707102852
 10
-9.3998888521
 20
-11.5787741244
 10
-9.4018324086
 20
-11.5867880189
 10
-9.4040552942
 20
-11.5947357103
 10
-9.4065507627
 20
-11.6026052219
 10
-9.4093099335
 20
-11.6103856475
 10
-9.412323926
 20
-11.6180660808
 10
-9.4155838599
 20
-11.6256356155
 10
-9.4184836871
 20
-11.6318539303
 10
-9.4215535053
 20
-11.6379990563
 10
-9.4247986799
 20
-11.6440823917
 10
-9.4282213414
 20
-11.650109479
 10
-9.4318106807
 20
-11.6560624388
 10
-9.4355526538
 20
-11.6619175364
 10
-9.4402265229
 20
-11.6687864986
 10
-9.4450864858
 20
-11.6754719968
 10
-9.450119067
 20
-11.6819656665
 10
-9.455310791
 20
-11.688259143
 10
-9.4606481821
 20
-11.6943440619
 10
-9.4661193849
 20
-11.700213805
 10
-9.4717190228
 20
-11.70586874
 10
-9.4774433393
 20
-11.7113109809
 10
-9.4832885779
 20
-11.716542642
 10
-9.489250982
 20
-11.7215658372
 10
-9.4953306056
 20
-11.7263834068
 10
-9.5015427451
 20
-11.7310010955
 10
-9.5079065074
 20
-11.7354253743
 10
-9.5144409994
 20
-11.7396627139
 10
-9.5211653281
 20
-11.7437195852
  0
LWPOLYLINE
  5
2B5
100
AcDbEntity
  8
0
100
AcDbPolyline
 62
253
  6
CONTINUOUS
 90
55
 70
0
 10
-11.5705219425
 20
-11.0879409742
 10
-11.5703974672
 20
-11.09570968
 10
-11.5700266657
 20
-11.1034046615
 10
-11.5694134742
 20
-11.1110452926
 10
-11.5685618293
 20
-11.1186509468
 10
-11.5674756674
 20
-11.126240998
 10
-11.5661579049
 20
-11.1338308758
 10
-11.5646073785
 20
-11.1414202331
 10
-11.5628219049
 20
-11.1490047788
 10
-11.5607993009
 20
-11.1565802219
 10
-11.5585373832
 20
-11.1641422713
 10
-11.55603434
 20
-11.1716853571
 10
-11.5532898447
 20
-11.1791987942
 10
-11.5503039424
 20
-11.1866706188
 10
-11.547076678
 20
-11.194088867
 10
-11.5436080966
 20
-11.201441575
 10
-11.5405348663
 20
-11.207508172
 10
-11.5373034799
 20
-11.2135022464
 10
-11.533923331
 20
-11.2194050975
 10
-11.5304008732
 20
-11.2252027242
 10
-11.5267307991
 20
-11.2308999209
 10
-11.5229048606
 20
-11.2365061816
 10
-11.5189166887
 20
-11.2420278008
 10
-11.5147674294
 20
-11.2474582778
 10
-11.5104601075
 20
-11.2527879125
 10
-11.5059977477
 20
-11.258007005
 10
-11.501383375
 20
-11.2631058554
 10
-11.4966200139
 20
-11.2680747639
 10
-11.49171149
 20
-11.2729051639
 10
-11.4866648316
 20
-11.277593023
 10
-11.4814878674
 20
-11.2821354423
 10
-11.4761884263
 20
-11.2865295228
 10
-11.4707743373
 20
-11.2907723657
 10
-11.4652534291
 20
-11.2948610718
 10
-11.4596305061
 20
-11.2987944405
 10
-11.4538982737
 20
-11.3025780631
 10
-11.4480464127
 20
-11.3062192292
 10
-11.4420703078
 20
-11.309721784
 10
-11.4359881593
 20
-11.3130757945
 10
-11.4298238714
 20
-11.3162678834
 10
-11.4223477044
 20
-11.319869593
 10
-11.4148034566
 20
-11.3232184057
 10
-11.407206906
 20
-11.3263138549
 10
-11.3995738305
 20
-11.329155474
 10
-11.391920008
 20
-11.3317427967
 10
-11.3842589723
 20
-11.3340760478
 10
-11.3765952805
 20
-11.3361582174
 10
-11.3689312453
 20
-11.3379929868
 10
-11.3612691795
 20
-11.3395840375
 10
-11.3536113961
 20
-11.3409350509
 10
-11.3459565065
 20
-11.3420484223
 10
-11.3382883174
 20
-11.3429214023
 10
-11.3305869338
 20
-11.3435499556
 10
-11.3228324612
 20
-11.3439300469
 10
-11.3150050046
 20
-11.3440576408
  0
LWPOLYLINE
  5
2B6
100
AcDbEntity
  8
0
100
AcDbPolyline
 62
253
  6
CONTINUOUS
 90
55
 70
0
 10
-11.5335159679
 20
14.166208805
 10
-11.5333913186
 20
14.1584555494
 10
-11.5330200171
 20
14.1507755346
 10
-11.5324060326
 20
14.1431495043
 10
-11.5315533347
 20
14.1355582019
 10
-11.5304658925
 20
14.1279823709
 10
-11.5291466596
 20
14.1204066788
 10
-11.5275945252
 20
14.1128314884
 10
-11.5258073627
 20
14.1052610861
 10
-11.5237830452
 20
14.0976997586
 10
-11.5215194461
 20
14.0901517924
 10
-11.519014803
 20
14.082622736
 10
-11.5162688109
 20
14.0751231847
 10
-11.5132815291
 20
14.0676649959
 10
-11.5100530169
 20
14.0602600267
 10
-11.5065833335
 20
14.0529201344
 10
-11.5035092933
 20
14.0468637731
 10
-11.500277136
 20
14.0408793984
 10
-11.496896183
 20
14.0349855704
 10
-11.4933728209
 20
14.0291961748
 10
-11.4897016957
 20
14.0235063992
 10
-11.4858745184
 20
14.0179067567
 10
-11.4818848871
 20
14.0123909718
 10
-11.4777339477
 20
14.0069656135
 10
-11.4734247332
 20
14.001640462
 10
-11.4689602766
 20
13.9964252977
 10
-11.4643436108
 20
13.9913299008
 10
-11.4595777688
 20
13.9863640515
 10
-11.4546665708
 20
13.9815363857
 10
-11.4496169863
 20
13.9768509614
 10
-11.4444367722
 20
13.9723106923
 10
-11.4391336851
 20
13.9679184919
 10
-11.4337154819
 20
13.9636772739
 10
-11.4281899194
 20
13.9595899519
 10
-11.4225617333
 20
13.9556577414
 10
-11.4168235753
 20
13.9518750655
 10
-11.4109650764
 20
13.9482346493
 10
-11.4049816022
 20
13.9447326742
 10
-11.3988914585
 20
13.9413791478
 10
-11.3927186862
 20
13.9381875342
 10
-11.3852318609
 20
13.9345864789
 10
-11.3776765444
 20
13.931238425
 10
-11.3700686119
 20
13.9281438312
 10
-11.3624239389
 20
13.9253031562
 10
-11.3547584006
 20
13.9227168589
 10
-11.3470856029
 20
13.9203847004
 10
-11.3394100733
 20
13.9183036527
 10
-11.3317340699
 20
13.9164699901
 10
-11.3240598507
 20
13.914879987
 10
-11.3163896736
 20
13.9135299178
 10
-11.3087221036
 20
13.9124173485
 10
-11.3010409328
 20
13.9115450117
 10
-11.2933262605
 20
13.9109169316
 10
-11.2855581858
 20
13.9105371324
 10
-11.2777168077
 20
13.9104096384
  0
LWPOLYLINE
  5
2B7
100
AcDbEntity
  8
0
100
AcDbPolyline
 62
253
  6
CONTINUOUS
 90
55
 70
0
 10
-11.0590647333
 20
-10.5605381966
 10
-11.0591886045
 20
-10.5527824657
 10
-11.0595576588
 20
-10.5450999024
 10
-11.060168057
 20
-10.5374710113
 10
-11.0610159598
 20
-10.5298762968
 10
-11.0620975282
 20
-10.5222962637
 10
-11.0634099305
 20
-10.5147154044
 10
-11.064954366
 20
-10.5071341644
 10
-11.0667330412
 20
-10.4995569769
 10
-11.068748163
 20
-10.4919882753
 10
-11.0710019381
 20
-10.484432493
 10
-11.0734962155
 20
-10.4768953011
 10
-11.0762314134
 20
-10.4693873221
 10
-11.0792075922
 20
-10.4619204161
 10
-11.0824248122
 20
-10.4545064433
 10
-11.0858831339
 20
-10.447157264
 10
-11.0889477561
 20
-10.44109294
 10
-11.0921707006
 20
-10.4351003548
 10
-11.0955428159
 20
-10.4291980156
 10
-11.0990578735
 20
-10.4233997661
 10
-11.1027213357
 20
-10.4177007967
 10
-11.1065415879
 20
-10.4120916346
 10
-11.11052512
 20
-10.4065660385
 10
-11.1146708425
 20
-10.4011306935
 10
-11.1189757703
 20
-10.3957955165
 10
-11.1234369186
 20
-10.3905704243
 10
-11.1280513027
 20
-10.3854653338
 10
-11.1328159377
 20
-10.3804901617
 10
-11.1377270406
 20
-10.375653654
 10
-11.1427776352
 20
-10.3709598729
 10
-11.1479599473
 20
-10.3664117101
 10
-11.1532662025
 20
-10.3620120568
 10
-11.1586886266
 20
-10.3577638047
 10
-11.1642194452
 20
-10.3536698451
 10
-11.1698539082
 20
-10.3497313695
 10
-11.1755993622
 20
-10.34594277
 10
-11.1814661778
 20
-10.3422967386
 10
-11.1874589686
 20
-10.3387894358
 10
-11.1935593204
 20
-10.3354308952
 10
-11.1997430615
 20
-10.3322346192
 10
-11.2072438901
 20
-10.3286284702
 10
-11.2148140163
 20
-10.3252758493
 10
-11.2224374636
 20
-10.3221771804
 10
-11.2300982557
 20
-10.3193328877
 10
-11.2377804165
 20
-10.3167433951
 10
-11.2454702444
 20
-10.3144084298
 10
-11.253163138
 20
-10.3123249319
 10
-11.2608567706
 20
-10.3104891442
 10
-11.2685488157
 20
-10.3088973099
 10
-11.2762369467
 20
-10.307545672
 10
-11.2839225773
 20
-10.3064317744
 10
-11.2916220827
 20
-10.3055583638
 10
-11.2993555787
 20
-10.3049294878
 10
-11.3071431808
 20
-10.304549194
 10
-11.3150050046
 20
-10.30442153
  0
LWPOLYLINE
  5
2B8
100
AcDbEntity
  8
0
100
AcDbPolyline
 62
253
  6
CONTINUOUS
 90
55
 70
0
 10
-11.0220587587
 20
15.2374538047
 10
-11.0221825195
 20
15.2452008534
 10
-11.0225512286
 20
15.2528749961
 10
-11.0231610262
 20
15.2604955821
 10
-11.0240080525
 20
15.2680819605
 10
-11.0250884475
 20
15.2756534804
 10
-11.0263993635
 20
15.283225543
 10
-11.0279420006
 20
15.2907977579
 10
-11.0297185708
 20
15.2983657866
 10
-11.0317312863
 20
15.3059252907
 10
-11.0339823593
 20
15.3134719317
 10
-11.0364736446
 20
15.3210001167
 10
-11.0392055687
 20
15.328499234
 10
-11.0421782007
 20
15.3359574176
 10
-11.0453916097
 20
15.3433628013
 10
-11.0488458649
 20
15.3507035192
 10
-11.0519069053
 20
15.3567608809
 10
-11.0551260762
 20
15.3627465599
 10
-11.0584942059
 20
15.3686420205
 10
-11.0620050531
 20
15.3744334041
 10
-11.0656640993
 20
15.3801255602
 10
-11.0694797563
 20
15.3857280153
 10
-11.0734585397
 20
15.3912470547
 10
-11.077599379
 20
15.3966759999
 10
-11.0818993074
 20
15.4020049313
 10
-11.0863553581
 20
15.4072239292
 10
-11.0909645642
 20
15.4123230742
 10
-11.0957239588
 20
15.4172924467
 10
-11.100629773
 20
15.4221232962
 10
-11.1056750292
 20
15.4268115494
 10
-11.1108519481
 20
15.431354302
 10
-11.1161527499
 20
15.4357486498
 10
-11.1215696551
 20
15.4399916885
 10
-11.1270948841
 20
15.444080514
 10
-11.1327236883
 20
15.4480139294
 10
-11.1384634427
 20
15.4517975675
 10
-11.1443245534
 20
15.4554387684
 10
-11.1503116573
 20
15.4589413959
 10
-11.1564063159
 20
15.4622954073
 10
-11.1625843216
 20
15.4654872835
 10
-11.1700781643
 20
15.469088307
 10
-11.1776411492
 20
15.4724359809
 10
-11.1852572578
 20
15.4755298981
 10
-11.1929104713
 20
15.4783696513
 10
-11.2005847711
 20
15.4809548332
 10
-11.2082664252
 20
15.4832857367
 10
-11.2159508477
 20
15.4853654548
 10
-11.2236357395
 20
15.4871977804
 10
-11.2313188014
 20
15.4887865064
 10
-11.2389977342
 20
15.490135426
 10
-11.2466739732
 20
15.4912470302
 10
-11.254363892
 20
15.4921186039
 10
-11.2620875986
 20
15.49274613
 10
-11.2698652012
 20
15.4931255915
 10
-11.2777168077
 20
15.4932529713
  0
LINE
  5
2B9
100
AcDbEntity
  8
0
100
AcDbLine
 62
253
  6
CONTINUOUS
 10
-11.5705219425
 20
-10.5605381966
 11
-11.5705219425
 21
-11.0879409575
  0
LINE
  5
2BA
100
AcDbEntity
  8
0
100
AcDbLine
 62
253
  6
CONTINUOUS
 10
-11.5705219425
 20
-14.4068037512
 11
-11.5705219425
 21
-13.879118752
  0
LINE
  5
2BB
100
AcDbEntity
  8
0
100
AcDbLine
 62
253
  6
CONTINUOUS
 10
-11.5335159679
 20
15.2374538047
 11
-11.5335159679
 21
14.1662088051
  0
LINE
  5
2BC
100
AcDbEntity
  8
0
100
AcDbLine
 62
253
  6
CONTINUOUS
 10
-11.5335159679
 20
9.7704918616
 11
-11.5335159679
 21
10.8423718556
  0
LINE
  5
2BD
100
AcDbEntity
  8
0
100
AcDbLine
 62
253
  6
CONTINUOUS
 10
-11.0590647333
 20
-13.8791187513
 11
-11.0590647333
 21
-14.4068037505
  0
LINE
  5
2BE
100
AcDbEntity
  8
0
100
AcDbLine
 62
253
  6
CONTINUOUS
 10
-11.0590647333
 20
-11.0879409742
 11
-11.0590647333
 21
-10.5605382132
  0
LINE
  5
2BF
100
AcDbEntity
  8
0
100
AcDbLine
 62
253
  6
CONTINUOUS
 10
-11.0220587587
 20
10.8423718614
 11
-11.0220587587
 21
9.7704918675
  0
LINE
  5
2C0
100
AcDbEntity
  8
0
100
AcDbLine
 62
253
  6
CONTINUOUS
 10
-11.0220587587
 20
14.166208805
 11
-11.0220587587
 21
15.2374538047
  0
LWPOLYLINE
  5
2C1
100
AcDbEntity
  8
0
100
AcDbPolyline
 62
253
  6
CONTINUOUS
 90
57
 70
0
 10
-12.0909753981
 20
12.504307972
 10
-12.0906772133
 20
12.5255106677
 10
-12.0897844166
 20
12.5466777977
 10
-12.0882996443
 20
12.5678503796
 10
-12.0862255329
 20
12.5890694306
 10
-12.0835627879
 20
12.6103683435
 10
-12.0803043917
 20
12.6317500119
 10
-12.0764413957
 20
12.6532097045
 10
-12.0719648515
 20
12.6747426902
 10
-12.0668676864
 20
12.6963383488
 10
-12.0611503313
 20
12.717962504
 10
-12.0548150929
 20
12.7395750904
 10
-12.047864278
 20
12.7611360426
 10
-12.0402994074
 20
12.782609032
 10
-12.0321188586
 20
12.8039726766
 10
-12.0233202235
 20
12.8252093308
 10
-12.0139010937
 20
12.8463013492
 10
-12.0038605328
 20
12.8672284866
 10
-11.9932034929
 20
12.8879600974
 10
-11.9819363979
 20
12.9084629366
 10
-11.9700656716
 20
12.9287037587
 10
-11.9575944712
 20
12.94865341
 10
-11.9445128865
 20
12.9682991029
 10
-11.9308077407
 20
12.9876321414
 10
-11.9164658568
 20
13.0066438294
 10
-11.9014801519
 20
13.025317671
 10
-11.8858679189
 20
13.0436059708
 10
-11.8696525447
 20
13.0614532333
 10
-11.8528574163
 20
13.0788039633
 10
-11.835512183
 20
13.0956073011
 10
-11.817671544
 20
13.1118309298
 10
-11.7993964611
 20
13.1274471682
 10
-11.7807478958
 20
13.1424283353
 10
-11.7617773745
 20
13.1567544489
 10
-11.7424986819
 20
13.1704363233
 10
-11.7229161675
 20
13.1834924719
 10
-11.7030341805
 20
13.1959414081
 10
-11.6828580421
 20
13.2077985832
 10
-11.6623969599
 20
13.2190672003
 10
-11.6416611135
 20
13.2297474006
 10
-11.6206606822
 20
13.2398393252
 10
-11.5994110958
 20
13.2493410615
 10
-11.5779487858
 20
13.2582424826
 10
-11.5563154339
 20
13.2665314081
 10
-11.5345527219
 20
13.2741956575
 10
-11.5127054433
 20
13.2812246892
 10
-11.4908308389
 20
13.2876145185
 10
-11.4689892616
 20
13.2933627995
 10
-11.4472410639
 20
13.2984671864
 10
-11.4256352461
 20
13.3029284221
 10
-11.4041753981
 20
13.3067596045
 10
-11.3828537574
 20
13.3099769202
 10
-11.3616625617
 20
13.3125965559
 10
-11.3405888894
 20
13.3146319958
 10
-11.3195991836
 20
13.316085915
 10
-11.2986547284
 20
13.3169582865
 10
-11.2777168077
 20
13.317249083
  0
LWPOLYLINE
  5
2C2
100
AcDbEntity
  8
0
100
AcDbPolyline
 62
253
  6
CONTINUOUS
 90
57
 70
0
 10
-10.4647051618
 20
12.504307972
 10
-10.4650032274
 20
12.4830718092
 10
-10.465895577
 20
12.4618738972
 10
-10.4673794401
 20
12.4406729263
 10
-10.469452046
 20
12.4194275871
 10
-10.4721125349
 20
12.3981043212
 10
-10.4753676901
 20
12.3767005755
 10
-10.479226206
 20
12.3552215482
 10
-10.4836967767
 20
12.3336724374
 10
-10.4887862713
 20
12.3120641544
 10
-10.4944942574
 20
12.2904304635
 10
-10.5008184775
 20
12.268810842
 10
-10.5077566739
 20
12.2472447673
 10
-10.5153074057
 20
12.2257680306
 10
-10.5234724988
 20
12.2044016783
 10
-10.5322545956
 20
12.183163071
 10
-10.5416563385
 20
12.1620695687
 10
-10.5516788695
 20
12.1411412094
 10
-10.5623173281
 20
12.1204087403
 10
-10.5735653534
 20
12.0999055859
 10
-10.5854165842
 20
12.0796651709
 10
-10.5978679726
 20
12.0597167642
 10
-10.6109297226
 20
12.0400730118
 10
-10.624615351
 20
12.020742404
 10
-10.638938375
 20
12.0017334313
 10
-10.6539061772
 20
11.9830624726
 10
-10.669501604
 20
11.9647774625
 10
-10.6857013673
 20
11.9469342242
 10
-10.7024821793
 20
11.9295885811
 10
-10.7198144173
 20
11.9127916621
 10
-10.7376431202
 20
11.89657582
 10
-10.7559069921
 20
11.8809687129
 10
-10.7745447372
 20
11.8659979993
 10
-10.7935045931
 20
11.8516835738
 10
-10.8127729314
 20
11.8380142758
 10
-10.8323456573
 20
11.8249711807
 10
-10.8522186759
 20
11.8125353643
 10
-10.8723868453
 20
11.8006910305
 10
-10.8928408357
 20
11.7894348965
 10
-10.9135702702
 20
11.7787668082
 10
-10.934564772
 20
11.768686611
 10
-10.9558088102
 20
11.7591961619
 10
-10.9772662374
 20
11.7503053619
 10
-10.9988957523
 20
11.7420261231
 10
-11.0206560532
 20
11.7343703579
 10
-11.042502789
 20
11.7273483825
 10
-11.0643794084
 20
11.7209641299
 10
-11.0862263104
 20
11.7152199375
 10
-11.1079838938
 20
11.7101181424
 10
-11.1296036913
 20
11.7056580537
 10
-11.1510817703
 20
11.7018268688
 10
-11.1724253316
 20
11.6986087569
 10
-11.1936415762
 20
11.6959878873
 10
-11.2147430083
 20
11.6939511067
 10
-11.2357633445
 20
11.6924959726
 10
-11.2567416044
 20
11.6916227199
 10
-11.2777168077
 20
11.6913315834
  0
LWPOLYLINE
  5
2C3
100
AcDbEntity
  8
0
100
AcDbPolyline
 62
253
  6
CONTINUOUS
 90
55
 70
0
 10
-11.8724997126
 20
-12.483812085
 10
-11.8722392648
 20
-12.4672399731
 10
-11.8714610985
 20
-12.4507895722
 10
-11.8701699793
 20
-12.4344170061
 10
-11.8683706728
 20
-12.4180783986
 10
-11.8660679448
 20
-12.4017298734
 10
-11.8632639037
 20
-12.3853356582
 10
-11.8599500306
 20
-12.3688923961
 10
-11.8561151496
 20
-12.3524048342
 10
-11.8517480845
 20
-12.3358777195
 10
-11.8468376594
 20
-12.319315799
 10
-11.8413741905
 20
-12.3027289343
 10
-11.835353963
 20
-12.2861474439
 10
-11.8287747543
 20
-12.2696067612
 10
-11.8216343418
 20
-12.2531423193
 10
-11.8139305028
 20
-12.2367895514
 10
-11.8070835477
 20
-12.2232787164
 10
-11.7998719507
 20
-12.209924156
 10
-11.792323882
 20
-12.1967799869
 10
-11.7844586919
 20
-12.1838863256
 10
-11.7762604529
 20
-12.171227288
 10
-11.7677044177
 20
-12.1587729896
 10
-11.7587715103
 20
-12.1465028008
 10
-11.7494653397
 20
-12.1344331115
 10
-11.739795186
 20
-12.1225895665
 10
-11.7297703293
 20
-12.1109978107
 10
-11.7194000497
 20
-12.0996834888
 10
-11.7086936275
 20
-12.0886722456
 10
-11.6976629913
 20
-12.0779868989
 10
-11.6863306643
 20
-12.0676389584
 10
-11.6747218183
 20
-12.0576371067
 10
-11.6628616252
 20
-12.0479900265
 10
-11.6507752566
 20
-12.0387064005
 10
-11.6384878845
 20
-12.0297949112
 10
-11.6260153824
 20
-12.0212587205
 10
-11.6133364309
 20
-12.0130789066
 10
-11.6004204125
 20
-12.0052310269
 10
-11.5872514047
 20
-11.9976997069
 10
-11.5738722648
 20
-11.9905058452
 10
-11.5603405452
 20
-11.9836794085
 10
-11.5439719062
 20
-11.9760057831
 10
-11.5275046537
 20
-11.968901611
 10
-11.5109770132
 20
-11.962364101
 10
-11.4944272104
 20
-11.9563904623
 10
-11.4778934711
 20
-11.9509779037
 10
-11.4614081506
 20
-11.9461219089
 10
-11.4449801236
 20
-11.9418110593
 10
-11.4286123946
 20
-11.938032211
 10
-11.4123079679
 20
-11.93477222
 10
-11.3960698481
 20
-11.9320179424
 10
-11.3798932474
 20
-11.9297589975
 10
-11.3637422104
 20
-11.9279960585
 10
-11.3475729894
 20
-11.9267325618
 10
-11.3313418366
 20
-11.9259719437
 10
-11.3150050046
 20
-11.9257176407
  0
LWPOLYLINE
  5
2C4
100
AcDbEntity
  8
0
100
AcDbPolyline
 62
253
  6
CONTINUOUS
 90
55
 70
0
 10
-10.7574028876
 20
-12.483812085
 10
-10.7576632352
 20
-12.5003561149
 10
-10.7584411164
 20
-12.5167791814
 10
-10.7597317884
 20
-12.5331251073
 10
-10.7615305088
 20
-12.5494377158
 10
-10.7638325349
 20
-12.5657608299
 10
-10.7666357788
 20
-12.5821301807
 10
-10.7699487722
 20
-12.5985491327
 10
-10.7737827013
 20
-12.6150129583
 10
-10.7781487524
 20
-12.63151693
 10
-10.7830581119
 20
-12.6480563204
 10
-10.7885204716
 20
-12.6646212887
 10
-10.7945395449
 20
-12.6811815409
 10
-10.8011175511
 20
-12.6977016698
 10
-10.8082567091
 20
-12.7141462681
 10
-10.8159592381
 20
-12.7304799286
 10
-10.8228050576
 20
-12.7439754273
 10
-10.8300154818
 20
-12.7573152299
 10
-10.8375623445
 20
-12.7704452689
 10
-10.8454263093
 20
-12.7833254718
 10
-10.8536233578
 20
-12.7959717474
 10
-10.8621783014
 20
-12.8084139994
 10
-10.871110267
 20
-12.8206728645
 10
-10.880415644
 20
-12.83273191
 10
-10.8900851373
 20
-12.8445654361
 10
-10.9001094518
 20
-12.8561477429
 10
-10.9104792926
 20
-12.8674531306
 10
-10.9211853645
 20
-12.8784558991
 10
-10.9322157342
 20
-12.8891331848
 10
-10.9435479147
 20
-12.8994734676
 10
-10.9551567807
 20
-12.9094680637
 10
-10.9670172068
 20
-12.9191082892
 10
-10.9791040677
 20
-12.9283854601
 10
-10.991392238
 20
-12.9372908927
 10
-11.0038658936
 20
-12.9458214211
 10
-11.0165464144
 20
-12.9539959524
 10
-11.0294644813
 20
-12.9618389117
 10
-11.0426360588
 20
-12.9693656529
 10
-11.056018244
 20
-12.9765552451
 10
-11.069553417
 20
-12.9833776862
 10
-11.0859266604
 20
-12.9910468386
 10
-11.1023989877
 20
-12.9981468806
 10
-11.1189321522
 20
-13.0046806022
 10
-11.1354879077
 20
-13.0106507936
 10
-11.1520280075
 20
-13.016060245
 10
-11.1685200835
 20
-13.0209134712
 10
-11.1849552806
 20
-13.0252218851
 10
-11.2013306222
 20
-13.0289986242
 10
-11.2176431314
 20
-13.032256826
 10
-11.2338898316
 20
-13.0350096281
 10
-11.2500755301
 20
-13.0372674028
 10
-11.2662361696
 20
-13.0390294617
 10
-11.2824154773
 20
-13.0402923511
 10
-11.29865718
 20
-13.0410526174
 10
-11.3150050046
 20
-13.041306807
  0
LWPOLYLINE
  5
2C5
100
AcDbEntity
  8
0
100
AcDbPolyline
 62
253
  6
CONTINUOUS
 90
55
 70
0
 10
-11.5705219425
 20
-13.8791187513
 10
-11.5703977173
 20
-13.8713632227
 10
-11.5700276534
 20
-13.8636810137
 10
-11.5694156683
 20
-13.8560527984
 10
-11.5685656797
 20
-13.8484592511
 10
-11.5674816052
 20
-13.840881046
 10
-11.5661663454
 20
-13.8333027945
 10
-11.564618734
 20
-13.825724857
 10
-11.5628365877
 20
-13.818151531
 10
-11.5608177234
 20
-13.810587114
 10
-11.5585599576
 20
-13.8030359035
 10
-11.5560614726
 20
-13.795503466
 10
-11.5533219112
 20
-13.7880004439
 10
-11.5503412818
 20
-13.7805387484
 10
-11.5471195928
 20
-13.773130291
 10
-11.5436568524
 20
-13.765786983
 10
-11.5405886549
 20
-13.7597278739
 10
-11.5373623716
 20
-13.753740896
 10
-11.5339873074
 20
-13.7478446661
 10
-11.5304698324
 20
-13.7420531155
 10
-11.5268045763
 20
-13.7363614337
 10
-11.5229832338
 20
-13.7307601247
 10
-11.5189993846
 20
-13.7252429053
 10
-11.5148541476
 20
-13.7198163442
 10
-11.510550527
 20
-13.7144902233
 10
-11.5060915268
 20
-13.7092743243
 10
-11.5014801511
 20
-13.7041784288
 10
-11.4967194039
 20
-13.6992123188
 10
-11.4918130888
 20
-13.6943846291
 10
-11.4867682077
 20
-13.6896994078
 10
-11.4815925621
 20
-13.6851595562
 10
-11.4762939534
 20
-13.6807679757
 10
-11.4708801831
 20
-13.6765275675
 10
-11.4653590528
 20
-13.6724412329
 10
-11.4597353384
 20
-13.6685101726
 10
-11.4540017147
 20
-13.6647287848
 10
-11.4481478309
 20
-13.6610897671
 10
-11.4421690635
 20
-13.6575892716
 10
-11.4360836977
 20
-13.6542372685
 10
-11.429915746
 20
-13.6510471828
 10
-11.4224347289
 20
-13.6474479204
 10
-11.414885233
 20
-13.6441015927
 10
-11.4072831255
 20
-13.6410086419
 10
-11.3996442734
 20
-13.6381695098
 10
-11.3919845438
 20
-13.6355846384
 10
-11.3843175429
 20
-13.6332537752
 10
-11.3766478334
 20
-13.631173889
 10
-11.3689777169
 20
-13.6293412541
 10
-11.3613094953
 20
-13.6277521448
 10
-11.3536454702
 20
-13.6264028355
 10
-11.3459842325
 20
-13.6252908916
 10
-11.3383095301
 20
-13.6244190444
 10
-11.3306014
 20
-13.6237913163
 10
-11.3228398791
 20
-13.6234117296
 10
-11.3150050046
 20
-13.6232843069
  0
LWPOLYLINE
  5
2C6
100
AcDbEntity
  8
0
100
AcDbPolyline
 62
253
  6
CONTINUOUS
 90
55
 70
0
 10
-11.0590647333
 20
-14.4068037512
 10
-11.0591883808
 20
-14.4145451876
 10
-11.0595567689
 20
-14.4222139011
 10
-11.0601660666
 20
-14.4298292996
 10
-11.0610124425
 20
-14.4374107909
 10
-11.0620920654
 20
-14.4449777827
 10
-11.0634021096
 20
-14.4525457126
 10
-11.0649437718
 20
-14.4601141364
 10
-11.0667192541
 20
-14.4676786395
 10
-11.0687307589
 20
-14.4752348074
 10
-11.0709804884
 20
-14.4827782255
 10
-11.0734702937
 20
-14.490303248
 10
-11.0762006211
 20
-14.4977993044
 10
-11.079171566
 20
-14.5052545929
 10
-11.0823832235
 20
-14.5126573118
 10
-11.085835689
 20
-14.5199956592
 10
-11.088895242
 20
-14.5260513289
 10
-11.0921130183
 20
-14.5320356744
 10
-11.0954799476
 20
-14.5379302693
 10
-11.098989881
 20
-14.543721342
 10
-11.1026483562
 20
-14.5494137382
 10
-11.1064638327
 20
-14.5550169583
 10
-11.1104428657
 20
-14.5605372516
 10
-11.1145843949
 20
-14.5659678653
 10
-11.1188854558
 20
-14.5712987957
 10
-11.1233430841
 20
-14.5765200392
 10
-11.1279543154
 20
-14.5816215919
 10
-11.1327161853
 20
-14.5865934504
 10
-11.1376249331
 20
-14.5914267951
 10
-11.1426736129
 20
-14.5961175433
 10
-11.1478544825
 20
-14.6006627967
 10
-11.1531597998
 20
-14.6050596566
 10
-11.1585818226
 20
-14.6093052246
 10
-11.1641128086
 20
-14.6133966023
 10
-11.1697480438
 20
-14.6173325955
 10
-11.175494926
 20
-14.6211188273
 10
-11.1813638813
 20
-14.624762625
 10
-11.1873595458
 20
-14.6282678326
 10
-11.1934633964
 20
-14.6316243588
 10
-11.1996511199
 20
-14.6348186287
 10
-11.2071571887
 20
-14.638422304
 10
-11.2147329361
 20
-14.6417723829
 10
-11.2223622744
 20
-14.6448684655
 10
-11.2300291159
 20
-14.6477101523
 10
-11.2377173728
 20
-14.6502970433
 10
-11.2454132557
 20
-14.652629441
 10
-11.2531121683
 20
-14.654710456
 10
-11.2608118125
 20
-14.6565439009
 10
-11.2685098902
 20
-14.6581335884
 10
-11.2762041036
 20
-14.659483331
 10
-11.2838959003
 20
-14.6605956344
 10
-11.2916017116
 20
-14.6614677752
 10
-11.2993417147
 20
-14.662095723
 10
-11.3071360867
 20
-14.6624754473
 10
-11.3150050046
 20
-14.6626029178
  0
LWPOLYLINE
  5
2C7
100
AcDbEntity
  8
0
100
AcDbPolyline
 62
253
  6
CONTINUOUS
 90
55
 70
0
 10
-11.5335159679
 20
10.8423718614
 10
-11.5333911094
 20
10.8501011086
 10
-11.533019202
 20
10.8577573038
 10
-11.5324042477
 20
10.8653596813
 10
-11.5315502486
 20
10.8729274753
 10
-11.5304612067
 20
10.8804799201
 10
-11.5291401191
 20
10.8880323156
 10
-11.5275859629
 20
10.8955842255
 10
-11.5257967103
 20
10.9031312792
 10
-11.5237703335
 20
10.910669106
 10
-11.5215048046
 20
10.9181933353
 10
-11.5189984527
 20
10.9256983764
 10
-11.516251035
 20
10.9331737582
 10
-11.5132626652
 20
10.9406077895
 10
-11.5100334574
 20
10.947988779
 10
-11.5065635254
 20
10.9553050354
 10
-11.5034896382
 20
10.9613421056
 10
-11.5002578891
 20
10.9673077774
 10
-11.4968775064
 20
10.9731837249
 10
-11.493354802
 20
10.978956243
 10
-11.4896844214
 20
10.9846301111
 10
-11.4858580936
 20
10.9902147295
 10
-11.4818694385
 20
10.9957162976
 10
-11.4777196395
 20
11.0011282109
 10
-11.4734117711
 20
11.006440664
 10
-11.4689489075
 20
11.0116438513
 10
-11.4643341232
 20
11.0167279675
 10
-11.4595704925
 20
11.0216832071
 10
-11.4546618518
 20
11.026500915
 10
-11.4496150856
 20
11.0311770384
 10
-11.4444378404
 20
11.0357086749
 10
-11.4391377626
 20
11.0400929219
 10
-11.4337224987
 20
11.044326877
 10
-11.4281996953
 20
11.0484076378
 10
-11.4225739963
 20
11.0523339832
 10
-11.4168380361
 20
11.0561114175
 10
-11.4109814465
 20
11.0597471266
 10
-11.4049995997
 20
11.0632448466
 10
-11.398910829
 20
11.0665945157
 10
-11.3927392077
 20
11.0697826225
 10
-11.3852535067
 20
11.0733798747
 10
-11.3776990352
 20
11.0767245357
 10
-11.3700916617
 20
11.0798161204
 10
-11.3624472547
 20
11.0826541437
 10
-11.3547816826
 20
11.0852381206
 10
-11.3471085363
 20
11.0875682649
 10
-11.3394322966
 20
11.0896475861
 10
-11.3317551669
 20
11.0914797922
 10
-11.3240793505
 20
11.0930685918
 10
-11.3164070506
 20
11.094417693
 10
-11.3087368018
 20
11.0955295122
 10
-11.301052463
 20
11.0964012984
 10
-11.2933342243
 20
11.0970290084
 10
-11.2855622758
 20
11.0974085993
 10
-11.2777168077
 20
11.097536028
  0
LWPOLYLINE
  5
2C8
100
AcDbEntity
  8
0
100
AcDbPolyline
 62
253
  6
CONTINUOUS
 90
55
 70
0
 10
-11.0220587587
 20
9.7704918616
 10
-11.0221840994
 20
9.7627163162
 10
-11.0225574234
 20
9.7550148989
 10
-11.0231746841
 20
9.7473683365
 10
-11.0240318345
 20
9.7397573558
 10
-11.0251248277
 20
9.7321626835
 10
-11.0264506427
 20
9.7245689629
 10
-11.028010361
 20
9.7169765027
 10
-11.0298060899
 20
9.709389528
 10
-11.0318399368
 20
9.701812264
 10
-11.034114009
 20
9.6942489357
 10
-11.0366300351
 20
9.6867050587
 10
-11.0393882296
 20
9.6791913104
 10
-11.0423884282
 20
9.6717196584
 10
-11.0456304667
 20
9.6643020704
 10
-11.0491141808
 20
9.6569505143
 10
-11.0522001946
 20
9.6508852618
 10
-11.055444373
 20
9.6448929166
 10
-11.058837164
 20
9.6389922195
 10
-11.0623719651
 20
9.6331972116
 10
-11.0660539694
 20
9.6275031337
 10
-11.0698913193
 20
9.6219005268
 10
-11.0738902851
 20
9.6163831004
 10
-11.0780496481
 20
9.6109572375
 10
-11.082366318
 20
9.6056324896
 10
-11.0868372041
 20
9.6004184083
 10
-11.0914592158
 20
9.595324545
 10
-11.0962292626
 20
9.5903604514
 10
-11.1011434648
 20
9.5855345698
 10
-11.1061947869
 20
9.5808509068
 10
-11.1113754042
 20
9.5763123596
 10
-11.116677492
 20
9.5719218257
 10
-11.1220932255
 20
9.5676822024
 10
-11.1276147802
 20
9.5635963871
 10
-11.1332373515
 20
9.5596655901
 10
-11.1389682145
 20
9.5558842738
 10
-11.1448176649
 20
9.5522452132
 10
-11.1507903259
 20
9.5487446061
 10
-11.1568681334
 20
9.5453923403
 10
-11.163027351
 20
9.542201726
 10
-11.1704966836
 20
9.5386013623
 10
-11.1780334341
 20
9.5352534587
 10
-11.1856219696
 20
9.5321585302
 10
-11.1932466575
 20
9.5293170917
 10
-11.2008918651
 20
9.5267296584
 10
-11.2085441853
 20
9.5243960572
 10
-11.2161991136
 20
9.5223133637
 10
-11.2238543711
 20
9.5204779656
 10
-11.2315076788
 20
9.5188862506
 10
-11.2391567579
 20
9.5175346063
 10
-11.2468029922
 20
9.5164206961
 10
-11.2544624167
 20
9.5155472859
 10
-11.262154729
 20
9.5149184176
 10
-11.2698996267
 20
9.5145381326
 10
-11.2777168077
 20
9.5144104728
  0
LINE
  5
2C9
100
AcDbEntity
  8
ASSI
100
AcDbLine
 62
253
  6
CONTINUOUS
 10
22.0648780898
 20
-9.4803977385
 11
22.0528074472
 21
-9.4809686756
  0
LWPOLYLINE
  5
2CA
100
AcDbEntity
  8
ASSI
100
AcDbPolyline
 62
253
  6
CONTINUOUS
 90
3
 70
0
 10
22.0528074472
 20
-9.4809686756
 10
22.0388667516
 20
-9.4815250341
 10
22.0312126766
 20
-9.481797032
  0
LWPOLYLINE
  5
2CB
100
AcDbEntity
  8
0
100
AcDbPolyline
 62
253
  6
CONTINUOUS
 90
55
 70
0
 10
-11.3150050046
 20
-11.3440576408
 10
-11.3072560959
 20
-11.3439333318
 10
-11.2995802826
 20
-11.3435630019
 10
-11.2919581391
 20
-11.3429505468
 10
-11.2843702401
 20
-11.342099862
 10
-11.27679716
 20
-11.3410148434
 10
-11.2692234503
 20
-11.3396983814
 10
-11.2616495687
 20
-11.3381493468
 10
-11.2540799498
 20
-11.3363656053
 10
-11.2465190282
 20
-11.3343450226
 10
-11.2389712384
 20
-11.3320854645
 10
-11.2314422399
 20
-11.3295851531
 10
-11.2239425918
 20
-11.3268437372
 10
-11.2164840779
 20
-11.323861222
 10
-11.2090784822
 20
-11.3206376127
 10
-11.2017375886
 20
-11.3171729144
 10
-11.1956800372
 20
-11.3141030312
 10
-11.1896940197
 20
-11.3108748917
 10
-11.1837979546
 20
-11.3074976589
 10
-11.1780056157
 20
-11.303977576
 10
-11.1723121974
 20
-11.3003092064
 10
-11.1667082494
 20
-11.2964841936
 10
-11.1611875474
 20
-11.2924960783
 10
-11.1557567712
 20
-11.2883459896
 10
-11.1504258267
 20
-11.2840369538
 10
-11.1452046199
 20
-11.2795719969
 10
-11.1401030567
 20
-11.2749541454
 10
-11.135131043
 20
-11.2701864253
 10
-11.1302973168
 20
-11.2652726438
 10
-11.1256059447
 20
-11.2602197312
 10
-11.1210598254
 20
-11.2550353987
 10
-11.1166618577
 20
-11.2497273575
 10
-11.1124149403
 20
-11.2443033188
 10
-11.1083219719
 20
-11.2387709938
 10
-11.1043841573
 20
-11.2331350773
 10
-11.100595925
 20
-11.2273881982
 10
-11.0969500097
 20
-11.2215199691
 10
-11.0934426139
 20
-11.2155257639
 10
-11.0900838116
 20
-11.2094240017
 10
-11.0868871446
 20
-11.203238863
 10
-11.0832804049
 20
-11.1957363815
 10
-11.0799270907
 20
-11.1881646169
 10
-11.0768276524
 20
-11.1805395282
 10
-11.0739825405
 20
-11.1728770745
 10
-11.0713922052
 20
-11.165193215
 10
-11.0690563986
 20
-11.1575016247
 10
-11.0669720781
 20
-11.1498068429
 10
-11.0651355032
 20
-11.1421111249
 10
-11.0635429328
 20
-11.1344167258
 10
-11.0621906263
 20
-11.1267259009
 10
-11.0610761436
 20
-11.1190371986
 10
-11.0602022484
 20
-11.1113343403
 10
-11.0595730053
 20
-11.1035973404
 10
-11.0591924787
 20
-11.0958062135
 10
-11.0590647333
 20
-11.0879409742
  0
LWPOLYLINE
  5
2CC
100
AcDbEntity
  8
0
100
AcDbPolyline
 62
253
  6
CONTINUOUS
 90
28
 70
0
 10
-12.5237980293
 20
-12.0416756962
 10
-12.5285726725
 20
-12.0416279191
 10
-12.5333357467
 20
-12.0414853088
 10
-12.5380879251
 20
-12.0412489469
 10
-12.5428298809
 20
-12.0409199147
 10
-12.5475622871
 20
-12.040499294
 10
-12.5522858169
 20
-12.0399881661
 10
-12.5570011434
 20
-12.0393876125
 10
-12.5617084919
 20
-12.0386986182
 10
-12.566406297
 20
-12.0379217818
 10
-12.5710925451
 20
-12.0370576053
 10
-12.5757652229
 20
-12.0361065907
 10
-12.5804223171
 20
-12.0350692401
 10
-12.5850618144
 20
-12.0339460553
 10
-12.5896817013
 20
-12.0327375385
 10
-12.5942799998
 20
-12.0314441647
 10
-12.5988548734
 20
-12.0300663014
 10
-12.6034045207
 20
-12.0286042893
 10
-12.6079271405
 20
-12.027058469
 10
-12.6124209314
 20
-12.0254291811
 10
-12.6168840921
 20
-12.0237167661
 10
-12.6213148215
 20
-12.0219215648
 10
-12.6257115861
 20
-12.0200436163
 10
-12.6300739249
 20
-12.0180817541
 10
-12.6344016447
 20
-12.0160345104
 10
-12.6386945523
 20
-12.0139004172
 10
-12.6429524546
 20
-12.0116780069
 10
-12.6471751584
 20
-12.0093658114
  0
LWPOLYLINE
  5
2CD
100
AcDbEntity
  8
0
100
AcDbPolyline
 62
253
  6
CONTINUOUS
 90
42
 70
0
 10
-10.1061061465
 20
-12.0416756962
 10
-10.1115392309
 20
-12.0416047489
 10
-10.1169444509
 20
-12.0413938471
 10
-10.122328322
 20
-12.0410459013
 10
-10.1276973599
 20
-12.0405638216
 10
-10.1330580801
 20
-12.0399505184
 10
-10.1384169982
 20
-12.0392089019
 10
-10.1448524715
 20
-12.0381528736
 10
-10.1512938495
 20
-12.0369164183
 10
-10.1577402495
 20
-12.035499689
 10
-10.1641907888
 20
-12.033902839
 10
-10.1706445848
 20
-12.0321260214
 10
-10.1770989486
 20
-12.0301700944
 10
-10.183543968
 20
-12.0280387367
 10
-10.1899679245
 20
-12.0257363318
 10
-10.1963590998
 20
-12.0232672634
 10
-10.2027057755
 20
-12.0206359151
 10
-10.2089972653
 20
-12.0178465494
 10
-10.2152270117
 20
-12.014902944
 10
-10.2213894892
 20
-12.0118087553
 10
-10.2274791724
 20
-12.0085676398
 10
-10.2334905358
 20
-12.0051832541
 10
-10.2394179804
 20
-12.0016591977
 10
-10.2452556122
 20
-11.9979988424
 10
-10.2509974635
 20
-11.9942055032
 10
-10.2566375668
 20
-11.9902824952
 10
-10.2621699545
 20
-11.9862331331
 10
-10.2675880685
 20
-11.9820615929
 10
-10.2728829895
 20
-11.9777754941
 10
-10.2780452078
 20
-11.9733833171
 10
-10.2830652136
 20
-11.9688935425
 10
-10.2879334973
 20
-11.9643146505
 10
-10.2926421627
 20
-11.9596538225
 10
-10.2971897688
 20
-11.9549130425
 10
-10.3015764879
 20
-11.9500929956
 10
-10.3058024927
 20
-11.9451943665
 10
-10.3098679557
 20
-11.9402178402
 10
-10.3137733197
 20
-11.9351620548
 10
-10.3175201089
 20
-11.9300174607
 10
-10.321110118
 20
-11.9247724616
 10
-10.3245451416
 20
-11.9194154611
 10
-10.3278269742
 20
-11.9139348629
  0
LWPOLYLINE
  5
2CE
100
AcDbEntity
  8
0
100
AcDbPolyline
 62
253
  6
CONTINUOUS
 90
55
 70
0
 10
-11.3150050046
 20
-11.9257176407
 10
-11.2984790918
 20
-11.9259774117
 10
-11.2820732629
 20
-11.9267536454
 10
-11.2657435033
 20
-11.9280417228
 10
-11.2494457983
 20
-11.9298370248
 10
-11.2331361333
 20
-11.9321349324
 10
-11.2167786413
 20
-11.9349334683
 10
-11.2003700448
 20
-11.9382412218
 10
-11.1839152141
 20
-11.9420694243
 10
-11.1674190193
 20
-11.9464293067
 10
-11.1508863306
 20
-11.9513321003
 10
-11.1343271024
 20
-11.9567875446
 10
-11.1177716255
 20
-11.9627994124
 10
-11.1012552748
 20
-11.9693699847
 10
-11.0848134253
 20
-11.9765015425
 10
-11.068481452
 20
-11.9841963672
 10
-11.0549865067
 20
-11.9910357554
 10
-11.0416463694
 20
-11.9982398987
 10
-11.0285149792
 20
-12.0057808103
 10
-11.0156323044
 20
-12.0136393134
 10
-11.0029824302
 20
-12.0218314699
 10
-10.990535471
 20
-12.0303821511
 10
-10.9782708375
 20
-12.039310539
 10
-10.9662051268
 20
-12.048613057
 10
-10.9543642323
 20
-12.0582804392
 10
-10.9427740475
 20
-12.0683034195
 10
-10.9314604658
 20
-12.0786727316
 10
-10.9204493808
 20
-12.0893791097
 10
-10.9097638238
 20
-12.1004106461
 10
-10.8994153779
 20
-12.1117448671
 10
-10.8894127642
 20
-12.1233566576
 10
-10.8797647036
 20
-12.1352209024
 10
-10.8704799171
 20
-12.1473124865
 10
-10.8615671258
 20
-12.1596062947
 10
-10.8530295201
 20
-12.1720864995
 10
-10.8448481685
 20
-12.1847744244
 10
-10.8369986087
 20
-12.1977006807
 10
-10.8294654315
 20
-12.2108812185
 10
-10.8222694384
 20
-12.2242733438
 10
-10.8154404837
 20
-12.2378197015
 10
-10.8077632074
 20
-12.2542083497
 10
-10.8006547059
 20
-12.2706985195
 10
-10.7941122284
 20
-12.287252229
 10
-10.788133024
 20
-12.3038314964
 10
-10.7827143418
 20
-12.3203983398
 10
-10.7778517374
 20
-12.3369205859
 10
-10.7735339923
 20
-12.353389295
 10
-10.7697481941
 20
-12.3698013363
 10
-10.7664814307
 20
-12.3861535785
 10
-10.7637207898
 20
-12.4024428908
 10
-10.7614561225
 20
-12.4186739514
 10
-10.759688332
 20
-12.434882676
 10
-10.758421085
 20
-12.4511127898
 10
-10.757658048
 20
-12.4674080177
 10
-10.7574028876
 20
-12.483812085
  0
LINE
  5
2CF
100
AcDbEntity
  8
ASSI
100
AcDbLine
 62
253
  6
CONTINUOUS
 10
-22.1965116679
 20
-9.4812488211
 11
-22.1816568788
 21
-9.481797032
  0
LWPOLYLINE
  5
2D0
100
AcDbEntity
  8
0
100
AcDbPolyline
 62
253
  6
CONTINUOUS
 90
55
 70
0
 10
-8.2885602173
 20
12.504307972
 10
-8.2886845127
 20
12.4965519716
 10
-8.2890547836
 20
12.4888693789
 10
-8.2896671073
 20
12.4812408482
 10
-8.2905175608
 20
12.4736470336
 10
-8.2916022212
 20
12.4660685892
 10
-8.2929181816
 20
12.4584901124
 10
-8.2944665982
 20
12.4509119722
 10
-8.2962496431
 20
12.443338481
 10
-8.2982694884
 20
12.4357739511
 10
-8.3005283061
 20
12.4282226946
 10
-8.3030279021
 20
12.4206902895
 10
-8.3057686173
 20
12.4131873758
 10
-8.3087504264
 20
12.4057258594
 10
-8.3119733042
 20
12.3983176459
 10
-8.3154372254
 20
12.3909746411
 10
-8.3185063882
 20
12.3849158254
 10
-8.3217336087
 20
12.3789291715
 10
-8.3251095711
 20
12.3730332894
 10
-8.3286278921
 20
12.3672421074
 10
-8.3322939201
 20
12.3615508262
 10
-8.3361159364
 20
12.3559499647
 10
-8.3401003396
 20
12.3504332488
 10
-8.3442459986
 20
12.3450072324
 10
-8.3485498997
 20
12.3396816764
 10
-8.3530090292
 20
12.3344663419
 10
-8.3576203735
 20
12.3293709896
 10
-8.3623809189
 20
12.3244053807
 10
-8.3672868552
 20
12.3195781325
 10
-8.3723311855
 20
12.3148932889
 10
-8.3775061163
 20
12.3103537499
 10
-8.3828038541
 20
12.3059624159
 10
-8.3882166056
 20
12.3017221871
 10
-8.3937365772
 20
12.2976359637
 10
-8.3993589968
 20
12.2937049481
 10
-8.4050911776
 20
12.289923551
 10
-8.4109434539
 20
12.2862844855
 10
-8.4169204415
 20
12.2827839145
 10
-8.4230038806
 20
12.2794318025
 10
-8.4291697926
 20
12.2762415639
 10
-8.4366482561
 20
12.2726420503
 10
-8.444195115
 20
12.2692954041
 10
-8.4517945332
 20
12.2662020781
 10
-8.4594306741
 20
12.263362525
 10
-8.4670877014
 20
12.2607771975
 10
-8.4747520347
 20
12.2584458547
 10
-8.4824191175
 20
12.2563654812
 10
-8.4900866493
 20
12.254532368
 10
-8.4977523297
 20
12.2529428062
 10
-8.5054138583
 20
12.2515930868
 10
-8.5130726399
 20
12.2504807906
 10
-8.520744901
 20
12.2496086572
 10
-8.5284505731
 20
12.248980716
 10
-8.536209588
 20
12.2486009964
 10
-8.5440418775
 20
12.2484735277
  0
LWPOLYLINE
  5
2D1
100
AcDbEntity
  8
0
100
AcDbPolyline
 62
253
  6
CONTINUOUS
 90
53
 70
0
 10
-9.8715798991
 20
12.504307972
 10
-9.8714541736
 20
12.5120824295
 10
-9.8710797291
 20
12.519782883
 10
-9.8704606637
 20
12.5274285132
 10
-9.8696010751
 20
12.5350385006
 10
-9.8685050616
 20
12.5426320258
 10
-9.8671756941
 20
12.550224374
 10
-9.8656119372
 20
12.5578152497
 10
-9.8638117283
 20
12.5654004618
 10
-9.8617730051
 20
12.5729758196
 10
-9.859493705
 20
12.580537132
 10
-9.856972143
 20
12.588078919
 10
-9.8542081434
 20
12.5955905435
 10
-9.8512019077
 20
12.6030600793
 10
-9.8479536375
 20
12.6104756003
 10
-9.8444635345
 20
12.6178251802
 10
-9.8413721031
 20
12.6238888869
 10
-9.8381224432
 20
12.6298798136
 10
-9.8347241258
 20
12.6357792547
 10
-9.8311837683
 20
12.6415732015
 10
-9.8274961742
 20
12.647266432
 10
-9.8236531932
 20
12.6528684208
 10
-9.8188282732
 20
12.6594782257
 10
-9.8137732366
 20
12.6659537593
 10
-9.8084934602
 20
12.6722784947
 10
-9.8029943211
 20
12.6784359047
 10
-9.7972811961
 20
12.6844094625
 10
-9.7913608099
 20
12.6901845572
 10
-9.7852452796
 20
12.6957542417
 10
-9.7789480699
 20
12.7011134855
 10
-9.7724826457
 20
12.7062572576
 10
-9.7658624719
 20
12.7111805273
 10
-9.7602341418
 20
12.715112871
 10
-9.7544973623
 20
12.7188958102
 10
-9.7486417983
 20
12.7225365605
 10
-9.7426628038
 20
12.7260389079
 10
-9.7365784886
 20
12.7293929192
 10
-9.7304126517
 20
12.7325852313
 10
-9.722935305
 20
12.7361875094
 10
-9.7153905076
 20
12.7395371749
 10
-9.7077939294
 20
12.7426337047
 10
-9.7001612408
 20
12.7454765758
 10
-9.6925081117
 20
12.748065265
 10
-9.6848479727
 20
12.7503999412
 10
-9.677185296
 20
12.7524835411
 10
-9.6695223141
 20
12.7543196936
 10
-9.6618612594
 20
12.7559120274
 10
-9.6542043645
 20
12.7572641712
 10
-9.6465502132
 20
12.7583784763
 10
-9.6388827951
 20
12.7592521841
 10
-9.6311824513
 20
12.7598812582
 10
-9.6234295226
 20
12.7602616625
 10
-9.6156043501
 20
12.7603893609
  0
LWPOLYLINE
  5
2D2
100
AcDbEntity
  8
ASSI
100
AcDbPolyline
 62
253
  6
CONTINUOUS
 90
18
 70
0
 10
-22.2968877826
 20
-21.5445367352
 10
-22.2964197554
 20
-21.5436532076
 10
-22.2959533504
 20
-21.5424127362
 10
-22.2954885678
 20
-21.5408153209
 10
-22.2950250609
 20
-21.5388592754
 10
-22.2945631763
 20
-21.5365462861
 10
-22.2941039534
 20
-21.5338814122
 10
-22.2936474112
 20
-21.5308639086
 10
-22.2931935308
 20
-21.5274945204
 10
-22.292743295
 20
-21.5237805426
 10
-22.2922967133
 20
-21.5197212382
 10
-22.2918537761
 20
-21.5153173442
 10
-22.2914154382
 20
-21.5105783658
 10
-22.2909817089
 20
-21.5055035735
 10
-22.2905525788
 20
-21.5000936968
 10
-22.2901289749
 20
-21.4943604293
 10
-22.2897109093
 20
-21.488303072
 10
-22.2888922475
 20
-21.4752319756
  0
LINE
  5
2D3
100
AcDbEntity
  8
ASSI
100
AcDbLine
 62
253
  6
CONTINUOUS
 10
22.0312126766
 20
-9.481797032
 11
22.0056109193
 21
-9.482584973
  0
LINE
  5
2D4
100
AcDbEntity
  8
ASSI
100
AcDbLine
 62
253
  6
CONTINUOUS
 10
22.0056109193
 20
-9.482584973
 11
21.9762379079
 21
-9.4833252437
  0
LINE
  5
2D5
100
AcDbEntity
  8
ASSI
100
AcDbLine
 62
253
  6
CONTINUOUS
 10
21.9762379079
 20
-9.4833252437
 11
21.9316796495
 21
-9.4842264074
  0
LWPOLYLINE
  5
2D6
100
AcDbEntity
  8
0
100
AcDbPolyline
 62
253
  6
CONTINUOUS
 90
55
 70
0
 10
-11.3150050046
 20
-10.30442153
 10
-11.3227362025
 20
-10.3045456221
 10
-11.3303945911
 20
-10.3049153158
 10
-11.3379995979
 20
-10.3055267366
 10
-11.3455706503
 20
-10.3063760103
 10
-11.3531271758
 20
-10.3074592625
 10
-11.3606846147
 20
-10.3087736166
 10
-11.3682424596
 20
-10.3103201871
 10
-11.3757962159
 20
-10.3121010858
 10
-11.3833413891
 20
-10.3141184248
 10
-11.3908734847
 20
-10.3163743161
 10
-11.3983868089
 20
-10.318870523
 10
-11.4058708713
 20
-10.3216074132
 10
-11.4133139819
 20
-10.3245850061
 10
-11.420704451
 20
-10.3278033206
 10
-11.4280305888
 20
-10.3312623758
 10
-11.4340762114
 20
-10.3343273257
 10
-11.4400507764
 20
-10.3375504263
 10
-11.4459360189
 20
-10.3409226339
 10
-11.4517182852
 20
-10.3444378123
 10
-11.4574023673
 20
-10.3481014562
 10
-11.4629976687
 20
-10.3519219676
 10
-11.4685103629
 20
-10.3559058445
 10
-11.4739337039
 20
-10.3600519676
 10
-11.4792577158
 20
-10.3643573135
 10
-11.4844724226
 20
-10.3688188586
 10
-11.4895678486
 20
-10.3734335796
 10
-11.4945340176
 20
-10.3781984528
 10
-11.499362136
 20
-10.3831096815
 10
-11.504048138
 20
-10.3881603744
 10
-11.5085891401
 20
-10.3933428671
 10
-11.5129822588
 20
-10.398649495
 10
-11.5172246104
 20
-10.4040725935
 10
-11.5213133114
 20
-10.4096044981
 10
-11.5252471641
 20
-10.4152405552
 10
-11.5290317141
 20
-10.420988155
 10
-11.5326741932
 20
-10.4268576987
 10
-11.5361783646
 20
-10.4328538103
 10
-11.5395341193
 20
-10.4389580053
 10
-11.5427278802
 20
-10.4451460223
 10
-11.546331281
 20
-10.452652446
 10
-11.5496814172
 20
-10.4602286237
 10
-11.5527778468
 20
-10.4678585422
 10
-11.5556201276
 20
-10.4755261885
 10
-11.5582078176
 20
-10.4832155494
 10
-11.5605411746
 20
-10.4909129052
 10
-11.5626232567
 20
-10.498613709
 10
-11.5644578217
 20
-10.5063157071
 10
-11.5660486276
 20
-10.514016646
 10
-11.5673994325
 20
-10.5217142722
 10
-11.56851269
 20
-10.5294100469
 10
-11.569385637
 20
-10.5371202909
 10
-11.5700142063
 20
-10.54486504
 10
-11.5703943306
 20
-10.55266433
 10
-11.5705219425
 20
-10.5605381966
  0
LINE
  5
2D7
100
AcDbEntity
  8
ASSI
100
AcDbLine
 62
253
  6
CONTINUOUS
 10
21.9316796495
 20
-9.4842264074
 11
21.8683543063
 21
-9.4851944383
  0
LINE
  5
2D8
100
AcDbEntity
  8
ASSI
100
AcDbLine
 62
253
  6
CONTINUOUS
 10
21.8683543063
 20
-9.4851944383
 11
21.7833378435
 21
-9.4860917189
  0
LINE
  5
2D9
100
AcDbEntity
  8
ASSI
100
AcDbLine
 62
253
  6
CONTINUOUS
 10
21.7833378435
 20
-9.4860917189
 11
21.6756875981
 21
-9.486733566
  0
LINE
  5
2DA
100
AcDbEntity
  8
ASSI
100
AcDbLine
 62
253
  6
CONTINUOUS
 10
21.6756875981
 20
-9.486733566
 11
-21.7464780595
 21
-9.4869077307
  0
LINE
  5
2DB
100
AcDbEntity
  8
ASSI
100
AcDbLine
 62
253
  6
CONTINUOUS
 10
-21.8730761239
 20
-9.4865141908
 11
-21.7464780595
 21
-9.4869077307
  0
LINE
  5
2DC
100
AcDbEntity
  8
ASSI
100
AcDbLine
 62
253
  6
CONTINUOUS
 10
-21.977353189
 20
-9.4856811682
 11
-21.8730761239
 21
-9.4865141908
  0
LINE
  5
2DD
100
AcDbEntity
  8
ASSI
100
AcDbLine
 62
253
  6
CONTINUOUS
 10
-22.0577363885
 20
-9.4846360109
 11
-21.977353189
 21
-9.4856811682
  0
LINE
  5
2DE
100
AcDbEntity
  8
ASSI
100
AcDbLine
 62
253
  6
CONTINUOUS
 10
-22.1051371646
 20
-9.483788888
 11
-22.0577363885
 21
-9.4846360109
  0
LINE
  5
2DF
100
AcDbEntity
  8
ASSI
100
AcDbLine
 62
253
  6
CONTINUOUS
 10
-22.1466704819
 20
-9.4828373729
 11
-22.1051371646
 21
-9.483788888
  0
LWPOLYLINE
  5
2E0
100
AcDbEntity
  8
ASSI
100
AcDbPolyline
 62
253
  6
CONTINUOUS
 90
3
 70
0
 10
-22.1816568788
 20
-9.481797032
 10
-22.173557279
 20
-9.4820645362
 10
-22.1466704819
 20
-9.4828373729
  0
LINE
  5
2E1
100
AcDbEntity
  8
ASSI
100
AcDbLine
 62
253
  6
CONTINUOUS
 10
-22.3989147916
 20
-21.6976550384
 11
-22.2968877826
 21
-21.5445367352
  0
LINE
  5
2E2
100
AcDbEntity
  8
ASSI
100
AcDbLine
 62
253
  6
CONTINUOUS
 10
-22.2968877826
 20
21.5707212739
 11
-22.3989147916
 21
21.7238395771
  0
LWPOLYLINE
  5
2E3
100
AcDbEntity
  8
0
100
AcDbPolyline
 62
253
  6
CONTINUOUS
 90
53
 70
0
 10
-13.2020485675
 20
-11.3946106963
 10
-13.1980938895
 20
-11.3879773188
 10
-13.1939616326
 20
-11.3815290914
 10
-13.1896456341
 20
-11.3752474087
 10
-13.1851397317
 20
-11.3691136654
 10
-13.180437763
 20
-11.3631092561
 10
-13.1755346729
 20
-11.3572194867
 10
-13.1704298365
 20
-11.3514453075
 10
-13.1651237366
 20
-11.34579158
 10
-13.1596168558
 20
-11.3402631659
 10
-13.1539096767
 20
-11.3348649266
 10
-13.148003567
 20
-11.3296025744
 10
-13.1419034347
 20
-11.3244852244
 10
-13.1356150731
 20
-11.3195228423
 10
-13.1291442751
 20
-11.314725394
 10
-13.122496834
 20
-11.3101028453
 10
-13.1168287853
 20
-11.3063924206
 10
-13.1110588948
 20
-11.3028215751
 10
-13.1052039665
 20
-11.2994015092
 10
-13.0992760238
 20
-11.2961408927
 10
-13.0932679669
 20
-11.2930382735
 10
-13.0871679156
 20
-11.2900896688
 10
-13.0797153013
 20
-11.2867522345
 10
-13.0721262242
 20
-11.2836431624
 10
-13.0644138014
 20
-11.2807747689
 10
-13.0565911498
 20
-11.2781593703
 10
-13.0486713867
 20
-11.275809283
 10
-13.0406677385
 20
-11.2737344271
 10
-13.0325938698
 20
-11.2719351376
 10
-13.0244635546
 20
-11.2704093532
 10
-13.016290567
 20
-11.2691550128
 10
-13.0080886809
 20
-11.2681700551
 10
-13.0012382153
 20
-11.2675535687
 10
-12.9943646816
 20
-11.2671216513
 10
-12.9874555148
 20
-11.2668732321
 10
-12.9805048805
 20
-11.2668073842
 10
-12.9735338665
 20
-11.2669237578
 10
-12.9665702913
 20
-11.2672221471
 10
-12.9582573307
 20
-11.2678189896
 10
-12.9500092636
 20
-11.2686701094
 10
-12.9418402128
 20
-11.2697679774
 10
-12.9337643013
 20
-11.2711050648
 10
-12.9257956522
 20
-11.2726738425
 10
-12.9179460367
 20
-11.2744673134
 10
-12.9102178198
 20
-11.2764806073
 10
-12.9026110148
 20
-11.2787093861
 10
-12.8951256351
 20
-11.2811493114
 10
-12.8877616939
 20
-11.2837960448
 10
-12.8805166589
 20
-11.2866481961
 10
-12.8733778137
 20
-11.2897161659
 10
-12.8663298966
 20
-11.2930133031
 10
-12.8593576456
 20
-11.2965529563
 10
-12.8524457987
 20
-11.3003484742
  0
LWPOLYLINE
  5
2E4
100
AcDbEntity
  8
0
100
AcDbPolyline
 62
253
  6
CONTINUOUS
 90
42
 70
0
 10
-12.3019360905
 20
-11.9139348629
 10
-12.3047334177
 20
-11.9185916179
 10
-12.3076370126
 20
-11.9231546809
 10
-12.3106476724
 20
-11.9276310864
 10
-12.3137661943
 20
-11.9320278695
 10
-12.3169933755
 20
-11.9363520649
 10
-12.320330013
 20
-11.9406107074
 10
-12.3244792657
 20
-11.9456423128
 10
-12.3287867582
 20
-11.9505889639
 10
-12.333251965
 20
-11.9554499722
 10
-12.3378743608
 20
-11.9602246493
 10
-12.3426534203
 20
-11.9649123069
 10
-12.3475871018
 20
-11.9695110488
 10
-12.352667299
 20
-11.9740141475
 10
-12.3578843891
 20
-11.978413668
 10
-12.3632287496
 20
-11.9827016749
 10
-12.3686907578
 20
-11.9868702331
 10
-12.3742614177
 20
-11.9909122399
 10
-12.3799342399
 20
-11.9948239225
 10
-12.3857033618
 20
-11.9986023406
 10
-12.3915629208
 20
-12.0022445539
 10
-12.3975070542
 20
-12.0057476222
 10
-12.4035299003
 20
-12.009108508
 10
-12.4096256017
 20
-12.0123237844
 10
-12.415788302
 20
-12.0153899275
 10
-12.4220121449
 20
-12.0183034133
 10
-12.4282912738
 20
-12.0210607177
 10
-12.4346187942
 20
-12.0236582416
 10
-12.4409836592
 20
-12.0260920846
 10
-12.4473737835
 20
-12.0283582713
 10
-12.4537770821
 20
-12.030452826
 10
-12.4601814696
 20
-12.0323717732
 10
-12.4665767961
 20
-12.0341118831
 10
-12.4729606515
 20
-12.0356729085
 10
-12.4793325608
 20
-12.0370553478
 10
-12.4856920492
 20
-12.0382596994
 10
-12.4920386416
 20
-12.0392864617
 10
-12.4983737551
 20
-12.0401353478
 10
-12.5047063742
 20
-12.0408029286
 10
-12.5110473753
 20
-12.0412849899
 10
-12.5174076348
 20
-12.0415773172
 10
-12.5237980293
 20
-12.0416756962
  0
LINE
  5
2E5
100
AcDbEntity
  8
ASSI
100
AcDbLine
 62
253
  6
CONTINUOUS
 10
-21.8980039062
 20
-22.1951456712
 11
-21.7971923691
 21
-22.0438515026
  0
LINE
  5
2E6
100
AcDbEntity
  8
ASSI
100
AcDbLine
 62
253
  6
CONTINUOUS
 10
22.274777899
 20
-0.3368411094
 11
22.0925861026
 21
-0.3823717132
  0
LINE
  5
2E7
100
AcDbEntity
  8
ASSI
100
AcDbLine
 62
253
  6
CONTINUOUS
 10
22.0247016973
 20
-0.0869077307
 11
21.8427382991
 21
-0.1323812567
  0
LINE
  5
2E8
100
AcDbEntity
  8
ASSI
100
AcDbLine
 62
253
  6
CONTINUOUS
 10
-22.2430303046
 20
-0.3823717132
 11
-22.425222101
 21
-0.3368411094
  0
LINE
  5
2E9
100
AcDbEntity
  8
ASSI
100
AcDbLine
 62
253
  6
CONTINUOUS
 10
-21.9931825011
 20
-0.1323812567
 11
-22.1751458993
 21
-0.0869077307
  0
LINE
  5
2EA
100
AcDbEntity
  8
ASSI
100
AcDbLine
 62
253
  6
CONTINUOUS
 10
-21.7971923691
 20
22.0700360412
 11
-21.8980039062
 21
22.2213302099
  0
LWPOLYLINE
  5
2EB
100
AcDbEntity
  8
0
100
AcDbPolyline
 62
253
  6
CONTINUOUS
 90
53
 70
0
 10
-10.3278269742
 20
-13.053689307
 10
-10.3238484307
 20
-13.0470666251
 10
-10.3196940353
 20
-13.0406291577
 10
-10.3153575293
 20
-13.0343583713
 10
-10.3108326539
 20
-13.0282357329
 10
-10.3061131505
 20
-13.0222427092
 10
-10.3011938713
 20
-13.0163646625
 10
-10.2960741127
 20
-13.0106025373
 10
-10.290754282
 20
-13.0049611739
 10
-10.2852347866
 20
-12.9994454124
 10
-10.2795160337
 20
-12.994060093
 10
-10.2735993346
 20
-12.9888109223
 10
-10.2674896149
 20
-12.9837070731
 10
-10.2611927043
 20
-12.9787585849
 10
-10.2547144323
 20
-12.9739754969
 10
-10.2480606284
 20
-12.9693678487
 10
-10.2423881669
 20
-12.9656703022
 10
-10.2366147674
 20
-12.9621127774
 10
-10.2307573406
 20
-12.9587064909
 10
-10.2248280055
 20
-12.9554601311
 10
-10.2188197129
 20
-12.9523722733
 10
-10.2127206218
 20
-12.9494389642
 10
-10.2052707615
 20
-12.9461205934
 10
-10.1976860905
 20
-12.9430312185
 10
-10.1899795994
 20
-12.9401829778
 10
-10.1821642786
 20
-12.9375880094
 10
-10.1742531184
 20
-12.9352584517
 10
-10.1662592497
 20
-12.9332040519
 10
-10.1581963643
 20
-12.9314249945
 10
-10.1500782942
 20
-12.9299190729
 10
-10.1419188717
 20
-12.9286840806
 10
-10.1337319289
 20
-12.9277178112
 10
-10.1268950156
 20
-12.9271163025
 10
-10.1200360956
 20
-12.9266987971
 10
-10.1131426678
 20
-12.9264642174
 10
-10.1062089068
 20
-12.9264116167
 10
-10.0992556894
 20
-12.9265405709
 10
-10.0923105681
 20
-12.9268507868
 10
-10.0840202991
 20
-12.9274607339
 10
-10.0757953488
 20
-12.9283237823
 10
-10.067649702
 20
-12.929432439
 10
-10.0595973435
 20
-12.9307792109
 10
-10.051652258
 20
-12.9323566048
 10
-10.0438261125
 20
-12.9341576558
 10
-10.0361213023
 20
-12.9361775113
 10
-10.0285379049
 20
-12.9384118467
 10
-10.0210759976
 20
-12.9408563377
 10
-10.013735658
 20
-12.9435066595
 10
-10.0065144156
 20
-12.9463614296
 10
-9.9993996088
 20
-12.9494310316
 10
-9.9923760279
 20
-12.9527287911
 10
-9.9854284632
 20
-12.9562680337
 10
-9.9785417053
 20
-12.9600620848
  0
LWPOLYLINE
  5
2EC
100
AcDbEntity
  8
ASSI
100
AcDbPolyline
 62
253
  6
CONTINUOUS
 90
8
 70
0
 10
21.8427382991
 20
-0.1323812567
 10
21.8423612497
 20
-0.1324469575
 10
21.8417593683
 20
-0.1325124155
 10
21.8409326548
 20
-0.1325776309
 10
21.839879949
 20
-0.1326426635
 10
21.8386024111
 20
-0.1327074533
 10
21.8371035218
 20
-0.1327718206
 10
21.8353826816
 20
-0.132835763
  0
LINE
  5
2ED
100
AcDbEntity
  8
ASSI
100
AcDbLine
 62
7
  6
CONTINUOUS
 10
19.6872438896
 20
-0.0869077307
 11
19.424777899
 21
-0.113088334
  0
LWPOLYLINE
  5
2EE
100
AcDbEntity
  8
ASSI
100
AcDbPolyline
 62
253
  6
CONTINUOUS
 90
5
 70
0
 10
22.0925861026
 20
-0.3823717243
 10
22.0918341737
 20
-0.3824433979
 10
22.0906297657
 20
-0.3825148308
 10
22.0889739756
 20
-0.3825860121
 10
22.0868683199
 20
-0.3826569832
  0
LINE
  5
2EF
100
AcDbEntity
  8
ASSI
100
AcDbLine
 62
7
  6
CONTINUOUS
 10
-19.8376880916
 20
-0.0869077307
 11
-19.575222101
 21
-0.113088334
  0
LWPOLYLINE
  5
2F0
100
AcDbEntity
  8
0
100
AcDbPolyline
 62
253
  6
CONTINUOUS
 90
53
 70
0
 10
-13.3916670316
 20
10.390639917
 10
-13.3970643544
 20
10.396236555
 10
-13.4022348512
 20
10.4019544621
 10
-13.4071949861
 20
10.4078045698
 10
-13.4119612229
 20
10.4137978097
 10
-13.4165500255
 20
10.4199451131
 10
-13.4209743563
 20
10.4262553516
 10
-13.4252331716
 20
10.4327291557
 10
-13.4293219263
 20
10.4393650962
 10
-13.4332360752
 20
10.4461617435
 10
-13.4369710731
 20
10.4531176683
 10
-13.4405217219
 20
10.4602302448
 10
-13.4438802105
 20
10.4674920621
 10
-13.4470380751
 20
10.4748945128
 10
-13.4499868517
 20
10.4824289897
 10
-13.4527180764
 20
10.4900868855
 10
-13.4548215291
 20
10.4965540148
 10
-13.4567614727
 20
10.5030807792
 10
-13.4585313536
 20
10.5096470832
 10
-13.4601258646
 20
10.5162382646
 10
-13.461544685
 20
10.5228613935
 10
-13.4627887408
 20
10.5295289729
 10
-13.4640506298
 20
10.5376001781
 10
-13.4650542371
 20
10.5457379882
 10
-13.4657916092
 20
10.5539269951
 10
-13.4662547923
 20
10.5621517909
 10
-13.4664358328
 20
10.5703969674
 10
-13.4663291251
 20
10.5786474888
 10
-13.4659384572
 20
10.5868898078
 10
-13.4652699649
 20
10.5951107495
 10
-13.4643297844
 20
10.6032971389
 10
-13.4631240516
 20
10.611435801
 10
-13.4619199033
 20
10.6181753966
 10
-13.460533483
 20
10.6248851186
 10
-13.4589626687
 20
10.6315773867
 10
-13.4572069325
 20
10.6382581976
 10
-13.4552721215
 20
10.644907856
 10
-13.4531656766
 20
10.6515002433
 10
-13.450421511
 20
10.6593043634
 10
-13.4474516531
 20
10.6669770351
 10
-13.4442668483
 20
10.6745068908
 10
-13.4408778421
 20
10.6818825627
 10
-13.4372953797
 20
10.6890926831
 10
-13.4335291183
 20
10.6961279339
 10
-13.4295843608
 20
10.702987195
 10
-13.4254653223
 20
10.709671396
 10
-13.4211762173
 20
10.7161814665
 10
-13.4167212608
 20
10.7225183361
 10
-13.412101154
 20
10.7286846293
 10
-13.407302544
 20
10.734689751
 10
-13.4023085645
 20
10.7405448007
 10
-13.3971023491
 20
10.7462608784
 10
-13.3916670316
 20
10.7518490836
  0
LWPOLYLINE
  5
2F1
100
AcDbEntity
  8
0
100
AcDbPolyline
 62
253
  6
CONTINUOUS
 90
42
 70
0
 10
-9.4275381083
 20
-13.5733662514
 10
-9.4303414054
 20
-13.5780760031
 10
-9.4332547007
 20
-13.5826875457
 10
-9.4362784133
 20
-13.5872080123
 10
-9.439412962
 20
-13.5916445362
 10
-9.442658766
 20
-13.5960042508
 10
-9.4460162442
 20
-13.6002942893
 10
-9.450192992
 20
-13.6053583
 10
-9.4545305218
 20
-13.6103319341
 10
-9.4590282012
 20
-13.6152148769
 10
-9.4636853981
 20
-13.6200068135
 10
-9.4685014799
 20
-13.6247074289
 10
-9.4734742253
 20
-13.6293151319
 10
-9.4785950555
 20
-13.6338232263
 10
-9.4838538024
 20
-13.6382237393
 10
-9.489240298
 20
-13.6425086982
 10
-9.4947443744
 20
-13.6466701305
 10
-9.5003564015
 20
-13.6507008995
 10
-9.506068901
 20
-13.6545972134
 10
-9.5118749328
 20
-13.6583561165
 10
-9.5177675566
 20
-13.6619746531
 10
-9.523739832
 20
-13.6654498674
 10
-9.5297850753
 20
-13.6687788488
 10
-9.5358976279
 20
-13.6719588677
 10
-9.5420720875
 20
-13.6749872394
 10
-9.5483030519
 20
-13.6778612792
 10
-9.5545851188
 20
-13.6805783026
 10
-9.5609117803
 20
-13.6831354729
 10
-9.5672721046
 20
-13.6855293451
 10
-9.5736540541
 20
-13.6877563222
 10
-9.5800455913
 20
-13.6898128071
 10
-9.5864346786
 20
-13.6916952029
 10
-9.5928111705
 20
-13.6934006439
 10
-9.5991724893
 20
-13.6949291906
 10
-9.6055179497
 20
-13.6962816347
 10
-9.611846866
 20
-13.6974587682
 10
-9.6181585527
 20
-13.6984613829
 10
-9.6244542933
 20
-13.6992895122
 10
-9.6307432467
 20
-13.6999401558
 10
-9.6370365412
 20
-13.7004095549
 10
-9.6433453048
 20
-13.7006939508
 10
-9.6496806656
 20
-13.7007895847
  0
LINE
  5
2F2
100
AcDbEntity
  8
ASSI
100
AcDbLine
 62
253
  6
CONTINUOUS
 10
21.8353826816
 20
-0.132835763
 11
21.831282227
 21
-0.1329622072
  0
LINE
  5
2F3
100
AcDbEntity
  8
ASSI
100
AcDbLine
 62
253
  6
CONTINUOUS
 10
21.831282227
 20
-0.1329622072
 11
21.8263163101
 21
-0.1330862651
  0
LINE
  5
2F4
100
AcDbEntity
  8
ASSI
100
AcDbLine
 62
253
  6
CONTINUOUS
 10
22.0868683199
 20
-0.3826569832
 11
22.0813154135
 21
-0.3827979379
  0
LINE
  5
2F5
100
AcDbEntity
  8
ASSI
100
AcDbLine
 62
253
  6
CONTINUOUS
 10
21.8263163101
 20
-0.1330862651
 11
21.8172880329
 21
-0.1332668744
  0
LINE
  5
2F6
100
AcDbEntity
  8
ASSI
100
AcDbLine
 62
253
  6
CONTINUOUS
 10
22.0813154135
 20
-0.3827979379
 11
22.0739909489
 21
-0.3829370873
  0
LINE
  5
2F7
100
AcDbEntity
  8
ASSI
100
AcDbLine
 62
253
  6
CONTINUOUS
 10
21.8172880329
 20
-0.1332668744
 11
21.7982187324
 21
-0.1335497263
  0
LINE
  5
2F8
100
AcDbEntity
  8
ASSI
100
AcDbLine
 62
253
  6
CONTINUOUS
 10
22.0739909489
 20
-0.3829370873
 11
22.0541404249
 21
-0.3832078737
  0
LINE
  5
2F9
100
AcDbEntity
  8
ASSI
100
AcDbLine
 62
253
  6
CONTINUOUS
 10
21.7982187324
 20
-0.1335497263
 11
21.758256579
 21
-0.1339413433
  0
LINE
  5
2FA
100
AcDbEntity
  8
ASSI
100
AcDbLine
 62
253
  6
CONTINUOUS
 10
22.0541404249
 20
-0.3832078737
 11
21.9947680938
 21
-0.3837061555
  0
LINE
  5
2FB
100
AcDbEntity
  8
ASSI
100
AcDbLine
 62
253
  6
CONTINUOUS
 10
21.758256579
 20
-0.1339413433
 11
21.6742006302
 21
-0.1343682002
  0
LINE
  5
2FC
100
AcDbEntity
  8
ASSI
100
AcDbLine
 62
253
  6
CONTINUOUS
 10
21.9947680938
 20
-0.3837061555
 11
21.7696733379
 21
-0.3845199097
  0
LINE
  5
2FD
100
AcDbEntity
  8
ASSI
100
AcDbLine
 62
253
  6
CONTINUOUS
 10
-21.8849719516
 20
0.1602874367
 11
-21.7808349657
 21
0.1606466706
  0
LINE
  5
2FE
100
AcDbEntity
  8
ASSI
100
AcDbLine
 62
253
  6
CONTINUOUS
 10
21.6742006302
 20
-0.1343682002
 11
21.5928906451
 21
-0.1344868189
  0
LINE
  5
2FF
100
AcDbEntity
  8
ASSI
100
AcDbLine
 62
253
  6
CONTINUOUS
 10
-21.7808349657
 20
0.1606466706
 11
-21.7433348471
 21
0.1606713575
  0
LINE
  5
300
100
AcDbEntity
  8
ASSI
100
AcDbLine
 62
253
  6
CONTINUOUS
 10
21.7696733379
 20
-0.3845199097
 11
-21.7433321639
 21
-0.3846761841
  0
LINE
  5
301
100
AcDbEntity
  8
ASSI
100
AcDbLine
 62
7
  6
CONTINUOUS
 10
21.5928906451
 20
-0.1344868189
 11
-21.7433348471
 21
-0.1344868189
  0
LINE
  5
302
100
AcDbEntity
  8
ASSI
100
AcDbLine
 62
7
  6
CONTINUOUS
 10
19.424777899
 20
-0.113088334
 11
-19.575222101
 21
-0.113088334
  0
LINE
  5
303
100
AcDbEntity
  8
ASSI
100
AcDbLine
 62
7
  6
CONTINUOUS
 10
22.0247016973
 20
-0.0869077307
 11
19.6872438896
 21
-0.0869077307
  0
LINE
  5
304
100
AcDbEntity
  8
ASSI
100
AcDbLine
 62
7
  6
CONTINUOUS
 10
-19.8376880916
 20
-0.0869077307
 11
-22.1751458993
 21
-0.0869077307
  0
LINE
  5
305
100
AcDbEntity
  8
ASSI
100
AcDbLine
 62
7
  6
CONTINUOUS
 10
-22.1751458993
 20
0.1130922693
 11
-19.8376880916
 21
0.1130922693
  0
LINE
  5
306
100
AcDbEntity
  8
ASSI
100
AcDbLine
 62
7
  6
CONTINUOUS
 10
19.6872438896
 20
0.1130922693
 11
22.0247016973
 21
0.1130922693
  0
LINE
  5
307
100
AcDbEntity
  8
ASSI
100
AcDbLine
 62
7
  6
CONTINUOUS
 10
-19.575222101
 20
0.1392728727
 11
19.424777899
 21
0.1392728727
  0
LINE
  5
308
100
AcDbEntity
  8
ASSI
100
AcDbLine
 62
7
  6
CONTINUOUS
 10
-21.7433348471
 20
0.1606713575
 11
21.5928906451
 21
0.1606713575
  0
LINE
  5
309
100
AcDbEntity
  8
ASSI
100
AcDbLine
 62
253
  6
CONTINUOUS
 10
-21.7433348471
 20
-0.1344868189
 11
-21.8591846816
 21
-0.134238428
  0
LINE
  5
30A
100
AcDbEntity
  8
ASSI
100
AcDbLine
 62
253
  6
CONTINUOUS
 10
21.5928906451
 20
0.1606713575
 11
21.7087404796
 21
0.1604229667
  0
LINE
  5
30B
100
AcDbEntity
  8
ASSI
100
AcDbLine
 62
253
  6
CONTINUOUS
 10
-21.7433321639
 20
-0.3846761849
 11
-22.126576594
 21
-0.383819006
  0
LINE
  5
30C
100
AcDbEntity
  8
ASSI
100
AcDbLine
 62
253
  6
CONTINUOUS
 10
21.7087404796
 20
0.1604229667
 11
21.7345277496
 21
0.1602874367
  0
LINE
  5
30D
100
AcDbEntity
  8
ASSI
100
AcDbLine
 62
253
  6
CONTINUOUS
 10
-21.8591846816
 20
-0.134238428
 11
-21.924943212
 21
-0.1338044625
  0
LINE
  5
30E
100
AcDbEntity
  8
ASSI
100
AcDbLine
 62
253
  6
CONTINUOUS
 10
-22.126576594
 20
-0.383819006
 11
-22.1985640458
 21
-0.3832736439
  0
LINE
  5
30F
100
AcDbEntity
  8
ASSI
100
AcDbLine
 62
253
  6
CONTINUOUS
 10
-21.924943212
 20
-0.1338044625
 11
-21.9568733894
 21
-0.1334396394
  0
LINE
  5
310
100
AcDbEntity
  8
ASSI
100
AcDbLine
 62
253
  6
CONTINUOUS
 10
-22.1985640458
 20
-0.3832736439
 11
-22.2201166752
 21
-0.3830057984
  0
LINE
  5
311
100
AcDbEntity
  8
ASSI
100
AcDbLine
 62
253
  6
CONTINUOUS
 10
-22.2201166752
 20
-0.3830057984
 11
-22.2283173188
 21
-0.3828677438
  0
LINE
  5
312
100
AcDbEntity
  8
ASSI
100
AcDbLine
 62
253
  6
CONTINUOUS
 10
-21.9568733894
 20
-0.1334396394
 11
-21.9709508764
 21
-0.1332074353
  0
LWPOLYLINE
  5
313
100
AcDbEntity
  8
ASSI
100
AcDbPolyline
 62
253
  6
CONTINUOUS
 90
7
 70
0
 10
-22.2283173188
 20
-0.3828677438
 10
-22.2347589086
 20
-0.382727681
 10
-22.2373125219
 20
-0.3826569832
 10
-22.2394181776
 20
-0.3825860121
 10
-22.2410739677
 20
-0.3825148308
 10
-22.2422783757
 20
-0.3824433979
 10
-22.2430303046
 20
-0.3823717243
  0
LINE
  5
314
100
AcDbEntity
  8
ASSI
100
AcDbLine
 62
253
  6
CONTINUOUS
 10
-21.9709508764
 20
-0.1332074353
 11
-21.9793515064
 21
-0.133024534
  0
LWPOLYLINE
  5
315
100
AcDbEntity
  8
ASSI
100
AcDbPolyline
 62
253
  6
CONTINUOUS
 90
10
 70
0
 10
-21.9793515064
 20
-0.133024534
 10
-21.9838846921
 20
-0.1328992829
 10
-21.9858268836
 20
-0.132835763
 10
-21.9875477238
 20
-0.1327718206
 10
-21.989046613
 20
-0.1327074533
 10
-21.9903241509
 20
-0.1326426635
 10
-21.9913768568
 20
-0.1325776309
 10
-21.9922035703
 20
-0.1325124155
 10
-21.9928054517
 20
-0.1324469575
 10
-21.9931825011
 20
-0.1323812567
  0
LWPOLYLINE
  5
316
100
AcDbEntity
  8
0
100
AcDbPolyline
 62
253
  6
CONTINUOUS
 90
53
 70
0
 10
-12.2723737268
 20
11.5099332501
 10
-12.2669814787
 20
11.5043559921
 10
-12.2618146522
 20
11.4986572065
 10
-12.2568567835
 20
11.4928258691
 10
-12.252091409
 20
11.4868509556
 10
-12.2475020647
 20
11.4807214419
 10
-12.2430758056
 20
11.4744283975
 10
-12.2388137605
 20
11.4679712668
 10
-12.2347205767
 20
11.4613515878
 10
-12.2308009018
 20
11.4545708988
 10
-12.2270593831
 20
11.4476307379
 10
-12.2235012967
 20
11.4405337865
 10
-12.2201344332
 20
11.433287299
 10
-12.2169672119
 20
11.4258996731
 10
-12.2140080519
 20
11.4183793064
 10
-12.2112653725
 20
11.4107345968
 10
-12.2091515331
 20
11.4042775479
 10
-12.2072004589
 20
11.3977596508
 10
-12.2054187348
 20
11.3912005751
 10
-12.2038117145
 20
11.3846146106
 10
-12.2023798262
 20
11.3779945287
 10
-12.2011222669
 20
11.3713277215
 10
-12.1998438002
 20
11.3632543706
 10
-12.1988235481
 20
11.355111277
 10
-12.1980698478
 20
11.3469141382
 10
-12.1975910363
 20
11.3386786518
 10
-12.1973954507
 20
11.3304205153
 10
-12.1974890404
 20
11.3221549856
 10
-12.1978682032
 20
11.3138955571
 10
-12.1985269491
 20
11.3056552838
 10
-12.1994592884
 20
11.2974472196
 10
-12.200659231
 20
11.2892844183
 10
-12.2018602205
 20
11.2825227364
 10
-12.2032450573
 20
11.2757890603
 10
-12.2048159126
 20
11.2690708979
 10
-12.2065733425
 20
11.2623622628
 10
-12.2085114433
 20
11.255683191
 10
-12.2106226959
 20
11.2490602239
 10
-12.2133745152
 20
11.2412183733
 10
-12.2163539077
 20
11.233507084
 10
-12.2195499352
 20
11.2259379066
 10
-12.2229516593
 20
11.2185223917
 10
-12.2265481418
 20
11.2112720899
 10
-12.230329557
 20
11.2041964576
 10
-12.2342905288
 20
11.1972965747
 10
-12.2384267937
 20
11.1905714269
 10
-12.2427340881
 20
11.1840200001
 10
-12.2472081486
 20
11.1776412798
 10
-12.2518482555
 20
11.1714325423
 10
-12.2566678659
 20
11.1653842256
 10
-12.2616839806
 20
11.1594850579
 10
-12.2669136006
 20
11.1537237678
 10
-12.2723737268
 20
11.1480890835
  0
LINE
  5
317
100
AcDbEntity
  8
ASSI
100
AcDbLine
 62
7
  6
CONTINUOUS
 10
-19.8376880916
 20
0.1130922693
 11
-19.575222101
 21
0.1392728727
  0
LINE
  5
318
100
AcDbEntity
  8
ASSI
100
AcDbLine
 62
253
  6
CONTINUOUS
 10
-21.9858268836
 20
0.1590203017
 11
-21.9817264289
 21
0.1591467458
  0
LINE
  5
319
100
AcDbEntity
  8
ASSI
100
AcDbLine
 62
253
  6
CONTINUOUS
 10
-21.9817264289
 20
0.1591467458
 11
-21.9767605121
 21
0.1592708038
  0
LINE
  5
31A
100
AcDbEntity
  8
ASSI
100
AcDbLine
 62
253
  6
CONTINUOUS
 10
-22.2373125219
 20
0.4088415218
 11
-22.2317596155
 21
0.4089824766
  0
LINE
  5
31B
100
AcDbEntity
  8
ASSI
100
AcDbLine
 62
253
  6
CONTINUOUS
 10
-21.9767605121
 20
0.1592708038
 11
-21.9677322349
 21
0.159451413
  0
LINE
  5
31C
100
AcDbEntity
  8
ASSI
100
AcDbLine
 62
253
  6
CONTINUOUS
 10
-22.2317596155
 20
0.4089824766
 11
-22.2244351509
 21
0.4091216259
  0
LINE
  5
31D
100
AcDbEntity
  8
ASSI
100
AcDbLine
 62
253
  6
CONTINUOUS
 10
-21.9677322349
 20
0.159451413
 11
-21.9486629344
 21
0.159734265
  0
LINE
  5
31E
100
AcDbEntity
  8
ASSI
100
AcDbLine
 62
253
  6
CONTINUOUS
 10
-22.2244351509
 20
0.4091216259
 11
-22.2045846269
 21
0.4093924123
  0
LINE
  5
31F
100
AcDbEntity
  8
ASSI
100
AcDbLine
 62
253
  6
CONTINUOUS
 10
-21.9486629344
 20
0.159734265
 11
-21.908700781
 21
0.160125882
  0
LINE
  5
320
100
AcDbEntity
  8
ASSI
100
AcDbLine
 62
253
  6
CONTINUOUS
 10
-22.2045846269
 20
0.4093924123
 11
-22.1452122958
 21
0.4098906941
  0
LINE
  5
321
100
AcDbEntity
  8
ASSI
100
AcDbLine
 62
253
  6
CONTINUOUS
 10
-21.908700781
 20
0.160125882
 11
-21.8849719516
 21
0.1602874367
  0
LINE
  5
322
100
AcDbEntity
  8
ASSI
100
AcDbLine
 62
253
  6
CONTINUOUS
 10
-22.1452122958
 20
0.4098906941
 11
-21.9201175399
 21
0.4107044484
  0
LINE
  5
323
100
AcDbEntity
  8
ASSI
100
AcDbLine
 62
253
  6
CONTINUOUS
 10
-21.9201175399
 20
0.4107044484
 11
21.9347640023
 21
0.4102123706
  0
LINE
  5
324
100
AcDbEntity
  8
ASSI
100
AcDbLine
 62
253
  6
CONTINUOUS
 10
21.9347640023
 20
0.4102123706
 11
22.0348459894
 21
0.4095870597
  0
LINE
  5
325
100
AcDbEntity
  8
ASSI
100
AcDbLine
 62
253
  6
CONTINUOUS
 10
21.7345277496
 20
0.1602874367
 11
21.7845132209
 21
0.1598908619
  0
LINE
  5
326
100
AcDbEntity
  8
ASSI
100
AcDbLine
 62
253
  6
CONTINUOUS
 10
22.0348459894
 20
0.4095870597
 11
22.0649216314
 21
0.4092584028
  0
LINE
  5
327
100
AcDbEntity
  8
ASSI
100
AcDbLine
 62
253
  6
CONTINUOUS
 10
21.7845132209
 20
0.1598908619
 11
21.8102492894
 21
0.159567515
  0
LINE
  5
328
100
AcDbEntity
  8
ASSI
100
AcDbLine
 62
253
  6
CONTINUOUS
 10
22.0649216314
 20
0.4092584028
 11
22.0778731168
 21
0.4090522825
  0
LINE
  5
329
100
AcDbEntity
  8
ASSI
100
AcDbLine
 62
253
  6
CONTINUOUS
 10
21.8102492894
 20
0.159567515
 11
21.8235162872
 21
0.1593317716
  0
LWPOLYLINE
  5
32A
100
AcDbEntity
  8
ASSI
100
AcDbPolyline
 62
253
  6
CONTINUOUS
 90
7
 70
0
 10
22.0778731168
 20
0.4090522825
 10
22.0843147066
 20
0.4089122197
 10
22.0868683199
 20
0.4088415218
 10
22.0889739756
 20
0.4087705507
 10
22.0906297657
 20
0.4086993695
 10
22.0918341737
 20
0.4086279366
 10
22.0925861026
 20
0.4085562629
  0
LINE
  5
32B
100
AcDbEntity
  8
ASSI
100
AcDbLine
 62
253
  6
CONTINUOUS
 10
21.8235162872
 20
0.1593317716
 11
21.8289073044
 21
0.1592090726
  0
LWPOLYLINE
  5
32C
100
AcDbEntity
  8
ASSI
100
AcDbPolyline
 62
253
  6
CONTINUOUS
 90
10
 70
0
 10
21.8289073044
 20
0.1592090726
 10
21.8334404901
 20
0.1590838216
 10
21.8353826816
 20
0.1590203017
 10
21.8371035218
 20
0.1589563592
 10
21.8386024111
 20
0.158891992
 10
21.839879949
 20
0.1588272021
 10
21.8409326548
 20
0.1587621695
 10
21.8417593683
 20
0.1586969542
 10
21.8423612497
 20
0.1586314961
 10
21.8427382991
 20
0.1585657953
  0
LINE
  5
32D
100
AcDbEntity
  8
ASSI
100
AcDbLine
 62
7
  6
CONTINUOUS
 10
19.6872438896
 20
0.1130922693
 11
19.424777899
 21
0.1392728727
  0
LINE
  5
32E
100
AcDbEntity
  8
0
100
AcDbLine
 62
253
  6
CONTINUOUS
 10
-9.5257152878
 20
10.390639917
 11
-10.2832009998
 21
11.1480890835
  0
LINE
  5
32F
100
AcDbEntity
  8
0
100
AcDbLine
 62
253
  6
CONTINUOUS
 10
-13.029681763
 20
14.6179407493
 11
-12.2723737268
 21
13.8608090828
  0
LINE
  5
330
100
AcDbEntity
  8
0
100
AcDbLine
 62
253
  6
CONTINUOUS
 10
-12.6341826064
 20
13.4989649162
 11
-13.3916670316
 21
14.2567315827
  0
LINE
  5
331
100
AcDbEntity
  8
0
100
AcDbLine
 62
253
  6
CONTINUOUS
 10
-9.9216743423
 20
11.5099332501
 11
-9.1640488061
 21
10.7518490836
  0
LWPOLYLINE
  5
332
100
AcDbEntity
  8
0
100
AcDbPolyline
 62
253
  6
CONTINUOUS
 90
53
 70
0
 10
-9.1640488061
 20
10.7518490836
 10
-9.1586663448
 20
10.7463270541
 10
-9.1535093488
 20
10.7406813167
 10
-9.1485612999
 20
10.734901051
 10
-9.1438056799
 20
10.7289754361
 10
-9.1392259708
 20
10.7228936514
 10
-9.1348091766
 20
10.7166469696
 10
-9.1305563901
 20
10.7102350375
 10
-9.126472226
 20
10.7036595954
 10
-9.1225612993
 20
10.6969223836
 10
-9.1188282248
 20
10.6900251422
 10
-9.1152782124
 20
10.6829706895
 10
-9.1119188508
 20
10.6757661549
 10
-9.1087583239
 20
10.6684197456
 10
-9.1058048155
 20
10.660939669
 10
-9.1030665093
 20
10.6533341325
 10
-9.1009551752
 20
10.6469086798
 10
-9.0990054638
 20
10.6404210158
 10
-9.0972238689
 20
10.6338903547
 10
-9.0956156796
 20
10.627330612
 10
-9.0941813678
 20
10.6207345086
 10
-9.092920201
 20
10.6140894666
 10
-9.0916359513
 20
10.6060393889
 10
-9.0906084933
 20
10.5979166792
 10
-9.0898463449
 20
10.5897372889
 10
-9.0893580239
 20
10.5815171695
 10
-9.0891520482
 20
10.5732722724
 10
-9.0892345631
 20
10.565018031
 10
-9.0896022235
 20
10.5567678071
 10
-9.0902493116
 20
10.5485344444
 10
-9.0911701097
 20
10.5403307863
 10
-9.0923589
 20
10.5321696767
 10
-9.0935510799
 20
10.5254072017
 10
-9.0949276664
 20
10.5186707138
 10
-9.096490931
 20
10.5119477334
 10
-9.0982415153
 20
10.5052323404
 10
-9.1001735415
 20
10.4985448528
 10
-9.1022795016
 20
10.4919121484
 10
-9.105026003
 20
10.4840572689
 10
-9.108001149
 20
10.4763316763
 10
-9.1111939303
 20
10.4687470659
 10
-9.1145933379
 20
10.461315133
 10
-9.1181883625
 20
10.4540475732
 10
-9.1219691262
 20
10.446953948
 10
-9.1259302758
 20
10.4400352837
 10
-9.130067589
 20
10.4332904729
 10
-9.134376844
 20
10.4267184082
 10
-9.1388538186
 20
10.4203179821
 10
-9.1434978275
 20
10.4140863932
 10
-9.1483223323
 20
10.4080140638
 10
-9.1533443314
 20
10.4020897224
 10
-9.1585808232
 20
10.3963020974
 10
-9.1640488061
 20
10.390639917
  0
LWPOLYLINE
  5
333
100
AcDbEntity
  8
0
100
AcDbPolyline
 62
253
  6
CONTINUOUS
 90
53
 70
0
 10
-13.3916670316
 20
14.2567315827
 10
-13.3970434646
 20
14.2622590507
 10
-13.4021946492
 20
14.2679101169
 10
-13.4071370064
 20
14.2736955405
 10
-13.4118869574
 20
14.2796260812
 10
-13.4164609231
 20
14.2857124983
 10
-13.4208718273
 20
14.2919634777
 10
-13.4251186035
 20
14.2983794104
 10
-13.4291966876
 20
14.304958614
 10
-13.4331015158
 20
14.3116994059
 10
-13.4368285241
 20
14.3186001036
 10
-13.4403725459
 20
14.3256579327
 10
-13.4437260031
 20
14.3328657512
 10
-13.4468807151
 20
14.3402153251
 10
-13.4498285013
 20
14.3476984205
 10
-13.4525611809
 20
14.3553068035
 10
-13.4546679047
 20
14.3617344678
 10
-13.4566130942
 20
14.3682241318
 10
-13.4583902758
 20
14.3747565082
 10
-13.4599941816
 20
14.3813176264
 10
-13.4614243655
 20
14.3879147838
 10
-13.4626815872
 20
14.3945605945
 10
-13.4639613864
 20
14.4026112619
 10
-13.4649847685
 20
14.4107342185
 10
-13.4657432883
 20
14.4189135283
 10
-13.4662285003
 20
14.427133255
 10
-13.4664319593
 20
14.4353774625
 10
-13.4663475815
 20
14.4436307268
 10
-13.46597873
 20
14.4518796726
 10
-13.4653311295
 20
14.460111437
 10
-13.4644105046
 20
14.4683131567
 10
-13.4632225803
 20
14.4764719689
 10
-13.4620316538
 20
14.4832322518
 10
-13.4606567972
 20
14.4899663385
 10
-13.4590957293
 20
14.4966867626
 10
-13.4573477975
 20
14.5033994913
 10
-13.4554188617
 20
14.5100842276
 10
-13.4533164103
 20
14.5167141083
 10
-13.4505746469
 20
14.5245655226
 10
-13.4476047953
 20
14.5322875841
 10
-13.4444178464
 20
14.5398686151
 10
-13.4410247914
 20
14.5472969377
 10
-13.4374366212
 20
14.5545608742
 10
-13.4336631902
 20
14.561650889
 10
-13.429709807
 20
14.5685660143
 10
-13.4255806434
 20
14.5753074246
 10
-13.4212798713
 20
14.5818762941
 10
-13.4168116627
 20
14.5882737973
 10
-13.4121766848
 20
14.5945027792
 10
-13.4073615876
 20
14.6005727672
 10
-13.4023495161
 20
14.6064949595
 10
-13.3971236157
 20
14.6122805541
 10
-13.3916670316
 20
14.6179407493
  0
LWPOLYLINE
  5
334
100
AcDbEntity
  8
0
100
AcDbPolyline
 62
253
  6
CONTINUOUS
 90
53
 70
0
 10
-10.2832009998
 20
13.4989649162
 10
-10.2885880015
 20
13.5045197475
 10
-10.2937499278
 20
13.5101970315
 10
-10.2987032311
 20
13.5160077154
 10
-10.3034643642
 20
13.5219627462
 10
-10.3080497798
 20
13.528073071
 10
-10.3124724147
 20
13.5343475437
 10
-10.3167311425
 20
13.5407866462
 10
-10.3208213209
 20
13.547388767
 10
-10.3247383079
 20
13.5541522948
 10
-10.3284774611
 20
13.5610756182
 10
-10.3320335236
 20
13.5681560119
 10
-10.3353987789
 20
13.5753862941
 10
-10.3385648959
 20
13.5827581692
 10
-10.3415235435
 20
13.5902633416
 10
-10.3442663904
 20
13.5978935154
 10
-10.3463809486
 20
13.6043390545
 10
-10.3483333022
 20
13.6108461901
 10
-10.3501168938
 20
13.617395473
 10
-10.3517263856
 20
13.6239728056
 10
-10.3531613185
 20
13.6305854973
 10
-10.3544224528
 20
13.6372462089
 10
-10.3557058383
 20
13.645313983
 10
-10.3567315702
 20
13.6534532595
 10
-10.35749117
 20
13.6616481599
 10
-10.3579761591
 20
13.6698828061
 10
-10.358178059
 20
13.6781413197
 10
-10.3580907824
 20
13.6864083072
 10
-10.3577178075
 20
13.6946703138
 10
-10.3570650042
 20
13.7029143693
 10
-10.3561382419
 20
13.7111275038
 10
-10.3549433904
 20
13.719296747
 10
-10.3537461876
 20
13.7260649079
 10
-10.3523646604
 20
13.7328061364
 10
-10.350796581
 20
13.7395329872
 10
-10.3490413495
 20
13.7462514576
 10
-10.3471048756
 20
13.7529413154
 10
-10.3449946966
 20
13.7595757711
 10
-10.3422434695
 20
13.767432042
 10
-10.3392639819
 20
13.7751583106
 10
-10.336067255
 20
13.7827429304
 10
-10.33266431
 20
13.7901742549
 10
-10.3290661681
 20
13.7974406378
 10
-10.3252827198
 20
13.8045325592
 10
-10.3213193329
 20
13.8114490069
 10
-10.3171802443
 20
13.8181910952
 10
-10.3128696911
 20
13.8247599384
 10
-10.3083919102
 20
13.8311566511
 10
-10.3037476034
 20
13.8373840421
 10
-10.2989233326
 20
13.8434516988
 10
-10.293902124
 20
13.8493709032
 10
-10.2886670042
 20
13.8551529372
 10
-10.2832009998
 20
13.8608090828
  0
LWPOLYLINE
  5
335
100
AcDbEntity
  8
0
100
AcDbPolyline
 62
253
  6
CONTINUOUS
 90
53
 70
0
 10
-10.2832009998
 20
11.1480890835
 10
-10.2885880751
 20
11.1536458513
 10
-10.2937500395
 20
11.1593248861
 10
-10.2987033633
 20
11.1651371651
 10
-10.303464517
 20
11.1710936655
 10
-10.3080499709
 20
11.1772053648
 10
-10.3124726739
 20
11.1834811381
 10
-10.3167314898
 20
11.189921453
 10
-10.3208217608
 20
11.1965246753
 10
-10.3247388291
 20
11.2032891704
 10
-10.328478037
 20
11.2102133039
 10
-10.332034116
 20
11.2172943324
 10
-10.3353993542
 20
11.2245250759
 10
-10.3385654291
 20
11.2318972453
 10
-10.341524018
 20
11.2394025514
 10
-10.3442667985
 20
11.247032705
 10
-10.3463813013
 20
11.2534781194
 10
-10.3483336045
 20
11.259985061
 10
-10.350117155
 20
11.2665341137
 10
-10.3517266173
 20
11.2731111987
 10
-10.3531615257
 20
11.2797235879
 10
-10.3544226324
 20
11.2863838903
 10
-10.3557059727
 20
11.294450982
 10
-10.3567316532
 20
11.3025893904
 10
-10.3574912057
 20
11.3107832797
 10
-10.3579761622
 20
11.319016814
 10
-10.3581780548
 20
11.3272741575
 10
-10.3580908041
 20
11.3355399561
 10
-10.3577178856
 20
11.3438007822
 10
-10.3570651636
 20
11.3520436899
 10
-10.3561385025
 20
11.3602557331
 10
-10.3549437665
 20
11.368423966
 10
-10.3537466703
 20
11.3751913522
 10
-10.3523652712
 20
11.3819318214
 10
-10.3507973573
 20
11.3886578705
 10
-10.3490423392
 20
11.3953754597
 10
-10.3471061195
 20
11.4020644023
 10
-10.3449962233
 20
11.4086979748
 10
-10.3422453555
 20
11.4165533049
 10
-10.3392662226
 20
11.4242787934
 10
-10.3360698174
 20
11.4318628136
 10
-10.3326671323
 20
11.4392937387
 10
-10.32906916
 20
11.4465599421
 10
-10.32528577
 20
11.4536519125
 10
-10.3213223392
 20
11.4605686009
 10
-10.3171831217
 20
11.4673110737
 10
-10.3128723712
 20
11.4738803972
 10
-10.3083943418
 20
11.4802776378
 10
-10.3037497441
 20
11.4865055685
 10
-10.2989251162
 20
11.4925737889
 10
-10.2939034529
 20
11.4984936052
 10
-10.2886677492
 20
11.5042763235
 10
-10.2832009998
 20
11.5099332501
  0
LWPOLYLINE
  5
336
100
AcDbEntity
  8
0
100
AcDbPolyline
 62
253
  6
CONTINUOUS
 90
53
 70
0
 10
-12.2723737268
 20
13.8608090828
 10
-12.2669813748
 20
13.8552317005
 10
-12.2618143968
 20
13.8495327041
 10
-12.2568563517
 20
13.8437010947
 10
-12.2520907987
 20
13.8377258735
 10
-12.2475012967
 20
13.8315960415
 10
-12.2430749167
 20
13.8253026834
 10
-12.2388127768
 20
13.8188452169
 10
-12.234719507
 20
13.8122251431
 10
-12.2307997371
 20
13.8054439633
 10
-12.2270580972
 20
13.7985031786
 10
-12.223499852
 20
13.7914054421
 10
-12.2201328059
 20
13.7841580146
 10
-12.2169653979
 20
13.7767693089
 10
-12.2140060672
 20
13.7692477378
 10
-12.2112632528
 20
13.761601714
 10
-12.209149342
 20
13.7551435053
 10
-12.2071982441
 20
13.7486244403
 10
-12.2054165529
 20
13.7420642459
 10
-12.203809627
 20
13.7354772507
 10
-12.2023778852
 20
13.7288561903
 10
-12.2011205111
 20
13.7221884023
 10
-12.1998423029
 20
13.7141138151
 10
-12.1988223467
 20
13.7059694319
 10
-12.1980689806
 20
13.6977709789
 10
-12.1975905426
 20
13.6895341823
 10
-12.1973953708
 20
13.681274768
 10
-12.1974894128
 20
13.6730080231
 10
-12.1978690543
 20
13.6647474773
 10
-12.1985282903
 20
13.6565062212
 10
-12.1994611162
 20
13.6482973455
 10
-12.200661527
 20
13.6401339406
 10
-12.2018628853
 20
13.6333719281
 10
-12.2032480796
 20
13.6266380344
 10
-12.2048192932
 20
13.6199197102
 10
-12.2065770904
 20
13.6132109304
 10
-12.2085155605
 20
13.6065317645
 10
-12.210627174
 20
13.5999088058
 10
-12.2133793995
 20
13.5920671609
 10
-12.2163591472
 20
13.584356315
 10
-12.2195554556
 20
13.5767878342
 10
-12.2229573629
 20
13.5693732849
 10
-12.2265539075
 20
13.5621242333
 10
-12.2303352463
 20
13.5550501424
 10
-12.2342960117
 20
13.548152061
 10
-12.2384319546
 20
13.5414289347
 10
-12.2427388258
 20
13.534879709
 10
-12.2472123764
 20
13.5285033295
 10
-12.2518518942
 20
13.5222970433
 10
-12.2566708153
 20
13.5162513038
 10
-12.2616861124
 20
13.5103548661
 10
-12.2669147587
 20
13.5045964852
 10
-12.2723737268
 20
13.4989649162
  0
LWPOLYLINE
  5
337
100
AcDbEntity
  8
ASSI
100
AcDbPolyline
 62
253
  6
CONTINUOUS
 90
8
 70
0
 10
-21.9931825011
 20
0.1585657953
 10
-21.9928054517
 20
0.1586314961
 10
-21.9922035703
 20
0.1586969542
 10
-21.9913768568
 20
0.1587621695
 10
-21.9903241509
 20
0.1588272021
 10
-21.9890466131
 20
0.158891992
 10
-21.9875477238
 20
0.1589563592
 10
-21.9858268836
 20
0.1590203017
  0
LWPOLYLINE
  5
338
100
AcDbEntity
  8
ASSI
100
AcDbPolyline
 62
253
  6
CONTINUOUS
 90
5
 70
0
 10
-22.2430303046
 20
0.4085562629
 10
-22.2422783757
 20
0.4086279366
 10
-22.2410739677
 20
0.4086993695
 10
-22.2394181776
 20
0.4087705507
 10
-22.2373125219
 20
0.4088415218
  0
LWPOLYLINE
  5
339
100
AcDbEntity
  8
0
100
AcDbPolyline
 62
253
  6
CONTINUOUS
 90
53
 70
0
 10
-9.1640488061
 20
14.6179407493
 10
-9.1586601461
 20
14.6123631733
 10
-9.1534967981
 20
14.606663937
 10
-9.148542365
 20
14.6008320846
 10
-9.1437804501
 20
14.5948566601
 10
-9.1391946564
 20
14.5887267077
 10
-9.1347720866
 20
14.5824333456
 10
-9.1305138416
 20
14.5759759884
 10
-9.1264245219
 20
14.5693561248
 10
-9.1225087279
 20
14.5625752437
 10
-9.11877106
 20
14.5556348337
 10
-9.1152167546
 20
14.5485375378
 10
-9.1118535916
 20
14.5412906156
 10
-9.1086899871
 20
14.533902481
 10
-9.1057343569
 20
14.5263815476
 10
-9.102995117
 20
14.5187362292
 10
-9.1008840705
 20
14.5122786611
 10
-9.0989357126
 20
14.5057602869
 10
-9.0971566165
 20
14.4992008358
 10
-9.095552122
 20
14.4926146393
 10
-9.0941226363
 20
14.4859944375
 10
-9.0928673333
 20
14.4793275723
 10
-9.0915913491
 20
14.4712541805
 10
-9.0905732982
 20
14.4631110793
 10
-9.0898214805
 20
14.4549139819
 10
-9.0893441957
 20
14.4466786016
 10
-9.0891497435
 20
14.4384206514
 10
-9.0892440434
 20
14.4301554056
 10
-9.0896234929
 20
14.4218963828
 10
-9.0902821093
 20
14.4136566623
 10
-9.0912139098
 20
14.4054493237
 10
-9.0924129116
 20
14.3972874464
 10
-9.0936128176
 20
14.3905266923
 10
-9.0949963159
 20
14.383794041
 10
-9.0965655967
 20
14.377076942
 10
-9.0983212341
 20
14.3703693667
 10
-9.1002573352
 20
14.3636913734
 10
-9.1023663909
 20
14.3570695425
 10
-9.1051153242
 20
14.3492291764
 10
-9.1080915588
 20
14.3415195202
 10
-9.1112841549
 20
14.3339521345
 10
-9.1146821728
 20
14.3265385797
 10
-9.1182746725
 20
14.3192904163
 10
-9.1220518333
 20
14.3122170994
 10
-9.126008311
 20
14.3053196615
 10
-9.1301398802
 20
14.29859703
 10
-9.1344423159
 20
14.292048132
 10
-9.1389113929
 20
14.2856718945
 10
-9.1435464083
 20
14.2794655552
 10
-9.1483607486
 20
14.2734195929
 10
-9.1533713224
 20
14.2675227968
 10
-9.1585950387
 20
14.2617639563
 10
-9.1640488061
 20
14.2561318605
  0
LINE
  5
33A
100
AcDbEntity
  8
ASSI
100
AcDbLine
 62
253
  6
CONTINUOUS
 10
21.7475597042
 20
22.2213302099
 11
21.6467481671
 21
22.0700360412
  0
LINE
  5
33B
100
AcDbEntity
  8
ASSI
100
AcDbLine
 62
253
  6
CONTINUOUS
 10
22.2484705896
 20
21.7238395771
 11
22.1464435806
 21
21.5707212739
  0
LINE
  5
33C
100
AcDbEntity
  8
0
100
AcDbLine
 62
253
  6
CONTINUOUS
 10
-10.2339880877
 20
-11.5645084741
 11
-9.7772819883
 21
-11.3003484742
  0
LINE
  5
33D
100
AcDbEntity
  8
0
100
AcDbLine
 62
253
  6
CONTINUOUS
 10
-9.5211653281
 20
-11.7437195852
 11
-9.9785417053
 21
-12.0081970851
  0
LINE
  5
33E
100
AcDbEntity
  8
0
100
AcDbLine
 62
253
  6
CONTINUOUS
 10
-12.3955985881
 20
-13.4034684736
 11
-12.8524457987
 21
-13.6670287513
  0
LINE
  5
33F
100
AcDbEntity
  8
0
100
AcDbLine
 62
253
  6
CONTINUOUS
 10
-13.1084213477
 20
-13.2236223626
 11
-12.6513624705
 21
-12.9600620848
  0
LWPOLYLINE
  5
340
100
AcDbEntity
  8
0
100
AcDbPolyline
 62
253
  6
CONTINUOUS
 90
29
 70
0
 10
-12.8524457987
 20
-13.6670287513
 10
-12.8566151916
 20
-13.6693731745
 10
-12.8608216984
 20
-13.6716281528
 10
-12.8650652612
 20
-13.6737951214
 10
-12.8693458221
 20
-13.6758755156
 10
-12.8736633232
 20
-13.6778707709
 10
-12.8780177065
 20
-13.6797823224
 10
-12.8824089143
 20
-13.6816116057
 10
-12.8868365471
 20
-13.6833597595
 10
-12.89129884
 20
-13.685026737
 10
-12.8957936869
 20
-13.6866121948
 10
-12.9003189813
 20
-13.6881157897
 10
-12.9048726171
 20
-13.6895371784
 10
-12.909452488
 20
-13.6908760175
 10
-12.9140564876
 20
-13.6921319637
 10
-12.9186825948
 20
-13.6933046783
 10
-12.9233291294
 20
-13.6943938415
 10
-12.927994496
 20
-13.6953991377
 10
-12.9326770995
 20
-13.6963202517
 10
-12.9373753447
 20
-13.6971568681
 10
-12.9420876363
 20
-13.6979086715
 10
-12.9468123792
 20
-13.6985753467
 10
-12.951548333
 20
-13.6991564546
 10
-12.9562956762
 20
-13.6996510617
 10
-12.9610549425
 20
-13.7000581109
 10
-12.9658266652
 20
-13.7003765449
 10
-12.9706113778
 20
-13.7006053067
 10
-12.9754096137
 20
-13.700743339
 10
-12.9802219065
 20
-13.7007895847
  0
LWPOLYLINE
  5
341
100
AcDbEntity
  8
0
100
AcDbPolyline
 62
253
  6
CONTINUOUS
 90
53
 70
0
 10
-12.6513624705
 20
-12.9600620848
 10
-12.6445522781
 20
-12.956308542
 10
-12.6376839273
 20
-12.9528048001
 10
-12.6307426466
 20
-12.9495379004
 10
-12.6237136645
 20
-12.9464948841
 10
-12.6165822096
 20
-12.9436627925
 10
-12.6093364018
 20
-12.9410314926
 10
-12.6019759263
 20
-12.9386021542
 10
-12.59450336
 20
-12.936378773
 10
-12.5869212796
 20
-12.9343653446
 10
-12.5792322619
 20
-12.9325658647
 10
-12.5714401902
 20
-12.9309846447
 10
-12.5635541756
 20
-12.9296272588
 10
-12.5555846353
 20
-12.9284995972
 10
-12.5475419871
 20
-12.9276075499
 10
-12.5394366485
 20
-12.9269570071
 10
-12.5326443072
 20
-12.9266032394
 10
-12.5258365764
 20
-12.9264223984
 10
-12.5190343672
 20
-12.9264156091
 10
-12.5122530682
 20
-12.9265842021
 10
-12.5054859779
 20
-12.9269303292
 10
-12.498720872
 20
-12.927456348
 10
-12.4905944873
 20
-12.9283282816
 10
-12.4824702399
 20
-12.9294663356
 10
-12.4743650124
 20
-12.9308741914
 10
-12.4662956872
 20
-12.9325555305
 10
-12.4582791467
 20
-12.9345140345
 10
-12.450331298
 20
-12.9367512351
 10
-12.4424641474
 20
-12.9392600653
 10
-12.4346887256
 20
-12.9420313082
 10
-12.4270160636
 20
-12.945055747
 10
-12.4194571923
 20
-12.9483241649
 10
-12.4132500579
 20
-12.9512293329
 10
-12.4071182487
 20
-12.954302775
 10
-12.4010504086
 20
-12.9575497358
 10
-12.3950409491
 20
-12.9609722744
 10
-12.3891073532
 20
-12.9645597077
 10
-12.3832728721
 20
-12.9682981669
 10
-12.3764297348
 20
-12.9729659324
 10
-12.369771009
 20
-12.9778179636
 10
-12.3633048993
 20
-12.9828410197
 10
-12.3570396106
 20
-12.9880218597
 10
-12.3509833476
 20
-12.993347243
 10
-12.3451426203
 20
-12.9988055047
 10
-12.3395171589
 20
-13.0043912835
 10
-12.3341049991
 20
-13.0101007941
 10
-12.3289041763
 20
-13.0159302512
 10
-12.3239127261
 20
-13.0218758695
 10
-12.3191279543
 20
-13.0279376669
 10
-12.3145442477
 20
-13.0341308747
 10
-12.3101552634
 20
-13.0404745276
 10
-12.3059546587
 20
-13.0469876602
 10
-12.3019360905
 20
-13.053689307
  0
LWPOLYLINE
  5
342
100
AcDbEntity
  8
0
100
AcDbPolyline
 62
253
  6
CONTINUOUS
 90
53
 70
0
 10
-9.7772819883
 20
-11.3003484742
 10
-9.7704789697
 20
-11.2966146059
 10
-9.7636183366
 20
-11.2931286499
 10
-9.7566851627
 20
-11.2898777612
 10
-9.7496645218
 20
-11.286849095
 10
-9.7425414873
 20
-11.2840298065
 10
-9.7353040693
 20
-11.2814098724
 10
-9.7279520225
 20
-11.2789905555
 10
-9.720488038
 20
-11.2767759404
 10
-9.7129148068
 20
-11.2747701114
 10
-9.70523502
 20
-11.272977153
 10
-9.6974526251
 20
-11.2714014537
 10
-9.6895765958
 20
-11.2700486177
 10
-9.6816171621
 20
-11.2689245535
 10
-9.673584554
 20
-11.2680351691
 10
-9.6654890018
 20
-11.2673863731
 10
-9.6587044414
 20
-11.2670333896
 10
-9.6519038041
 20
-11.266852811
 10
-9.6451076197
 20
-11.2668458641
 10
-9.6383309567
 20
-11.2670139909
 10
-9.6315670363
 20
-11.2673594946
 10
-9.624803618
 20
-11.2678848938
 10
-9.6166773255
 20
-11.2687563057
 10
-9.6085512671
 20
-11.2698942949
 10
-9.6004425801
 20
-11.2713027626
 10
-9.592368402
 20
-11.2729856099
 10
-9.5843458701
 20
-11.274946738
 10
-9.5763910861
 20
-11.2771878759
 10
-9.5685160087
 20
-11.2797020639
 10
-9.5607315609
 20
-11.2824801706
 10
-9.5530486656
 20
-11.285513064
 10
-9.5454782457
 20
-11.2887916125
 10
-9.5392604137
 20
-11.2917065633
 10
-9.5331169087
 20
-11.2947910531
 10
-9.5270363645
 20
-11.2980503686
 10
-9.5210132159
 20
-11.3014865799
 10
-9.5150651026
 20
-11.3050888901
 10
-9.5092154652
 20
-11.308843286
 10
-9.5023535181
 20
-11.3135313858
 10
-9.4956753859
 20
-11.31840491
 10
-9.4891893232
 20
-11.323450459
 10
-9.4829035848
 20
-11.3286546332
 10
-9.4768264254
 20
-11.3340040331
 10
-9.4709643881
 20
-11.3394868525
 10
-9.4653171708
 20
-11.3450976597
 10
-9.4598827597
 20
-11.3508326167
 10
-9.454659141
 20
-11.3566878853
 10
-9.4496443009
 20
-11.3626596274
 10
-9.4448354803
 20
-11.3687478415
 10
-9.4402269377
 20
-11.3749678732
 10
-9.4358121861
 20
-11.3813389047
 10
-9.4315847386
 20
-11.3878801183
 10
-9.4275381083
 20
-11.3946106963
  0
LWPOLYLINE
  5
343
100
AcDbEntity
  8
0
100
AcDbPolyline
 62
253
  6
CONTINUOUS
 90
29
 70
0
 10
-9.9785417053
 20
-12.0081970851
 10
-9.9827081687
 20
-12.0104572986
 10
-9.9869087251
 20
-12.0126384336
 10
-9.991143597
 20
-12.014741305
 10
-9.9954130071
 20
-12.0167667278
 10
-9.9997171779
 20
-12.0187155171
 10
-10.0040563319
 20
-12.0205884877
 10
-10.0084306916
 20
-12.0223864547
 10
-10.0128401799
 20
-12.0241099629
 10
-10.0172835202
 20
-12.0257584772
 10
-10.0217591363
 20
-12.0273311921
 10
-10.0262654521
 20
-12.0288273024
 10
-10.0308008911
 20
-12.0302460028
 10
-10.0353638773
 20
-12.031586488
 10
-10.0399528342
 20
-12.0328479526
 10
-10.044566161
 20
-12.0340295725
 10
-10.0492021573
 20
-12.0351304484
 10
-10.0538590981
 20
-12.0361496619
 10
-10.0585352584
 20
-12.0370862949
 10
-10.0632289131
 20
-12.0379394291
 10
-10.0679383373
 20
-12.0387081462
 10
-10.0726618058
 20
-12.0393915281
 10
-10.0773979776
 20
-12.0399885604
 10
-10.082147048
 20
-12.0404978439
 10
-10.0869095959
 20
-12.0409178833
 10
-10.0916862006
 20
-12.0412471836
 10
-10.0964774412
 20
-12.0414842493
 10
-10.1012838968
 20
-12.0416275852
 10
-10.1061061465
 20
-12.0416756962
  0
LINE
  5
344
100
AcDbEntity
  8
ASSI
100
AcDbLine
 62
253
  6
CONTINUOUS
 10
-22.1751458993
 20
0.1130922693
 11
-21.9931825011
 21
0.1585657953
  0
LINE
  5
345
100
AcDbEntity
  8
ASSI
100
AcDbLine
 62
253
  6
CONTINUOUS
 10
-22.425222101
 20
0.3630256481
 11
-22.2430303046
 21
0.4085562519
  0
LINE
  5
346
100
AcDbEntity
  8
ASSI
100
AcDbLine
 62
253
  6
CONTINUOUS
 10
21.8427382991
 20
0.1585657953
 11
22.0247016973
 21
0.1130922693
  0
LINE
  5
347
100
AcDbEntity
  8
ASSI
100
AcDbLine
 62
253
  6
CONTINUOUS
 10
22.0925861026
 20
0.4085562519
 11
22.274777899
 21
0.3630256481
  0
LINE
  5
348
100
AcDbEntity
  8
ASSI
100
AcDbLine
 62
253
  6
CONTINUOUS
 10
21.6467481671
 20
-22.0438515026
 11
21.7475597042
 21
-22.1951456712
  0
LINE
  5
349
100
AcDbEntity
  8
ASSI
100
AcDbLine
 62
253
  6
CONTINUOUS
 10
22.1464435806
 20
-21.5445367352
 11
22.2484705896
 21
-21.6976550384
  0
LWPOLYLINE
  5
34A
100
AcDbEntity
  8
ASSI
100
AcDbPolyline
 62
253
  6
CONTINUOUS
 90
18
 70
0
 10
22.1464435806
 20
21.5707212739
 10
22.1459755534
 20
21.5698377463
 10
22.1455091484
 20
21.5685972748
 10
22.1450443658
 20
21.5669998596
 10
22.1445808589
 20
21.5650438141
 10
22.1441189743
 20
21.5627308247
 10
22.1436597514
 20
21.5600659508
 10
22.1432032092
 20
21.5570484472
 10
22.1427493288
 20
21.5536790591
 10
22.142299093
 20
21.5499650812
 10
22.1418525113
 20
21.5459057769
 10
22.1414095741
 20
21.5415018829
 10
22.1409712362
 20
21.5367629044
 10
22.1405375069
 20
21.5316881121
 10
22.1401083768
 20
21.5262782354
 10
22.1396847729
 20
21.5205449679
 10
22.1392667073
 20
21.5144876106
 10
22.1384480455
 20
21.5014165142
  0
LINE
  5
34B
100
AcDbEntity
  8
ASSI
100
AcDbLine
 62
253
  6
CONTINUOUS
 10
-22.2153222917
 20
9.5065822771
 11
-22.2032516492
 21
9.5071532143
  0
LINE
  5
34C
100
AcDbEntity
  8
ASSI
100
AcDbLine
 62
253
  6
CONTINUOUS
 10
-22.2032516492
 20
9.5071532143
 11
-22.1893109536
 21
9.5077095728
  0
LINE
  5
34D
100
AcDbEntity
  8
ASSI
100
AcDbLine
 62
253
  6
CONTINUOUS
 10
-22.1893109536
 20
9.5077095728
 11
-22.1735572789
 21
9.5082490748
  0
LINE
  5
34E
100
AcDbEntity
  8
ASSI
100
AcDbLine
 62
253
  6
CONTINUOUS
 10
-22.1735572789
 20
9.5082490748
 11
-22.1466704817
 21
9.5090219115
  0
LINE
  5
34F
100
AcDbEntity
  8
ASSI
100
AcDbLine
 62
253
  6
CONTINUOUS
 10
-22.1466704817
 20
9.5090219115
 11
-22.1051371645
 21
9.5099734266
  0
LINE
  5
350
100
AcDbEntity
  8
ASSI
100
AcDbLine
 62
253
  6
CONTINUOUS
 10
-22.1051371645
 20
9.5099734266
 11
-22.045058343
 21
9.5110143541
  0
LINE
  5
351
100
AcDbEntity
  8
ASSI
100
AcDbLine
 62
253
  6
CONTINUOUS
 10
-22.045058343
 20
9.5110143541
 11
-21.9630462333
 21
9.5120112229
  0
LINE
  5
352
100
AcDbEntity
  8
ASSI
100
AcDbLine
 62
253
  6
CONTINUOUS
 10
-21.9630462333
 20
9.5120112229
 11
-21.8575363727
 21
9.5127812869
  0
LINE
  5
353
100
AcDbEntity
  8
ASSI
100
AcDbLine
 62
253
  6
CONTINUOUS
 10
-21.8575363727
 20
9.5127812869
 11
-21.7464780595
 21
9.5130922693
  0
LINE
  5
354
100
AcDbEntity
  8
ASSI
100
AcDbLine
 62
253
  6
CONTINUOUS
 10
21.691438721
 20
9.512854437
 11
-21.7464780595
 21
9.5130922693
  0
LINE
  5
355
100
AcDbEntity
  8
ASSI
100
AcDbLine
 62
253
  6
CONTINUOUS
 10
21.7980733589
 20
9.5121481199
 11
21.691438721
 21
9.512854437
  0
LWPOLYLINE
  5
356
100
AcDbEntity
  8
0
100
AcDbPolyline
 62
253
  6
CONTINUOUS
 90
36
 70
0
 10
-13.2106214806
 20
10.3152865837
 10
-13.2163727341
 20
10.3153605265
 10
-13.2221020202
 20
10.3155804306
 10
-13.2278106647
 20
10.3159434098
 10
-13.2334999936
 20
10.3164465779
 10
-13.2391713325
 20
10.3170870487
 10
-13.2448260074
 20
10.317861936
 10
-13.2504653441
 20
10.3187683534
 10
-13.2560897916
 20
10.3198035203
 10
-13.2616962914
 20
10.3209650786
 10
-13.2672809082
 20
10.3222507755
 10
-13.2728397069
 20
10.3236583583
 10
-13.278368752
 20
10.3251855744
 10
-13.2838641083
 20
10.3268301711
 10
-13.2893218406
 20
10.3285898956
 10
-13.2947384489
 20
10.3304627209
 10
-13.3001121752
 20
10.3324475215
 10
-13.3054416969
 20
10.3345433977
 10
-13.3107256912
 20
10.3367494496
 10
-13.3159628354
 20
10.3390647774
 10
-13.321151807
 20
10.3414884813
 10
-13.3262912833
 20
10.3440196614
 10
-13.3313796848
 20
10.346657496
 10
-13.3364144053
 20
10.3494014759
 10
-13.3413925818
 20
10.3522511702
 10
-13.3463113513
 20
10.3552061478
 10
-13.3511678508
 20
10.3582659776
 10
-13.3559592174
 20
10.3614302288
 10
-13.360682588
 20
10.3646984701
 10
-13.3653352898
 20
10.3680708195
 10
-13.3699154107
 20
10.3715495898
 10
-13.3744212286
 20
10.3751376428
 10
-13.3788510217
 20
10.3788378403
 10
-13.3832030679
 20
10.382653044
 10
-13.3874756452
 20
10.3865861157
 10
-13.3916670316
 20
10.390639917
  0
LWPOLYLINE
  5
357
100
AcDbEntity
  8
0
100
AcDbPolyline
 62
253
  6
CONTINUOUS
 90
36
 70
0
 10
-9.3449532459
 20
10.3152865837
 10
-9.3506939607
 20
10.3153601108
 10
-9.3564130197
 20
10.3155787953
 10
-9.3621117188
 20
10.3159397924
 10
-9.3677913541
 20
10.3164402575
 10
-9.3734532216
 20
10.3170773454
 10
-9.3790986173
 20
10.3178482116
 10
-9.3847288372
 20
10.3187500111
 10
-9.3903443199
 20
10.3197800184
 10
-9.3959420753
 20
10.3209359854
 10
-9.4015182556
 20
10.3222157832
 10
-9.4070690132
 20
10.3236172831
 10
-9.4125905006
 20
10.3251383563
 10
-9.41807887
 20
10.3267768738
 10
-9.423530274
 20
10.328530707
 10
-9.4289412612
 20
10.3303979431
 10
-9.4343099664
 20
10.3323775339
 10
-9.4396349206
 20
10.3344686474
 10
-9.4449146549
 20
10.3366704513
 10
-9.4501477003
 20
10.3389821137
 10
-9.4553325879
 20
10.3414028025
 10
-9.4604678488
 20
10.3439316854
 10
-9.465551768
 20
10.3465680104
 10
-9.4705816467
 20
10.3493113443
 10
-9.4755545402
 20
10.3521613339
 10
-9.4804675036
 20
10.3551176261
 10
-9.4853175922
 20
10.3581798677
 10
-9.4901018612
 20
10.3613477054
 10
-9.4948173658
 20
10.364620786
 10
-9.4994613423
 20
10.3679993116
 10
-9.5040317522
 20
10.3714857049
 10
-9.5085267378
 20
10.3750829439
 10
-9.5129444416
 20
10.3787940067
 10
-9.5172830063
 20
10.3826218711
 10
-9.5215405742
 20
10.3865695152
 10
-9.5257152878
 20
10.390639917
  0
LINE
  5
358
100
AcDbEntity
  8
ASSI
100
AcDbLine
 62
253
  6
CONTINUOUS
 10
21.8816304169
 20
9.5112005601
 11
21.7980733589
 21
9.5121481199
  0
LWPOLYLINE
  5
359
100
AcDbEntity
  8
0
100
AcDbPolyline
 62
253
  6
CONTINUOUS
 90
53
 70
0
 10
-11.2777168077
 20
9.5144104728
 10
-11.2854740871
 20
9.5145362229
 10
-11.2931577565
 20
9.5149107415
 10
-11.300786995
 20
9.5155299309
 10
-11.3083809821
 20
9.5163896936
 10
-11.315958897
 20
9.5174859319
 10
-11.3235360103
 20
9.5188155641
 10
-11.331111958
 20
9.5203795721
 10
-11.3386824671
 20
9.5221799538
 10
-11.3462432648
 20
9.5242187069
 10
-11.3537900783
 20
9.5264978292
 10
-11.3613173816
 20
9.5290189484
 10
-11.3688146369
 20
9.5317822124
 10
-11.3762700532
 20
9.5347873987
 10
-11.3836718394
 20
9.5380342851
 10
-11.3910082046
 20
9.5415226493
 10
-11.397061413
 20
9.5446123664
 10
-11.4030424886
 20
9.5478601649
 10
-11.4089329182
 20
9.5512565876
 10
-11.414718846
 20
9.5547951122
 10
-11.4204050464
 20
9.5584809569
 10
-11.4260009515
 20
9.5623222747
 10
-11.4326046332
 20
9.5671453125
 10
-11.4390752009
 20
9.5721985749
 10
-11.4453959837
 20
9.5774766647
 10
-11.4515503106
 20
9.5829741847
 10
-11.4575215109
 20
9.5886857378
 10
-11.4632948493
 20
9.594604613
 10
-11.4688633324
 20
9.6007188435
 10
-11.4742219029
 20
9.6070151489
 10
-11.479365503
 20
9.6134802486
 10
-11.4842890752
 20
9.6201008622
 10
-11.4882220104
 20
9.6257302581
 10
-11.4920058138
 20
9.631468765
 10
-11.4956476627
 20
9.6373267207
 10
-11.4991512962
 20
9.6433087564
 10
-11.5025066984
 20
9.6493966763
 10
-11.505700415
 20
9.655566578
 10
-11.5093042925
 20
9.663049283
 10
-11.5126554369
 20
9.6705998895
 10
-11.5157533168
 20
9.6782026649
 10
-11.5185974004
 20
9.6858418765
 10
-11.5211871564
 20
9.6935017916
 10
-11.5235227497
 20
9.7011689366
 10
-11.5256071317
 20
9.7088388735
 10
-11.5274439504
 20
9.7165094235
 10
-11.5290368536
 20
9.7241784076
 10
-11.5303894893
 20
9.7318436468
 10
-11.5315042226
 20
9.739506598
 10
-11.5323782867
 20
9.7471832603
 10
-11.5330076321
 20
9.7548932685
 10
-11.533388209
 20
9.7626562573
 10
-11.5335159679
 20
9.7704918616
  0
LINE
  5
35A
100
AcDbEntity
  8
ASSI
100
AcDbLine
 62
253
  6
CONTINUOUS
 10
21.9433641
 20
9.5101955665
 11
21.8816304169
 21
9.5112005601
  0
LINE
  5
35B
100
AcDbEntity
  8
ASSI
100
AcDbLine
 62
253
  6
CONTINUOUS
 10
21.9864319337
 20
9.5092687527
 11
21.9433641
 21
9.5101955665
  0
LINE
  5
35C
100
AcDbEntity
  8
ASSI
100
AcDbLine
 62
253
  6
CONTINUOUS
 10
22.0145762446
 20
9.5085118115
 11
21.9864319337
 21
9.5092687527
  0
LINE
  5
35D
100
AcDbEntity
  8
ASSI
100
AcDbLine
 62
253
  6
CONTINUOUS
 10
22.0312126768
 20
9.5079815706
 11
22.0145762446
 21
9.5085118115
  0
LINE
  5
35E
100
AcDbEntity
  8
ASSI
100
AcDbLine
 62
253
  6
CONTINUOUS
 10
22.0460674659
 20
9.5074333597
 11
22.0312126768
 21
9.5079815706
  0
LINE
  5
35F
100
AcDbEntity
  8
0
100
AcDbLine
 62
253
  6
CONTINUOUS
 10
-8.5440418775
 20
12.2484735277
 11
-9.6156043501
 21
12.2484735277
  0
LINE
  5
360
100
AcDbEntity
  8
0
100
AcDbLine
 62
253
  6
CONTINUOUS
 10
-12.9400762098
 20
12.2484735277
 11
-14.0111800713
 21
12.2484735277
  0
LINE
  5
361
100
AcDbEntity
  8
0
100
AcDbLine
 62
253
  6
CONTINUOUS
 10
-14.0111800713
 20
12.7603893609
 11
-12.9400762098
 21
12.7603893609
  0
LINE
  5
362
100
AcDbEntity
  8
0
100
AcDbLine
 62
253
  6
CONTINUOUS
 10
-9.6156043501
 20
12.7603893609
 11
-8.5440418775
 21
12.7603893609
  0
LWPOLYLINE
  5
363
100
AcDbEntity
  8
0
100
AcDbPolyline
 62
253
  6
CONTINUOUS
 90
57
 70
0
 10
-11.2777168077
 20
11.6913315834
 10
-11.2989340061
 20
11.6916289975
 10
-11.3201145173
 20
11.6925194992
 10
-11.3412996815
 20
11.6940004781
 10
-11.3625308392
 20
11.6960693237
 10
-11.3838415896
 20
11.6987253375
 10
-11.4052345691
 20
11.701975469
 10
-11.4267046731
 20
11.7058285795
 10
-11.4482467971
 20
11.7102935305
 10
-11.4698500705
 20
11.7153773413
 10
-11.4914805586
 20
11.7210796623
 10
-11.5130985605
 20
11.7273983014
 10
-11.5346643754
 20
11.7343310667
 10
-11.5561420126
 20
11.7418765757
 10
-11.5775103209
 20
11.7500366827
 10
-11.5987518588
 20
11.7588140514
 10
-11.6198491852
 20
11.7682113452
 10
-11.6407821864
 20
11.7782297258
 10
-11.6615200595
 20
11.7888643461
 10
-11.6820293294
 20
11.8001088568
 10
-11.7022765209
 20
11.8119569088
 10
-11.7222323028
 20
11.8244054464
 10
-11.7418839206
 20
11.8374645879
 10
-11.7612227642
 20
11.8511477452
 10
-11.7802402231
 20
11.8654683299
 10
-11.798919836
 20
11.8804336349
 10
-11.8172137381
 20
11.8960264759
 10
-11.8350662134
 20
11.9122235497
 10
-11.852421546
 20
11.929001553
 10
-11.8692286978
 20
11.9463308687
 10
-11.8854553419
 20
11.9641566246
 10
-11.9010738289
 20
11.9824176349
 10
-11.9160565096
 20
12.0010527136
 10
-11.9303834785
 20
12.0200101886
 10
-11.9440658046
 20
12.0392764423
 10
-11.9571223008
 20
12.058847371
 10
-11.9695717799
 20
12.0787188711
 10
-11.9814299348
 20
12.0988858004
 10
-11.9926999796
 20
12.1193388628
 10
-12.0033820084
 20
12.140067724
 10
-12.0134761153
 20
12.1610620497
 10
-12.0229803771
 20
12.1823063524
 10
-12.0318848009
 20
12.2037645326
 10
-12.0401773764
 20
12.2253953374
 10
-12.0478460932
 20
12.2471575144
 10
-12.0548805372
 20
12.2690067655
 10
-12.0612766791
 20
12.2908866122
 10
-12.0670320858
 20
12.3127375306
 10
-12.0721443242
 20
12.3344999968
 10
-12.0766139901
 20
12.3561256161
 10
-12.0804537956
 20
12.3776105101
 10
-12.0836794817
 20
12.3989619296
 10
-12.0863067894
 20
12.4201871251
 10
-12.0883487776
 20
12.4412986177
 10
-12.0898077765
 20
12.4623300086
 10
-12.090683434
 20
12.4833201696
 10
-12.0909753981
 20
12.504307972
  0
LWPOLYLINE
  5
364
100
AcDbEntity
  8
0
100
AcDbPolyline
 62
253
  6
CONTINUOUS
 90
55
 70
0
 10
-11.2777168077
 20
11.097536028
 10
-11.2699646856
 20
11.0974117653
 10
-11.2622860876
 20
11.0970415937
 10
-11.2546616518
 20
11.0964294382
 10
-11.2470720161
 20
11.0955792238
 10
-11.2394978187
 20
11.0944948754
 10
-11.2319236451
 20
11.0931793035
 10
-11.2243498701
 20
11.0916313609
 10
-11.2167808163
 20
11.0898488859
 10
-11.209220806
 20
11.087829717
 10
-11.2016741617
 20
11.0855716925
 10
-11.1941464691
 20
11.083073019
 10
-11.1866483674
 20
11.0803333759
 10
-11.1791917588
 20
11.0773528109
 10
-11.171788546
 20
11.0741313717
 10
-11.1644506313
 20
11.0706691059
 10
-11.1583961229
 20
11.0676015054
 10
-11.1524138318
 20
11.0643760326
 10
-11.1465223637
 20
11.0610020227
 10
-11.1407356465
 20
11.0574858819
 10
-11.1350488954
 20
11.0538222997
 10
-11.1294526478
 20
11.0500030365
 10
-11.1239406377
 20
11.04602173
 10
-11.1185193845
 20
11.0418795278
 10
-11.1131986046
 20
11.0375794547
 10
-11.107988014
 20
11.0331245357
 10
-11.1028973289
 20
11.0285177955
 10
-11.0979362655
 20
11.0237622592
 10
-11.0931134028
 20
11.0188617446
 10
-11.088432772
 20
11.0138232422
 10
-11.0838972672
 20
11.0086545351
 10
-11.0795097826
 20
11.0033634069
 10
-11.0752732122
 20
10.9979576409
 10
-11.0711904501
 20
10.9924450204
 10
-11.0672626967
 20
10.986830314
 10
-11.0634843778
 20
10.9811062299
 10
-11.0598482252
 20
10.9752624618
 10
-11.0563504131
 20
10.9692944042
 10
-11.053000884
 20
10.9632202556
 10
-11.0498130227
 20
10.9570639156
 10
-11.0462160595
 20
10.9495972105
 10
-11.0428716401
 20
10.942062334
 10
-11.0397802326
 20
10.9344750552
 10
-11.0369423051
 20
10.9268511429
 10
-11.0343583258
 20
10.9192063662
 10
-11.0320280721
 20
10.9115542465
 10
-11.0299485582
 20
10.9038993158
 10
-11.0281161079
 20
10.8962438585
 10
-11.0265270446
 20
10.8885901591
 10
-11.025177692
 20
10.8809405019
 10
-11.0240656604
 20
10.8732934841
 10
-11.0231937071
 20
10.865632952
 10
-11.0225658763
 20
10.8579390648
 10
-11.0221862121
 20
10.8501919816
 10
-11.0220587587
 20
10.8423718614
  0
LWPOLYLINE
  5
365
100
AcDbEntity
  8
0
100
AcDbPolyline
 62
253
  6
CONTINUOUS
 90
55
 70
0
 10
-14.0111800713
 20
12.2484735277
 10
-14.0189220425
 20
12.2485973482
 10
-14.0265910782
 20
12.2489662496
 10
-14.0342066442
 20
12.2495763921
 10
-14.0417882063
 20
12.2504239359
 10
-14.0493552303
 20
12.2515050411
 10
-14.0569231942
 20
12.2528168698
 10
-14.0644916253
 20
12.2543605926
 10
-14.0720560626
 20
12.256138382
 10
-14.0796120456
 20
12.2581524107
 10
-14.0871551136
 20
12.2604048512
 10
-14.0946795851
 20
12.262897522
 10
-14.1021748955
 20
12.2656308251
 10
-14.1096292595
 20
12.2686048085
 10
-14.1170308917
 20
12.2718195203
 10
-14.1243680069
 20
12.2752750082
 10
-14.1304225538
 20
12.2783370222
 10
-14.1364057179
 20
12.2815571818
 10
-14.1422991038
 20
12.2849263934
 10
-14.1480889574
 20
12.2884384778
 10
-14.153780088
 20
12.2920989127
 10
-14.1593819461
 20
12.2959160901
 10
-14.1649007488
 20
12.2998965031
 10
-14.1703297808
 20
12.3040390499
 10
-14.1756590935
 20
12.3083407298
 10
-14.1808787386
 20
12.3127985422
 10
-14.1859787676
 20
12.3174094864
 10
-14.190949232
 20
12.3221705617
 10
-14.1957813598
 20
12.3270779816
 10
-14.2004710854
 20
12.3321248157
 10
-14.2050155196
 20
12.3373033475
 10
-14.2094117733
 20
12.3426058608
 10
-14.2136569574
 20
12.3480246392
 10
-14.2177481825
 20
12.3535519663
 10
-14.2216842546
 20
12.3591831423
 10
-14.2254707586
 20
12.3649255334
 10
-14.2291149745
 20
12.3707895221
 10
-14.2326207113
 20
12.3767797259
 10
-14.235977893
 20
12.3828777007
 10
-14.2391729728
 20
12.3890592372
 10
-14.242777849
 20
12.3965576036
 10
-14.246129356
 20
12.4041254506
 10
-14.2492270587
 20
12.4117467916
 10
-14.2520705222
 20
12.4194056398
 10
-14.2546593116
 20
12.4270860085
 10
-14.2569936896
 20
12.4347741985
 10
-14.2590767105
 20
12.4424656608
 10
-14.2609121262
 20
12.4501581341
 10
-14.2625036887
 20
12.4578493567
 10
-14.2638551498
 20
12.4655370674
 10
-14.2649689575
 20
12.473222718
 10
-14.2658423426
 20
12.4809226145
 10
-14.2664712321
 20
12.4886567761
 10
-14.2668515528
 20
12.4964452222
 10
-14.2669792315
 20
12.504307972
  0
LWPOLYLINE
  5
366
100
AcDbEntity
  8
0
100
AcDbPolyline
 62
253
  6
CONTINUOUS
 90
55
 70
0
 10
-9.6156043501
 20
12.2484735277
 10
-9.6233606387
 20
12.2485979448
 10
-9.6310435362
 20
12.2489685851
 10
-9.6386724417
 20
12.249581532
 10
-9.6462667544
 20
12.2504328691
 10
-9.6538458737
 20
12.2515186799
 10
-9.6614252363
 20
12.2528360587
 10
-9.66900443
 20
12.2543861434
 10
-9.6765790801
 20
12.2561710828
 10
-9.6841448119
 20
12.2581930255
 10
-9.6916972508
 20
12.2604541204
 10
-9.6992307752
 20
12.2629561527
 10
-9.7067347763
 20
12.2656994539
 10
-9.7141973986
 20
12.2686839922
 10
-9.7216067864
 20
12.2719097357
 10
-9.7289510842
 20
12.2753766525
 10
-9.7350111134
 20
12.2784484152
 10
-9.7409991826
 20
12.2816783713
 10
-9.7468967663
 20
12.2850572552
 10
-9.7526900029
 20
12.2885787292
 10
-9.7583836858
 20
12.2922481684
 10
-9.7639872722
 20
12.296073876
 10
-9.7695070093
 20
12.300062265
 10
-9.774936303
 20
12.304212186
 10
-9.7802653487
 20
12.3085205995
 10
-9.7854843423
 20
12.3129844657
 10
-9.7905834793
 20
12.3176007451
 10
-9.7955529553
 20
12.3223663979
 10
-9.8003841184
 20
12.3272775983
 10
-9.8050729257
 20
12.3323273759
 10
-9.8096164869
 20
12.3375079737
 10
-9.8140119115
 20
12.3428116352
 10
-9.8182563091
 20
12.3482306037
 10
-9.8223467894
 20
12.3537571223
 10
-9.8262821536
 20
12.3593864537
 10
-9.8300679697
 20
12.3651259368
 10
-9.8337114974
 20
12.3709859302
 10
-9.8372165417
 20
12.3769710585
 10
-9.8405730879
 20
12.3830630117
 10
-9.8437676667
 20
12.389237746
 10
-9.8473722006
 20
12.3967271265
 10
-9.8507236375
 20
12.4042852315
 10
-9.8538215091
 20
12.4118962033
 10
-9.8566653473
 20
12.4195441843
 10
-9.8592546839
 20
12.4272133171
 10
-9.8615897449
 20
12.4348900117
 10
-9.8636735337
 20
12.4425697489
 10
-9.8655097478
 20
12.4502502773
 10
-9.8671020846
 20
12.4579293452
 10
-9.8684542418
 20
12.4656047014
 10
-9.8695686221
 20
12.4732777819
 10
-9.8704424491
 20
12.4809647741
 10
-9.8710716517
 20
12.4886855532
 10
-9.8714521587
 20
12.4964599941
 10
-9.8715798991
 20
12.504307972
  0
LWPOLYLINE
  5
367
100
AcDbEntity
  8
0
100
AcDbPolyline
 62
253
  6
CONTINUOUS
 90
55
 70
0
 10
-12.9400762098
 20
12.7603893609
 10
-12.9323212115
 20
12.7602642405
 10
-12.9246395415
 20
12.7598915518
 10
-12.9170119233
 20
12.7592753041
 10
-12.9094190806
 20
12.7584195064
 10
-12.9018417368
 20
12.7573281679
 10
-12.8942645506
 20
12.7560042863
 10
-12.8866879202
 20
12.7544468142
 10
-12.8791161791
 20
12.7526536929
 10
-12.8715536605
 20
12.7506228634
 10
-12.8640046977
 20
12.748352267
 10
-12.8564748675
 20
12.7458402101
 10
-12.8489747206
 20
12.7430864587
 10
-12.841516051
 20
12.7400911444
 10
-12.8341106528
 20
12.7368543983
 10
-12.8267703203
 20
12.7333763517
 10
-12.8207135315
 20
12.7302952913
 10
-12.8147286033
 20
12.7270560903
 10
-12.808834021
 20
12.7236680869
 10
-12.8030436125
 20
12.7201376892
 10
-12.7973525736
 20
12.7164595861
 10
-12.791751442
 20
12.7126255368
 10
-12.7862339607
 20
12.7086291874
 10
-12.7808066935
 20
12.7044717332
 10
-12.7754794092
 20
12.7001562565
 10
-12.7702618768
 20
12.6956858398
 10
-12.7651638651
 20
12.6910635654
 10
-12.760195143
 20
12.6862925158
 10
-12.7553643385
 20
12.6813765409
 10
-12.7506755165
 20
12.6763225614
 10
-12.7461316008
 20
12.6711382653
 10
-12.7417355154
 20
12.6658313409
 10
-12.7374901843
 20
12.6604094761
 10
-12.7333985313
 20
12.6548803593
 10
-12.7294617878
 20
12.6492486688
 10
-12.7256744139
 20
12.6435070443
 10
-12.7220291772
 20
12.6376451156
 10
-12.718522303
 20
12.6316582472
 10
-12.7151638483
 20
12.6255647421
 10
-12.7119673278
 20
12.619388638
 10
-12.7083604755
 20
12.611897844
 10
-12.7050067674
 20
12.6043385591
 10
-12.7019067009
 20
12.5967266209
 10
-12.6990607739
 20
12.5890778672
 10
-12.6964694841
 20
12.5814081354
 10
-12.6941326311
 20
12.5737309865
 10
-12.6920472225
 20
12.5660508741
 10
-12.6902095679
 20
12.5583699752
 10
-12.6886159769
 20
12.5506904667
 10
-12.6872627589
 20
12.5430145255
 10
-12.6861475167
 20
12.535340676
 10
-12.685273025
 20
12.5276528334
 10
-12.6846433516
 20
12.5199312601
 10
-12.6842625645
 20
12.5121562188
 10
-12.6841347315
 20
12.504307972
  0
LWPOLYLINE
  5
368
100
AcDbEntity
  8
0
100
AcDbPolyline
 62
253
  6
CONTINUOUS
 90
53
 70
0
 10
-8.5440418775
 20
12.7603893609
 10
-8.5363012236
 20
12.7602639283
 10
-8.5286337922
 20
12.7598903384
 10
-8.5210203935
 20
12.7592726537
 10
-8.5134418378
 20
12.7584149362
 10
-8.505878935
 20
12.7573212484
 10
-8.4983164162
 20
12.7559946443
 10
-8.4907546952
 20
12.7544341459
 10
-8.4831981065
 20
12.7526377672
 10
-8.4756509848
 20
12.7506035221
 10
-8.4681176645
 20
12.7483294244
 10
-8.4606037083
 20
12.7458138501
 10
-8.4531195911
 20
12.7430566234
 10
-8.4456770159
 20
12.7400579306
 10
-8.4382876856
 20
12.7368179579
 10
-8.4309633033
 20
12.7333368915
 10
-8.4249196403
 20
12.730253505
 10
-8.4189475773
 20
12.7270121484
 10
-8.4130654842
 20
12.7236221485
 10
-8.4072870997
 20
12.7200899082
 10
-8.4016076372
 20
12.7164101347
 10
-8.3960176784
 20
12.7125746117
 10
-8.3894201334
 20
12.7077580891
 10
-8.3829547647
 20
12.7027108385
 10
-8.3766384255
 20
12.6974382433
 10
-8.3704879686
 20
12.691945687
 10
-8.3645202473
 20
12.6862385528
 10
-8.3587501466
 20
12.6803235244
 10
-8.3531846802
 20
12.6742124852
 10
-8.347828894
 20
12.6679186189
 10
-8.3426878338
 20
12.6614551092
 10
-8.3377665455
 20
12.6548351398
 10
-8.3338353106
 20
12.6492054913
 10
-8.3300530215
 20
12.6434659694
 10
-8.3264125007
 20
12.6376061981
 10
-8.3229100214
 20
12.6316215357
 10
-8.3195556596
 20
12.6255302776
 10
-8.316362942
 20
12.6193564534
 10
-8.3127602869
 20
12.6118684266
 10
-8.3094103935
 20
12.6043119233
 10
-8.3063137775
 20
12.5967027594
 10
-8.3034709545
 20
12.5890567508
 10
-8.3008824403
 20
12.5813897134
 10
-8.2985480515
 20
12.5737151824
 10
-8.2964648095
 20
12.5660375708
 10
-8.2946290367
 20
12.558359011
 10
-8.2930370553
 20
12.5506816354
 10
-8.2916851878
 20
12.5430075765
 10
-8.2905710476
 20
12.5353353369
 10
-8.2896974119
 20
12.5276489016
 10
-8.2890683494
 20
12.5199286256
 10
-8.2886879284
 20
12.512154864
 10
-8.2885602173
 20
12.504307972
  0
LWPOLYLINE
  5
369
100
AcDbEntity
  8
0
100
AcDbPolyline
 62
253
  6
CONTINUOUS
 90
55
 70
0
 10
-11.2777168077
 20
13.9104096384
 10
-11.2699780851
 20
13.9105336665
 10
-11.2623123175
 20
13.9109031696
 10
-11.2547000922
 20
13.9115142758
 10
-11.2471219968
 20
13.9123631135
 10
-11.2395586187
 20
13.9134458107
 10
-11.2319945207
 20
13.9147594981
 10
-11.2244301668
 20
13.9163053159
 10
-11.2168699964
 20
13.9180854068
 10
-11.2093184489
 20
13.9201019133
 10
-11.2017799635
 20
13.9223569782
 10
-11.1942602009
 20
13.9248523889
 10
-11.1867697061
 20
13.9275885119
 10
-11.1793202455
 20
13.9305653585
 10
-11.1719235855
 20
13.9337829402
 10
-11.1645914924
 20
13.9372412683
 10
-11.1585411531
 20
13.9403055984
 10
-11.1525621982
 20
13.9435279979
 10
-11.1466730027
 20
13.9468993436
 10
-11.1408873056
 20
13.9504134276
 10
-11.1352003019
 20
13.954075704
 10
-11.1296025506
 20
13.9578945425
 10
-11.1240878367
 20
13.9618764133
 10
-11.1186628503
 20
13.9660201885
 10
-11.1133375075
 20
13.9703228409
 10
-11.1081217244
 20
13.9747813431
 10
-11.1030254174
 20
13.9793926678
 10
-11.0980585026
 20
13.9841537877
 10
-11.0932297242
 20
13.9890608969
 10
-11.0885431392
 20
13.9941070753
 10
-11.0840016325
 20
13.9992846244
 10
-11.0796080892
 20
14.0045858454
 10
-11.0753653941
 20
14.0100030398
 10
-11.0712764324
 20
14.015528509
 10
-11.0673423986
 20
14.021157569
 10
-11.0635577263
 20
14.026897595
 10
-11.0599151587
 20
14.0327589768
 10
-11.0564109063
 20
14.0387463434
 10
-11.0530550477
 20
14.0448412801
 10
-11.0498611288
 20
14.0510196115
 10
-11.0462574332
 20
14.0585139559
 10
-11.0429068896
 20
14.0660776297
 10
-11.0398099508
 20
14.0736946865
 10
-11.0369670699
 20
14.0813491799
 10
-11.0343786996
 20
14.0890251638
 10
-11.0320445961
 20
14.0967089811
 10
-11.0299617279
 20
14.1043961335
 10
-11.0281263666
 20
14.1120844117
 10
-11.0265347839
 20
14.1197716067
 10
-11.0251832514
 20
14.1274555094
 10
-11.024069344
 20
14.1351375947
 10
-11.0231958498
 20
14.1428340728
 10
-11.02256686
 20
14.1505648377
 10
-11.0221864659
 20
14.1583497838
 10
-11.0220587587
 20
14.166208805
  0
LWPOLYLINE
  5
36A
100
AcDbEntity
  8
0
100
AcDbPolyline
 62
253
  6
CONTINUOUS
 90
36
 70
0
 10
-12.4531017777
 20
13.4232940829
 10
-12.4588576859
 20
13.4233682329
 10
-12.4645915713
 20
13.4235887502
 10
-12.4703047554
 20
13.4239527363
 10
-12.4759985601
 20
13.4244572924
 10
-12.4816743072
 20
13.4250995199
 10
-12.4873333183
 20
13.4258765199
 10
-12.4929769151
 20
13.4267853939
 10
-12.4986055454
 20
13.4278233561
 10
-12.5042161604
 20
13.428988073
 10
-12.5098048371
 20
13.4302773239
 10
-12.5153676528
 20
13.4316888883
 10
-12.5209006845
 20
13.4332205455
 10
-12.5264000093
 20
13.4348700751
 10
-12.5318617044
 20
13.4366352563
 10
-12.5372822681
 20
13.4385140923
 10
-12.5426598835
 20
13.4405054806
 10
-12.5479931546
 20
13.4426085423
 10
-12.5532806858
 20
13.4448223986
 10
-12.5585210813
 20
13.4471461707
 10
-12.5637129452
 20
13.4495789796
 10
-12.5688548817
 20
13.4521199466
 10
-12.5739452403
 20
13.4547682716
 10
-12.5789813513
 20
13.4575234699
 10
-12.58396029
 20
13.4603851356
 10
-12.588879132
 20
13.4633528628
 10
-12.5937349527
 20
13.4664262456
 10
-12.5985248276
 20
13.469604878
 10
-12.6032458321
 20
13.4728883543
 10
-12.6078952276
 20
13.4762768244
 10
-12.6124710193
 20
13.4797726623
 10
-12.6169713982
 20
13.4833787979
 10
-12.6213945553
 20
13.4870981612
 10
-12.6257386817
 20
13.490933682
 10
-12.6300019684
 20
13.4948882904
 10
-12.6341826064
 20
13.4989649162
  0
LWPOLYLINE
  5
36B
100
AcDbEntity
  8
0
100
AcDbPolyline
 62
253
  6
CONTINUOUS
 90
36
 70
0
 10
-10.1022612822
 20
13.4232940829
 10
-10.1080112108
 20
13.4233679262
 10
-10.1137393494
 20
13.4235875442
 10
-10.1194469975
 20
13.4239500695
 10
-10.1251354543
 20
13.4244526345
 10
-10.1308060194
 20
13.4250923717
 10
-10.136459992
 20
13.4258664136
 10
-10.1420986716
 20
13.4267718926
 10
-10.1477224981
 20
13.4278060642
 10
-10.1533284737
 20
13.4289666758
 10
-10.1589127414
 20
13.4302515982
 10
-10.1644714438
 20
13.4316587017
 10
-10.1700007238
 20
13.4331858569
 10
-10.1754967241
 20
13.4348309343
 10
-10.1809555877
 20
13.4365918046
 10
-10.1863738497
 20
13.4384665548
 10
-10.1917496156
 20
13.4404541388
 10
-10.1970813831
 20
13.4425537274
 10
-10.2023676503
 20
13.444764491
 10
-10.2076069148
 20
13.4470856002
 10
-10.2127976746
 20
13.4495162255
 10
-10.2179384275
 20
13.4520555377
 10
-10.2230274245
 20
13.4547027871
 10
-10.2280619283
 20
13.4574575435
 10
-10.2330389551
 20
13.4603194569
 10
-10.2379555207
 20
13.4632881768
 10
-10.242808641
 20
13.4663633532
 10
-10.2475953322
 20
13.4695446356
 10
-10.25231261
 20
13.472831674
 10
-10.2569576702
 20
13.4762246785
 10
-10.261528428
 20
13.479726101
 10
-10.2660229781
 20
13.4833389538
 10
-10.2704394155
 20
13.4870662494
 10
-10.274775835
 20
13.4909110001
 10
-10.2790303315
 20
13.4948762183
 10
-10.2832009998
 20
13.4989649162
  0
LWPOLYLINE
  5
36C
100
AcDbEntity
  8
0
100
AcDbPolyline
 62
253
  6
CONTINUOUS
 90
57
 70
0
 10
-11.2777168077
 20
13.317249083
 10
-11.2565384606
 20
13.316952033
 10
-11.2353944061
 20
13.3160625343
 10
-11.2142435071
 20
13.3145830638
 10
-11.1930446265
 20
13.3125160985
 10
-11.171764283
 20
13.3098621931
 10
-11.1503996186
 20
13.3066142131
 10
-11.1289554315
 20
13.3027631018
 10
-11.1074365196
 20
13.2982998025
 10
-11.0858535594
 20
13.2932171318
 10
-11.0642407421
 20
13.2875154
 10
-11.0426381375
 20
13.2811967907
 10
-11.0210858152
 20
13.2742634876
 10
-10.9996201028
 20
13.2667168849
 10
-10.9782623589
 20
13.2585552185
 10
-10.9570301998
 20
13.2497759347
 10
-10.935941242
 20
13.2403764802
 10
-10.915015732
 20
13.2303557863
 10
-10.8942844365
 20
13.2197187252
 10
-10.8737807525
 20
13.2084716538
 10
-10.853538077
 20
13.1966209293
 10
-10.833585698
 20
13.1841696494
 10
-10.8139364686
 20
13.1711078751
 10
-10.794599133
 20
13.1574224079
 10
-10.7755824355
 20
13.1431000494
 10
-10.7569029301
 20
13.1281336784
 10
-10.7386084095
 20
13.1125404831
 10
-10.7207544764
 20
13.0963437287
 10
-10.7033967334
 20
13.0795666806
 10
-10.6865861319
 20
13.0622388695
 10
-10.6703550189
 20
13.0444148874
 10
-10.6547310905
 20
13.0261555917
 10
-10.6397420425
 20
13.0075218396
 10
-10.6254078591
 20
12.9885650572
 10
-10.6117176765
 20
12.9692989444
 10
-10.5986529193
 20
12.9497277699
 10
-10.5861950119
 20
12.9298558023
 10
-10.5743284669
 20
12.909688315
 10
-10.5630501495
 20
12.8892346011
 10
-10.552360013
 20
12.8685049586
 10
-10.5422580109
 20
12.8475096854
 10
-10.5327461231
 20
12.8262642538
 10
-10.5238344362
 20
12.8048048333
 10
-10.5155350633
 20
12.7831727674
 10
-10.5078601176
 20
12.7614093999
 10
-10.5008201048
 20
12.7395591592
 10
-10.4944191014
 20
12.7176788128
 10
-10.4886595762
 20
12.6958282128
 10
-10.483543998
 20
12.6740672113
 10
-10.4790717792
 20
12.6524444386
 10
-10.4752301053
 20
12.6309636384
 10
-10.4720031052
 20
12.6096173323
 10
-10.4693749078
 20
12.5883980422
 10
-10.4673323364
 20
12.5672930787
 10
-10.4658729916
 20
12.5462689086
 10
-10.4649971684
 20
12.5252867878
 10
-10.4647051618
 20
12.504307972
  0
LWPOLYLINE
  5
36D
100
AcDbEntity
  8
ASSI
100
AcDbPolyline
 62
253
  6
CONTINUOUS
 90
13
 70
0
 10
21.6467481671
 20
22.0700360412
 10
21.646279961
 20
22.068271695
 10
21.6458134295
 20
22.0657891874
 10
21.6453485724
 20
22.06259032
 10
21.6448850633
 20
22.058677422
 10
21.6444232287
 20
22.0540533179
 10
21.6439640481
 20
22.0487213077
 10
21.6435075165
 20
22.0426851979
 10
21.6430536389
 20
22.0359493577
 10
21.6426034094
 20
22.0285186884
 10
21.6421568428
 20
22.0203985815
 10
21.6417139243
 20
22.0115948737
 10
21.6408418885
 20
21.9919624397
  0
LWPOLYLINE
  5
36E
100
AcDbEntity
  8
ASSI
100
AcDbPolyline
 62
253
  6
CONTINUOUS
 90
11
 70
0
 10
22.0957292711
 20
-9.4774077307
 10
22.0949153255
 20
-9.4777118434
 10
22.093590638
 20
-9.4780156448
 10
22.0917565648
 20
-9.4783188239
 10
22.0894149835
 20
-9.4786210701
 10
22.0865682915
 20
-9.4789220742
 10
22.083219403
 20
-9.479221528
 10
22.0793717466
 20
-9.4795191248
 10
22.0750292615
 20
-9.4798145601
 10
22.0701963933
 20
-9.4801075313
 10
22.0648780898
 20
-9.4803977385
  0
LWPOLYLINE
  5
36F
100
AcDbEntity
  8
0
100
AcDbPolyline
 62
253
  6
CONTINUOUS
 90
55
 70
0
 10
-11.2777168077
 20
15.4932529713
 10
-11.2854641232
 20
15.4931289016
 10
-11.2931382284
 20
15.492759275
 10
-11.3007585598
 20
15.4921479656
 10
-11.3083445537
 20
15.4912988473
 10
-11.3159156466
 20
15.4902157941
 10
-11.3234872994
 20
15.4889016733
 10
-11.3310590698
 20
15.4873553252
 10
-11.33862654
 20
15.4855745833
 10
-11.3461852921
 20
15.4835572813
 10
-11.3537309084
 20
15.4813012527
 10
-11.3612577362
 20
15.47880469
 10
-11.3687551843
 20
15.4760672214
 10
-11.3762114265
 20
15.4730888336
 10
-11.3836146368
 20
15.4698695138
 10
-11.3909529893
 20
15.4664092487
 10
-11.3970082713
 20
15.4633431608
 10
-11.4029918437
 20
15.4601189196
 10
-11.4088852498
 20
15.4567457041
 10
-11.4146746849
 20
15.4532297687
 10
-11.4203649531
 20
15.4495656698
 10
-11.4259655107
 20
15.4457450393
 10
-11.4314825917
 20
15.4417614097
 10
-11.4369095414
 20
15.4376159153
 10
-11.4422364828
 20
15.4333115909
 10
-11.4474535388
 20
15.4288514714
 10
-11.4525508325
 20
15.4242385914
 10
-11.4575184869
 20
15.4194759859
 10
-11.4623477933
 20
15.4145674746
 10
-11.4670347162
 20
15.4095200171
 10
-11.4715763883
 20
15.4043413582
 10
-11.4759699423
 20
15.3990392423
 10
-11.480212511
 20
15.3936214141
 10
-11.4843012271
 20
15.3880956183
 10
-11.4882349135
 20
15.382466575
 10
-11.4920191536
 20
15.3767269069
 10
-11.4956612209
 20
15.3708662121
 10
-11.4991649263
 20
15.3648798425
 10
-11.5025202296
 20
15.3587861647
 10
-11.5057136284
 20
15.3526092988
 10
-11.5093167941
 20
15.3451169159
 10
-11.51266692
 20
15.3375553735
 10
-11.515763553
 20
15.3299405696
 10
-11.51860624
 20
15.3222884024
 10
-11.5211945279
 20
15.31461477
 10
-11.5235286563
 20
15.3069332882
 10
-11.525611637
 20
15.2992484436
 10
-11.5274471743
 20
15.2915624407
 10
-11.5290389727
 20
15.2838774838
 10
-11.5303907368
 20
15.2761957773
 10
-11.5315048691
 20
15.2685158507
 10
-11.532378565
 20
15.2608215346
 10
-11.5330077178
 20
15.2530929845
 10
-11.5333882209
 20
15.245310356
 10
-11.5335159679
 20
15.2374538047
  0
LWPOLYLINE
  5
370
100
AcDbEntity
  8
ASSI
100
AcDbPolyline
 62
253
  6
CONTINUOUS
 90
13
 70
0
 10
22.0957292711
 20
9.5035922693
 10
22.0949153255
 20
9.5038963821
 10
22.093590638
 20
9.5042001835
 10
22.0917565648
 20
9.5045033625
 10
22.0894149836
 20
9.5048056088
 10
22.0865682915
 20
9.5051066129
 10
22.0832194031
 20
9.5054060666
 10
22.0793717467
 20
9.5057036635
 10
22.0750292616
 20
9.5059990987
 10
22.0701963934
 20
9.5062920699
 10
22.0648780898
 20
9.5065822771
 10
22.0590797958
 20
9.5068694232
 10
22.0460674659
 20
9.5074333597
  0
LWPOLYLINE
  5
371
100
AcDbEntity
  8
ASSI
100
AcDbPolyline
 62
253
  6
CONTINUOUS
 90
16
 70
0
 10
22.1396847729
 20
-21.4943604293
 10
22.1401083768
 20
-21.5000936968
 10
22.1405375069
 20
-21.5055035735
 10
22.1409712362
 20
-21.5105783658
 10
22.1414095741
 20
-21.5153173442
 10
22.1418525113
 20
-21.5197212382
 10
22.142299093
 20
-21.5237805426
 10
22.1427493288
 20
-21.5274945204
 10
22.1432032092
 20
-21.5308639086
 10
22.1436597514
 20
-21.5338814122
 10
22.1441189743
 20
-21.5365462861
 10
22.1445808589
 20
-21.5388592754
 10
22.1450443658
 20
-21.5408153209
 10
22.1455091484
 20
-21.5424127362
 10
22.1459755534
 20
-21.5436532076
 10
22.1464435806
 20
-21.5445367352
  0
LINE
  5
372
100
AcDbEntity
  8
ASSI
100
AcDbLine
 62
253
  6
CONTINUOUS
 10
22.138854168
 20
-21.4819223239
 11
22.1396847729
 21
-21.4943604293
  0
LINE
  5
373
100
AcDbEntity
  8
ASSI
100
AcDbLine
 62
253
  6
CONTINUOUS
 10
22.1380483538
 20
-21.4682313573
 11
22.138854168
 21
-21.4819223239
  0
LWPOLYLINE
  5
374
100
AcDbEntity
  8
ASSI
100
AcDbPolyline
 62
253
  6
CONTINUOUS
 90
11
 70
0
 10
21.6421568428
 20
-21.9942140428
 10
21.6426034094
 20
-22.0023341498
 10
21.6430536389
 20
-22.009764819
 10
21.6435075165
 20
-22.0165006592
 10
21.6439640481
 20
-22.022536769
 10
21.6444232287
 20
-22.0278687793
 10
21.6448850633
 20
-22.0324928833
 10
21.6453485724
 20
-22.0364057814
 10
21.6458134295
 20
-22.0396046487
 10
21.646279961
 20
-22.0420871564
 10
21.6467481671
 20
-22.0438515026
  0
LINE
  5
375
100
AcDbEntity
  8
ASSI
100
AcDbLine
 62
253
  6
CONTINUOUS
 10
22.1372690702
 20
-21.4533171197
 11
22.1380483538
 21
-21.4682313573
  0
LINE
  5
376
100
AcDbEntity
  8
ASSI
100
AcDbLine
 62
253
  6
CONTINUOUS
 10
21.6412756038
 20
-21.9759293486
 11
21.6421568428
 21
-21.9942140428
  0
LWPOLYLINE
  5
377
100
AcDbEntity
  8
ASSI
100
AcDbPolyline
 62
253
  6
CONTINUOUS
 90
3
 70
0
 10
22.136155488
 20
-21.4287580588
 10
22.1365188822
 20
-21.4372264251
 10
22.1372690702
 20
-21.4533171197
  0
LINE
  5
378
100
AcDbEntity
  8
ASSI
100
AcDbLine
 62
253
  6
CONTINUOUS
 10
21.6404127711
 20
-21.9549633234
 11
21.6412756038
 21
-21.9759293486
  0
LINE
  5
379
100
AcDbEntity
  8
ASSI
100
AcDbLine
 62
253
  6
CONTINUOUS
 10
21.6395711288
 20
-21.9313764914
 11
21.6404127711
 21
-21.9549633234
  0
LINE
  5
37A
100
AcDbEntity
  8
ASSI
100
AcDbLine
 62
253
  6
CONTINUOUS
 10
21.6383528173
 20
-21.8912330855
 11
21.6395711288
 21
-21.9313764914
  0
LINE
  5
37B
100
AcDbEntity
  8
ASSI
100
AcDbLine
 62
253
  6
CONTINUOUS
 10
21.6368233973
 20
-21.8292319188
 11
21.6383528173
 21
-21.8912330855
  0
LINE
  5
37C
100
AcDbEntity
  8
ASSI
100
AcDbLine
 62
253
  6
CONTINUOUS
 10
21.6361047167
 20
-21.7947976172
 11
21.6368233973
 21
-21.8292319188
  0
LINE
  5
37D
100
AcDbEntity
  8
ASSI
100
AcDbLine
 62
253
  6
CONTINUOUS
 10
21.6375735598
 20
21.8875924935
 11
21.6361047167
 21
21.8209821559
  0
LINE
  5
37E
100
AcDbEntity
  8
ASSI
100
AcDbLine
 62
253
  6
CONTINUOUS
 10
21.6387524955
 20
21.9314214292
 11
21.6375735598
 21
21.8875924935
  0
LINE
  5
37F
100
AcDbEntity
  8
ASSI
100
AcDbLine
 62
253
  6
CONTINUOUS
 10
21.6399891802
 20
21.9696779681
 11
21.6387524955
 21
21.9314214292
  0
LINE
  5
380
100
AcDbEntity
  8
ASSI
100
AcDbLine
 62
253
  6
CONTINUOUS
 10
21.6408418885
 20
21.9919624397
 11
21.6399891802
 21
21.9696779681
  0
LINE
  5
381
100
AcDbEntity
  8
ASSI
100
AcDbLine
 62
253
  6
CONTINUOUS
 10
22.1368903433
 20
21.4716032113
 11
22.136155488
 21
21.4549425974
  0
LINE
  5
382
100
AcDbEntity
  8
ASSI
100
AcDbLine
 62
253
  6
CONTINUOUS
 10
22.1376550791
 20
21.4871056774
 11
22.1368903433
 21
21.4716032113
  0
LINE
  5
383
100
AcDbEntity
  8
ASSI
100
AcDbLine
 62
253
  6
CONTINUOUS
 10
22.1384480455
 20
21.5014165142
 11
22.1376550791
 21
21.4871056774
  0
LINE
  5
384
100
AcDbEntity
  8
ASSI
100
AcDbLine
 62
7
  6
CONTINUOUS
 10
18.9807315999
 20
22.2213302099
 11
18.6325129259
 21
22.1897213783
  0
LINE
  5
385
100
AcDbEntity
  8
ASSI
100
AcDbLine
 62
253
  6
CONTINUOUS
 10
21.6303967114
 20
21.2204886889
 11
-21.7808409134
 21
21.2204886889
  0
LINE
  5
386
100
AcDbEntity
  8
ASSI
100
AcDbLine
 62
7
  6
CONTINUOUS
 10
-19.1311758019
 20
22.2213302099
 11
-18.7829571279
 21
22.1897213783
  0
LINE
  5
387
100
AcDbEntity
  8
ASSI
100
AcDbLine
 62
253
  6
CONTINUOUS
 10
22.1351145073
 20
-21.4017139286
 11
22.136155488
 21
-21.4287580588
  0
LINE
  5
388
100
AcDbEntity
  8
ASSI
100
AcDbLine
 62
253
  6
CONTINUOUS
 10
22.1341528764
 20
-21.3723602346
 11
22.1351145073
 21
-21.4017139286
  0
LINE
  5
389
100
AcDbEntity
  8
ASSI
100
AcDbLine
 62
253
  6
CONTINUOUS
 10
22.1332768186
 20
-21.3408871473
 11
22.1341528764
 21
-21.3723602346
  0
LINE
  5
38A
100
AcDbEntity
  8
ASSI
100
AcDbLine
 62
253
  6
CONTINUOUS
 10
22.1322516473
 20
-21.295983352
 11
22.1332768186
 21
-21.3408871473
  0
LWPOLYLINE
  5
38B
100
AcDbEntity
  8
ASSI
100
AcDbPolyline
 62
253
  6
CONTINUOUS
 90
43
 70
0
 10
22.0925860058
 20
-0.3823717374
 10
22.0924085116
 20
-0.3730261048
 10
22.0918819663
 20
-0.3636935378
 10
22.0910071061
 20
-0.3543870838
 10
22.089785154
 20
-0.3451197538
 10
22.0882178185
 20
-0.3359045039
 10
22.0863072907
 20
-0.3267542174
 10
22.0840562416
 20
-0.317681687
 10
22.0814678184
 20
-0.3086995964
 10
22.0785456397
 20
-0.2998205031
 10
22.075293791
 20
-0.2910568204
 10
22.0717168184
 20
-0.2824208005
 10
22.0678197228
 20
-0.2739245169
 10
22.0636079524
 20
-0.2655798477
 10
22.0590873957
 20
-0.2573984594
 10
22.0542643724
 20
-0.2493917898
 10
22.0491456256
 20
-0.2415710326
 10
22.0437383113
 20
-0.2339471217
 10
22.0380499893
 20
-0.2265307157
 10
22.0320886123
 20
-0.2193321829
 10
22.0258625143
 20
-0.2123615874
 10
22.0193804
 20
-0.2056286744
 10
22.0126513315
 20
-0.1991428567
 10
22.0056847165
 20
-0.1929132019
 10
21.9984902945
 20
-0.1869484193
 10
21.9910781239
 20
-0.181256848
 10
21.9834585671
 20
-0.175846445
 10
21.9756422766
 20
-0.1707247743
 10
21.9676401801
 20
-0.1658989964
 10
21.9594634648
 20
-0.1613758577
 10
21.9511235622
 20
-0.157161682
 10
21.9426321319
 20
-0.1532623608
 10
21.9340010452
 20
-0.1496833455
 10
21.9252423689
 20
-0.1464296397
 10
21.9163683481
 20
-0.1435057924
 10
21.9073913889
 20
-0.1409158911
 10
21.8983240418
 20
-0.1386635567
 10
21.8891789831
 20
-0.136751938
 10
21.8799689982
 20
-0.1351837076
 10
21.8707069631
 20
-0.1339610578
 10
21.8614058265
 20
-0.1330856981
 10
21.8520785918
 20
-0.1325588522
 10
21.8427382991
 20
-0.1323812567
  0
LWPOLYLINE
  5
38C
100
AcDbEntity
  8
ASSI
100
AcDbPolyline
 62
253
  6
CONTINUOUS
 90
49
 70
0
 10
22.1464435806
 20
21.5707212739
 10
22.1461468314
 20
21.5870394316
 10
22.1453165565
 20
21.603340156
 10
22.1439536428
 20
21.6196060326
 10
22.1420595465
 20
21.6358196838
 10
22.1396362911
 20
21.651963788
 10
22.1366864653
 20
21.668021098
 10
22.1332132207
 20
21.6839744591
 10
22.1292202677
 20
21.6998068277
 10
22.1247118723
 20
21.7155012896
 10
22.1196928508
 20
21.7310410777
 10
22.1141685653
 20
21.7464095904
 10
22.1081449176
 20
21.761590409
 10
22.101628343
 20
21.7765673151
 10
22.0946258032
 20
21.7913243085
 10
22.0871447795
 20
21.8058456236
 10
22.0791932641
 20
21.820115747
 10
22.0707797518
 20
21.8341194331
 10
22.061913231
 20
21.8478417215
 10
22.0526031743
 20
21.861267952
 10
22.0428595279
 20
21.874383781
 10
22.0326927013
 20
21.8871751963
 10
22.022113556
 20
21.8996285323
 10
22.0111333942
 20
21.9117304848
 10
21.9997639464
 20
21.9234681248
 10
21.9880173588
 20
21.9348289125
 10
21.975906181
 20
21.9458007108
 10
21.9634433516
 20
21.956371798
 10
21.9506421851
 20
21.9665308808
 10
21.9375163575
 20
21.9762671057
 10
21.9240798917
 20
21.9855700713
 10
21.9103471422
 20
21.9944298388
 10
21.8963327803
 20
22.002836943
 10
21.882051778
 20
22.0107824022
 10
21.8675193923
 20
22.0182577282
 10
21.8527511485
 20
22.0252549346
 10
21.8377628242
 20
22.0317665461
 10
21.822570432
 20
22.0377856061
 10
21.8071902024
 20
22.0433056843
 10
21.7916385667
 20
22.0483208833
 10
21.7759321392
 20
22.0528258452
 10
21.7600876998
 20
22.0568157572
 10
21.7441221756
 20
22.0602863567
 10
21.7280526232
 20
22.0632339359
 10
21.7118962103
 20
22.0656553459
 10
21.6956701973
 20
22.0675479997
 10
21.6793919191
 20
22.0689098754
 10
21.6630787664
 20
22.069739518
 10
21.6467481671
 20
22.0700360412
  0
LINE
  5
38D
100
AcDbEntity
  8
ASSI
100
AcDbLine
 62
253
  6
CONTINUOUS
 10
22.1314002532
 20
-21.2481850547
 11
22.1322516473
 21
-21.295983352
  0
LINE
  5
38E
100
AcDbEntity
  8
ASSI
100
AcDbLine
 62
253
  6
CONTINUOUS
 10
21.6344574681
 20
-21.6994988422
 11
21.6361047167
 21
-21.7947976172
  0
LINE
  5
38F
100
AcDbEntity
  8
ASSI
100
AcDbLine
 62
253
  6
CONTINUOUS
 10
22.1305955344
 20
-21.185231949
 11
22.1314002532
 21
-21.2481850547
  0
LINE
  5
390
100
AcDbEntity
  8
ASSI
100
AcDbLine
 62
253
  6
CONTINUOUS
 10
21.6325562872
 20
-21.5467453056
 11
21.6344574681
 21
-21.6994988422
  0
LINE
  5
391
100
AcDbEntity
  8
ASSI
100
AcDbLine
 62
253
  6
CONTINUOUS
 10
21.6310373721
 20
-21.3509092612
 11
21.6325562872
 21
-21.5467453056
  0
LINE
  5
392
100
AcDbEntity
  8
ASSI
100
AcDbLine
 62
253
  6
CONTINUOUS
 10
22.1300921249
 20
-21.1197630591
 11
22.1305955344
 21
-21.185231949
  0
LINE
  5
393
100
AcDbEntity
  8
ASSI
100
AcDbLine
 62
7
  6
CONTINUOUS
 10
22.2484705896
 20
21.7238395771
 11
22.274777899
 21
13.1130922693
  0
LINE
  5
394
100
AcDbEntity
  8
ASSI
100
AcDbLine
 62
253
  6
CONTINUOUS
 10
21.6303967114
 20
-21.1943041503
 11
21.6310373721
 21
-21.3509092612
  0
LINE
  5
395
100
AcDbEntity
  8
ASSI
100
AcDbLine
 62
253
  6
CONTINUOUS
 10
21.6015812348
 20
-13.4024990771
 11
21.6303967114
 21
-21.1943041503
  0
LINE
  5
396
100
AcDbEntity
  8
ASSI
100
AcDbLine
 62
253
  6
CONTINUOUS
 10
22.1012766469
 20
-13.3712379327
 11
22.1300921249
 21
-21.1197630591
  0
LINE
  5
397
100
AcDbEntity
  8
ASSI
100
AcDbLine
 62
253
  6
CONTINUOUS
 10
21.5943437828
 20
-6.4530150951
 11
21.6015812348
 21
-13.4024990771
  0
LINE
  5
398
100
AcDbEntity
  8
ASSI
100
AcDbLine
 62
253
  6
CONTINUOUS
 10
22.0940389087
 20
-6.445912042
 11
22.1012766469
 21
-13.3712379327
  0
LINE
  5
399
100
AcDbEntity
  8
ASSI
100
AcDbLine
 62
253
  6
CONTINUOUS
 10
21.5943437828
 20
-6.4530150951
 11
21.5928906451
 21
-0.1344868189
  0
LINE
  5
39A
100
AcDbEntity
  8
ASSI
100
AcDbLine
 62
253
  6
CONTINUOUS
 10
22.0925861026
 20
-0.3823717132
 11
22.0940389087
 21
-6.445912042
  0
LINE
  5
39B
100
AcDbEntity
  8
ASSI
100
AcDbLine
 62
7
  6
CONTINUOUS
 10
22.274777899
 20
-0.3368411094
 11
22.274777899
 21
-13.0869077307
  0
LINE
  5
39C
100
AcDbEntity
  8
ASSI
100
AcDbLine
 62
7
  6
CONTINUOUS
 10
22.274777899
 20
0.3630256481
 11
22.274777899
 21
13.1130922693
  0
LINE
  5
39D
100
AcDbEntity
  8
ASSI
100
AcDbLine
 62
7
  6
CONTINUOUS
 10
22.2484705896
 20
-21.6976550384
 11
22.274777899
 21
-13.0869077307
  0
LINE
  5
39E
100
AcDbEntity
  8
ASSI
100
AcDbLine
 62
253
  6
CONTINUOUS
 10
21.61104399
 20
16.7767018013
 11
21.5928906451
 21
0.1606713575
  0
LINE
  5
39F
100
AcDbEntity
  8
ASSI
100
AcDbLine
 62
253
  6
CONTINUOUS
 10
22.1107394038
 20
16.7268413353
 11
22.0925861026
 21
0.4085562519
  0
LINE
  5
3A0
100
AcDbEntity
  8
ASSI
100
AcDbLine
 62
253
  6
CONTINUOUS
 10
21.6315204908
 20
21.4526783519
 11
21.61104399
 21
16.7767018013
  0
LINE
  5
3A1
100
AcDbEntity
  8
ASSI
100
AcDbLine
 62
253
  6
CONTINUOUS
 10
22.1303573326
 20
21.1854608425
 11
22.1107394038
 21
16.7268413353
  0
LINE
  5
3A2
100
AcDbEntity
  8
ASSI
100
AcDbLine
 62
253
  6
CONTINUOUS
 10
21.633309512
 20
21.6408859944
 11
21.6315204908
 21
21.4526783519
  0
LINE
  5
3A3
100
AcDbEntity
  8
ASSI
100
AcDbLine
 62
253
  6
CONTINUOUS
 10
22.131043062
 20
21.249567659
 11
22.1303573326
 21
21.1854608425
  0
LINE
  5
3A4
100
AcDbEntity
  8
ASSI
100
AcDbLine
 62
253
  6
CONTINUOUS
 10
21.6350894885
 20
21.7653153617
 11
21.633309512
 21
21.6408859944
  0
LINE
  5
3A5
100
AcDbEntity
  8
ASSI
100
AcDbLine
 62
253
  6
CONTINUOUS
 10
22.1318035289
 20
21.2985960533
 11
22.131043062
 21
21.249567659
  0
LWPOLYLINE
  5
3A6
100
AcDbEntity
  8
ASSI
100
AcDbPolyline
 62
253
  6
CONTINUOUS
 90
49
 70
0
 10
22.1464435806
 20
-21.5445367352
 10
22.1461468314
 20
-21.5608548939
 10
22.1453165564
 20
-21.5771556192
 10
22.1439536426
 20
-21.5934214966
 10
22.1420595461
 20
-21.6096351487
 10
22.1396362904
 20
-21.6257792537
 10
22.1366864643
 20
-21.6418365644
 10
22.1332132193
 20
-21.6577899262
 10
22.129220266
 20
-21.6736222954
 10
22.1247118701
 20
-21.6893167578
 10
22.1196928483
 20
-21.7048565465
 10
22.1141685623
 20
-21.7202250597
 10
22.1081449142
 20
-21.7354058786
 10
22.1016283391
 20
-21.750382785
 10
22.0946257989
 20
-21.7651397787
 10
22.0871447747
 20
-21.779661094
 10
22.0791932588
 20
-21.7939312174
 10
22.070779746
 20
-21.8079349037
 10
22.0619132249
 20
-21.821657192
 10
22.0526031678
 20
-21.8350834225
 10
22.042859521
 20
-21.8481992514
 10
22.032692694
 20
-21.8609906665
 10
22.0221135484
 20
-21.8734440024
 10
22.0111333863
 20
-21.8855459546
 10
21.9997639382
 20
-21.8972835943
 10
21.9880173505
 20
-21.9086443817
 10
21.9759061725
 20
-21.9196161796
 10
21.9634433429
 20
-21.9301872664
 10
21.9506421764
 20
-21.9403463488
 10
21.9375163489
 20
-21.9500825733
 10
21.9240798831
 20
-21.9593855384
 10
21.9103471337
 20
-21.9682453054
 10
21.896332772
 20
-21.9766524091
 10
21.8820517699
 20
-21.9845978679
 10
21.8675193844
 20
-21.9920731934
 10
21.852751141
 20
-21.9990703993
 10
21.8377628171
 20
-22.0055820104
 10
21.8225704252
 20
-22.01160107
 10
21.8071901961
 20
-22.0171211478
 10
21.7916385609
 20
-22.0221363464
 10
21.775932134
 20
-22.026641308
 10
21.7600876952
 20
-22.0306312196
 10
21.7441221716
 20
-22.0341018188
 10
21.7280526198
 20
-22.0370493978
 10
21.7118962075
 20
-22.0394708076
 10
21.6956701952
 20
-22.0413634613
 10
21.6793919177
 20
-22.0427253369
 10
21.6630787657
 20
-22.0435549794
 10
21.6467481671
 20
-22.0438515026
  0
LWPOLYLINE
  5
3A7
100
AcDbEntity
  8
ASSI
100
AcDbPolyline
 62
253
  6
CONTINUOUS
 90
43
 70
0
 10
22.0925860058
 20
0.4085562761
 10
22.0924085116
 20
0.3992106445
 10
22.0918819665
 20
0.3898780785
 10
22.0910071064
 20
0.3805716256
 10
22.0897851547
 20
0.3713042966
 10
22.0882178195
 20
0.3620890476
 10
22.0863072921
 20
0.352938762
 10
22.0840562435
 20
0.3438662324
 10
22.0814678207
 20
0.3348841427
 10
22.0785456426
 20
0.3260050501
 10
22.0752937945
 20
0.3172413681
 10
22.0717168226
 20
0.3086053487
 10
22.0678197276
 20
0.3001090656
 10
22.063607958
 20
0.2917643969
 10
22.0590874019
 20
0.2835830088
 10
22.0542643794
 20
0.2755763395
 10
22.0491456332
 20
0.2677555824
 10
22.0437383196
 20
0.2601316716
 10
22.0380499982
 20
0.2527152655
 10
22.0320886217
 20
0.2455167326
 10
22.0258625244
 20
0.2385461369
 10
22.0193804105
 20
0.2318132235
 10
22.0126513424
 20
0.2253274055
 10
22.0056847277
 20
0.2190977503
 10
21.9984903061
 20
0.2131329672
 10
21.9910781356
 20
0.2074413953
 10
21.9834585789
 20
0.2020309917
 10
21.9756422885
 20
0.1969093204
 10
21.9676401918
 20
0.1920835418
 10
21.9594634763
 20
0.1875604025
 10
21.9511235734
 20
0.1833462261
 10
21.9426321427
 20
0.1794469041
 10
21.9340010555
 20
0.1758678882
 10
21.9252423786
 20
0.1726141818
 10
21.916368357
 20
0.1696903338
 10
21.9073913971
 20
0.167100432
 10
21.898324049
 20
0.164848097
 10
21.8891789893
 20
0.1629364778
 10
21.8799690033
 20
0.161368247
 10
21.870706967
 20
0.1601455969
 10
21.8614058292
 20
0.159270237
 10
21.8520785932
 20
0.1587433909
 10
21.8427382991
 20
0.1585657953
  0
LINE
  5
3A8
100
AcDbEntity
  8
ASSI
100
AcDbLine
 62
253
  6
CONTINUOUS
 10
21.6361047167
 20
21.8209821559
 11
21.6350894885
 21
21.7653153617
  0
LINE
  5
3A9
100
AcDbEntity
  8
ASSI
100
AcDbLine
 62
253
  6
CONTINUOUS
 10
22.1327430972
 20
21.3450095421
 11
22.1318035289
 21
21.2985960533
  0
LINE
  5
3AA
100
AcDbEntity
  8
ASSI
100
AcDbLine
 62
253
  6
CONTINUOUS
 10
22.1338511388
 20
21.3882816732
 11
22.1327430972
 21
21.3450095421
  0
LINE
  5
3AB
100
AcDbEntity
  8
ASSI
100
AcDbLine
 62
253
  6
CONTINUOUS
 10
22.1347849165
 20
21.4183634774
 11
22.1338511388
 21
21.3882816732
  0
LWPOLYLINE
  5
3AC
100
AcDbEntity
  8
ASSI
100
AcDbPolyline
 62
253
  6
CONTINUOUS
 90
3
 70
0
 10
22.136155488
 20
21.4549425974
 10
22.1358001777
 20
21.446197506
 10
22.1347849165
 20
21.4183634774
  0
LINE
  5
3AD
100
AcDbEntity
  8
ASSI
100
AcDbLine
 62
7
  6
CONTINUOUS
 10
7.7807315999
 20
22.2213302099
 11
7.4325129259
 21
22.1897213783
  0
LINE
  5
3AE
100
AcDbEntity
  8
ASSI
100
AcDbLine
 62
7
  6
CONTINUOUS
 10
-3.5192684001
 20
22.2213302099
 11
-3.8674870741
 21
22.1897213783
  0
LINE
  5
3AF
100
AcDbEntity
  8
ASSI
100
AcDbLine
 62
253
  6
CONTINUOUS
 10
21.6467481671
 20
22.0700360412
 11
-21.7971923691
 21
22.0700360412
  0
LINE
  5
3B0
100
AcDbEntity
  8
ASSI
100
AcDbLine
 62
7
  6
CONTINUOUS
 10
-18.6097520472
 20
22.1844806004
 11
-15.2406921548
 21
22.1844806004
  0
LINE
  5
3B1
100
AcDbEntity
  8
ASSI
100
AcDbLine
 62
7
  6
CONTINUOUS
 10
-7.4097520472
 20
22.1844806004
 11
-4.0406921548
 21
22.1844806004
  0
LINE
  5
3B2
100
AcDbEntity
  8
ASSI
100
AcDbLine
 62
7
  6
CONTINUOUS
 10
3.8902479528
 20
22.1844806004
 11
7.2593078452
 21
22.1844806004
  0
LINE
  5
3B3
100
AcDbEntity
  8
ASSI
100
AcDbLine
 62
7
  6
CONTINUOUS
 10
15.0902479528
 20
22.1844806004
 11
18.4593078452
 21
22.1844806004
  0
LINE
  5
3B4
100
AcDbEntity
  8
ASSI
100
AcDbLine
 62
7
  6
CONTINUOUS
 10
-21.8980039062
 20
22.2213302099
 11
-19.1311758019
 21
22.2213302099
  0
LINE
  5
3B5
100
AcDbEntity
  8
ASSI
100
AcDbLine
 62
7
  6
CONTINUOUS
 10
-14.7192684001
 20
22.2213302099
 11
-7.9311758019
 21
22.2213302099
  0
LINE
  5
3B6
100
AcDbEntity
  8
ASSI
100
AcDbLine
 62
7
  6
CONTINUOUS
 10
-3.5192684001
 20
22.2213302099
 11
3.3688241981
 21
22.2213302099
  0
LINE
  5
3B7
100
AcDbEntity
  8
ASSI
100
AcDbLine
 62
7
  6
CONTINUOUS
 10
7.7807315999
 20
22.2213302099
 11
14.5688241981
 21
22.2213302099
  0
LINE
  5
3B8
100
AcDbEntity
  8
ASSI
100
AcDbLine
 62
7
  6
CONTINUOUS
 10
18.9807315999
 20
22.2213302099
 11
21.7475597042
 21
22.2213302099
  0
LINE
  5
3B9
100
AcDbEntity
  8
ASSI
100
AcDbLine
 62
7
  6
CONTINUOUS
 10
-7.9311758019
 20
22.2213302099
 11
-7.5829571279
 21
22.1897213783
  0
LINE
  5
3BA
100
AcDbEntity
  8
ASSI
100
AcDbLine
 62
7
  6
CONTINUOUS
 10
3.3688241981
 20
22.2213302099
 11
3.7170428721
 21
22.1897213783
  0
LINE
  5
3BB
100
AcDbEntity
  8
ASSI
100
AcDbLine
 62
7
  6
CONTINUOUS
 10
-14.7192684001
 20
22.2213302099
 11
-15.0674870741
 21
22.1897213783
  0
LINE
  5
3BC
100
AcDbEntity
  8
ASSI
100
AcDbLine
 62
7
  6
CONTINUOUS
 10
14.5688241981
 20
22.2213302099
 11
14.9170428721
 21
22.1897213783
  0
LWPOLYLINE
  5
3BD
100
AcDbEntity
  8
ASSI
100
AcDbPolyline
 62
253
  6
CONTINUOUS
 90
49
 70
0
 10
22.1300921249
 20
-21.1197630591
 10
22.1292840582
 20
-21.122149823
 10
22.1279649882
 20
-21.1245341423
 10
22.1261362661
 20
-21.1269135746
 10
22.1237997649
 20
-21.1292856827
 10
22.120957878
 20
-21.1316480369
 10
22.1176135162
 20
-21.1339982175
 10
22.1137701051
 20
-21.1363338172
 10
22.1094315815
 20
-21.1386524438
 10
22.1046023893
 20
-21.1409517222
 10
22.0992874749
 20
-21.1432292973
 10
22.0934922823
 20
-21.1454828364
 10
22.0872227475
 20
-21.147710031
 10
22.0804852922
 20
-21.1499085999
 10
22.0732868175
 20
-21.1520762911
 10
22.0656346968
 20
-21.1542108844
 10
22.057536768
 20
-21.1563101932
 10
22.0490013256
 20
-21.1583720674
 10
22.0400371125
 20
-21.1603943948
 10
22.0306533105
 20
-21.1623751042
 10
22.0208595313
 20
-21.1643121667
 10
22.0106658065
 20
-21.1662035981
 10
22.0000825775
 20
-21.1680474611
 10
21.9891206846
 20
-21.1698418671
 10
21.9777913557
 20
-21.1715849781
 10
21.9661061954
 20
-21.1732750086
 10
21.9540771726
 20
-21.1749102276
 10
21.9417166085
 20
-21.1764889601
 10
21.9290371638
 20
-21.178009589
 10
21.916051826
 20
-21.1794705569
 10
21.9027738956
 20
-21.1808703672
 10
21.8892169732
 20
-21.1822075862
 10
21.8753949448
 20
-21.1834808441
 10
21.8613219682
 20
-21.1846888368
 10
21.8470124581
 20
-21.1858303269
 10
21.8324810716
 20
-21.1869041453
 10
21.8177426929
 20
-21.187909192
 10
21.8028124184
 20
-21.1888444376
 10
21.7877055409
 20
-21.189708924
 10
21.7724375342
 20
-21.190501766
 10
21.7570240371
 20
-21.1912221512
 10
21.7414808374
 20
-21.1918693419
 10
21.7258238558
 20
-21.1924426752
 10
21.7100691295
 20
-21.1929415638
 10
21.6942327959
 20
-21.1933654966
 10
21.678331076
 20
-21.1937140396
 10
21.6623802575
 20
-21.1939868355
 10
21.6463966787
 20
-21.1941836051
 10
21.6303967114
 20
-21.1943041468
  0
LWPOLYLINE
  5
3BE
100
AcDbEntity
  8
ASSI
100
AcDbPolyline
 62
253
  6
CONTINUOUS
 90
49
 70
0
 10
22.1300921249
 20
21.1459475977
 10
22.1292840587
 20
21.1483343618
 10
22.1279649893
 20
21.1507186811
 10
22.1261362676
 20
21.1530981135
 10
22.1237997669
 20
21.1554702216
 10
22.1209578805
 20
21.157832576
 10
22.1176135191
 20
21.1601827566
 10
22.1137701084
 20
21.1625183565
 10
22.1094315852
 20
21.1648369831
 10
22.1046023933
 20
21.1671362616
 10
22.0992874792
 20
21.1694138368
 10
22.0934922869
 20
21.1716673759
 10
22.0872227523
 20
21.1738945706
 10
22.0804852973
 20
21.1760931396
 10
22.0732868228
 20
21.178260831
 10
22.0656347023
 20
21.1803954243
 10
22.0575367736
 20
21.1824947333
 10
22.0490013314
 20
21.1845566075
 10
22.0400371184
 20
21.1865789351
 10
22.0306533164
 20
21.1885596445
 10
22.0208595373
 20
21.1904967071
 10
22.0106658126
 20
21.1923881386
 10
22.0000825836
 20
21.1942320017
 10
21.9891206906
 20
21.1960264078
 10
21.9777913617
 20
21.1977695188
 10
21.9661062013
 20
21.1994595494
 10
21.9540771784
 20
21.2010947685
 10
21.9417166142
 20
21.2026735011
 10
21.9290371694
 20
21.2041941302
 10
21.9160518314
 20
21.2056550981
 10
21.9027739009
 20
21.2070549085
 10
21.8892169783
 20
21.2083921275
 10
21.8753949497
 20
21.2096653855
 10
21.8613219729
 20
21.2108733783
 10
21.8470124625
 20
21.2120148685
 10
21.8324810758
 20
21.2130886869
 10
21.8177426968
 20
21.2140937336
 10
21.802812422
 20
21.2150289793
 10
21.7877055442
 20
21.2158934658
 10
21.7724375372
 20
21.2166863078
 10
21.7570240398
 20
21.2174066931
 10
21.7414808398
 20
21.2180538838
 10
21.7258238579
 20
21.2186272172
 10
21.7100691313
 20
21.2191261058
 10
21.6942327974
 20
21.2195500386
 10
21.678331077
 20
21.2198985816
 10
21.6623802582
 20
21.2201713776
 10
21.6463966791
 20
21.2203681472
 10
21.6303967114
 20
21.2204886889
  0
LINE
  5
3BF
100
AcDbEntity
  8
ASSI
100
AcDbLine
 62
7
  6
CONTINUOUS
 10
-44.3662770208
 20
-22.0438515026
 11
-41.4794123089
 21
-22.1951456712
  0
LINE
  5
3C0
100
AcDbEntity
  8
ASSI
100
AcDbLine
 62
253
  6
CONTINUOUS
 10
-44.357558791
 20
-21.5445367352
 11
-41.4358875183
 21
-21.6976550384
  0
LWPOLYLINE
  5
3C1
100
AcDbEntity
  8
ASSI
100
AcDbPolyline
 62
253
  6
CONTINUOUS
 90
7
 70
0
 10
-45.2937515644
 20
-21.1924426752
 10
-45.2965104003
 20
-21.1929415638
 10
-45.2987692239
 20
-21.1933654966
 10
-45.3005257216
 20
-21.1937140396
 10
-45.3017780942
 20
-21.1939868355
 10
-45.3025250589
 20
-21.1941836051
 10
-45.3027658506
 20
-21.1943041468
  0
LINE
  5
3C2
100
AcDbEntity
  8
ASSI
100
AcDbLine
 62
253
  6
CONTINUOUS
 10
-45.2867456685
 20
-21.1912221512
 11
-45.2937515644
 21
-21.1924426752
  0
LINE
  5
3C3
100
AcDbEntity
  8
ASSI
100
AcDbLine
 62
253
  6
CONTINUOUS
 10
-45.2725738542
 20
-21.1888444376
 11
-45.2867456685
 21
-21.1912221512
  0
LINE
  5
3C4
100
AcDbEntity
  8
ASSI
100
AcDbLine
 62
253
  6
CONTINUOUS
 10
-45.2395331187
 20
-21.1834808441
 11
-45.2725738542
 21
-21.1888444376
  0
LINE
  5
3C5
100
AcDbEntity
  8
ASSI
100
AcDbLine
 62
253
  6
CONTINUOUS
 10
-45.1296612317
 20
-21.1662035981
 11
-45.2395331187
 21
-21.1834808441
  0
LINE
  5
3C6
100
AcDbEntity
  8
ASSI
100
AcDbLine
 62
253
  6
CONTINUOUS
 10
-44.8258032174
 20
-21.1197630591
 11
-45.1296612317
 21
-21.1662035981
  0
LINE
  5
3C7
100
AcDbEntity
  8
ASSI
100
AcDbLine
 62
253
  6
CONTINUOUS
 10
-41.1054204647
 20
-17.9203993319
 11
-41.0825447444
 21
-17.9203993319
  0
LWPOLYLINE
  5
3C8
100
AcDbEntity
  8
ASSI
100
AcDbPolyline
 62
253
  6
CONTINUOUS
 90
3
 70
0
 10
-46.2912636733
 20
-9.4868670719
 10
-46.2920309018
 20
-9.4868922563
 10
-46.2922865975
 20
-9.4869077307
  0
LINE
  5
3C9
100
AcDbEntity
  8
ASSI
100
AcDbLine
 62
253
  6
CONTINUOUS
 10
-45.8098266044
 20
-9.4774077307
 11
-46.2899856974
 21
-9.4868322032
  0
LWPOLYLINE
  5
3CA
100
AcDbEntity
  8
ASSI
100
AcDbPolyline
 62
253
  6
CONTINUOUS
 90
22
 70
0
 10
-44.8258032174
 20
21.1459475977
 10
-44.9070998236
 20
20.5951072951
 10
-44.9849625505
 20
20.0438147695
 10
-45.0593913979
 20
19.492070021
 10
-45.1303889809
 20
18.9398516326
 10
-45.1979526844
 20
18.3871810212
 10
-45.2620746637
 20
17.8341224374
 10
-45.3227545143
 20
17.2806758726
 10
-45.3799926405
 20
16.7268413353
 10
-45.4337824112
 20
16.1726831015
 10
-45.484123426
 20
15.6182011403
 10
-45.5310160852
 20
15.0633954827
 10
-45.5744549581
 20
14.5083304975
 10
-45.6144396449
 20
13.9530061482
 10
-45.6509705454
 20
13.3974224713
 10
-45.6840434282
 20
12.8416439452
 10
-45.7136578935
 20
12.2856704936
 10
-45.7398143411
 20
11.7295021928
 10
-45.7625097392
 20
11.1732037493
 10
-45.7817430771
 20
10.616796732
 10
-45.7975153655
 20
10.060259572
 10
-45.8098266044
 20
9.5035922693
  0
LWPOLYLINE
  5
3CB
100
AcDbEntity
  8
ASSI
100
AcDbPolyline
 62
253
  6
CONTINUOUS
 90
52
 70
0
 10
-44.8258032174
 20
-21.1197630591
 10
-44.8236222861
 20
-21.1330152827
 10
-44.8210907678
 20
-21.1461863643
 10
-44.8182086624
 20
-21.1592763038
 10
-44.8149733525
 20
-21.1722946974
 10
-44.8113874556
 20
-21.185231949
 10
-44.8074588237
 20
-21.1980592703
 10
-44.8031867512
 20
-21.2107761605
 10
-44.7985719437
 20
-21.2233831203
 10
-44.7936243701
 20
-21.2358528643
 10
-44.7883433253
 20
-21.2481850547
 10
-44.7827295143
 20
-21.2603800292
 10
-44.7767950208
 20
-21.2724115146
 10
-44.7705391454
 20
-21.2842791778
 10
-44.7639625875
 20
-21.295983352
 10
-44.757079528
 20
-21.3074987634
 10
-44.749889305
 20
-21.3188250034
 10
-44.7423925805
 20
-21.3299624807
 10
-44.7346055219
 20
-21.3408871473
 10
-44.7265274992
 20
-21.3515985463
 10
-44.7181591425
 20
-21.3620971345
 10
-44.7095185088
 20
-21.3723602346
 10
-44.700605017
 20
-21.3823873308
 10
-44.6914192483
 20
-21.3921789388
 10
-44.6819810036
 20
-21.4017139286
 10
-44.672289726
 20
-21.410991757
 10
-44.6623459724
 20
-21.4200129673
 10
-44.6521712152
 20
-21.4287580588
 10
-44.6417649669
 20
-21.4372264251
 10
-44.6311277151
 20
-21.4454186727
 10
-44.6202823949
 20
-21.4533171197
 10
-44.6092285472
 20
-21.4609211387
 10
-44.5979666312
 20
-21.4682313573
 10
-44.5865209591
 20
-21.4752319756
 10
-44.5748911332
 20
-21.4819223239
 10
-44.5630775513
 20
-21.488303072
 10
-44.5511057195
 20
-21.4943604293
 10
-44.5389752919
 20
-21.5000936968
 10
-44.5266866144
 20
-21.5055035735
 10
-44.5142662308
 20
-21.5105783658
 10
-44.5017138761
 20
-21.5153173442
 10
-44.4890298153
 20
-21.5197212382
 10
-44.4762413863
 20
-21.5237805426
 10
-44.4633483202
 20
-21.5274945204
 10
-44.450350886
 20
-21.5308639086
 10
-44.4372772285
 20
-21.5338814122
 10
-44.4241268069
 20
-21.5365462861
 10
-44.410900162
 20
-21.5388592754
 10
-44.3976270612
 20
-21.5408153209
 10
-44.384317427
 20
-21.5424127362
 10
-44.370961337
 20
-21.5436532076
 10
-44.357558791
 20
-21.5445367352
  0
LINE
  5
3CC
100
AcDbEntity
  8
0
100
AcDbLine
 62
253
  6
CONTINUOUS
 10
-46.0640035313
 20
-14.4068037512
 11
-46.0447420425
 21
-14.6626029178
  0
LINE
  5
3CD
100
AcDbEntity
  8
0
100
AcDbLine
 62
253
  6
CONTINUOUS
 10
-46.1014226528
 20
-13.8791187513
 11
-46.1273619328
 21
-13.4846200249
  0
LINE
  5
3CE
100
AcDbEntity
  8
0
100
AcDbLine
 62
253
  6
CONTINUOUS
 10
-46.1274593896
 20
-13.4830861177
 11
-46.1516443563
 21
-13.0887203561
  0
LINE
  5
3CF
100
AcDbEntity
  8
0
100
AcDbLine
 62
253
  6
CONTINUOUS
 10
-46.1740379087
 20
-12.6953454499
 11
-46.1516443563
 21
-13.0887203561
  0
LINE
  5
3D0
100
AcDbEntity
  8
0
100
AcDbLine
 62
253
  6
CONTINUOUS
 10
-46.1740379087
 20
-12.6953454499
 11
-46.1951471855
 21
-12.2931665115
  0
LINE
  5
3D1
100
AcDbEntity
  8
0
100
AcDbLine
 62
253
  6
CONTINUOUS
 10
-46.1948628939
 20
-12.2988212079
 11
-46.2138426378
 21
-11.9042933138
  0
LINE
  5
3D2
100
AcDbEntity
  8
0
100
AcDbLine
 62
253
  6
CONTINUOUS
 10
-46.2138426378
 20
-11.9042933138
 11
-46.2287981918
 21
-11.5645084741
  0
LINE
  5
3D3
100
AcDbEntity
  8
0
100
AcDbLine
 62
253
  6
CONTINUOUS
 10
-46.2654749944
 20
-10.5605381966
 11
-46.2730317782
 21
-10.304549194
  0
LWPOLYLINE
  5
3D4
100
AcDbEntity
  8
ASSI
100
AcDbPolyline
 62
253
  6
CONTINUOUS
 90
22
 70
0
 10
-45.8098266044
 20
-9.4774077307
 10
-45.7975153655
 20
-10.0340750333
 10
-45.7817430771
 20
-10.5906121933
 10
-45.7625097392
 20
-11.1470192106
 10
-45.7398143411
 20
-11.7033176541
 10
-45.7136578935
 20
-12.259485955
 10
-45.6840434282
 20
-12.8154594065
 10
-45.6509705454
 20
-13.3712379327
 10
-45.6144396449
 20
-13.9268216096
 10
-45.5744549581
 20
-14.4821459589
 10
-45.5310160852
 20
-15.0372109441
 10
-45.484123426
 20
-15.5920166017
 10
-45.4337824112
 20
-16.1464985628
 10
-45.3799926405
 20
-16.7006567966
 10
-45.3227545143
 20
-17.2544913339
 10
-45.2620746637
 20
-17.8079378988
 10
-45.1979526844
 20
-18.3609964826
 10
-45.1303889809
 20
-18.9136670939
 10
-45.0593913979
 20
-19.4658854823
 10
-44.9849625505
 20
-20.0176302309
 10
-44.9070998236
 20
-20.5689227565
 10
-44.8258032174
 20
-21.1197630591
  0
LWPOLYLINE
  5
3D5
100
AcDbEntity
  8
ASSI
100
AcDbPolyline
 62
253
  6
CONTINUOUS
 90
10
 70
0
 10
-45.8098266044
 20
9.5035922693
 10
-45.828006463
 20
8.4931151118
 10
-45.844141678
 20
7.4826165489
 10
-45.8582322494
 20
6.4720965807
 10
-45.8702782879
 20
5.4615541333
 10
-45.8802796827
 20
4.4509902805
 10
-45.8882361018
 20
3.4404082439
 10
-45.8941474343
 20
2.4298090971
 10
-45.8980137911
 20
1.4191917665
 10
-45.899835172
 20
0.4085562519
  0
LINE
  5
3D6
100
AcDbEntity
  8
0
100
AcDbLine
 62
253
  6
CONTINUOUS
 10
-46.2870268216
 20
9.7704918616
 11
-46.2922399131
 21
9.5155472859
  0
LINE
  5
3D7
100
AcDbEntity
  8
0
100
AcDbLine
 62
253
  6
CONTINUOUS
 10
-46.2602136113
 20
10.7518490836
 11
-46.2734644527
 21
10.3152865837
  0
LINE
  5
3D8
100
AcDbEntity
  8
0
100
AcDbLine
 62
253
  6
CONTINUOUS
 10
-46.2572005339
 20
10.8423718614
 11
-46.2482164099
 21
11.097536028
  0
LINE
  5
3D9
100
AcDbEntity
  8
0
100
AcDbLine
 62
253
  6
CONTINUOUS
 10
-46.2463504511
 20
11.1480890835
 11
-46.2290560045
 21
11.584567398
  0
LINE
  5
3DA
100
AcDbEntity
  8
0
100
AcDbLine
 62
253
  6
CONTINUOUS
 10
-46.2245026972
 20
11.6913315834
 11
-46.1955817405
 21
12.3106948556
  0
LINE
  5
3DB
100
AcDbEntity
  8
0
100
AcDbLine
 62
253
  6
CONTINUOUS
 10
-46.1986803857
 20
12.2484735277
 11
-46.1409154791
 21
13.2933627995
  0
LINE
  5
3DC
100
AcDbEntity
  8
0
100
AcDbLine
 62
253
  6
CONTINUOUS
 10
-46.1412726633
 20
13.2875154
 11
-46.1394706705
 21
13.316952033
  0
LINE
  5
3DD
100
AcDbEntity
  8
0
100
AcDbLine
 62
253
  6
CONTINUOUS
 10
-46.1328801622
 20
13.4232940829
 11
-46.1044353483
 21
13.8608090828
  0
LWPOLYLINE
  5
3DE
100
AcDbEntity
  8
ASSI
100
AcDbPolyline
 62
253
  6
CONTINUOUS
 90
16
 70
0
 10
-45.8976011943
 20
0.1969093204
 10
-45.8973638689
 20
0.1920835418
 10
-45.8971178045
 20
0.1875604025
 10
-45.8968633453
 20
0.1833462261
 10
-45.8966008468
 20
0.1794469041
 10
-45.8963306762
 20
0.1758678882
 10
-45.8960532112
 20
0.1726141818
 10
-45.8957688395
 20
0.1696903338
 10
-45.8954779589
 20
0.167100432
 10
-45.895180976
 20
0.164848097
 10
-45.8948783059
 20
0.1629364778
 10
-45.8945703718
 20
0.161368247
 10
-45.8942576043
 20
0.1601455969
 10
-45.8939404406
 20
0.159270237
 10
-45.893619324
 20
0.1587433909
 10
-45.8932947036
 20
0.1585657953
  0
LINE
  5
3DF
100
AcDbEntity
  8
ASSI
100
AcDbLine
 62
253
  6
CONTINUOUS
 10
-45.898048314
 20
0.2074413953
 11
-45.8976011943
 21
0.1969093204
  0
LINE
  5
3E0
100
AcDbEntity
  8
ASSI
100
AcDbLine
 62
253
  6
CONTINUOUS
 10
-45.8984566639
 20
0.2190977503
 11
-45.898048314
 21
0.2074413953
  0
LINE
  5
3E1
100
AcDbEntity
  8
ASSI
100
AcDbLine
 62
253
  6
CONTINUOUS
 10
-45.8988239615
 20
0.2318132235
 11
-45.8984566639
 21
0.2190977503
  0
LINE
  5
3E2
100
AcDbEntity
  8
ASSI
100
AcDbLine
 62
253
  6
CONTINUOUS
 10
-45.8991481533
 20
0.2455167326
 11
-45.8988239615
 21
0.2318132235
  0
LINE
  5
3E3
100
AcDbEntity
  8
ASSI
100
AcDbLine
 62
253
  6
CONTINUOUS
 10
-45.8995497217
 20
0.2677555824
 11
-45.8991481533
 21
0.2455167326
  0
LINE
  5
3E4
100
AcDbEntity
  8
ASSI
100
AcDbLine
 62
253
  6
CONTINUOUS
 10
-45.8998452355
 20
0.2917643969
 11
-45.8995497217
 21
0.2677555824
  0
LINE
  5
3E5
100
AcDbEntity
  8
ASSI
100
AcDbLine
 62
253
  6
CONTINUOUS
 10
-45.9000309797
 20
0.3172413681
 11
-45.8998452355
 21
0.2917643969
  0
LWPOLYLINE
  5
3E6
100
AcDbEntity
  8
ASSI
100
AcDbPolyline
 62
253
  6
CONTINUOUS
 90
18
 70
0
 10
-44.3715197467
 20
-21.9682453054
 10
-44.371470952
 20
-21.9766524091
 10
-44.3713886523
 20
-21.9845978679
 10
-44.3712729354
 20
-21.9920731934
 10
-44.371123925
 20
-21.9990703993
 10
-44.3709417803
 20
-22.0055820104
 10
-44.3707266958
 20
-22.01160107
 10
-44.3704789014
 20
-22.0171211478
 10
-44.3701986617
 20
-22.0221363464
 10
-44.3698862762
 20
-22.026641308
 10
-44.3695420787
 20
-22.0306312196
 10
-44.3691664367
 20
-22.0341018188
 10
-44.3687597516
 20
-22.0370493978
 10
-44.368322458
 20
-22.0394708076
 10
-44.3678550229
 20
-22.0413634613
 10
-44.3673579458
 20
-22.0427253369
 10
-44.3668317577
 20
-22.0435549794
 10
-44.3662770208
 20
-22.0438515026
  0
LINE
  5
3E7
100
AcDbEntity
  8
ASSI
100
AcDbLine
 62
253
  6
CONTINUOUS
 10
-45.8998379439
 20
-0.3823717374
 11
-45.9000652292
 21
-0.3451197538
  0
LWPOLYLINE
  5
3E8
100
AcDbEntity
  8
ASSI
100
AcDbPolyline
 62
253
  6
CONTINUOUS
 90
10
 70
0
 10
-45.899835172
 20
-0.3823717132
 10
-45.8980137911
 20
-1.3930072278
 10
-45.8941474343
 20
-2.4036245585
 10
-45.8882361018
 20
-3.4142237052
 10
-45.8802796827
 20
-4.4248057419
 10
-45.8702782879
 20
-5.4353695946
 10
-45.8582322494
 20
-6.445912042
 10
-45.844141678
 20
-7.4564320103
 10
-45.828006463
 20
-8.4669305731
 10
-45.8098266044
 20
-9.4774077307
  0
LINE
  5
3E9
100
AcDbEntity
  8
ASSI
100
AcDbLine
 62
253
  6
CONTINUOUS
 10
-45.9001040531
 20
0.352938762
 11
-45.9000309797
 21
0.3172413681
  0
LINE
  5
3EA
100
AcDbEntity
  8
ASSI
100
AcDbLine
 62
253
  6
CONTINUOUS
 10
-45.9000652292
 20
-0.3451197538
 11
-45.9000926154
 21
-0.3086995964
  0
LINE
  5
3EB
100
AcDbEntity
  8
ASSI
100
AcDbLine
 62
253
  6
CONTINUOUS
 10
-45.8999763605
 20
0.3898780785
 11
-45.9001040531
 21
0.352938762
  0
LINE
  5
3EC
100
AcDbEntity
  8
ASSI
100
AcDbLine
 62
253
  6
CONTINUOUS
 10
-45.9000926154
 20
-0.3086995964
 11
-45.8999814345
 21
-0.2824208005
  0
LINE
  5
3ED
100
AcDbEntity
  8
ASSI
100
AcDbLine
 62
253
  6
CONTINUOUS
 10
-45.8998379439
 20
0.4085562761
 11
-45.8999763605
 21
0.3898780785
  0
LINE
  5
3EE
100
AcDbEntity
  8
ASSI
100
AcDbLine
 62
253
  6
CONTINUOUS
 10
-45.8999814345
 20
-0.2824208005
 11
-45.8997587721
 21
-0.2573984594
  0
LINE
  5
3EF
100
AcDbEntity
  8
ASSI
100
AcDbLine
 62
253
  6
CONTINUOUS
 10
-45.8997587721
 20
-0.2573984594
 11
-45.8994274269
 21
-0.2339471217
  0
LINE
  5
3F0
100
AcDbEntity
  8
ASSI
100
AcDbLine
 62
253
  6
CONTINUOUS
 10
-45.8994274269
 20
-0.2339471217
 11
-45.8991481531
 21
-0.2193321829
  0
LINE
  5
3F1
100
AcDbEntity
  8
ASSI
100
AcDbLine
 62
253
  6
CONTINUOUS
 10
-45.8991481531
 20
-0.2193321829
 11
-45.8988239613
 21
-0.2056286744
  0
LINE
  5
3F2
100
AcDbEntity
  8
ASSI
100
AcDbLine
 62
253
  6
CONTINUOUS
 10
-45.8988239613
 20
-0.2056286744
 11
-45.8984566637
 21
-0.1929132019
  0
LINE
  5
3F3
100
AcDbEntity
  8
ASSI
100
AcDbLine
 62
253
  6
CONTINUOUS
 10
-45.8984566637
 20
-0.1929132019
 11
-45.8980483137
 21
-0.181256848
  0
LWPOLYLINE
  5
3F4
100
AcDbEntity
  8
ASSI
100
AcDbPolyline
 62
253
  6
CONTINUOUS
 90
17
 70
0
 10
-45.8980483137
 20
-0.181256848
 10
-45.8976011941
 20
-0.1707247743
 10
-45.8973638686
 20
-0.1658989964
 10
-45.8971178043
 20
-0.1613758577
 10
-45.896863345
 20
-0.157161682
 10
-45.8966008466
 20
-0.1532623608
 10
-45.896330676
 20
-0.1496833455
 10
-45.8960532109
 20
-0.1464296397
 10
-45.8957688393
 20
-0.1435057924
 10
-45.8954779587
 20
-0.1409158911
 10
-45.8951809758
 20
-0.1386635567
 10
-45.8948783057
 20
-0.136751938
 10
-45.8945703717
 20
-0.1351837076
 10
-45.8942576042
 20
-0.1339610578
 10
-45.8939404405
 20
-0.1330856981
 10
-45.893619324
 20
-0.1325588522
 10
-45.8932947036
 20
-0.1323812567
  0
LINE
  5
3F5
100
AcDbEntity
  8
ASSI
100
AcDbLine
 62
253
  6
CONTINUOUS
 10
-44.357558791
 20
21.5707212739
 11
-44.3608173603
 21
21.6358196838
  0
LINE
  5
3F6
100
AcDbEntity
  8
ASSI
100
AcDbLine
 62
253
  6
CONTINUOUS
 10
-44.3608173603
 20
21.6358196838
 11
-44.363722427
 21
21.6998068277
  0
LINE
  5
3F7
100
AcDbEntity
  8
ASSI
100
AcDbLine
 62
253
  6
CONTINUOUS
 10
-44.363722427
 20
21.6998068277
 11
-44.3662243998
 21
21.761590409
  0
LINE
  5
3F8
100
AcDbEntity
  8
ASSI
100
AcDbLine
 62
253
  6
CONTINUOUS
 10
-44.3662243998
 20
21.761590409
 11
-44.3682805688
 21
21.820115747
  0
LINE
  5
3F9
100
AcDbEntity
  8
ASSI
100
AcDbLine
 62
253
  6
CONTINUOUS
 10
-44.3682805688
 20
21.820115747
 11
-44.3695087181
 21
21.861267952
  0
LINE
  5
3FA
100
AcDbEntity
  8
ASSI
100
AcDbLine
 62
253
  6
CONTINUOUS
 10
-44.3695087181
 20
21.861267952
 11
-44.37045439
 21
21.8996285323
  0
LINE
  5
3FB
100
AcDbEntity
  8
ASSI
100
AcDbLine
 62
253
  6
CONTINUOUS
 10
-44.37045439
 20
21.8996285323
 11
-44.3709233046
 21
21.9234681248
  0
LINE
  5
3FC
100
AcDbEntity
  8
ASSI
100
AcDbLine
 62
253
  6
CONTINUOUS
 10
-44.3709233046
 20
21.9234681248
 11
-44.3712605743
 21
21.9458007108
  0
LINE
  5
3FD
100
AcDbEntity
  8
ASSI
100
AcDbLine
 62
253
  6
CONTINUOUS
 10
-44.3712605743
 20
21.9458007108
 11
-44.3714647583
 21
21.9665308808
  0
LWPOLYLINE
  5
3FE
100
AcDbEntity
  8
ASSI
100
AcDbPolyline
 62
253
  6
CONTINUOUS
 90
20
 70
0
 10
-44.3714647583
 20
21.9665308808
 10
-44.3715349842
 20
21.9855700713
 10
-44.3715197468
 20
21.9944298388
 10
-44.3714709521
 20
22.002836943
 10
-44.3713886524
 20
22.0107824022
 10
-44.3712729355
 20
22.0182577282
 10
-44.3711239252
 20
22.0252549346
 10
-44.3709417804
 20
22.0317665461
 10
-44.370726696
 20
22.0377856061
 10
-44.3704789016
 20
22.0433056843
 10
-44.3701986619
 20
22.0483208833
 10
-44.3698862764
 20
22.0528258452
 10
-44.3695420788
 20
22.0568157572
 10
-44.3691664368
 20
22.0602863567
 10
-44.3687597518
 20
22.0632339359
 10
-44.3683224581
 20
22.0656553459
 10
-44.367855023
 20
22.0675479997
 10
-44.3673579459
 20
22.0689098754
 10
-44.3668317578
 20
22.069739518
 10
-44.3662770208
 20
22.0700360412
  0
LINE
  5
3FF
100
AcDbEntity
  8
ASSI
100
AcDbLine
 62
253
  6
CONTINUOUS
 10
-44.3715166481
 20
-21.9500825733
 11
-44.3715197467
 21
-21.9682453054
  0
LINE
  5
400
100
AcDbEntity
  8
ASSI
100
AcDbLine
 62
253
  6
CONTINUOUS
 10
-44.3713793698
 20
-21.9301872664
 11
-44.3715166481
 21
-21.9500825733
  0
LINE
  5
401
100
AcDbEntity
  8
ASSI
100
AcDbLine
 62
253
  6
CONTINUOUS
 10
-44.3711084983
 20
-21.9086443817
 11
-44.3713793698
 21
-21.9301872664
  0
LINE
  5
402
100
AcDbEntity
  8
ASSI
100
AcDbLine
 62
253
  6
CONTINUOUS
 10
-44.3707051908
 20
-21.8855459546
 11
-44.3711084983
 21
-21.9086443817
  0
LINE
  5
403
100
AcDbEntity
  8
ASSI
100
AcDbLine
 62
253
  6
CONTINUOUS
 10
-44.3698558341
 20
-21.8481992514
 11
-44.3707051908
 21
-21.8855459546
  0
LINE
  5
404
100
AcDbEntity
  8
ASSI
100
AcDbLine
 62
253
  6
CONTINUOUS
 10
-44.3687206648
 20
-21.8079349037
 11
-44.3698558341
 21
-21.8481992514
  0
LINE
  5
405
100
AcDbEntity
  8
ASSI
100
AcDbLine
 62
253
  6
CONTINUOUS
 10
-44.3673105898
 20
-21.7651397787
 11
-44.3687206648
 21
-21.8079349037
  0
LINE
  5
406
100
AcDbEntity
  8
ASSI
100
AcDbLine
 62
253
  6
CONTINUOUS
 10
-44.3650266402
 20
-21.7048565465
 11
-44.3673105898
 21
-21.7651397787
  0
LINE
  5
407
100
AcDbEntity
  8
ASSI
100
AcDbLine
 62
253
  6
CONTINUOUS
 10
-44.362317333
 20
-21.6418365644
 11
-44.3650266402
 21
-21.7048565465
  0
LINE
  5
408
100
AcDbEntity
  8
ASSI
100
AcDbLine
 62
253
  6
CONTINUOUS
 10
-44.3592289178
 20
-21.5771556192
 11
-44.362317333
 21
-21.6418365644
  0
LINE
  5
409
100
AcDbEntity
  8
ASSI
100
AcDbLine
 62
253
  6
CONTINUOUS
 10
-44.357558791
 20
-21.5445367352
 11
-44.3592289178
 21
-21.5771556192
  0
LINE
  5
40A
100
AcDbEntity
  8
ASSI
100
AcDbLine
 62
253
  6
CONTINUOUS
 10
-40.6825447444
 20
-0.3368411094
 11
-45.899835172
 21
-0.3823717132
  0
LINE
  5
40B
100
AcDbEntity
  8
ASSI
100
AcDbLine
 62
7
  6
CONTINUOUS
 10
-40.6825447444
 20
-0.0869077307
 11
-46.1345682374
 21
-0.1344868189
  0
LINE
  5
40C
100
AcDbEntity
  8
ASSI
100
AcDbLine
 62
253
  6
CONTINUOUS
 10
-45.899835172
 20
-0.3823717243
 11
-46.3823865242
 21
-0.3846761849
  0
LINE
  5
40D
100
AcDbEntity
  8
ASSI
100
AcDbLine
 62
7
  6
CONTINUOUS
 10
-46.1345682374
 20
0.1606713575
 11
-40.6825447444
 21
0.1130922693
  0
LINE
  5
40E
100
AcDbEntity
  8
ASSI
100
AcDbLine
 62
7
  6
CONTINUOUS
 10
-41.0825447444
 20
-17.9203993319
 11
-41.0825447444
 21
-17.6589286518
  0
LINE
  5
40F
100
AcDbEntity
  8
ASSI
100
AcDbLine
 62
7
  6
CONTINUOUS
 10
-41.0825447444
 20
17.6851131904
 11
-41.0825447444
 21
17.9465838705
  0
LINE
  5
410
100
AcDbEntity
  8
ASSI
100
AcDbLine
 62
7
  6
CONTINUOUS
 10
-40.6825447444
 20
-0.0869077307
 11
-40.6825447444
 21
-13.0869077307
  0
LINE
  5
411
100
AcDbEntity
  8
ASSI
100
AcDbLine
 62
7
  6
CONTINUOUS
 10
-40.6825447444
 20
0.1130922693
 11
-40.6825447444
 21
13.1130922693
  0
LINE
  5
412
100
AcDbEntity
  8
ASSI
100
AcDbLine
 62
253
  6
CONTINUOUS
 10
-46.3823865242
 20
0.4108607235
 11
-45.899835172
 21
0.4085562629
  0
LINE
  5
413
100
AcDbEntity
  8
ASSI
100
AcDbLine
 62
253
  6
CONTINUOUS
 10
-45.899835172
 20
0.4085562519
 11
-40.6825447444
 21
0.3630256481
  0
LINE
  5
414
100
AcDbEntity
  8
ASSI
100
AcDbLine
 62
7
  6
CONTINUOUS
 10
-41.4794123089
 20
22.2213302099
 11
-40.6825447444
 21
13.1130922693
  0
LINE
  5
415
100
AcDbEntity
  8
ASSI
100
AcDbLine
 62
7
  6
CONTINUOUS
 10
-40.6825447444
 20
-13.0869077307
 11
-41.4794123089
 21
-22.1951456712
  0
LWPOLYLINE
  5
416
100
AcDbEntity
  8
ASSI
100
AcDbPolyline
 62
253
  6
CONTINUOUS
 90
3
 70
0
 10
-45.8098266044
 20
9.5035922693
 10
-46.2881982829
 20
9.5129722247
 10
-46.2899856978
 20
9.5130167419
  0
LWPOLYLINE
  5
417
100
AcDbEntity
  8
ASSI
100
AcDbPolyline
 62
253
  6
CONTINUOUS
 90
3
 70
0
 10
-46.2912636737
 20
9.5130516105
 10
-46.2920309022
 20
9.5130767949
 10
-46.2922865979
 20
9.5130922693
  0
LINE
  5
418
100
AcDbEntity
  8
ASSI
100
AcDbLine
 62
253
  6
CONTINUOUS
 10
-41.1054204648
 20
17.9465838707
 11
-41.0825447444
 21
17.9465838705
  0
LWPOLYLINE
  5
419
100
AcDbEntity
  8
ASSI
100
AcDbPolyline
 62
253
  6
CONTINUOUS
 90
52
 70
0
 10
-44.357558791
 20
21.5707212739
 10
-44.370961337
 20
21.5698377463
 10
-44.384317427
 20
21.5685972748
 10
-44.3976270612
 20
21.5669998596
 10
-44.410900162
 20
21.5650438141
 10
-44.4241268069
 20
21.5627308247
 10
-44.4372772285
 20
21.5600659508
 10
-44.450350886
 20
21.5570484472
 10
-44.4633483202
 20
21.5536790591
 10
-44.4762413863
 20
21.5499650812
 10
-44.4890298153
 20
21.5459057769
 10
-44.5017138761
 20
21.5415018829
 10
-44.5142662308
 20
21.5367629044
 10
-44.5266866144
 20
21.5316881121
 10
-44.5389752919
 20
21.5262782354
 10
-44.5511057195
 20
21.5205449679
 10
-44.5630775513
 20
21.5144876106
 10
-44.5748911332
 20
21.5081068626
 10
-44.5865209591
 20
21.5014165142
 10
-44.5979666312
 20
21.4944158959
 10
-44.6092285472
 20
21.4871056774
 10
-44.6202823949
 20
21.4795016583
 10
-44.6311277151
 20
21.4716032113
 10
-44.6417649669
 20
21.4634109638
 10
-44.6521712152
 20
21.4549425974
 10
-44.6623459724
 20
21.446197506
 10
-44.672289726
 20
21.4371762957
 10
-44.6819810036
 20
21.4278984672
 10
-44.6914192483
 20
21.4183634774
 10
-44.700605017
 20
21.4085718694
 10
-44.7095185088
 20
21.3985447733
 10
-44.7181591425
 20
21.3882816732
 10
-44.7265274992
 20
21.3777830849
 10
-44.7346055219
 20
21.3670716859
 10
-44.7423925805
 20
21.3561470194
 10
-44.749889305
 20
21.3450095421
 10
-44.757079528
 20
21.333683302
 10
-44.7639625875
 20
21.3221678906
 10
-44.7705391454
 20
21.3104637165
 10
-44.7767950208
 20
21.2985960533
 10
-44.7827295143
 20
21.2865645679
 10
-44.7883433253
 20
21.2743695934
 10
-44.7936243701
 20
21.2620374029
 10
-44.7985719437
 20
21.249567659
 10
-44.8031867512
 20
21.2369606991
 10
-44.8074588237
 20
21.2242438089
 10
-44.8113874556
 20
21.2114164876
 10
-44.8149733525
 20
21.1984792361
 10
-44.8182086624
 20
21.1854608425
 10
-44.8210907678
 20
21.1723709029
 10
-44.8236222861
 20
21.1591998213
 10
-44.8258032174
 20
21.1459475977
  0
LINE
  5
41A
100
AcDbEntity
  8
ASSI
100
AcDbLine
 62
253
  6
CONTINUOUS
 10
-41.4358875183
 20
21.7238395771
 11
-44.357558791
 21
21.5707212739
  0
LINE
  5
41B
100
AcDbEntity
  8
ASSI
100
AcDbLine
 62
7
  6
CONTINUOUS
 10
-41.4794123089
 20
22.2213302099
 11
-44.3662770208
 21
22.0700360412
  0
LINE
  5
41C
100
AcDbEntity
  8
ASSI
100
AcDbLine
 62
253
  6
CONTINUOUS
 10
-44.8258032174
 20
21.1459475977
 11
-45.1415215528
 21
21.1942320017
  0
LINE
  5
41D
100
AcDbEntity
  8
ASSI
100
AcDbLine
 62
253
  6
CONTINUOUS
 10
-45.1415215528
 20
21.1942320017
 11
-45.2395331376
 21
21.2096653855
  0
LINE
  5
41E
100
AcDbEntity
  8
ASSI
100
AcDbLine
 62
253
  6
CONTINUOUS
 10
-45.2395331376
 20
21.2096653855
 11
-45.2725738749
 21
21.2150289793
  0
LINE
  5
41F
100
AcDbEntity
  8
ASSI
100
AcDbLine
 62
253
  6
CONTINUOUS
 10
-45.2725738749
 20
21.2150289793
 11
-45.2867456901
 21
21.2174066931
  0
LWPOLYLINE
  5
420
100
AcDbEntity
  8
ASSI
100
AcDbPolyline
 62
253
  6
CONTINUOUS
 90
8
 70
0
 10
-45.2867456901
 20
21.2174066931
 10
-45.2937515864
 20
21.2186272172
 10
-45.2965104225
 20
21.2191261058
 10
-45.2987692463
 20
21.2195500386
 10
-45.3005257441
 20
21.2198985816
 10
-45.3017781168
 20
21.2201713776
 10
-45.3025250815
 20
21.2203681472
 10
-45.3027658733
 20
21.2204886889
  0
ARC
  5
421
100
AcDbEntity
  8
ASSI
100
AcDbCircle
 62
7
  6
CONTINUOUS
 10
43.6914669358
 20
-7.7769077307
 40
90.0
100
AcDbArc
 50
181.08868532
 51
188.5737414447
  0
ARC
  5
422
100
AcDbEntity
  8
0
100
AcDbCircle
 62
253
  6
CONTINUOUS
 10
43.6914669358
 20
-7.7769077307
 40
90.0
100
AcDbArc
 50
181.7723968544
 51
181.8095214131
  0
ARC
  5
423
100
AcDbEntity
  8
0
100
AcDbCircle
 62
253
  6
CONTINUOUS
 10
43.6914669358
 20
-7.7769077307
 40
90.0
100
AcDbArc
 50
183.8877708628
 51
184.2245496153
  0
ARC
  5
424
100
AcDbEntity
  8
ASSI
100
AcDbCircle
 62
7
  6
CONTINUOUS
 10
-44.3139410646
 20
-21.0452219678
 40
1.0
100
AcDbArc
 50
188.5737414447
 51
267.0
  0
ARC
  5
425
100
AcDbEntity
  8
ASSI
100
AcDbCircle
 62
7
  6
CONTINUOUS
 10
-41.3825447444
 20
-17.9203993319
 40
0.3
100
AcDbArc
 50
334.9996147859
 51
360.0
  0
ARC
  5
426
100
AcDbEntity
  8
ASSI
100
AcDbCircle
 62
7
  6
CONTINUOUS
 10
-46.1323865734
 20
-0.3844772994
 40
0.25
100
AcDbArc
 50
90.5000068929
 51
180.0455810216
  0
ARC
  5
427
100
AcDbEntity
  8
ASSI
100
AcDbCircle
 62
7
  6
CONTINUOUS
 10
43.6914669358
 20
7.8030922693
 40
90.0
100
AcDbArc
 50
171.4262585553
 51
178.91131468
  0
ARC
  5
428
100
AcDbEntity
  8
0
100
AcDbCircle
 62
253
  6
CONTINUOUS
 10
43.6914669358
 20
7.8030922693
 40
90.0
100
AcDbArc
 50
178.0647665764
 51
178.7474147459
  0
ARC
  5
429
100
AcDbEntity
  8
ASSI
100
AcDbCircle
 62
7
  6
CONTINUOUS
 10
-44.3139410646
 20
21.0714065065
 40
1.0
100
AcDbArc
 50
93.0
 51
171.4262585553
  0
ARC
  5
42A
100
AcDbEntity
  8
ASSI
100
AcDbCircle
 62
7
  6
CONTINUOUS
 10
-41.3825447444
 20
17.9465838705
 40
0.3
100
AcDbArc
 50
0.0
 51
25.0003852136
  0
ARC
  5
42B
100
AcDbEntity
  8
ASSI
100
AcDbCircle
 62
7
  6
CONTINUOUS
 10
-46.1323865734
 20
0.410661838
 40
0.25
100
AcDbArc
 50
179.9544189784
 51
269.4999931072
  0
ARC
  5
42C
100
AcDbEntity
  8
ASSI
100
AcDbCircle
 62
7
  6
CONTINUOUS
 10
453.6174552556
 20
0.0130922693
 40
500.0
100
AcDbArc
 50
178.91131468
 51
179.954419088
  0
ARC
  5
42D
100
AcDbEntity
  8
ASSI
100
AcDbCircle
 62
7
  6
CONTINUOUS
 10
453.6174552556
 20
0.0130922693
 40
500.0
100
AcDbArc
 50
180.045580912
 51
181.08868532
  0
ELLIPSE
  5
42E
100
AcDbEntity
  8
ASSI
100
AcDbEllipse
 62
7
  6
CONTINUOUS
 10
3.8902479528
 20
22.1949621563
 30
0.0
 11
0.2
 21
0.0
 31
0.0
 40
0.0524077793
 41
-2.617993878
 42
-1.5707963268
  0
ELLIPSE
  5
42F
100
AcDbEntity
  8
ASSI
100
AcDbEllipse
 62
7
  6
CONTINUOUS
 10
15.0902479528
 20
22.1949621563
 30
0.0
 11
0.2
 21
0.0
 31
0.0
 40
0.0524077793
 41
-2.617993878
 42
-1.5707963268
  0
ELLIPSE
  5
430
100
AcDbEntity
  8
ASSI
100
AcDbEllipse
 62
7
  6
CONTINUOUS
 10
18.4593078452
 20
22.1949621563
 30
0.0
 11
0.2
 21
0.0
 31
0.0
 40
0.0524077793
 41
-1.5707963268
 42
-0.5235987756
  0
ELLIPSE
  5
431
100
AcDbEntity
  8
ASSI
100
AcDbEllipse
 62
7
  6
CONTINUOUS
 10
7.2593078452
 20
22.1949621563
 30
0.0
 11
0.2
 21
0.0
 31
0.0
 40
0.0524077793
 41
-1.5707963268
 42
-0.5235987756
  0
ELLIPSE
  5
432
100
AcDbEntity
  8
ASSI
100
AcDbEllipse
 62
7
  6
CONTINUOUS
 10
-4.0406921548
 20
22.1949621563
 30
0.0
 11
0.2
 21
0.0
 31
0.0
 40
0.0524077793
 41
-1.5707963268
 42
-0.5235987756
  0
ELLIPSE
  5
433
100
AcDbEntity
  8
ASSI
100
AcDbEllipse
 62
7
  6
CONTINUOUS
 10
-7.4097520472
 20
22.1949621563
 30
0.0
 11
0.2
 21
-0.0
 31
0.0
 40
0.0524077793
 41
-2.617993878
 42
-1.5707963268
  0
ELLIPSE
  5
434
100
AcDbEntity
  8
ASSI
100
AcDbEllipse
 62
7
  6
CONTINUOUS
 10
-18.6097520472
 20
22.1949621563
 30
0.0
 11
0.2
 21
0.0
 31
0.0
 40
0.0524077793
 41
-2.617993878
 42
-1.5707963268
  0
ELLIPSE
  5
435
100
AcDbEntity
  8
ASSI
100
AcDbEllipse
 62
7
  6
CONTINUOUS
 10
-15.2406921548
 20
22.1949621563
 30
0.0
 11
0.2
 21
0.0
 31
0.0
 40
0.0524077793
 41
-1.5707963268
 42
-0.5235987756
  0
ELLIPSE
  5
436
100
AcDbEntity
  8
ASSI
100
AcDbEllipse
 62
7
  6
CONTINUOUS
 10
-21.8986128007
 20
21.7229292484
 30
0.0
 11
0.4943891341
 21
0.0770133648
 31
0.0
 40
0.9960067742
 41
1.4156538168
 42
2.984623644
  0
ELLIPSE
  5
437
100
AcDbEntity
  8
ASSI
100
AcDbEllipse
 62
7
  6
CONTINUOUS
 10
21.7481685987
 20
21.7229292484
 30
0.0
 11
0.4943891341
 21
-0.0770133648
 31
0.0
 40
0.9960067742
 41
0.1569690096
 42
1.7259388368
  0
ELLIPSE
  5
438
100
AcDbEntity
  8
ASSI
100
AcDbEllipse
 62
7
  6
CONTINUOUS
 10
-22.1750697149
 20
0.3631017889
 30
0.0
 11
0.2426981267
 21
0.0606514259
 31
0.0
 40
0.9993528196
 41
2.8968558282
 42
4.4673476033
  0
ELLIPSE
  5
439
100
AcDbEntity
  8
ASSI
100
AcDbEllipse
 62
7
  6
CONTINUOUS
 10
22.0246255129
 20
0.3631017889
 30
0.0
 11
0.2426981267
 21
-0.0606514259
 31
0.0
 40
0.9993528196
 41
-1.3257549497
 42
0.2447368254
  0
ELLIPSE
  5
43A
100
AcDbEntity
  8
ASSI
100
AcDbEllipse
 62
7
  6
CONTINUOUS
 10
-4.0406921548
 20
-22.1687776176
 30
0.0
 11
0.2
 21
0.0
 31
0.0
 40
0.0524077793
 41
0.5235987756
 42
1.5707963268
  0
ELLIPSE
  5
43B
100
AcDbEntity
  8
ASSI
100
AcDbEllipse
 62
7
  6
CONTINUOUS
 10
-15.2406921548
 20
-22.1687776176
 30
0.0
 11
0.2
 21
0.0
 31
0.0
 40
0.0524077793
 41
0.5235987756
 42
1.5707963268
  0
ELLIPSE
  5
43C
100
AcDbEntity
  8
ASSI
100
AcDbEllipse
 62
7
  6
CONTINUOUS
 10
-18.6097520472
 20
-22.1687776176
 30
0.0
 11
0.2
 21
-0.0
 31
0.0
 40
0.0524077793
 41
1.5707963268
 42
2.617993878
  0
ELLIPSE
  5
43D
100
AcDbEntity
  8
ASSI
100
AcDbEllipse
 62
7
  6
CONTINUOUS
 10
-7.4097520472
 20
-22.1687776176
 30
0.0
 11
0.2
 21
0.0
 31
0.0
 40
0.0524077793
 41
1.5707963268
 42
2.617993878
  0
ELLIPSE
  5
43E
100
AcDbEntity
  8
ASSI
100
AcDbEllipse
 62
7
  6
CONTINUOUS
 10
3.8902479528
 20
-22.1687776176
 30
0.0
 11
0.2
 21
0.0
 31
0.0
 40
0.0524077793
 41
1.5707963268
 42
2.617993878
  0
ELLIPSE
  5
43F
100
AcDbEntity
  8
ASSI
100
AcDbEllipse
 62
7
  6
CONTINUOUS
 10
7.2593078452
 20
-22.1687776176
 30
0.0
 11
0.2
 21
-0.0
 31
0.0
 40
0.0524077793
 41
0.5235987756
 42
1.5707963268
  0
ELLIPSE
  5
440
100
AcDbEntity
  8
ASSI
100
AcDbEllipse
 62
7
  6
CONTINUOUS
 10
18.4593078452
 20
-22.1687776176
 30
0.0
 11
0.2
 21
0.0
 31
0.0
 40
0.0524077793
 41
0.5235987756
 42
1.5707963268
  0
ELLIPSE
  5
441
100
AcDbEntity
  8
ASSI
100
AcDbEllipse
 62
7
  6
CONTINUOUS
 10
15.0902479528
 20
-22.1687776176
 30
0.0
 11
0.2
 21
0.0
 31
0.0
 40
0.0524077793
 41
1.5707963268
 42
2.617993878
  0
ELLIPSE
  5
442
100
AcDbEntity
  8
ASSI
100
AcDbEllipse
 62
7
  6
CONTINUOUS
 10
21.7481685987
 20
-21.6967447098
 30
0.0
 11
0.4943891341
 21
0.0770133648
 31
0.0
 40
0.9960067742
 41
-1.7259388368
 42
-0.1569690096
  0
ELLIPSE
  5
443
100
AcDbEntity
  8
ASSI
100
AcDbEllipse
 62
7
  6
CONTINUOUS
 10
-21.8986128007
 20
-21.6967447098
 30
0.0
 11
0.4943891341
 21
-0.0770133648
 31
0.0
 40
0.9960067742
 41
-2.984623644
 42
-1.4156538168
  0
ELLIPSE
  5
444
100
AcDbEntity
  8
ASSI
100
AcDbEllipse
 62
7
  6
CONTINUOUS
 10
22.0246255129
 20
-0.3369172503
 30
0.0
 11
0.2426981267
 21
0.0606514259
 31
0.0
 40
0.9993528196
 41
-0.2447368254
 42
1.3257549497
  0
ELLIPSE
  5
445
100
AcDbEntity
  8
ASSI
100
AcDbEllipse
 62
7
  6
CONTINUOUS
 10
-22.1750697149
 20
-0.3369172503
 30
0.0
 11
0.2426981267
 21
-0.0606514259
 31
0.0
 40
0.9993528196
 41
1.8158377039
 42
3.386329479
  0
ELLIPSE
  5
446
100
AcDbEntity
  8
0
100
AcDbEllipse
 62
253
  6
CONTINUOUS
 10
43.6914669358
 20
7.8030922693
 30
0.0
 11
90.0
 21
0.0
 31
0.0
 40
1.0
 41
9.383579185
 42
9.396023469
  0
ELLIPSE
  5
447
100
AcDbEntity
  8
0
100
AcDbEllipse
 62
253
  6
CONTINUOUS
 10
43.6914669358
 20
-7.7769077307
 30
0.0
 11
0.0
 21
90.0
 31
0.0
 40
1.0
 41
1.6333477875
 42
1.6362889252
  0
ELLIPSE
  5
448
100
AcDbEntity
  8
0
100
AcDbEllipse
 62
253
  6
CONTINUOUS
 10
43.6914669358
 20
-7.7769077307
 30
0.0
 11
-0.0
 21
90.0
 31
0.0
 40
1.0
 41
-4.6682990099
 42
-4.6653573173
  0
ELLIPSE
  5
449
100
AcDbEntity
  8
0
100
AcDbEllipse
 62
253
  6
CONTINUOUS
 10
43.6914669358
 20
-7.7769077307
 30
0.0
 11
90.0
 21
-0.0
 31
0.0
 40
1.0
 41
-3.0839701671
 42
-3.0810365987
  0
ENDSEC
  0
SECTION
  2
OBJECTS
  0
DICTIONARY
  5
C
100
AcDbDictionary
280
0
281
1
  3
ACAD_GROUP
350
D
  3
ACAD_MLINESTYLE
350
17
  3
ACAD_LAYOUT
350
1A
  3
ACAD_PLOTSETTINGS
350
19
  3
ACAD_PLOTSTYLENAME
350
E
  0
DICTIONARY
  5
D
102
{ACAD_REACTORS
330
C
102
}
100
AcDbDictionary
280
0
281
1
  0
ACDBDICTIONARYWDFLT
  5
E
102
{ACAD_REACTORS
330
C
102
}
100
AcDbDictionary
281
1
  3
Normal
350
F
100
AcDbDictionaryWithDefault
340
F
  0
DICTIONARY
  5
17
102
{ACAD_REACTORS
330
C
102
}
100
AcDbDictionary
280
0
281
1
  3
Standard
350
18
  0
DICTIONARY
  5
19
102
{ACAD_REACTORS
330
C
102
}
100
AcDbDictionary
281
1
  0
DICTIONARY
  5
1A
102
{ACAD_REACTORS
330
C
102
}
100
AcDbDictionary
281
1
  3
Model
350
44A
  3
Layout1
350
44B
  0
ACDBPLACEHOLDER
  5
F
102
{ACAD_REACTORS
330
E
102
}
  0
MLINESTYLE
  5
18
102
{ACAD_REACTORS
330
17
102
}
100
AcDbMlineStyle
  2
STANDARD
 70
0
  3

 62
256
 51
90.0
 52
90.0
 71
2
 49
0.5
 62
256
  6
BYLAYER
 49
-0.5
 62
256
  6
BYLAYER
  0
LAYOUT
  5
44A
102
{ACAD_REACTORS
330
1A
102
}
100
AcDbPlotSettings
  1

  2
none_device
  4
ISO_A4_(297.00_x_210.00_MM)
  6

 40
0.0
 41
0.0
 42
0.0
 43
0.0
 44
297.0
 45
210.0
 46
0.0
 47
0.0
 48
0.0
 49
0.0
140
0.0
141
0.0
142
1.0
143
1.0
 70
1024
 72
1
 73
0
 74
0
  7

 75
0
147
1.0
148
0.0
149
0.0
100
AcDbLayout
  1
Model
 70
0
 71
0
 10
0.0
 20
0.0
 11
297.0
 21
210.0
 12
0.0
 22
0.0
 32
0.0
 14
0.0
 24
0.0
 34
0.0
 15
0.0
 25
0.0
 35
0.0
146
0.0
 13
0.0
 23
0.0
 33
0.0
 16
1.0
 26
0.0
 36
0.0
 17
0.0
 27
1.0
 37
0.0
 76
0
330
219
345
0
346
0
  0
LAYOUT
  5
44B
102
{ACAD_REACTORS
330
1A
102
}
100
AcDbPlotSettings
  1

  2
none_device
  4
ISO_A4_(297.00_x_210.00_MM)
  6

 40
0.0
 41
0.0
 42
0.0
 43
0.0
 44
297.0
 45
210.0
 46
0.0
 47
0.0
 48
0.0
 49
0.0
140
0.0
141
0.0
142
1.0
143
1.0
 70
0
 72
1
 73
0
 74
0
  7

 75
0
147
1.0
148
0.0
149
0.0
100
AcDbLayout
  1
Layout1
 70
0
 71
1
 10
0.0
 20
0.0
 11
297.0
 21
210.0
 12
0.0
 22
0.0
 32
0.0
 14
0.0
 24
0.0
 34
0.0
 15
0.0
 25
0.0
 35
0.0
146
0.0
 13
0.0
 23
0.0
 33
0.0
 16
1.0
 26
0.0
 36
0.0
 17
0.0
 27
1.0
 37
0.0
 76
0
330
21A
345
0
346
0
  0
ENDSEC
  0
EOF
