  0
SECTION
  2
HEADER
  9
$ACADVER
  1
AC1024
  9
$DWGCODEPAGE
  3
ANSI_1252
  9
$EXTMAX
 10
297.0
 20
210.0
 30
0.0
  9
$EXTMIN
 10
0.0
 20
0.0
 30
0.0
  9
$LIMMIN
 10
0.0
 20
0.0
  9
$LIMMAX
 10
297.0
 20
210.0
  9
$VIEWCTR
 10
148.5
 20
105.0
  9
$VIEWSIZE
 40
210.0
  9
$CLAYER
  8
0
  9
$LTSCALE
 40
16.335
  9
$CELTYPE
  6
BYLAYER
  9
$DIMSCALE
 40
1.0
  9
$DIMASZ
 40
3.0
  9
$DIMEXO
 40
0.5
  9
$DIMDLI
 40
11.286
  9
$DIMEXE
 40
1.5
  9
$DIMCEN
 40
2.673
  9
$DIMLFAC
 40
1.0
  9
$DIMBLK
  1
_FILLED
  9
$DIMALT
 70
0
  9
$DIMALTF
 40
0.0393700787
  9
$DIMTXT
 40
3.0
  9
$DIMTOL
 70
1
  9
$DIMLIM
 70
0
  9
$DIMTFAC
 40
1.0
  9
$DIMTP
 40
0.01
  9
$DIMTM
 40
0.01
  9
$DIMGAP
 40
0.625
  9
$DIMDSEP
 70
44
  9
$AUNITS
 70
0
  9
$PDMODE
 70
3
  9
$PDSIZE
 40
3.0
  9
$HANDSEED
  5
7D3
  9
$TILEMODE
 70
1
  9
$MEASUREMENT
 70
1
  9
$INSUNITS
 70
4
  0
ENDSEC
  0
SECTION
  2
CLASSES
  0
CLASS
  1
ACDBDICTIONARYWDFLT
  2
AcDbDictionaryWithDefault
  3
AutoCAD 2000
 90
0
 91
1
280
0
281
0
  0
CLASS
  1
ACDBPLACEHOLDER
  2
AcDbPlaceHolder
  3
AutoCAD 2000
 90
0
 91
1
280
0
281
0
  0
CLASS
  1
LAYOUT
  2
AcDbLayout
  3
AutoCAD 2000
 90
0
 91
0
280
0
281
0
  0
ENDSEC
  0
SECTION
  2
TABLES
  0
TABLE
  2
VPORT
  5
8
100
AcDbSymbolTable
 70
2
  0
VPORT
  5
1F4
100
AcDbSymbolTableRecord
100
AcDbViewportTableRecord
  2
*ACTIVE
 70
0
 10
0.0
 20
0.0
 11
1.0
 21
1.0
 12
148.5
 22
105.0
 13
0.0
 23
0.0
 14
1.0
 24
1.0
 15
0.0
 25
0.0
 16
0.0
 26
0.0
 36
1.0
 17
0.0
 27
0.0
 37
0.0
 40
210.0
 41
1.4142857143
 42
50.0
 43
0.0
 44
0.0
 50
0.0
 51
0.0
 71
0
 72
100
 73
1
 74
1
 75
0
 76
0
 77
0
 78
0
  0
ENDTAB
  0
TABLE
  2
LTYPE
  5
5
100
AcDbSymbolTable
 70
6
  0
LTYPE
  5
14
100
AcDbSymbolTableRecord
100
AcDbLinetypeTableRecord
  2
BYBLOCK
 70
0
  3

 72
65
 73
0
 40
0.0
  0
LTYPE
  5
15
100
AcDbSymbolTableRecord
100
AcDbLinetypeTableRecord
  2
BYLAYER
 70
0
  3

 72
65
 73
0
 40
0.0
  0
LTYPE
  5
16
100
AcDbSymbolTableRecord
100
AcDbLinetypeTableRecord
  2
CONTINUOUS
 70
64
  3
Solid line
 72
65
 73
0
 40
0.0
  0
LTYPE
  5
1F5
100
AcDbSymbolTableRecord
100
AcDbLinetypeTableRecord
  2
CENTER
 70
64
  3
____ _ ____ _ ____ _ ____ _ ____ _ ____ _ ____
 72
65
 73
4
 40
0.6
 49
0.375
 74
0
 49
-0.075
 74
0
 49
0.075
 74
0
 49
-0.075
 74
0
  0
LTYPE
  5
1F6
100
AcDbSymbolTableRecord
100
AcDbLinetypeTableRecord
  2
HIDDEN
 70
64
  3
- - - - - - - - - - - - - - - - - - - -
 72
65
 73
2
 40
0.2
 49
0.1
 74
0
 49
-0.1
 74
0
  0
LTYPE
  5
1F7
100
AcDbSymbolTableRecord
100
AcDbLinetypeTableRecord
  2
PHANTOM
 70
64
  3
_____ _ _ _____ _ _ _____ _ _ _____
 72
65
 73
6
 40
0.8
 49
0.45
 74
0
 49
-0.05
 74
0
 49
0.1
 74
0
 49
-0.05
 74
0
 49
0.1
 74
0
 49
-0.05
 74
0
  0
LTYPE
  5
1F8
100
AcDbSymbolTableRecord
100
AcDbLinetypeTableRecord
  2
DOT
 70
64
  3
. . . . . . . . . . . . . . . . . . . .
 72
65
 73
2
 40
0.2
 49
0.1
 74
0
 49
-0.1
 74
0
  0
LTYPE
  5
1F9
100
AcDbSymbolTableRecord
100
AcDbLinetypeTableRecord
  2
DASHED
 70
64
  3
- - - - - - - - - - - - - - - - - - - -
 72
65
 73
2
 40
0.2
 49
0.1
 74
0
 49
-0.1
 74
0
  0
ENDTAB
  0
TABLE
  2
LAYER
  5
2
100
AcDbSymbolTable
 70
36
  0
LAYER
  5
10
100
AcDbSymbolTableRecord
100
AcDbLayerTableRecord
  2
0
 70
0
 62
7
  6
CONTINUOUS
370
-3
390
F
  0
LAYER
  5
1FA
100
AcDbSymbolTableRecord
100
AcDbLayerTableRecord
  2
DEFAULT_1
 70
0
 62
7
  6
CENTER
370
-3
390
F
  0
LAYER
  5
1FB
100
AcDbSymbolTableRecord
100
AcDbLayerTableRecord
  2
DEFAULT_2
 70
0
 62
7
  6
HIDDEN
370
-3
390
F
  0
LAYER
  5
1FC
100
AcDbSymbolTableRecord
100
AcDbLayerTableRecord
  2
DEFAULT_3
 70
0
 62
7
  6
PHANTOM
370
-3
390
F
  0
LAYER
  5
1FD
100
AcDbSymbolTableRecord
100
AcDbLayerTableRecord
  2
ASSI
 70
0
 62
7
  6
CONTINUOUS
370
-3
390
F
  0
LAYER
  5
1FE
100
AcDbSymbolTableRecord
100
AcDbLayerTableRecord
  2
COLOR6
 70
0
 62
7
  6
CONTINUOUS
370
-3
390
F
  0
LAYER
  5
1FF
100
AcDbSymbolTableRecord
100
AcDbLayerTableRecord
  2
COLOR9
 70
0
 62
7
  6
CONTINUOUS
370
-3
390
F
  0
LAYER
  5
200
100
AcDbSymbolTableRecord
100
AcDbLayerTableRecord
  2
COORDINATE
 70
0
 62
7
  6
CONTINUOUS
370
-3
390
F
  0
LAYER
  5
201
100
AcDbSymbolTableRecord
100
AcDbLayerTableRecord
  2
COORD_ORIGINE
 70
0
 62
7
  6
CONTINUOUS
370
-3
390
F
  0
LAYER
  5
202
100
AcDbSymbolTableRecord
100
AcDbLayerTableRecord
  2
COPY_GEOMETRY
 70
0
 62
7
  6
CONTINUOUS
370
-3
390
F
  0
LAYER
  5
203
100
AcDbSymbolTableRecord
100
AcDbLayerTableRecord
  2
COPY_PUBLISH
 70
0
 62
7
  6
CONTINUOUS
370
-3
390
F
  0
LAYER
  5
204
100
AcDbSymbolTableRecord
100
AcDbLayerTableRecord
  2
COSMETIC
 70
0
 62
7
  6
CONTINUOUS
370
-3
390
F
  0
LAYER
  5
205
100
AcDbSymbolTableRecord
100
AcDbLayerTableRecord
  2
COSMETICI
 70
0
 62
7
  6
CONTINUOUS
370
-3
390
F
  0
LAYER
  5
206
100
AcDbSymbolTableRecord
100
AcDbLayerTableRecord
  2
CURVE
 70
0
 62
7
  6
CONTINUOUS
370
-3
390
F
  0
LAYER
  5
207
100
AcDbSymbolTableRecord
100
AcDbLayerTableRecord
  2
DRAFT
 70
0
 62
7
  6
CONTINUOUS
370
-3
390
F
  0
LAYER
  5
208
100
AcDbSymbolTableRecord
100
AcDbLayerTableRecord
  2
IGES
 70
0
 62
7
  6
CONTINUOUS
370
-3
390
F
  0
LAYER
  5
209
100
AcDbSymbolTableRecord
100
AcDbLayerTableRecord
  2
IGS_SCRITTE
 70
0
 62
7
  6
CONTINUOUS
370
-3
390
F
  0
LAYER
  5
20A
100
AcDbSymbolTableRecord
100
AcDbLayerTableRecord
  2
IMPORT_IGES
 70
0
 62
7
  6
CONTINUOUS
370
-3
390
F
  0
LAYER
  5
20B
100
AcDbSymbolTableRecord
100
AcDbLayerTableRecord
  2
INTFCLR_13457
 70
0
 62
7
  6
CONTINUOUS
370
-3
390
F
  0
LAYER
  5
20C
100
AcDbSymbolTableRecord
100
AcDbLayerTableRecord
  2
INTFCLR_20107
 70
0
 62
7
  6
CONTINUOUS
370
-3
390
F
  0
LAYER
  5
20D
100
AcDbSymbolTableRecord
100
AcDbLayerTableRecord
  2
INTF_11
 70
0
 62
7
  6
CONTINUOUS
370
-3
390
F
  0
LAYER
  5
20E
100
AcDbSymbolTableRecord
100
AcDbLayerTableRecord
  2
INTF_20
 70
0
 62
7
  6
CONTINUOUS
370
-3
390
F
  0
LAYER
  5
20F
100
AcDbSymbolTableRecord
100
AcDbLayerTableRecord
  2
INTF_YELLOW
 70
0
 62
7
  6
CONTINUOUS
370
-3
390
F
  0
LAYER
  5
210
100
AcDbSymbolTableRecord
100
AcDbLayerTableRecord
  2
NOTE
 70
0
 62
7
  6
CONTINUOUS
370
-3
390
F
  0
LAYER
  5
211
100
AcDbSymbolTableRecord
100
AcDbLayerTableRecord
  2
PIANI
 70
0
 62
7
  6
CONTINUOUS
370
-3
390
F
  0
LAYER
  5
212
100
AcDbSymbolTableRecord
100
AcDbLayerTableRecord
  2
PIANI_ORIGINE
 70
0
 62
7
  6
CONTINUOUS
370
-3
390
F
  0
LAYER
  5
213
100
AcDbSymbolTableRecord
100
AcDbLayerTableRecord
  2
PIANI_RIFERIMENTO
 70
0
 62
7
  6
CONTINUOUS
370
-3
390
F
  0
LAYER
  5
214
100
AcDbSymbolTableRecord
100
AcDbLayerTableRecord
  2
PUBLISH_GEOMETRY
 70
0
 62
7
  6
CONTINUOUS
370
-3
390
F
  0
LAYER
  5
215
100
AcDbSymbolTableRecord
100
AcDbLayerTableRecord
  2
PUNTI
 70
0
 62
7
  6
CONTINUOUS
370
-3
390
F
  0
LAYER
  5
216
100
AcDbSymbolTableRecord
100
AcDbLayerTableRecord
  2
RACCORDO
 70
0
 62
7
  6
CONTINUOUS
370
-3
390
F
  0
LAYER
  5
217
100
AcDbSymbolTableRecord
100
AcDbLayerTableRecord
  2
SIMBOLI
 70
0
 62
7
  6
CONTINUOUS
370
-3
390
F
  0
LAYER
  5
218
100
AcDbSymbolTableRecord
100
AcDbLayerTableRecord
  2
SMUSSO
 70
0
 62
7
  6
CONTINUOUS
370
-3
390
F
  0
LAYER
  5
219
100
AcDbSymbolTableRecord
100
AcDbLayerTableRecord
  2
SNAPLINE
 70
0
 62
7
  6
CONTINUOUS
370
-3
390
F
  0
LAYER
  5
21A
100
AcDbSymbolTableRecord
100
AcDbLayerTableRecord
  2
SOLIDO
 70
0
 62
7
  6
CONTINUOUS
370
-3
390
F
  0
LAYER
  5
21B
100
AcDbSymbolTableRecord
100
AcDbLayerTableRecord
  2
SUPERFICI
 70
0
 62
7
  6
CONTINUOUS
370
-3
390
F
  0
LAYER
  5
21C
100
AcDbSymbolTableRecord
100
AcDbLayerTableRecord
  2
TRASH
 70
0
 62
7
  6
CONTINUOUS
370
-3
390
F
  0
LAYER
  5
21D
100
AcDbSymbolTableRecord
100
AcDbLayerTableRecord
  2
WHITE
 70
0
 62
7
  6
CONTINUOUS
370
-3
390
F
  0
LAYER
  5
21E
100
AcDbSymbolTableRecord
100
AcDbLayerTableRecord
  2
XSEC_DATUMS
 70
0
 62
7
  6
CONTINUOUS
370
-3
390
F
  0
LAYER
  5
21F
100
AcDbSymbolTableRecord
100
AcDbLayerTableRecord
  2
___SHELL
 70
0
 62
7
  6
CONTINUOUS
370
-3
390
F
  0
ENDTAB
  0
TABLE
  2
STYLE
  5
3
100
AcDbSymbolTable
 70
1
  0
STYLE
  5
11
100
AcDbSymbolTableRecord
100
AcDbTextStyleTableRecord
  2
STANDARD
 70
0
 40
0.0
 41
0.8
 50
0.0
 71
0
 42
0.2
  3
txt
  4

  0
STYLE
  5
220
100
AcDbSymbolTableRecord
100
AcDbTextStyleTableRecord
  2
TEXTSTYLE_1
 70
0
 40
0.0
 41
0.8
 50
0.0
 71
0
 42
0.2
  3
gdt
  4

  0
ENDTAB
  0
TABLE
  2
VIEW
  5
6
100
AcDbSymbolTable
 70
0
  0
ENDTAB
  0
TABLE
  2
UCS
  5
7
100
AcDbSymbolTable
 70
0
  0
ENDTAB
  0
TABLE
  2
APPID
  5
9
100
AcDbSymbolTable
 70
1
  0
APPID
  5
221
100
AcDbSymbolTableRecord
100
AcDbRegAppTableRecord
  2
ACAD
 70
0
  0
ENDTAB
  0
TABLE
  2
BLOCK_RECORD
  5
1
100
AcDbSymbolTable
 70
0
  0
BLOCK_RECORD
  5
222
100
AcDbSymbolTableRecord
100
AcDbBlockTableRecord
  2
*Model_Space
  0
BLOCK_RECORD
  5
223
100
AcDbSymbolTableRecord
100
AcDbBlockTableRecord
  2
*Paper_Space
  0
BLOCK_RECORD
  5
224
100
AcDbSymbolTableRecord
100
AcDbBlockTableRecord
  2
_FILLED
  0
BLOCK_RECORD
  5
225
100
AcDbSymbolTableRecord
100
AcDbBlockTableRecord
  2
*D0
  0
BLOCK_RECORD
  5
226
100
AcDbSymbolTableRecord
100
AcDbBlockTableRecord
  2
*D1
  0
BLOCK_RECORD
  5
227
100
AcDbSymbolTableRecord
100
AcDbBlockTableRecord
  2
*D2
  0
ENDTAB
  0
TABLE
  2
DIMSTYLE
  5
A
100
AcDbSymbolTable
 70
1
100
AcDbDimStyleTable
 71
0
  0
DIMSTYLE
105
228
100
AcDbSymbolTableRecord
100
AcDbDimStyleTableRecord
  2
STANDARD
 70
0
  3

  4

 40
1.0
 41
3.0
 42
0.5
 43
0.38
 44
1.5
 45
0.0
 46
0.0
 47
0.01
 48
0.01
140
3.0
141
0.09
142
0.0
143
25.4
144
1.0
145
0.0
146
1.0
147
0.625
 71
1.0
 72
0.0
 73
0
 74
0
 75
0
 76
0
 77
1
 78
8
 79
2
170
0
171
1
172
0
173
0
174
0
175
0
176
0
177
0
178
0
270
2
179
2
271
2
272
2
273
2
274
2
275
0
280
0
281
0
282
0
283
1
284
8
285
0
286
0
287
3
288
0
340
11
278
44
341
224
342
224
343
224
344
224
  0
DIMSTYLE
105
229
100
AcDbSymbolTableRecord
100
AcDbDimStyleTableRecord
  2
DIMSTYLE_1
 70
0
  3

  4

 40
1.0
 41
3.0
 42
0.5
 43
0.38
 44
1.5
 45
0.0
 46
0.0
 47
0.0
 48
0.0
140
3.0
141
0.09
142
0.0
143
25.4
144
1.0
145
0.0
146
1.0
147
0.75
 71
0.0
 72
0.0
 73
0
 74
0
 75
0
 76
0
 77
1
 78
8
 79
2
170
0
171
1
172
0
173
0
174
0
175
0
176
0
177
0
178
0
270
2
179
2
271
2
272
2
273
2
274
2
275
0
280
0
281
0
282
0
283
1
284
8
285
0
286
0
287
3
288
0
340
11
278
44
341
224
342
224
343
224
344
224
  0
DIMSTYLE
105
22A
100
AcDbSymbolTableRecord
100
AcDbDimStyleTableRecord
  2
DIMSTYLE_2
 70
0
  3

  4

 40
1.0
 41
3.0
 42
0.5
 43
0.38
 44
1.5
 45
0.0
 46
0.0
 47
0.0
 48
0.0
140
3.0
141
0.09
142
0.0
143
25.4
144
1.0
145
0.0
146
1.0
147
0.75
 71
0.0
 72
0.0
 73
0
 74
0
 75
0
 76
0
 77
1
 78
8
 79
2
170
0
171
1
172
0
173
0
174
0
175
0
176
0
177
0
178
0
270
2
179
2
271
1
272
1
273
2
274
2
275
0
280
0
281
0
282
0
283
1
284
8
285
0
286
0
287
3
288
0
340
11
278
44
341
224
342
224
343
224
344
224
  0
ENDTAB
  0
ENDSEC
  0
SECTION
  2
BLOCKS
  0
BLOCK
  5
20
100
AcDbEntity
  8
0
100
AcDbBlockBegin
  2
*Model_Space
 70
0
 10
0.0
 20
0.0
 30
0.0
  3
*Model_Space
  1

  0
ENDBLK
  5
21
100
AcDbEntity
  8
0
100
AcDbBlockEnd
  0
BLOCK
  5
1C
100
AcDbEntity
  8
0
100
AcDbBlockBegin
  2
*Paper_Space
 70
0
 10
0.0
 20
0.0
 30
0.0
  3
*Paper_Space
  1

  0
ENDBLK
  5
1D
100
AcDbEntity
  8
0
100
AcDbBlockEnd
  0
BLOCK
  5
22B
100
AcDbEntity
  8
0
100
AcDbBlockBegin
  2
_FILLED
 70
64
 10
0.0
 20
0.0
  3
_FILLED
  1

  0
SOLID
  5
22C
100
AcDbEntity
  8
0
  6
BYBLOCK
 62
0
100
AcDbTrace
 10
0.0
 20
0.0
 11
-1.0
 21
0.3166666667
 12
-1.0
 22
-0.3166666667
 13
-1.0
 23
-0.3166666667
  0
ENDBLK
  5
22D
100
AcDbEntity
  8
0
  6
BYBLOCK
 62
0
100
AcDbBlockEnd
  0
BLOCK
  5
22E
100
AcDbEntity
  8
0
100
AcDbBlockBegin
 62
7
  6
CONTINUOUS
  2
*D0
 70
65
 10
0.0
 20
0.0
  3
*D0
  1

  0
LINE
  5
22F
100
AcDbEntity
  8
0
100
AcDbLine
 62
7
  6
CONTINUOUS
 10
-24.8117790333
 20
13.2945711349
 11
-24.8117790333
 21
31.355904678
  0
LINE
  5
230
100
AcDbEntity
  8
0
100
AcDbLine
 62
7
  6
CONTINUOUS
 10
-30.511657829
 20
0.5427147243
 11
-30.511657829
 21
31.355904678
  0
LINE
  5
231
100
AcDbEntity
  8
0
100
AcDbLine
 62
7
  6
CONTINUOUS
 10
-24.8117790333
 20
29.855904678
 11
-20.8117790333
 21
29.855904678
  0
LINE
  5
232
100
AcDbEntity
  8
0
100
AcDbLine
 62
7
  6
CONTINUOUS
 10
-20.8117790333
 20
29.855904678
 11
-27.6617184312
 21
29.855904678
  0
LINE
  5
233
100
AcDbEntity
  8
0
100
AcDbLine
 62
7
  6
CONTINUOUS
 10
-30.511657829
 20
29.855904678
 11
-41.9759732433
 21
29.855904678
  0
LINE
  5
234
100
AcDbEntity
  8
0
100
AcDbLine
 62
7
  6
CONTINUOUS
 10
-41.9759732433
 20
29.855904678
 11
-27.6617184312
 21
29.855904678
  0
INSERT
  5
235
100
AcDbEntity
  8
0
100
AcDbBlockReference
 62
7
  6
CONTINUOUS
  2
_FILLED
 10
-24.8117790333
 20
29.855904678
 41
3.0
 42
3.0
 43
3.0
 50
180.0
  0
INSERT
  5
236
100
AcDbEntity
  8
0
100
AcDbBlockReference
 62
7
  6
CONTINUOUS
  2
_FILLED
 10
-30.511657829
 20
29.855904678
 41
3.0
 42
3.0
 43
3.0
  0
ENDBLK
  5
237
100
AcDbEntity
  8
0
  6
BYBLOCK
 62
0
100
AcDbBlockEnd
  0
BLOCK
  5
238
100
AcDbEntity
  8
0
100
AcDbBlockBegin
 62
7
  6
CONTINUOUS
  2
*D1
 70
65
 10
0.0
 20
0.0
  3
*D1
  1

  0
LINE
  5
239
100
AcDbEntity
  8
0
100
AcDbLine
 62
7
  6
CONTINUOUS
 10
-11.5893236945
 20
13.2945711349
 11
-11.5893236945
 21
31.4411904158
  0
LINE
  5
23A
100
AcDbEntity
  8
0
100
AcDbLine
 62
7
  6
CONTINUOUS
 10
10.7106763055
 20
13.2945711349
 11
10.7106763055
 21
31.4411904158
  0
LINE
  5
23B
100
AcDbEntity
  8
0
100
AcDbLine
 62
7
  6
CONTINUOUS
 10
-11.5893236945
 20
29.9411904158
 11
-0.4393236945
 21
29.9411904158
  0
LINE
  5
23C
100
AcDbEntity
  8
0
100
AcDbLine
 62
7
  6
CONTINUOUS
 10
10.7106763055
 20
29.9411904158
 11
-0.4393236945
 21
29.9411904158
  0
INSERT
  5
23D
100
AcDbEntity
  8
0
100
AcDbBlockReference
 62
7
  6
CONTINUOUS
  2
_FILLED
 10
-11.5893236945
 20
29.9411904158
 41
3.0
 42
3.0
 43
3.0
 50
180.0
  0
INSERT
  5
23E
100
AcDbEntity
  8
0
100
AcDbBlockReference
 62
7
  6
CONTINUOUS
  2
_FILLED
 10
10.7106763055
 20
29.9411904158
 41
3.0
 42
3.0
 43
3.0
  0
ENDBLK
  5
23F
100
AcDbEntity
  8
0
  6
BYBLOCK
 62
0
100
AcDbBlockEnd
  0
BLOCK
  5
240
100
AcDbEntity
  8
0
100
AcDbBlockBegin
 62
7
  6
CONTINUOUS
  2
*D2
 70
65
 10
0.0
 20
0.0
  3
*D2
  1

  0
LINE
  5
241
100
AcDbEntity
  8
0
100
AcDbLine
 62
7
  6
CONTINUOUS
 10
10.6834581108
 20
21.9028090754
 11
20.226201908
 21
21.9028090754
  0
LINE
  5
242
100
AcDbEntity
  8
0
100
AcDbLine
 62
7
  6
CONTINUOUS
 10
10.6834581108
 20
-22.5136668057
 11
20.226201908
 21
-22.5136668057
  0
LINE
  5
243
100
AcDbEntity
  8
0
100
AcDbLine
 62
7
  6
CONTINUOUS
 10
18.726201908
 20
21.9028090754
 11
18.726201908
 21
-0.3054288651
  0
LINE
  5
244
100
AcDbEntity
  8
0
100
AcDbLine
 62
7
  6
CONTINUOUS
 10
18.726201908
 20
-22.5136668057
 11
18.726201908
 21
-0.3054288651
  0
INSERT
  5
245
100
AcDbEntity
  8
0
100
AcDbBlockReference
 62
7
  6
CONTINUOUS
  2
_FILLED
 10
18.726201908
 20
21.9028090754
 41
3.0
 42
3.0
 43
3.0
 50
90.0
  0
INSERT
  5
246
100
AcDbEntity
  8
0
100
AcDbBlockReference
 62
7
  6
CONTINUOUS
  2
_FILLED
 10
18.726201908
 20
-22.5136668057
 41
3.0
 42
3.0
 43
3.0
 50
270.0
  0
ENDBLK
  5
247
100
AcDbEntity
  8
0
  6
BYBLOCK
 62
0
100
AcDbBlockEnd
  0
ENDSEC
  0
SECTION
  2
ENTITIES
  0
DIMENSION
  5
248
100
AcDbEntity
  8
0
100
AcDbDimension
 62
7
  6
CONTINUOUS
  2
*D0
 10
-30.511657829
 20
29.855904678
 11
-41.9759732433
 21
29.855904678
 70
160
 71
3
 72
2
 41
0.9
 42
5.6998787957
  3
DIMSTYLE_1
100
AcDbAlignedDimension
 13
-24.8117790333
 23
12.7945711349
 14
-30.511657829
 24
0.0427147243
 50
180.0
100
AcDbRotatedDimension
  0
DIMENSION
  5
249
100
AcDbEntity
  8
0
100
AcDbDimension
 62
7
  6
CONTINUOUS
  2
*D1
 10
10.7106763055
 20
29.9411904158
 11
-4.7250379802
 21
29.9411904158
 70
160
 71
2
 72
2
 41
0.9
 42
22.3
  3
DIMSTYLE_1
100
AcDbAlignedDimension
 13
-11.5893236945
 23
12.7945711349
 14
10.7106763055
 24
12.7945711349
100
AcDbRotatedDimension
  0
DIMENSION
  5
24A
100
AcDbEntity
  8
0
100
AcDbDimension
 62
7
  6
CONTINUOUS
  2
*D2
 10
18.726201908
 20
-22.5136668057
 11
18.726201908
 21
-4.698286008
 70
160
 71
2
 72
2
 41
0.9
 42
44.4164758811
  3
DIMSTYLE_2
100
AcDbAlignedDimension
 13
10.1834581108
 23
21.9028090754
 14
10.1834581108
 24
-22.5136668057
 50
270.0
100
AcDbRotatedDimension
  0
LWPOLYLINE
  5
24B
100
AcDbEntity
  8
0
100
AcDbPolyline
 62
7
  6
CONTINUOUS
 90
5
 70
0
 43
0.3500000006
 10
2.560676425
 20
32.4054749908
 10
2.9178190269
 20
32.6197640076
 10
2.9178190269
 20
33.2626174622
 10
2.560676425
 20
33.6911909637
 10
1.7035333872
 20
33.6911909637
  0
LINE
  5
24C
100
AcDbEntity
  8
RACCORDO
100
AcDbLine
 62
7
  6
CONTINUOUS
 10
2.9547226046
 20
-22.5136668057
 11
3.3029412786
 21
-22.4820579741
  0
LINE
  5
24D
100
AcDbEntity
  8
RACCORDO
100
AcDbLine
 62
7
  6
CONTINUOUS
 10
-8.2452773954
 20
-22.5136668057
 11
-7.8970587214
 21
-22.4820579741
  0
LINE
  5
24E
100
AcDbEntity
  8
0
100
AcDbLine
 62
250
  6
CONTINUOUS
 10
10.1512289789
 20
-21.5113047089
 11
10.1230708777
 21
-21.5120508716
  0
LWPOLYLINE
  5
24F
100
AcDbEntity
  8
0
100
AcDbPolyline
 62
250
  6
CONTINUOUS
 90
4
 70
0
 10
10.1230708777
 20
-21.5120508716
 10
10.0947290131
 20
-21.5125582772
 10
10.0805178209
 20
-21.5127219026
 10
10.0662951179
 20
-21.5128252835
  0
LINE
  5
250
100
AcDbEntity
  8
0
100
AcDbLine
 62
7
  6
CONTINUOUS
 10
10.1834581108
 20
-22.5136668057
 11
7.3666300064
 21
-22.5136668057
  0
LINE
  5
251
100
AcDbEntity
  8
DRAFT
100
AcDbLine
 62
7
  6
CONTINUOUS
 10
2.9547226046
 20
-22.5136668057
 11
-3.8333699936
 21
-22.5136668057
  0
LINE
  5
252
100
AcDbEntity
  8
0
100
AcDbLine
 62
7
  6
CONTINUOUS
 10
-8.2452773954
 20
-22.5136668057
 11
-11.0621054997
 21
-22.5136668057
  0
LINE
  5
253
100
AcDbEntity
  8
RACCORDO
100
AcDbLine
 62
7
  6
CONTINUOUS
 10
-7.7238536407
 20
-22.4768171962
 11
-4.3547937483
 21
-22.4768171962
  0
LINE
  5
254
100
AcDbEntity
  8
RACCORDO
100
AcDbLine
 62
7
  6
CONTINUOUS
 10
3.4761463593
 20
-22.4768171962
 11
6.8452062517
 21
-22.4768171962
  0
LINE
  5
255
100
AcDbEntity
  8
0
100
AcDbLine
 62
250
  6
CONTINUOUS
 10
-10.9612939626
 20
-22.3623726371
 11
10.0826465736
 21
-22.3623726371
  0
LINE
  5
256
100
AcDbEntity
  8
0
100
AcDbLine
 62
250
  6
CONTINUOUS
 10
-10.9875645824
 20
-21.5123345411
 11
-10.95916521
 21
-21.5127219038
  0
LINE
  5
257
100
AcDbEntity
  8
RACCORDO
100
AcDbLine
 62
7
  6
CONTINUOUS
 10
-3.8333699936
 20
-22.5136668057
 11
-4.1815886676
 21
-22.4820579741
  0
LINE
  5
258
100
AcDbEntity
  8
RACCORDO
100
AcDbLine
 62
7
  6
CONTINUOUS
 10
7.3666300064
 20
-22.5136668057
 11
7.0184113324
 21
-22.4820579741
  0
LINE
  5
259
100
AcDbEntity
  8
0
100
AcDbLine
 62
250
  6
CONTINUOUS
 10
-10.9449425069
 20
-21.5128252847
 11
10.0662951179
 21
-21.5128252847
  0
LINE
  5
25A
100
AcDbEntity
  8
0
100
AcDbLine
 62
250
  6
CONTINUOUS
 10
-10.95916521
 20
-21.5127219038
 11
-10.9449425069
 21
-21.5128252847
  0
LWPOLYLINE
  5
25B
100
AcDbEntity
  8
0
100
AcDbPolyline
 62
250
  6
CONTINUOUS
 90
49
 70
0
 10
-11.4446379204
 20
20.8274264633
 10
-11.4439448936
 20
20.8295481073
 10
-11.4428480107
 20
20.8316680342
 10
-11.4413481596
 20
20.8337845284
 10
-11.439446554
 20
20.8358958767
 10
-11.4371447331
 20
20.8380003706
 10
-11.4344445597
 20
20.8400963067
 10
-11.4313482192
 20
20.8421819888
 10
-11.4278582175
 20
20.8442557288
 10
-11.4239773792
 20
20.8463158484
 10
-11.4197088451
 20
20.8483606804
 10
-11.4150560699
 20
20.8503885697
 10
-11.4100228192
 20
20.8523978752
 10
-11.4046131666
 20
20.8543869706
 10
-11.3988314901
 20
20.8563542462
 10
-11.3926824691
 20
20.8582981097
 10
-11.3861710802
 20
20.860216988
 10
-11.3793025931
 20
20.8621093281
 10
-11.3720825668
 20
20.8639735983
 10
-11.3645168446
 20
20.86580829
 10
-11.3566115497
 20
20.8676119183
 10
-11.3483730799
 20
20.8693830234
 10
-11.339808103
 20
20.8711201719
 10
-11.3309235507
 20
20.8728219579
 10
-11.3217266137
 20
20.8744870041
 10
-11.3122247352
 20
20.876113963
 10
-11.3024256053
 20
20.8777015178
 10
-11.2923371548
 20
20.8792483836
 10
-11.2819675484
 20
20.8807533086
 10
-11.2713251787
 20
20.8822150747
 10
-11.2604186587
 20
20.8836324989
 10
-11.2492568154
 20
20.8850044341
 10
-11.2378486824
 20
20.8863297698
 10
-11.2262034926
 20
20.8876074336
 10
-11.2143306707
 20
20.8888363913
 10
-11.2022398258
 20
20.8900156482
 10
-11.1899407432
 20
20.8911442501
 10
-11.177443377
 20
20.8922212834
 10
-11.1647578416
 20
20.8932458766
 10
-11.1518944038
 20
20.8942172003
 10
-11.1388634742
 20
20.8951344685
 10
-11.1256755993
 20
20.8959969388
 10
-11.1123414521
 20
20.8968039132
 10
-11.0988718246
 20
20.8975547386
 10
-11.0852776179
 20
20.8982488072
 10
-11.0715698342
 20
20.8988855575
 10
-11.0577595676
 20
20.8994644739
 10
-11.0438579952
 20
20.8999850881
 10
-11.0298763678
 20
20.9004469786
  0
LWPOLYLINE
  5
25C
100
AcDbEntity
  8
0
100
AcDbPolyline
 62
250
  6
CONTINUOUS
 90
51
 70
0
 10
-11.4446379204
 20
-21.4382841935
 10
-11.4439448938
 20
-21.4404058376
 10
-11.4428480111
 20
-21.4425257646
 10
-11.4413481601
 20
-21.4446422587
 10
-11.4394465548
 20
-21.4467536071
 10
-11.437144734
 20
-21.448858101
 10
-11.4344445608
 20
-21.4509540371
 10
-11.4313482205
 20
-21.4530397192
 10
-11.4278582189
 20
-21.4551134592
 10
-11.4239773807
 20
-21.4571735789
 10
-11.4197088468
 20
-21.4592184109
 10
-11.4150560717
 20
-21.4612463002
 10
-11.4100228211
 20
-21.4632556057
 10
-11.4046131685
 20
-21.4652447012
 10
-11.3988314921
 20
-21.4672119768
 10
-11.3926824712
 20
-21.4691558404
 10
-11.3861710824
 20
-21.4710747187
 10
-11.3793025954
 20
-21.4729670588
 10
-11.3720825692
 20
-21.4748313291
 10
-11.364516847
 20
-21.4766660208
 10
-11.3566115521
 20
-21.4784696491
 10
-11.3483730824
 20
-21.4802407542
 10
-11.3398081055
 20
-21.4819779028
 10
-11.3309235532
 20
-21.4836796888
 10
-11.3217266162
 20
-21.4853447351
 10
-11.3122247377
 20
-21.486971694
 10
-11.3024256078
 20
-21.4885592488
 10
-11.2923371572
 20
-21.4901061147
 10
-11.2819675509
 20
-21.4916110397
 10
-11.2713251811
 20
-21.4930728058
 10
-11.2604186611
 20
-21.49449023
 10
-11.2492568178
 20
-21.4958621652
 10
-11.2378486847
 20
-21.497187501
 10
-11.2262034948
 20
-21.4984651648
 10
-11.2143306729
 20
-21.4996941225
 10
-11.2022398279
 20
-21.5008733795
 10
-11.1899407452
 20
-21.5020019814
 10
-11.1774433789
 20
-21.5030790147
 10
-11.1647578435
 20
-21.5041036079
 10
-11.1518944055
 20
-21.5050749317
 10
-11.1388634759
 20
-21.5059921999
 10
-11.1256756008
 20
-21.5068546702
 10
-11.1123414536
 20
-21.5076616446
 10
-11.0988718259
 20
-21.50841247
 10
-11.0852776191
 20
-21.5091065387
 10
-11.0715698353
 20
-21.5097432889
 10
-11.0577595686
 20
-21.5103222054
 10
-11.0438579961
 20
-21.5108428196
 10
-11.0298763686
 20
-21.5113047101
 10
-11.0158260018
 20
-21.5117075032
 10
-10.9875645824
 20
-21.5123345411
  0
LINE
  5
25D
100
AcDbEntity
  8
0
100
AcDbLine
 62
7
  6
CONTINUOUS
 10
-0.6345462466
 20
15.1507100112
 11
-0.6186071882
 21
15.1559395358
  0
LINE
  5
25E
100
AcDbEntity
  8
0
100
AcDbLine
 62
7
  6
CONTINUOUS
 10
-0.6193391651
 20
15.1557107132
 11
-0.6032828427
 21
15.1605107382
  0
LINE
  5
25F
100
AcDbEntity
  8
0
100
AcDbLine
 62
7
  6
CONTINUOUS
 10
-0.2746279906
 20
-15.7711589616
 11
-0.290790483
 21
-15.7755251208
  0
LINE
  5
260
100
AcDbEntity
  8
0
100
AcDbLine
 62
7
  6
CONTINUOUS
 10
-0.2900556362
 20
-15.77533755
 11
-0.3063202363
 21
-15.7792695584
  0
LINE
  5
261
100
AcDbEntity
  8
0
100
AcDbLine
 62
7
  6
CONTINUOUS
 10
-0.3055959671
 20
-15.7791059648
 11
-0.3219109858
 21
-15.7825946962
  0
LINE
  5
262
100
AcDbEntity
  8
0
100
AcDbLine
 62
7
  6
CONTINUOUS
 10
-0.3212222655
 20
-15.7824569531
 11
-0.3375470867
 21
-15.7854974499
  0
LINE
  5
263
100
AcDbEntity
  8
0
100
AcDbLine
 62
7
  6
CONTINUOUS
 10
-0.3369388805
 20
-15.7853899024
 11
-0.3532441839
 21
-15.7879809113
  0
LINE
  5
264
100
AcDbEntity
  8
0
100
AcDbLine
 62
7
  6
CONTINUOUS
 10
-0.4267580448
 20
-15.1555386999
 11
-0.4224552727
 21
-15.154902555
  0
LINE
  5
265
100
AcDbEntity
  8
0
100
AcDbLine
 62
7
  6
CONTINUOUS
 10
-0.3527414628
 20
-15.7879054328
 11
-0.3690063919
 21
-15.7900472585
  0
LINE
  5
266
100
AcDbEntity
  8
0
100
AcDbLine
 62
7
  6
CONTINUOUS
 10
-0.368590247
 20
-15.789998139
 11
-0.3848478414
 21
-15.7916994057
  0
LINE
  5
267
100
AcDbEntity
  8
0
100
AcDbLine
 62
7
  6
CONTINUOUS
 10
-0.3844804187
 20
-15.7916670299
 11
-0.4007544017
 21
-15.7929344432
  0
LWPOLYLINE
  5
268
100
AcDbEntity
  8
0
100
AcDbPolyline
 62
7
  6
CONTINUOUS
 90
3
 70
0
 10
-0.4350147244
 20
-15.156229981
 10
-0.43080753
 20
-15.1559636059
 10
-0.4266213153
 20
-15.1555214522
  0
LINE
  5
269
100
AcDbEntity
  8
0
100
AcDbLine
 62
7
  6
CONTINUOUS
 10
-0.4004167921
 20
-15.7929131012
 11
-0.4166877954
 21
-15.7937458119
  0
LINE
  5
26A
100
AcDbEntity
  8
0
100
AcDbLine
 62
7
  6
CONTINUOUS
 10
-0.416374045
 20
-15.793733928
 11
-0.4326524465
 21
-15.7941314096
  0
LINE
  5
26B
100
AcDbEntity
  8
0
100
AcDbLine
 62
7
  6
CONTINUOUS
 10
-0.4391721913
 20
-15.156319159
 11
-0.4350305122
 21
-15.1562313605
  0
LINE
  5
26C
100
AcDbEntity
  8
0
100
AcDbLine
 62
7
  6
CONTINUOUS
 10
-0.4323583642
 20
-15.7941286181
 11
-0.4486439311
 21
-15.7940933401
  0
LINE
  5
26D
100
AcDbEntity
  8
0
100
AcDbLine
 62
7
  6
CONTINUOUS
 10
-0.4434283654
 20
-15.1562302056
 11
-0.4392216961
 21
-15.1563191723
  0
LINE
  5
26E
100
AcDbEntity
  8
0
100
AcDbLine
 62
7
  6
CONTINUOUS
 10
-0.4483635628
 20
-15.7940980651
 11
-0.4646106995
 21
-15.7936313527
  0
LINE
  5
26F
100
AcDbEntity
  8
0
100
AcDbLine
 62
7
  6
CONTINUOUS
 10
-0.464345758
 20
-15.7936425219
 11
-0.4805480381
 21
-15.7927435797
  0
LINE
  5
270
100
AcDbEntity
  8
0
100
AcDbLine
 62
7
  6
CONTINUOUS
 10
-0.4476348121
 20
-15.1559640551
 11
-0.4433140232
 21
-15.1562356134
  0
LINE
  5
271
100
AcDbEntity
  8
0
100
AcDbLine
 62
7
  6
CONTINUOUS
 10
-0.4802986377
 20
-15.79276127
 11
-0.4964606607
 21
-15.7914318873
  0
LINE
  5
272
100
AcDbEntity
  8
0
100
AcDbLine
 62
7
  6
CONTINUOUS
 10
-0.4518200732
 20
-15.1555222383
 11
-0.4474559473
 21
-15.1559800537
  0
LINE
  5
273
100
AcDbEntity
  8
0
100
AcDbLine
 62
7
  6
CONTINUOUS
 10
-0.496228514
 20
-15.7914550262
 11
-0.5123111594
 21
-15.7897016245
  0
LINE
  5
274
100
AcDbEntity
  8
0
100
AcDbLine
 62
7
  6
CONTINUOUS
 10
-0.5121104402
 20
-15.7897261959
 11
-0.5280870978
 21
-15.78755529
  0
LINE
  5
275
100
AcDbEntity
  8
0
100
AcDbLine
 62
7
  6
CONTINUOUS
 10
-0.455984941
 20
-15.1549038429
 11
-0.4515871672
 21
-15.1555514912
  0
LWPOLYLINE
  5
276
100
AcDbEntity
  8
0
100
AcDbPolyline
 62
7
  6
CONTINUOUS
 90
4
 70
0
 10
-0.5279492261
 20
-15.7875737213
 10
-0.543740062
 20
-15.7849986554
 10
-0.5594435716
 20
-15.7820065691
 10
-0.5750558972
 20
-15.778596762
  0
LWPOLYLINE
  5
277
100
AcDbEntity
  8
0
100
AcDbPolyline
 62
7
  6
CONTINUOUS
 90
3
 70
0
 10
-0.5750587412
 20
-15.778594367
 10
-0.5906027557
 20
-15.7747632554
 10
-0.6060338459
 20
-15.7705212626
  0
LINE
  5
278
100
AcDbEntity
  8
0
100
AcDbLine
 62
7
  6
CONTINUOUS
 10
-0.6059907673
 20
-15.7705337234
 11
-0.6212902176
 21
-15.7658862282
  0
LWPOLYLINE
  5
279
100
AcDbEntity
  8
0
100
AcDbPolyline
 62
7
  6
CONTINUOUS
 90
3
 70
0
 10
-0.6212902176
 20
-15.7658862282
 10
-0.6365604389
 20
-15.7607984279
 10
-0.6515988688
 20
-15.7553398055
  0
LINE
  5
27A
100
AcDbEntity
  8
0
100
AcDbLine
 62
7
  6
CONTINUOUS
 10
-0.7637894096
 20
15.0881077146
 11
-0.7496196222
 21
15.0969324589
  0
LINE
  5
27B
100
AcDbEntity
  8
0
100
AcDbLine
 62
7
  6
CONTINUOUS
 10
-0.7501959141
 20
15.0965862791
 11
-0.7357542933
 21
15.1050560301
  0
LINE
  5
27C
100
AcDbEntity
  8
0
100
AcDbLine
 62
7
  6
CONTINUOUS
 10
-0.7363974917
 20
15.1046902057
 11
-0.7217244751
 21
15.1127789966
  0
LINE
  5
27D
100
AcDbEntity
  8
0
100
AcDbLine
 62
7
  6
CONTINUOUS
 10
-0.4838183993
 20
14.5350770951
 11
-0.4878799413
 21
14.5329476482
  0
LINE
  5
27E
100
AcDbEntity
  8
0
100
AcDbLine
 62
7
  6
CONTINUOUS
 10
-0.7223923638
 20
15.1124198729
 11
-0.7075150227
 21
15.1201102508
  0
LINE
  5
27F
100
AcDbEntity
  8
0
100
AcDbLine
 62
7
  6
CONTINUOUS
 10
-0.7081823091
 20
15.1197749188
 11
-0.6931272146
 21
15.1270549128
  0
LINE
  5
280
100
AcDbEntity
  8
0
100
AcDbLine
 62
7
  6
CONTINUOUS
 10
-0.4800084284
 20
14.5368629914
 11
-0.4841463342
 21
14.5349121768
  0
LINE
  5
281
100
AcDbEntity
  8
0
100
AcDbLine
 62
7
  6
CONTINUOUS
 10
-0.6937952079
 20
15.1267428593
 11
-0.678553129
 21
15.133618558
  0
LINE
  5
282
100
AcDbEntity
  8
0
100
AcDbLine
 62
7
  6
CONTINUOUS
 10
-0.6792326123
 20
15.1333230739
 11
-0.6638006876
 21
15.1397956257
  0
LINE
  5
283
100
AcDbEntity
  8
0
100
AcDbLine
 62
7
  6
CONTINUOUS
 10
-0.4761412631
 20
14.5384824349
 11
-0.4803291497
 21
14.5367193472
  0
LINE
  5
284
100
AcDbEntity
  8
0
100
AcDbLine
 62
7
  6
CONTINUOUS
 10
-0.6644929702
 20
15.1395161978
 11
-0.6488949339
 21
15.1455745305
  0
LINE
  5
285
100
AcDbEntity
  8
0
100
AcDbLine
 62
7
  6
CONTINUOUS
 10
-0.4722155582
 20
14.5399367269
 11
-0.4764477513
 21
14.5383609357
  0
LINE
  5
286
100
AcDbEntity
  8
0
100
AcDbLine
 62
7
  6
CONTINUOUS
 10
-0.6495995053
 20
15.14531163
 11
-0.6338277172
 21
15.1509561083
  0
LINE
  5
287
100
AcDbEntity
  8
0
100
AcDbLine
 62
7
  6
CONTINUOUS
 10
-0.4682326588
 20
14.5412245675
 11
-0.4725020575
 21
14.5398361685
  0
LINE
  5
288
100
AcDbEntity
  8
0
100
AcDbLine
 62
7
  6
CONTINUOUS
 10
-0.4144402578
 20
-15.1532009188
 11
-0.4101552393
 21
-15.1520035511
  0
LINE
  5
289
100
AcDbEntity
  8
0
100
AcDbLine
 62
7
  6
CONTINUOUS
 10
-0.418514199
 20
-15.1541506703
 11
-0.4142097524
 21
-15.1531417223
  0
LINE
  5
28A
100
AcDbEntity
  8
0
100
AcDbLine
 62
7
  6
CONTINUOUS
 10
-0.4226307686
 20
-15.1549312031
 11
-0.4183102099
 21
-15.1541078788
  0
LINE
  5
28B
100
AcDbEntity
  8
0
100
AcDbLine
 62
7
  6
CONTINUOUS
 10
-0.4601286232
 20
-15.1541097806
 11
-0.4557144331
 21
-15.1549484348
  0
LINE
  5
28C
100
AcDbEntity
  8
0
100
AcDbLine
 62
7
  6
CONTINUOUS
 10
-0.4642277803
 20
-15.1531443044
 11
-0.4598309948
 21
-15.1541723751
  0
LINE
  5
28D
100
AcDbEntity
  8
0
100
AcDbLine
 62
7
  6
CONTINUOUS
 10
-0.4682811947
 20
-15.1520068277
 11
-0.4639058065
 21
-15.1532267956
  0
LINE
  5
28E
100
AcDbEntity
  8
0
100
AcDbLine
 62
7
  6
CONTINUOUS
 10
-0.4722900838
 20
-15.1506979362
 11
-0.4679330549
 21
-15.1521121927
  0
LINE
  5
28F
100
AcDbEntity
  8
0
100
AcDbLine
 62
7
  6
CONTINUOUS
 10
-0.6364745394
 20
-15.7608293541
 11
-0.6515018064
 21
-15.755376515
  0
LINE
  5
290
100
AcDbEntity
  8
0
100
AcDbLine
 62
7
  6
CONTINUOUS
 10
-0.4762347609
 20
-15.1492236408
 11
-0.4719185533
 21
-15.1508280691
  0
LINE
  5
291
100
AcDbEntity
  8
0
100
AcDbLine
 62
7
  6
CONTINUOUS
 10
-0.6515018064
 20
-15.755376515
 11
-0.6664598229
 21
-15.7494900057
  0
LWPOLYLINE
  5
292
100
AcDbEntity
  8
0
100
AcDbPolyline
 62
7
  6
CONTINUOUS
 90
3
 70
0
 10
-0.6663672992
 20
-15.7495275878
 10
-0.6810757372
 20
-15.7432826828
 10
-0.6955993523
 20
-15.7366555636
  0
LWPOLYLINE
  5
293
100
AcDbEntity
  8
0
100
AcDbPolyline
 62
7
  6
CONTINUOUS
 90
4
 70
0
 10
-0.6811523725
 20
-15.7432484339
 10
-0.6956482519
 20
-15.7366324576
 10
-0.7099398911
 20
-15.7296465663
 10
-0.72403486
 20
-15.722286256
  0
LINE
  5
294
100
AcDbEntity
  8
0
100
AcDbLine
 62
7
  6
CONTINUOUS
 10
-0.4835416379
 20
-15.1459727528
 11
-0.4797228448
 21
-15.1477583498
  0
LWPOLYLINE
  5
295
100
AcDbEntity
  8
0
100
AcDbPolyline
 62
7
  6
CONTINUOUS
 90
3
 70
0
 10
-0.4839306501
 20
-15.1457778517
 10
-0.4801148115
 20
-15.1475834488
 10
-0.4758486956
 20
-15.1493764177
  0
LINE
  5
296
100
AcDbEntity
  8
0
100
AcDbLine
 62
7
  6
CONTINUOUS
 10
-0.7099414881
 20
-15.7296435147
 11
-0.7240988011
 21
-15.7222492367
  0
LINE
  5
297
100
AcDbEntity
  8
0
100
AcDbLine
 62
7
  6
CONTINUOUS
 10
-0.4876638328
 20
-15.1438143368
 11
-0.4835416379
 21
-15.1459727528
  0
LINE
  5
298
100
AcDbEntity
  8
0
100
AcDbLine
 62
7
  6
CONTINUOUS
 10
-0.72403486
 20
-15.722286256
 11
-0.7380334929
 21
-15.7144946178
  0
LINE
  5
299
100
AcDbEntity
  8
0
100
AcDbLine
 62
7
  6
CONTINUOUS
 10
-0.7379276022
 20
-15.7145554031
 11
-0.7517435382
 21
-15.7063787884
  0
LINE
  5
29A
100
AcDbEntity
  8
0
100
AcDbLine
 62
7
  6
CONTINUOUS
 10
-0.7516324231
 20
-15.7064449311
 11
-0.7652309622
 21
-15.6979026019
  0
LINE
  5
29B
100
AcDbEntity
  8
0
100
AcDbLine
 62
7
  6
CONTINUOUS
 10
-4.329932702
 20
11.7184925075
 11
-0.8522318649
 21
15.01875936
  0
LINE
  5
29C
100
AcDbEntity
  8
0
100
AcDbLine
 62
7
  6
CONTINUOUS
 10
-0.852231865
 20
15.0187593599
 11
-0.8403426896
 21
15.0297380417
  0
LINE
  5
29D
100
AcDbEntity
  8
0
100
AcDbLine
 62
7
  6
CONTINUOUS
 10
-0.8403705066
 20
15.0297101782
 11
-0.8281780377
 21
15.0403767242
  0
LINE
  5
29E
100
AcDbEntity
  8
0
100
AcDbLine
 62
7
  6
CONTINUOUS
 10
-0.5017761624
 20
14.5236569984
 11
-0.5051525016
 21
14.5208451559
  0
LINE
  5
29F
100
AcDbEntity
  8
0
100
AcDbLine
 62
7
  6
CONTINUOUS
 10
-0.8282485962
 20
15.0403144242
 11
-0.8157379092
 21
15.0506754176
  0
LINE
  5
2A0
100
AcDbEntity
  8
0
100
AcDbLine
 62
7
  6
CONTINUOUS
 10
-0.8158661338
 20
15.0505721082
 11
-0.8030059278
 21
15.060644217
  0
LINE
  5
2A1
100
AcDbEntity
  8
0
100
AcDbLine
 62
7
  6
CONTINUOUS
 10
-0.4983705078
 20
14.5262565072
 11
-0.5019089609
 21
14.523553639
  0
LINE
  5
2A2
100
AcDbEntity
  8
0
100
AcDbLine
 62
7
  6
CONTINUOUS
 10
-0.8032120923
 20
15.0604888234
 11
-0.7899984698
 21
15.0702730463
  0
LINE
  5
2A3
100
AcDbEntity
  8
0
100
AcDbLine
 62
7
  6
CONTINUOUS
 10
-0.7902974987
 20
15.0700589959
 11
-0.7767646645
 21
15.0795316583
  0
LINE
  5
2A4
100
AcDbEntity
  8
0
100
AcDbLine
 62
7
  6
CONTINUOUS
 10
-0.4948556729
 20
14.528704896
 11
-0.4985599346
 21
14.5261181289
  0
LINE
  5
2A5
100
AcDbEntity
  8
0
100
AcDbLine
 62
7
  6
CONTINUOUS
 10
-0.7771554338
 20
15.0792658861
 11
-0.7633053171
 21
15.0884171577
  0
LINE
  5
2A6
100
AcDbEntity
  8
0
100
AcDbLine
 62
7
  6
CONTINUOUS
 10
-0.4912420216
 20
14.5309980484
 11
-0.4950981197
 21
14.5285430829
  0
LINE
  5
2A7
100
AcDbEntity
  8
0
100
AcDbLine
 62
7
  6
CONTINUOUS
 10
-0.4875606458
 20
14.5331236128
 11
-0.4915308192
 21
14.5308240455
  0
LWPOLYLINE
  5
2A8
100
AcDbEntity
  8
0
100
AcDbPolyline
 62
250
  6
CONTINUOUS
 90
12
 70
0
 10
-11.4102750665
 20
9.1850711349
 10
-11.4095768009
 20
9.185341467
 10
-11.4084748854
 20
9.1856115804
 10
-11.4069702112
 20
9.1858812567
 10
-11.4050639956
 20
9.1861502776
 10
-11.4027577806
 20
9.1864184256
 10
-11.4000534317
 20
9.1866854838
 10
-11.3969531365
 20
9.1869512361
 10
-11.3934594029
 20
9.1872154675
 10
-11.389575057
 20
9.1874779643
 10
-11.3853032411
 20
9.1877385141
 10
-11.3806474106
 20
9.1879969063
  0
LWPOLYLINE
  5
2A9
100
AcDbEntity
  8
0
100
AcDbPolyline
 62
7
  6
CONTINUOUS
 90
4
 70
0
 10
-1.0998734413
 20
-11.8915314018
 10
-1.1097256905
 20
-11.8926757382
 10
-1.1195759552
 20
-11.8934905215
 10
-1.1294425886
 20
-11.8939782304
  0
LINE
  5
2AA
100
AcDbEntity
  8
0
100
AcDbLine
 62
7
  6
CONTINUOUS
 10
-3.6686150464
 20
-11.8941388637
 11
-3.6730443169
 21
-11.8942354122
  0
LINE
  5
2AB
100
AcDbEntity
  8
0
100
AcDbLine
 62
7
  6
CONTINUOUS
 10
-1.1294497464
 20
-11.8939752588
 11
-1.1393255905
 21
-11.8941388651
  0
LINE
  5
2AC
100
AcDbEntity
  8
0
100
AcDbLine
 62
7
  6
CONTINUOUS
 10
2.7901421159
 20
-11.8941388637
 11
0.2606782057
 21
-11.8941388651
  0
LINE
  5
2AD
100
AcDbEntity
  8
0
100
AcDbLine
 62
7
  6
CONTINUOUS
 10
-1.1393255905
 20
-11.8941388651
 11
-3.668589466
 21
-11.8941388637
  0
LINE
  5
2AE
100
AcDbEntity
  8
0
100
AcDbLine
 62
7
  6
CONTINUOUS
 10
0.2606782059
 20
-11.8941388651
 11
0.2507961978
 21
-11.8939783276
  0
LINE
  5
2AF
100
AcDbEntity
  8
0
100
AcDbLine
 62
7
  6
CONTINUOUS
 10
2.7945012267
 20
-11.8942306759
 11
2.7901421159
 21
-11.8941380611
  0
LWPOLYLINE
  5
2B0
100
AcDbEntity
  8
0
100
AcDbPolyline
 62
7
  6
CONTINUOUS
 90
3
 70
0
 10
0.2508020441
 20
-11.8939752851
 10
0.2409610583
 20
-11.8934901201
 10
0.2311552482
 20
-11.8926833699
  0
LINE
  5
2B1
100
AcDbEntity
  8
0
100
AcDbLine
 62
7
  6
CONTINUOUS
 10
0.2311552482
 20
-11.8926833699
 11
0.2212275276
 21
-11.8915315454
  0
LWPOLYLINE
  5
2B2
100
AcDbEntity
  8
0
100
AcDbPolyline
 62
250
  6
CONTINUOUS
 90
14
 70
0
 10
-11.4102750665
 20
-9.7959288651
 10
-11.4095768009
 20
-9.7961991973
 10
-11.4084748854
 20
-9.7964693107
 10
-11.4069702112
 20
-9.796738987
 10
-11.4050639957
 20
-9.7970080079
 10
-11.4027577806
 20
-9.7972761559
 10
-11.4000534317
 20
-9.7975432141
 10
-11.3969531365
 20
-9.7978089663
 10
-11.3934594029
 20
-9.7980731977
 10
-11.3895750571
 20
-9.7983356945
 10
-11.3853032411
 20
-9.7985962444
 10
-11.3806474107
 20
-9.7988546366
 10
-11.3756113319
 20
-9.799110662
 10
-11.3644150288
 20
-9.7996147864
  0
LINE
  5
2B3
100
AcDbEntity
  8
0
100
AcDbLine
 62
7
  6
CONTINUOUS
 10
-0.4913155972
 20
-15.1416909911
 11
-0.4872933792
 21
-15.1440182833
  0
LINE
  5
2B4
100
AcDbEntity
  8
0
100
AcDbLine
 62
7
  6
CONTINUOUS
 10
-0.4948847057
 20
-15.139409726
 11
-0.4909840332
 21
-15.1418909738
  0
LINE
  5
2B5
100
AcDbEntity
  8
0
100
AcDbLine
 62
7
  6
CONTINUOUS
 10
-0.7651350173
 20
-15.6979638997
 11
-0.7784640426
 21
-15.6890905313
  0
LINE
  5
2B6
100
AcDbEntity
  8
0
100
AcDbLine
 62
7
  6
CONTINUOUS
 10
-0.4983490021
 20
-15.1369837653
 11
-0.4946076354
 21
-15.1395947899
  0
LWPOLYLINE
  5
2B7
100
AcDbEntity
  8
0
100
AcDbPolyline
 62
7
  6
CONTINUOUS
 90
7
 70
0
 10
-0.778386913
 20
-15.6891433898
 10
-0.7913867057
 20
-15.6799796179
 10
-0.8041358
 20
-15.6704763502
 10
-0.8165899371
 20
-15.6606759931
 10
-0.8287343644
 20
-15.6505926773
 10
-0.8405838345
 20
-15.6402122559
 10
-0.8521383476
 20
-15.6295347204
  0
LINE
  5
2B8
100
AcDbEntity
  8
0
100
AcDbLine
 62
7
  6
CONTINUOUS
 10
-0.5017011011
 20
-15.1344175163
 11
-0.4981345966
 21
-15.1371402889
  0
LINE
  5
2B9
100
AcDbEntity
  8
0
100
AcDbLine
 62
7
  6
CONTINUOUS
 10
-0.504948388
 20
-15.1317065698
 11
-0.5015550537
 21
-15.1345309889
  0
LINE
  5
2BA
100
AcDbEntity
  8
0
100
AcDbLine
 62
7
  6
CONTINUOUS
 10
-0.8405839104
 20
-15.6402111397
 11
-0.8521383476
 21
-15.6295347205
  0
LINE
  5
2BB
100
AcDbEntity
  8
0
100
AcDbLine
 62
7
  6
CONTINUOUS
 10
-0.8521383476
 20
-15.6295347205
 11
-4.3297332951
 21
-12.3293496935
  0
LINE
  5
2BC
100
AcDbEntity
  8
0
100
AcDbLine
 62
250
  6
CONTINUOUS
 10
-11.4523243631
 20
21.1709265743
 11
-11.4530361644
 21
21.1836118696
  0
LINE
  5
2BD
100
AcDbEntity
  8
0
100
AcDbLine
 62
250
  6
CONTINUOUS
 10
-11.4516344518
 20
21.1572736964
 11
-11.4523243631
 21
21.1709265743
  0
LINE
  5
2BE
100
AcDbEntity
  8
0
100
AcDbLine
 62
250
  6
CONTINUOUS
 10
-11.4509682437
 20
21.1426876369
 11
-11.4516344518
 21
21.1572736964
  0
LINE
  5
2BF
100
AcDbEntity
  8
0
100
AcDbLine
 62
250
  6
CONTINUOUS
 10
-11.4500167848
 20
21.1191365491
 11
-11.4509682437
 21
21.1426876369
  0
LINE
  5
2C0
100
AcDbEntity
  8
0
100
AcDbLine
 62
250
  6
CONTINUOUS
 10
-11.449127004
 20
21.0936856654
 11
-11.4500167848
 21
21.1191365491
  0
LINE
  5
2C1
100
AcDbEntity
  8
0
100
AcDbLine
 62
250
  6
CONTINUOUS
 10
-10.953340677
 20
21.6143384131
 11
-10.9544463939
 21
21.6486592826
  0
LINE
  5
2C2
100
AcDbEntity
  8
0
100
AcDbLine
 62
250
  6
CONTINUOUS
 10
-11.4480445423
 20
21.0570276476
 11
-11.449127004
 21
21.0936856654
  0
LINE
  5
2C3
100
AcDbEntity
  8
0
100
AcDbLine
 62
250
  6
CONTINUOUS
 10
-10.9519389898
 20
21.561659799
 11
-10.953340677
 21
21.6143384131
  0
LINE
  5
2C4
100
AcDbEntity
  8
0
100
AcDbLine
 62
250
  6
CONTINUOUS
 10
-11.4470898668
 20
21.0175661972
 11
-11.4480445423
 21
21.0570276476
  0
LINE
  5
2C5
100
AcDbEntity
  8
0
100
AcDbLine
 62
250
  6
CONTINUOUS
 10
-10.9503213513
 20
21.4853900602
 11
-10.9519389898
 21
21.561659799
  0
LWPOLYLINE
  5
2C6
100
AcDbEntity
  8
0
100
AcDbPolyline
 62
250
  6
CONTINUOUS
 90
43
 70
0
 10
-11.4071305066
 20
0.0400487894
 10
-11.4069885113
 20
0.0325722837
 10
-11.4065672751
 20
0.0251062305
 10
-11.405867387
 20
0.0176610678
 10
-11.4048898255
 20
0.0102472042
 10
-11.4036359572
 20
0.0028750046
 10
-11.4021075351
 20
-0.0044452242
 10
-11.400306696
 20
-0.0117032482
 10
-11.3982359576
 20
-0.0188889204
 10
-11.3958982149
 20
-0.0259921947
 10
-11.3932967362
 20
-0.0330031406
 10
-11.3904351584
 20
-0.0399119563
 10
-11.3873174821
 20
-0.046708983
 10
-11.3839480662
 20
-0.0533847181
 10
-11.380331621
 20
-0.0599298287
 10
-11.3764732027
 20
-0.0663351643
 10
-11.3723782055
 20
-0.07259177
 10
-11.3680523543
 20
-0.0786908987
 10
-11.363501697
 20
-0.0846240236
 10
-11.3587325956
 20
-0.0903828498
 10
-11.3537517174
 20
-0.0959593263
 10
-11.3485660261
 20
-0.1013456569
 10
-11.3431827715
 20
-0.1065343112
 10
-11.3376094796
 20
-0.1115180352
 10
-11.3318539421
 20
-0.1162898615
 10
-11.3259242057
 20
-0.1208431188
 10
-11.3198285603
 20
-0.1251714414
 10
-11.3135755279
 20
-0.1292687782
 10
-11.3071738506
 20
-0.1331294008
 10
-11.3006324783
 20
-0.136747912
 10
-11.2939605561
 20
-0.1401192529
 10
-11.2871674116
 20
-0.1432387101
 10
-11.2802625421
 20
-0.1461019226
 10
-11.2732556008
 20
-0.1487048875
 10
-11.2661563838
 20
-0.1510439656
 10
-11.2589748162
 20
-0.1531158868
 10
-11.2517209381
 20
-0.1549177546
 10
-11.2444048908
 20
-0.1564470497
 10
-11.2370369025
 20
-0.1577016342
 10
-11.2296272739
 20
-0.1586797541
 10
-11.2221863642
 20
-0.159380042
 10
-11.214724576
 20
-0.1598015187
 10
-11.2072523412
 20
-0.1599435952
  0
LINE
  5
2C7
100
AcDbEntity
  8
0
100
AcDbLine
 62
250
  6
CONTINUOUS
 10
-11.4460893882
 20
20.9648496751
 11
-11.4470898668
 21
21.0175661972
  0
LWPOLYLINE
  5
2C8
100
AcDbEntity
  8
0
100
AcDbPolyline
 62
250
  6
CONTINUOUS
 90
55
 70
0
 10
-11.4609893761
 20
-21.8630578697
 10
-11.4607519567
 20
-21.8775634414
 10
-11.4600929281
 20
-21.8920567685
 10
-11.4590128466
 20
-21.9065256167
 10
-11.457512624
 20
-21.9209577724
 10
-11.4555935267
 20
-21.9353410527
 10
-11.4532571745
 20
-21.9496633165
 10
-11.4505055398
 20
-21.9639124737
 10
-11.4473409452
 20
-21.9780764962
 10
-11.4437660621
 20
-21.9921434276
 10
-11.4397839082
 20
-22.0061013936
 10
-11.4353978449
 20
-22.0199386118
 10
-11.4306115746
 20
-22.0336434017
 10
-11.4254291377
 20
-22.0472041947
 10
-11.4198549088
 20
-22.0606095436
 10
-11.4138935932
 20
-22.0738481326
 10
-11.4075502231
 20
-22.0869087865
 10
-11.4008301532
 20
-22.0997804803
 10
-11.3937390561
 20
-22.1124523487
 10
-11.3862829177
 20
-22.1249136949
 10
-11.3784680318
 20
-22.1371539998
 10
-11.3703009953
 20
-22.149162931
 10
-11.3617887023
 20
-22.1609303514
 10
-11.3529383383
 20
-22.1724463277
 10
-11.3437573742
 20
-22.1837011388
 10
-11.3342535599
 20
-22.1946852842
 10
-11.3244349179
 20
-22.2053894919
 10
-11.3143097365
 20
-22.215804726
 10
-11.3038865627
 20
-22.2259221946
 10
-11.2931741949
 20
-22.2357333574
 10
-11.282181676
 20
-22.2452299323
 10
-11.270918285
 20
-22.254403903
 10
-11.2593935297
 20
-22.2632475254
 10
-11.2476171386
 20
-22.2717533344
 10
-11.2355990525
 20
-22.2799141498
 10
-11.2233494163
 20
-22.2877230829
 10
-11.2108785703
 20
-22.2951735419
 10
-11.1981970416
 20
-22.3022592376
 10
-11.1853155351
 20
-22.3089741888
 10
-11.1722449244
 20
-22.315312727
 10
-11.158996243
 20
-22.3212695018
 10
-11.1455806745
 20
-22.3268394848
 10
-11.1320095433
 20
-22.3320179743
 10
-11.1182943054
 20
-22.3368005988
 10
-11.1044465383
 20
-22.3411833212
 10
-11.0904779313
 20
-22.3451624419
 10
-11.0764002758
 20
-22.348734602
 10
-11.0622254551
 20
-22.3518967862
 10
-11.0479654348
 20
-22.354646325
 10
-11.0336322523
 20
-22.3569808976
 10
-11.0192380065
 20
-22.3588985332
 10
-11.0047948482
 20
-22.3603976131
 10
-10.9903149694
 20
-22.3614768719
 10
-10.975810593
 20
-22.3621353985
 10
-10.9612939626
 20
-22.3623726371
  0
LINE
  5
2C9
100
AcDbEntity
  8
0
100
AcDbLine
 62
250
  6
CONTINUOUS
 10
-10.9486081108
 20
21.3800534546
 11
-10.9503213513
 21
21.4853900602
  0
LINE
  5
2CA
100
AcDbEntity
  8
0
100
AcDbLine
 62
250
  6
CONTINUOUS
 10
-11.4453166467
 20
20.9090818106
 11
-11.4460893882
 21
20.9648496751
  0
LINE
  5
2CB
100
AcDbEntity
  8
0
100
AcDbLine
 62
250
  6
CONTINUOUS
 10
-10.9469677861
 20
21.240906417
 11
-10.9486081108
 21
21.3800534546
  0
LINE
  5
2CC
100
AcDbEntity
  8
0
100
AcDbLine
 62
250
  6
CONTINUOUS
 10
-11.4447828289
 20
20.8510806263
 11
-11.4453166467
 21
20.9090818106
  0
LINE
  5
2CD
100
AcDbEntity
  8
0
100
AcDbLine
 62
250
  6
CONTINUOUS
 10
-10.945621265
 20
21.0652893344
 11
-10.9469677861
 21
21.240906417
  0
LINE
  5
2CE
100
AcDbEntity
  8
0
100
AcDbLine
 62
250
  6
CONTINUOUS
 10
-11.442419563
 20
20.3990494234
 11
-11.4447828289
 21
20.8510806263
  0
LINE
  5
2CF
100
AcDbEntity
  8
0
100
AcDbLine
 62
250
  6
CONTINUOUS
 10
-10.940578292
 20
20.0401566211
 11
-10.9449425069
 21
20.9019675545
  0
LINE
  5
2D0
100
AcDbEntity
  8
0
100
AcDbLine
 62
250
  6
CONTINUOUS
 10
-11.4382003516
 20
19.5414488815
 11
-11.442419563
 21
20.3990494234
  0
LINE
  5
2D1
100
AcDbEntity
  8
0
100
AcDbLine
 62
250
  6
CONTINUOUS
 10
-10.9365040377
 20
19.1771705535
 11
-10.940578292
 21
20.0401566211
  0
LINE
  5
2D2
100
AcDbEntity
  8
0
100
AcDbLine
 62
250
  6
CONTINUOUS
 10
-11.4342710547
 20
18.682699589
 11
-11.4382003516
 21
19.5414488815
  0
LINE
  5
2D3
100
AcDbEntity
  8
0
100
AcDbLine
 62
250
  6
CONTINUOUS
 10
-11.4306321738
 20
17.8229122808
 11
-11.4342710547
 21
18.682699589
  0
LINE
  5
2D4
100
AcDbEntity
  8
0
100
AcDbLine
 62
250
  6
CONTINUOUS
 10
-10.9327198791
 20
18.313090156
 11
-10.9365040377
 21
19.1771705535
  0
LINE
  5
2D5
100
AcDbEntity
  8
0
100
AcDbLine
 62
250
  6
CONTINUOUS
 10
-11.4272839643
 20
16.9621473721
 11
-11.4306321738
 21
17.8229122808
  0
LINE
  5
2D6
100
AcDbEntity
  8
0
100
AcDbLine
 62
250
  6
CONTINUOUS
 10
-10.9292262769
 20
17.4479963043
 11
-10.9327198791
 21
18.313090156
  0
LINE
  5
2D7
100
AcDbEntity
  8
0
100
AcDbLine
 62
250
  6
CONTINUOUS
 10
-11.4242267909
 20
16.1004954856
 11
-11.4272839643
 21
16.9621473721
  0
LINE
  5
2D8
100
AcDbEntity
  8
0
100
AcDbLine
 62
250
  6
CONTINUOUS
 10
-10.9260235857
 20
16.581970004
 11
-10.9292262769
 21
17.4479963043
  0
LINE
  5
2D9
100
AcDbEntity
  8
0
100
AcDbLine
 62
250
  6
CONTINUOUS
 10
-11.4214609622
 20
15.2380473758
 11
-11.4242267909
 21
16.1004954856
  0
LINE
  5
2DA
100
AcDbEntity
  8
0
100
AcDbLine
 62
250
  6
CONTINUOUS
 10
-10.9217655489
 20
15.2813595769
 11
-10.9260235857
 21
16.581970004
  0
LINE
  5
2DB
100
AcDbEntity
  8
0
100
AcDbLine
 62
7
  6
CONTINUOUS
 10
-11.5630163851
 20
-22.0161761729
 11
-11.5893236945
 21
-13.4054288651
  0
LINE
  5
2DC
100
AcDbEntity
  8
0
100
AcDbLine
 62
250
  6
CONTINUOUS
 10
-11.4189866718
 20
14.3748635695
 11
-11.4214609622
 21
15.2380473758
  0
LINE
  5
2DD
100
AcDbEntity
  8
0
100
AcDbLine
 62
250
  6
CONTINUOUS
 10
-10.9449425069
 20
20.9019675545
 11
-10.945621265
 21
21.0652893344
  0
LINE
  5
2DE
100
AcDbEntity
  8
0
100
AcDbLine
 62
250
  6
CONTINUOUS
 10
-10.9192912587
 20
14.4133569707
 11
-10.9217655489
 21
15.2813595769
  0
LINE
  5
2DF
100
AcDbEntity
  8
0
100
AcDbLine
 62
250
  6
CONTINUOUS
 10
-11.4168041926
 20
13.5110348867
 11
-11.4189866718
 21
14.3748635695
  0
LINE
  5
2E0
100
AcDbEntity
  8
0
100
AcDbLine
 62
250
  6
CONTINUOUS
 10
-10.9171087796
 20
13.5447059017
 11
-10.9192912587
 21
14.4133569707
  0
LINE
  5
2E1
100
AcDbEntity
  8
0
100
AcDbLine
 62
250
  6
CONTINUOUS
 10
-11.414913741
 20
12.6466523063
 11
-11.4168041926
 21
13.5110348867
  0
LINE
  5
2E2
100
AcDbEntity
  8
0
100
AcDbLine
 62
250
  6
CONTINUOUS
 10
-10.9152183281
 20
12.6754876613
 11
-10.9171087796
 21
13.5447059017
  0
LINE
  5
2E3
100
AcDbEntity
  8
0
100
AcDbLine
 62
250
  6
CONTINUOUS
 10
-11.4133154497
 20
11.781776511
 11
-11.414913741
 21
12.6466523063
  0
LINE
  5
2E4
100
AcDbEntity
  8
0
100
AcDbLine
 62
250
  6
CONTINUOUS
 10
-10.9136200368
 20
11.8057836229
 11
-10.9152183281
 21
12.6754876613
  0
LINE
  5
2E5
100
AcDbEntity
  8
0
100
AcDbLine
 62
250
  6
CONTINUOUS
 10
-11.4120094993
 20
10.9164985443
 11
-11.4133154497
 21
11.781776511
  0
LINE
  5
2E6
100
AcDbEntity
  8
0
100
AcDbLine
 62
250
  6
CONTINUOUS
 10
-10.9123140865
 20
10.9356752214
 11
-10.9136200368
 21
11.8057836229
  0
LINE
  5
2E7
100
AcDbEntity
  8
0
100
AcDbLine
 62
250
  6
CONTINUOUS
 10
-11.4109960239
 20
10.0509199379
 11
-11.4120094993
 21
10.9164985443
  0
LINE
  5
2E8
100
AcDbEntity
  8
0
100
AcDbLine
 62
250
  6
CONTINUOUS
 10
-10.9113006108
 20
10.0652438928
 11
-10.9123140865
 21
10.9356752214
  0
LINE
  5
2E9
100
AcDbEntity
  8
0
100
AcDbLine
 62
250
  6
CONTINUOUS
 10
-11.4102750665
 20
9.1850711349
 11
-11.4109960239
 21
10.0509199379
  0
LINE
  5
2EA
100
AcDbEntity
  8
0
100
AcDbLine
 62
250
  6
CONTINUOUS
 10
-10.910579653
 20
9.1945711349
 11
-10.9113006108
 21
10.0652438928
  0
LINE
  5
2EB
100
AcDbEntity
  8
0
100
AcDbLine
 62
250
  6
CONTINUOUS
 10
-11.4096369203
 20
8.1690407909
 11
-11.4102750665
 21
9.1850711349
  0
LINE
  5
2EC
100
AcDbEntity
  8
0
100
AcDbLine
 62
250
  6
CONTINUOUS
 10
-10.9099416596
 20
8.1777889057
 11
-10.910579653
 21
9.1945711349
  0
LINE
  5
2ED
100
AcDbEntity
  8
0
100
AcDbLine
 62
250
  6
CONTINUOUS
 10
-11.4081556034
 20
5.1208189195
 11
-11.4096369203
 21
8.1690407909
  0
LINE
  5
2EE
100
AcDbEntity
  8
0
100
AcDbLine
 62
250
  6
CONTINUOUS
 10
-10.9084606553
 20
5.1272819732
 11
-10.9099416596
 21
8.1777889057
  0
LINE
  5
2EF
100
AcDbEntity
  8
0
100
AcDbLine
 62
250
  6
CONTINUOUS
 10
-11.4075290008
 20
3.0885646822
 11
-11.4081556034
 21
5.1208189195
  0
LINE
  5
2F0
100
AcDbEntity
  8
0
100
AcDbLine
 62
250
  6
CONTINUOUS
 10
-10.9078339546
 20
3.0935110876
 11
-10.9084606553
 21
5.1272819732
  0
LINE
  5
2F1
100
AcDbEntity
  8
0
100
AcDbLine
 62
7
  6
CONTINUOUS
 10
-11.5893236945
 20
-0.6053755681
 11
-11.5893236945
 21
-13.4054288651
  0
LINE
  5
2F2
100
AcDbEntity
  8
0
100
AcDbLine
 62
7
  6
CONTINUOUS
 10
-11.5893236945
 20
-0.0054821621
 11
-11.5893236945
 21
12.7945711349
  0
LINE
  5
2F3
100
AcDbEntity
  8
0
100
AcDbLine
 62
250
  6
CONTINUOUS
 10
-11.4071305769
 20
0.0400487718
 11
-11.4075290008
 21
3.0885646822
  0
LINE
  5
2F4
100
AcDbEntity
  8
0
100
AcDbLine
 62
250
  6
CONTINUOUS
 10
-10.9074351493
 20
-0.1574169185
 11
-10.9078339546
 21
3.0935110876
  0
LINE
  5
2F5
100
AcDbEntity
  8
0
100
AcDbLine
 62
250
  6
CONTINUOUS
 10
-11.4073239967
 20
-2.6832688165
 11
-11.4071305769
 21
-0.6509065021
  0
LINE
  5
2F6
100
AcDbEntity
  8
0
100
AcDbLine
 62
250
  6
CONTINUOUS
 10
-10.9074948609
 20
-1.6705163377
 11
-10.9074351493
 21
-0.4534408117
  0
LINE
  5
2F7
100
AcDbEntity
  8
0
100
AcDbLine
 62
250
  6
CONTINUOUS
 10
-11.407806204
 20
-4.7155587182
 11
-11.4073239967
 21
-2.6832688165
  0
LWPOLYLINE
  5
2F8
100
AcDbEntity
  8
0
100
AcDbPolyline
 62
250
  6
CONTINUOUS
 90
3
 70
0
 10
-10.9081113363
 20
-4.7212657504
 10
-10.9078339546
 20
-3.7043688178
 10
-10.9074948609
 20
-1.6705163377
  0
LWPOLYLINE
  5
2F9
100
AcDbEntity
  8
0
100
AcDbPolyline
 62
250
  6
CONTINUOUS
 90
3
 70
0
 10
-11.4090709615
 20
-7.7638465513
 10
-11.4085771902
 20
-6.7477729555
 10
-11.407806204
 20
-4.7155587182
  0
LWPOLYLINE
  5
2FA
100
AcDbEntity
  8
0
100
AcDbPolyline
 62
250
  6
CONTINUOUS
 90
3
 70
0
 10
-10.909375817
 20
-7.771834353
 10
-10.9088821252
 20
-6.754996223
 10
-10.9081113363
 20
-4.7212657504
  0
LINE
  5
2FB
100
AcDbEntity
  8
0
100
AcDbLine
 62
250
  6
CONTINUOUS
 10
-10.910579653
 20
-9.8054288651
 11
-10.909375817
 21
-7.771834353
  0
LINE
  5
2FC
100
AcDbEntity
  8
0
100
AcDbLine
 62
250
  6
CONTINUOUS
 10
-11.4105989823
 20
-10.2288883097
 11
-11.4090709615
 21
-7.7638465513
  0
LINE
  5
2FD
100
AcDbEntity
  8
0
100
AcDbLine
 62
250
  6
CONTINUOUS
 10
-10.9113006108
 20
-10.6761016231
 11
-10.910579653
 21
-9.8054288651
  0
LINE
  5
2FE
100
AcDbEntity
  8
0
100
AcDbLine
 62
250
  6
CONTINUOUS
 10
-11.4114661914
 20
-11.0945969405
 11
-11.4105989823
 21
-10.2288883097
  0
LINE
  5
2FF
100
AcDbEntity
  8
0
100
AcDbLine
 62
250
  6
CONTINUOUS
 10
-10.9123140865
 20
-11.5465329516
 11
-10.9113006108
 21
-10.6761016231
  0
LINE
  5
300
100
AcDbEntity
  8
0
100
AcDbLine
 62
250
  6
CONTINUOUS
 10
-11.4126259332
 20
-11.9600455226
 11
-11.4114661914
 21
-11.0945969405
  0
LINE
  5
301
100
AcDbEntity
  8
0
100
AcDbLine
 62
250
  6
CONTINUOUS
 10
-10.9136200368
 20
-12.4166413531
 11
-10.9123140865
 21
-11.5465329516
  0
LINE
  5
302
100
AcDbEntity
  8
0
100
AcDbLine
 62
250
  6
CONTINUOUS
 10
-11.414078054
 20
-12.8251224035
 11
-11.4126259332
 21
-11.9600455226
  0
LINE
  5
303
100
AcDbEntity
  8
0
100
AcDbLine
 62
250
  6
CONTINUOUS
 10
-10.9152183281
 20
-13.2863453916
 11
-10.9136200368
 21
-12.4166413531
  0
LINE
  5
304
100
AcDbEntity
  8
0
100
AcDbLine
 62
250
  6
CONTINUOUS
 10
-11.4158224522
 20
-13.6897667788
 11
-11.414078054
 21
-12.8251224035
  0
LINE
  5
305
100
AcDbEntity
  8
0
100
AcDbLine
 62
250
  6
CONTINUOUS
 10
-10.9171087796
 20
-14.155563632
 11
-10.9152183281
 21
-13.2863453916
  0
LINE
  5
306
100
AcDbEntity
  8
0
100
AcDbLine
 62
250
  6
CONTINUOUS
 10
-11.4178589571
 20
-14.5538875644
 11
-11.4158224522
 21
-13.6897667788
  0
LINE
  5
307
100
AcDbEntity
  8
0
100
AcDbLine
 62
250
  6
CONTINUOUS
 10
-10.9192912587
 20
-15.0242147009
 11
-10.9171087796
 21
-14.155563632
  0
LINE
  5
308
100
AcDbEntity
  8
0
100
AcDbLine
 62
250
  6
CONTINUOUS
 10
-11.4201873419
 20
-15.4173938089
 11
-11.4178589571
 21
-14.5538875644
  0
LINE
  5
309
100
AcDbEntity
  8
0
100
AcDbLine
 62
250
  6
CONTINUOUS
 10
-10.9217655489
 20
-15.8922173072
 11
-10.9192912587
 21
-15.0242147009
  0
LINE
  5
30A
100
AcDbEntity
  8
0
100
AcDbLine
 62
7
  6
CONTINUOUS
 10
-11.5630163851
 20
21.4053184426
 11
-11.5893236945
 21
12.7945711349
  0
LINE
  5
30B
100
AcDbEntity
  8
0
100
AcDbLine
 62
250
  6
CONTINUOUS
 10
-11.4228074435
 20
-16.2802249119
 11
-11.4201873419
 21
-15.4173938089
  0
LINE
  5
30C
100
AcDbEntity
  8
0
100
AcDbLine
 62
250
  6
CONTINUOUS
 10
-10.9245313774
 20
-16.7594902548
 11
-10.9217655489
 21
-15.8922173072
  0
LINE
  5
30D
100
AcDbEntity
  8
0
100
AcDbLine
 62
250
  6
CONTINUOUS
 10
-11.4257189994
 20
-17.1422900285
 11
-11.4228074435
 21
-16.2802249119
  0
LINE
  5
30E
100
AcDbEntity
  8
0
100
AcDbLine
 62
250
  6
CONTINUOUS
 10
-10.9275885505
 20
-17.6259523728
 11
-10.9245313774
 21
-16.7594902548
  0
LINE
  5
30F
100
AcDbEntity
  8
0
100
AcDbLine
 62
250
  6
CONTINUOUS
 10
-11.4289216908
 20
-18.0034984262
 11
-11.4257189994
 21
-17.1422900285
  0
LINE
  5
310
100
AcDbEntity
  8
0
100
AcDbLine
 62
250
  6
CONTINUOUS
 10
-10.9309367597
 20
-18.4915225805
 11
-10.9275885505
 21
-17.6259523728
  0
LINE
  5
311
100
AcDbEntity
  8
0
100
AcDbLine
 62
250
  6
CONTINUOUS
 10
-11.4324152934
 20
-18.8637896435
 11
-11.4289216908
 21
-18.0034984262
  0
LINE
  5
312
100
AcDbEntity
  8
0
100
AcDbLine
 62
250
  6
CONTINUOUS
 10
-10.9345756401
 20
-19.3561198259
 11
-10.9309367597
 21
-18.4915225805
  0
LINE
  5
313
100
AcDbEntity
  8
0
100
AcDbLine
 62
250
  6
CONTINUOUS
 10
-11.4361994526
 20
-19.7230730426
 11
-11.4324152934
 21
-18.8637896435
  0
LINE
  5
314
100
AcDbEntity
  8
0
100
AcDbLine
 62
250
  6
CONTINUOUS
 10
-10.9385049367
 20
-20.2196631595
 11
-10.9345756401
 21
-19.3561198259
  0
LINE
  5
315
100
AcDbEntity
  8
0
100
AcDbLine
 62
250
  6
CONTINUOUS
 10
-11.4402737067
 20
-20.5812479598
 11
-11.4361994526
 21
-19.7230730426
  0
LWPOLYLINE
  5
316
100
AcDbEntity
  8
0
100
AcDbPolyline
 62
250
  6
CONTINUOUS
 90
3
 70
0
 10
-10.9449425069
 20
-21.5128252847
 10
-10.9427241487
 20
-21.082071757
 10
-10.9385049367
 20
-20.2196631595
  0
LINE
  5
317
100
AcDbEntity
  8
0
100
AcDbLine
 62
250
  6
CONTINUOUS
 10
-10.9459022666
 20
-21.7213899891
 11
-10.9449425069
 21
-21.5128252847
  0
LINE
  5
318
100
AcDbEntity
  8
0
100
AcDbLine
 62
250
  6
CONTINUOUS
 10
-11.4450739626
 20
-21.4969619654
 11
-11.4402737067
 21
-20.5812479598
  0
LINE
  5
319
100
AcDbEntity
  8
0
100
AcDbLine
 62
250
  6
CONTINUOUS
 10
-10.9476206245
 20
-21.9133214452
 11
-10.9459022666
 21
-21.7213899891
  0
LINE
  5
31A
100
AcDbEntity
  8
0
100
AcDbLine
 62
250
  6
CONTINUOUS
 10
-11.4457522545
 20
-21.553721005
 11
-11.4450739626
 21
-21.4969619654
  0
LINE
  5
31B
100
AcDbEntity
  8
0
100
AcDbLine
 62
250
  6
CONTINUOUS
 10
-10.9494315855
 20
-22.0453470658
 11
-10.9476206245
 21
-21.9133214452
  0
LWPOLYLINE
  5
31C
100
AcDbEntity
  8
0
100
AcDbPolyline
 62
250
  6
CONTINUOUS
 90
55
 70
0
 10
-11.4609893761
 20
21.2522001394
 10
-11.4607519567
 20
21.2667057115
 10
-11.4600929281
 20
21.2811990389
 10
-11.4590128466
 20
21.2956678873
 10
-11.4575126239
 20
21.3101000432
 10
-11.4555935265
 20
21.3244833239
 10
-11.4532571742
 20
21.3388055879
 10
-11.4505055394
 20
21.3530547453
 10
-11.4473409447
 20
21.367218768
 10
-11.4437660615
 20
21.3812856996
 10
-11.4397839074
 20
21.3952436658
 10
-11.435397844
 20
21.4090808841
 10
-11.4306115736
 20
21.4227856742
 10
-11.4254291366
 20
21.4363464673
 10
-11.4198549075
 20
21.4497518163
 10
-11.4138935918
 20
21.4629904054
 10
-11.4075502216
 20
21.4760510593
 10
-11.4008301515
 20
21.4889227532
 10
-11.3937390543
 20
21.5015946216
 10
-11.3862829157
 20
21.5140559678
 10
-11.3784680297
 20
21.5262962728
 10
-11.3703009931
 20
21.538305204
 10
-11.3617887
 20
21.5500726243
 10
-11.3529383358
 20
21.5615886005
 10
-11.3437573716
 20
21.5728434116
 10
-11.3342535572
 20
21.583827557
 10
-11.3244349152
 20
21.5945317645
 10
-11.3143097337
 20
21.6049469985
 10
-11.3038865598
 20
21.6150644671
 10
-11.293174192
 20
21.6248756297
 10
-11.282181673
 20
21.6343722045
 10
-11.270918282
 20
21.6435461751
 10
-11.2593935267
 20
21.6523897974
 10
-11.2476171356
 20
21.6608956062
 10
-11.2355990496
 20
21.6690564215
 10
-11.2233494134
 20
21.6768653545
 10
-11.2108785675
 20
21.6843158133
 10
-11.1981970388
 20
21.6914015089
 10
-11.1853155324
 20
21.6981164599
 10
-11.1722449218
 20
21.704454998
 10
-11.1589962405
 20
21.7104117726
 10
-11.145580672
 20
21.7159817555
 10
-11.132009541
 20
21.7211602448
 10
-11.1182943033
 20
21.7259428692
 10
-11.1044465363
 20
21.7303255915
 10
-11.0904779295
 20
21.7343047122
 10
-11.0764002741
 20
21.7378768722
 10
-11.0622254537
 20
21.7410390562
 10
-11.0479654336
 20
21.743788595
 10
-11.0336322512
 20
21.7461231675
 10
-11.0192380056
 20
21.748040803
 10
-11.0047948476
 20
21.7495398829
 10
-10.990314969
 20
21.7506191416
 10
-10.9758105928
 20
21.7512776682
 10
-10.9612939626
 20
21.7515149068
  0
LWPOLYLINE
  5
31D
100
AcDbEntity
  8
0
100
AcDbPolyline
 62
250
  6
CONTINUOUS
 90
43
 70
0
 10
-11.4071305066
 20
-0.6509065197
 10
-11.4069885113
 20
-0.6434300144
 10
-11.4065672752
 20
-0.6359639616
 10
-11.4058673871
 20
-0.6285187993
 10
-11.4048898257
 20
-0.6211049361
 10
-11.4036359576
 20
-0.6137327369
 10
-11.4021075356
 20
-0.6064125084
 10
-11.4003066968
 20
-0.5991544848
 10
-11.3982359586
 20
-0.5919688129
 10
-11.3958982161
 20
-0.5848655389
 10
-11.3932967376
 20
-0.5778545933
 10
-11.39043516
 20
-0.5709457778
 10
-11.3873174841
 20
-0.5641487513
 10
-11.3839480684
 20
-0.5574730163
 10
-11.3803316235
 20
-0.5509279059
 10
-11.3764732055
 20
-0.5445225704
 10
-11.3723782085
 20
-0.5382659648
 10
-11.3680523576
 20
-0.5321668361
 10
-11.3635017006
 20
-0.5262337112
 10
-11.3587325994
 20
-0.5204748849
 10
-11.3537517215
 20
-0.5148984083
 10
-11.3485660304
 20
-0.5095120776
 10
-11.3431827759
 20
-0.5043234232
 10
-11.3376094842
 20
-0.499339699
 10
-11.3318539469
 20
-0.4945678725
 10
-11.3259242105
 20
-0.490014615
 10
-11.3198285651
 20
-0.4856862922
 10
-11.3135755328
 20
-0.4815889551
 10
-11.3071738555
 20
-0.4777283322
 10
-11.3006324831
 20
-0.4741098208
 10
-11.2939605607
 20
-0.4707384797
 10
-11.2871674161
 20
-0.4676190221
 10
-11.2802625464
 20
-0.4647558093
 10
-11.2732556049
 20
-0.4621528442
 10
-11.2661563876
 20
-0.4598137659
 10
-11.2589748196
 20
-0.4577418444
 10
-11.2517209412
 20
-0.4559399764
 10
-11.2444048934
 20
-0.4544106811
 10
-11.2370369046
 20
-0.4531560964
 10
-11.2296272756
 20
-0.4521779763
 10
-11.2221863653
 20
-0.4514776884
 10
-11.2147245765
 20
-0.4510562115
 10
-11.2072523412
 20
-0.4509141351
  0
LINE
  5
31E
100
AcDbEntity
  8
0
100
AcDbLine
 62
250
  6
CONTINUOUS
 10
-11.4466631704
 20
-21.6077520112
 11
-11.4457522545
 21
-21.553721005
  0
LINE
  5
31F
100
AcDbEntity
  8
0
100
AcDbLine
 62
250
  6
CONTINUOUS
 10
-10.9509491472
 20
-22.128086298
 11
-10.9494315855
 21
-22.0453470658
  0
LINE
  5
320
100
AcDbEntity
  8
0
100
AcDbLine
 62
250
  6
CONTINUOUS
 10
-11.4475505894
 20
-21.6484799418
 11
-11.4466631704
 21
-21.6077520112
  0
LINE
  5
321
100
AcDbEntity
  8
0
100
AcDbLine
 62
250
  6
CONTINUOUS
 10
-10.9522809788
 20
-22.1864063798
 11
-10.9509491472
 21
-22.128086298
  0
LINE
  5
322
100
AcDbEntity
  8
0
100
AcDbLine
 62
250
  6
CONTINUOUS
 10
-11.4485704793
 20
-21.686589105
 11
-11.4475505894
 21
-21.6484799418
  0
LINE
  5
323
100
AcDbEntity
  8
0
100
AcDbLine
 62
250
  6
CONTINUOUS
 10
-10.953340677
 20
-22.2251961433
 11
-10.9522809788
 21
-22.1864063798
  0
LINE
  5
324
100
AcDbEntity
  8
0
100
AcDbLine
 62
250
  6
CONTINUOUS
 10
-11.4494165656
 20
-21.7132334595
 11
-11.4485704793
 21
-21.686589105
  0
LINE
  5
325
100
AcDbEntity
  8
0
100
AcDbLine
 62
250
  6
CONTINUOUS
 10
-10.9544463939
 20
-22.2595170128
 11
-10.953340677
 21
-22.2251961433
  0
LINE
  5
326
100
AcDbEntity
  8
0
100
AcDbLine
 62
250
  6
CONTINUOUS
 10
-11.4503274424
 20
-21.7380650355
 11
-11.4494165656
 21
-21.7132334595
  0
LINE
  5
327
100
AcDbEntity
  8
0
100
AcDbLine
 62
250
  6
CONTINUOUS
 10
-11.4512983874
 20
-21.7609549426
 11
-11.4503274424
 21
-21.7380650355
  0
LINE
  5
328
100
AcDbEntity
  8
0
100
AcDbLine
 62
250
  6
CONTINUOUS
 10
-11.4519764471
 20
-21.7750744113
 11
-11.4512983874
 21
-21.7609549426
  0
LWPOLYLINE
  5
329
100
AcDbEntity
  8
0
100
AcDbPolyline
 62
250
  6
CONTINUOUS
 90
3
 70
0
 10
-11.4530361644
 20
-21.7944695998
 10
-11.452677599
 20
-21.788249507
 10
-11.4519764471
 20
-21.7750744113
  0
LWPOLYLINE
  5
32A
100
AcDbEntity
  8
0
100
AcDbPolyline
 62
7
  6
CONTINUOUS
 90
4
 70
0
 10
-4.4148000482
 20
11.6181009877
 10
-4.4054321344
 20
11.6316253169
 10
-4.3957003749
 20
11.6448834755
 10
-4.3856015951
 20
11.6578791735
  0
LINE
  5
32B
100
AcDbEntity
  8
0
100
AcDbLine
 62
7
  6
CONTINUOUS
 10
-3.7445659236
 20
11.4457395708
 11
-3.7475215883
 21
11.4419775762
  0
LINE
  5
32C
100
AcDbEntity
  8
0
100
AcDbLine
 62
7
  6
CONTINUOUS
 10
-3.7417018674
 20
11.4490757675
 11
-3.744757915
 21
11.445505432
  0
LWPOLYLINE
  5
32D
100
AcDbEntity
  8
0
100
AcDbPolyline
 62
7
  6
CONTINUOUS
 90
5
 70
0
 10
-4.3751389696
 20
11.6706087111
 10
-4.3643381977
 20
11.6830381973
 10
-4.3532078456
 20
11.6951563391
 10
-4.341739347
 20
11.7069744408
 10
-4.329932702
 20
11.7184925075
  0
LINE
  5
32E
100
AcDbEntity
  8
0
100
AcDbLine
 62
7
  6
CONTINUOUS
 10
-3.7386894084
 20
11.4523083431
 11
-3.7418418509
 21
11.4489171907
  0
LINE
  5
32F
100
AcDbEntity
  8
0
100
AcDbLine
 62
7
  6
CONTINUOUS
 10
-3.7355357337
 20
11.4554300337
 11
-3.7387677905
 21
11.4522253911
  0
LINE
  5
330
100
AcDbEntity
  8
0
100
AcDbLine
 62
7
  6
CONTINUOUS
 10
-0.5082905566
 20
14.5179926785
 11
-3.7355285467
 21
11.4554372979
  0
LINE
  5
331
100
AcDbEntity
  8
0
100
AcDbLine
 62
7
  6
CONTINUOUS
 10
-0.5050830007
 20
14.5209022511
 11
-0.5082910226
 21
14.5179922641
  0
LINE
  5
332
100
AcDbEntity
  8
0
100
AcDbLine
 62
7
  6
CONTINUOUS
 10
-0.9800426452
 20
10.7290603997
 11
-0.9890320231
 21
10.723643293
  0
LINE
  5
333
100
AcDbEntity
  8
0
100
AcDbLine
 62
7
  6
CONTINUOUS
 10
-0.9885057506
 20
10.7239501829
 11
-0.9976208895
 21
10.7188565021
  0
LINE
  5
334
100
AcDbEntity
  8
0
100
AcDbLine
 62
7
  6
CONTINUOUS
 10
0.1098782576
 20
11.2426236552
 11
0.1189936299
 21
11.2477165552
  0
LINE
  5
335
100
AcDbEntity
  8
0
100
AcDbLine
 62
7
  6
CONTINUOUS
 10
-0.9971080467
 20
10.7191320523
 11
-1.0063588616
 21
10.7143571944
  0
LINE
  5
336
100
AcDbEntity
  8
0
100
AcDbLine
 62
7
  6
CONTINUOUS
 10
0.1184803693
 20
11.2474408302
 11
0.1277312749
 21
11.252214871
  0
LINE
  5
337
100
AcDbEntity
  8
0
100
AcDbLine
 62
7
  6
CONTINUOUS
 10
-1.0058379949
 20
10.7146137187
 11
-1.0152473161
 21
10.7101428011
  0
LINE
  5
338
100
AcDbEntity
  8
0
100
AcDbLine
 62
7
  6
CONTINUOUS
 10
0.1272099867
 20
11.2519581846
 11
0.1366192456
 21
11.256428242
  0
LINE
  5
339
100
AcDbEntity
  8
0
100
AcDbLine
 62
7
  6
CONTINUOUS
 10
0.1360786551
 20
11.2561834298
 11
0.1456293094
 21
11.260344175
  0
LINE
  5
33A
100
AcDbEntity
  8
0
100
AcDbLine
 62
7
  6
CONTINUOUS
 10
-1.0147071337
 20
10.7103874745
 11
-1.0242580164
 21
10.7062258534
  0
LINE
  5
33B
100
AcDbEntity
  8
0
100
AcDbLine
 62
7
  6
CONTINUOUS
 10
0.1450747522
 20
11.2601133198
 11
0.1547610661
 21
11.2639619064
  0
LINE
  5
33C
100
AcDbEntity
  8
0
100
AcDbLine
 62
7
  6
CONTINUOUS
 10
-1.0237038264
 20
10.7064565995
 11
-1.0333905598
 21
10.7026071198
  0
LINE
  5
33D
100
AcDbEntity
  8
0
100
AcDbLine
 62
7
  6
CONTINUOUS
 10
0.1541973066
 20
11.2637494615
 11
0.1640149159
 21
11.2672822029
  0
LINE
  5
33E
100
AcDbEntity
  8
0
100
AcDbLine
 62
7
  6
CONTINUOUS
 10
-1.032827086
 20
10.7028194945
 11
-1.0426453491
 21
10.6992858345
  0
LWPOLYLINE
  5
33F
100
AcDbEntity
  8
0
100
AcDbPolyline
 62
7
  6
CONTINUOUS
 90
3
 70
0
 10
2.8200205723
 20
11.2877012244
 10
2.8240479392
 20
11.2890142994
 10
2.8279831454
 20
11.2904778507
  0
LINE
  5
340
100
AcDbEntity
  8
0
100
AcDbLine
 62
7
  6
CONTINUOUS
 10
0.1634472896
 20
11.2670902511
 11
0.1733638261
 21
11.2702948675
  0
LINE
  5
341
100
AcDbEntity
  8
0
100
AcDbLine
 62
7
  6
CONTINUOUS
 10
-1.0420778996
 20
10.6994777614
 11
-1.0519953563
 21
10.6962722268
  0
LWPOLYLINE
  5
342
100
AcDbEntity
  8
0
100
AcDbPolyline
 62
7
  6
CONTINUOUS
 90
4
 70
0
 10
2.8195805336
 20
11.287569938
 10
2.823597323
 20
11.2888577645
 10
2.8275368055
 20
11.2903023609
 10
2.8318214401
 20
11.2920887008
  0
LINE
  5
343
100
AcDbEntity
  8
0
100
AcDbLine
 62
7
  6
CONTINUOUS
 10
0.1728159933
 20
11.2701276257
 11
0.1828077735
 21
11.2729988892
  0
LINE
  5
344
100
AcDbEntity
  8
0
100
AcDbLine
 62
7
  6
CONTINUOUS
 10
-1.0514475914
 20
10.6964394807
 11
-1.0614405656
 21
10.6935673087
  0
LINE
  5
345
100
AcDbEntity
  8
0
100
AcDbLine
 62
7
  6
CONTINUOUS
 10
-3.6941485071
 20
-11.897305181
 11
-3.6986679612
 21
-11.8985589547
  0
LINE
  5
346
100
AcDbEntity
  8
0
100
AcDbLine
 62
7
  6
CONTINUOUS
 10
-1.0609636679
 20
-11.8837220391
 11
-1.0709941704
 21
-11.8862530116
  0
LINE
  5
347
100
AcDbEntity
  8
0
100
AcDbLine
 62
7
  6
CONTINUOUS
 10
0.1823016406
 20
-11.3045596557
 11
0.1923336038
 21
-11.3020278005
  0
LINE
  5
348
100
AcDbEntity
  8
0
100
AcDbLine
 62
7
  6
CONTINUOUS
 10
-3.6900038317
 20
-11.896347981
 11
-3.6945611673
 21
-11.8974104976
  0
LINE
  5
349
100
AcDbEntity
  8
0
100
AcDbLine
 62
7
  6
CONTINUOUS
 10
0.191921957
 20
-11.3021255549
 11
0.2019422687
 21
-11.2999454378
  0
LINE
  5
34A
100
AcDbEntity
  8
0
100
AcDbLine
 62
7
  6
CONTINUOUS
 10
-1.070582674
 20
-11.8861553097
 11
-1.0806012753
 21
-11.8883346135
  0
LINE
  5
34B
100
AcDbEntity
  8
0
100
AcDbLine
 62
7
  6
CONTINUOUS
 10
-3.6857965303
 20
-11.8955561207
 11
-3.6903667043
 21
-11.8964264157
  0
LINE
  5
34C
100
AcDbEntity
  8
0
100
AcDbLine
 62
7
  6
CONTINUOUS
 10
0.2016138717
 20
-11.300011174
 11
0.2116210863
 21
-11.2981780989
  0
LINE
  5
34D
100
AcDbEntity
  8
0
100
AcDbLine
 62
7
  6
CONTINUOUS
 10
-1.0802731086
 20
-11.8882689371
 11
-1.0902783938
 21
-11.8901012789
  0
LINE
  5
34E
100
AcDbEntity
  8
0
100
AcDbLine
 62
7
  6
CONTINUOUS
 10
-1.0900375608
 20
-11.8900599901
 11
-1.1000236093
 21
-11.8915531558
  0
LINE
  5
34F
100
AcDbEntity
  8
0
100
AcDbLine
 62
7
  6
CONTINUOUS
 10
0.21137998
 20
-11.2982194427
 11
0.2213681417
 21
-11.2967256373
  0
LINE
  5
350
100
AcDbEntity
  8
0
100
AcDbLine
 62
7
  6
CONTINUOUS
 10
-3.6815491848
 20
-11.8949383256
 11
-3.6860928143
 21
-11.8956069522
  0
LWPOLYLINE
  5
351
100
AcDbEntity
  8
0
100
AcDbPolyline
 62
7
  6
CONTINUOUS
 90
6
 70
0
 10
-3.9987920553
 20
-11.2997804734
 10
-3.9824481844
 20
-11.2977506847
 10
-3.96606476
 20
-11.2961709255
 10
-3.9496556265
 20
-11.2950435443
 10
-3.9332069395
 20
-11.2943661939
 10
-3.9167186989
 20
-11.2941388749
  0
LWPOLYLINE
  5
352
100
AcDbEntity
  8
0
100
AcDbPolyline
 62
7
  6
CONTINUOUS
 90
4
 70
0
 10
0.2212176866
 20
-11.2967474326
 10
0.231071925
 20
-11.2956026217
 10
0.2409243397
 20
-11.2947875029
 10
0.2507932863
 20
-11.294299584
  0
LINE
  5
353
100
AcDbEntity
  8
0
100
AcDbLine
 62
7
  6
CONTINUOUS
 10
-3.6772693225
 20
-11.8944975045
 11
-3.6817769574
 21
-11.894966978
  0
LINE
  5
354
100
AcDbEntity
  8
0
100
AcDbLine
 62
7
  6
CONTINUOUS
 10
-3.6729494163
 20
-11.8942307489
 11
-3.6774316205
 21
-11.8945114503
  0
LINE
  5
355
100
AcDbEntity
  8
0
100
AcDbLine
 62
250
  6
CONTINUOUS
 10
10.5020000216
 20
-9.7988546366
 11
10.4915516895
 21
-9.7993641136
  0
LINE
  5
356
100
AcDbEntity
  8
0
100
AcDbLine
 62
250
  6
CONTINUOUS
 10
10.4915516895
 20
-9.7993641136
 11
10.4796164724
 21
-9.7998624775
  0
LINE
  5
357
100
AcDbEntity
  8
0
100
AcDbLine
 62
250
  6
CONTINUOUS
 10
10.4796164724
 20
-9.7998624775
 11
10.4662329812
 21
-9.8003481161
  0
LINE
  5
358
100
AcDbEntity
  8
0
100
AcDbLine
 62
250
  6
CONTINUOUS
 10
10.4662329812
 20
-9.8003481161
 11
10.4435381874
 21
-9.8010492896
  0
LINE
  5
359
100
AcDbEntity
  8
0
100
AcDbLine
 62
250
  6
CONTINUOUS
 10
10.4435381874
 20
-9.8010492896
 11
10.4086512806
 21
-9.8019253871
  0
LINE
  5
35A
100
AcDbEntity
  8
0
100
AcDbLine
 62
250
  6
CONTINUOUS
 10
10.4086512806
 20
-9.8019253871
 11
10.3893505303
 21
-9.8023350314
  0
LINE
  5
35B
100
AcDbEntity
  8
0
100
AcDbLine
 62
7
  6
CONTINUOUS
 10
0.2508005669
 20
-11.2943025466
 11
0.2606787646
 21
-11.2941388651
  0
LINE
  5
35C
100
AcDbEntity
  8
0
100
AcDbLine
 62
7
  6
CONTINUOUS
 10
3.0382702697
 20
-11.2941388651
 11
0.2606787646
 21
-11.2941388651
  0
LINE
  5
35D
100
AcDbEntity
  8
0
100
AcDbLine
 62
7
  6
CONTINUOUS
 10
-1.139326159
 20
-11.2941388651
 11
-3.9167186989
 21
-11.2941388749
  0
LWPOLYLINE
  5
35E
100
AcDbEntity
  8
0
100
AcDbPolyline
 62
7
  6
CONTINUOUS
 90
41
 70
0
 10
3.0382702697
 20
-11.2941388651
 10
3.0547593061
 20
-11.2943661767
 10
3.0712088181
 20
-11.2950435773
 10
3.0876188057
 20
-11.2961710667
 10
3.1040031024
 20
-11.297750991
 10
3.1203478748
 20
-11.2997810027
 10
3.136611622
 20
-11.30225406
 10
3.152789592
 20
-11.3051696171
 10
3.1688865369
 20
-11.3085282171
 10
3.1848752118
 20
-11.3123244511
 10
3.2007595857
 20
-11.3165607911
 10
3.2165356897
 20
-11.3212347611
 10
3.2321643715
 20
-11.32633353
 10
3.2476422839
 20
-11.3318560118
 10
3.2629727742
 20
-11.3378032871
 10
3.2781267321
 20
-11.3441657749
 10
3.2931085938
 20
-11.3509477682
 10
3.3079139231
 20
-11.3581449673
 10
3.3225003007
 20
-11.3657349019
 10
3.3368617423
 20
-11.3737146803
 10
3.3510042322
 20
-11.3820871868
 10
3.3649033037
 20
-11.3908386149
 10
3.3785633805
 20
-11.3999739719
 10
3.391980039
 20
-11.4094882421
 10
3.4051155422
 20
-11.4193525851
 10
3.4179638308
 20
-11.4295629006
 10
3.4305309641
 20
-11.4401232801
 10
3.442797383
 20
-11.451017171
 10
3.4547677627
 20
-11.4622505199
 10
3.466437428
 20
-11.4738173706
 10
3.4777727935
 20
-11.485683317
 10
3.4887676595
 20
-11.4978432006
 10
3.4994282257
 20
-11.5103021704
 10
3.5097395062
 20
-11.523041282
 10
3.5197059111
 20
-11.5360670964
 10
3.5293230304
 20
-11.5493730428
 10
3.5385626473
 20
-11.5629204799
 10
3.5474192674
 20
-11.5767033898
 10
3.5558983853
 20
-11.5907277814
 10
3.5639882676
 20
-11.6049730551
 10
3.5716923055
 20
-11.6194468278
  0
LWPOLYLINE
  5
35F
100
AcDbEntity
  8
0
100
AcDbPolyline
 62
7
  6
CONTINUOUS
 90
3
 70
0
 10
-1.1393261592
 20
-11.2941388651
 10
-1.1294416773
 20
-11.2942994867
 10
-1.1195733454
 20
-11.2947873443
  0
LINE
  5
360
100
AcDbEntity
  8
0
100
AcDbLine
 62
250
  6
CONTINUOUS
 10
-11.3053807207
 20
-9.8014963439
 11
-11.2679979193
 21
-9.8023350314
  0
LINE
  5
361
100
AcDbEntity
  8
0
100
AcDbLine
 62
250
  6
CONTINUOUS
 10
-11.3300919009
 20
-9.8008194582
 11
-11.3053807207
 21
-9.8014963439
  0
LINE
  5
362
100
AcDbEntity
  8
0
100
AcDbLine
 62
250
  6
CONTINUOUS
 10
-11.3517505523
 20
-9.8001069867
 11
-11.3300919009
 21
-9.8008194582
  0
LINE
  5
363
100
AcDbEntity
  8
0
100
AcDbLine
 62
250
  6
CONTINUOUS
 10
-11.3644150288
 20
-9.7996147864
 11
-11.3517505523
 21
-9.8001069867
  0
LINE
  5
364
100
AcDbEntity
  8
0
100
AcDbLine
 62
7
  6
CONTINUOUS
 10
2.7989661294
 20
-11.89451021
 11
2.7945887091
 21
-11.8942354277
  0
LINE
  5
365
100
AcDbEntity
  8
0
100
AcDbLine
 62
7
  6
CONTINUOUS
 10
-1.1196044277
 20
-11.2947878865
 11
-1.109796521
 21
-11.2955949627
  0
LINE
  5
366
100
AcDbEntity
  8
0
100
AcDbLine
 62
7
  6
CONTINUOUS
 10
2.8032999535
 20
-11.8949632105
 11
2.7988204776
 21
-11.8944973484
  0
LINE
  5
367
100
AcDbEntity
  8
0
100
AcDbLine
 62
7
  6
CONTINUOUS
 10
-1.109796521
 20
-11.2955949627
 11
-1.099866564
 21
-11.2967472873
  0
LINE
  5
368
100
AcDbEntity
  8
0
100
AcDbLine
 62
7
  6
CONTINUOUS
 10
2.8075996434
 20
-11.8955984484
 11
2.8030998684
 21
-11.8949380787
  0
LINE
  5
369
100
AcDbEntity
  8
0
100
AcDbLine
 62
7
  6
CONTINUOUS
 10
0.2213736609
 20
-11.8915527983
 11
0.2113909006
 21
-11.8900600579
  0
LINE
  5
36A
100
AcDbEntity
  8
0
100
AcDbLine
 62
7
  6
CONTINUOUS
 10
-1.1000129635
 20
-11.2967259958
 11
-1.0900281144
 21
-11.2982193719
  0
LWPOLYLINE
  5
36B
100
AcDbEntity
  8
0
100
AcDbPolyline
 62
7
  6
CONTINUOUS
 90
7
 70
0
 10
3.1203886626
 20
-11.2997866648
 10
3.1366566631
 20
-11.3022615426
 10
3.1528373907
 20
-11.3051788391
 10
3.1689358545
 20
-11.3085391904
 10
3.1849256657
 20
-11.3123371698
 10
3.2008108987
 20
-11.3165751945
 10
3.2165874791
 20
-11.3212508432
  0
LINE
  5
36C
100
AcDbEntity
  8
0
100
AcDbLine
 62
7
  6
CONTINUOUS
 10
0.2116272494
 20
-11.8901006406
 11
0.2016259557
 21
-11.8882689783
  0
LINE
  5
36D
100
AcDbEntity
  8
0
100
AcDbLine
 62
7
  6
CONTINUOUS
 10
-1.0902647121
 20
-11.2981787385
 11
-1.0802615171
 21
-11.3000111284
  0
LINE
  5
36E
100
AcDbEntity
  8
0
100
AcDbLine
 62
7
  6
CONTINUOUS
 10
2.8118557371
 20
-11.8964119043
 11
2.8073467561
 21
-11.8955556863
  0
LINE
  5
36F
100
AcDbEntity
  8
0
100
AcDbLine
 62
7
  6
CONTINUOUS
 10
0.2019488721
 20
-11.8883336037
 11
0.1919356088
 21
-11.8861554353
  0
LINE
  5
370
100
AcDbEntity
  8
0
100
AcDbLine
 62
7
  6
CONTINUOUS
 10
-1.0805846369
 20
-11.2999464489
 11
-1.0705696947
 21
-11.3021254232
  0
LINE
  5
371
100
AcDbEntity
  8
0
100
AcDbLine
 62
7
  6
CONTINUOUS
 10
2.8160398485
 20
-11.8973915197
 11
2.8115537837
 21
-11.8963473513
  0
LINE
  5
372
100
AcDbEntity
  8
0
100
AcDbLine
 62
7
  6
CONTINUOUS
 10
0.1923405163
 20
-11.8862515671
 11
0.1823169441
 21
-11.8837222985
  0
LINE
  5
373
100
AcDbEntity
  8
0
100
AcDbLine
 62
7
  6
CONTINUOUS
 10
-1.0709747239
 20
-11.3020292459
 11
-1.0609497247
 21
-11.3045593883
  0
LINE
  5
374
100
AcDbEntity
  8
0
100
AcDbLine
 62
7
  6
CONTINUOUS
 10
2.8201495954
 20
-11.8985384745
 11
2.8156988805
 21
-11.8973046144
  0
LINE
  5
375
100
AcDbEntity
  8
0
100
AcDbLine
 62
7
  6
CONTINUOUS
 10
0.1828001948
 20
-11.8838546495
 11
0.1728169091
 21
-11.8809856978
  0
LINE
  5
376
100
AcDbEntity
  8
0
100
AcDbLine
 62
7
  6
CONTINUOUS
 10
-1.0614329872
 20
-11.3044270093
 11
-1.0514485412
 21
-11.307296859
  0
LINE
  5
377
100
AcDbEntity
  8
0
100
AcDbLine
 62
7
  6
CONTINUOUS
 10
0.1733548051
 20
-11.8811499161
 11
0.1634484071
 21
-11.8779483867
  0
LINE
  5
378
100
AcDbEntity
  8
0
100
AcDbLine
 62
7
  6
CONTINUOUS
 10
-1.0519863401
 20
-11.3071326382
 11
-1.0420790536
 21
-11.310335074
  0
LINE
  5
379
100
AcDbEntity
  8
0
100
AcDbLine
 62
7
  6
CONTINUOUS
 10
2.82418736
 20
-11.8998515884
 11
2.8197799116
 21
-11.8984275848
  0
LINE
  5
37A
100
AcDbEntity
  8
0
100
AcDbLine
 62
7
  6
CONTINUOUS
 10
0.1640043244
 20
-11.8781363245
 11
0.1541985349
 21
-11.8746076094
  0
LINE
  5
37B
100
AcDbEntity
  8
0
100
AcDbLine
 62
7
  6
CONTINUOUS
 10
-1.0426347664
 20
-11.3101471714
 11
-1.0328283526
 21
-11.3136767924
  0
LINE
  5
37C
100
AcDbEntity
  8
0
100
AcDbLine
 62
7
  6
CONTINUOUS
 10
2.8281319032
 20
-11.9013152631
 11
2.8237990119
 21
-11.8997161527
  0
LINE
  5
37D
100
AcDbEntity
  8
0
100
AcDbLine
 62
7
  6
CONTINUOUS
 10
0.1547487756
 20
-11.8748149146
 11
0.1450755298
 21
-11.8709712325
  0
LINE
  5
37E
100
AcDbEntity
  8
0
100
AcDbLine
 62
7
  6
CONTINUOUS
 10
-1.0333782822
 20
-11.3134695681
 11
-1.0237046444
 21
-11.3173141299
  0
LINE
  5
37F
100
AcDbEntity
  8
0
100
AcDbLine
 62
7
  6
CONTINUOUS
 10
0.1456151243
 20
-11.8711958744
 11
0.1360780148
 21
-11.8670407457
  0
LINE
  5
380
100
AcDbEntity
  8
0
100
AcDbLine
 62
7
  6
CONTINUOUS
 10
-1.0242438493
 20
-11.3170896078
 11
-1.0147065366
 21
-11.3212455993
  0
LINE
  5
381
100
AcDbEntity
  8
0
100
AcDbLine
 62
7
  6
CONTINUOUS
 10
-1.0152309202
 20
-11.3210080636
 11
-1.0058354216
 21
-11.325472685
  0
LINE
  5
382
100
AcDbEntity
  8
0
100
AcDbLine
 62
7
  6
CONTINUOUS
 10
0.1366028249
 20
-11.8672784298
 11
0.1272073669
 21
-11.8628146561
  0
LINE
  5
383
100
AcDbEntity
  8
0
100
AcDbLine
 62
7
  6
CONTINUOUS
 10
0.1277124231
 20
-11.8630633519
 11
0.1184759559
 21
-11.8582963567
  0
LINE
  5
384
100
AcDbEntity
  8
0
100
AcDbLine
 62
7
  6
CONTINUOUS
 10
-1.0063400423
 20
-11.3252241599
 11
-0.9971036823
 21
-11.3299919608
  0
LINE
  5
385
100
AcDbEntity
  8
0
100
AcDbLine
 62
7
  6
CONTINUOUS
 10
0.1189725204
 20
-11.8585631464
 11
0.1098724237
 21
-11.8534780685
  0
LINE
  5
386
100
AcDbEntity
  8
0
100
AcDbLine
 62
7
  6
CONTINUOUS
 10
-0.9975998195
 20
-11.3297253528
 11
-0.9884999672
 21
-11.3348112016
  0
LINE
  5
387
100
AcDbEntity
  8
0
100
AcDbLine
 62
7
  6
CONTINUOUS
 10
-0.989009028
 20
-11.3345142387
 11
-0.9800356277
 21
-11.339922629
  0
LINE
  5
388
100
AcDbEntity
  8
0
100
AcDbLine
 62
7
  6
CONTINUOUS
 10
-0.5081060448
 20
-15.1288374297
 11
-0.5048788698
 21
-15.1317633695
  0
LINE
  5
389
100
AcDbEntity
  8
0
100
AcDbLine
 62
7
  6
CONTINUOUS
 10
-3.7353176033
 20
-12.066307281
 11
-0.5080908628
 21
-15.1288509248
  0
LWPOLYLINE
  5
38A
100
AcDbEntity
  8
0
100
AcDbPolyline
 62
7
  6
CONTINUOUS
 90
43
 70
0
 10
-4.3297332951
 20
-12.3293496935
 10
-4.3415415675
 20
-12.3178303272
 10
-4.35301146
 20
-12.3060109576
 10
-4.3641429726
 20
-12.2938915794
 10
-4.3749445956
 20
-12.2814609394
 10
-4.3854078387
 20
-12.2687302797
 10
-4.3955072314
 20
-12.2557333385
 10
-4.4052397004
 20
-12.2424737534
 10
-4.4146083189
 20
-12.2289478766
 10
-4.4235968358
 20
-12.2151785187
 10
-4.4322064067
 20
-12.2011611494
 10
-4.440435876
 20
-12.1869002893
 10
-4.4482655253
 20
-12.172432326
 10
-4.4556936645
 20
-12.1577603189
 10
-4.4627219837
 20
-12.1428812004
 10
-4.4693358346
 20
-12.1278221686
 10
-4.4755354548
 20
-12.1125770658
 10
-4.4813206066
 20
-12.0971520424
 10
-4.4866759288
 20
-12.0815927599
 10
-4.4915990623
 20
-12.065905396
 10
-4.4960923661
 20
-12.0500837679
 10
-4.5001475566
 20
-12.0341549983
 10
-4.5037643658
 20
-12.01811243
 10
-4.5069430617
 20
-12.0019627161
 10
-4.5096761645
 20
-11.9857529468
 10
-4.511962089
 20
-11.969490243
 10
-4.5138024203
 20
-11.9531674821
 10
-4.5151944344
 20
-11.9368103905
 10
-4.5161374027
 20
-11.9204114673
 10
-4.5166320537
 20
-11.9039782129
 10
-4.5166778487
 20
-11.8875588573
 10
-4.5162738281
 20
-11.8711614005
 10
-4.5154209516
 20
-11.8547778445
 10
-4.514121559
 20
-11.8384324238
 10
-4.5123743214
 20
-11.8221173738
 10
-4.5101805678
 20
-11.8058404618
 10
-4.5075466246
 20
-11.7896492217
 10
-4.5044726332
 20
-11.7735518103
 10
-4.5009584521
 20
-11.7575400759
 10
-4.4970099836
 20
-11.7416370911
 10
-4.4926244539
 20
-11.7258350217
 10
-4.4878046367
 20
-11.7101417076
 10
-4.482564755
 20
-11.6946037343
  0
LINE
  5
38B
100
AcDbEntity
  8
0
100
AcDbLine
 62
7
  6
CONTINUOUS
 10
-3.7385868322
 20
-12.0630623168
 11
-3.7353176033
 21
-12.066307281
  0
LINE
  5
38C
100
AcDbEntity
  8
0
100
AcDbLine
 62
7
  6
CONTINUOUS
 10
-3.7416908317
 20
-12.0597183456
 11
-3.7384923727
 21
-12.0631635335
  0
LINE
  5
38D
100
AcDbEntity
  8
0
100
AcDbLine
 62
7
  6
CONTINUOUS
 10
-4.374968702
 20
-12.2814324577
 11
-4.3854349264
 21
-12.2686963256
  0
LINE
  5
38E
100
AcDbEntity
  8
0
100
AcDbLine
 62
7
  6
CONTINUOUS
 10
-4.4146383278
 20
-12.2289033004
 11
-4.4236265273
 21
-12.2151316302
  0
LWPOLYLINE
  5
38F
100
AcDbEntity
  8
0
100
AcDbPolyline
 62
250
  6
CONTINUOUS
 90
17
 70
0
 10
-11.4545198677
 20
21.2059823942
 10
-11.4549018714
 20
21.2109282038
 10
-11.4552879195
 20
21.2156095053
 10
-11.455678005
 20
21.2200267561
 10
-11.4560714533
 20
21.2241723109
 10
-11.4564682699
 20
21.2280456973
 10
-11.4568684493
 20
21.2316473877
 10
-11.4572713006
 20
21.234971155
 10
-11.4576768293
 20
21.2380165223
 10
-11.4580850299
 20
21.2407839665
 10
-11.4584951949
 20
21.2432686905
 10
-11.4589073349
 20
21.2454702132
 10
-11.4593214392
 20
21.2473890158
 10
-11.4597367694
 20
21.249021745
 10
-11.4601530792
 20
21.2503672832
 10
-11.4605706147
 20
21.251426748
 10
-11.4609893761
 20
21.2522001394
  0
LINE
  5
390
100
AcDbEntity
  8
0
100
AcDbLine
 62
250
  6
CONTINUOUS
 10
-11.4537686261
 20
21.1953076403
 11
-11.4545198677
 21
21.2059823942
  0
LINE
  5
391
100
AcDbEntity
  8
0
100
AcDbLine
 62
250
  6
CONTINUOUS
 10
-11.4530361644
 20
21.1836118696
 11
-11.4537686261
 21
21.1953076403
  0
LWPOLYLINE
  5
392
100
AcDbEntity
  8
0
100
AcDbPolyline
 62
250
  6
CONTINUOUS
 90
11
 70
0
 10
-10.9571728896
 20
21.7104058792
 10
-10.9575757333
 20
21.7170543856
 10
-10.9579812611
 20
21.7231468657
 10
-10.9583894635
 20
21.7286797849
 10
-10.9587996243
 20
21.7336499248
 10
-10.9592117391
 20
21.738054407
 10
-10.9596258123
 20
21.7418907094
 10
-10.9600411415
 20
21.7451566359
 10
-10.9604574925
 20
21.7478502997
 10
-10.9608750996
 20
21.7499701334
 10
-10.9612939626
 20
21.7515149068
  0
LINE
  5
393
100
AcDbEntity
  8
0
100
AcDbLine
 62
250
  6
CONTINUOUS
 10
-10.9563759132
 20
21.6954564174
 11
-10.9571728896
 21
21.7104058792
  0
LINE
  5
394
100
AcDbEntity
  8
0
100
AcDbLine
 62
250
  6
CONTINUOUS
 10
-10.9555923918
 20
21.6783329279
 11
-10.9563759132
 21
21.6954564174
  0
LWPOLYLINE
  5
395
100
AcDbEntity
  8
0
100
AcDbPolyline
 62
250
  6
CONTINUOUS
 90
3
 70
0
 10
-10.9544463939
 20
21.6486592826
 10
-10.954824353
 20
21.6590749759
 10
-10.9555923918
 20
21.6783329279
  0
LINE
  5
396
100
AcDbEntity
  8
0
100
AcDbLine
 62
250
  6
CONTINUOUS
 10
-10.9552063497
 20
-22.2798258244
 11
-10.9544463939
 21
-22.2595170128
  0
LINE
  5
397
100
AcDbEntity
  8
0
100
AcDbLine
 62
250
  6
CONTINUOUS
 10
-10.9559824716
 20
-22.2980218012
 11
-10.9552063497
 21
-22.2798258244
  0
LINE
  5
398
100
AcDbEntity
  8
0
100
AcDbLine
 62
250
  6
CONTINUOUS
 10
-11.4537686261
 20
-21.8061653706
 11
-11.4530361644
 21
-21.7944695998
  0
LWPOLYLINE
  5
399
100
AcDbEntity
  8
0
100
AcDbPolyline
 62
7
  6
CONTINUOUS
 90
3
 70
0
 43
0.3500000006
 10
0.7035334361
 20
30.9769057159
 10
0.6321048732
 20
30.7626212311
 10
0.4892477474
 20
30.4769055634
  0
LWPOLYLINE
  5
39A
100
AcDbEntity
  8
0
100
AcDbPolyline
 62
7
  6
CONTINUOUS
 90
3
 70
0
 10
-4.440626085
 20
11.5760585132
 10
-4.4323970236
 20
11.5903175908
 10
-4.4237879422
 20
11.6043332658
  0
LWPOLYLINE
  5
39B
100
AcDbEntity
  8
0
100
AcDbPolyline
 62
7
  6
CONTINUOUS
 90
16
 70
0
 10
-3.7501272652
 20
11.438346161
 10
-3.752558129
 20
11.4346488011
 10
-3.7548083774
 20
11.4308913396
 10
-3.7568838128
 20
11.4270679327
 10
-3.7587850254
 20
11.4231986641
 10
-3.7605107648
 20
11.4192889633
 10
-3.7620622815
 20
11.4153334005
 10
-3.763443917
 20
11.4113357709
 10
-3.7646584047
 20
11.4072900962
 10
-3.7657030113
 20
11.4032023544
 10
-3.7665738787
 20
11.3990942754
 10
-3.7672697054
 20
11.3949617994
 10
-3.7677917929
 20
11.390808986
 10
-3.7681401877
 20
11.3866697443
 10
-3.7683130669
 20
11.3825504189
 10
-3.7683122533
 20
11.3784446656
  0
LWPOLYLINE
  5
39C
100
AcDbEntity
  8
0
100
AcDbPolyline
 62
7
  6
CONTINUOUS
 90
17
 70
0
 10
-3.7498571604
 20
11.4387404531
 10
-3.7522676763
 20
11.4351092486
 10
-3.7545150536
 20
11.4314001349
 10
-3.7566015298
 20
11.4276111859
 10
-3.7585213189
 20
11.4237604125
 10
-3.7602743437
 20
11.4198464925
 10
-3.7618606814
 20
11.4158707474
 10
-3.7632747768
 20
11.4118551539
 10
-3.7645155587
 20
11.4078009336
 10
-3.7655840983
 20
11.4037068646
 10
-3.7664780542
 20
11.3995912581
 10
-3.7671968755
 20
11.3954513378
 10
-3.7677411131
 20
11.3912898798
 10
-3.7681100783
 20
11.3871335245
 10
-3.7683026493
 20
11.3829859446
 10
-3.768319948
 20
11.3788434675
 10
-3.7681432615
 20
11.3743673599
  0
LINE
  5
39D
100
AcDbEntity
  8
0
100
AcDbLine
 62
7
  6
CONTINUOUS
 10
-3.7472857434
 20
11.442291823
 11
-3.7501272652
 21
11.438346161
  0
LINE
  5
39E
100
AcDbEntity
  8
0
100
AcDbLine
 62
7
  6
CONTINUOUS
 10
-0.9264080933
 20
10.7719351032
 11
-0.9339593353
 21
10.7645909225
  0
LINE
  5
39F
100
AcDbEntity
  8
0
100
AcDbLine
 62
7
  6
CONTINUOUS
 10
-0.9334066085
 20
10.7651109061
 11
-0.9412270461
 21
10.7579864597
  0
LINE
  5
3A0
100
AcDbEntity
  8
0
100
AcDbLine
 62
7
  6
CONTINUOUS
 10
0.0547767437
 20
11.2014679051
 11
0.0625980504
 21
11.2085919759
  0
LINE
  5
3A1
100
AcDbEntity
  8
0
100
AcDbLine
 62
7
  6
CONTINUOUS
 10
-0.9406381269
 20
10.7585041514
 11
-0.9487009475
 21
10.751628231
  0
LINE
  5
3A2
100
AcDbEntity
  8
0
100
AcDbLine
 62
7
  6
CONTINUOUS
 10
0.062008953
 20
11.2080742124
 11
0.0700725685
 21
11.2149496798
  0
LINE
  5
3A3
100
AcDbEntity
  8
0
100
AcDbLine
 62
7
  6
CONTINUOUS
 10
-0.9480908985
 20
10.752131632
 11
-0.9563815896
 21
10.7455168956
  0
LINE
  5
3A4
100
AcDbEntity
  8
0
100
AcDbLine
 62
7
  6
CONTINUOUS
 10
0.0694623066
 20
11.2144461867
 11
0.0777537131
 21
11.2210603887
  0
LINE
  5
3A5
100
AcDbEntity
  8
0
100
AcDbLine
 62
7
  6
CONTINUOUS
 10
-0.9557729435
 20
10.7459884687
 11
-0.9642684222
 21
10.7396517981
  0
LINE
  5
3A6
100
AcDbEntity
  8
0
100
AcDbLine
 62
7
  6
CONTINUOUS
 10
0.0771448203
 20
11.2205887049
 11
0.0856409401
 21
11.2269247693
  0
LINE
  5
3A7
100
AcDbEntity
  8
0
100
AcDbLine
 62
7
  6
CONTINUOUS
 10
-0.9636762416
 20
10.7400795443
 11
-0.9723381028
 21
10.7340513657
  0
LINE
  5
3A8
100
AcDbEntity
  8
0
100
AcDbLine
 62
7
  6
CONTINUOUS
 10
0.0850484784
 20
11.226496894
 11
0.0937108821
 21
11.2325244151
  0
LINE
  5
3A9
100
AcDbEntity
  8
0
100
AcDbLine
 62
7
  6
CONTINUOUS
 10
-0.9717649821
 20
10.7344362953
 11
-0.980593639
 21
10.728714995
  0
LINE
  5
3AA
100
AcDbEntity
  8
0
100
AcDbLine
 62
7
  6
CONTINUOUS
 10
0.0931374458
 20
11.2321393406
 11
0.1019665461
 21
11.2378599319
  0
LWPOLYLINE
  5
3AB
100
AcDbEntity
  8
0
100
AcDbPolyline
 62
7
  6
CONTINUOUS
 90
3
 70
0
 10
2.8424713661
 20
11.2976180917
 10
2.8459712207
 20
11.2998136288
 10
2.8496472069
 20
11.3023493763
  0
LINE
  5
3AC
100
AcDbEntity
  8
0
100
AcDbLine
 62
7
  6
CONTINUOUS
 10
0.101415197
 20
11.2375143671
 11
0.1104049251
 21
11.2429307178
  0
LINE
  5
3AD
100
AcDbEntity
  8
0
100
AcDbLine
 62
7
  6
CONTINUOUS
 10
3.3222776516
 20
10.754864423
 11
3.3076929765
 21
10.7472762213
  0
LWPOLYLINE
  5
3AE
100
AcDbEntity
  8
0
100
AcDbPolyline
 62
7
  6
CONTINUOUS
 90
3
 70
0
 10
2.8318214401
 20
11.2920887008
 10
2.835567574
 20
11.2938500266
 10
2.8392230657
 20
11.2957572184
  0
LWPOLYLINE
  5
3AF
100
AcDbEntity
  8
0
100
AcDbPolyline
 62
7
  6
CONTINUOUS
 90
4
 70
0
 10
2.8313999121
 20
11.291904579
 10
2.8351857118
 20
11.2936635664
 10
2.8388767302
 20
11.295568198
 10
2.8427936371
 20
11.2978122876
  0
LINE
  5
3B0
100
AcDbEntity
  8
0
100
AcDbLine
 62
250
  6
CONTINUOUS
 10
10.3893505303
 20
-9.8023350314
 11
10.3473464269
 21
-9.8030908894
  0
LINE
  5
3B1
100
AcDbEntity
  8
0
100
AcDbLine
 62
250
  6
CONTINUOUS
 10
10.3473464269
 20
-9.8030908894
 11
10.3012641209
 21
-9.8037541446
  0
LINE
  5
3B2
100
AcDbEntity
  8
0
100
AcDbLine
 62
250
  6
CONTINUOUS
 10
10.3012641209
 20
-9.8037541446
 11
10.2388383778
 21
-9.8044400499
  0
LINE
  5
3B3
100
AcDbEntity
  8
0
100
AcDbLine
 62
250
  6
CONTINUOUS
 10
10.2388383778
 20
-9.8044400499
 11
10.1722351258
 21
-9.8049541112
  0
LINE
  5
3B4
100
AcDbEntity
  8
0
100
AcDbLine
 62
250
  6
CONTINUOUS
 10
10.1722351258
 20
-9.8049541112
 11
10.1027991085
 21
-9.8052859496
  0
LINE
  5
3B5
100
AcDbEntity
  8
0
100
AcDbLine
 62
250
  6
CONTINUOUS
 10
10.1027991085
 20
-9.8052859496
 11
10.031932264
 21
-9.8054288651
  0
LINE
  5
3B6
100
AcDbEntity
  8
0
100
AcDbLine
 62
250
  6
CONTINUOUS
 10
-11.0094720676
 20
-9.8051755942
 11
10.031932264
 21
-9.8054288651
  0
LINE
  5
3B7
100
AcDbEntity
  8
0
100
AcDbLine
 62
250
  6
CONTINUOUS
 10
-11.1174857668
 20
-9.8044400499
 11
-11.0094720676
 21
-9.8051755942
  0
LINE
  5
3B8
100
AcDbEntity
  8
0
100
AcDbLine
 62
250
  6
CONTINUOUS
 10
-11.2034263476
 20
-9.8034346577
 11
-11.1174857668
 21
-9.8044400499
  0
LWPOLYLINE
  5
3B9
100
AcDbEntity
  8
0
100
AcDbPolyline
 62
250
  6
CONTINUOUS
 90
3
 70
0
 10
-11.2679979193
 20
-9.8023350314
 10
-11.2579098954
 20
-9.8025321623
 10
-11.2034263476
 20
-9.8034346577
  0
LWPOLYLINE
  5
3BA
100
AcDbEntity
  8
0
100
AcDbPolyline
 62
7
  6
CONTINUOUS
 90
6
 70
0
 10
3.232216795
 20
-11.3263514312
 10
3.2476957691
 20
-11.3318759493
 10
3.2630274787
 20
-11.3378254013
 10
3.2781825434
 20
-11.3441901222
 10
3.2931654564
 20
-11.3509744761
 10
3.3079717246
 20
-11.3581740923
  0
LINE
  5
3BB
100
AcDbEntity
  8
0
100
AcDbLine
 62
7
  6
CONTINUOUS
 10
2.8319753978
 20
-11.9029258198
 11
2.8277405152
 21
-11.9011615298
  0
LINE
  5
3BC
100
AcDbEntity
  8
0
100
AcDbLine
 62
7
  6
CONTINUOUS
 10
2.835725671
 20
-11.9046869367
 11
2.8316047922
 21
-11.9027643629
  0
LINE
  5
3BD
100
AcDbEntity
  8
0
100
AcDbLine
 62
7
  6
CONTINUOUS
 10
2.8393849647
 20
-11.9065940504
 11
2.8353914724
 21
-11.9045240046
  0
LINE
  5
3BE
100
AcDbEntity
  8
0
100
AcDbLine
 62
7
  6
CONTINUOUS
 10
0.1103818847
 20
-11.8537752089
 11
0.1014081283
 21
-11.8483675666
  0
LINE
  5
3BF
100
AcDbEntity
  8
0
100
AcDbLine
 62
7
  6
CONTINUOUS
 10
2.8461828219
 20
-11.9106789735
 11
2.8426804872
 21
-11.9084813103
  0
LINE
  5
3C0
100
AcDbEntity
  8
0
100
AcDbLine
 62
7
  6
CONTINUOUS
 10
0.1019417483
 20
-11.8487021402
 11
0.093129513
 21
-11.8429915746
  0
LINE
  5
3C1
100
AcDbEntity
  8
0
100
AcDbLine
 62
7
  6
CONTINUOUS
 10
-0.9805688916
 20
-11.339588218
 11
-0.9717571009
 21
-11.3452994873
  0
LINE
  5
3C2
100
AcDbEntity
  8
0
100
AcDbLine
 62
7
  6
CONTINUOUS
 10
0.0936844101
 20
-11.8433642537
 11
0.0850402113
 21
-11.8373486167
  0
LINE
  5
3C3
100
AcDbEntity
  8
0
100
AcDbLine
 62
7
  6
CONTINUOUS
 10
-0.9723116855
 20
-11.3449269534
 11
-0.9636680264
 21
-11.3509432453
  0
LINE
  5
3C4
100
AcDbEntity
  8
0
100
AcDbLine
 62
7
  6
CONTINUOUS
 10
0.0856127597
 20
-11.8377621479
 11
0.0771365896
 21
-11.8314401648
  0
LINE
  5
3C5
100
AcDbEntity
  8
0
100
AcDbLine
 62
7
  6
CONTINUOUS
 10
-0.9642402998
 20
-11.3505298415
 11
-0.9557647646
 21
-11.3568524305
  0
LINE
  5
3C6
100
AcDbEntity
  8
0
100
AcDbLine
 62
7
  6
CONTINUOUS
 10
-0.9563518444
 20
-11.3563974821
 11
-0.9480828335
 21
-11.3629958748
  0
LINE
  5
3C7
100
AcDbEntity
  8
0
100
AcDbLine
 62
7
  6
CONTINUOUS
 10
0.0777239077
 20
-11.8318952204
 11
0.0694541907
 21
-11.825297364
  0
LINE
  5
3C8
100
AcDbEntity
  8
0
100
AcDbLine
 62
7
  6
CONTINUOUS
 10
0.0700414842
 20
-11.8257819836
 11
0.062001028
 21
-11.8189250612
  0
LINE
  5
3C9
100
AcDbEntity
  8
0
100
AcDbLine
 62
7
  6
CONTINUOUS
 10
-0.9486699246
 20
-11.3625113421
 11
-0.9406302506
 21
-11.3693687222
  0
LINE
  5
3CA
100
AcDbEntity
  8
0
100
AcDbLine
 62
7
  6
CONTINUOUS
 10
-0.9411952302
 20
-11.3688720594
 11
-0.9333989984
 21
-11.375975825
  0
LINE
  5
3CB
100
AcDbEntity
  8
0
100
AcDbLine
 62
7
  6
CONTINUOUS
 10
0.0625661736
 20
-11.8194217885
 11
0.0547690881
 21
-11.8123184056
  0
LINE
  5
3CC
100
AcDbEntity
  8
0
100
AcDbLine
 62
7
  6
CONTINUOUS
 10
-0.9339270713
 20
-11.3754789925
 11
-0.9264005425
 21
-11.3828005788
  0
LINE
  5
3CD
100
AcDbEntity
  8
0
100
AcDbLine
 62
7
  6
CONTINUOUS
 10
-4.4557207518
 20
-12.1577048866
 11
-4.4627485052
 21
-12.1428229369
  0
LINE
  5
3CE
100
AcDbEntity
  8
0
100
AcDbLine
 62
7
  6
CONTINUOUS
 10
-4.5039738624
 20
11.4072051073
 11
-4.5003374476
 21
11.4233352493
  0
LINE
  5
3CF
100
AcDbEntity
  8
0
100
AcDbLine
 62
7
  6
CONTINUOUS
 10
-4.5003587372
 20
11.4232465198
 11
-4.4962817374
 21
11.4392620364
  0
LINE
  5
3D0
100
AcDbEntity
  8
0
100
AcDbLine
 62
7
  6
CONTINUOUS
 10
-4.4963052994
 20
11.4391744413
 11
-4.4917880765
 21
11.4550815007
  0
LWPOLYLINE
  5
3D1
100
AcDbEntity
  8
0
100
AcDbPolyline
 62
7
  6
CONTINUOUS
 90
17
 70
0
 10
-4.4918137596
 20
11.4549956077
 10
-4.4868921922
 20
11.4706830111
 10
-4.4815381047
 20
11.4862430243
 10
-4.4757539896
 20
11.5016692797
 10
-4.4695553986
 20
11.51691566
 10
-4.4629426206
 20
11.5319759383
 10
-4.4559153667
 20
11.546856349
 10
-4.4484883225
 20
11.5615294684
 10
-4.4406599055
 20
11.5759981016
 10
-4.4324316983
 20
11.5902594518
 10
-4.4238231335
 20
11.6042776941
 10
-4.4148355431
 20
11.6180482605
 10
-4.4054675952
 20
11.6315757287
 10
-4.3957347264
 20
11.6448379941
 10
-4.385633853
 20
11.6578388216
 10
-4.3751680586
 20
11.6705744564
 10
-4.364362031
 20
11.6830115162
  0
LWPOLYLINE
  5
3D2
100
AcDbEntity
  8
0
100
AcDbPolyline
 62
7
  6
CONTINUOUS
 90
3
 70
0
 10
-4.4815091699
 20
11.4863236155
 10
-4.4757239241
 20
11.5017462711
 10
-4.4695243748
 20
11.5169890378
  0
LINE
  5
3D3
100
AcDbEntity
  8
0
100
AcDbLine
 62
7
  6
CONTINUOUS
 10
-0.889447615
 20
10.8172630151
 11
-0.8952547301
 21
10.808839819
  0
LINE
  5
3D4
100
AcDbEntity
  8
0
100
AcDbLine
 62
7
  6
CONTINUOUS
 10
-0.8949795692
 20
10.8092254538
 11
-0.901098458
 21
10.8009409524
  0
LINE
  5
3D5
100
AcDbEntity
  8
0
100
AcDbLine
 62
7
  6
CONTINUOUS
 10
0.0163442598
 20
11.1573537693
 11
0.0224642525
 21
11.1656385337
  0
LINE
  5
3D6
100
AcDbEntity
  8
0
100
AcDbLine
 62
7
  6
CONTINUOUS
 10
-0.9007781058
 20
10.801360106
 11
-0.9071890067
 21
10.7932467127
  0
LINE
  5
3D7
100
AcDbEntity
  8
0
100
AcDbLine
 62
7
  6
CONTINUOUS
 10
0.0221438182
 20
11.1652193333
 11
0.0285557809
 21
11.1733328549
  0
LINE
  5
3D8
100
AcDbEntity
  8
0
100
AcDbLine
 62
7
  6
CONTINUOUS
 10
-0.9068223172
 20
10.7936955385
 11
-0.913525332
 21
10.7857598509
  0
LINE
  5
3D9
100
AcDbEntity
  8
0
100
AcDbLine
 62
7
  6
CONTINUOUS
 10
0.0281890137
 20
11.1728840022
 11
0.0348930534
 21
11.1808196911
  0
LINE
  5
3DA
100
AcDbEntity
  8
0
100
AcDbLine
 62
7
  6
CONTINUOUS
 10
-0.9131094582
 20
10.7862357244
 11
-0.9201084782
 21
10.7784776201
  0
LINE
  5
3DB
100
AcDbEntity
  8
0
100
AcDbLine
 62
7
  6
CONTINUOUS
 10
0.0344770959
 20
11.180343796
 11
0.0414771162
 21
11.1881017992
  0
LINE
  5
3DC
100
AcDbEntity
  8
0
100
AcDbLine
 62
7
  6
CONTINUOUS
 10
-0.9196422741
 20
10.7789766945
 11
-0.9269195067
 21
10.7714212208
  0
LINE
  5
3DD
100
AcDbEntity
  8
0
100
AcDbLine
 62
7
  6
CONTINUOUS
 10
0.0410108151
 20
11.1876026989
 11
0.0482889963
 21
11.195157971
  0
LINE
  5
3DE
100
AcDbEntity
  8
0
100
AcDbLine
 62
7
  6
CONTINUOUS
 10
0.0477774663
 20
11.1946440533
 11
0.0553296147
 21
11.2019879395
  0
LINE
  5
3DF
100
AcDbEntity
  8
0
100
AcDbLine
 62
7
  6
CONTINUOUS
 10
2.8558298817
 20
11.3072191474
 11
2.8591147506
 21
11.3101585091
  0
LINE
  5
3E0
100
AcDbEntity
  8
0
100
AcDbLine
 62
7
  6
CONTINUOUS
 10
2.8526504785
 20
11.3046141571
 11
2.8560807226
 21
11.3074354465
  0
LINE
  5
3E1
100
AcDbEntity
  8
0
100
AcDbLine
 62
7
  6
CONTINUOUS
 10
2.8493636236
 20
11.3021448297
 11
2.852917109
 21
11.3048248019
  0
LINE
  5
3E2
100
AcDbEntity
  8
0
100
AcDbLine
 62
7
  6
CONTINUOUS
 10
3.3917513469
 20
10.798608907
 11
3.3783353938
 21
10.7890964022
  0
LINE
  5
3E3
100
AcDbEntity
  8
0
100
AcDbLine
 62
7
  6
CONTINUOUS
 10
2.8427936371
 20
11.2978122876
 11
2.8462735663
 21
11.300013222
  0
LWPOLYLINE
  5
3E4
100
AcDbEntity
  8
0
100
AcDbPolyline
 62
7
  6
CONTINUOUS
 90
4
 70
0
 10
3.3369195634
 20
-11.3737478347
 10
3.3510611339
 20
-11.3821219535
 10
3.3649588976
 20
-11.3908747025
 10
3.3786173239
 20
-11.4000111136
  0
LWPOLYLINE
  5
3E5
100
AcDbEntity
  8
0
100
AcDbPolyline
 62
7
  6
CONTINUOUS
 90
3
 70
0
 10
2.8464423709
 20
-11.9108502452
 10
2.8429591575
 20
-11.9086491497
 10
2.8390837777
 20
-11.9064297249
  0
LINE
  5
3E6
100
AcDbEntity
  8
0
100
AcDbLine
 62
7
  6
CONTINUOUS
 10
2.8498192111
 20
-11.9131868063
 11
2.8461828219
 21
-11.9106789735
  0
LWPOLYLINE
  5
3E7
100
AcDbEntity
  8
0
100
AcDbPolyline
 62
7
  6
CONTINUOUS
 90
3
 70
0
 10
3.3920319433
 20
-11.4095261463
 10
3.4051650448
 20
-11.4193908348
 10
3.4180104839
 20
-11.4296009981
  0
LINE
  5
3E8
100
AcDbEntity
  8
0
100
AcDbLine
 62
7
  6
CONTINUOUS
 10
2.8530923203
 20
-11.9156629191
 11
2.8495776668
 21
-11.9130126242
  0
LINE
  5
3E9
100
AcDbEntity
  8
0
100
AcDbLine
 62
7
  6
CONTINUOUS
 10
2.8562590563
 20
-11.9182744967
 11
2.8528668614
 21
-11.9154847477
  0
LINE
  5
3EA
100
AcDbEntity
  8
0
100
AcDbLine
 62
7
  6
CONTINUOUS
 10
2.8592960998
 20
-11.9209987493
 11
2.8560485663
 21
-11.9180928579
  0
LINE
  5
3EB
100
AcDbEntity
  8
0
100
AcDbLine
 62
7
  6
CONTINUOUS
 10
0.0552972916
 20
-11.81281528
 11
0.0477698732
 21
-11.8054939971
  0
LINE
  5
3EC
100
AcDbEntity
  8
0
100
AcDbLine
 62
7
  6
CONTINUOUS
 10
0.0482564153
 20
-11.8059829114
 11
0.0410028444
 21
-11.7984516959
  0
LINE
  5
3ED
100
AcDbEntity
  8
0
100
AcDbLine
 62
7
  6
CONTINUOUS
 10
-0.9268869827
 20
-11.3823116894
 11
-0.9196343431
 21
-11.3898431167
  0
LINE
  5
3EE
100
AcDbEntity
  8
0
100
AcDbLine
 62
7
  6
CONTINUOUS
 10
0.0414443628
 20
-11.7989243611
 11
0.0344685405
 21
-11.7911916378
  0
LINE
  5
3EF
100
AcDbEntity
  8
0
100
AcDbLine
 62
7
  6
CONTINUOUS
 10
-0.9200757795
 20
-11.3893704657
 11
-0.91310094
 21
-11.3971033018
  0
LINE
  5
3F0
100
AcDbEntity
  8
0
100
AcDbLine
 62
7
  6
CONTINUOUS
 10
-0.9134926466
 20
-11.3966550021
 11
-0.9068134186
 21
-11.4045641236
  0
LINE
  5
3F1
100
AcDbEntity
  8
0
100
AcDbLine
 62
7
  6
CONTINUOUS
 10
0.034860316
 20
-11.7916399464
 11
0.0281800805
 21
-11.7837308363
  0
LINE
  5
3F2
100
AcDbEntity
  8
0
100
AcDbLine
 62
7
  6
CONTINUOUS
 10
0.0285233978
 20
-11.7841510791
 11
0.0221349244
 21
-11.7760654954
  0
LINE
  5
3F3
100
AcDbEntity
  8
0
100
AcDbLine
 62
7
  6
CONTINUOUS
 10
-0.9071566729
 20
-11.4041438942
 11
-0.900769244
 21
-11.4122293634
  0
LINE
  5
3F4
100
AcDbEntity
  8
0
100
AcDbLine
 62
7
  6
CONTINUOUS
 10
0.0224326823
 20
-11.7764551033
 11
0.0163356121
 21
-11.7681994071
  0
LINE
  5
3F5
100
AcDbEntity
  8
0
100
AcDbLine
 62
7
  6
CONTINUOUS
 10
-0.9010669343
 20
-11.4118397878
 11
-0.8949709511
 21
-11.4200952362
  0
LINE
  5
3F6
100
AcDbEntity
  8
0
100
AcDbLine
 62
7
  6
CONTINUOUS
 10
-0.8952243549
 20
-11.4197400333
 11
-0.8894392304
 21
-11.4281333828
  0
LWPOLYLINE
  5
3F7
100
AcDbEntity
  8
0
100
AcDbPolyline
 62
7
  6
CONTINUOUS
 90
3
 70
0
 10
-4.5001647914
 20
-12.034083153
 10
-4.5037795357
 20
-12.0180406201
 10
-4.5069560609
 20
-12.001891451
  0
LINE
  5
3F8
100
AcDbEntity
  8
0
100
AcDbLine
 62
7
  6
CONTINUOUS
 10
-4.5138089359
 20
-11.9531015906
 11
-4.5151989328
 21
-11.9367472313
  0
LINE
  5
3F9
100
AcDbEntity
  8
0
100
AcDbLine
 62
250
  6
CONTINUOUS
 10
-5.3373235231
 20
0.4929169557
 11
-5.3373280257
 21
-0.1574169185
  0
LINE
  5
3FA
100
AcDbEntity
  8
0
100
AcDbLine
 62
250
  6
CONTINUOUS
 10
-5.3373235231
 20
-1.1037746859
 11
-5.3373280257
 21
-0.4534408117
  0
LWPOLYLINE
  5
3FB
100
AcDbEntity
  8
0
100
AcDbPolyline
 62
250
  6
CONTINUOUS
 90
61
 70
0
 10
-5.3373235231
 20
0.4929169557
 10
-5.3370909765
 20
0.5111043433
 10
-5.3363815313
 20
0.5292899773
 10
-5.3351951874
 20
0.5474738576
 10
-5.3335319798
 20
0.5656739988
 10
-5.3313918736
 20
0.5838723863
 10
-5.3287747637
 20
0.6020149766
 10
-5.3256782014
 20
0.6201009004
 10
-5.3221046354
 20
0.638131027
 10
-5.3180613066
 20
0.6560539205
 10
-5.3135459807
 20
0.6738686287
 10
-5.3085608919
 20
0.6915761039
 10
-5.3031199835
 20
0.7091277669
 10
-5.297222909
 20
0.7265192314
 10
-5.2908700149
 20
0.7437548838
 10
-5.2840762829
 20
0.7607993043
 10
-5.2768423382
 20
0.7776494581
 10
-5.2691675556
 20
0.7943083802
 10
-5.2610650418
 20
0.8107497548
 10
-5.2525337451
 20
0.82697484
 10
-5.243574717
 20
0.8429823778
 10
-5.2342042192
 20
0.8587422788
 10
-5.2244201556
 20
0.8742560655
 10
-5.2142246223
 20
0.8895222155
 10
-5.203640168
 20
0.9045060713
 10
-5.1926659802
 20
0.9192065395
 10
-5.1813028714
 20
0.9336247137
 10
-5.1695758282
 20
0.9477292167
 10
-5.157484997
 20
0.9615183151
 10
-5.1450302313
 20
0.9749937425
 10
-5.1322360791
 20
0.9881293218
 10
-5.1191019563
 20
1.0009245081
 10
-5.1056284469
 20
1.0133798466
 10
-5.0918418508
 20
1.0254707958
 10
-5.0777404234
 20
1.0371974974
 10
-5.0633259093
 20
1.0485598099
 10
-5.0486298417
 20
1.059532768
 10
-5.0336512031
 20
1.0701155051
 10
-5.018391011
 20
1.0803088879
 10
-5.0028838506
 20
1.0900905504
 10
-4.9871313174
 20
1.0994583815
 10
-4.9711318157
 20
1.1084144923
 10
-4.9549151442
 20
1.1169428505
 10
-4.9384824722
 20
1.1250424696
 10
-4.9218326303
 20
1.1327143362
 10
-4.904991909
 20
1.1399453766
 10
-4.8879571265
 20
1.1467362519
 10
-4.8707314646
 20
1.1530863012
 10
-4.8533507594
 20
1.1589804668
 10
-4.8358106674
 20
1.164418347
 10
-4.8181155321
 20
1.1694003436
 10
-4.8003142201
 20
1.1739126055
 10
-4.7824059127
 20
1.1779528571
 10
-4.7643914285
 20
1.1815233739
 10
-4.7463220903
 20
1.1846171309
 10
-4.7281972509
 20
1.1872316861
 10
-4.7100175575
 20
1.1893694814
 10
-4.691836274
 20
1.1910308171
 10
-4.6736711549
 20
1.1922157933
 10
-4.6555044457
 20
1.1929243099
 10
-4.6373361462
 20
1.1931563669
  0
LINE
  5
3FC
100
AcDbEntity
  8
0
100
AcDbLine
 62
7
  6
CONTINUOUS
 10
-4.5121666783
 20
11.3585892098
 11
-4.5098686507
 21
11.374937945
  0
LINE
  5
3FD
100
AcDbEntity
  8
0
100
AcDbLine
 62
7
  6
CONTINUOUS
 10
-4.509882364
 20
11.3748492165
 11
-4.50713458
 21
11.3911462826
  0
LINE
  5
3FE
100
AcDbEntity
  8
0
100
AcDbLine
 62
7
  6
CONTINUOUS
 10
-4.5071508857
 20
11.3910569357
 11
-4.5039549892
 21
11.4072944294
  0
LINE
  5
3FF
100
AcDbEntity
  8
0
100
AcDbLine
 62
7
  6
CONTINUOUS
 10
-0.8620177028
 20
10.8688158778
 11
-0.8659392461
 21
10.8597450719
  0
LINE
  5
400
100
AcDbEntity
  8
0
100
AcDbLine
 62
7
  6
CONTINUOUS
 10
-0.8658817273
 20
10.8598706171
 11
-0.8701233422
 21
10.8508773888
  0
LINE
  5
401
100
AcDbEntity
  8
0
100
AcDbLine
 62
7
  6
CONTINUOUS
 10
-0.8700368844
 20
10.85105228
 11
-0.8745908091
 21
10.842157624
  0
LINE
  5
402
100
AcDbEntity
  8
0
100
AcDbLine
 62
7
  6
CONTINUOUS
 10
-0.0086032374
 20
11.1155247818
 11
-0.0040483191
 21
11.1244201362
  0
LINE
  5
403
100
AcDbEntity
  8
0
100
AcDbLine
 62
7
  6
CONTINUOUS
 10
-0.8744721537
 20
10.8423803967
 11
-0.8793419597
 21
10.8335860313
  0
LINE
  5
404
100
AcDbEntity
  8
0
100
AcDbLine
 62
7
  6
CONTINUOUS
 10
-0.0041670803
 20
11.1241971962
 11
0.0007037744
 21
11.1329922146
  0
LINE
  5
405
100
AcDbEntity
  8
0
100
AcDbLine
 62
7
  6
CONTINUOUS
 10
-0.8791883719
 20
10.8338528949
 11
-0.884376481
 21
10.8251623603
  0
LINE
  5
406
100
AcDbEntity
  8
0
100
AcDbLine
 62
7
  6
CONTINUOUS
 10
0.0005500759
 20
11.1327251937
 11
0.0057392753
 21
11.1414163226
  0
LINE
  5
407
100
AcDbEntity
  8
0
100
AcDbLine
 62
7
  6
CONTINUOUS
 10
-0.8841847023
 20
10.82547185
 11
-0.8896798942
 21
10.8169138658
  0
LINE
  5
408
100
AcDbEntity
  8
0
100
AcDbLine
 62
7
  6
CONTINUOUS
 10
0.0055473886
 20
11.1411067014
 11
0.0110436771
 21
11.1496651681
  0
LINE
  5
409
100
AcDbEntity
  8
0
100
AcDbLine
 62
7
  6
CONTINUOUS
 10
0.0108112951
 20
11.1493159148
 11
0.0166195144
 21
11.1577394803
  0
LINE
  5
40A
100
AcDbEntity
  8
0
100
AcDbLine
 62
7
  6
CONTINUOUS
 10
2.864606543
 20
11.3157398443
 11
2.8674160246
 21
11.3189793994
  0
LINE
  5
40B
100
AcDbEntity
  8
0
100
AcDbLine
 62
7
  6
CONTINUOUS
 10
2.8618079139
 20
11.3127819915
 11
2.8647839482
 21
11.3159367866
  0
LINE
  5
40C
100
AcDbEntity
  8
0
100
AcDbLine
 62
7
  6
CONTINUOUS
 10
2.8588834509
 20
11.3099424319
 11
2.8620141421
 21
11.3129914393
  0
LINE
  5
40D
100
AcDbEntity
  8
0
100
AcDbLine
 62
7
  6
CONTINUOUS
 10
2.8621983711
 20
-11.9238330819
 11
2.8591041478
 21
-11.9208194076
  0
LINE
  5
40E
100
AcDbEntity
  8
0
100
AcDbLine
 62
7
  6
CONTINUOUS
 10
3.4548046262
 20
-11.4622860692
 11
3.4664709261
 21
-11.4738515105
  0
LINE
  5
40F
100
AcDbEntity
  8
0
100
AcDbLine
 62
7
  6
CONTINUOUS
 10
2.8649709499
 20
-11.9267800887
 11
2.862030353
 21
-11.9236624954
  0
LINE
  5
410
100
AcDbEntity
  8
0
100
AcDbLine
 62
7
  6
CONTINUOUS
 10
2.8676057549
 20
-11.9298247639
 11
2.8648304348
 21
-11.926624022
  0
LINE
  5
411
100
AcDbEntity
  8
0
100
AcDbLine
 62
7
  6
CONTINUOUS
 10
0.0165890953
 20
-11.7685546707
 11
0.0108028831
 21
-11.7601609679
  0
LINE
  5
412
100
AcDbEntity
  8
0
100
AcDbLine
 62
7
  6
CONTINUOUS
 10
-0.8896507959
 20
-11.4278152843
 11
-0.8841764254
 21
-11.4363430156
  0
LINE
  5
413
100
AcDbEntity
  8
0
100
AcDbLine
 62
7
  6
CONTINUOUS
 10
0.0110145377
 20
-11.7604791542
 11
0.0055390864
 21
-11.7519509571
  0
LINE
  5
414
100
AcDbEntity
  8
0
100
AcDbLine
 62
7
  6
CONTINUOUS
 10
-0.8843487303
 20
-11.4360648543
 11
-0.8791801926
 21
-11.4447249188
  0
LINE
  5
415
100
AcDbEntity
  8
0
100
AcDbLine
 62
7
  6
CONTINUOUS
 10
0.0057114862
 20
-11.7522292335
 11
0.0005418729
 21
-11.7435685916
  0
LINE
  5
416
100
AcDbEntity
  8
0
100
AcDbLine
 62
7
  6
CONTINUOUS
 10
-0.879315685
 20
-11.4444894263
 11
-0.874464191
 21
-11.4532530911
  0
LINE
  5
417
100
AcDbEntity
  8
0
100
AcDbLine
 62
7
  6
CONTINUOUS
 10
0.000677464
 20
-11.7438042251
 11
-0.004175065
 21
-11.7350399244
  0
LINE
  5
418
100
AcDbEntity
  8
0
100
AcDbLine
 62
7
  6
CONTINUOUS
 10
-0.0040730591
 20
-11.735231458
 11
-0.0086107951
 21
-11.7263672082
  0
LINE
  5
419
100
AcDbEntity
  8
0
100
AcDbLine
 62
7
  6
CONTINUOUS
 10
-0.874566102
 20
-11.4530617086
 11
-0.8700293467
 21
-11.4619252764
  0
LINE
  5
41A
100
AcDbEntity
  8
0
100
AcDbLine
 62
7
  6
CONTINUOUS
 10
-0.870100328
 20
-11.4617818403
 11
-0.8658747337
 21
-11.4707437277
  0
LWPOLYLINE
  5
41B
100
AcDbEntity
  8
0
100
AcDbPolyline
 62
7
  6
CONTINUOUS
 90
14
 70
0
 10
-0.8659180163
 20
-11.470649679
 10
-0.8620325686
 20
-11.479637512
 10
-0.8584457897
 20
-11.4887452195
 10
-0.8551558748
 20
-11.4979729184
 10
-0.8521708119
 20
-11.5072932507
 10
-0.849490215
 20
-11.5167072426
 10
-0.8471144701
 20
-11.5262138655
 10
-0.8450527226
 20
-11.535782681
 10
-0.8433070089
 20
-11.5454136542
 10
-0.8418752926
 20
-11.5551068182
 10
-0.8407606103
 20
-11.5648318365
 10
-0.8399628595
 20
-11.5745891768
 10
-0.8394821428
 20
-11.5843783705
 10
-0.8393218036
 20
-11.5941676769
  0
LINE
  5
41C
100
AcDbEntity
  8
0
100
AcDbLine
 62
7
  6
CONTINUOUS
 10
-4.5161400435
 20
-11.9203512606
 11
-4.5166329763
 21
-11.9039212765
  0
LWPOLYLINE
  5
41D
100
AcDbEntity
  8
0
100
AcDbPolyline
 62
250
  6
CONTINUOUS
 90
46
 70
0
 10
-5.1373356411
 20
-0.6534331963
 10
-5.1374579907
 20
-0.646453901
 10
-5.1378238276
 20
-0.639483108
 10
-5.1384327061
 20
-0.6325293094
 10
-5.1392838843
 20
-0.6256009765
 10
-5.1403763255
 20
-0.6187065496
 10
-5.1417086987
 20
-0.6118544277
 10
-5.1432793808
 20
-0.6050529581
 10
-5.1450864584
 20
-0.5983104268
 10
-5.14712773
 20
-0.5916350475
 10
-5.1494007089
 20
-0.5850349524
 10
-5.151902626
 20
-0.578518182
 10
-5.1546304336
 20
-0.5720926752
 10
-5.1575808085
 20
-0.5657662596
 10
-5.1607501564
 20
-0.5595466423
 10
-5.1641346164
 20
-0.5534414003
 10
-5.1677300655
 20
-0.547457971
 10
-5.1715321235
 20
-0.5416036437
 10
-5.1755361587
 20
-0.5358855503
 10
-5.1797372932
 20
-0.5303106567
 10
-5.1841304092
 20
-0.5248857544
 10
-5.1887101547
 20
-0.5196174522
 10
-5.1934709507
 20
-0.5145121681
 10
-5.1984069974
 20
-0.5095761214
 10
-5.2035122816
 20
-0.5048153254
 10
-5.2087805838
 20
-0.5002355798
 10
-5.2142054861
 20
-0.4958424638
 10
-5.2197803797
 20
-0.4916413293
 10
-5.2254984731
 20
-0.4876372941
 10
-5.2313528004
 20
-0.4838352361
 10
-5.2373362296
 20
-0.4802397871
 10
-5.2434414717
 20
-0.4768553271
 10
-5.249661089
 20
-0.4736859791
 10
-5.2559875045
 20
-0.4707356043
 10
-5.2624130114
 20
-0.4680077967
 10
-5.2689297818
 20
-0.4655058795
 10
-5.2755298769
 20
-0.4632329006
 10
-5.2822052561
 20
-0.461191629
 10
-5.2889477875
 20
-0.4593845514
 10
-5.295749257
 20
-0.4578138693
 10
-5.302601379
 20
-0.4564814961
 10
-5.3094958059
 20
-0.455389055
 10
-5.3164241388
 20
-0.4545378767
 10
-5.3233779374
 20
-0.4539289983
 10
-5.3303487304
 20
-0.4535631614
 10
-5.3373280257
 20
-0.4534408117
  0
LWPOLYLINE
  5
41E
100
AcDbEntity
  8
0
100
AcDbPolyline
 62
7
  6
CONTINUOUS
 90
18
 70
0
 10
-3.7681191378
 20
-11.9896590673
 10
-3.7681035702
 20
-11.9938044179
 10
-3.7679124809
 20
-11.9979550325
 10
-3.7675446755
 20
-12.0021145298
 10
-3.7670013484
 20
-12.0062792909
 10
-3.766283261
 20
-12.0104222524
 10
-3.7653897837
 20
-12.014540639
 10
-3.7643215459
 20
-12.0186372261
 10
-3.7630811975
 20
-12.0226932766
 10
-3.7616679196
 20
-12.0267094744
 10
-3.7600825309
 20
-12.0306851361
 10
-3.7583301372
 20
-12.0345994732
 10
-3.7564104644
 20
-12.0384517243
 10
-3.7543237865
 20
-12.0422426516
 10
-3.7520760317
 20
-12.0459537529
 10
-3.7496650835
 20
-12.0495866955
 10
-3.7470930583
 20
-12.0531398129
 10
-3.7443722339
 20
-12.0565896028
  0
LINE
  5
41F
100
AcDbEntity
  8
0
100
AcDbLine
 62
250
  6
CONTINUOUS
 10
-5.1373311385
 20
-1.1034534907
 11
-5.1373356411
 21
-0.6534331963
  0
LINE
  5
420
100
AcDbEntity
  8
0
100
AcDbLine
 62
250
  6
CONTINUOUS
 10
-5.1373356411
 20
0.0425754661
 11
-5.1373311385
 21
0.4925955757
  0
LINE
  5
421
100
AcDbEntity
  8
0
100
AcDbLine
 62
7
  6
CONTINUOUS
 10
-5.1255376747
 20
0.4808041536
 11
-5.1255376747
 21
0.0307774997
  0
LINE
  5
422
100
AcDbEntity
  8
0
100
AcDbLine
 62
7
  6
CONTINUOUS
 10
-5.1255376747
 20
-0.64163523
 11
-5.1255376747
 21
-1.0916618838
  0
LINE
  5
423
100
AcDbEntity
  8
0
100
AcDbLine
 62
250
  6
CONTINUOUS
 10
-4.6373361462
 20
1.1931563669
 11
-4.6373361462
 21
0.9925645481
  0
LINE
  5
424
100
AcDbEntity
  8
0
100
AcDbLine
 62
250
  6
CONTINUOUS
 10
-4.6373361462
 20
-1.8040140971
 11
-4.6373361462
 21
-1.6034222784
  0
LWPOLYLINE
  5
425
100
AcDbEntity
  8
0
100
AcDbPolyline
 62
7
  6
CONTINUOUS
 90
19
 70
0
 10
-3.7681103458
 20
-11.9892049878
 10
-3.7681154671
 20
-11.9932950432
 10
-3.7679480578
 20
-11.9973994674
 10
-3.7676065651
 20
-12.0015248565
 10
-3.7670925418
 20
-12.0056646142
 10
-3.7664052942
 20
-12.009786081
 10
-3.7655435742
 20
-12.0138854879
 10
-3.7645086299
 20
-12.0179666042
 10
-3.7633035113
 20
-12.0220080782
 10
-3.7619311131
 20
-12.0260038806
 10
-3.7603885407
 20
-12.0299600412
 10
-3.7586701603
 20
-12.0338732975
 10
-3.7567750952
 20
-12.0377488572
 10
-3.7547042221
 20
-12.041581513
 10
-3.7524545367
 20
-12.04535238
 10
-3.7500205097
 20
-12.0490675706
 10
-3.7474076705
 20
-12.052720973
 10
-3.7446296019
 20
-12.0562753668
 10
-3.7415067029
 20
-12.0599282314
  0
LWPOLYLINE
  5
426
100
AcDbEntity
  8
0
100
AcDbPolyline
 62
250
  6
CONTINUOUS
 90
61
 70
0
 10
-5.1373311385
 20
0.4925955757
 10
-5.1371628871
 20
0.505573296
 10
-5.1366566217
 20
0.5185658903
 10
-5.1358108389
 20
0.5315645019
 10
-5.1346239243
 20
0.5445634732
 10
-5.1330950108
 20
0.5575504806
 10
-5.1312248399
 20
0.5705066409
 10
-5.1290136133
 20
0.5834229682
 10
-5.1264617887
 20
0.59629036
 10
-5.1235723988
 20
0.6090899741
 10
-5.1203472348
 20
0.6218126019
 10
-5.1167881636
 20
0.6344497386
 10
-5.1129001426
 20
0.6469840051
 10
-5.1086872066
 20
0.659404182
 10
-5.1041518336
 20
0.6717046131
 10
-5.0992976881
 20
0.6838766082
 10
-5.0941293858
 20
0.695910029
 10
-5.0886501217
 20
0.7077987835
 10
-5.0828613466
 20
0.7195402328
 10
-5.0767664594
 20
0.7311273322
 10
-5.0703701161
 20
0.7425510868
 10
-5.0636753695
 20
0.7538057983
 10
-5.0566857004
 20
0.7648850563
 10
-5.0494065687
 20
0.7757796707
 10
-5.0418443015
 20
0.7864799598
 10
-5.0340042588
 20
0.7969783292
 10
-5.0258916424
 20
0.8072678041
 10
-5.0175131005
 20
0.8173400322
 10
-5.0088751452
 20
0.8271874254
 10
-4.9999831596
 20
0.8368040802
 10
-4.9908423884
 20
0.8461844177
 10
-4.9814590951
 20
0.8553220228
 10
-4.9718397395
 20
0.8642106168
 10
-4.9619899663
 20
0.8728449318
 10
-4.9519156908
 20
0.8812196095
 10
-4.9416245216
 20
0.8893281561
 10
-4.931124896
 20
0.8971639
 10
-4.9204238562
 20
0.904721634
 10
-4.9095289639
 20
0.911996065
 10
-4.8984498332
 20
0.9189809516
 10
-4.8871957029
 20
0.925670836
 10
-4.8757729518
 20
0.9320622872
 10
-4.8641870739
 20
0.9381523881
 10
-4.8524469888
 20
0.9439365262
 10
-4.8405598076
 20
0.9494112736
 10
-4.8285281672
 20
0.954575189
 10
-4.8163580524
 20
0.9594251252
 10
-4.8040596979
 20
0.9639564312
 10
-4.7916421066
 20
0.9681653509
 10
-4.7791109715
 20
0.9720494288
 10
-4.7664774793
 20
0.9756046765
 10
-4.753759228
 20
0.9788261216
 10
-4.7409648146
 20
0.981711929
 10
-4.7281033561
 20
0.9842603823
 10
-4.7151936376
 20
0.9864685113
 10
-4.7022447885
 20
0.9883359002
 10
-4.6892657505
 20
0.9898623994
 10
-4.6762752366
 20
0.991047327
 10
-4.6632855021
 20
0.9918915854
 10
-4.6503022403
 20
0.9923968144
 10
-4.6373342895
 20
0.9925645481
  0
LWPOLYLINE
  5
427
100
AcDbEntity
  8
0
100
AcDbPolyline
 62
7
  6
CONTINUOUS
 90
5
 70
0
 10
-4.5154180151
 20
-11.8547330124
 10
-4.5141177888
 20
-11.8383920287
 10
-4.5123699565
 20
-11.8220813118
 10
-4.5101758449
 20
-11.805808753
 10
-4.5075418006
 20
-11.789621935
  0
LWPOLYLINE
  5
428
100
AcDbEntity
  8
0
100
AcDbPolyline
 62
250
  6
CONTINUOUS
 90
13
 70
0
 10
-10.9612939626
 20
-22.3623726371
 10
-10.9608750996
 20
-22.3608278637
 10
-10.9604574925
 20
-22.35870803
 10
-10.9600411415
 20
-22.3560143662
 10
-10.9596258123
 20
-22.3527484396
 10
-10.9592117391
 20
-22.3489121373
 10
-10.9587996243
 20
-22.3445076551
 10
-10.9583894635
 20
-22.3395375151
 10
-10.9579812611
 20
-22.3340045959
 10
-10.9575757333
 20
-22.3279121159
 10
-10.9571728896
 20
-22.3212636095
 10
-10.9567727205
 20
-22.3140629051
 10
-10.9559824716
 20
-22.2980218012
  0
LINE
  5
429
100
AcDbEntity
  8
0
100
AcDbLine
 62
7
  6
CONTINUOUS
 10
-0.8551721641
 20
10.8870669729
 11
-0.858463657
 21
10.8778398654
  0
LINE
  5
42A
100
AcDbEntity
  8
0
100
AcDbLine
 62
7
  6
CONTINUOUS
 10
-0.8584454676
 20
10.8778881854
 11
-0.8620520602
 21
10.8687326626
  0
LINE
  5
42B
100
AcDbEntity
  8
0
100
AcDbLine
 62
7
  6
CONTINUOUS
 10
-0.0201969987
 20
11.0886872058
 11
-0.0165896487
 21
11.0978433567
  0
LINE
  5
42C
100
AcDbEntity
  8
0
100
AcDbLine
 62
7
  6
CONTINUOUS
 10
-0.0166240465
 20
11.0977600553
 11
-0.0127016521
 21
11.1068315525
  0
LINE
  5
42D
100
AcDbEntity
  8
0
100
AcDbLine
 62
7
  6
CONTINUOUS
 10
-0.0127592379
 20
11.1067058742
 11
-0.0085166893
 21
11.1156998312
  0
LINE
  5
42E
100
AcDbEntity
  8
0
100
AcDbLine
 62
7
  6
CONTINUOUS
 10
2.8744777316
 20
11.3286756754
 11
2.8765588853
 21
11.3321034516
  0
LINE
  5
42F
100
AcDbEntity
  8
0
100
AcDbLine
 62
250
  6
CONTINUOUS
 10
10.1834581108
 20
21.9028090754
 11
10.0826465736
 21
21.7515149068
  0
LINE
  5
430
100
AcDbEntity
  8
0
100
AcDbLine
 62
7
  6
CONTINUOUS
 10
2.8721982255
 20
11.3252591951
 11
2.8744485
 21
11.3286297432
  0
LINE
  5
431
100
AcDbEntity
  8
0
100
AcDbLine
 62
7
  6
CONTINUOUS
 10
2.8698016988
 20
11.3219784466
 11
2.8722618992
 21
11.3253474647
  0
LINE
  5
432
100
AcDbEntity
  8
0
100
AcDbLine
 62
7
  6
CONTINUOUS
 10
2.8672707727
 20
11.3188046776
 11
2.8699078267
 21
11.3221147997
  0
LINE
  5
433
100
AcDbEntity
  8
0
100
AcDbLine
 62
7
  6
CONTINUOUS
 10
3.5095116683
 20
10.9121469897
 11
3.4991997817
 21
10.8994091378
  0
LINE
  5
434
100
AcDbEntity
  8
0
100
AcDbLine
 62
250
  6
CONTINUOUS
 10
-5.3373280257
 20
-0.4534408117
 11
-5.3225521116
 21
-0.4386648976
  0
LINE
  5
435
100
AcDbEntity
  8
RACCORDO
100
AcDbLine
 62
250
  6
CONTINUOUS
 10
-10.4870194298
 20
-0.1792482618
 11
-10.5393846245
 21
-0.2054288651
  0
LINE
  5
436
100
AcDbEntity
  8
RACCORDO
100
AcDbLine
 62
7
  6
CONTINUOUS
 10
-10.4397938185
 20
-0.1792482618
 11
-10.4499168906
 21
-0.1843094123
  0
LWPOLYLINE
  5
437
100
AcDbEntity
  8
0
100
AcDbPolyline
 62
7
  6
CONTINUOUS
 90
2
 70
0
 43
0.3500000006
 10
17.9762018967
 20
-3.6982861404
 10
16.4762014389
 20
-3.6982861404
  0
LINE
  5
438
100
AcDbEntity
  8
DRAFT
100
AcDbLine
 62
7
  6
CONTINUOUS
 10
-10.3393236945
 20
-0.4054288651
 11
-10.2869584997
 21
-0.4316094685
  0
LINE
  5
439
100
AcDbEntity
  8
0
100
AcDbLine
 62
250
  6
CONTINUOUS
 10
-5.3225521116
 20
-0.1721928327
 11
-5.3373280257
 21
-0.1574169185
  0
LINE
  5
43A
100
AcDbEntity
  8
0
100
AcDbLine
 62
7
  6
CONTINUOUS
 10
3.4887941656
 20
-11.4978733012
 11
3.4994511051
 21
-11.5103296411
  0
LINE
  5
43B
100
AcDbEntity
  8
0
100
AcDbLine
 62
7
  6
CONTINUOUS
 10
2.8701002866
 20
-11.9329626377
 11
2.8674955186
 21
-11.929692143
  0
LINE
  5
43C
100
AcDbEntity
  8
0
100
AcDbLine
 62
7
  6
CONTINUOUS
 10
3.5097589285
 20
-11.5230659622
 11
3.5197221324
 21
-11.536088915
  0
LINE
  5
43D
100
AcDbEntity
  8
0
100
AcDbLine
 62
250
  6
CONTINUOUS
 10
10.0826465736
 20
-22.3623726371
 11
10.1834581108
 21
-22.5136668057
  0
LWPOLYLINE
  5
43E
100
AcDbEntity
  8
0
100
AcDbPolyline
 62
7
  6
CONTINUOUS
 90
4
 70
0
 10
2.8767731581
 20
-11.942984257
 10
2.8746719067
 20
-11.9395242252
 10
2.8724224648
 20
-11.9361516362
 10
2.8700264907
 20
-11.9328685928
  0
LINE
  5
43F
100
AcDbEntity
  8
0
100
AcDbLine
 62
7
  6
CONTINUOUS
 10
-0.0085397334
 20
-11.7265107873
 11
-0.0127662497
 21
-11.7175481869
  0
LWPOLYLINE
  5
440
100
AcDbEntity
  8
0
100
AcDbPolyline
 62
7
  6
CONTINUOUS
 90
3
 70
0
 10
-0.0127229084
 20
-11.7176423546
 10
-0.0166091635
 20
-11.7086539186
 10
-0.020196688
 20
-11.6995455981
  0
LWPOLYLINE
  5
441
100
AcDbEntity
  8
0
100
AcDbPolyline
 62
7
  6
CONTINUOUS
 90
3
 70
0
 10
-0.8620112326
 20
-11.4796892071
 10
-0.8584394306
 20
-11.4887620289
 10
-0.8551587404
 20
-11.4979618759
  0
LINE
  5
442
100
AcDbEntity
  8
0
100
AcDbLine
 62
7
  6
CONTINUOUS
 10
-0.0202030495
 20
-11.6995287886
 11
-0.0234843947
 21
-11.6903284087
  0
LWPOLYLINE
  5
443
100
AcDbEntity
  8
0
100
AcDbPolyline
 62
7
  6
CONTINUOUS
 90
4
 70
0
 10
-0.8521782818
 20
-11.5072685631
 10
-0.8494961113
 20
-11.5166903334
 10
-0.8471141723
 20
-11.526218941
 10
-0.845047414
 20
-11.5358094693
  0
LINE
  5
444
100
AcDbEntity
  8
0
100
AcDbLine
 62
7
  6
CONTINUOUS
 10
-3.7681646511
 20
11.3747217155
 11
-3.7678073589
 21
11.3703227192
  0
LINE
  5
445
100
AcDbEntity
  8
0
100
AcDbLine
 62
7
  6
CONTINUOUS
 10
-3.7679380463
 20
-11.9851421723
 11
-3.7681191378
 21
-11.9896590673
  0
LINE
  5
446
100
AcDbEntity
  8
0
100
AcDbLine
 62
7
  6
CONTINUOUS
 10
-3.7675999424
 20
-11.9811101982
 11
-3.7679620071
 21
-11.9855351877
  0
LINE
  5
447
100
AcDbEntity
  8
0
100
AcDbLine
 62
7
  6
CONTINUOUS
 10
-0.8407549027
 20
10.9540324844
 11
-0.8418817868
 21
10.9441997146
  0
LINE
  5
448
100
AcDbEntity
  8
0
100
AcDbLine
 62
7
  6
CONTINUOUS
 10
-3.7670946602
 20
-11.9771054643
 11
-3.7676314855
 21
-11.9814311499
  0
LWPOLYLINE
  5
449
100
AcDbEntity
  8
0
100
AcDbPolyline
 62
7
  6
CONTINUOUS
 90
8
 70
0
 10
-0.8418697545
 20
10.9443016173
 10
-0.8433026981
 20
10.9345871544
 10
-0.8450508294
 20
10.9249345779
 10
-0.8471181819
 20
10.915344008
 10
-0.8495007221
 20
10.9058153262
 10
-0.8521834448
 20
10.8963936584
 10
-0.855164365
 20
10.8870874135
 10
-0.8584454676
 20
10.8778881854
  0
LWPOLYLINE
  5
44A
100
AcDbEntity
  8
0
100
AcDbPolyline
 62
7
  6
CONTINUOUS
 90
3
 70
0
 10
-0.8450624397
 20
10.9248760255
 10
-0.8471258413
 20
10.9153072716
 10
-0.8495032563
 20
10.9058006771
  0
LINE
  5
44B
100
AcDbEntity
  8
0
100
AcDbLine
 62
7
  6
CONTINUOUS
 10
-0.0335829108
 20
11.0416965135
 11
-0.0315190385
 21
11.0512657637
  0
LWPOLYLINE
  5
44C
100
AcDbEntity
  8
0
100
AcDbPolyline
 62
7
  6
CONTINUOUS
 90
3
 70
0
 10
-4.5044679902
 20
-11.7735291107
 10
-4.5009542471
 20
-11.7575220321
 10
-4.4970064188
 20
-11.7416235319
  0
LINE
  5
44D
100
AcDbEntity
  8
0
100
AcDbLine
 62
7
  6
CONTINUOUS
 10
-0.0264582829
 20
11.0701873108
 11
-0.0234709867
 21
11.0795077989
  0
LWPOLYLINE
  5
44E
100
AcDbEntity
  8
0
100
AcDbPolyline
 62
7
  6
CONTINUOUS
 90
7
 70
0
 10
2.8765508025
 20
11.3320879595
 10
2.8785068529
 20
11.3356359745
 10
2.8803099585
 20
11.3392630009
 10
2.8819613517
 20
11.3429732929
 10
2.8834598001
 20
11.3467625955
 10
2.8847949139
 20
11.3506073582
 10
2.8859647178
 20
11.3545040279
  0
LINE
  5
44F
100
AcDbEntity
  8
0
100
AcDbLine
 62
250
  6
CONTINUOUS
 10
10.6843689962
 20
21.4053184426
 11
10.5823419871
 21
21.2522001394
  0
LINE
  5
450
100
AcDbEntity
  8
0
100
AcDbLine
 62
250
  6
CONTINUOUS
 10
-5.1373356411
 20
-0.6534331963
 11
-5.1255376747
 21
-0.64163523
  0
LINE
  5
451
100
AcDbEntity
  8
0
100
AcDbLine
 62
250
  6
CONTINUOUS
 10
-4.6255567132
 20
-1.5916428454
 11
-4.6373341049
 21
-1.6034222784
  0
LINE
  5
452
100
AcDbEntity
  8
0
100
AcDbLine
 62
250
  6
CONTINUOUS
 10
-5.1255376747
 20
-1.0916618838
 11
-5.1373311385
 21
-1.1034534907
  0
LINE
  5
453
100
AcDbEntity
  8
0
100
AcDbLine
 62
250
  6
CONTINUOUS
 10
10.7106763055
 20
-0.6053755681
 11
10.5284831879
 21
-0.6509065021
  0
LINE
  5
454
100
AcDbEntity
  8
0
100
AcDbLine
 62
250
  6
CONTINUOUS
 10
10.5106153441
 20
-0.4054288651
 11
10.3286049523
 21
-0.4509141351
  0
LWPOLYLINE
  5
455
100
AcDbEntity
  8
0
100
AcDbPolyline
 62
250
  6
CONTINUOUS
 90
8
 70
0
 10
10.3286049523
 20
-0.4509141351
 10
10.3281850367
 20
-0.4509885799
 10
10.3275242839
 20
-0.451062778
 10
10.3266226938
 20
-0.4511367292
 10
10.3254791404
 20
-0.4512104953
 10
10.3240947498
 20
-0.4512840145
 10
10.3224728997
 20
-0.451357102
 10
10.3206130193
 20
-0.4514297548
  0
LWPOLYLINE
  5
456
100
AcDbEntity
  8
0
100
AcDbPolyline
 62
250
  6
CONTINUOUS
 90
6
 70
0
 10
10.5284831879
 20
-0.6509065086
 10
10.5277847903
 20
-0.6509849186
 10
10.5266826936
 20
-0.6510630796
 10
10.5251778282
 20
-0.6511409836
 10
10.5232714773
 20
-0.6512186757
 10
10.5209652046
 20
-0.651296095
  0
LINE
  5
457
100
AcDbEntity
  8
0
100
AcDbLine
 62
250
  6
CONTINUOUS
 10
3.7586887573
 20
-1.8040140971
 11
-4.6373361462
 21
-1.8040140971
  0
LWPOLYLINE
  5
458
100
AcDbEntity
  8
0
100
AcDbPolyline
 62
250
  6
CONTINUOUS
 90
61
 70
0
 10
-4.6373361462
 20
-1.8040140971
 10
-4.655507772
 20
-1.80378196
 10
-4.6736778178
 20
-1.8030731831
 10
-4.6918462836
 20
-1.8018877665
 10
-4.7100311401
 20
-1.8002257606
 10
-4.7282144167
 20
-1.7980871148
 10
-4.746342201
 20
-1.7954716781
 10
-4.7644136303
 20
-1.7923770088
 10
-4.7824295673
 20
-1.7888055484
 10
-4.8003386891
 20
-1.7847644699
 10
-4.8181400515
 20
-1.7802515446
 10
-4.8358345985
 20
-1.7752690012
 10
-4.8533738393
 20
-1.7698306992
 10
-4.8707534024
 20
-1.7639362931
 10
-4.8879776593
 20
-1.7575861283
 10
-4.9050112332
 20
-1.7507951016
 10
-4.921851088
 20
-1.7435638438
 10
-4.9385002599
 20
-1.7358917241
 10
-4.9549324805
 20
-1.7277917464
 10
-4.9711490106
 20
-1.7192628646
 10
-4.9871485895
 20
-1.7103061247
 10
-5.0029011664
 20
-1.7009376692
 10
-5.0184082797
 20
-1.6911553984
 10
-5.0336683911
 20
-1.6809614119
 10
-5.0486468351
 20
-1.6703781508
 10
-5.0633425311
 20
-1.6594047959
 10
-5.0777565597
 20
-1.6480421664
 10
-5.0918574974
 20
-1.6363151609
 10
-5.1056436173
 20
-1.6242239207
 10
-5.1191166463
 20
-1.6117683045
 10
-5.1322503421
 20
-1.5989727872
 10
-5.1450441617
 20
-1.5858367826
 10
-5.1574986481
 20
-1.5723608767
 10
-5.1695891873
 20
-1.5585713035
 10
-5.1813159259
 20
-1.544466312
 10
-5.1926787173
 20
-1.530047653
 10
-5.2036525082
 20
-1.5153468136
 10
-5.2142364388
 20
-1.5003627634
 10
-5.2244313689
 20
-1.4850965327
 10
-5.2342148243
 20
-1.4695826992
 10
-5.2435846975
 20
-1.4538228429
 10
-5.2525430961
 20
-1.4378153838
 10
-5.2610738685
 20
-1.4215901595
 10
-5.2691760228
 20
-1.4051483368
 10
-5.2768505509
 20
-1.3884887487
 10
-5.2840842772
 20
-1.371637732
 10
-5.2908778574
 20
-1.3545921061
 10
-5.2972306359
 20
-1.3373550515
 10
-5.30312747
 20
-1.3199624467
 10
-5.3085679576
 20
-1.3024099327
 10
-5.3135525008
 20
-1.2847018685
 10
-5.3180671645
 20
-1.2668872096
 10
-5.3221096677
 20
-1.2489651295
 10
-5.3256822913
 20
-1.2309364546
 10
-5.3287779423
 20
-1.2128526205
 10
-5.3313941717
 20
-1.1947129745
 10
-5.3335334284
 20
-1.1765181693
 10
-5.3351959666
 20
-1.1583215984
 10
-5.3363818707
 20
-1.1401410598
 10
-5.3370910562
 20
-1.1219587557
 10
-5.3373235231
 20
-1.1037746859
  0
LINE
  5
459
100
AcDbEntity
  8
0
100
AcDbLine
 62
250
  6
CONTINUOUS
 10
-11.4071305769
 20
-0.6509065021
 11
-11.5893236945
 21
-0.6053755681
  0
LINE
  5
45A
100
AcDbEntity
  8
0
100
AcDbLine
 62
250
  6
CONTINUOUS
 10
-11.2072523412
 20
-0.4509141351
 11
-11.3892627331
 21
-0.4054288651
  0
LINE
  5
45B
100
AcDbEntity
  8
0
100
AcDbLine
 62
250
  6
CONTINUOUS
 10
-5.1255376747
 20
0.0307774997
 11
-5.1373356411
 21
0.0425754661
  0
LINE
  5
45C
100
AcDbEntity
  8
0
100
AcDbLine
 62
250
  6
CONTINUOUS
 10
-5.1255376747
 20
0.4808041536
 11
-5.1373311385
 21
0.4925955757
  0
LINE
  5
45D
100
AcDbEntity
  8
0
100
AcDbLine
 62
250
  6
CONTINUOUS
 10
-4.6255567132
 20
0.9807851151
 11
-4.6373342896
 21
0.9925645481
  0
LWPOLYLINE
  5
45E
100
AcDbEntity
  8
0
100
AcDbPolyline
 62
7
  6
CONTINUOUS
 90
3
 70
0
 10
3.5293362201
 20
-11.5493918392
 10
3.5385729489
 20
-11.5629360383
 10
3.5474267757
 20
-11.5767154081
  0
LINE
  5
45F
100
AcDbEntity
  8
0
100
AcDbLine
 62
250
  6
CONTINUOUS
 10
10.5823419871
 20
-21.8630578697
 11
10.6843689962
 21
-22.0161761729
  0
LWPOLYLINE
  5
460
100
AcDbEntity
  8
0
100
AcDbPolyline
 62
7
  6
CONTINUOUS
 90
23
 70
0
 10
3.5716927199
 20
-11.6194476606
 10
3.5790057284
 20
-11.6341386328
 10
3.5859077741
 20
-11.649006842
 10
3.5923944889
 20
-11.6640450594
 10
3.5984702409
 20
-11.6792605062
 10
3.604126143
 20
-11.6946312357
 10
3.6093639827
 20
-11.7101655205
 10
3.6141819725
 20
-11.7258550805
 10
3.618565864
 20
-11.7416531415
 10
3.6225128509
 20
-11.7575517145
 10
3.6260257394
 20
-11.7735587829
 10
3.6290986992
 20
-11.7896515332
 10
3.6317318996
 20
-11.8058382194
 10
3.6339251713
 20
-11.8221105824
 10
3.6356721752
 20
-11.838421041
 10
3.6369715833
 20
-11.8547616922
 10
3.6378247237
 20
-11.8711404362
 10
3.6382292407
 20
-11.8875333981
 10
3.6381841852
 20
-11.903948731
 10
3.6376905065
 20
-11.9203782799
 10
3.6367486969
 20
-11.9367737091
 10
3.6353580585
 20
-11.9531273842
 10
3.6335192893
 20
-11.9694469401
  0
LWPOLYLINE
  5
461
100
AcDbEntity
  8
0
100
AcDbPolyline
 62
7
  6
CONTINUOUS
 90
4
 70
0
 10
2.8821463699
 20
-11.9537972585
 10
2.8804999339
 20
-11.9500994419
 10
2.8787043937
 20
-11.9464894345
 10
2.8767590981
 20
-11.9429615778
  0
LWPOLYLINE
  5
462
100
AcDbEntity
  8
0
100
AcDbPolyline
 62
7
  6
CONTINUOUS
 90
11
 70
0
 10
-0.0234872924
 20
-11.6903172717
 10
-0.0264729882
 20
-11.6809963391
 10
-0.0291541576
 20
-11.6715817745
 10
-0.0315304183
 20
-11.6620746016
 10
-0.0335926345
 20
-11.6525052945
 10
-0.0353387663
 20
-11.6428738905
 10
-0.0367708536
 20
-11.6331803511
 10
-0.0378858808
 20
-11.6234550372
 10
-0.0386839485
 20
-11.6136974859
 10
-0.039164956
 20
-11.6039081596
 10
-0.0393255861
 20
-11.594118808
  0
LWPOLYLINE
  5
463
100
AcDbEntity
  8
0
100
AcDbPolyline
 62
7
  6
CONTINUOUS
 90
4
 70
0
 10
-0.0264654568
 20
-11.6810212263
 10
-0.0291481773
 20
-11.6715989986
 10
-0.0315306147
 20
-11.662069966
 10
-0.0335978324
 20
-11.6524790699
  0
LWPOLYLINE
  5
464
100
AcDbEntity
  8
0
100
AcDbPolyline
 62
7
  6
CONTINUOUS
 90
4
 70
0
 10
-4.5103869483
 20
11.1950319732
 10
-4.5125793361
 20
11.2113088988
 10
-4.5143252102
 20
11.2276238474
 10
-4.5156232369
 20
11.2439690327
  0
LINE
  5
465
100
AcDbEntity
  8
0
100
AcDbLine
 62
7
  6
CONTINUOUS
 10
-3.7678360604
 20
11.3706187104
 11
-3.7673032781
 21
11.3663065267
  0
LINE
  5
466
100
AcDbEntity
  8
0
100
AcDbLine
 62
7
  6
CONTINUOUS
 10
-0.8407531732
 20
-11.564907654
 11
-0.8399578571
 21
-11.5746448307
  0
LINE
  5
467
100
AcDbEntity
  8
0
100
AcDbLine
 62
7
  6
CONTINUOUS
 10
-0.0378932304
 20
-11.6233801367
 11
-0.0386888877
 21
-11.6136428272
  0
LWPOLYLINE
  5
468
100
AcDbEntity
  8
0
100
AcDbPolyline
 62
7
  6
CONTINUOUS
 90
3
 70
0
 10
-0.8393218023
 20
10.9832780268
 10
-0.8394812157
 20
10.9735241309
 10
-0.8399590133
 20
10.9637701058
  0
LWPOLYLINE
  5
469
100
AcDbEntity
  8
0
100
AcDbPolyline
 62
7
  6
CONTINUOUS
 90
3
 70
0
 10
-0.8393218025
 20
-11.5941518014
 10
-0.8394815384
 20
-11.6039057237
 10
-0.8399596585
 20
-11.6136598277
  0
LWPOLYLINE
  5
46A
100
AcDbEntity
  8
0
100
AcDbPolyline
 62
7
  6
CONTINUOUS
 90
3
 70
0
 10
-0.0393255865
 20
10.9832940711
 10
-0.0391658506
 20
10.9930479935
 10
-0.0386877305
 20
11.0028020974
  0
LINE
  5
46B
100
AcDbEntity
  8
0
100
AcDbLine
 62
7
  6
CONTINUOUS
 10
-0.8399590133
 20
10.9637701058
 11
-0.8407654951
 21
10.9539246227
  0
LINE
  5
46C
100
AcDbEntity
  8
0
100
AcDbLine
 62
7
  6
CONTINUOUS
 10
-0.0386877305
 20
11.0028020974
 11
-0.0378809933
 21
11.0126468017
  0
LINE
  5
46D
100
AcDbEntity
  8
0
100
AcDbLine
 62
7
  6
CONTINUOUS
 10
-0.0378914994
 20
11.0125398545
 11
-0.0367643557
 21
11.0223720095
  0
LWPOLYLINE
  5
46E
100
AcDbEntity
  8
0
100
AcDbPolyline
 62
7
  6
CONTINUOUS
 90
8
 70
0
 10
-0.0367762869
 20
11.0222709174
 10
-0.0353429633
 20
11.0319856336
 10
-0.0335944129
 20
11.0416385177
 10
-0.0315265995
 20
11.0512294592
 10
-0.0291435593
 20
11.06075857
 10
-0.0264602846
 20
11.0701806989
 10
-0.0234787589
 20
11.0794874421
 10
-0.0201969987
 20
11.0886872058
  0
LINE
  5
46F
100
AcDbEntity
  8
0
100
AcDbLine
 62
7
  6
CONTINUOUS
 10
-3.766423431
 20
-11.9731300374
 11
-3.7671282654
 21
-11.9773485835
  0
LINE
  5
470
100
AcDbEntity
  8
0
100
AcDbLine
 62
7
  6
CONTINUOUS
 10
-3.7655855895
 20
-11.9691774761
 11
-3.7664572471
 21
-11.9733085843
  0
LINE
  5
471
100
AcDbEntity
  8
0
100
AcDbLine
 62
7
  6
CONTINUOUS
 10
-3.764581801
 20
-11.9652542221
 11
-3.7656185761
 21
-11.9693138874
  0
LWPOLYLINE
  5
472
100
AcDbEntity
  8
0
100
AcDbPolyline
 62
7
  6
CONTINUOUS
 90
11
 70
0
 10
3.603917366
 20
11.083746004
 10
3.5982591789
 20
11.0683715377
 10
3.5921809271
 20
11.0531524196
 10
3.5856915561
 20
11.0381107494
 10
3.5787867346
 20
11.0232394037
 10
3.5714707939
 20
11.0085455137
 10
3.5637656721
 20
10.9940725619
 10
3.5556747691
 20
10.9798281857
 10
3.547194685
 20
10.9658047567
 10
3.538337159
 20
10.9520228599
 10
3.5290966891
 20
10.938476475
  0
LWPOLYLINE
  5
473
100
AcDbEntity
  8
0
100
AcDbPolyline
 62
7
  6
CONTINUOUS
 90
42
 70
0
 10
-4.4825642709
 20
-11.6946023612
 10
-4.4769076201
 20
-11.6792319854
 10
-4.470831149
 20
-11.6640169465
 10
-4.4643437414
 20
-11.6489791908
 10
-4.4574410179
 20
-11.634111494
 10
-4.4501273579
 20
-11.6194210881
 10
-4.4424247829
 20
-11.6049516049
 10
-4.4343367636
 20
-11.5907108039
 10
-4.4258598294
 20
-11.5766909347
 10
-4.4170055898
 20
-11.5629123648
 10
-4.4077684988
 20
-11.5493689905
 10
-4.3981541026
 20
-11.5360669244
 10
-4.3881906493
 20
-11.5230448593
 10
-4.377882644
 20
-11.5103094669
 10
-4.3672255817
 20
-11.4978540851
 10
-4.3562341957
 20
-11.4856974066
 10
-4.3449021842
 20
-11.4738341597
 10
-4.3332358492
 20
-11.4622696254
 10
-4.3212688292
 20
-11.4510383256
 10
-4.3090059213
 20
-11.4401463003
 10
-4.2964423285
 20
-11.4295875191
 10
-4.2835972988
 20
-11.4193783979
 10
-4.2704646476
 20
-11.4095147624
 10
-4.2570505595
 20
-11.4000007959
 10
-4.2433928361
 20
-11.3908654509
 10
-4.2294960112
 20
-11.3821137693
 10
-4.2153555511
 20
-11.3737407178
 10
-4.2009956568
 20
-11.3657601367
 10
-4.1864101253
 20
-11.3581690916
 10
-4.1716051595
 20
-11.3509705243
 10
-4.1566235699
 20
-11.3441870896
 10
-4.1414698904
 20
-11.3378231054
 10
-4.1261395871
 20
-11.3318742605
 10
-4.1106618678
 20
-11.3263502657
 10
-4.0950335882
 20
-11.3212501363
 10
-4.0792578926
 20
-11.3165748625
 10
-4.063373422
 20
-11.3123371174
 10
-4.0473842669
 20
-11.308539298
 10
-4.0312863367
 20
-11.3051790115
 10
-4.0151060015
 20
-11.3022617468
 10
-3.9988382556
 20
-11.2997868819
 10
-3.9824881047
 20
-11.2977550415
  0
LWPOLYLINE
  5
474
100
AcDbEntity
  8
0
100
AcDbPolyline
 62
7
  6
CONTINUOUS
 90
41
 70
0
 10
3.5856963525
 20
11.0381214606
 10
3.578793629
 20
11.0232537638
 10
3.5714799689
 20
11.0085633579
 10
3.5637773939
 20
10.9940938746
 10
3.5556893746
 20
10.9798530737
 10
3.5472124404
 20
10.9658332045
 10
3.5383582009
 20
10.9520546345
 10
3.5291211099
 20
10.9385112602
 10
3.5195067136
 20
10.9252091942
 10
3.5095432603
 20
10.912187129
 10
3.499235255
 20
10.8994517366
 10
3.4885781927
 20
10.8869963549
 10
3.4775868067
 20
10.8748396763
 10
3.4662547953
 20
10.8629764295
 10
3.4545884602
 20
10.8514118952
 10
3.4426214402
 20
10.8401805953
 10
3.4303585323
 20
10.8292885701
 10
3.4177949395
 20
10.8187297888
 10
3.4049499098
 20
10.8085206676
 10
3.3918172586
 20
10.7986570321
 10
3.3784031705
 20
10.7891430656
 10
3.3647454472
 20
10.7800077206
 10
3.3508486222
 20
10.7712560391
 10
3.3367081621
 20
10.7628829876
 10
3.3223482678
 20
10.7549024064
 10
3.3077627363
 20
10.7473113613
 10
3.2929577705
 20
10.740112794
 10
3.2779761809
 20
10.7333293593
 10
3.2628225015
 20
10.7269653752
 10
3.2474921981
 20
10.7210165303
 10
3.2320144789
 20
10.7154925355
 10
3.2163861992
 20
10.7103924061
 10
3.2006105036
 20
10.7057171322
 10
3.184726033
 20
10.7014793872
 10
3.1687368779
 20
10.6976815677
 10
3.1526389477
 20
10.6943212813
 10
3.1364586125
 20
10.6914040165
 10
3.1201908667
 20
10.6889291516
 10
3.1038407158
 20
10.6868973113
 10
3.087449546
 20
10.6853158539
 10
3.0710311528
 20
10.6841872329
  0
LWPOLYLINE
  5
475
100
AcDbEntity
  8
0
100
AcDbPolyline
 62
250
  6
CONTINUOUS
 90
19
 70
0
 10
10.5823419871
 20
21.2522001394
 10
10.5819232257
 20
21.251426748
 10
10.5815056902
 20
21.2503672832
 10
10.5810893804
 20
21.249021745
 10
10.5806740502
 20
21.2473890158
 10
10.5802599459
 20
21.2454702132
 10
10.579847806
 20
21.2432686905
 10
10.5794376409
 20
21.2407839665
 10
10.5790294404
 20
21.2380165223
 10
10.5786239117
 20
21.234971155
 10
10.5782210604
 20
21.2316473877
 10
10.5778208809
 20
21.2280456973
 10
10.5774240643
 20
21.2241723109
 10
10.577030616
 20
21.2200267561
 10
10.5766405305
 20
21.2156095053
 10
10.5762544824
 20
21.2109282038
 10
10.5758724787
 20
21.2059823942
 10
10.5754945125
 20
21.2007725339
 10
10.5747526608
 20
21.1895872716
  0
LINE
  5
476
100
AcDbEntity
  8
0
100
AcDbLine
 62
250
  6
CONTINUOUS
 10
10.3206130193
 20
-0.4514297548
 11
10.3161859702
 21
-0.4515735897
  0
LINE
  5
477
100
AcDbEntity
  8
0
100
AcDbLine
 62
250
  6
CONTINUOUS
 10
10.3161859702
 20
-0.4515735897
 11
10.3108283236
 21
-0.4517149923
  0
LWPOLYLINE
  5
478
100
AcDbEntity
  8
0
100
AcDbPolyline
 62
250
  6
CONTINUOUS
 90
3
 70
0
 10
-5.1380138679
 20
-1.1034790804
 10
-5.1375343394
 20
-1.1034672222
 10
-5.1373311385
 20
-1.1034553476
  0
LINE
  5
479
100
AcDbEntity
  8
0
100
AcDbLine
 62
250
  6
CONTINUOUS
 10
10.5209652046
 20
-0.651296095
 11
10.5151603944
 21
-0.6514496054
  0
LINE
  5
47A
100
AcDbEntity
  8
0
100
AcDbLine
 62
250
  6
CONTINUOUS
 10
10.3108283236
 20
-0.4517149923
 11
10.3010886182
 21
-0.4519215158
  0
LINE
  5
47B
100
AcDbEntity
  8
0
100
AcDbLine
 62
250
  6
CONTINUOUS
 10
10.5151603944
 20
-0.6514496054
 11
10.5035101267
 21
-0.6516759407
  0
LWPOLYLINE
  5
47C
100
AcDbEntity
  8
0
100
AcDbPolyline
 62
250
  6
CONTINUOUS
 90
46
 70
0
 10
4.4586806367
 20
-0.4534408117
 10
4.4517013414
 20
-0.4535631614
 10
4.4447305484
 20
-0.4539289983
 10
4.4377767498
 20
-0.4545378767
 10
4.4308484169
 20
-0.455389055
 10
4.42395399
 20
-0.4564814961
 10
4.4171018681
 20
-0.4578138693
 10
4.4103003985
 20
-0.4593845514
 10
4.4035578672
 20
-0.461191629
 10
4.3968824879
 20
-0.4632329006
 10
4.3902823928
 20
-0.4655058795
 10
4.3837656224
 20
-0.4680077967
 10
4.3773401155
 20
-0.4707356043
 10
4.3710137
 20
-0.4736859791
 10
4.3647940827
 20
-0.4768553271
 10
4.3586888407
 20
-0.4802397871
 10
4.3527054114
 20
-0.4838352361
 10
4.3468510841
 20
-0.4876372941
 10
4.3411329907
 20
-0.4916413293
 10
4.3355580971
 20
-0.4958424638
 10
4.3301331948
 20
-0.5002355798
 10
4.3248648926
 20
-0.5048153254
 10
4.3197596084
 20
-0.5095761214
 10
4.3148235617
 20
-0.5145121681
 10
4.3100627658
 20
-0.5196174522
 10
4.3054830202
 20
-0.5248857544
 10
4.3010899042
 20
-0.5303106567
 10
4.2968887697
 20
-0.5358855503
 10
4.2928847345
 20
-0.5416036437
 10
4.2890826765
 20
-0.547457971
 10
4.2854872274
 20
-0.5534414003
 10
4.2821027674
 20
-0.5595466423
 10
4.2789334195
 20
-0.5657662596
 10
4.2759830446
 20
-0.5720926752
 10
4.2732552371
 20
-0.578518182
 10
4.2707533199
 20
-0.5850349524
 10
4.268480341
 20
-0.5916350475
 10
4.2664390694
 20
-0.5983104268
 10
4.2646319918
 20
-0.6050529581
 10
4.2630613097
 20
-0.6118544277
 10
4.2617289365
 20
-0.6187065496
 10
4.2606364953
 20
-0.6256009765
 10
4.2597853171
 20
-0.6325293094
 10
4.2591764386
 20
-0.639483108
 10
4.2588106018
 20
-0.646453901
 10
4.2586882521
 20
-0.6534331963
  0
LINE
  5
47D
100
AcDbEntity
  8
0
100
AcDbLine
 62
7
  6
CONTINUOUS
 10
4.9106763055
 20
-0.4316094685
 11
4.4439047226
 21
-0.4386648976
  0
LINE
  5
47E
100
AcDbEntity
  8
0
100
AcDbLine
 62
7
  6
CONTINUOUS
 10
-5.7893236945
 20
-0.1792482618
 11
-5.3225521116
 21
-0.1721928327
  0
LINE
  5
47F
100
AcDbEntity
  8
0
100
AcDbLine
 62
250
  6
CONTINUOUS
 10
10.3010886182
 20
-0.4519215158
 11
10.2804964348
 21
-0.4522472054
  0
LINE
  5
480
100
AcDbEntity
  8
0
100
AcDbLine
 62
250
  6
CONTINUOUS
 10
10.5035101267
 20
-0.6516759407
 11
10.4826215754
 21
-0.6519677469
  0
LINE
  5
481
100
AcDbEntity
  8
0
100
AcDbLine
 62
250
  6
CONTINUOUS
 10
-5.1387735643
 20
-0.6534487026
 11
-5.137540294
 21
-0.6534332005
  0
LINE
  5
482
100
AcDbEntity
  8
0
100
AcDbLine
 62
250
  6
CONTINUOUS
 10
-5.1397988732
 20
-1.1035026819
 11
-5.1380138679
 21
-1.1034790804
  0
LINE
  5
483
100
AcDbEntity
  8
0
100
AcDbLine
 62
250
  6
CONTINUOUS
 10
10.2804964348
 20
-0.4522472054
 11
10.2432359635
 21
-0.4526535643
  0
LINE
  5
484
100
AcDbEntity
  8
0
100
AcDbLine
 62
250
  6
CONTINUOUS
 10
10.4826215754
 20
-0.6519677469
 11
10.4321522448
 21
-0.6524403566
  0
LINE
  5
485
100
AcDbEntity
  8
0
100
AcDbLine
 62
250
  6
CONTINUOUS
 10
10.2432359635
 20
-0.4526535643
 11
10.1903857982
 21
-0.4530285272
  0
LINE
  5
486
100
AcDbEntity
  8
0
100
AcDbLine
 62
250
  6
CONTINUOUS
 10
10.4321522448
 20
-0.6524403566
 11
10.3551051376
 21
-0.6529009505
  0
LINE
  5
487
100
AcDbEntity
  8
0
100
AcDbLine
 62
250
  6
CONTINUOUS
 10
-5.1490042121
 20
-1.1035602585
 11
-5.1397988732
 21
-1.1035026819
  0
LINE
  5
488
100
AcDbEntity
  8
0
100
AcDbLine
 62
250
  6
CONTINUOUS
 10
-11.096681773
 20
-0.1580035505
 11
-11.0315746361
 21
-0.1576515776
  0
LINE
  5
489
100
AcDbEntity
  8
0
100
AcDbLine
 62
250
  6
CONTINUOUS
 10
10.3551051376
 20
-0.6529009505
 11
10.2612363131
 21
-0.6532540042
  0
LINE
  5
48A
100
AcDbEntity
  8
0
100
AcDbLine
 62
250
  6
CONTINUOUS
 10
10.1903857982
 20
-0.4530285272
 11
10.1211212942
 21
-0.453313724
  0
LINE
  5
48B
100
AcDbEntity
  8
0
100
AcDbLine
 62
250
  6
CONTINUOUS
 10
-11.0315746361
 20
-0.1576515776
 11
-10.958377342
 21
-0.1574549397
  0
LINE
  5
48C
100
AcDbEntity
  8
0
100
AcDbLine
 62
250
  6
CONTINUOUS
 10
10.2612363131
 20
-0.6532540042
 11
10.1415779588
 21
-0.6535002571
  0
LINE
  5
48D
100
AcDbEntity
  8
0
100
AcDbLine
 62
250
  6
CONTINUOUS
 10
10.1211212942
 20
-0.453313724
 11
10.0458481496
 21
-0.4534365741
  0
LINE
  5
48E
100
AcDbEntity
  8
0
100
AcDbLine
 62
250
  6
CONTINUOUS
 10
-5.3076794452
 20
-1.1037707456
 11
-5.1490042121
 21
-1.1035602585
  0
LINE
  5
48F
100
AcDbEntity
  8
0
100
AcDbLine
 62
250
  6
CONTINUOUS
 10
3.7586869006
 20
-1.6034222784
 11
-4.6373341049
 21
-1.6034222784
  0
LINE
  5
490
100
AcDbEntity
  8
0
100
AcDbLine
 62
7
  6
CONTINUOUS
 10
-4.6255567132
 20
-1.5916428454
 11
3.7469093242
 21
-1.5916428454
  0
LWPOLYLINE
  5
491
100
AcDbEntity
  8
0
100
AcDbPolyline
 62
7
  6
CONTINUOUS
 90
2
 70
0
 43
0.3500000006
 10
17.9762018967
 20
-1.3411432114
 10
16.4762014389
 20
-1.3411432114
  0
LWPOLYLINE
  5
492
100
AcDbEntity
  8
0
100
AcDbPolyline
 62
250
  6
CONTINUOUS
 90
3
 70
0
 10
-5.3373235231
 20
-1.1037746859
 10
-5.3298868108
 20
-1.1037743615
 10
-5.3076794452
 20
-1.1037707456
  0
LINE
  5
493
100
AcDbEntity
  8
0
100
AcDbLine
 62
250
  6
CONTINUOUS
 10
10.1415779588
 20
-0.6535002571
 11
10.0287858311
 21
-0.6535724545
  0
LINE
  5
494
100
AcDbEntity
  8
0
100
AcDbLine
 62
250
  6
CONTINUOUS
 10
10.0287858311
 20
-0.6535724539
 11
4.4512482199
 21
-0.6535853332
  0
LINE
  5
495
100
AcDbEntity
  8
0
100
AcDbLine
 62
250
  6
CONTINUOUS
 10
-5.137540294
 20
-0.6534332005
 11
-5.1373356411
 21
-0.6534331964
  0
LINE
  5
496
100
AcDbEntity
  8
0
100
AcDbLine
 62
250
  6
CONTINUOUS
 10
10.0458481496
 20
-0.4534365741
 11
10.0287877603
 21
-0.4534408117
  0
LINE
  5
497
100
AcDbEntity
  8
0
100
AcDbLine
 62
250
  6
CONTINUOUS
 10
10.0287877603
 20
-0.4534408117
 11
4.4586806367
 21
-0.4534408117
  0
LINE
  5
498
100
AcDbEntity
  8
RACCORDO
100
AcDbLine
 62
7
  6
CONTINUOUS
 10
9.6083720408
 20
-0.4316094685
 11
4.9106763055
 21
-0.4316094685
  0
LINE
  5
499
100
AcDbEntity
  8
DRAFT
100
AcDbLine
 62
7
  6
CONTINUOUS
 10
-5.7893236945
 20
-0.4316094685
 11
-10.2869584997
 21
-0.4316094685
  0
LINE
  5
49A
100
AcDbEntity
  8
RACCORDO
100
AcDbLine
 62
7
  6
CONTINUOUS
 10
10.5106153441
 20
-0.4054288651
 11
9.6607372356
 21
-0.4054288651
  0
LINE
  5
49B
100
AcDbEntity
  8
0
100
AcDbLine
 62
7
  6
CONTINUOUS
 10
-10.3393236945
 20
-0.4054288651
 11
-11.3892627331
 21
-0.4054288651
  0
LINE
  5
49C
100
AcDbEntity
  8
RACCORDO
100
AcDbLine
 62
7
  6
CONTINUOUS
 10
-11.3892627331
 20
-0.2054288651
 11
-10.5393846245
 21
-0.2054288651
  0
LINE
  5
49D
100
AcDbEntity
  8
0
100
AcDbLine
 62
7
  6
CONTINUOUS
 10
9.4606763055
 20
-0.2054288651
 11
10.5106153441
 21
-0.2054288651
  0
LINE
  5
49E
100
AcDbEntity
  8
RACCORDO
100
AcDbLine
 62
7
  6
CONTINUOUS
 10
-10.4870194298
 20
-0.1792482618
 11
-5.7893236945
 21
-0.1792482618
  0
LINE
  5
49F
100
AcDbEntity
  8
DRAFT
100
AcDbLine
 62
7
  6
CONTINUOUS
 10
4.9106763055
 20
-0.1792482618
 11
9.4083111107
 21
-0.1792482618
  0
LINE
  5
4A0
100
AcDbEntity
  8
0
100
AcDbLine
 62
250
  6
CONTINUOUS
 10
-10.9074351493
 20
-0.1574169185
 11
-5.3373280257
 21
-0.1574169185
  0
LINE
  5
4A1
100
AcDbEntity
  8
0
100
AcDbLine
 62
250
  6
CONTINUOUS
 10
-10.958377342
 20
-0.1574549397
 11
-10.9074351493
 21
-0.1574169185
  0
LINE
  5
4A2
100
AcDbEntity
  8
0
100
AcDbLine
 62
250
  6
CONTINUOUS
 10
4.4586761341
 20
-1.1037746859
 11
4.4438129937
 21
-1.1037735958
  0
LWPOLYLINE
  5
4A3
100
AcDbEntity
  8
0
100
AcDbPolyline
 62
250
  6
CONTINUOUS
 90
3
 70
0
 10
4.4438129937
 20
-1.1037735958
 10
4.4290320531
 20
-1.1037707456
 10
4.4216979834
 20
-1.103768665
  0
LWPOLYLINE
  5
4A4
100
AcDbEntity
  8
0
100
AcDbPolyline
 62
250
  6
CONTINUOUS
 90
3
 70
0
 10
4.4216979834
 20
-1.103768665
 10
4.4071933497
 20
-1.1037632073
 10
4.4000428471
 20
-1.1037598377
  0
LINE
  5
4A5
100
AcDbEntity
  8
0
100
AcDbLine
 62
250
  6
CONTINUOUS
 10
-5.172690243
 20
-0.6535144509
 11
-5.1387735643
 21
-0.6534487026
  0
LWPOLYLINE
  5
4A6
100
AcDbEntity
  8
0
100
AcDbPolyline
 62
250
  6
CONTINUOUS
 90
3
 70
0
 10
4.4000428471
 20
-1.1037598377
 10
4.3859949057
 20
-1.1037518403
 10
4.3791168965
 20
-1.1037472236
  0
LINE
  5
4A7
100
AcDbEntity
  8
0
100
AcDbLine
 62
250
  6
CONTINUOUS
 10
4.3791168965
 20
-1.1037472236
 11
4.365700353
 21
-1.103736786
  0
LINE
  5
4A8
100
AcDbEntity
  8
0
100
AcDbLine
 62
250
  6
CONTINUOUS
 10
4.365700353
 20
-1.103736786
 11
4.352798009
 21
-1.103724792
  0
LINE
  5
4A9
100
AcDbEntity
  8
0
100
AcDbLine
 62
250
  6
CONTINUOUS
 10
4.352798009
 20
-1.103724792
 11
4.3404812206
 21
-1.1037113078
  0
LINE
  5
4AA
100
AcDbEntity
  8
0
100
AcDbLine
 62
250
  6
CONTINUOUS
 10
4.3404812206
 20
-1.1037113078
 11
4.3288181054
 21
-1.103696408
  0
LINE
  5
4AB
100
AcDbEntity
  8
0
100
AcDbLine
 62
250
  6
CONTINUOUS
 10
4.4512482199
 20
-0.6535853332
 11
4.3232565652
 21
-0.6535387127
  0
LINE
  5
4AC
100
AcDbEntity
  8
0
100
AcDbLine
 62
250
  6
CONTINUOUS
 10
4.3288181054
 20
-1.103696408
 11
4.3126890925
 21
-1.1036715864
  0
LINE
  5
4AD
100
AcDbEntity
  8
0
100
AcDbLine
 62
250
  6
CONTINUOUS
 10
-5.172690243
 20
-0.6535144509
 11
-11.0747948102
 21
-0.6534117291
  0
LINE
  5
4AE
100
AcDbEntity
  8
0
100
AcDbLine
 62
250
  6
CONTINUOUS
 10
-5.3373280257
 20
-0.4534408117
 11
-10.983388513
 21
-0.4533555151
  0
LINE
  5
4AF
100
AcDbEntity
  8
0
100
AcDbLine
 62
250
  6
CONTINUOUS
 10
4.4586806367
 20
-0.1574169185
 11
10.104741124
 21
-0.1575022151
  0
LINE
  5
4B0
100
AcDbEntity
  8
0
100
AcDbLine
 62
250
  6
CONTINUOUS
 10
-11.0747948102
 20
-0.6534117291
 11
-11.1886360133
 21
-0.6530921981
  0
LINE
  5
4B1
100
AcDbEntity
  8
0
100
AcDbLine
 62
250
  6
CONTINUOUS
 10
4.3232565652
 20
-0.6535387127
 11
4.2640333964
 21
-0.6534640159
  0
LINE
  5
4B2
100
AcDbEntity
  8
0
100
AcDbLine
 62
250
  6
CONTINUOUS
 10
-10.983388513
 20
-0.4533555151
 11
-11.054399203
 21
-0.4531051515
  0
LINE
  5
4B3
100
AcDbEntity
  8
0
100
AcDbLine
 62
250
  6
CONTINUOUS
 10
10.104741124
 20
-0.1575022151
 11
10.175751814
 21
-0.1577525787
  0
LINE
  5
4B4
100
AcDbEntity
  8
0
100
AcDbLine
 62
250
  6
CONTINUOUS
 10
4.3126890925
 20
-1.1036715864
 11
4.2658724758
 21
-1.1035375529
  0
LINE
  5
4B5
100
AcDbEntity
  8
0
100
AcDbLine
 62
250
  6
CONTINUOUS
 10
4.2640333964
 20
-0.6534640159
 11
4.2601261744
 21
-0.6534487026
  0
LINE
  5
4B6
100
AcDbEntity
  8
0
100
AcDbLine
 62
250
  6
CONTINUOUS
 10
-11.1886360133
 20
-0.6530921981
 11
-11.2746500237
 21
-0.6526827027
  0
LINE
  5
4B7
100
AcDbEntity
  8
0
100
AcDbLine
 62
250
  6
CONTINUOUS
 10
10.175751814
 20
-0.1577525787
 11
10.2180343841
 21
-0.1580035505
  0
LINE
  5
4B8
100
AcDbEntity
  8
0
100
AcDbLine
 62
250
  6
CONTINUOUS
 10
-11.054399203
 20
-0.4531051515
 11
-11.1158321357
 21
-0.452706035
  0
LINE
  5
4B9
100
AcDbEntity
  8
0
100
AcDbLine
 62
250
  6
CONTINUOUS
 10
-11.2746500237
 20
-0.6526827027
 11
-11.3345124296
 21
-0.6522446212
  0
LINE
  5
4BA
100
AcDbEntity
  8
0
100
AcDbLine
 62
250
  6
CONTINUOUS
 10
4.2658724758
 20
-1.1035375529
 11
4.2611514484
 21
-1.1035026819
  0
LINE
  5
4BB
100
AcDbEntity
  8
0
100
AcDbLine
 62
250
  6
CONTINUOUS
 10
-11.1158321357
 20
-0.452706035
 11
-11.1543973242
 21
-0.4523091333
  0
LWPOLYLINE
  5
4BC
100
AcDbEntity
  8
0
100
AcDbPolyline
 62
250
  6
CONTINUOUS
 90
61
 70
0
 10
-4.6373341048
 20
-1.6034222783
 10
-4.6503058515
 20
-1.6032544511
 10
-4.6632925786
 20
-1.6027489481
 10
-4.6762854414
 20
-1.6019042604
 10
-4.6892787802
 20
-1.6007187694
 10
-4.7022602976
 20
-1.5991916003
 10
-4.7152111648
 20
-1.5973234791
 10
-4.7281224076
 20
-1.5951145961
 10
-4.7409849325
 20
-1.5925653976
 10
-4.7537799445
 20
-1.5896788924
 10
-4.7664982453
 20
-1.5864568554
 10
-4.7791313354
 20
-1.5829011384
 10
-4.791661872
 20
-1.5790166689
 10
-4.8040786465
 20
-1.5748074602
 10
-4.8163760003
 20
-1.5702759737
 10
-4.8285452581
 20
-1.5654258471
 10
-4.8405762775
 20
-1.5602616779
 10
-4.8524629727
 20
-1.5547866395
 10
-4.8642027326
 20
-1.5490021468
 10
-4.8757885076
 20
-1.5429115786
 10
-4.8872113017
 20
-1.5365195676
 10
-4.8984654461
 20
-1.5298291217
 10
-4.9095445296
 20
-1.5228436941
 10
-4.920439347
 20
-1.5155687247
 10
-4.93114022
 20
-1.5080105033
 10
-4.9416395474
 20
-1.5001743628
 10
-4.9519303367
 20
-1.4920654852
 10
-4.9620042207
 20
-1.4836904927
 10
-4.971853597
 20
-1.4750558744
 10
-4.9814725449
 20
-1.4661669939
 10
-4.9908554646
 20
-1.4570290756
 10
-4.9999959216
 20
-1.4476483655
 10
-5.0088876198
 20
-1.4380313043
 10
-5.0175252711
 20
-1.428183515
 10
-5.0259034978
 20
-1.4181108959
 10
-5.0340157831
 20
-1.4078210417
 10
-5.0418554291
 20
-1.3973223742
 10
-5.0494172089
 20
-1.3866219183
 10
-5.0566958025
 20
-1.3757272287
 10
-5.0636849306
 20
-1.3646479235
 10
-5.0703791152
 20
-1.3533932265
 10
-5.0767748983
 20
-1.3419695159
 10
-5.0828693174
 20
-1.330382315
 10
-5.0886577371
 20
-1.3186405427
 10
-5.0941367091
 20
-1.3067513052
 10
-5.0993047568
 20
-1.2947172661
 10
-5.1041587115
 20
-1.2825444165
 10
-5.1086939037
 20
-1.270242987
 10
-5.1129065508
 20
-1.2578219946
 10
-5.1167941806
 20
-1.24528713
 10
-5.120352783
 20
-1.2326495905
 10
-5.1235773559
 20
-1.2199270115
 10
-5.1264660483
 20
-1.207127995
 10
-5.1290171281
 20
-1.1942616682
 10
-5.1312276012
 20
-1.1813468637
 10
-5.13309704
 20
-1.1683927198
 10
-5.1346252839
 20
-1.15540819
 10
-5.1358116354
 20
-1.1424120409
 10
-5.1366569891
 20
-1.129416554
 10
-5.1371629807
 20
-1.1164274203
 10
-5.1373311385
 20
-1.1034534907
  0
LINE
  5
4BD
100
AcDbEntity
  8
0
100
AcDbLine
 62
250
  6
CONTINUOUS
 10
-11.3345124296
 20
-0.6522446212
 11
-11.3724654339
 21
-0.651823473
  0
LWPOLYLINE
  5
4BE
100
AcDbEntity
  8
0
100
AcDbPolyline
 62
250
  6
CONTINUOUS
 90
3
 70
0
 10
4.2601261744
 20
-0.6534487026
 10
4.2588929049
 20
-0.6534332005
 10
4.2586882521
 20
-0.6534331964
  0
LINE
  5
4BF
100
AcDbEntity
  8
0
100
AcDbLine
 62
7
  6
CONTINUOUS
 10
-5.3225521116
 20
-0.4386648976
 11
-5.7893236945
 21
-0.4316094685
  0
LINE
  5
4C0
100
AcDbEntity
  8
0
100
AcDbLine
 62
7
  6
CONTINUOUS
 10
4.4439047226
 20
-0.1721928327
 11
4.9106763055
 21
-0.1792482618
  0
LWPOLYLINE
  5
4C1
100
AcDbEntity
  8
0
100
AcDbPolyline
 62
250
  6
CONTINUOUS
 90
4
 70
0
 10
4.2611514484
 20
-1.1035026819
 10
4.2593664426
 20
-1.1034790804
 10
4.2588869141
 20
-1.1034672222
 10
4.2586837131
 20
-1.1034553476
  0
LINE
  5
4C2
100
AcDbEntity
  8
0
100
AcDbLine
 62
250
  6
CONTINUOUS
 10
-11.1543973242
 20
-0.4523091333
 11
-11.1760464701
 21
-0.4519886361
  0
LINE
  5
4C3
100
AcDbEntity
  8
0
100
AcDbLine
 62
250
  6
CONTINUOUS
 10
-11.3724654339
 20
-0.651823473
 11
-11.3864294353
 21
-0.6516011291
  0
LINE
  5
4C4
100
AcDbEntity
  8
0
100
AcDbLine
 62
250
  6
CONTINUOUS
 10
-11.1760464701
 20
-0.4519886361
 11
-11.1864551065
 21
-0.4517846124
  0
LINE
  5
4C5
100
AcDbEntity
  8
0
100
AcDbLine
 62
250
  6
CONTINUOUS
 10
-11.3864294353
 20
-0.6516011291
 11
-11.3938077833
 21
-0.6514496054
  0
LINE
  5
4C6
100
AcDbEntity
  8
0
100
AcDbLine
 62
250
  6
CONTINUOUS
 10
-11.1864551065
 20
-0.4517846124
 11
-11.1922707205
 21
-0.4516445946
  0
LWPOLYLINE
  5
4C7
100
AcDbEntity
  8
0
100
AcDbPolyline
 62
250
  6
CONTINUOUS
 90
7
 70
0
 10
-11.3938077833
 20
-0.6514496054
 10
-11.3996125936
 20
-0.651296095
 10
-11.4019188663
 20
-0.6512186757
 10
-11.4038252172
 20
-0.6511409836
 10
-11.4053300826
 20
-0.6510630796
 10
-11.4064321793
 20
-0.6509849186
 10
-11.4071305769
 20
-0.6509065086
  0
LWPOLYLINE
  5
4C8
100
AcDbEntity
  8
0
100
AcDbPolyline
 62
250
  6
CONTINUOUS
 90
10
 70
0
 10
-11.1922707205
 20
-0.4516445946
 10
-11.1971630683
 20
-0.4515019758
 10
-11.1992604082
 20
-0.4514297548
 10
-11.2011202887
 20
-0.451357102
 10
-11.2027421388
 20
-0.4512840145
 10
-11.2041265294
 20
-0.4512104953
 10
-11.2052700828
 20
-0.4511367292
 10
-11.2061716729
 20
-0.451062778
 10
-11.2068324257
 20
-0.4509885799
 10
-11.2072523412
 20
-0.4509141351
  0
LINE
  5
4C9
100
AcDbEntity
  8
0
100
AcDbLine
 62
7
  6
CONTINUOUS
 10
2.883675984
 20
-11.9576639095
 11
2.8821792903
 21
-11.9538736601
  0
LWPOLYLINE
  5
4CA
100
AcDbEntity
  8
0
100
AcDbPolyline
 62
7
  6
CONTINUOUS
 90
4
 70
0
 10
3.5984760271
 20
-11.6792756182
 10
3.6041329919
 20
-11.6946506682
 10
3.6093716174
 20
-11.7101891957
 10
3.6141901493
 20
-11.7258830202
  0
LWPOLYLINE
  5
4CB
100
AcDbEntity
  8
0
100
AcDbPolyline
 62
7
  6
CONTINUOUS
 90
4
 70
0
 10
-4.4771234161
 20
11.0684178879
 10
-4.4827803809
 20
11.083792938
 10
-4.4880190064
 20
11.0993314654
 10
-4.4928375383
 20
11.11502529
  0
LINE
  5
4CC
100
AcDbEntity
  8
0
100
AcDbLine
 62
7
  6
CONTINUOUS
 10
2.88500928
 20
-11.9615094374
 11
2.8836430506
 21
-11.9575772248
  0
LINE
  5
4CD
100
AcDbEntity
  8
0
100
AcDbLine
 62
7
  6
CONTINUOUS
 10
2.8861772181
 20
-11.9654067332
 11
2.8849766235
 21
-11.9614084456
  0
LINE
  5
4CE
100
AcDbEntity
  8
0
100
AcDbLine
 62
7
  6
CONTINUOUS
 10
-3.7648246071
 20
11.354549003
 11
-3.7636240125
 21
11.3505507153
  0
LINE
  5
4CF
100
AcDbEntity
  8
0
100
AcDbLine
 62
7
  6
CONTINUOUS
 10
-3.7658291475
 20
11.3585015768
 11
-3.764791146
 21
11.3544297522
  0
LINE
  5
4D0
100
AcDbEntity
  8
0
100
AcDbLine
 62
7
  6
CONTINUOUS
 10
-4.4972217616
 20
11.1308277847
 11
-4.5011689003
 21
11.1467310942
  0
LINE
  5
4D1
100
AcDbEntity
  8
0
100
AcDbLine
 62
7
  6
CONTINUOUS
 10
-3.7666658647
 20
11.3624964345
 11
-3.7657951716
 21
11.358360043
  0
LINE
  5
4D2
100
AcDbEntity
  8
0
100
AcDbLine
 62
7
  6
CONTINUOUS
 10
-3.7673348742
 20
11.3665364307
 11
-3.7666327318
 21
11.3623210073
  0
LINE
  5
4D3
100
AcDbEntity
  8
0
100
AcDbLine
 62
7
  6
CONTINUOUS
 10
-0.8407541586
 20
11.0125224065
 11
-0.8399585013
 21
11.0027850969
  0
LINE
  5
4D4
100
AcDbEntity
  8
0
100
AcDbLine
 62
7
  6
CONTINUOUS
 10
-0.0378942158
 20
10.9540499238
 11
-0.0386895319
 21
10.9637871005
  0
LWPOLYLINE
  5
4D5
100
AcDbEntity
  8
0
100
AcDbPolyline
 62
7
  6
CONTINUOUS
 90
3
 70
0
 10
-0.0393255867
 20
-11.594135757
 10
-0.0391661732
 20
-11.5843818611
 10
-0.0386883757
 20
-11.5746278361
  0
LINE
  5
4D6
100
AcDbEntity
  8
0
100
AcDbLine
 62
7
  6
CONTINUOUS
 10
-0.8399596585
 20
-11.6136598277
 11
-0.8407663956
 21
-11.6235045319
  0
LINE
  5
4D7
100
AcDbEntity
  8
0
100
AcDbLine
 62
7
  6
CONTINUOUS
 10
-0.0386883757
 20
-11.5746278361
 11
-0.0378818939
 21
-11.564782353
  0
LINE
  5
4D8
100
AcDbEntity
  8
0
100
AcDbLine
 62
7
  6
CONTINUOUS
 10
-0.8407558896
 20
-11.6233975848
 11
-0.8418830333
 21
-11.6332297397
  0
LINE
  5
4D9
100
AcDbEntity
  8
0
100
AcDbLine
 62
7
  6
CONTINUOUS
 10
-0.0378924863
 20
-11.5648902147
 11
-0.0367656022
 21
-11.5550574449
  0
LINE
  5
4DA
100
AcDbEntity
  8
0
100
AcDbLine
 62
7
  6
CONTINUOUS
 10
2.8884472712
 20
11.366247734
 11
2.8889840965
 21
11.3705734197
  0
LWPOLYLINE
  5
4DB
100
AcDbEntity
  8
0
100
AcDbPolyline
 62
7
  6
CONTINUOUS
 90
8
 70
0
 10
-0.8418711021
 20
-11.6331286477
 10
-0.8433044256
 20
-11.6428433639
 10
-0.8450529761
 20
-11.6524962479
 10
-0.8471207894
 20
-11.6620871895
 10
-0.8495038297
 20
-11.6716163003
 10
-0.8521871043
 20
-11.6810384292
 10
-0.8551686301
 20
-11.6903451723
 10
-0.8584503903
 20
-11.6995449361
  0
LINE
  5
4DC
100
AcDbEntity
  8
0
100
AcDbLine
 62
7
  6
CONTINUOUS
 10
2.887776042
 20
11.3622723071
 11
2.8884808764
 21
11.3664908533
  0
LINE
  5
4DD
100
AcDbEntity
  8
0
100
AcDbLine
 62
7
  6
CONTINUOUS
 10
2.8869382005
 20
11.3583197459
 11
2.8878098581
 21
11.3624508541
  0
LWPOLYLINE
  5
4DE
100
AcDbEntity
  8
0
100
AcDbPolyline
 62
7
  6
CONTINUOUS
 90
6
 70
0
 10
3.6258206012
 20
11.1626713804
 10
3.6223068581
 20
11.1466643018
 10
3.6183590299
 20
11.1307658017
 10
3.6139743107
 20
11.1149679123
 10
3.6091555064
 20
11.0992786068
 10
3.6039168819
 20
11.0837446309
  0
LINE
  5
4DF
100
AcDbEntity
  8
0
100
AcDbLine
 62
7
  6
CONTINUOUS
 10
2.885934412
 20
11.3543964919
 11
2.8869711871
 21
11.3584561571
  0
LWPOLYLINE
  5
4E0
100
AcDbEntity
  8
0
100
AcDbPolyline
 62
7
  6
CONTINUOUS
 90
8
 70
0
 10
-4.464338945
 20
-11.6489684796
 10
-4.4574341236
 20
-11.634097134
 10
-4.4501181828
 20
-11.619403244
 10
-4.4424130611
 20
-11.6049302922
 10
-4.434322158
 20
-11.5906859159
 10
-4.425842074
 20
-11.576662487
 10
-4.416984548
 20
-11.5628805902
 10
-4.407744078
 20
-11.5493342053
  0
LWPOLYLINE
  5
4E1
100
AcDbEntity
  8
0
100
AcDbPolyline
 62
250
  6
CONTINUOUS
 90
18
 70
0
 10
-11.4609893761
 20
-21.8630578697
 10
-11.4605706147
 20
-21.8622844782
 10
-11.4601530792
 20
-21.8612250134
 10
-11.4597367694
 20
-21.8598794753
 10
-11.4593214392
 20
-21.858246746
 10
-11.4589073349
 20
-21.8563279435
 10
-11.4584951949
 20
-21.8541264208
 10
-11.4580850299
 20
-21.8516416967
 10
-11.4576768293
 20
-21.8488742526
 10
-11.4572713006
 20
-21.8458288852
 10
-11.4568684493
 20
-21.842505118
 10
-11.4564682699
 20
-21.8389034275
 10
-11.4560714533
 20
-21.8350300412
 10
-11.455678005
 20
-21.8308844863
 10
-11.4552879195
 20
-21.8264672356
 10
-11.4549018714
 20
-21.8217859341
 10
-11.4545198677
 20
-21.8168401245
 10
-11.4537686261
 20
-21.8061653706
  0
LWPOLYLINE
  5
4E2
100
AcDbEntity
  8
0
100
AcDbPolyline
 62
250
  6
CONTINUOUS
 90
6
 70
0
 10
-11.4071305769
 20
0.0400487783
 10
-11.4064321793
 20
0.0401271883
 10
-11.4053300826
 20
0.0402053493
 10
-11.4038252172
 20
0.0402832533
 10
-11.4019188663
 20
0.0403609455
 10
-11.3996125936
 20
0.0404383647
  0
LINE
  5
4E3
100
AcDbEntity
  8
0
100
AcDbLine
 62
250
  6
CONTINUOUS
 10
-11.1992604082
 20
-0.1594279755
 11
-11.1948333592
 21
-0.1592841406
  0
LINE
  5
4E4
100
AcDbEntity
  8
0
100
AcDbLine
 62
250
  6
CONTINUOUS
 10
-11.1948333592
 20
-0.1592841406
 11
-11.1894757126
 21
-0.1591427379
  0
LINE
  5
4E5
100
AcDbEntity
  8
0
100
AcDbLine
 62
250
  6
CONTINUOUS
 10
-11.3996125936
 20
0.0404383647
 11
-11.3938077833
 21
0.0405918751
  0
LWPOLYLINE
  5
4E6
100
AcDbEntity
  8
0
100
AcDbPolyline
 62
250
  6
CONTINUOUS
 90
3
 70
0
 10
4.2593664789
 20
0.4926213501
 10
4.2588869505
 20
0.4926094919
 10
4.2586837495
 20
0.4925976173
  0
LINE
  5
4E7
100
AcDbEntity
  8
0
100
AcDbLine
 62
250
  6
CONTINUOUS
 10
-11.1894757126
 20
-0.1591427379
 11
-11.1797360071
 21
-0.1589362145
  0
LWPOLYLINE
  5
4E8
100
AcDbEntity
  8
0
100
AcDbPolyline
 62
250
  6
CONTINUOUS
 90
46
 70
0
 10
-5.3373280257
 20
-0.1574169185
 10
-5.3303487304
 20
-0.1572945689
 10
-5.3233779374
 20
-0.156928732
 10
-5.3164241388
 20
-0.1563198536
 10
-5.3094958059
 20
-0.1554686753
 10
-5.302601379
 20
-0.1543762341
 10
-5.295749257
 20
-0.153043861
 10
-5.2889477875
 20
-0.1514731788
 10
-5.2822052561
 20
-0.1496661013
 10
-5.2755298769
 20
-0.1476248297
 10
-5.2689297818
 20
-0.1453518508
 10
-5.2624130114
 20
-0.1428499336
 10
-5.2559875045
 20
-0.140122126
 10
-5.249661089
 20
-0.1371717511
 10
-5.2434414717
 20
-0.1340024032
 10
-5.2373362296
 20
-0.1306179432
 10
-5.2313528004
 20
-0.1270224942
 10
-5.2254984731
 20
-0.1232204362
 10
-5.2197803797
 20
-0.119216401
 10
-5.2142054861
 20
-0.1150152664
 10
-5.2087805838
 20
-0.1106221505
 10
-5.2035122816
 20
-0.1060424049
 10
-5.1984069974
 20
-0.1012816089
 10
-5.1934709507
 20
-0.0963455622
 10
-5.1887101547
 20
-0.0912402781
 10
-5.1841304092
 20
-0.0859719758
 10
-5.1797372932
 20
-0.0805470735
 10
-5.1755361587
 20
-0.0749721799
 10
-5.1715321235
 20
-0.0692540865
 10
-5.1677300655
 20
-0.0633997592
 10
-5.1641346164
 20
-0.05741633
 10
-5.1607501564
 20
-0.0513110879
 10
-5.1575808085
 20
-0.0450914707
 10
-5.1546304336
 20
-0.0387650551
 10
-5.151902626
 20
-0.0323395482
 10
-5.1494007089
 20
-0.0258227778
 10
-5.14712773
 20
-0.0192226828
 10
-5.1450864584
 20
-0.0125473035
 10
-5.1432793808
 20
-0.0058047721
 10
-5.1417086987
 20
0.0009966974
 10
-5.1403763255
 20
0.0078488194
 10
-5.1392838843
 20
0.0147432463
 10
-5.1384327061
 20
0.0216715792
 10
-5.1378238276
 20
0.0286253778
 10
-5.1374579907
 20
0.0355961707
 10
-5.1373356411
 20
0.0425754661
  0
LINE
  5
4E9
100
AcDbEntity
  8
0
100
AcDbLine
 62
250
  6
CONTINUOUS
 10
-11.3938077833
 20
0.0405918751
 11
-11.3821575156
 21
0.0408182105
  0
LINE
  5
4EA
100
AcDbEntity
  8
0
100
AcDbLine
 62
250
  6
CONTINUOUS
 10
-11.1797360071
 20
-0.1589362145
 11
-11.1591438238
 21
-0.1586105248
  0
LINE
  5
4EB
100
AcDbEntity
  8
0
100
AcDbLine
 62
250
  6
CONTINUOUS
 10
-11.3821575156
 20
0.0408182105
 11
-11.3612689644
 21
0.0411100166
  0
LINE
  5
4EC
100
AcDbEntity
  8
0
100
AcDbLine
 62
250
  6
CONTINUOUS
 10
4.2601261754
 20
0.0425909723
 11
4.258892905
 21
0.0425754702
  0
LINE
  5
4ED
100
AcDbEntity
  8
0
100
AcDbLine
 62
250
  6
CONTINUOUS
 10
4.2611514842
 20
0.4926449516
 11
4.2593664789
 21
0.4926213501
  0
LINE
  5
4EE
100
AcDbEntity
  8
0
100
AcDbLine
 62
250
  6
CONTINUOUS
 10
-11.1591438238
 20
-0.1586105248
 11
-11.1218833525
 21
-0.1582041659
  0
LINE
  5
4EF
100
AcDbEntity
  8
0
100
AcDbLine
 62
250
  6
CONTINUOUS
 10
-11.3612689644
 20
0.0411100166
 11
-11.3107996338
 21
0.0415826264
  0
LINE
  5
4F0
100
AcDbEntity
  8
0
100
AcDbLine
 62
250
  6
CONTINUOUS
 10
-11.1218833525
 20
-0.1582041659
 11
-11.096681773
 21
-0.1580035505
  0
LINE
  5
4F1
100
AcDbEntity
  8
0
100
AcDbLine
 62
250
  6
CONTINUOUS
 10
-11.3107996338
 20
0.0415826264
 11
-11.2337525266
 21
0.0420432203
  0
LINE
  5
4F2
100
AcDbEntity
  8
0
100
AcDbLine
 62
250
  6
CONTINUOUS
 10
4.2703568231
 20
0.4927025283
 11
4.2611514842
 21
0.4926449516
  0
LINE
  5
4F3
100
AcDbEntity
  8
0
100
AcDbLine
 62
250
  6
CONTINUOUS
 10
-11.2337525266
 20
0.0420432203
 11
-11.1398837021
 21
0.0423962739
  0
LINE
  5
4F4
100
AcDbEntity
  8
0
100
AcDbLine
 62
250
  6
CONTINUOUS
 10
4.3178731885
 20
0.4928224448
 11
4.2703568231
 21
0.4927025283
  0
LINE
  5
4F5
100
AcDbEntity
  8
0
100
AcDbLine
 62
250
  6
CONTINUOUS
 10
-11.1398837021
 20
0.0423962739
 11
-11.0202253478
 21
0.0426425268
  0
LINE
  5
4F6
100
AcDbEntity
  8
0
100
AcDbLine
 62
250
  6
CONTINUOUS
 10
4.3345638524
 20
0.4928462996
 11
4.3178731885
 21
0.4928224448
  0
LINE
  5
4F7
100
AcDbEntity
  8
0
100
AcDbLine
 62
250
  6
CONTINUOUS
 10
4.3465620991
 20
0.4928605014
 11
4.3345638524
 21
0.4928462996
  0
LINE
  5
4F8
100
AcDbEntity
  8
0
100
AcDbLine
 62
250
  6
CONTINUOUS
 10
4.359180389
 20
0.4928732494
 11
4.3465620991
 21
0.4928605014
  0
LWPOLYLINE
  5
4F9
100
AcDbEntity
  8
0
100
AcDbPolyline
 62
250
  6
CONTINUOUS
 90
3
 70
0
 10
4.3791169071
 20
0.4928894933
 10
4.3723489371
 20
0.4928844729
 10
4.359180389
 20
0.4928732494
  0
LINE
  5
4FA
100
AcDbEntity
  8
0
100
AcDbLine
 62
250
  6
CONTINUOUS
 10
4.3929734481
 20
0.4928983167
 11
4.3791169071
 21
0.4928894933
  0
LWPOLYLINE
  5
4FB
100
AcDbEntity
  8
0
100
AcDbPolyline
 62
250
  6
CONTINUOUS
 90
3
 70
0
 10
4.414415063
 20
0.4929084208
 10
4.4071933558
 20
0.492905477
 10
4.3929734481
 20
0.4928983167
  0
LWPOLYLINE
  5
4FC
100
AcDbEntity
  8
0
100
AcDbPolyline
 62
250
  6
CONTINUOUS
 90
3
 70
0
 10
4.4364071256
 20
0.4929146597
 10
4.4290320562
 20
0.4929130153
 10
4.414415063
 20
0.4929084208
  0
LINE
  5
4FD
100
AcDbEntity
  8
0
100
AcDbLine
 62
250
  6
CONTINUOUS
 10
4.258892905
 20
0.0425754702
 11
4.2586882521
 21
0.0425754661
  0
LINE
  5
4FE
100
AcDbEntity
  8
0
100
AcDbLine
 62
250
  6
CONTINUOUS
 10
-10.9074332201
 20
0.0427147237
 11
-5.3298956088
 21
0.0427276029
  0
LINE
  5
4FF
100
AcDbEntity
  8
0
100
AcDbLine
 62
250
  6
CONTINUOUS
 10
-11.0202253478
 20
0.0426425268
 11
-10.9074332201
 21
0.0427147243
  0
LWPOLYLINE
  5
500
100
AcDbEntity
  8
0
100
AcDbPolyline
 62
250
  6
CONTINUOUS
 90
3
 70
0
 10
4.4586761341
 20
0.4929169557
 10
4.4512394218
 20
0.4929166312
 10
4.4364071256
 20
0.4929146597
  0
LINE
  5
501
100
AcDbEntity
  8
0
100
AcDbLine
 62
7
  6
CONTINUOUS
 10
3.7469093242
 20
0.9807851151
 11
-4.6255567132
 21
0.9807851151
  0
LINE
  5
502
100
AcDbEntity
  8
0
100
AcDbLine
 62
250
  6
CONTINUOUS
 10
-4.6373342896
 20
0.9925645481
 11
3.7586867159
 21
0.9925645481
  0
LINE
  5
503
100
AcDbEntity
  8
0
100
AcDbLine
 62
250
  6
CONTINUOUS
 10
-4.6373361462
 20
1.1931563669
 11
3.7586887573
 21
1.1931563669
  0
LINE
  5
504
100
AcDbEntity
  8
0
100
AcDbLine
 62
250
  6
CONTINUOUS
 10
4.3077110222
 20
0.0426695718
 11
4.2601261754
 21
0.0425909723
  0
LINE
  5
505
100
AcDbEntity
  8
0
100
AcDbLine
 62
250
  6
CONTINUOUS
 10
-5.3298956088
 20
0.0427276029
 11
-5.2314499164
 21
0.0426929657
  0
LINE
  5
506
100
AcDbEntity
  8
0
100
AcDbLine
 62
250
  6
CONTINUOUS
 10
-5.3373235231
 20
0.4929169556
 11
-5.196520555
 21
0.4928224448
  0
LINE
  5
507
100
AcDbEntity
  8
0
100
AcDbLine
 62
250
  6
CONTINUOUS
 10
10.0714005382
 20
0.0427042744
 11
4.3077110222
 21
0.0426695718
  0
LINE
  5
508
100
AcDbEntity
  8
0
100
AcDbLine
 62
250
  6
CONTINUOUS
 10
-5.2314499164
 20
0.0426929657
 11
-5.168582786
 21
0.0426491905
  0
LINE
  5
509
100
AcDbEntity
  8
0
100
AcDbLine
 62
250
  6
CONTINUOUS
 10
10.0714005382
 20
0.0427042744
 11
10.1961474212
 21
0.0425539988
  0
LINE
  5
50A
100
AcDbEntity
  8
0
100
AcDbLine
 62
250
  6
CONTINUOUS
 10
10.1961474212
 20
0.0425539988
 11
10.3099886243
 21
0.0422344679
  0
LINE
  5
50B
100
AcDbEntity
  8
0
100
AcDbLine
 62
250
  6
CONTINUOUS
 10
-5.168582786
 20
0.0426491905
 11
-5.1426807853
 21
0.0426062857
  0
LINE
  5
50C
100
AcDbEntity
  8
0
100
AcDbLine
 62
250
  6
CONTINUOUS
 10
-5.1426807853
 20
0.0426062857
 11
-5.1387735634
 21
0.0425909723
  0
LINE
  5
50D
100
AcDbEntity
  8
0
100
AcDbLine
 62
250
  6
CONTINUOUS
 10
-5.196520555
 20
0.4928224448
 11
-5.1445198648
 21
0.4926798226
  0
LINE
  5
50E
100
AcDbEntity
  8
0
100
AcDbLine
 62
250
  6
CONTINUOUS
 10
10.3099886243
 20
0.0422344679
 11
10.3960026347
 21
0.0418249724
  0
LINE
  5
50F
100
AcDbEntity
  8
0
100
AcDbLine
 62
250
  6
CONTINUOUS
 10
10.3960026347
 20
0.0418249724
 11
10.4558650406
 21
0.0413868909
  0
LINE
  5
510
100
AcDbEntity
  8
0
100
AcDbLine
 62
250
  6
CONTINUOUS
 10
-5.1445198648
 20
0.4926798226
 11
-5.1397988374
 21
0.4926449516
  0
LINE
  5
511
100
AcDbEntity
  8
0
100
AcDbLine
 62
250
  6
CONTINUOUS
 10
10.2180343841
 20
-0.1580035505
 11
10.2656694259
 21
-0.1584284969
  0
LWPOLYLINE
  5
512
100
AcDbEntity
  8
0
100
AcDbPolyline
 62
250
  6
CONTINUOUS
 90
61
 70
0
 10
3.7586887573
 20
1.1931563669
 10
3.776860383
 20
1.1929242297
 10
3.7950304288
 20
1.1922154528
 10
3.8131988946
 20
1.1910300362
 10
3.8313837512
 20
1.1893680303
 10
3.8495670277
 20
1.1872293846
 10
3.8676948121
 20
1.1846139478
 10
3.8857662413
 20
1.1815192785
 10
3.9037821784
 20
1.1779478181
 10
3.9216913001
 20
1.1739067397
 10
3.9394926625
 20
1.1693938143
 10
3.9571872095
 20
1.1644112709
 10
3.9747264503
 20
1.158972969
 10
3.9921060134
 20
1.1530785628
 10
4.0093302703
 20
1.146728398
 10
4.0263638442
 20
1.1399373713
 10
4.0432036991
 20
1.1327061136
 10
4.0598528709
 20
1.1250339938
 10
4.0762850915
 20
1.1169340161
 10
4.0925016216
 20
1.1084051343
 10
4.1085012005
 20
1.0994483944
 10
4.1242537774
 20
1.0900799389
 10
4.1397608908
 20
1.0802976682
 10
4.1550210022
 20
1.0701036816
 10
4.1699994462
 20
1.0595204206
 10
4.1846951421
 20
1.0485470657
 10
4.1991091707
 20
1.0371844361
 10
4.2132101084
 20
1.0254574307
 10
4.2269962283
 20
1.0133661905
 10
4.2404692573
 20
1.0009105742
 10
4.2536029531
 20
0.988115057
 10
4.2663967727
 20
0.9749790523
 10
4.2788512591
 20
0.9615031464
 10
4.2909417983
 20
0.9477135733
 10
4.3026685369
 20
0.9336085817
 10
4.3140313283
 20
0.9191899227
 10
4.3250051192
 20
0.9044890833
 10
4.3355890498
 20
0.8895050331
 10
4.3457839799
 20
0.8742388024
 10
4.3555674353
 20
0.8587249689
 10
4.3649373085
 20
0.8429651127
 10
4.3738957071
 20
0.8269576536
 10
4.3824264795
 20
0.8107324292
 10
4.3905286338
 20
0.7942906065
 10
4.3982031619
 20
0.7776310184
 10
4.4054368882
 20
0.7607800018
 10
4.4122304684
 20
0.7437343758
 10
4.4185832469
 20
0.7264973213
 10
4.4244800811
 20
0.7091047165
 10
4.4299205686
 20
0.6915522025
 10
4.4349051118
 20
0.6738441382
 10
4.4394197755
 20
0.6560294794
 10
4.4434622787
 20
0.6381073992
 10
4.4470349023
 20
0.6200787244
 10
4.4501305533
 20
0.6019948903
 10
4.4527467827
 20
0.5838552443
 10
4.4548860395
 20
0.565660439
 10
4.4565485776
 20
0.5474638682
 10
4.4577344817
 20
0.5292833296
 10
4.4584436673
 20
0.5111010254
 10
4.4586761341
 20
0.4929169557
  0
LWPOLYLINE
  5
513
100
AcDbEntity
  8
0
100
AcDbPolyline
 62
250
  6
CONTINUOUS
 90
61
 70
0
 10
3.7586867158
 20
0.9925645481
 10
3.7716584626
 20
0.9923967208
 10
3.7846451896
 20
0.9918912178
 10
3.7976380524
 20
0.9910465301
 10
3.8106313912
 20
0.9898610391
 10
3.8236129086
 20
0.9883338701
 10
3.8365637758
 20
0.9864657488
 10
3.8494750187
 20
0.9842568658
 10
3.8623375435
 20
0.9817076674
 10
3.8751325555
 20
0.9788211621
 10
3.8878508564
 20
0.9755991252
 10
3.9004839464
 20
0.9720434081
 10
3.913014483
 20
0.9681589386
 10
3.9254312575
 20
0.96394973
 10
3.9377286113
 20
0.9594182435
 10
3.9498978691
 20
0.9545681168
 10
3.9619288886
 20
0.9494039476
 10
3.9738155837
 20
0.9439289092
 10
3.9855553436
 20
0.9381444165
 10
3.9971411186
 20
0.9320538483
 10
4.0085639127
 20
0.9256618373
 10
4.0198180571
 20
0.9189713914
 10
4.0308971406
 20
0.9119859638
 10
4.041791958
 20
0.9047109944
 10
4.052492831
 20
0.8971527731
 10
4.0629921584
 20
0.8893166325
 10
4.0732829478
 20
0.881207755
 10
4.0833568317
 20
0.8728327624
 10
4.093206208
 20
0.8641981441
 10
4.1028251559
 20
0.8553092636
 10
4.1122080756
 20
0.8461713454
 10
4.1213485326
 20
0.8367906352
 10
4.1302402308
 20
0.827173574
 10
4.1388778822
 20
0.8173257847
 10
4.1472561088
 20
0.8072531657
 10
4.1553683941
 20
0.7969633114
 10
4.1632080401
 20
0.786464644
 10
4.17076982
 20
0.775764188
 10
4.1780484135
 20
0.7648694985
 10
4.1850375416
 20
0.7537901932
 10
4.1917317263
 20
0.7425354963
 10
4.1981275093
 20
0.7311117857
 10
4.2042219285
 20
0.7195245847
 10
4.2100103481
 20
0.7077828125
 10
4.2154893201
 20
0.695893575
 10
4.2206573679
 20
0.6838595359
 10
4.2255113225
 20
0.6716866862
 10
4.2300465147
 20
0.6593852567
 10
4.2342591618
 20
0.6469642643
 10
4.2381467916
 20
0.6344293997
 10
4.241705394
 20
0.6217918602
 10
4.2449299669
 20
0.6090692812
 10
4.2478186593
 20
0.5962702647
 10
4.2503697391
 20
0.5834039379
 10
4.2525802122
 20
0.5704891334
 10
4.254449651
 20
0.5575349895
 10
4.2559778949
 20
0.5445504597
 10
4.2571642464
 20
0.5315543106
 10
4.2580096001
 20
0.5185588237
 10
4.2585155917
 20
0.5055696901
 10
4.2586837495
 20
0.4925957604
  0
LINE
  5
514
100
AcDbEntity
  8
0
100
AcDbLine
 62
250
  6
CONTINUOUS
 10
10.4558650406
 20
0.0413868909
 11
10.4938180449
 21
0.0409657427
  0
LWPOLYLINE
  5
515
100
AcDbEntity
  8
0
100
AcDbPolyline
 62
250
  6
CONTINUOUS
 90
3
 70
0
 10
-5.1387735634
 20
0.0425909723
 10
-5.1375402939
 20
0.0425754703
 10
-5.1373356411
 20
0.0425754661
  0
LWPOLYLINE
  5
516
100
AcDbEntity
  8
0
100
AcDbPolyline
 62
250
  6
CONTINUOUS
 90
4
 70
0
 10
-5.1397988374
 20
0.4926449516
 10
-5.1380138316
 20
0.4926213501
 10
-5.137534303
 20
0.4926094919
 10
-5.137331102
 20
0.4925976173
  0
LINE
  5
517
100
AcDbEntity
  8
0
100
AcDbLine
 62
250
  6
CONTINUOUS
 10
10.2656694259
 20
-0.1584284969
 11
10.2934918244
 21
-0.1588029187
  0
LINE
  5
518
100
AcDbEntity
  8
0
100
AcDbLine
 62
250
  6
CONTINUOUS
 10
10.4938180449
 20
0.0409657427
 11
10.5077820463
 21
0.0407433988
  0
LINE
  5
519
100
AcDbEntity
  8
0
100
AcDbLine
 62
250
  6
CONTINUOUS
 10
10.2934918244
 20
-0.1588029187
 11
10.3078077175
 21
-0.1590731179
  0
LINE
  5
51A
100
AcDbEntity
  8
0
100
AcDbLine
 62
250
  6
CONTINUOUS
 10
10.5077820463
 20
0.0407433988
 11
10.5151603944
 21
0.0405918751
  0
LINE
  5
51B
100
AcDbEntity
  8
0
100
AcDbLine
 62
250
  6
CONTINUOUS
 10
10.3078077175
 20
-0.1590731179
 11
10.3136233315
 21
-0.1592131357
  0
LWPOLYLINE
  5
51C
100
AcDbEntity
  8
0
100
AcDbPolyline
 62
250
  6
CONTINUOUS
 90
7
 70
0
 10
10.5151603944
 20
0.0405918751
 10
10.5209652046
 20
0.0404383647
 10
10.5232714773
 20
0.0403609455
 10
10.5251778282
 20
0.0402832533
 10
10.5266826936
 20
0.0402053493
 10
10.5277847903
 20
0.0401271883
 10
10.5284831879
 20
0.0400487783
  0
LWPOLYLINE
  5
51D
100
AcDbEntity
  8
0
100
AcDbPolyline
 62
250
  6
CONTINUOUS
 90
10
 70
0
 10
10.3136233315
 20
-0.1592131357
 10
10.3185156793
 20
-0.1593557544
 10
10.3206130193
 20
-0.1594279755
 10
10.3224728997
 20
-0.1595006282
 10
10.3240947498
 20
-0.1595737158
 10
10.3254791404
 20
-0.159647235
 10
10.3266226938
 20
-0.1597210011
 10
10.3275242839
 20
-0.1597949523
 10
10.3281850367
 20
-0.1598691503
 10
10.3286049523
 20
-0.1599435952
  0
LWPOLYLINE
  5
51E
100
AcDbEntity
  8
0
100
AcDbPolyline
 62
7
  6
CONTINUOUS
 90
4
 70
0
 10
-4.4503396945
 20
11.0085890976
 10
-4.4576544969
 20
11.0232837433
 10
-4.4645581574
 20
11.0381557998
 10
-4.4710463577
 20
11.0531981424
  0
LWPOLYLINE
  5
51F
100
AcDbEntity
  8
0
100
AcDbPolyline
 62
7
  6
CONTINUOUS
 90
4
 70
0
 10
-3.7607937589
 20
11.3429395282
 10
-3.7591473229
 20
11.3392417116
 10
-3.7573517826
 20
11.3356317043
 10
-3.7554064871
 20
11.3321038476
  0
LWPOLYLINE
  5
520
100
AcDbEntity
  8
0
100
AcDbPolyline
 62
7
  6
CONTINUOUS
 90
20
 70
0
 10
-4.4710418779
 20
11.0531873292
 10
-4.4771176299
 20
11.0684027759
 10
-4.482773532
 20
11.0837735054
 10
-4.4880113716
 20
11.0993077902
 10
-4.4928293615
 20
11.1149973502
 10
-4.4972132529
 20
11.1307954113
 10
-4.5011602399
 20
11.1466939842
 10
-4.5046731284
 20
11.1627010527
 10
-4.5077460881
 20
11.178793803
 10
-4.5103792886
 20
11.1949804891
 10
-4.5125725603
 20
11.2112528521
 10
-4.5143195642
 20
11.2275633107
 10
-4.5156189723
 20
11.2439039619
 10
-4.5164721126
 20
11.2602827059
 10
-4.5168766297
 20
11.2766756678
 10
-4.5168315742
 20
11.2930910007
 10
-4.5163378955
 20
11.3095205497
 10
-4.5153960858
 20
11.3259159788
 10
-4.5140054475
 20
11.3422696539
 10
-4.5121666783
 20
11.3585892098
  0
LINE
  5
521
100
AcDbEntity
  8
0
100
AcDbLine
 62
7
  6
CONTINUOUS
 10
-3.762323373
 20
11.3468061792
 11
-3.7608266793
 21
11.3430159299
  0
LINE
  5
522
100
AcDbEntity
  8
0
100
AcDbLine
 62
7
  6
CONTINUOUS
 10
-3.763656669
 20
11.3506517071
 11
-3.7622904396
 21
11.3467194945
  0
LINE
  5
523
100
AcDbEntity
  8
0
100
AcDbLine
 62
7
  6
CONTINUOUS
 10
2.8871817585
 20
-11.969359307
 11
2.886143757
 21
-11.9652874824
  0
LINE
  5
524
100
AcDbEntity
  8
0
100
AcDbLine
 62
7
  6
CONTINUOUS
 10
3.6185743726
 20
-11.741685515
 11
3.6225215113
 21
-11.7575888245
  0
LINE
  5
525
100
AcDbEntity
  8
0
100
AcDbLine
 62
7
  6
CONTINUOUS
 10
2.8880184757
 20
-11.9733541648
 11
2.8871477827
 21
-11.9692177732
  0
LINE
  5
526
100
AcDbEntity
  8
0
100
AcDbLine
 62
7
  6
CONTINUOUS
 10
2.8891599699
 20
-11.9811804495
 11
2.8886558891
 21
-11.9771642569
  0
LINE
  5
527
100
AcDbEntity
  8
0
100
AcDbLine
 62
7
  6
CONTINUOUS
 10
2.8895172621
 20
-11.9855794457
 11
2.8891599699
 21
-11.9811804495
  0
LWPOLYLINE
  5
528
100
AcDbEntity
  8
0
100
AcDbPolyline
 62
7
  6
CONTINUOUS
 90
18
 70
0
 10
2.8894717489
 20
11.378801337
 10
2.8894561812
 20
11.3829466877
 10
2.889265092
 20
11.3870973022
 10
2.8888972865
 20
11.3912567995
 10
2.8883539595
 20
11.3954215607
 10
2.887635872
 20
11.3995645221
 10
2.8867423947
 20
11.4036829087
 10
2.885674157
 20
11.4077794959
 10
2.8844338085
 20
11.4118355464
 10
2.8830205306
 20
11.4158517442
 10
2.8814351419
 20
11.4198274058
 10
2.8796827483
 20
11.423741743
 10
2.8777630754
 20
11.427593994
 10
2.8756763975
 20
11.4313849213
 10
2.8734286427
 20
11.4350960226
 10
2.8710176945
 20
11.4387289652
 10
2.8684456693
 20
11.4422820826
 10
2.8657248449
 20
11.4457318725
  0
LWPOLYLINE
  5
529
100
AcDbEntity
  8
0
100
AcDbPolyline
 62
7
  6
CONTINUOUS
 90
19
 70
0
 10
2.8894629568
 20
11.3783472576
 10
2.8894680781
 20
11.382437313
 10
2.8893006688
 20
11.3865417372
 10
2.8889591761
 20
11.3906671263
 10
2.8884451528
 20
11.3948068839
 10
2.8877579052
 20
11.3989283507
 10
2.8868961852
 20
11.4030277576
 10
2.8858612409
 20
11.4071088739
 10
2.8846561223
 20
11.4111503479
 10
2.8832837242
 20
11.4151461503
 10
2.8817411518
 20
11.4191023109
 10
2.8800227713
 20
11.4230155672
 10
2.8781277062
 20
11.4268911269
 10
2.8760568331
 20
11.4307237827
 10
2.8738071477
 20
11.4344946498
 10
2.8713731208
 20
11.4382098403
 10
2.8687602815
 20
11.4418632428
 10
2.8659822129
 20
11.4454176366
 10
2.8628593139
 20
11.4490705011
  0
LINE
  5
52A
100
AcDbEntity
  8
0
100
AcDbLine
 62
7
  6
CONTINUOUS
 10
2.8892906573
 20
11.374284442
 11
2.8894717489
 21
11.378801337
  0
LWPOLYLINE
  5
52B
100
AcDbEntity
  8
0
100
AcDbPolyline
 62
7
  6
CONTINUOUS
 90
5
 70
0
 10
3.6367706261
 20
11.2438752821
 10
3.6354703999
 20
11.2275342985
 10
3.6337225675
 20
11.2112235816
 10
3.6315284559
 20
11.1949510228
 10
3.6288944117
 20
11.1787642047
  0
LINE
  5
52C
100
AcDbEntity
  8
0
100
AcDbLine
 62
7
  6
CONTINUOUS
 10
2.8889525534
 20
11.3702524679
 11
2.8893146181
 21
11.3746774574
  0
LWPOLYLINE
  5
52D
100
AcDbEntity
  8
0
100
AcDbPolyline
 62
7
  6
CONTINUOUS
 90
8
 70
0
 10
-0.0367776345
 20
-11.5551593476
 10
-0.0353446909
 20
-11.5454448847
 10
-0.0335965596
 20
-11.5357923082
 10
-0.0315292071
 20
-11.5262017382
 10
-0.0291466669
 20
-11.5166730564
 10
-0.0264639442
 20
-11.5072513886
 10
-0.023483024
 20
-11.4979451437
 10
-0.0202019214
 20
-11.4887459156
  0
LINE
  5
52E
100
AcDbEntity
  8
0
100
AcDbLine
 62
7
  6
CONTINUOUS
 10
-0.8450644782
 20
-11.6525542438
 11
-0.8471283505
 21
-11.662123494
  0
LWPOLYLINE
  5
52F
100
AcDbEntity
  8
0
100
AcDbPolyline
 62
7
  6
CONTINUOUS
 90
3
 70
0
 10
-0.0335849493
 20
-11.5357337557
 10
-0.0315215476
 20
-11.5261650018
 10
-0.0291441327
 20
-11.5166584074
  0
LINE
  5
530
100
AcDbEntity
  8
0
100
AcDbLine
 62
7
  6
CONTINUOUS
 10
-0.852189106
 20
-11.6810450411
 11
-0.8551764023
 21
-11.6903655291
  0
LWPOLYLINE
  5
531
100
AcDbEntity
  8
0
100
AcDbPolyline
 62
7
  6
CONTINUOUS
 90
7
 70
0
 10
-3.7551981915
 20
-11.9429456898
 10
-3.7571542419
 20
-11.9464937048
 10
-3.7589573475
 20
-11.9501207312
 10
-3.7606087407
 20
-11.9538310232
 10
-3.7621071891
 20
-11.9576203258
 10
-3.7634423029
 20
-11.9614650885
 10
-3.7646121068
 20
-11.9653617582
  0
LINE
  5
532
100
AcDbEntity
  8
0
100
AcDbLine
 62
7
  6
CONTINUOUS
 10
-3.7531251206
 20
-11.9395334057
 11
-3.7552062743
 21
-11.9429611818
  0
LINE
  5
533
100
AcDbEntity
  8
0
100
AcDbLine
 62
250
  6
CONTINUOUS
 10
-11.5630163851
 20
-22.0161761729
 11
-11.4609893761
 21
-21.8630578697
  0
LINE
  5
534
100
AcDbEntity
  8
0
100
AcDbLine
 62
250
  6
CONTINUOUS
 10
-11.0621054997
 20
-22.5136668057
 11
-10.9612939626
 21
-22.3623726371
  0
LINE
  5
535
100
AcDbEntity
  8
0
100
AcDbLine
 62
250
  6
CONTINUOUS
 10
3.7469093242
 20
0.9807851151
 11
3.7586867159
 21
0.9925645481
  0
LINE
  5
536
100
AcDbEntity
  8
0
100
AcDbLine
 62
250
  6
CONTINUOUS
 10
4.2586882521
 20
0.0425754661
 11
4.2468902858
 21
0.0307774997
  0
LINE
  5
537
100
AcDbEntity
  8
0
100
AcDbLine
 62
250
  6
CONTINUOUS
 10
4.4586806367
 20
-0.1574169185
 11
4.4439047226
 21
-0.1721928327
  0
LINE
  5
538
100
AcDbEntity
  8
0
100
AcDbLine
 62
250
  6
CONTINUOUS
 10
4.2468902858
 20
0.4808041536
 11
4.2586837495
 21
0.4925957605
  0
LINE
  5
539
100
AcDbEntity
  8
0
100
AcDbLine
 62
250
  6
CONTINUOUS
 10
-11.3892627331
 20
-0.2054288651
 11
-11.2072523412
 21
-0.1599435952
  0
LINE
  5
53A
100
AcDbEntity
  8
0
100
AcDbLine
 62
250
  6
CONTINUOUS
 10
-11.5893236945
 20
-0.0054821621
 11
-11.4071305769
 21
0.0400487718
  0
LWPOLYLINE
  5
53B
100
AcDbEntity
  8
0
100
AcDbPolyline
 62
250
  6
CONTINUOUS
 90
8
 70
0
 10
-11.2072523412
 20
-0.1599435952
 10
-11.2068324257
 20
-0.1598691503
 10
-11.2061716729
 20
-0.1597949523
 10
-11.2052700828
 20
-0.1597210011
 10
-11.2041265294
 20
-0.159647235
 10
-11.2027421388
 20
-0.1595737158
 10
-11.2011202887
 20
-0.1595006282
 10
-11.1992604082
 20
-0.1594279755
  0
LWPOLYLINE
  5
53C
100
AcDbEntity
  8
0
100
AcDbPolyline
 62
7
  6
CONTINUOUS
 90
2
 70
0
 43
0.3500000006
 10
17.9762018967
 20
2.7302846603
 10
16.4762014389
 20
2.7302846603
  0
LINE
  5
53D
100
AcDbEntity
  8
0
100
AcDbLine
 62
250
  6
CONTINUOUS
 10
10.3286049523
 20
-0.1599435952
 11
10.5106153441
 21
-0.2054288651
  0
LINE
  5
53E
100
AcDbEntity
  8
0
100
AcDbLine
 62
250
  6
CONTINUOUS
 10
10.5284831879
 20
0.0400487718
 11
10.7106763055
 21
-0.0054821621
  0
LINE
  5
53F
100
AcDbEntity
  8
0
100
AcDbLine
 62
250
  6
CONTINUOUS
 10
4.2468902858
 20
-1.0916618838
 11
4.2586837495
 21
-1.103453306
  0
LINE
  5
540
100
AcDbEntity
  8
0
100
AcDbLine
 62
250
  6
CONTINUOUS
 10
4.2468902858
 20
-0.64163523
 11
4.2586882521
 21
-0.6534331963
  0
LINE
  5
541
100
AcDbEntity
  8
0
100
AcDbLine
 62
250
  6
CONTINUOUS
 10
4.4439047226
 20
-0.4386648976
 11
4.4586806367
 21
-0.4534408117
  0
LINE
  5
542
100
AcDbEntity
  8
0
100
AcDbLine
 62
250
  6
CONTINUOUS
 10
3.7469093242
 20
-1.5916428454
 11
3.7586869006
 21
-1.6034222784
  0
LWPOLYLINE
  5
543
100
AcDbEntity
  8
0
100
AcDbPolyline
 62
7
  6
CONTINUOUS
 90
6
 70
0
 10
-4.4079836091
 20
10.9385341089
 10
-4.4172203379
 20
10.952078308
 10
-4.4260741647
 20
10.9658576778
 10
-4.4345506325
 20
10.9798783135
 10
-4.4426381276
 20
10.9941198184
 10
-4.4503401089
 20
11.0085899304
  0
LINE
  5
544
100
AcDbEntity
  8
0
100
AcDbLine
 62
250
  6
CONTINUOUS
 10
-11.4609893761
 20
21.2522001394
 11
-11.5630163851
 21
21.4053184426
  0
LINE
  5
545
100
AcDbEntity
  8
0
100
AcDbLine
 62
250
  6
CONTINUOUS
 10
-10.9612939626
 20
21.7515149068
 11
-11.0621054997
 21
21.9028090754
  0
LWPOLYLINE
  5
546
100
AcDbEntity
  8
0
100
AcDbPolyline
 62
7
  6
CONTINUOUS
 90
4
 70
0
 10
-3.7554205471
 20
11.3321265267
 10
-3.7533192956
 20
11.3286664949
 10
-3.7510698538
 20
11.3252939059
 10
-3.7486738797
 20
11.3220108625
  0
LWPOLYLINE
  5
547
100
AcDbEntity
  8
0
100
AcDbPolyline
 62
7
  6
CONTINUOUS
 90
6
 70
0
 10
-0.8584443395
 20
11.0886710583
 10
-0.8551629943
 20
11.0794706784
 10
-0.8521819322
 20
11.070163496
 10
-0.8494992116
 20
11.0607412684
 10
-0.8471167743
 20
11.0512122358
 10
-0.8450495566
 20
11.0416213396
  0
LWPOLYLINE
  5
548
100
AcDbEntity
  8
0
100
AcDbPolyline
 62
7
  6
CONTINUOUS
 90
10
 70
0
 10
-0.8521744008
 20
11.0701386088
 10
-0.8494932314
 20
11.0607240442
 10
-0.8471169707
 20
11.0512168713
 10
-0.8450547545
 20
11.0416475642
 10
-0.8433086227
 20
11.0320161603
 10
-0.8418765354
 20
11.0223226208
 10
-0.8407615082
 20
11.0125973069
 10
-0.8399634405
 20
11.0028397556
 10
-0.839482433
 20
10.9930504293
 10
-0.8393218029
 20
10.9832610777
  0
LWPOLYLINE
  5
549
100
AcDbEntity
  8
0
100
AcDbPolyline
 62
7
  6
CONTINUOUS
 90
10
 70
0
 10
-0.0264765771
 20
10.8964355205
 10
-0.029157174
 20
10.9058495123
 10
-0.0315329189
 20
10.9153561353
 10
-0.0335946664
 20
10.9249249507
 10
-0.0353403801
 20
10.934555924
 10
-0.0367720964
 20
10.9442490879
 10
-0.0378867787
 20
10.9539741062
 10
-0.0386845294
 20
10.9637314466
 10
-0.0391652462
 20
10.9735206402
 10
-0.0393255854
 20
10.9833099466
  0
LWPOLYLINE
  5
54A
100
AcDbEntity
  8
0
100
AcDbPolyline
 62
7
  6
CONTINUOUS
 90
4
 70
0
 10
3.6317395593
 20
-11.8058897035
 10
3.6339319471
 20
-11.8221666291
 10
3.6356778212
 20
-11.8384815776
 10
3.636975848
 20
-11.8548267629
  0
LWPOLYLINE
  5
54B
100
AcDbEntity
  8
0
100
AcDbPolyline
 62
7
  6
CONTINUOUS
 90
3
 70
0
 10
2.8891886714
 20
-11.9814764407
 10
2.8886874852
 20
-11.977394161
 10
2.8879853428
 20
-11.9731787376
  0
LINE
  5
54C
100
AcDbEntity
  8
0
100
AcDbLine
 62
7
  6
CONTINUOUS
 10
3.6351615469
 20
11.3422438603
 11
3.6365515438
 21
11.3258895011
  0
LINE
  5
54D
100
AcDbEntity
  8
0
100
AcDbLine
 62
7
  6
CONTINUOUS
 10
3.6374926546
 20
11.3094935304
 11
3.6379855873
 21
11.2930635463
  0
LWPOLYLINE
  5
54E
100
AcDbEntity
  8
0
100
AcDbPolyline
 62
250
  6
CONTINUOUS
 90
46
 70
0
 10
4.2586882521
 20
0.0425754661
 10
4.2588106018
 20
0.0355961707
 10
4.2591764386
 20
0.0286253778
 10
4.2597853171
 20
0.0216715792
 10
4.2606364953
 20
0.0147432463
 10
4.2617289365
 20
0.0078488194
 10
4.2630613097
 20
0.0009966974
 10
4.2646319918
 20
-0.0058047721
 10
4.2664390694
 20
-0.0125473035
 10
4.268480341
 20
-0.0192226828
 10
4.2707533199
 20
-0.0258227778
 10
4.2732552371
 20
-0.0323395482
 10
4.2759830446
 20
-0.0387650551
 10
4.2789334195
 20
-0.0450914707
 10
4.2821027674
 20
-0.0513110879
 10
4.2854872274
 20
-0.05741633
 10
4.2890826765
 20
-0.0633997592
 10
4.2928847345
 20
-0.0692540865
 10
4.2968887697
 20
-0.0749721799
 10
4.3010899042
 20
-0.0805470735
 10
4.3054830202
 20
-0.0859719758
 10
4.3100627658
 20
-0.0912402781
 10
4.3148235617
 20
-0.0963455622
 10
4.3197596084
 20
-0.1012816089
 10
4.3248648926
 20
-0.1060424049
 10
4.3301331948
 20
-0.1106221505
 10
4.3355580971
 20
-0.1150152664
 10
4.3411329907
 20
-0.119216401
 10
4.3468510841
 20
-0.1232204362
 10
4.3527054114
 20
-0.1270224942
 10
4.3586888407
 20
-0.1306179432
 10
4.3647940827
 20
-0.1340024032
 10
4.3710137
 20
-0.1371717511
 10
4.3773401155
 20
-0.140122126
 10
4.3837656224
 20
-0.1428499336
 10
4.3902823928
 20
-0.1453518508
 10
4.3968824879
 20
-0.1476248297
 10
4.4035578672
 20
-0.1496661013
 10
4.4103003985
 20
-0.1514731788
 10
4.4171018681
 20
-0.153043861
 10
4.42395399
 20
-0.1543762341
 10
4.4308484169
 20
-0.1554686753
 10
4.4377767498
 20
-0.1563198536
 10
4.4447305484
 20
-0.156928732
 10
4.4517013414
 20
-0.1572945689
 10
4.4586806367
 20
-0.1574169185
  0
LINE
  5
54F
100
AcDbEntity
  8
0
100
AcDbLine
 62
250
  6
CONTINUOUS
 10
3.7586887573
 20
1.1931563669
 11
3.7586887573
 21
0.9925645481
  0
LINE
  5
550
100
AcDbEntity
  8
0
100
AcDbLine
 62
250
  6
CONTINUOUS
 10
3.7586887573
 20
-1.8040140971
 11
3.7586887573
 21
-1.6034222784
  0
LINE
  5
551
100
AcDbEntity
  8
0
100
AcDbLine
 62
7
  6
CONTINUOUS
 10
4.2468902858
 20
-1.0916618838
 11
4.2468902858
 21
-0.64163523
  0
LINE
  5
552
100
AcDbEntity
  8
0
100
AcDbLine
 62
7
  6
CONTINUOUS
 10
4.2468902858
 20
0.0307774997
 11
4.2468902858
 21
0.4808041536
  0
LINE
  5
553
100
AcDbEntity
  8
0
100
AcDbLine
 62
250
  6
CONTINUOUS
 10
4.2586837495
 20
0.4925957605
 11
4.2586882521
 21
0.0425754661
  0
LINE
  5
554
100
AcDbEntity
  8
0
100
AcDbLine
 62
250
  6
CONTINUOUS
 10
4.2586882521
 20
-0.6534331963
 11
4.2586837495
 21
-1.103453306
  0
LINE
  5
555
100
AcDbEntity
  8
0
100
AcDbLine
 62
250
  6
CONTINUOUS
 10
4.4586761341
 20
0.4929169557
 11
4.4586806367
 21
-0.1574169185
  0
LINE
  5
556
100
AcDbEntity
  8
0
100
AcDbLine
 62
250
  6
CONTINUOUS
 10
4.4586806367
 20
-0.4534408117
 11
4.4586761341
 21
-1.1037746859
  0
LWPOLYLINE
  5
557
100
AcDbEntity
  8
0
100
AcDbPolyline
 62
250
  6
CONTINUOUS
 90
61
 70
0
 10
4.4586761341
 20
-1.1037746859
 10
4.4584435875
 20
-1.1219620736
 10
4.4577341423
 20
-1.1401477076
 10
4.4565477984
 20
-1.1583315879
 10
4.4548845908
 20
-1.1765317291
 10
4.4527444846
 20
-1.1947301166
 10
4.4501273747
 20
-1.2128727068
 10
4.4470308125
 20
-1.2309586307
 10
4.4434572465
 20
-1.2489887572
 10
4.4394139176
 20
-1.2669116508
 10
4.4348985917
 20
-1.284726359
 10
4.429913503
 20
-1.3024338342
 10
4.4244725945
 20
-1.3199854972
 10
4.4185755201
 20
-1.3373769617
 10
4.4122226259
 20
-1.354612614
 10
4.4054288939
 20
-1.3716570345
 10
4.3981949492
 20
-1.3885071884
 10
4.3905201667
 20
-1.4051661104
 10
4.3824176528
 20
-1.421607485
 10
4.3738863561
 20
-1.4378325702
 10
4.364927328
 20
-1.4538401081
 10
4.3555568302
 20
-1.469600009
 10
4.3457727667
 20
-1.4851137958
 10
4.3355772333
 20
-1.5003799457
 10
4.324992779
 20
-1.5153638015
 10
4.3140185912
 20
-1.5300642698
 10
4.3026554824
 20
-1.544482444
 10
4.2909284393
 20
-1.5585869469
 10
4.278837608
 20
-1.5723760454
 10
4.2663828423
 20
-1.5858514727
 10
4.2535886901
 20
-1.5989870521
 10
4.2404545673
 20
-1.6117822384
 10
4.2269810579
 20
-1.6242375768
 10
4.2131944618
 20
-1.6363285261
 10
4.1990930344
 20
-1.6480552277
 10
4.1846785203
 20
-1.6594175402
 10
4.1699824527
 20
-1.6703904982
 10
4.1550038141
 20
-1.6809732354
 10
4.1397436221
 20
-1.6911666182
 10
4.1242364616
 20
-1.7009482807
 10
4.1084839284
 20
-1.7103161117
 10
4.0924844268
 20
-1.7192722226
 10
4.0762677553
 20
-1.7278005807
 10
4.0598350832
 20
-1.7359001999
 10
4.0431852413
 20
-1.7435720665
 10
4.02634452
 20
-1.7508031068
 10
4.0093097375
 20
-1.7575939822
 10
3.9920840756
 20
-1.7639440314
 10
3.9747033704
 20
-1.7698381971
 10
3.9571632785
 20
-1.7752760772
 10
3.9394681432
 20
-1.7802580739
 10
3.9216668312
 20
-1.7847703357
 10
3.9037585237
 20
-1.7888105874
 10
3.8857440395
 20
-1.7923811042
 10
3.8676747013
 20
-1.7954748611
 10
3.849549862
 20
-1.7980894163
 10
3.8313701686
 20
-1.8002272117
 10
3.813188885
 20
-1.8018885474
 10
3.7950237659
 20
-1.8030735236
 10
3.7768570567
 20
-1.8037820401
 10
3.7586887573
 20
-1.8040140971
  0
LWPOLYLINE
  5
558
100
AcDbEntity
  8
0
100
AcDbPolyline
 62
250
  6
CONTINUOUS
 90
61
 70
0
 10
4.2586837495
 20
-1.103453306
 10
4.2585154981
 20
-1.1164310263
 10
4.2580092327
 20
-1.1294236206
 10
4.25716345
 20
-1.1424222322
 10
4.2559765353
 20
-1.1554212035
 10
4.2544476218
 20
-1.1684082109
 10
4.2525774509
 20
-1.1813643712
 10
4.2503662243
 20
-1.1942806985
 10
4.2478143998
 20
-1.2071480903
 10
4.2449250099
 20
-1.2199477044
 10
4.2416998458
 20
-1.2326703321
 10
4.2381407746
 20
-1.2453074689
 10
4.2342527537
 20
-1.2578417354
 10
4.2300398176
 20
-1.2702619123
 10
4.2255044446
 20
-1.2825623434
 10
4.2206502992
 20
-1.2947343384
 10
4.2154819968
 20
-1.3067677593
 10
4.2100027327
 20
-1.3186565137
 10
4.2042139576
 20
-1.3303979631
 10
4.1981190704
 20
-1.3419850625
 10
4.1917227271
 20
-1.353408817
 10
4.1850279806
 20
-1.3646635286
 10
4.1780383114
 20
-1.3757427866
 10
4.1707591797
 20
-1.386637401
 10
4.1631969125
 20
-1.3973376901
 10
4.1553568698
 20
-1.4078360595
 10
4.1472442534
 20
-1.4181255343
 10
4.1388657116
 20
-1.4281977624
 10
4.1302277562
 20
-1.4380451557
 10
4.1213357706
 20
-1.4476618104
 10
4.1121949994
 20
-1.457042148
 10
4.1028117061
 20
-1.4661797531
 10
4.0931923505
 20
-1.4750683471
 10
4.0833425773
 20
-1.4837026621
 10
4.0732683018
 20
-1.4920773398
 10
4.0629771327
 20
-1.5001858863
 10
4.052477507
 20
-1.5080216303
 10
4.0417764672
 20
-1.5155793642
 10
4.0308815749
 20
-1.5228537953
 10
4.0198024442
 20
-1.5298386819
 10
4.0085483139
 20
-1.5365285662
 10
3.9971255629
 20
-1.5429200175
 10
3.9855396849
 20
-1.5490101183
 10
3.9737995998
 20
-1.5547942565
 10
3.9619124186
 20
-1.5602690039
 10
3.9498807782
 20
-1.5654329192
 10
3.9377106634
 20
-1.5702828555
 10
3.9254123089
 20
-1.5748141615
 10
3.9129947176
 20
-1.5790230811
 10
3.9004635825
 20
-1.582907159
 10
3.8878300903
 20
-1.5864624067
 10
3.875111839
 20
-1.5896838519
 10
3.8623174256
 20
-1.5925696592
 10
3.8494559672
 20
-1.5951181125
 10
3.8365462486
 20
-1.5973262415
 10
3.8235973995
 20
-1.5991936304
 10
3.8106183616
 20
-1.6007201296
 10
3.7976278476
 20
-1.6019050573
 10
3.7846381131
 20
-1.6027493156
 10
3.7716548513
 20
-1.6032545447
 10
3.7586869006
 20
-1.6034222784
  0
LWPOLYLINE
  5
559
100
AcDbEntity
  8
0
100
AcDbPolyline
 62
250
  6
CONTINUOUS
 90
13
 70
0
 10
10.0826465736
 20
21.7515149068
 10
10.0822277106
 20
21.7499701334
 10
10.0818101036
 20
21.7478502997
 10
10.0813937525
 20
21.7451566359
 10
10.0809784233
 20
21.7418907094
 10
10.0805643501
 20
21.738054407
 10
10.0801522354
 20
21.7336499248
 10
10.0797420745
 20
21.7286797849
 10
10.0793338722
 20
21.7231468657
 10
10.0789283443
 20
21.7170543856
 10
10.0785255006
 20
21.7104058792
 10
10.0781253315
 20
21.7032051749
 10
10.0773350826
 20
21.6871640709
  0
LINE
  5
55A
100
AcDbEntity
  8
0
100
AcDbLine
 62
7
  6
CONTINUOUS
 10
-0.0234752249
 20
-11.4979247031
 11
-0.020183732
 21
-11.4886975957
  0
LINE
  5
55B
100
AcDbEntity
  8
0
100
AcDbLine
 62
7
  6
CONTINUOUS
 10
-0.8584503903
 20
-11.6995449361
 11
-0.8620577402
 21
-11.7087010869
  0
LINE
  5
55C
100
AcDbEntity
  8
0
100
AcDbLine
 62
7
  6
CONTINUOUS
 10
-0.0202019214
 20
-11.4887459156
 11
-0.0165953288
 21
-11.4795903929
  0
LINE
  5
55D
100
AcDbEntity
  8
0
100
AcDbLine
 62
7
  6
CONTINUOUS
 10
-0.8620233425
 20
-11.7086177855
 11
-0.8659457369
 21
-11.7176892828
  0
LINE
  5
55E
100
AcDbEntity
  8
0
100
AcDbLine
 62
7
  6
CONTINUOUS
 10
-0.0166296862
 20
-11.4796736081
 11
-0.0127081429
 21
-11.4706028022
  0
LINE
  5
55F
100
AcDbEntity
  8
0
100
AcDbLine
 62
7
  6
CONTINUOUS
 10
-0.0127656616
 20
-11.4707283474
 11
-0.0085240467
 21
-11.4617351191
  0
LINE
  5
560
100
AcDbEntity
  8
0
100
AcDbLine
 62
7
  6
CONTINUOUS
 10
-0.8658881511
 20
-11.7175636045
 11
-0.8701306997
 21
-11.7265575615
  0
LINE
  5
561
100
AcDbEntity
  8
0
100
AcDbLine
 62
7
  6
CONTINUOUS
 10
-0.8700441516
 20
-11.726382512
 11
-0.8745990698
 21
-11.7352778665
  0
LINE
  5
562
100
AcDbEntity
  8
0
100
AcDbLine
 62
7
  6
CONTINUOUS
 10
-0.8744803087
 20
-11.7350549265
 11
-0.8793511634
 21
-11.7438499449
  0
LINE
  5
563
100
AcDbEntity
  8
0
100
AcDbLine
 62
7
  6
CONTINUOUS
 10
-3.7508456144
 20
-11.9361169254
 11
-3.753095889
 21
-11.9394874734
  0
LINE
  5
564
100
AcDbEntity
  8
0
100
AcDbLine
 62
7
  6
CONTINUOUS
 10
-3.7484490877
 20
-11.9328361769
 11
-3.7509092882
 21
-11.9362051949
  0
LINE
  5
565
100
AcDbEntity
  8
0
100
AcDbLine
 62
7
  6
CONTINUOUS
 10
-3.7459181617
 20
-11.9296624078
 11
-3.7485552157
 21
-11.93297253
  0
LINE
  5
566
100
AcDbEntity
  8
0
100
AcDbLine
 62
7
  6
CONTINUOUS
 10
-4.3881590573
 20
-11.5230047199
 11
-4.3778471707
 21
-11.5102668681
  0
LINE
  5
567
100
AcDbEntity
  8
0
100
AcDbLine
 62
7
  6
CONTINUOUS
 10
-3.743253932
 20
-11.9265975746
 11
-3.7460634135
 21
-11.9298371297
  0
LINE
  5
568
100
AcDbEntity
  8
RACCORDO
100
AcDbLine
 62
7
  6
CONTINUOUS
 10
9.5611464295
 20
-0.4316094685
 11
9.5712695016
 21
-0.4265483179
  0
LINE
  5
569
100
AcDbEntity
  8
RACCORDO
100
AcDbLine
 62
250
  6
CONTINUOUS
 10
9.6083720408
 20
-0.4316094685
 11
9.6607372356
 21
-0.4054288651
  0
LINE
  5
56A
100
AcDbEntity
  8
DRAFT
100
AcDbLine
 62
7
  6
CONTINUOUS
 10
9.4606763055
 20
-0.2054288651
 11
9.4083111107
 21
-0.1792482618
  0
LINE
  5
56B
100
AcDbEntity
  8
0
100
AcDbLine
 62
7
  6
CONTINUOUS
 10
-4.3334520151
 20
10.8514283389
 11
-4.3451183151
 21
10.8629937802
  0
LINE
  5
56C
100
AcDbEntity
  8
0
100
AcDbLine
 62
7
  6
CONTINUOUS
 10
-3.7462531439
 20
11.3189670337
 11
-3.7434778238
 21
11.3157662917
  0
LINE
  5
56D
100
AcDbEntity
  8
0
100
AcDbLine
 62
7
  6
CONTINUOUS
 10
-4.3674415546
 20
10.8870155709
 11
-4.3780984941
 21
10.8994719109
  0
LINE
  5
56E
100
AcDbEntity
  8
0
100
AcDbLine
 62
7
  6
CONTINUOUS
 10
-3.7487476756
 20
11.3221049074
 11
-3.7461429076
 21
11.3188344127
  0
LINE
  5
56F
100
AcDbEntity
  8
0
100
AcDbLine
 62
7
  6
CONTINUOUS
 10
-4.3884063175
 20
10.9122082319
 11
-4.3983695213
 21
10.9252311848
  0
LINE
  5
570
100
AcDbEntity
  8
0
100
AcDbLine
 62
7
  6
CONTINUOUS
 10
-0.8793248529
 20
11.1329464949
 11
-0.874472324
 21
11.1241821941
  0
LINE
  5
571
100
AcDbEntity
  8
0
100
AcDbLine
 62
7
  6
CONTINUOUS
 10
-0.8745743299
 20
11.1243737278
 11
-0.8700365939
 21
11.1155094779
  0
LINE
  5
572
100
AcDbEntity
  8
0
100
AcDbLine
 62
7
  6
CONTINUOUS
 10
-0.8701076556
 20
11.1156530571
 11
-0.8658811393
 21
11.1066904567
  0
LINE
  5
573
100
AcDbEntity
  8
0
100
AcDbLine
 62
7
  6
CONTINUOUS
 10
-0.0085470609
 20
10.85092411
 11
-0.0127726553
 21
10.8598859974
  0
LWPOLYLINE
  5
574
100
AcDbEntity
  8
0
100
AcDbPolyline
 62
7
  6
CONTINUOUS
 90
3
 70
0
 10
-0.8659244805
 20
11.1067846243
 10
-0.8620382254
 20
11.0977961884
 10
-0.858450701
 20
11.0886878679
  0
LWPOLYLINE
  5
575
100
AcDbEntity
  8
0
100
AcDbPolyline
 62
7
  6
CONTINUOUS
 90
4
 70
0
 10
-0.0127293727
 20
10.8597919488
 10
-0.0166148204
 20
10.8687797817
 10
-0.0202015993
 20
10.8778874893
 10
-0.0234915142
 20
10.8871151881
  0
LWPOLYLINE
  5
576
100
AcDbEntity
  8
0
100
AcDbPolyline
 62
7
  6
CONTINUOUS
 90
7
 70
0
 10
-0.0166361564
 20
10.8688314768
 10
-0.0202079584
 20
10.8779042987
 10
-0.0234886485
 20
10.8871041457
 10
-0.0264691072
 20
10.8964108329
 10
-0.0291512777
 20
10.9058326031
 10
-0.0315332167
 20
10.9153612108
 10
-0.033599975
 20
10.924951739
  0
LINE
  5
577
100
AcDbEntity
  8
0
100
AcDbLine
 62
7
  6
CONTINUOUS
 10
3.6335192893
 20
-11.9694469401
 11
3.6312212618
 21
-11.9857956753
  0
LINE
  5
578
100
AcDbEntity
  8
0
100
AcDbLine
 62
7
  6
CONTINUOUS
 10
3.631234975
 20
-11.9857069468
 11
3.628487191
 21
-12.0020040128
  0
LINE
  5
579
100
AcDbEntity
  8
0
100
AcDbLine
 62
7
  6
CONTINUOUS
 10
3.6285034968
 20
-12.001914666
 11
3.6253076002
 21
-12.0181521597
  0
LINE
  5
57A
100
AcDbEntity
  8
0
100
AcDbLine
 62
7
  6
CONTINUOUS
 10
3.6253264735
 20
-12.0180628376
 11
3.6216900586
 21
-12.0341929796
  0
LINE
  5
57B
100
AcDbEntity
  8
0
100
AcDbLine
 62
7
  6
CONTINUOUS
 10
3.6217113482
 20
-12.03410425
 11
3.6176343485
 21
-12.0501197667
  0
LINE
  5
57C
100
AcDbEntity
  8
0
100
AcDbLine
 62
7
  6
CONTINUOUS
 10
-0.0086105046
 20
-11.4619100103
 11
-0.0040565799
 21
-11.4530153543
  0
LINE
  5
57D
100
AcDbEntity
  8
0
100
AcDbLine
 62
7
  6
CONTINUOUS
 10
-0.0041752353
 20
-11.453238127
 11
0.0006945707
 21
-11.4444437616
  0
LINE
  5
57E
100
AcDbEntity
  8
0
100
AcDbLine
 62
7
  6
CONTINUOUS
 10
-0.8791974649
 20
-11.743582924
 11
-0.8843866643
 21
-11.7522740529
  0
LINE
  5
57F
100
AcDbEntity
  8
0
100
AcDbLine
 62
7
  6
CONTINUOUS
 10
0.0005409829
 20
-11.4447106251
 11
0.005729092
 21
-11.4360200906
  0
LINE
  5
580
100
AcDbEntity
  8
0
100
AcDbLine
 62
7
  6
CONTINUOUS
 10
0.0055373133
 20
-11.4363295803
 11
0.0110325052
 21
-11.427771596
  0
LINE
  5
581
100
AcDbEntity
  8
0
100
AcDbLine
 62
7
  6
CONTINUOUS
 10
-0.8841947776
 20
-11.7519644317
 11
-0.8896910661
 21
-11.7605228984
  0
LINE
  5
582
100
AcDbEntity
  8
0
100
AcDbLine
 62
7
  6
CONTINUOUS
 10
-0.889458684
 20
-11.7601736451
 11
-0.8952669034
 21
-11.7685972105
  0
LINE
  5
583
100
AcDbEntity
  8
0
100
AcDbLine
 62
7
  6
CONTINUOUS
 10
0.010800226
 20
-11.4281207453
 11
0.0166073411
 21
-11.4196975493
  0
LINE
  5
584
100
AcDbEntity
  8
0
100
AcDbLine
 62
7
  6
CONTINUOUS
 10
-0.8949916488
 20
-11.7682114996
 11
-0.9011116415
 21
-11.7764962639
  0
LINE
  5
585
100
AcDbEntity
  8
0
100
AcDbLine
 62
7
  6
CONTINUOUS
 10
-0.9007912072
 20
-11.7760770635
 11
-0.9072031699
 21
-11.7841905852
  0
LINE
  5
586
100
AcDbEntity
  8
0
100
AcDbLine
 62
7
  6
CONTINUOUS
 10
-3.7404553029
 20
-11.9236397217
 11
-3.7434313372
 21
-11.9267945169
  0
LINE
  5
587
100
AcDbEntity
  8
0
100
AcDbLine
 62
7
  6
CONTINUOUS
 10
-3.7375308399
 20
-11.9208001622
 11
-3.7406615311
 21
-11.9238491696
  0
LINE
  5
588
100
AcDbEntity
  8
0
100
AcDbLine
 62
7
  6
CONTINUOUS
 10
-3.7344772707
 20
-11.9180768777
 11
-3.7377621396
 21
-11.9210162393
  0
LINE
  5
589
100
AcDbEntity
  8
0
100
AcDbLine
 62
7
  6
CONTINUOUS
 10
-4.2703987359
 20
-11.4094666373
 11
-4.2569827828
 21
-11.3999541324
  0
LWPOLYLINE
  5
58A
100
AcDbEntity
  8
0
100
AcDbPolyline
 62
7
  6
CONTINUOUS
 90
3
 70
0
 43
0.3500000006
 10
17.6904873619
 20
0.7302863159
 10
17.9047729797
 20
0.658857399
 10
18.1904875145
 20
0.5159995651
  0
LWPOLYLINE
  5
58B
100
AcDbEntity
  8
0
100
AcDbPolyline
 62
7
  6
CONTINUOUS
 90
3
 70
0
 10
-4.2706793323
 20
10.7986684161
 10
-4.2838124338
 20
10.8085331045
 10
-4.2966578728
 20
10.8187432678
  0
LINE
  5
58C
100
AcDbEntity
  8
0
100
AcDbLine
 62
7
  6
CONTINUOUS
 10
-3.7379434888
 20
11.310141019
 11
-3.7346959553
 21
11.3072351276
  0
LINE
  5
58D
100
AcDbEntity
  8
0
100
AcDbLine
 62
7
  6
CONTINUOUS
 10
-3.7408457601
 20
11.3129753517
 11
-3.7377515368
 21
11.3099616773
  0
LINE
  5
58E
100
AcDbEntity
  8
0
100
AcDbLine
 62
7
  6
CONTINUOUS
 10
-3.7436183389
 20
11.3159223585
 11
-3.740677742
 21
11.3128047652
  0
LINE
  5
58F
100
AcDbEntity
  8
0
100
AcDbLine
 62
7
  6
CONTINUOUS
 10
-0.9071707867
 20
11.1732933488
 11
-0.9007823134
 21
11.1652077651
  0
LINE
  5
590
100
AcDbEntity
  8
0
100
AcDbLine
 62
7
  6
CONTINUOUS
 10
-0.9010800712
 20
11.1655973731
 11
-0.8949830011
 21
11.1573416769
  0
LINE
  5
591
100
AcDbEntity
  8
0
100
AcDbLine
 62
7
  6
CONTINUOUS
 10
-0.8952364843
 20
11.1576969404
 11
-0.8894502721
 21
11.1493032376
  0
LINE
  5
592
100
AcDbEntity
  8
0
100
AcDbLine
 62
7
  6
CONTINUOUS
 10
0.0165769659
 20
10.808882303
 11
0.0107918414
 21
10.8172756525
  0
LINE
  5
593
100
AcDbEntity
  8
0
100
AcDbLine
 62
7
  6
CONTINUOUS
 10
-0.8896619267
 20
11.1496214239
 11
-0.8841864754
 21
11.1410932268
  0
LINE
  5
594
100
AcDbEntity
  8
0
100
AcDbLine
 62
7
  6
CONTINUOUS
 10
0.0110034069
 20
10.816957554
 11
0.0055290364
 21
10.8254852854
  0
LINE
  5
595
100
AcDbEntity
  8
0
100
AcDbLine
 62
7
  6
CONTINUOUS
 10
-0.8843588752
 20
11.1413715032
 11
-0.8791892619
 21
11.1327108614
  0
LINE
  5
596
100
AcDbEntity
  8
0
100
AcDbLine
 62
7
  6
CONTINUOUS
 10
0.0057013413
 20
10.8252071241
 11
0.0005328036
 21
10.8338671885
  0
LINE
  5
597
100
AcDbEntity
  8
0
100
AcDbLine
 62
7
  6
CONTINUOUS
 10
0.000668296
 20
10.833631696
 11
-0.004183198
 21
10.8423953608
  0
LINE
  5
598
100
AcDbEntity
  8
0
100
AcDbLine
 62
7
  6
CONTINUOUS
 10
-0.0040812869
 20
10.8422039783
 11
-0.0086180423
 21
10.8510675462
  0
LWPOLYLINE
  5
599
100
AcDbEntity
  8
0
100
AcDbPolyline
 62
7
  6
CONTINUOUS
 90
3
 70
0
 10
3.6215174024
 20
11.4232254227
 10
3.6251321467
 20
11.4071828898
 10
3.6283086719
 20
11.3910337207
  0
LINE
  5
59A
100
AcDbEntity
  8
0
100
AcDbLine
 62
7
  6
CONTINUOUS
 10
3.6176579104
 20
-12.0500321715
 11
3.6131406876
 21
-12.065939231
  0
LWPOLYLINE
  5
59B
100
AcDbEntity
  8
0
100
AcDbPolyline
 62
7
  6
CONTINUOUS
 90
20
 70
0
 10
3.6131663706
 20
-12.065853338
 10
3.6082448032
 20
-12.0815407414
 10
3.6028907157
 20
-12.0971007546
 10
3.5971066006
 20
-12.1125270099
 10
3.5909080096
 20
-12.1277733902
 10
3.5842952316
 20
-12.1428336686
 10
3.5772679777
 20
-12.1577140793
 10
3.5698409335
 20
-12.1723871987
 10
3.5620125166
 20
-12.1868558319
 10
3.5537843093
 20
-12.2011171821
 10
3.5451757445
 20
-12.2151354244
 10
3.5361881541
 20
-12.2289059907
 10
3.5268202062
 20
-12.2424334589
 10
3.5170873374
 20
-12.2556957244
 10
3.506986464
 20
-12.2686965518
 10
3.4965206696
 20
-12.2814321867
 10
3.485714642
 20
-12.2938692465
 10
3.4745766103
 20
-12.3059966078
 10
3.4630983454
 20
-12.3178254053
 10
3.4512798471
 20
-12.3293556441
  0
LWPOLYLINE
  5
59C
100
AcDbEntity
  8
0
100
AcDbPolyline
 62
7
  6
CONTINUOUS
 90
3
 70
0
 10
3.6028617809
 20
-12.0971813457
 10
3.5970765351
 20
-12.1126040014
 10
3.5908769859
 20
-12.1278467681
  0
LINE
  5
59D
100
AcDbEntity
  8
0
100
AcDbLine
 62
7
  6
CONTINUOUS
 10
0.0163321802
 20
-11.4200831841
 11
0.022451069
 21
-11.4117986826
  0
LINE
  5
59E
100
AcDbEntity
  8
0
100
AcDbLine
 62
7
  6
CONTINUOUS
 10
0.0221307168
 20
-11.4122178362
 11
0.0285416177
 21
-11.404104443
  0
LINE
  5
59F
100
AcDbEntity
  8
0
100
AcDbLine
 62
7
  6
CONTINUOUS
 10
0.0281749282
 20
-11.4045532688
 11
0.034877943
 21
-11.3966175812
  0
LINE
  5
5A0
100
AcDbEntity
  8
0
100
AcDbLine
 62
7
  6
CONTINUOUS
 10
-0.9068364027
 20
-11.7837417325
 11
-0.9135404424
 21
-11.7916774213
  0
LINE
  5
5A1
100
AcDbEntity
  8
0
100
AcDbLine
 62
7
  6
CONTINUOUS
 10
-0.9131244848
 20
-11.7912015263
 11
-0.9201245052
 21
-11.7989595294
  0
LINE
  5
5A2
100
AcDbEntity
  8
0
100
AcDbLine
 62
7
  6
CONTINUOUS
 10
0.0344620693
 20
-11.3970934547
 11
0.0414610892
 21
-11.3893353504
  0
LINE
  5
5A3
100
AcDbEntity
  8
0
100
AcDbLine
 62
7
  6
CONTINUOUS
 10
-0.9196582041
 20
-11.7984604291
 11
-0.9269363853
 21
-11.8060157013
  0
LINE
  5
5A4
100
AcDbEntity
  8
0
100
AcDbLine
 62
7
  6
CONTINUOUS
 10
0.0409948851
 20
-11.3898344248
 11
0.0482721177
 21
-11.3822789511
  0
LINE
  5
5A5
100
AcDbEntity
  8
0
100
AcDbLine
 62
7
  6
CONTINUOUS
 10
-0.9264248553
 20
-11.8055017836
 11
-0.9339770036
 21
-11.8128456697
  0
LINE
  5
5A6
100
AcDbEntity
  8
0
100
AcDbLine
 62
7
  6
CONTINUOUS
 10
0.0477607043
 20
-11.3827928335
 11
0.0553119463
 21
-11.3754486528
  0
LINE
  5
5A7
100
AcDbEntity
  8
0
100
AcDbLine
 62
7
  6
CONTINUOUS
 10
-0.9334241326
 20
-11.8123256353
 11
-0.9412454394
 21
-11.8194497062
  0
LINE
  5
5A8
100
AcDbEntity
  8
0
100
AcDbLine
 62
7
  6
CONTINUOUS
 10
-0.940656342
 20
-11.8189319427
 11
-0.9487199575
 21
-11.8258074101
  0
LINE
  5
5A9
100
AcDbEntity
  8
0
100
AcDbLine
 62
7
  6
CONTINUOUS
 10
-3.7312978675
 20
-11.9154718874
 11
-3.7347281116
 21
-11.9182931768
  0
LINE
  5
5AA
100
AcDbEntity
  8
0
100
AcDbLine
 62
7
  6
CONTINUOUS
 10
-3.7280110126
 20
-11.91300256
 11
-3.731564498
 21
-11.9156825322
  0
LINE
  5
5AB
100
AcDbEntity
  8
0
100
AcDbLine
 62
7
  6
CONTINUOUS
 10
-3.7246186097
 20
-11.9106713591
 11
-3.7282945959
 21
-11.9132071065
  0
LINE
  5
5AC
100
AcDbEntity
  8
0
100
AcDbLine
 62
7
  6
CONTINUOUS
 10
-3.7211187551
 20
-11.9084758219
 11
-3.7249209553
 21
-11.9108709523
  0
LINE
  5
5AD
100
AcDbEntity
  8
0
100
AcDbLine
 62
7
  6
CONTINUOUS
 10
-4.2009250406
 20
-11.3657221532
 11
-4.1863403655
 21
-11.3581339516
  0
LWPOLYLINE
  5
5AE
100
AcDbEntity
  8
0
100
AcDbPolyline
 62
7
  6
CONTINUOUS
 90
10
 70
0
 43
0.3500000006
 10
17.4762017441
 20
0.658857399
 10
17.6190595779
 20
0.7302863159
 10
17.6904873619
 20
0.7302863159
 10
17.8333451958
 20
0.5874284821
 10
17.8333451958
 20
0.5159995651
 10
17.7619162788
 20
0.4445706482
 10
17.6904873619
 20
0.4445706482
 10
17.547630661
 20
0.5159995651
 10
17.4762017441
 20
0.5874284821
 10
17.4762017441
 20
0.658857399
  0
LINE
  5
5AF
100
AcDbEntity
  8
0
100
AcDbLine
 62
7
  6
CONTINUOUS
 10
-3.7216065465
 20
11.2977914195
 11
-3.7177311667
 21
11.2955719946
  0
LWPOLYLINE
  5
5B0
100
AcDbEntity
  8
0
100
AcDbPolyline
 62
7
  6
CONTINUOUS
 90
4
 70
0
 10
-4.2155669523
 20
10.7628901045
 10
-4.2297085229
 20
10.7712642233
 10
-4.2436062866
 20
10.7800169722
 10
-4.2572647129
 20
10.7891533833
  0
LINE
  5
5B1
100
AcDbEntity
  8
0
100
AcDbLine
 62
7
  6
CONTINUOUS
 10
-3.7250897598
 20
11.2999925149
 11
-3.7213278762
 21
11.29762358
  0
LINE
  5
5B2
100
AcDbEntity
  8
0
100
AcDbLine
 62
7
  6
CONTINUOUS
 10
-3.7284666001
 20
11.3023290761
 11
-3.7248302109
 21
11.2998212432
  0
LINE
  5
5B3
100
AcDbEntity
  8
0
100
AcDbLine
 62
7
  6
CONTINUOUS
 10
-3.7317397093
 20
11.3048051889
 11
-3.7282250558
 21
11.302154894
  0
LINE
  5
5B4
100
AcDbEntity
  8
0
100
AcDbLine
 62
7
  6
CONTINUOUS
 10
-3.7349064453
 20
11.3074167664
 11
-3.7315142504
 21
11.3046270175
  0
LINE
  5
5B5
100
AcDbEntity
  8
0
100
AcDbLine
 62
7
  6
CONTINUOUS
 10
-0.9486888731
 20
11.2149242533
 11
-0.940648417
 21
11.2080673309
  0
LINE
  5
5B6
100
AcDbEntity
  8
0
100
AcDbLine
 62
7
  6
CONTINUOUS
 10
-0.9412135626
 20
11.2085640583
 11
-0.9334164771
 21
11.2014606753
  0
LINE
  5
5B7
100
AcDbEntity
  8
0
100
AcDbLine
 62
7
  6
CONTINUOUS
 10
-0.9339446806
 20
11.2019575498
 11
-0.9264172622
 21
11.1946362669
  0
LINE
  5
5B8
100
AcDbEntity
  8
0
100
AcDbLine
 62
7
  6
CONTINUOUS
 10
0.0552796823
 20
10.7646212622
 11
0.0477531535
 21
10.7719428485
  0
LINE
  5
5B9
100
AcDbEntity
  8
0
100
AcDbLine
 62
7
  6
CONTINUOUS
 10
-0.9269038043
 20
11.1951251811
 11
-0.9196502334
 21
11.1875939657
  0
LINE
  5
5BA
100
AcDbEntity
  8
0
100
AcDbLine
 62
7
  6
CONTINUOUS
 10
0.0482395937
 20
10.7714539591
 11
0.0409869541
 21
10.7789853865
  0
LINE
  5
5BB
100
AcDbEntity
  8
0
100
AcDbLine
 62
7
  6
CONTINUOUS
 10
-0.9200917517
 20
11.1880666308
 11
-0.9131159295
 21
11.1803339075
  0
LINE
  5
5BC
100
AcDbEntity
  8
0
100
AcDbLine
 62
7
  6
CONTINUOUS
 10
0.0414283906
 20
10.7785127355
 11
0.034453551
 21
10.7862455715
  0
LINE
  5
5BD
100
AcDbEntity
  8
0
100
AcDbLine
 62
7
  6
CONTINUOUS
 10
-0.9135077049
 20
11.1807822162
 11
-0.9068274695
 21
11.172873106
  0
LINE
  5
5BE
100
AcDbEntity
  8
0
100
AcDbLine
 62
7
  6
CONTINUOUS
 10
0.0348452577
 20
10.7857972718
 11
0.0281660297
 21
10.7937063934
  0
LINE
  5
5BF
100
AcDbEntity
  8
0
100
AcDbLine
 62
7
  6
CONTINUOUS
 10
0.028509284
 20
10.793286164
 11
0.022121855
 21
10.8013716332
  0
LINE
  5
5C0
100
AcDbEntity
  8
0
100
AcDbLine
 62
7
  6
CONTINUOUS
 10
0.0224195454
 20
10.8009820575
 11
0.0163235622
 21
10.8092375059
  0
LWPOLYLINE
  5
5C1
100
AcDbEntity
  8
0
100
AcDbPolyline
 62
250
  6
CONTINUOUS
 90
17
 70
0
 10
10.5758724787
 20
-21.8168401245
 10
10.5762544824
 20
-21.8217859341
 10
10.5766405305
 20
-21.8264672356
 10
10.577030616
 20
-21.8308844863
 10
10.5774240643
 20
-21.8350300412
 10
10.5778208809
 20
-21.8389034275
 10
10.5782210604
 20
-21.842505118
 10
10.5786239117
 20
-21.8458288852
 10
10.5790294404
 20
-21.8488742526
 10
10.5794376409
 20
-21.8516416967
 10
10.579847806
 20
-21.8541264208
 10
10.5802599459
 20
-21.8563279435
 10
10.5806740502
 20
-21.858246746
 10
10.5810893804
 20
-21.8598794753
 10
10.5815056902
 20
-21.8612250134
 10
10.5819232257
 20
-21.8622844782
 10
10.5823419871
 20
-21.8630578697
  0
LINE
  5
5C2
100
AcDbEntity
  8
0
100
AcDbLine
 62
250
  6
CONTINUOUS
 10
10.5751212371
 20
-21.8061653706
 11
10.5758724787
 21
-21.8168401245
  0
LINE
  5
5C3
100
AcDbEntity
  8
0
100
AcDbLine
 62
250
  6
CONTINUOUS
 10
10.5743887755
 20
-21.7944695998
 11
10.5751212371
 21
-21.8061653706
  0
LWPOLYLINE
  5
5C4
100
AcDbEntity
  8
0
100
AcDbPolyline
 62
250
  6
CONTINUOUS
 90
11
 70
0
 10
10.0785255006
 20
-22.3212636095
 10
10.0789283443
 20
-22.3279121159
 10
10.0793338722
 20
-22.3340045959
 10
10.0797420745
 20
-22.3395375151
 10
10.0801522354
 20
-22.3445076551
 10
10.0805643501
 20
-22.3489121373
 10
10.0809784233
 20
-22.3527484396
 10
10.0813937525
 20
-22.3560143662
 10
10.0818101036
 20
-22.35870803
 10
10.0822277106
 20
-22.3608278637
 10
10.0826465736
 20
-22.3623726371
  0
LINE
  5
5C5
100
AcDbEntity
  8
0
100
AcDbLine
 62
250
  6
CONTINUOUS
 10
10.5736769741
 20
-21.7817843046
 11
10.5743887755
 21
-21.7944695998
  0
LINE
  5
5C6
100
AcDbEntity
  8
0
100
AcDbLine
 62
250
  6
CONTINUOUS
 10
10.0777285242
 20
-22.3063141476
 11
10.0785255006
 21
-22.3212636095
  0
LINE
  5
5C7
100
AcDbEntity
  8
0
100
AcDbLine
 62
250
  6
CONTINUOUS
 10
10.5729870629
 20
-21.7681314267
 11
10.5736769741
 21
-21.7817843046
  0
LINE
  5
5C8
100
AcDbEntity
  8
0
100
AcDbLine
 62
250
  6
CONTINUOUS
 10
10.5723208548
 20
-21.7535453671
 11
10.5729870629
 21
-21.7681314267
  0
LINE
  5
5C9
100
AcDbEntity
  8
0
100
AcDbLine
 62
250
  6
CONTINUOUS
 10
10.0769450028
 20
-22.2891906582
 11
10.0777285242
 21
-22.3063141476
  0
LINE
  5
5CA
100
AcDbEntity
  8
0
100
AcDbLine
 62
250
  6
CONTINUOUS
 10
10.5716800535
 20
-21.7380650355
 11
10.5723208548
 21
-21.7535453671
  0
LINE
  5
5CB
100
AcDbEntity
  8
0
100
AcDbLine
 62
250
  6
CONTINUOUS
 10
10.076176964
 20
-22.2699327061
 11
10.0769450028
 21
-22.2891906582
  0
LINE
  5
5CC
100
AcDbEntity
  8
0
100
AcDbLine
 62
250
  6
CONTINUOUS
 10
10.075057167
 20
-22.2371422739
 11
10.076176964
 21
-22.2699327061
  0
LINE
  5
5CD
100
AcDbEntity
  8
0
100
AcDbLine
 62
250
  6
CONTINUOUS
 10
10.0739814995
 20
-22.1998208724
 11
10.075057167
 21
-22.2371422739
  0
LINE
  5
5CE
100
AcDbEntity
  8
0
100
AcDbLine
 62
250
  6
CONTINUOUS
 10
10.0726254046
 20
-22.1433490595
 11
10.0739814995
 21
-22.1998208724
  0
LWPOLYLINE
  5
5CF
100
AcDbEntity
  8
0
100
AcDbPolyline
 62
250
  6
CONTINUOUS
 90
3
 70
0
 10
10.0707841965
 20
-22.0453470658
 10
10.0710737533
 20
-22.0627202231
 10
10.0726254046
 20
-22.1433490595
  0
LINE
  5
5D0
100
AcDbEntity
  8
0
100
AcDbLine
 62
250
  6
CONTINUOUS
 10
10.0723017582
 20
21.5172285677
 11
10.0707841965
 21
21.4344893355
  0
LINE
  5
5D1
100
AcDbEntity
  8
0
100
AcDbLine
 62
250
  6
CONTINUOUS
 10
10.0736335898
 20
21.5755486495
 11
10.0723017582
 21
21.5172285677
  0
LINE
  5
5D2
100
AcDbEntity
  8
0
100
AcDbLine
 62
250
  6
CONTINUOUS
 10
10.074693288
 20
21.6143384131
 11
10.0736335898
 21
21.5755486495
  0
LINE
  5
5D3
100
AcDbEntity
  8
0
100
AcDbLine
 62
250
  6
CONTINUOUS
 10
10.0757990049
 20
21.6486592826
 11
10.074693288
 21
21.6143384131
  0
LINE
  5
5D4
100
AcDbEntity
  8
0
100
AcDbLine
 62
250
  6
CONTINUOUS
 10
10.0765589607
 20
21.6689680942
 11
10.0757990049
 21
21.6486592826
  0
LINE
  5
5D5
100
AcDbEntity
  8
0
100
AcDbLine
 62
250
  6
CONTINUOUS
 10
10.0773350826
 20
21.6871640709
 11
10.0765589607
 21
21.6689680942
  0
LINE
  5
5D6
100
AcDbEntity
  8
0
100
AcDbLine
 62
250
  6
CONTINUOUS
 10
10.5726509984
 20
21.1500972123
 11
10.5716800535
 21
21.1272073053
  0
LINE
  5
5D7
100
AcDbEntity
  8
0
100
AcDbLine
 62
250
  6
CONTINUOUS
 10
10.5733290581
 20
21.1642166811
 11
10.5726509984
 21
21.1500972123
  0
LINE
  5
5D8
100
AcDbEntity
  8
0
100
AcDbLine
 62
250
  6
CONTINUOUS
 10
10.5740302101
 20
21.1773917768
 11
10.5733290581
 21
21.1642166811
  0
LINE
  5
5D9
100
AcDbEntity
  8
0
100
AcDbLine
 62
250
  6
CONTINUOUS
 10
10.5747526608
 20
21.1895872716
 11
10.5740302101
 21
21.1773917768
  0
LWPOLYLINE
  5
5DA
100
AcDbEntity
  8
0
100
AcDbPolyline
 62
7
  6
CONTINUOUS
 90
3
 70
0
 10
3.5619786961
 20
-12.1869162435
 10
3.5537496346
 20
-12.201175321
 10
3.5451405532
 20
-12.215190996
  0
LWPOLYLINE
  5
5DB
100
AcDbEntity
  8
0
100
AcDbPolyline
 62
7
  6
CONTINUOUS
 90
16
 70
0
 10
2.8714798762
 20
-12.0492038913
 10
2.87391074
 20
-12.0455065314
 10
2.8761609884
 20
-12.0417490699
 10
2.8782364238
 20
-12.0379256629
 10
2.8801376364
 20
-12.0340563944
 10
2.8818633758
 20
-12.0301466936
 10
2.8834148925
 20
-12.0261911307
 10
2.884796528
 20
-12.0221935012
 10
2.8860110157
 20
-12.0181478265
 10
2.8870556223
 20
-12.0140600847
 10
2.8879264897
 20
-12.0099520056
 10
2.8886223164
 20
-12.0058195296
 10
2.889144404
 20
-12.0016667162
 10
2.8894927987
 20
-11.9975274745
 10
2.8896656779
 20
-11.9934081492
 10
2.8896648643
 20
-11.9893023958
  0
LWPOLYLINE
  5
5DC
100
AcDbEntity
  8
0
100
AcDbPolyline
 62
7
  6
CONTINUOUS
 90
17
 70
0
 10
2.8712097714
 20
-12.0495981833
 10
2.8736202873
 20
-12.0459669789
 10
2.8758676646
 20
-12.0422578652
 10
2.8779541408
 20
-12.0384689162
 10
2.8798739299
 20
-12.0346181427
 10
2.8816269547
 20
-12.0307042227
 10
2.8832132924
 20
-12.0267284776
 10
2.8846273878
 20
-12.0227128841
 10
2.8858681697
 20
-12.0186586639
 10
2.8869367093
 20
-12.0145645948
 10
2.8878306652
 20
-12.0104489884
 10
2.8885494865
 20
-12.0063090681
 10
2.8890937241
 20
-12.0021476101
 10
2.8894626894
 20
-11.9979912548
 10
2.8896552604
 20
-11.9938436749
 10
2.889672559
 20
-11.9897011977
 10
2.8894958725
 20
-11.9852250902
  0
LWPOLYLINE
  5
5DD
100
AcDbEntity
  8
0
100
AcDbPolyline
 62
7
  6
CONTINUOUS
 90
4
 70
0
 10
3.5361526592
 20
-12.228958718
 10
3.5267847454
 20
-12.2424830472
 10
3.517052986
 20
-12.2557412058
 10
3.5069542061
 20
-12.2687369037
  0
LINE
  5
5DE
100
AcDbEntity
  8
0
100
AcDbLine
 62
7
  6
CONTINUOUS
 10
2.8686383544
 20
-12.0531495533
 11
2.8714798762
 21
-12.0492038913
  0
LINE
  5
5DF
100
AcDbEntity
  8
0
100
AcDbLine
 62
7
  6
CONTINUOUS
 10
2.8659185347
 20
-12.0565973011
 11
2.8688741993
 21
-12.0528353065
  0
LINE
  5
5E0
100
AcDbEntity
  8
0
100
AcDbLine
 62
7
  6
CONTINUOUS
 10
2.8630544784
 20
-12.0599334978
 11
2.866110526
 21
-12.0563631622
  0
LINE
  5
5E1
100
AcDbEntity
  8
0
100
AcDbLine
 62
7
  6
CONTINUOUS
 10
0.0547592195
 20
-11.3759686364
 11
0.0625796571
 21
-11.3688441899
  0
LINE
  5
5E2
100
AcDbEntity
  8
0
100
AcDbLine
 62
7
  6
CONTINUOUS
 10
0.0619907379
 20
-11.3693618816
 11
0.0700535585
 21
-11.3624859613
  0
LINE
  5
5E3
100
AcDbEntity
  8
0
100
AcDbLine
 62
7
  6
CONTINUOUS
 10
0.0694435095
 20
-11.3629893622
 11
0.0777342006
 21
-11.3563746258
  0
LINE
  5
5E4
100
AcDbEntity
  8
0
100
AcDbLine
 62
7
  6
CONTINUOUS
 10
-0.9481096956
 20
-11.825303917
 11
-0.9564011021
 21
-11.831918119
  0
LINE
  5
5E5
100
AcDbEntity
  8
0
100
AcDbLine
 62
7
  6
CONTINUOUS
 10
-0.9557922093
 20
-11.8314464352
 11
-0.9642883291
 21
-11.8377824996
  0
LINE
  5
5E6
100
AcDbEntity
  8
0
100
AcDbLine
 62
7
  6
CONTINUOUS
 10
0.0771255545
 20
-11.3568461989
 11
0.0856210332
 21
-11.3505095283
  0
LINE
  5
5E7
100
AcDbEntity
  8
0
100
AcDbLine
 62
7
  6
CONTINUOUS
 10
0.0850288526
 20
-11.3509372746
 11
0.0936907138
 21
-11.3449090959
  0
LINE
  5
5E8
100
AcDbEntity
  8
0
100
AcDbLine
 62
7
  6
CONTINUOUS
 10
-0.9636958673
 20
-11.8373546243
 11
-0.972358271
 21
-11.8433821454
  0
LINE
  5
5E9
100
AcDbEntity
  8
0
100
AcDbLine
 62
7
  6
CONTINUOUS
 10
0.0931175931
 20
-11.3452940255
 11
0.10194625
 21
-11.3395727253
  0
LINE
  5
5EA
100
AcDbEntity
  8
0
100
AcDbLine
 62
7
  6
CONTINUOUS
 10
-0.9717848347
 20
-11.8429970708
 11
-0.9806139351
 21
-11.8487176621
  0
LINE
  5
5EB
100
AcDbEntity
  8
0
100
AcDbLine
 62
7
  6
CONTINUOUS
 10
-0.980062586
 20
-11.8483720974
 11
-0.9890523141
 21
-11.8537884481
  0
LINE
  5
5EC
100
AcDbEntity
  8
0
100
AcDbLine
 62
7
  6
CONTINUOUS
 10
0.1013952562
 20
-11.3399181299
 11
0.1103846341
 21
-11.3345010232
  0
LINE
  5
5ED
100
AcDbEntity
  8
0
100
AcDbLine
 62
7
  6
CONTINUOUS
 10
-0.9885256466
 20
-11.8534813854
 11
-0.9976410188
 21
-11.8585742854
  0
LINE
  5
5EE
100
AcDbEntity
  8
0
100
AcDbLine
 62
7
  6
CONTINUOUS
 10
0.1098583617
 20
-11.3348079132
 11
0.1189735005
 21
-11.3297142324
  0
LINE
  5
5EF
100
AcDbEntity
  8
0
100
AcDbLine
 62
7
  6
CONTINUOUS
 10
-0.9971277583
 20
-11.8582985605
 11
-1.0063786638
 21
-11.8630726013
  0
LINE
  5
5F0
100
AcDbEntity
  8
0
100
AcDbLine
 62
7
  6
CONTINUOUS
 10
0.1184606577
 20
-11.3299897825
 11
0.1277114727
 21
-11.3252149247
  0
LWPOLYLINE
  5
5F1
100
AcDbEntity
  8
0
100
AcDbPolyline
 62
7
  6
CONTINUOUS
 90
3
 70
0
 10
-3.7104688291
 20
-11.9029464311
 10
-3.7142149629
 20
-11.9047077569
 10
-3.7178704547
 20
-11.9066149487
  0
LWPOLYLINE
  5
5F2
100
AcDbEntity
  8
0
100
AcDbPolyline
 62
7
  6
CONTINUOUS
 90
4
 70
0
 10
-3.7100473011
 20
-11.9027623092
 10
-3.7138331008
 20
-11.9045212966
 10
-3.7175241192
 20
-11.9064259283
 10
-3.721441026
 20
-11.9086700179
  0
LWPOLYLINE
  5
5F3
100
AcDbEntity
  8
0
100
AcDbPolyline
 62
7
  6
CONTINUOUS
 90
3
 70
0
 10
-3.6986679612
 20
-11.8985589547
 10
-3.7026953282
 20
-11.8998720296
 10
-3.7066305344
 20
-11.901335581
  0
LWPOLYLINE
  5
5F4
100
AcDbEntity
  8
0
100
AcDbPolyline
 62
7
  6
CONTINUOUS
 90
4
 70
0
 10
-3.6982279226
 20
-11.8984276683
 10
-3.702244712
 20
-11.8997154947
 10
-3.7061841944
 20
-11.9011600912
 10
-3.7104688291
 20
-11.9029464311
  0
LINE
  5
5F5
100
AcDbEntity
  8
0
100
AcDbLine
 62
250
  6
CONTINUOUS
 10
-11.3806474106
 20
9.1879969063
 11
-11.3701990785
 21
9.1885063834
  0
LINE
  5
5F6
100
AcDbEntity
  8
0
100
AcDbLine
 62
250
  6
CONTINUOUS
 10
-11.3701990785
 20
9.1885063834
 11
-11.3582638614
 21
9.1890047473
  0
LINE
  5
5F7
100
AcDbEntity
  8
0
100
AcDbLine
 62
250
  6
CONTINUOUS
 10
-11.3582638614
 20
9.1890047473
 11
-11.3448803702
 21
9.1894903858
  0
LINE
  5
5F8
100
AcDbEntity
  8
0
100
AcDbLine
 62
250
  6
CONTINUOUS
 10
-11.3448803702
 20
9.1894903858
 11
-11.3221855764
 21
9.1901915594
  0
LINE
  5
5F9
100
AcDbEntity
  8
0
100
AcDbLine
 62
250
  6
CONTINUOUS
 10
-11.3221855764
 20
9.1901915594
 11
-11.2872986696
 21
9.1910676569
  0
LINE
  5
5FA
100
AcDbEntity
  8
0
100
AcDbLine
 62
250
  6
CONTINUOUS
 10
-11.2872986696
 20
9.1910676569
 11
-11.2475409083
 21
9.1918662213
  0
LINE
  5
5FB
100
AcDbEntity
  8
0
100
AcDbLine
 62
250
  6
CONTINUOUS
 10
-11.2475409083
 20
9.1918662213
 11
-11.2034263475
 21
9.1925769275
  0
LINE
  5
5FC
100
AcDbEntity
  8
0
100
AcDbLine
 62
250
  6
CONTINUOUS
 10
-11.2034263475
 20
9.1925769275
 11
-11.1430301194
 21
9.1933278783
  0
LINE
  5
5FD
100
AcDbEntity
  8
0
100
AcDbLine
 62
250
  6
CONTINUOUS
 10
-11.1430301194
 20
9.1933278783
 11
-11.0779406328
 21
9.1939121225
  0
LINE
  5
5FE
100
AcDbEntity
  8
0
100
AcDbLine
 62
250
  6
CONTINUOUS
 10
-11.0779406328
 20
9.1939121225
 11
-11.0094720676
 21
9.1943178639
  0
LINE
  5
5FF
100
AcDbEntity
  8
0
100
AcDbLine
 62
250
  6
CONTINUOUS
 10
-11.0094720676
 20
9.1943178639
 11
-10.9390068291
 21
9.1945369106
  0
LINE
  5
600
100
AcDbEntity
  8
0
100
AcDbLine
 62
250
  6
CONTINUOUS
 10
-10.9390068291
 20
9.1945369106
 11
10.031932264
 21
9.1945711349
  0
LINE
  5
601
100
AcDbEntity
  8
0
100
AcDbLine
 62
250
  6
CONTINUOUS
 10
10.1447231231
 20
9.1942514425
 11
10.031932264
 21
9.1945711349
  0
LINE
  5
602
100
AcDbEntity
  8
0
100
AcDbLine
 62
250
  6
CONTINUOUS
 10
10.2516994414
 20
9.1934584913
 11
10.1447231231
 21
9.1942514425
  0
LINE
  5
603
100
AcDbEntity
  8
0
100
AcDbLine
 62
250
  6
CONTINUOUS
 10
10.3247789586
 20
9.1925769275
 11
10.2516994414
 21
9.1934584913
  0
LINE
  5
604
100
AcDbEntity
  8
0
100
AcDbLine
 62
250
  6
CONTINUOUS
 10
10.3792625065
 20
9.191674432
 11
10.3247789586
 21
9.1925769275
  0
LINE
  5
605
100
AcDbEntity
  8
0
100
AcDbLine
 62
250
  6
CONTINUOUS
 10
10.4178483943
 20
9.1908554748
 11
10.3792625065
 21
9.191674432
  0
LINE
  5
606
100
AcDbEntity
  8
0
100
AcDbLine
 62
250
  6
CONTINUOUS
 10
10.4435381874
 20
9.1901915594
 11
10.4178483943
 21
9.1908554748
  0
LINE
  5
607
100
AcDbEntity
  8
0
100
AcDbLine
 62
250
  6
CONTINUOUS
 10
10.4662329812
 20
9.1894903858
 11
10.4435381874
 21
9.1901915594
  0
LINE
  5
608
100
AcDbEntity
  8
0
100
AcDbLine
 62
250
  6
CONTINUOUS
 10
10.4796164725
 20
9.1890047473
 11
10.4662329812
 21
9.1894903858
  0
LINE
  5
609
100
AcDbEntity
  8
0
100
AcDbLine
 62
250
  6
CONTINUOUS
 10
10.4915516896
 20
9.1885063834
 11
10.4796164725
 21
9.1890047473
  0
LINE
  5
60A
100
AcDbEntity
  8
0
100
AcDbLine
 62
7
  6
CONTINUOUS
 10
-3.702834749
 20
11.2889938582
 11
-3.6984273006
 21
11.2875698545
  0
LWPOLYLINE
  5
60B
100
AcDbEntity
  8
0
100
AcDbPolyline
 62
7
  6
CONTINUOUS
 90
6
 70
0
 10
-4.110864184
 20
10.7154937009
 10
-4.1263431581
 20
10.721018219
 10
-4.1416748676
 20
10.726967671
 10
-4.1568299324
 20
10.7333323919
 10
-4.1718128454
 20
10.7401167459
 10
-4.1866191136
 20
10.747316362
  0
LINE
  5
60C
100
AcDbEntity
  8
0
100
AcDbLine
 62
7
  6
CONTINUOUS
 10
-3.7067792922
 20
11.2904575329
 11
-3.7024464009
 21
11.2888584224
  0
LINE
  5
60D
100
AcDbEntity
  8
0
100
AcDbLine
 62
7
  6
CONTINUOUS
 10
-3.7106227868
 20
11.2920680896
 11
-3.7063879042
 21
11.2903037995
  0
LINE
  5
60E
100
AcDbEntity
  8
0
100
AcDbLine
 62
7
  6
CONTINUOUS
 10
-3.71437306
 20
11.2938292064
 11
-3.7102521812
 21
11.2919066327
  0
LINE
  5
60F
100
AcDbEntity
  8
0
100
AcDbLine
 62
7
  6
CONTINUOUS
 10
-1.006359812
 20
11.2522056216
 11
-0.9971233449
 21
11.2474386264
  0
LINE
  5
610
100
AcDbEntity
  8
0
100
AcDbLine
 62
7
  6
CONTINUOUS
 10
0.1276926534
 20
10.7143664296
 11
0.1184562933
 21
10.7191342306
  0
LINE
  5
611
100
AcDbEntity
  8
0
100
AcDbLine
 62
7
  6
CONTINUOUS
 10
-3.7180323537
 20
11.2957363201
 11
-3.7140388614
 21
11.2936662743
  0
LINE
  5
612
100
AcDbEntity
  8
0
100
AcDbLine
 62
7
  6
CONTINUOUS
 10
-0.9976199094
 20
11.2477054161
 11
-0.9885198127
 21
11.2426203382
  0
LINE
  5
613
100
AcDbEntity
  8
0
100
AcDbLine
 62
7
  6
CONTINUOUS
 10
0.1189524306
 20
10.7188676225
 11
0.1098525782
 21
10.7239534713
  0
LINE
  5
614
100
AcDbEntity
  8
0
100
AcDbLine
 62
7
  6
CONTINUOUS
 10
-0.9890292737
 20
11.2429174787
 11
-0.9800555173
 21
11.2375098363
  0
LINE
  5
615
100
AcDbEntity
  8
0
100
AcDbLine
 62
7
  6
CONTINUOUS
 10
0.110361639
 20
10.7236565084
 11
0.1013882387
 21
10.7290648988
  0
LINE
  5
616
100
AcDbEntity
  8
0
100
AcDbLine
 62
7
  6
CONTINUOUS
 10
-0.9805891373
 20
11.2378444099
 11
-0.971776902
 21
11.2321338443
  0
LINE
  5
617
100
AcDbEntity
  8
0
100
AcDbLine
 62
7
  6
CONTINUOUS
 10
0.1019215026
 20
10.7287304878
 11
0.0931097119
 21
10.734441757
  0
LINE
  5
618
100
AcDbEntity
  8
0
100
AcDbLine
 62
7
  6
CONTINUOUS
 10
-0.9723317991
 20
11.2325065235
 11
-0.9636876003
 21
11.2264908865
  0
LINE
  5
619
100
AcDbEntity
  8
0
100
AcDbLine
 62
7
  6
CONTINUOUS
 10
0.0936642965
 20
10.7340692231
 11
0.0850206375
 21
10.740085515
  0
LINE
  5
61A
100
AcDbEntity
  8
0
100
AcDbLine
 62
7
  6
CONTINUOUS
 10
-0.9642601487
 20
11.2269044177
 11
-0.9557839786
 21
11.2205824345
  0
LINE
  5
61B
100
AcDbEntity
  8
0
100
AcDbLine
 62
7
  6
CONTINUOUS
 10
0.0855929108
 20
10.7396721112
 11
0.0771173756
 21
10.7459947002
  0
LINE
  5
61C
100
AcDbEntity
  8
0
100
AcDbLine
 62
7
  6
CONTINUOUS
 10
-0.9563712967
 20
11.2210374901
 11
-0.9481015796
 21
11.2144396338
  0
LINE
  5
61D
100
AcDbEntity
  8
0
100
AcDbLine
 62
7
  6
CONTINUOUS
 10
0.0777044555
 20
10.7455397518
 11
0.0694354445
 21
10.7521381446
  0
LINE
  5
61E
100
AcDbEntity
  8
0
100
AcDbLine
 62
7
  6
CONTINUOUS
 10
0.0700225356
 20
10.7516536119
 11
0.0619828616
 21
10.7585109919
  0
LINE
  5
61F
100
AcDbEntity
  8
0
100
AcDbLine
 62
7
  6
CONTINUOUS
 10
0.0625478412
 20
10.7580143292
 11
0.0547516094
 21
10.7651180948
  0
LINE
  5
620
100
AcDbEntity
  8
0
100
AcDbLine
 62
7
  6
CONTINUOUS
 10
3.5359909388
 20
11.6180455701
 11
3.5449791383
 21
11.6042738999
  0
LINE
  5
621
100
AcDbEntity
  8
0
100
AcDbLine
 62
7
  6
CONTINUOUS
 10
3.5770733628
 20
11.5468471563
 11
3.5841011162
 21
11.5319652066
  0
LINE
  5
622
100
AcDbEntity
  8
0
100
AcDbLine
 62
250
  6
CONTINUOUS
 10
10.5707691766
 20
-21.7132334595
 11
10.5716800535
 21
-21.7380650355
  0
LINE
  5
623
100
AcDbEntity
  8
0
100
AcDbLine
 62
250
  6
CONTINUOUS
 10
10.5699230903
 20
-21.686589105
 11
10.5707691766
 21
-21.7132334595
  0
LINE
  5
624
100
AcDbEntity
  8
0
100
AcDbLine
 62
250
  6
CONTINUOUS
 10
10.5689032004
 20
-21.6484799418
 11
10.5699230903
 21
-21.686589105
  0
LINE
  5
625
100
AcDbEntity
  8
0
100
AcDbLine
 62
250
  6
CONTINUOUS
 10
10.5680157814
 20
-21.6077520112
 11
10.5689032004
 21
-21.6484799418
  0
LWPOLYLINE
  5
626
100
AcDbEntity
  8
0
100
AcDbPolyline
 62
250
  6
CONTINUOUS
 90
43
 70
0
 10
10.5284831177
 20
-0.6509065197
 10
10.5283411223
 20
-0.643430014
 10
10.5279198861
 20
-0.6359639608
 10
10.527219998
 20
-0.6285187981
 10
10.5262424365
 20
-0.6211049344
 10
10.5249885682
 20
-0.6137327349
 10
10.5234601461
 20
-0.6064125061
 10
10.521659307
 20
-0.5991544821
 10
10.5195885687
 20
-0.5919688099
 10
10.5172508259
 20
-0.5848655355
 10
10.5146493472
 20
-0.5778545897
 10
10.5117877694
 20
-0.570945774
 10
10.5086700932
 20
-0.5641487473
 10
10.5053006772
 20
-0.5574730121
 10
10.501684232
 20
-0.5509279016
 10
10.4978258137
 20
-0.544522566
 10
10.4937308165
 20
-0.5382659603
 10
10.4894049653
 20
-0.5321668316
 10
10.484854308
 20
-0.5262337067
 10
10.4800852066
 20
-0.5204748804
 10
10.4751043284
 20
-0.514898404
 10
10.4699186371
 20
-0.5095120734
 10
10.4645353825
 20
-0.5043234191
 10
10.4589620906
 20
-0.4993396951
 10
10.4532065532
 20
-0.4945678688
 10
10.4472768167
 20
-0.4900146115
 10
10.4411811713
 20
-0.4856862889
 10
10.4349281389
 20
-0.4815889521
 10
10.4285264616
 20
-0.4777283294
 10
10.4219850893
 20
-0.4741098183
 10
10.4153131671
 20
-0.4707384774
 10
10.4085200226
 20
-0.4676190202
 10
10.4016151531
 20
-0.4647558077
 10
10.3946082118
 20
-0.4621528428
 10
10.3875089949
 20
-0.4598137647
 10
10.3803274272
 20
-0.4577418435
 10
10.3730735491
 20
-0.4559399757
 10
10.3657575018
 20
-0.4544106806
 10
10.3583895135
 20
-0.4531560961
 10
10.3509798849
 20
-0.4521779762
 10
10.3435389752
 20
-0.4514776883
 10
10.336077187
 20
-0.4510562115
 10
10.3286049523
 20
-0.4509141351
  0
LWPOLYLINE
  5
627
100
AcDbEntity
  8
0
100
AcDbPolyline
 62
250
  6
CONTINUOUS
 90
55
 70
0
 10
10.5823419871
 20
21.2522001394
 10
10.5821045677
 20
21.2667057112
 10
10.5814455391
 20
21.2811990383
 10
10.5803654577
 20
21.2956678865
 10
10.5788652351
 20
21.3101000421
 10
10.5769461377
 20
21.3244833225
 10
10.5746097855
 20
21.3388055862
 10
10.5718581508
 20
21.3530547434
 10
10.5686935562
 20
21.3672187659
 10
10.5651186731
 20
21.3812856973
 10
10.5611365192
 20
21.3952436633
 10
10.5567504559
 20
21.4090808815
 10
10.5519641857
 20
21.4227856715
 10
10.5467817487
 20
21.4363464645
 10
10.5412075198
 20
21.4497518134
 10
10.5352462042
 20
21.4629904024
 10
10.5289028342
 20
21.4760510562
 10
10.5221827643
 20
21.4889227501
 10
10.5150916672
 20
21.5015946184
 10
10.5076355287
 20
21.5140559646
 10
10.4998206428
 20
21.5262962695
 10
10.4916536063
 20
21.5383052008
 10
10.4831413133
 20
21.5500726211
 10
10.4742909493
 20
21.5615885974
 10
10.4651099852
 20
21.5728434085
 10
10.4556061709
 20
21.583827554
 10
10.4457875289
 20
21.5945317616
 10
10.4356623475
 20
21.6049469957
 10
10.4252391737
 20
21.6150644644
 10
10.414526806
 20
21.6248756271
 10
10.403534287
 20
21.634372202
 10
10.392270896
 20
21.6435461727
 10
10.3807461407
 20
21.6523897952
 10
10.3689697496
 20
21.6608956041
 10
10.3569516635
 20
21.6690564196
 10
10.3447020273
 20
21.6768653527
 10
10.3322311814
 20
21.6843158117
 10
10.3195496526
 20
21.6914015074
 10
10.3066681461
 20
21.6981164585
 10
10.2935975354
 20
21.7044549968
 10
10.280348854
 20
21.7104117715
 10
10.2669332855
 20
21.7159817546
 10
10.2533621543
 20
21.721160244
 10
10.2396469165
 20
21.7259428685
 10
10.2257991493
 20
21.7303255909
 10
10.2118305423
 20
21.7343047117
 10
10.1977528868
 20
21.7378768718
 10
10.1835780661
 20
21.7410390559
 10
10.1693180459
 20
21.7437885948
 10
10.1549848633
 20
21.7461231673
 10
10.1405906175
 20
21.7480408029
 10
10.1261474592
 20
21.7495398828
 10
10.1116675804
 20
21.7506191416
 10
10.097163204
 20
21.7512776682
 10
10.0826465736
 20
21.7515149068
  0
LINE
  5
628
100
AcDbEntity
  8
0
100
AcDbLine
 62
250
  6
CONTINUOUS
 10
10.5671048655
 20
-21.553721005
 11
10.5680157814
 21
-21.6077520112
  0
LINE
  5
629
100
AcDbEntity
  8
0
100
AcDbLine
 62
250
  6
CONTINUOUS
 10
10.0689732355
 20
-21.9133214452
 11
10.0707841965
 21
-22.0453470658
  0
LINE
  5
62A
100
AcDbEntity
  8
0
100
AcDbLine
 62
250
  6
CONTINUOUS
 10
10.5664265736
 20
-21.4969619654
 11
10.5671048655
 21
-21.553721005
  0
LINE
  5
62B
100
AcDbEntity
  8
0
100
AcDbLine
 62
250
  6
CONTINUOUS
 10
10.0674094882
 20
-21.7437086438
 11
10.0689732355
 21
-21.9133214452
  0
LINE
  5
62C
100
AcDbEntity
  8
0
100
AcDbLine
 62
250
  6
CONTINUOUS
 10
10.5659905314
 20
-21.4382841935
 11
10.5664265736
 21
-21.4969619654
  0
LINE
  5
62D
100
AcDbEntity
  8
0
100
AcDbLine
 62
250
  6
CONTINUOUS
 10
10.061930903
 20
-20.6510143513
 11
10.0662951179
 21
-21.5128252847
  0
LINE
  5
62E
100
AcDbEntity
  8
0
100
AcDbLine
 62
250
  6
CONTINUOUS
 10
10.5616263177
 20
-20.5812479598
 11
10.5659905314
 21
-21.4382841935
  0
LINE
  5
62F
100
AcDbEntity
  8
0
100
AcDbLine
 62
250
  6
CONTINUOUS
 10
10.0578566487
 20
-19.7880282838
 11
10.061930903
 21
-20.6510143513
  0
LWPOLYLINE
  5
630
100
AcDbEntity
  8
0
100
AcDbPolyline
 62
250
  6
CONTINUOUS
 90
3
 70
0
 10
10.5556236657
 20
-19.2935573193
 10
10.5575520636
 20
-19.7230730426
 10
10.5616263177
 20
-20.5812479598
  0
LINE
  5
631
100
AcDbEntity
  8
0
100
AcDbLine
 62
250
  6
CONTINUOUS
 10
10.0540724901
 20
-18.9239478862
 11
10.0578566487
 21
-19.7880282838
  0
LINE
  5
632
100
AcDbEntity
  8
0
100
AcDbLine
 62
250
  6
CONTINUOUS
 10
10.5519847848
 20
-18.4337700111
 11
10.5556236657
 21
-19.2935573193
  0
LINE
  5
633
100
AcDbEntity
  8
0
100
AcDbLine
 62
250
  6
CONTINUOUS
 10
10.0505788879
 20
-18.0588540345
 11
10.0540724901
 21
-18.9239478862
  0
LINE
  5
634
100
AcDbEntity
  8
0
100
AcDbLine
 62
250
  6
CONTINUOUS
 10
10.5486365753
 20
-17.5730051024
 11
10.5519847848
 21
-18.4337700111
  0
LINE
  5
635
100
AcDbEntity
  8
0
100
AcDbLine
 62
250
  6
CONTINUOUS
 10
10.545579402
 20
-16.7113532158
 11
10.5486365753
 21
-17.5730051024
  0
LWPOLYLINE
  5
636
100
AcDbEntity
  8
0
100
AcDbPolyline
 62
250
  6
CONTINUOUS
 90
3
 70
0
 10
10.0458839884
 20
-16.7594902548
 10
10.0473761967
 20
-17.1928277343
 10
10.0505788879
 20
-18.0588540345
  0
LINE
  5
637
100
AcDbEntity
  8
0
100
AcDbLine
 62
250
  6
CONTINUOUS
 10
10.0431181599
 20
-15.8922173072
 11
10.0458839884
 21
-16.7594902548
  0
LINE
  5
638
100
AcDbEntity
  8
0
100
AcDbLine
 62
250
  6
CONTINUOUS
 10
10.5428135732
 20
-15.848905106
 11
10.545579402
 21
-16.7113532158
  0
LINE
  5
639
100
AcDbEntity
  8
0
100
AcDbLine
 62
7
  6
CONTINUOUS
 10
10.6843689962
 20
21.4053184426
 11
10.7106763055
 21
12.7945711349
  0
LINE
  5
63A
100
AcDbEntity
  8
0
100
AcDbLine
 62
250
  6
CONTINUOUS
 10
10.0406438697
 20
-15.0242147009
 11
10.0431181599
 21
-15.8922173072
  0
LWPOLYLINE
  5
63B
100
AcDbEntity
  8
0
100
AcDbPolyline
 62
250
  6
CONTINUOUS
 90
3
 70
0
 10
10.0662951179
 20
-21.5128252847
 10
10.0663626787
 20
-21.5365235225
 10
10.0674094882
 20
-21.7437086438
  0
LINE
  5
63C
100
AcDbEntity
  8
0
100
AcDbLine
 62
250
  6
CONTINUOUS
 10
10.5403392828
 20
-14.9857212997
 11
10.5428135732
 21
-15.848905106
  0
LINE
  5
63D
100
AcDbEntity
  8
0
100
AcDbLine
 62
250
  6
CONTINUOUS
 10
10.0384613906
 20
-14.155563632
 11
10.0406438697
 21
-15.0242147009
  0
LINE
  5
63E
100
AcDbEntity
  8
0
100
AcDbLine
 62
250
  6
CONTINUOUS
 10
10.5381568036
 20
-14.121892617
 11
10.5403392828
 21
-14.9857212997
  0
LINE
  5
63F
100
AcDbEntity
  8
0
100
AcDbLine
 62
250
  6
CONTINUOUS
 10
10.0365709391
 20
-13.2863453916
 11
10.0384613906
 21
-14.155563632
  0
LINE
  5
640
100
AcDbEntity
  8
0
100
AcDbLine
 62
250
  6
CONTINUOUS
 10
10.536266352
 20
-13.2575100365
 11
10.5381568036
 21
-14.121892617
  0
LINE
  5
641
100
AcDbEntity
  8
0
100
AcDbLine
 62
250
  6
CONTINUOUS
 10
10.0349726478
 20
-12.4166413531
 11
10.0365709391
 21
-13.2863453916
  0
LINE
  5
642
100
AcDbEntity
  8
0
100
AcDbLine
 62
250
  6
CONTINUOUS
 10
10.5346680607
 20
-12.3926342413
 11
10.536266352
 21
-13.2575100365
  0
LINE
  5
643
100
AcDbEntity
  8
0
100
AcDbLine
 62
250
  6
CONTINUOUS
 10
10.0336666975
 20
-11.5465329516
 11
10.0349726478
 21
-12.4166413531
  0
LINE
  5
644
100
AcDbEntity
  8
0
100
AcDbLine
 62
250
  6
CONTINUOUS
 10
10.5333621104
 20
-11.5273562746
 11
10.5346680607
 21
-12.3926342413
  0
LINE
  5
645
100
AcDbEntity
  8
0
100
AcDbLine
 62
250
  6
CONTINUOUS
 10
10.0326532218
 20
-10.6761016231
 11
10.0336666975
 21
-11.5465329516
  0
LINE
  5
646
100
AcDbEntity
  8
0
100
AcDbLine
 62
250
  6
CONTINUOUS
 10
10.5323486349
 20
-10.6617776681
 11
10.5333621104
 21
-11.5273562746
  0
LINE
  5
647
100
AcDbEntity
  8
0
100
AcDbLine
 62
250
  6
CONTINUOUS
 10
10.031932264
 20
-9.8054288651
 11
10.0326532218
 21
-10.6761016231
  0
LINE
  5
648
100
AcDbEntity
  8
0
100
AcDbLine
 62
250
  6
CONTINUOUS
 10
10.5316276776
 20
-9.7959288651
 11
10.5323486349
 21
-10.6617776681
  0
LWPOLYLINE
  5
649
100
AcDbEntity
  8
0
100
AcDbPolyline
 62
250
  6
CONTINUOUS
 90
3
 70
0
 10
10.030728428
 20
-7.771834353
 10
10.0312942706
 20
-8.7886466359
 10
10.031932264
 20
-9.8054288651
  0
LWPOLYLINE
  5
64A
100
AcDbEntity
  8
0
100
AcDbPolyline
 62
250
  6
CONTINUOUS
 90
3
 70
0
 10
10.5304235725
 20
-7.7638465513
 10
10.5309895313
 20
-8.7798985212
 10
10.5316276776
 20
-9.7959288651
  0
LINE
  5
64B
100
AcDbEntity
  8
0
100
AcDbLine
 62
250
  6
CONTINUOUS
 10
10.0298132664
 20
-5.7381397034
 11
10.030728428
 21
-7.771834353
  0
LINE
  5
64C
100
AcDbEntity
  8
0
100
AcDbLine
 62
250
  6
CONTINUOUS
 10
10.5295082144
 20
-5.7316766498
 11
10.5304235725
 21
-7.7638465513
  0
LINE
  5
64D
100
AcDbEntity
  8
0
100
AcDbLine
 62
250
  6
CONTINUOUS
 10
10.0291865656
 20
-3.7043688178
 11
10.0298132664
 21
-5.7381397034
  0
LINE
  5
64E
100
AcDbEntity
  8
0
100
AcDbLine
 62
250
  6
CONTINUOUS
 10
10.028847472
 20
-1.6705163377
 11
10.0291865656
 21
-3.7043688178
  0
LINE
  5
64F
100
AcDbEntity
  8
0
100
AcDbLine
 62
250
  6
CONTINUOUS
 10
10.5288816119
 20
-3.6994224124
 11
10.5295082144
 21
-5.7316766498
  0
LINE
  5
650
100
AcDbEntity
  8
0
100
AcDbLine
 62
250
  6
CONTINUOUS
 10
10.028847472
 20
-1.6705163377
 11
10.0287877603
 21
-0.4534408117
  0
LWPOLYLINE
  5
651
100
AcDbEntity
  8
0
100
AcDbPolyline
 62
250
  6
CONTINUOUS
 90
3
 70
0
 10
10.5284831879
 20
-0.6509065021
 10
10.5285437997
 20
-1.6670968464
 10
10.5288816119
 20
-3.6994224124
  0
LINE
  5
652
100
AcDbEntity
  8
0
100
AcDbLine
 62
7
  6
CONTINUOUS
 10
10.7106763055
 20
-0.6053755681
 11
10.7106763055
 21
-13.4054288651
  0
LINE
  5
653
100
AcDbEntity
  8
0
100
AcDbLine
 62
7
  6
CONTINUOUS
 10
10.7106763055
 20
-0.0054821621
 11
10.7106763055
 21
12.7945711349
  0
LINE
  5
654
100
AcDbEntity
  8
0
100
AcDbLine
 62
250
  6
CONTINUOUS
 10
10.0288474719
 20
1.0596586074
 11
10.0287877603
 21
-0.1574169185
  0
LINE
  5
655
100
AcDbEntity
  8
0
100
AcDbLine
 62
250
  6
CONTINUOUS
 10
10.5285437997
 20
1.0562391161
 11
10.5284831879
 21
0.0400487718
  0
LINE
  5
656
100
AcDbEntity
  8
0
100
AcDbLine
 62
250
  6
CONTINUOUS
 10
10.0294639473
 20
4.1104080201
 11
10.0288474719
 21
1.0596586074
  0
LINE
  5
657
100
AcDbEntity
  8
0
100
AcDbLine
 62
250
  6
CONTINUOUS
 10
10.5291588151
 20
4.1047009879
 11
10.5285437997
 21
1.0562391161
  0
LINE
  5
658
100
AcDbEntity
  8
0
100
AcDbLine
 62
250
  6
CONTINUOUS
 10
10.0302347362
 20
6.1441384927
 11
10.0294639473
 21
4.1104080201
  0
LINE
  5
659
100
AcDbEntity
  8
0
100
AcDbLine
 62
250
  6
CONTINUOUS
 10
10.5299298012
 20
6.1369152252
 11
10.5291588151
 21
4.1047009879
  0
LINE
  5
65A
100
AcDbEntity
  8
0
100
AcDbLine
 62
250
  6
CONTINUOUS
 10
10.031932264
 20
9.1945711349
 11
10.0302347362
 21
6.1441384927
  0
LINE
  5
65B
100
AcDbEntity
  8
0
100
AcDbLine
 62
250
  6
CONTINUOUS
 10
10.5316276776
 20
9.1850711349
 11
10.5299298012
 21
6.1369152252
  0
LINE
  5
65C
100
AcDbEntity
  8
0
100
AcDbLine
 62
250
  6
CONTINUOUS
 10
10.0326532218
 20
10.0652438928
 11
10.031932264
 21
9.1945711349
  0
LINE
  5
65D
100
AcDbEntity
  8
0
100
AcDbLine
 62
250
  6
CONTINUOUS
 10
10.5328188025
 20
10.4837392103
 11
10.5316276776
 21
9.1850711349
  0
LINE
  5
65E
100
AcDbEntity
  8
0
100
AcDbLine
 62
250
  6
CONTINUOUS
 10
10.0336666975
 20
10.9356752214
 11
10.0326532218
 21
10.0652438928
  0
LINE
  5
65F
100
AcDbEntity
  8
0
100
AcDbLine
 62
250
  6
CONTINUOUS
 10
10.5339785442
 20
11.3491877923
 11
10.5328188025
 21
10.4837392103
  0
LINE
  5
660
100
AcDbEntity
  8
0
100
AcDbLine
 62
250
  6
CONTINUOUS
 10
10.0349726478
 20
11.8057836229
 11
10.0336666975
 21
10.9356752214
  0
LINE
  5
661
100
AcDbEntity
  8
0
100
AcDbLine
 62
250
  6
CONTINUOUS
 10
10.535430665
 20
12.2142646733
 11
10.5339785442
 21
11.3491877923
  0
LINE
  5
662
100
AcDbEntity
  8
0
100
AcDbLine
 62
250
  6
CONTINUOUS
 10
10.0365709391
 20
12.6754876613
 11
10.0349726478
 21
11.8057836229
  0
LINE
  5
663
100
AcDbEntity
  8
0
100
AcDbLine
 62
250
  6
CONTINUOUS
 10
10.5371750632
 20
13.0789090486
 11
10.535430665
 21
12.2142646733
  0
LINE
  5
664
100
AcDbEntity
  8
0
100
AcDbLine
 62
250
  6
CONTINUOUS
 10
10.0384613906
 20
13.5447059017
 11
10.0365709391
 21
12.6754876613
  0
LINE
  5
665
100
AcDbEntity
  8
0
100
AcDbLine
 62
250
  6
CONTINUOUS
 10
10.5392115681
 20
13.9430298341
 11
10.5371750632
 21
13.0789090486
  0
LINE
  5
666
100
AcDbEntity
  8
0
100
AcDbLine
 62
250
  6
CONTINUOUS
 10
10.0406438697
 20
14.4133569707
 11
10.0384613906
 21
13.5447059017
  0
LINE
  5
667
100
AcDbEntity
  8
0
100
AcDbLine
 62
250
  6
CONTINUOUS
 10
10.5415399529
 20
14.8065360787
 11
10.5392115681
 21
13.9430298341
  0
LINE
  5
668
100
AcDbEntity
  8
0
100
AcDbLine
 62
250
  6
CONTINUOUS
 10
10.0431181599
 20
15.2813595769
 11
10.0406438697
 21
14.4133569707
  0
LINE
  5
669
100
AcDbEntity
  8
0
100
AcDbLine
 62
250
  6
CONTINUOUS
 10
10.5441600545
 20
15.6693671816
 11
10.5415399529
 21
14.8065360787
  0
LINE
  5
66A
100
AcDbEntity
  8
0
100
AcDbLine
 62
7
  6
CONTINUOUS
 10
10.6843689962
 20
-22.0161761729
 11
10.7106763055
 21
-13.4054288651
  0
LINE
  5
66B
100
AcDbEntity
  8
0
100
AcDbLine
 62
250
  6
CONTINUOUS
 10
10.0458839884
 20
16.1486325245
 11
10.0431181599
 21
15.2813595769
  0
LINE
  5
66C
100
AcDbEntity
  8
0
100
AcDbLine
 62
250
  6
CONTINUOUS
 10
10.5470716104
 20
16.5314322983
 11
10.5441600545
 21
15.6693671816
  0
LINE
  5
66D
100
AcDbEntity
  8
0
100
AcDbLine
 62
250
  6
CONTINUOUS
 10
10.0489411615
 20
17.0150946425
 11
10.0458839884
 21
16.1486325245
  0
LINE
  5
66E
100
AcDbEntity
  8
0
100
AcDbLine
 62
250
  6
CONTINUOUS
 10
10.5502743019
 20
17.3926406959
 11
10.5470716104
 21
16.5314322983
  0
LINE
  5
66F
100
AcDbEntity
  8
0
100
AcDbLine
 62
250
  6
CONTINUOUS
 10
10.0522893707
 20
17.8806648503
 11
10.0489411615
 21
17.0150946425
  0
LINE
  5
670
100
AcDbEntity
  8
0
100
AcDbLine
 62
250
  6
CONTINUOUS
 10
10.5537679044
 20
18.2529319132
 11
10.5502743019
 21
17.3926406959
  0
LINE
  5
671
100
AcDbEntity
  8
0
100
AcDbLine
 62
250
  6
CONTINUOUS
 10
10.0559282511
 20
18.7452620956
 11
10.0522893707
 21
17.8806648503
  0
LINE
  5
672
100
AcDbEntity
  8
0
100
AcDbLine
 62
250
  6
CONTINUOUS
 10
10.5575520636
 20
19.1122153123
 11
10.5537679044
 21
18.2529319132
  0
LINE
  5
673
100
AcDbEntity
  8
0
100
AcDbLine
 62
250
  6
CONTINUOUS
 10
10.0598575477
 20
19.6088054292
 11
10.0559282511
 21
18.7452620956
  0
LINE
  5
674
100
AcDbEntity
  8
0
100
AcDbLine
 62
250
  6
CONTINUOUS
 10
10.5616263177
 20
19.9703902295
 11
10.5575520636
 21
19.1122153123
  0
LWPOLYLINE
  5
675
100
AcDbEntity
  8
0
100
AcDbPolyline
 62
250
  6
CONTINUOUS
 90
3
 70
0
 10
10.0662951179
 20
20.9019675545
 10
10.0640767598
 20
20.4712140267
 10
10.0598575477
 20
19.6088054292
  0
LINE
  5
676
100
AcDbEntity
  8
0
100
AcDbLine
 62
250
  6
CONTINUOUS
 10
10.0672548776
 20
21.1105322588
 11
10.0662951179
 21
20.9019675545
  0
LINE
  5
677
100
AcDbEntity
  8
0
100
AcDbLine
 62
250
  6
CONTINUOUS
 10
10.5664265736
 20
20.8861042351
 11
10.5616263177
 21
19.9703902295
  0
LINE
  5
678
100
AcDbEntity
  8
0
100
AcDbLine
 62
250
  6
CONTINUOUS
 10
10.0689732355
 20
21.302463715
 11
10.0672548776
 21
21.1105322588
  0
LINE
  5
679
100
AcDbEntity
  8
0
100
AcDbLine
 62
250
  6
CONTINUOUS
 10
10.5671048655
 20
20.9428632747
 11
10.5664265736
 21
20.8861042351
  0
LINE
  5
67A
100
AcDbEntity
  8
0
100
AcDbLine
 62
250
  6
CONTINUOUS
 10
10.0707841965
 20
21.4344893355
 11
10.0689732355
 21
21.302463715
  0
LWPOLYLINE
  5
67B
100
AcDbEntity
  8
0
100
AcDbPolyline
 62
250
  6
CONTINUOUS
 90
55
 70
0
 10
10.5823419871
 20
-21.8630578697
 10
10.5821045677
 20
-21.8775634417
 10
10.5814455391
 20
-21.8920567691
 10
10.5803654576
 20
-21.9065256176
 10
10.5788652349
 20
-21.9209577735
 10
10.5769461375
 20
-21.9353410541
 10
10.5746097852
 20
-21.9496633181
 10
10.5718581504
 20
-21.9639124756
 10
10.5686935557
 20
-21.9780764983
 10
10.5651186725
 20
-21.9921434299
 10
10.5611365185
 20
-22.006101396
 10
10.556750455
 20
-22.0199386144
 10
10.5519641847
 20
-22.0336434045
 10
10.5467817476
 20
-22.0472041976
 10
10.5412075185
 20
-22.0606095466
 10
10.5352462028
 20
-22.0738481357
 10
10.5289028326
 20
-22.0869087896
 10
10.5221827625
 20
-22.0997804835
 10
10.5150916653
 20
-22.1124523519
 10
10.5076355267
 20
-22.1249136981
 10
10.4998206407
 20
-22.137154003
 10
10.4916536041
 20
-22.1491629342
 10
10.483141311
 20
-22.1609303546
 10
10.4742909469
 20
-22.1724463308
 10
10.4651099826
 20
-22.1837011419
 10
10.4556061682
 20
-22.1946852872
 10
10.4457875262
 20
-22.2053894948
 10
10.4356623447
 20
-22.2158047288
 10
10.4252391708
 20
-22.2259221974
 10
10.414526803
 20
-22.23573336
 10
10.403534284
 20
-22.2452299348
 10
10.392270893
 20
-22.2544039054
 10
10.3807461377
 20
-22.2632475277
 10
10.3689697466
 20
-22.2717533365
 10
10.3569516606
 20
-22.2799141518
 10
10.3447020244
 20
-22.2877230847
 10
10.3322311785
 20
-22.2951735436
 10
10.3195496498
 20
-22.3022592392
 10
10.3066681434
 20
-22.3089741901
 10
10.2935975328
 20
-22.3153127283
 10
10.2803488515
 20
-22.3212695029
 10
10.2669332831
 20
-22.3268394858
 10
10.2533621521
 20
-22.3320179751
 10
10.2396469143
 20
-22.3368005995
 10
10.2257991473
 20
-22.3411833218
 10
10.2118305405
 20
-22.3451624424
 10
10.1977528851
 20
-22.3487346024
 10
10.1835780647
 20
-22.3518967865
 10
10.1693180446
 20
-22.3546463252
 10
10.1549848622
 20
-22.3569808977
 10
10.1405906167
 20
-22.3588985333
 10
10.1261474586
 20
-22.3603976132
 10
10.11166758
 20
-22.3614768719
 10
10.0971632038
 20
-22.3621353985
 10
10.0826465736
 20
-22.3623726371
  0
LINE
  5
67C
100
AcDbEntity
  8
0
100
AcDbLine
 62
250
  6
CONTINUOUS
 10
10.5680157814
 20
20.9968942809
 11
10.5671048655
 21
20.9428632747
  0
LWPOLYLINE
  5
67D
100
AcDbEntity
  8
0
100
AcDbPolyline
 62
250
  6
CONTINUOUS
 90
43
 70
0
 10
10.5284831177
 20
0.0400487894
 10
10.5283411223
 20
0.0325722841
 10
10.5279198862
 20
0.0251062314
 10
10.5272199982
 20
0.017661069
 10
10.5262424367
 20
0.0102472058
 10
10.5249885686
 20
0.0028750066
 10
10.5234601467
 20
-0.0044452218
 10
10.5216593078
 20
-0.0117032455
 10
10.5195885696
 20
-0.0188889173
 10
10.5172508271
 20
-0.0259921914
 10
10.5146493486
 20
-0.033003137
 10
10.5117877711
 20
-0.0399119525
 10
10.5086700951
 20
-0.046708979
 10
10.5053006794
 20
-0.053384714
 10
10.5016842345
 20
-0.0599298244
 10
10.4978258165
 20
-0.0663351599
 10
10.4937308195
 20
-0.0725917655
 10
10.4894049687
 20
-0.0786908942
 10
10.4848543116
 20
-0.0846240191
 10
10.4800852104
 20
-0.0903828454
 10
10.4751043325
 20
-0.0959593219
 10
10.4699186414
 20
-0.1013456526
 10
10.464535387
 20
-0.1065343071
 10
10.4589620952
 20
-0.1115180312
 10
10.4532065579
 20
-0.1162898577
 10
10.4472768215
 20
-0.1208431152
 10
10.4411811761
 20
-0.1251714381
 10
10.4349281438
 20
-0.1292687751
 10
10.4285264665
 20
-0.133129398
 10
10.4219850941
 20
-0.1367479095
 10
10.4153131718
 20
-0.1401192506
 10
10.4085200271
 20
-0.1432387081
 10
10.4016151574
 20
-0.1461019209
 10
10.3946082159
 20
-0.148704886
 10
10.3875089986
 20
-0.1510439644
 10
10.3803274307
 20
-0.1531158859
 10
10.3730735522
 20
-0.1549177539
 10
10.3657575044
 20
-0.1564470492
 10
10.3583895157
 20
-0.1577016339
 10
10.3509798866
 20
-0.1586797539
 10
10.3435389763
 20
-0.1593800419
 10
10.3360771876
 20
-0.1598015187
 10
10.3286049523
 20
-0.1599435952
  0
LINE
  5
67E
100
AcDbEntity
  8
0
100
AcDbLine
 62
250
  6
CONTINUOUS
 10
10.5689032004
 20
21.0376222115
 11
10.5680157814
 21
20.9968942809
  0
LINE
  5
67F
100
AcDbEntity
  8
0
100
AcDbLine
 62
250
  6
CONTINUOUS
 10
10.5699230903
 20
21.0757313747
 11
10.5689032004
 21
21.0376222115
  0
LINE
  5
680
100
AcDbEntity
  8
0
100
AcDbLine
 62
250
  6
CONTINUOUS
 10
10.5707691766
 20
21.1023757292
 11
10.5699230903
 21
21.0757313747
  0
LINE
  5
681
100
AcDbEntity
  8
0
100
AcDbLine
 62
250
  6
CONTINUOUS
 10
10.5716800535
 20
21.1272073053
 11
10.5707691766
 21
21.1023757292
  0
LINE
  5
682
100
AcDbEntity
  8
0
100
AcDbLine
 62
7
  6
CONTINUOUS
 10
3.4964915806
 20
-12.2814664413
 11
3.4856908087
 21
-12.2938959276
  0
LINE
  5
683
100
AcDbEntity
  8
0
100
AcDbLine
 62
7
  6
CONTINUOUS
 10
2.8600420194
 20
-12.0631660733
 11
2.863194462
 21
-12.0597749209
  0
LINE
  5
684
100
AcDbEntity
  8
0
100
AcDbLine
 62
7
  6
CONTINUOUS
 10
2.8568883447
 20
-12.066287764
 11
2.8601204015
 21
-12.0630831213
  0
LINE
  5
685
100
AcDbEntity
  8
0
100
AcDbLine
 62
7
  6
CONTINUOUS
 10
-0.3703563663
 20
-15.1288499944
 11
2.8568883447
 21
-12.066287764
  0
LINE
  5
686
100
AcDbEntity
  8
0
100
AcDbLine
 62
7
  6
CONTINUOUS
 10
3.4512798471
 20
-12.3293556441
 11
-0.0264155241
 21
-15.6296170903
  0
LINE
  5
687
100
AcDbEntity
  8
0
100
AcDbLine
 62
7
  6
CONTINUOUS
 10
-0.026415524
 20
-15.6296170902
 11
-0.0383046994
 21
-15.6405957719
  0
LINE
  5
688
100
AcDbEntity
  8
0
100
AcDbLine
 62
7
  6
CONTINUOUS
 10
-0.3735643883
 20
-15.1317599813
 11
-0.3703563663
 21
-15.1288499944
  0
LINE
  5
689
100
AcDbEntity
  8
0
100
AcDbLine
 62
7
  6
CONTINUOUS
 10
-0.0382768824
 20
-15.6405679084
 11
-0.0504693513
 21
-15.6512344545
  0
LINE
  5
68A
100
AcDbEntity
  8
0
100
AcDbLine
 62
7
  6
CONTINUOUS
 10
-0.3800874544
 20
-15.1369758591
 11
-0.376738428
 21
-15.1344113693
  0
LINE
  5
68B
100
AcDbEntity
  8
0
100
AcDbLine
 62
7
  6
CONTINUOUS
 10
0.1271906059
 20
-11.3254714489
 11
0.1365999271
 21
-11.3210005314
  0
LINE
  5
68C
100
AcDbEntity
  8
0
100
AcDbLine
 62
7
  6
CONTINUOUS
 10
-1.0058573757
 20
-11.8628159149
 11
-1.0152666346
 21
-11.8672859722
  0
LINE
  5
68D
100
AcDbEntity
  8
0
100
AcDbLine
 62
7
  6
CONTINUOUS
 10
0.1360597447
 20
-11.3212452048
 11
0.1456106274
 21
-11.3170835836
  0
LINE
  5
68E
100
AcDbEntity
  8
0
100
AcDbLine
 62
7
  6
CONTINUOUS
 10
-1.0147260441
 20
-11.8670411601
 11
-1.0242766984
 21
-11.8712019053
  0
LINE
  5
68F
100
AcDbEntity
  8
0
100
AcDbLine
 62
7
  6
CONTINUOUS
 10
0.1450564374
 20
-11.3173143298
 11
0.1547431708
 21
-11.3134648501
  0
LINE
  5
690
100
AcDbEntity
  8
0
100
AcDbLine
 62
7
  6
CONTINUOUS
 10
-1.0237221412
 20
-11.87097105
 11
-1.0334084551
 21
-11.8748196366
  0
LINE
  5
691
100
AcDbEntity
  8
0
100
AcDbLine
 62
7
  6
CONTINUOUS
 10
0.154179697
 20
-11.3136772248
 11
0.1639979601
 21
-11.3101435648
  0
LINE
  5
692
100
AcDbEntity
  8
0
100
AcDbLine
 62
7
  6
CONTINUOUS
 10
-1.0328446956
 20
-11.8746071918
 11
-1.0426623049
 21
-11.8781399332
  0
LINE
  5
693
100
AcDbEntity
  8
0
100
AcDbLine
 62
7
  6
CONTINUOUS
 10
0.1634305106
 20
-11.3103354916
 11
0.1733479673
 21
-11.3071299571
  0
LINE
  5
694
100
AcDbEntity
  8
0
100
AcDbLine
 62
7
  6
CONTINUOUS
 10
-1.0420946786
 20
-11.8779479814
 11
-1.052011215
 21
-11.8811525978
  0
LINE
  5
695
100
AcDbEntity
  8
0
100
AcDbLine
 62
7
  6
CONTINUOUS
 10
0.1728002024
 20
-11.307297211
 11
0.1827931766
 21
-11.3044250389
  0
LINE
  5
696
100
AcDbEntity
  8
0
100
AcDbLine
 62
7
  6
CONTINUOUS
 10
-1.0514633823
 20
-11.8809853559
 11
-1.0614551625
 21
-11.8838566194
  0
LINE
  5
697
100
AcDbEntity
  8
0
100
AcDbLine
 62
7
  6
CONTINUOUS
 10
2.8155011181
 20
11.2864474507
 11
2.8200205723
 21
11.2877012244
  0
LINE
  5
698
100
AcDbEntity
  8
0
100
AcDbLine
 62
7
  6
CONTINUOUS
 10
-1.0609490296
 20
10.6937019254
 11
-1.0709809928
 21
10.6911700702
  0
LINE
  5
699
100
AcDbEntity
  8
0
100
AcDbLine
 62
7
  6
CONTINUOUS
 10
0.1823162789
 20
11.2728643088
 11
0.1923467814
 21
11.2753952813
  0
LINE
  5
69A
100
AcDbEntity
  8
0
100
AcDbLine
 62
7
  6
CONTINUOUS
 10
2.8113564428
 20
11.2854902507
 11
2.8159137783
 21
11.2865527674
  0
LINE
  5
69B
100
AcDbEntity
  8
0
100
AcDbLine
 62
7
  6
CONTINUOUS
 10
-1.070569346
 20
10.6912678247
 11
-1.0805896577
 21
10.6890877075
  0
LINE
  5
69C
100
AcDbEntity
  8
0
100
AcDbLine
 62
7
  6
CONTINUOUS
 10
0.1919352851
 20
11.2752975794
 11
0.2019538863
 21
11.2774768832
  0
LINE
  5
69D
100
AcDbEntity
  8
0
100
AcDbLine
 62
7
  6
CONTINUOUS
 10
2.8071491413
 20
11.2846983904
 11
2.8117193153
 21
11.2855686854
  0
LINE
  5
69E
100
AcDbEntity
  8
0
100
AcDbLine
 62
7
  6
CONTINUOUS
 10
-1.0802612607
 20
10.6891534437
 11
-1.0902684753
 21
10.6873203686
  0
LINE
  5
69F
100
AcDbEntity
  8
0
100
AcDbLine
 62
7
  6
CONTINUOUS
 10
0.2016257196
 20
11.2774112069
 11
0.2116310048
 21
11.2792435486
  0
LINE
  5
6A0
100
AcDbEntity
  8
0
100
AcDbLine
 62
7
  6
CONTINUOUS
 10
-1.090027369
 20
10.6873617124
 11
-1.1000155307
 21
10.685867907
  0
LINE
  5
6A1
100
AcDbEntity
  8
0
100
AcDbLine
 62
7
  6
CONTINUOUS
 10
0.2113901718
 20
11.2792022599
 11
0.2213762203
 21
11.2806954255
  0
LINE
  5
6A2
100
AcDbEntity
  8
0
100
AcDbLine
 62
7
  6
CONTINUOUS
 10
2.8029017958
 20
11.2840805954
 11
2.8074454253
 21
11.2847492219
  0
LINE
  5
6A3
100
AcDbEntity
  8
0
100
AcDbLine
 62
7
  6
CONTINUOUS
 10
3.1201446663
 20
10.6889227431
 11
3.1038007955
 21
10.6868929545
  0
LWPOLYLINE
  5
6A4
100
AcDbEntity
  8
0
100
AcDbPolyline
 62
7
  6
CONTINUOUS
 90
4
 70
0
 10
-1.0998650756
 20
10.6858897024
 10
-1.1097193139
 20
10.6847448915
 10
-1.1195717287
 20
10.6839297726
 10
-1.1294406753
 20
10.6834418537
  0
LWPOLYLINE
  5
6A5
100
AcDbEntity
  8
0
100
AcDbPolyline
 62
7
  6
CONTINUOUS
 90
4
 70
0
 10
0.2212260523
 20
11.2806736716
 10
0.2310783015
 20
11.2818180079
 10
0.2409285662
 20
11.2826327912
 10
0.2507951996
 20
11.2831205001
  0
LINE
  5
6A6
100
AcDbEntity
  8
0
100
AcDbLine
 62
7
  6
CONTINUOUS
 10
2.7986219336
 20
11.2836397743
 11
2.8031295685
 21
11.2841092478
  0
LINE
  5
6A7
100
AcDbEntity
  8
0
100
AcDbLine
 62
7
  6
CONTINUOUS
 10
2.7943020273
 20
11.2833730187
 11
2.7987842316
 21
11.28365372
  0
LWPOLYLINE
  5
6A8
100
AcDbEntity
  8
0
100
AcDbPolyline
 62
7
  6
CONTINUOUS
 90
3
 70
0
 10
3.071025499
 20
10.6841869999
 10
3.0545717408
 20
10.6835089963
 10
3.0380713099
 20
10.6832811446
  0
LINE
  5
6A9
100
AcDbEntity
  8
0
100
AcDbLine
 62
7
  6
CONTINUOUS
 10
2.7899676574
 20
11.2832811334
 11
2.7943969279
 21
11.2833776819
  0
LINE
  5
6AA
100
AcDbEntity
  8
0
100
AcDbLine
 62
7
  6
CONTINUOUS
 10
-1.1294479559
 20
10.6834448164
 11
-1.1393261536
 21
10.6832811349
  0
LINE
  5
6AB
100
AcDbEntity
  8
0
100
AcDbLine
 62
7
  6
CONTINUOUS
 10
0.2508023574
 20
11.2831175285
 11
0.2606782015
 21
11.2832811349
  0
LINE
  5
6AC
100
AcDbEntity
  8
0
100
AcDbLine
 62
7
  6
CONTINUOUS
 10
-3.9169176587
 20
10.6832811349
 11
-1.1393261536
 21
10.6832811349
  0
LINE
  5
6AD
100
AcDbEntity
  8
0
100
AcDbLine
 62
7
  6
CONTINUOUS
 10
0.26067877
 20
10.6832811349
 11
3.0380713099
 21
10.6832811446
  0
LINE
  5
6AE
100
AcDbEntity
  8
0
100
AcDbLine
 62
7
  6
CONTINUOUS
 10
-3.6687895049
 20
11.2832811334
 11
-1.1393255947
 21
11.2832811349
  0
LINE
  5
6AF
100
AcDbEntity
  8
0
100
AcDbLine
 62
7
  6
CONTINUOUS
 10
0.2606782015
 20
11.2832811349
 11
2.789942077
 21
11.2832811334
  0
LWPOLYLINE
  5
6B0
100
AcDbEntity
  8
0
100
AcDbPolyline
 62
7
  6
CONTINUOUS
 90
3
 70
0
 10
-3.9169176587
 20
10.6832811349
 10
-3.9334175125
 20
10.6835089224
 10
-3.9498716089
 20
10.6841869052
  0
LINE
  5
6B1
100
AcDbEntity
  8
0
100
AcDbLine
 62
7
  6
CONTINUOUS
 10
0.2606787702
 20
10.6832811349
 11
0.2507942884
 21
10.6834417565
  0
LINE
  5
6B2
100
AcDbEntity
  8
0
100
AcDbLine
 62
7
  6
CONTINUOUS
 10
-1.1393255949
 20
11.2832811349
 11
-1.1294435868
 21
11.2831205973
  0
LINE
  5
6B3
100
AcDbEntity
  8
0
100
AcDbLine
 62
7
  6
CONTINUOUS
 10
-3.6731486157
 20
11.2833729456
 11
-3.6687895049
 21
11.2832803308
  0
LWPOLYLINE
  5
6B4
100
AcDbEntity
  8
0
100
AcDbPolyline
 62
7
  6
CONTINUOUS
 90
3
 70
0
 10
-1.1294494331
 20
11.2831175548
 10
-1.1196084473
 20
11.2826323898
 10
-1.1098026371
 20
11.2818256396
  0
LWPOLYLINE
  5
6B5
100
AcDbEntity
  8
0
100
AcDbPolyline
 62
7
  6
CONTINUOUS
 90
3
 70
0
 10
0.2508002514
 20
10.6834447904
 10
0.2409570387
 20
10.6839301563
 10
0.231149132
 20
10.6847372324
  0
LINE
  5
6B6
100
AcDbEntity
  8
0
100
AcDbLine
 62
7
  6
CONTINUOUS
 10
-3.6776135184
 20
11.2836524798
 11
-3.6732360981
 21
11.2833776975
  0
LWPOLYLINE
  5
6B7
100
AcDbEntity
  8
0
100
AcDbPolyline
 62
7
  6
CONTINUOUS
 90
3
 70
0
 10
-3.9498765177
 20
10.6841871075
 10
-3.9662946743
 20
10.6853156898
 10
-3.9826857873
 20
10.6868971143
  0
LINE
  5
6B8
100
AcDbEntity
  8
0
100
AcDbLine
 62
7
  6
CONTINUOUS
 10
-3.6819473425
 20
11.2841054803
 11
-3.6774678665
 21
11.2836396181
  0
LINE
  5
6B9
100
AcDbEntity
  8
0
100
AcDbLine
 62
7
  6
CONTINUOUS
 10
0.231149132
 20
10.6847372324
 11
0.221219175
 21
10.685889557
  0
LINE
  5
6BA
100
AcDbEntity
  8
0
100
AcDbLine
 62
7
  6
CONTINUOUS
 10
-1.1098026371
 20
11.2818256396
 11
-1.0998749166
 21
11.2806738151
  0
LWPOLYLINE
  5
6BB
100
AcDbEntity
  8
0
100
AcDbPolyline
 62
7
  6
CONTINUOUS
 90
34
 70
0
 10
-3.9826504914
 20
10.6868932608
 10
-3.9989952638
 20
10.6889232724
 10
-4.015259011
 20
10.6913963297
 10
-4.031436981
 20
10.6943118869
 10
-4.0475339259
 20
10.6976704868
 10
-4.0635226008
 20
10.7014667208
 10
-4.0794069747
 20
10.7057030609
 10
-4.0951830786
 20
10.7103770308
 10
-4.1108117604
 20
10.7154757997
 10
-4.1262896729
 20
10.7209982815
 10
-4.1416201632
 20
10.7269455568
 10
-4.1567741211
 20
10.7333080446
 10
-4.1717559828
 20
10.7400900379
 10
-4.1865613121
 20
10.747287237
 10
-4.2011476897
 20
10.7548771716
 10
-4.2155091313
 20
10.7628569501
 10
-4.2296516212
 20
10.7712294565
 10
-4.2435506927
 20
10.7799808847
 10
-4.2572107695
 20
10.7891162417
 10
-4.270627428
 20
10.7986305118
 10
-4.2837629312
 20
10.8084948549
 10
-4.2966112198
 20
10.8187051704
 10
-4.3091783531
 20
10.8292655498
 10
-4.321444772
 20
10.8401594407
 10
-4.3334151517
 20
10.8513927896
 10
-4.345084817
 20
10.8629596404
 10
-4.3564201825
 20
10.8748255868
 10
-4.3674150485
 20
10.8869854703
 10
-4.3780756147
 20
10.8994444402
 10
-4.3883868952
 20
10.9121835518
 10
-4.3983533001
 20
10.9252093661
 10
-4.4079704193
 20
10.9385153125
 10
-4.4172100363
 20
10.9520627497
 10
-4.4260666564
 20
10.9658456595
  0
LINE
  5
6BC
100
AcDbEntity
  8
0
100
AcDbLine
 62
7
  6
CONTINUOUS
 10
-3.6862470324
 20
11.2847407182
 11
-3.6817472573
 21
11.2840803484
  0
LINE
  5
6BD
100
AcDbEntity
  8
0
100
AcDbLine
 62
7
  6
CONTINUOUS
 10
0.2213655746
 20
10.6858682656
 11
0.2113807254
 21
10.6873616416
  0
LINE
  5
6BE
100
AcDbEntity
  8
0
100
AcDbLine
 62
7
  6
CONTINUOUS
 10
-1.1000210499
 20
11.280695068
 11
-1.0900382896
 21
11.2792023276
  0
LWPOLYLINE
  5
6BF
100
AcDbEntity
  8
0
100
AcDbPolyline
 62
7
  6
CONTINUOUS
 90
7
 70
0
 10
-3.9990360516
 20
10.6889289345
 10
-4.0153040521
 20
10.6914038123
 10
-4.0314847797
 20
10.6943211089
 10
-4.0475832435
 20
10.6976814601
 10
-4.0635730547
 20
10.7014794395
 10
-4.0794582877
 20
10.7057174642
 10
-4.0952348681
 20
10.7103931129
  0
LINE
  5
6C0
100
AcDbEntity
  8
0
100
AcDbLine
 62
7
  6
CONTINUOUS
 10
0.2116173231
 20
10.6873210082
 11
0.2016141281
 21
10.6891533981
  0
LINE
  5
6C1
100
AcDbEntity
  8
0
100
AcDbLine
 62
7
  6
CONTINUOUS
 10
-1.0902746383
 20
11.2792429103
 11
-1.0802733446
 21
11.277411248
  0
LINE
  5
6C2
100
AcDbEntity
  8
0
100
AcDbLine
 62
7
  6
CONTINUOUS
 10
-3.6905031261
 20
11.285554174
 11
-3.685994145
 21
11.284697956
  0
LINE
  5
6C3
100
AcDbEntity
  8
0
100
AcDbLine
 62
7
  6
CONTINUOUS
 10
0.201937248
 20
10.6890887186
 11
0.1919223058
 21
10.6912676929
  0
LINE
  5
6C4
100
AcDbEntity
  8
0
100
AcDbLine
 62
7
  6
CONTINUOUS
 10
-1.0805962611
 20
11.2774758734
 11
-1.0705829978
 21
11.2752977051
  0
LINE
  5
6C5
100
AcDbEntity
  8
0
100
AcDbLine
 62
7
  6
CONTINUOUS
 10
-3.6946872375
 20
11.2865337894
 11
-3.6902011727
 21
11.2854896211
  0
LINE
  5
6C6
100
AcDbEntity
  8
0
100
AcDbLine
 62
7
  6
CONTINUOUS
 10
0.1923273349
 20
10.6911715157
 11
0.1823023357
 21
10.6937016581
  0
LINE
  5
6C7
100
AcDbEntity
  8
0
100
AcDbLine
 62
7
  6
CONTINUOUS
 10
-1.0709879053
 20
11.2753938368
 11
-1.0609643331
 21
11.2728645682
  0
LINE
  5
6C8
100
AcDbEntity
  8
0
100
AcDbLine
 62
7
  6
CONTINUOUS
 10
-3.6987969844
 20
11.2876807443
 11
-3.6943462695
 21
11.2864468841
  0
LINE
  5
6C9
100
AcDbEntity
  8
0
100
AcDbLine
 62
7
  6
CONTINUOUS
 10
-1.0614475838
 20
11.2729969192
 11
-1.0514642981
 21
11.2701279676
  0
LINE
  5
6CA
100
AcDbEntity
  8
0
100
AcDbLine
 62
7
  6
CONTINUOUS
 10
0.1827855982
 20
10.6935692791
 11
0.1728011522
 21
10.6964391287
  0
LINE
  5
6CB
100
AcDbEntity
  8
0
100
AcDbLine
 62
7
  6
CONTINUOUS
 10
0.1733389511
 20
10.696274908
 11
0.1634316647
 21
10.6994773437
  0
LINE
  5
6CC
100
AcDbEntity
  8
0
100
AcDbLine
 62
7
  6
CONTINUOUS
 10
-1.052002194
 20
11.2702921858
 11
-1.0420957961
 21
11.2670906565
  0
LINE
  5
6CD
100
AcDbEntity
  8
0
100
AcDbLine
 62
7
  6
CONTINUOUS
 10
0.1639873774
 20
10.6992894412
 11
0.1541809637
 21
10.7028190621
  0
LINE
  5
6CE
100
AcDbEntity
  8
0
100
AcDbLine
 62
7
  6
CONTINUOUS
 10
-1.0426517134
 20
11.2672785942
 11
-1.0328459238
 21
11.2637498792
  0
LINE
  5
6CF
100
AcDbEntity
  8
0
100
AcDbLine
 62
7
  6
CONTINUOUS
 10
-1.0333961646
 20
11.2639571843
 11
-1.0237229188
 21
11.2601135023
  0
LINE
  5
6D0
100
AcDbEntity
  8
0
100
AcDbLine
 62
7
  6
CONTINUOUS
 10
0.1547308933
 20
10.7026118378
 11
0.1450572554
 21
10.7064563997
  0
LINE
  5
6D1
100
AcDbEntity
  8
0
100
AcDbLine
 62
7
  6
CONTINUOUS
 10
0.1455964603
 20
10.7062318775
 11
0.1360591477
 21
10.710387869
  0
LINE
  5
6D2
100
AcDbEntity
  8
0
100
AcDbLine
 62
7
  6
CONTINUOUS
 10
-1.0242625132
 20
11.2603381441
 11
-1.0147254037
 21
11.2561830154
  0
LINE
  5
6D3
100
AcDbEntity
  8
0
100
AcDbLine
 62
7
  6
CONTINUOUS
 10
-1.0152502139
 20
11.2564206996
 11
-1.0058547559
 21
11.2519569259
  0
LINE
  5
6D4
100
AcDbEntity
  8
0
100
AcDbLine
 62
7
  6
CONTINUOUS
 10
0.1365835312
 20
10.7101503334
 11
0.1271880327
 21
10.7146149548
  0
LWPOLYLINE
  5
6D5
100
AcDbEntity
  8
0
100
AcDbPolyline
 62
7
  6
CONTINUOUS
 90
3
 70
0
 10
-0.3769462879
 20
14.523559786
 10
-0.3802983868
 20
14.526126035
 10
-0.3840397536
 20
14.5287370597
  0
LINE
  5
6D6
100
AcDbEntity
  8
0
100
AcDbLine
 62
7
  6
CONTINUOUS
 10
-0.373699001
 20
14.5208488395
 11
-0.3770923353
 21
14.5236732586
  0
LWPOLYLINE
  5
6D7
100
AcDbEntity
  8
0
100
AcDbPolyline
 62
7
  6
CONTINUOUS
 90
3
 70
0
 10
-0.0499077613
 20
15.0397296371
 10
-0.0380634786
 20
15.0293534095
 10
-0.0265090414
 20
15.0186769902
  0
LINE
  5
6D8
100
AcDbEntity
  8
0
100
AcDbLine
 62
7
  6
CONTINUOUS
 10
-0.3705413441
 20
14.5179796994
 11
-0.3737685192
 21
14.5209056393
  0
LINE
  5
6D9
100
AcDbEntity
  8
0
100
AcDbLine
 62
7
  6
CONTINUOUS
 10
-0.0380635544
 20
15.0293545256
 11
-0.0265090414
 21
15.0186769902
  0
LINE
  5
6DA
100
AcDbEntity
  8
0
100
AcDbLine
 62
7
  6
CONTINUOUS
 10
2.8566818544
 20
11.4554377793
 11
-0.3705565262
 21
14.5179931945
  0
LINE
  5
6DB
100
AcDbEntity
  8
0
100
AcDbLine
 62
7
  6
CONTINUOUS
 10
-0.0265090414
 20
15.0186769902
 11
3.4510859061
 21
11.7184919633
  0
LWPOLYLINE
  5
6DC
100
AcDbEntity
  8
0
100
AcDbPolyline
 62
7
  6
CONTINUOUS
 90
3
 70
0
 10
3.4510874377
 20
11.7184904484
 10
3.4629029438
 20
11.7069635572
 10
3.474374773
 20
11.6951415755
  0
LINE
  5
6DD
100
AcDbEntity
  8
0
100
AcDbLine
 62
7
  6
CONTINUOUS
 10
2.8599394432
 20
11.4522045866
 11
2.8566702144
 21
11.4554495507
  0
LINE
  5
6DE
100
AcDbEntity
  8
0
100
AcDbLine
 62
7
  6
CONTINUOUS
 10
2.8630434427
 20
11.4488606153
 11
2.8598449837
 21
11.4523058032
  0
LINE
  5
6DF
100
AcDbEntity
  8
0
100
AcDbLine
 62
7
  6
CONTINUOUS
 10
3.4743790162
 20
11.6951372028
 11
3.4855156548
 21
11.6830113799
  0
LWPOLYLINE
  5
6E0
100
AcDbEntity
  8
0
100
AcDbPolyline
 62
7
  6
CONTINUOUS
 90
37
 70
0
 10
3.4854955836
 20
11.6830338492
 10
3.4962972066
 20
11.6706032092
 10
3.5067604497
 20
11.6578725495
 10
3.5168598424
 20
11.6448756082
 10
3.5265923114
 20
11.6316160232
 10
3.5359609299
 20
11.6180901464
 10
3.5449494468
 20
11.6043207884
 10
3.5535590177
 20
11.5903034192
 10
3.561788487
 20
11.576042559
 10
3.5696181363
 20
11.5615745957
 10
3.5770462755
 20
11.5469025887
 10
3.5840745948
 20
11.5320234701
 10
3.5906884456
 20
11.5169644383
 10
3.5968880658
 20
11.5017193356
 10
3.6026732176
 20
11.4862943121
 10
3.6080285398
 20
11.4707350296
 10
3.6129516733
 20
11.4550476657
 10
3.6174449771
 20
11.4392260376
 10
3.6215001677
 20
11.423297268
 10
3.6251169769
 20
11.4072546997
 10
3.6282956727
 20
11.3911049859
 10
3.6310287755
 20
11.3748952165
 10
3.6333147
 20
11.3586325127
 10
3.6351550314
 20
11.3423097518
 10
3.6365470454
 20
11.3259526603
 10
3.6374900137
 20
11.3095537371
 10
3.6379846647
 20
11.2931204826
 10
3.6380304597
 20
11.276701127
 10
3.6376264392
 20
11.2603036703
 10
3.6367735626
 20
11.2439201143
 10
3.63547417
 20
11.2275746935
 10
3.6337269325
 20
11.2112596435
 10
3.6315331789
 20
11.1949827315
 10
3.6288992356
 20
11.1787914915
 10
3.6258252442
 20
11.1626940801
 10
3.6223110632
 20
11.1466823456
 10
3.6183625946
 20
11.1307793609
  0
LINE
  5
6E1
100
AcDbEntity
  8
0
100
AcDbLine
 62
7
  6
CONTINUOUS
 10
3.496321313
 20
11.6705747275
 11
3.5067875374
 21
11.6578385954
  0
LINE
  5
6E2
100
AcDbEntity
  8
0
100
AcDbLine
 62
7
  6
CONTINUOUS
 10
-0.0503987927
 20
-15.6511721544
 11
-0.0629094798
 21
-15.6615331478
  0
LINE
  5
6E3
100
AcDbEntity
  8
0
100
AcDbLine
 62
7
  6
CONTINUOUS
 10
-0.0627812552
 20
-15.6614298385
 11
-0.0756414612
 21
-15.6715019473
  0
LWPOLYLINE
  5
6E4
100
AcDbEntity
  8
0
100
AcDbPolyline
 62
7
  6
CONTINUOUS
 90
3
 70
0
 10
-0.3802768812
 20
-15.1371142374
 10
-0.3768712265
 20
-15.1345147286
 10
-0.3734948874
 20
-15.1317028862
  0
LINE
  5
6E5
100
AcDbEntity
  8
0
100
AcDbLine
 62
7
  6
CONTINUOUS
 10
-0.0754352967
 20
-15.6713465536
 11
-0.0886489191
 21
-15.6811307765
  0
LINE
  5
6E6
100
AcDbEntity
  8
0
100
AcDbLine
 62
7
  6
CONTINUOUS
 10
-0.0883498903
 20
-15.6809167262
 11
-0.1018827245
 21
-15.6903893886
  0
LINE
  5
6E7
100
AcDbEntity
  8
0
100
AcDbLine
 62
7
  6
CONTINUOUS
 10
-0.3837917161
 20
-15.1395626263
 11
-0.3800874544
 21
-15.1369758591
  0
LINE
  5
6E8
100
AcDbEntity
  8
0
100
AcDbLine
 62
7
  6
CONTINUOUS
 10
-0.1014919552
 20
-15.6901236163
 11
-0.1153420719
 21
-15.699274888
  0
LINE
  5
6E9
100
AcDbEntity
  8
0
100
AcDbLine
 62
7
  6
CONTINUOUS
 10
-0.3874053674
 20
-15.1418557786
 11
-0.3835492692
 21
-15.1394008131
  0
LINE
  5
6EA
100
AcDbEntity
  8
0
100
AcDbLine
 62
7
  6
CONTINUOUS
 10
-0.1148579794
 20
-15.6989654448
 11
-0.1290277667
 21
-15.7077901891
  0
LINE
  5
6EB
100
AcDbEntity
  8
0
100
AcDbLine
 62
7
  6
CONTINUOUS
 10
-0.1284514749
 20
-15.7074440094
 11
-0.1428930957
 21
-15.7159137604
  0
LINE
  5
6EC
100
AcDbEntity
  8
0
100
AcDbLine
 62
7
  6
CONTINUOUS
 10
-0.3910867432
 20
-15.1439813431
 11
-0.3871165698
 21
-15.1416817758
  0
LINE
  5
6ED
100
AcDbEntity
  8
0
100
AcDbLine
 62
7
  6
CONTINUOUS
 10
-0.3948289896
 20
-15.1459348254
 11
-0.3907674477
 21
-15.1438053784
  0
LINE
  5
6EE
100
AcDbEntity
  8
0
100
AcDbLine
 62
7
  6
CONTINUOUS
 10
-0.3986389606
 20
-15.1477207216
 11
-0.3945010548
 21
-15.1457699071
  0
LWPOLYLINE
  5
6EF
100
AcDbEntity
  8
0
100
AcDbPolyline
 62
250
  6
CONTINUOUS
 90
12
 70
0
 10
10.5316276776
 20
-9.7959288651
 10
10.530929412
 20
-9.7961991973
 10
10.5298274964
 20
-9.7964693107
 10
10.5283228222
 20
-9.796738987
 10
10.5264166067
 20
-9.7970080079
 10
10.5241103916
 20
-9.7972761559
 10
10.5214060427
 20
-9.7975432141
 10
10.5183057475
 20
-9.7978089663
 10
10.5148120139
 20
-9.7980731977
 10
10.5109276681
 20
-9.7983356945
 10
10.5066558521
 20
-9.7985962444
 10
10.5020000216
 20
-9.7988546366
  0
LWPOLYLINE
  5
6F0
100
AcDbEntity
  8
0
100
AcDbPolyline
 62
250
  6
CONTINUOUS
 90
13
 70
0
 10
10.5316276776
 20
9.1850711349
 10
10.530929412
 20
9.185341467
 10
10.5298274964
 20
9.1856115804
 10
10.5283228223
 20
9.1858812567
 10
10.5264166067
 20
9.1861502776
 10
10.5241103917
 20
9.1864184256
 10
10.5214060427
 20
9.1866854838
 10
10.5183057475
 20
9.1869512361
 10
10.5148120139
 20
9.1872154675
 10
10.5109276681
 20
9.1874779643
 10
10.5066558521
 20
9.1877385141
 10
10.5020000217
 20
9.1879969063
 10
10.4915516896
 20
9.1885063834
  0
LINE
  5
6F1
100
AcDbEntity
  8
0
100
AcDbLine
 62
7
  6
CONTINUOUS
 10
-0.395105751
 20
14.5351150225
 11
-0.3989245441
 21
14.5369006196
  0
LWPOLYLINE
  5
6F2
100
AcDbEntity
  8
0
100
AcDbPolyline
 62
7
  6
CONTINUOUS
 90
3
 70
0
 10
-0.3947167389
 20
14.5349201214
 10
-0.3985325774
 20
14.5367257186
 10
-0.4027986934
 20
14.5385186874
  0
LINE
  5
6F3
100
AcDbEntity
  8
0
100
AcDbLine
 62
7
  6
CONTINUOUS
 10
-0.3909835561
 20
14.5329566065
 11
-0.395105751
 21
14.5351150225
  0
LINE
  5
6F4
100
AcDbEntity
  8
0
100
AcDbLine
 62
7
  6
CONTINUOUS
 10
-0.3873317918
 20
14.5308332609
 11
-0.3913540098
 21
14.5331605531
  0
LINE
  5
6F5
100
AcDbEntity
  8
0
100
AcDbLine
 62
7
  6
CONTINUOUS
 10
-0.1407197867
 20
15.1036976728
 11
-0.1269038508
 21
15.0955210582
  0
LINE
  5
6F6
100
AcDbEntity
  8
0
100
AcDbLine
 62
7
  6
CONTINUOUS
 10
-0.1270149659
 20
15.0955872008
 11
-0.1134164268
 21
15.0870448717
  0
LINE
  5
6F7
100
AcDbEntity
  8
0
100
AcDbLine
 62
7
  6
CONTINUOUS
 10
-0.3837626833
 20
14.5285519958
 11
-0.3876633558
 21
14.5310332435
  0
LINE
  5
6F8
100
AcDbEntity
  8
0
100
AcDbLine
 62
7
  6
CONTINUOUS
 10
-0.1135123717
 20
15.0871061695
 11
-0.1001833463
 21
15.078232801
  0
LWPOLYLINE
  5
6F9
100
AcDbEntity
  8
0
100
AcDbPolyline
 62
7
  6
CONTINUOUS
 90
5
 70
0
 10
-0.100260476
 20
15.0782856595
 10
-0.0872606833
 20
15.0691218876
 10
-0.074511589
 20
15.0596186199
 10
-0.0620574518
 20
15.0498182629
 10
-0.0499130246
 20
15.039734947
  0
LINE
  5
6FA
100
AcDbEntity
  8
0
100
AcDbLine
 62
7
  6
CONTINUOUS
 10
-0.3770923353
 20
14.5236732586
 11
-0.3805127924
 21
14.5262825586
  0
LINE
  5
6FB
100
AcDbEntity
  8
0
100
AcDbLine
 62
7
  6
CONTINUOUS
 10
-0.1422498973
 20
-15.715547936
 11
-0.1569229139
 21
-15.7236367268
  0
LINE
  5
6FC
100
AcDbEntity
  8
0
100
AcDbLine
 62
7
  6
CONTINUOUS
 10
-0.1562550251
 20
-15.7232776031
 11
-0.1711323663
 21
-15.7309679811
  0
LINE
  5
6FD
100
AcDbEntity
  8
0
100
AcDbLine
 62
7
  6
CONTINUOUS
 10
-0.1704650799
 20
-15.7306326491
 11
-0.1855201744
 21
-15.737912643
  0
LINE
  5
6FE
100
AcDbEntity
  8
0
100
AcDbLine
 62
7
  6
CONTINUOUS
 10
-0.1848521811
 20
-15.7376005895
 11
-0.20009426
 21
-15.7444762883
  0
LINE
  5
6FF
100
AcDbEntity
  8
0
100
AcDbLine
 62
7
  6
CONTINUOUS
 10
-0.4025061259
 20
-15.1493401651
 11
-0.3983182393
 21
-15.1475770775
  0
LINE
  5
700
100
AcDbEntity
  8
0
100
AcDbLine
 62
7
  6
CONTINUOUS
 10
-0.1994147767
 20
-15.7441808041
 11
-0.2148467014
 21
-15.750653356
  0
LINE
  5
701
100
AcDbEntity
  8
0
100
AcDbLine
 62
7
  6
CONTINUOUS
 10
-0.2141544188
 20
-15.7503739281
 11
-0.2297524551
 21
-15.7564322607
  0
LINE
  5
702
100
AcDbEntity
  8
0
100
AcDbLine
 62
7
  6
CONTINUOUS
 10
-0.4064318308
 20
-15.1507944572
 11
-0.4021996376
 21
-15.1492186659
  0
LINE
  5
703
100
AcDbEntity
  8
0
100
AcDbLine
 62
7
  6
CONTINUOUS
 10
-0.2290478836
 20
-15.7561693603
 11
-0.2448196718
 21
-15.7618138385
  0
LINE
  5
704
100
AcDbEntity
  8
0
100
AcDbLine
 62
7
  6
CONTINUOUS
 10
-0.2441011424
 20
-15.7615677415
 11
-0.2600402008
 21
-15.766797266
  0
LINE
  5
705
100
AcDbEntity
  8
0
100
AcDbLine
 62
7
  6
CONTINUOUS
 10
-0.4104147301
 20
-15.1520822978
 11
-0.4061453315
 21
-15.1506938988
  0
LINE
  5
706
100
AcDbEntity
  8
0
100
AcDbLine
 62
7
  6
CONTINUOUS
 10
-0.2593082238
 20
-15.7665684435
 11
-0.2753645462
 21
-15.7713684684
  0
LINE
  5
707
100
AcDbEntity
  8
0
100
AcDbLine
 62
7
  6
CONTINUOUS
 10
-0.4642071312
 20
14.5423431886
 11
-0.4684921497
 21
14.5411458208
  0
LINE
  5
708
100
AcDbEntity
  8
0
100
AcDbLine
 62
7
  6
CONTINUOUS
 10
-0.6040193984
 20
15.1603012313
 11
-0.587856906
 21
15.1646673906
  0
LINE
  5
709
100
AcDbEntity
  8
0
100
AcDbLine
 62
7
  6
CONTINUOUS
 10
-0.5885917528
 20
15.1644798198
 11
-0.5723271527
 21
15.1684118282
  0
LINE
  5
70A
100
AcDbEntity
  8
0
100
AcDbLine
 62
7
  6
CONTINUOUS
 10
-0.4601331899
 20
14.5432929401
 11
-0.4644376366
 21
14.542283992
  0
LINE
  5
70B
100
AcDbEntity
  8
0
100
AcDbLine
 62
7
  6
CONTINUOUS
 10
-0.4560166204
 20
14.5440734728
 11
-0.4603371791
 21
14.5432501485
  0
LINE
  5
70C
100
AcDbEntity
  8
0
100
AcDbLine
 62
7
  6
CONTINUOUS
 10
-0.4518893442
 20
14.5446809696
 11
-0.4561921162
 21
14.5440448248
  0
LWPOLYLINE
  5
70D
100
AcDbEntity
  8
0
100
AcDbPolyline
 62
7
  6
CONTINUOUS
 90
5
 70
0
 10
-0.4352190236
 20
14.5453724753
 10
-0.4394256928
 20
14.545461442
 10
-0.4436326646
 20
14.5453722507
 10
-0.447839859
 20
14.5451058756
 10
-0.4520260736
 20
14.544663722
  0
LINE
  5
70E
100
AcDbEntity
  8
0
100
AcDbLine
 62
7
  6
CONTINUOUS
 10
-0.4310125769
 20
14.5451063249
 11
-0.4353333658
 21
14.5453778831
  0
LINE
  5
70F
100
AcDbEntity
  8
0
100
AcDbLine
 62
7
  6
CONTINUOUS
 10
-0.4268273158
 20
14.544664508
 11
-0.4311914417
 21
14.5451223234
  0
LINE
  5
710
100
AcDbEntity
  8
0
100
AcDbLine
 62
7
  6
CONTINUOUS
 10
-0.422662448
 20
14.5440461126
 11
-0.4270602217
 21
14.5446937609
  0
LINE
  5
711
100
AcDbEntity
  8
0
100
AcDbLine
 62
7
  6
CONTINUOUS
 10
-0.4185187657
 20
14.5432520503
 11
-0.4229329559
 21
14.5440907045
  0
LINE
  5
712
100
AcDbEntity
  8
0
100
AcDbLine
 62
7
  6
CONTINUOUS
 10
-0.4144196087
 20
14.5422865741
 11
-0.4188163942
 21
14.5433146448
  0
LINE
  5
713
100
AcDbEntity
  8
0
100
AcDbLine
 62
7
  6
CONTINUOUS
 10
-0.4103661943
 20
14.5411490975
 11
-0.4147415825
 21
14.5423690653
  0
LINE
  5
714
100
AcDbEntity
  8
0
100
AcDbLine
 62
7
  6
CONTINUOUS
 10
-0.4063573052
 20
14.5398402059
 11
-0.410714334
 21
14.5412544625
  0
LWPOLYLINE
  5
715
100
AcDbEntity
  8
0
100
AcDbPolyline
 62
7
  6
CONTINUOUS
 90
3
 70
0
 10
-0.2573571714
 20
15.1550284979
 10
-0.2420869501
 20
15.1499406977
 10
-0.2270485202
 20
15.1444820752
  0
LINE
  5
716
100
AcDbEntity
  8
0
100
AcDbLine
 62
7
  6
CONTINUOUS
 10
-0.2421728496
 20
15.1499716239
 11
-0.2271455826
 21
15.1445187847
  0
LINE
  5
717
100
AcDbEntity
  8
0
100
AcDbLine
 62
7
  6
CONTINUOUS
 10
-0.4024126281
 20
14.5383659106
 11
-0.4067288356
 21
14.5399703389
  0
LINE
  5
718
100
AcDbEntity
  8
0
100
AcDbLine
 62
7
  6
CONTINUOUS
 10
-0.2271455826
 20
15.1445187847
 11
-0.2121875661
 21
15.1386322754
  0
LWPOLYLINE
  5
719
100
AcDbEntity
  8
0
100
AcDbPolyline
 62
7
  6
CONTINUOUS
 90
3
 70
0
 10
-0.2122800898
 20
15.1386698575
 10
-0.1975716518
 20
15.1324249525
 10
-0.1830480367
 20
15.1257978333
  0
LWPOLYLINE
  5
71A
100
AcDbEntity
  8
0
100
AcDbPolyline
 62
7
  6
CONTINUOUS
 90
4
 70
0
 10
-0.1974950164
 20
15.1323907037
 10
-0.1829991371
 20
15.1257747273
 10
-0.1687074979
 20
15.118788836
 10
-0.154612529
 20
15.1114285257
  0
LWPOLYLINE
  5
71B
100
AcDbEntity
  8
0
100
AcDbPolyline
 62
7
  6
CONTINUOUS
 90
3
 70
0
 10
-0.1687059008
 20
15.1187857844
 10
-0.1545485879
 20
15.1113915065
 10
-0.1406138961
 20
15.1036368875
  0
LWPOLYLINE
  5
71C
100
AcDbEntity
  8
0
100
AcDbPolyline
 62
7
  6
CONTINUOUS
 90
10
 70
0
 43
0.3500000006
 10
0.6321048732
 20
31.1911902008
 10
0.7035334361
 20
31.0483323669
 10
0.7035334361
 20
30.9769057159
 10
0.5606763103
 20
30.8340478821
 10
0.4892477474
 20
30.8340478821
 10
0.4178191491
 20
30.9054745331
 10
0.4178191491
 20
30.9769057159
 10
0.4892477474
 20
31.1197635498
 10
0.5606763103
 20
31.1911902008
 10
0.6321048732
 20
31.1911902008
  0
LINE
  5
71D
100
AcDbEntity
  8
0
100
AcDbLine
 62
7
  6
CONTINUOUS
 10
-0.5730514218
 20
15.1682482346
 11
-0.5567364032
 21
15.1717369659
  0
LINE
  5
71E
100
AcDbEntity
  8
0
100
AcDbLine
 62
7
  6
CONTINUOUS
 10
-0.5574251235
 20
15.1715992228
 11
-0.5411003023
 21
15.1746397197
  0
LINE
  5
71F
100
AcDbEntity
  8
0
100
AcDbLine
 62
7
  6
CONTINUOUS
 10
-0.5417085085
 20
15.1745321722
 11
-0.525403205
 21
15.1771231811
  0
LINE
  5
720
100
AcDbEntity
  8
0
100
AcDbLine
 62
7
  6
CONTINUOUS
 10
-0.5259059261
 20
15.1770477025
 11
-0.509640997
 21
15.1791895282
  0
LINE
  5
721
100
AcDbEntity
  8
0
100
AcDbLine
 62
7
  6
CONTINUOUS
 10
-0.5100571419
 20
15.1791404088
 11
-0.4937995475
 21
15.1808416755
  0
LINE
  5
722
100
AcDbEntity
  8
0
100
AcDbLine
 62
7
  6
CONTINUOUS
 10
-0.4941669703
 20
15.1808092996
 11
-0.4778929872
 21
15.1820767129
  0
LINE
  5
723
100
AcDbEntity
  8
0
100
AcDbLine
 62
7
  6
CONTINUOUS
 10
-0.4782305969
 20
15.182055371
 11
-0.4619595935
 21
15.1828880817
  0
LINE
  5
724
100
AcDbEntity
  8
0
100
AcDbLine
 62
7
  6
CONTINUOUS
 10
-0.462273344
 20
15.1828761978
 11
-0.4459949424
 21
15.1832736794
  0
LINE
  5
725
100
AcDbEntity
  8
0
100
AcDbLine
 62
7
  6
CONTINUOUS
 10
-0.4462890248
 20
15.1832708878
 11
-0.4300034579
 21
15.1832356098
  0
LINE
  5
726
100
AcDbEntity
  8
0
100
AcDbLine
 62
7
  6
CONTINUOUS
 10
-0.4302838261
 20
15.1832403348
 11
-0.4140366894
 21
15.1827736224
  0
LINE
  5
727
100
AcDbEntity
  8
0
100
AcDbLine
 62
7
  6
CONTINUOUS
 10
-0.414301631
 20
15.1827847916
 11
-0.3980993508
 21
15.1818858495
  0
LINE
  5
728
100
AcDbEntity
  8
0
100
AcDbLine
 62
7
  6
CONTINUOUS
 10
-0.3983487513
 20
15.1819035397
 11
-0.3821867283
 21
15.180574157
  0
LINE
  5
729
100
AcDbEntity
  8
0
100
AcDbLine
 62
7
  6
CONTINUOUS
 10
-0.382418875
 20
15.180597296
 11
-0.3663362296
 21
15.1788438943
  0
LINE
  5
72A
100
AcDbEntity
  8
0
100
AcDbLine
 62
7
  6
CONTINUOUS
 10
-0.3665369488
 20
15.1788684657
 11
-0.3505602912
 21
15.1766975597
  0
LWPOLYLINE
  5
72B
100
AcDbEntity
  8
0
100
AcDbPolyline
 62
7
  6
CONTINUOUS
 90
7
 70
0
 10
-0.3506981629
 20
15.176715991
 10
-0.334907327
 20
15.1741409251
 10
-0.3192038174
 20
15.1711488388
 10
-0.3035914918
 20
15.1677390318
 10
-0.2880664925
 20
15.1639121967
 10
-0.2726566216
 20
15.1596759932
 10
-0.2573571714
 20
15.1550284979
  0
LWPOLYLINE
  5
72C
100
AcDbEntity
  8
0
100
AcDbPolyline
 62
7
  6
CONTINUOUS
 90
3
 70
0
 43
0.3500000006
 10
17.3333450432
 20
3.2302848129
 10
17.3333450432
 20
1.7302843552
 10
14.9762021141
 20
2.3731423416
  0
LWPOLYLINE
  5
72D
100
AcDbEntity
  8
0
100
AcDbPolyline
 62
7
  6
CONTINUOUS
 90
3
 70
0
 43
0.3500000006
 10
17.3333450432
 20
-0.8411430588
 10
17.3333450432
 20
-2.3411435165
 10
14.9762021141
 20
-1.6982855301
  0
LWPOLYLINE
  5
72E
100
AcDbEntity
  8
0
100
AcDbPolyline
 62
7
  6
CONTINUOUS
 90
3
 70
0
 43
0.3500000006
 10
17.3333450432
 20
-3.1982859879
 10
17.3333450432
 20
-4.6982864456
 10
14.9762021141
 20
-4.0554284592
  0
LWPOLYLINE
  5
72F
100
AcDbEntity
  8
0
100
AcDbPolyline
 62
250
  6
CONTINUOUS
 90
49
 70
0
 10
10.5659905314
 20
-21.4382841935
 10
10.5652975046
 20
-21.4404058376
 10
10.5642006217
 20
-21.4425257645
 10
10.5627007706
 20
-21.4446422586
 10
10.560799165
 20
-21.446753607
 10
10.5584973441
 20
-21.4488581009
 10
10.5557971707
 20
-21.450954037
 10
10.5527008302
 20
-21.453039719
 10
10.5492108286
 20
-21.455113459
 10
10.5453299902
 20
-21.4571735787
 10
10.5410614562
 20
-21.4592184106
 10
10.536408681
 20
-21.4612462999
 10
10.5313754303
 20
-21.4632556054
 10
10.5259657776
 20
-21.4652447009
 10
10.5201841011
 20
-21.4672119764
 10
10.5140350801
 20
-21.46915584
 10
10.5075236912
 20
-21.4710747183
 10
10.5006552042
 20
-21.4729670583
 10
10.4934351779
 20
-21.4748313286
 10
10.4858694557
 20
-21.4766660203
 10
10.4779641607
 20
-21.4784696486
 10
10.4697256909
 20
-21.4802407536
 10
10.461160714
 20
-21.4819779022
 10
10.4522761618
 20
-21.4836796882
 10
10.4430792247
 20
-21.4853447344
 10
10.4335773462
 20
-21.4869716933
 10
10.4237782163
 20
-21.4885592481
 10
10.4136897658
 20
-21.4901061139
 10
10.4033201595
 20
-21.4916110388
 10
10.3926777897
 20
-21.493072805
 10
10.3817712697
 20
-21.4944902292
 10
10.3706094265
 20
-21.4958621643
 10
10.3592012934
 20
-21.4971875001
 10
10.3475561036
 20
-21.4984651638
 10
10.3356832817
 20
-21.4996941215
 10
10.3235924368
 20
-21.5008733785
 10
10.3112933542
 20
-21.5020019803
 10
10.298795988
 20
-21.5030790137
 10
10.2861104526
 20
-21.5041036068
 10
10.2732470148
 20
-21.5050749306
 10
10.2602160853
 20
-21.5059921988
 10
10.2470282103
 20
-21.5068546691
 10
10.2336940632
 20
-21.5076616435
 10
10.2202244356
 20
-21.5084124688
 10
10.2066302289
 20
-21.5091065375
 10
10.1929224452
 20
-21.5097432877
 10
10.1791121787
 20
-21.5103222042
 10
10.1652106062
 20
-21.5108428184
 10
10.1512289789
 20
-21.5113047089
  0
LWPOLYLINE
  5
730
100
AcDbEntity
  8
0
100
AcDbPolyline
 62
250
  6
CONTINUOUS
 90
50
 70
0
 10
10.5659905314
 20
20.8274264633
 10
10.5652975048
 20
20.8295481073
 10
10.5642006221
 20
20.8316680343
 10
10.5627007711
 20
20.8337845284
 10
10.5607991658
 20
20.8358958768
 10
10.558497345
 20
20.8380003707
 10
10.5557971718
 20
20.8400963068
 10
10.5527008315
 20
20.8421819889
 10
10.5492108299
 20
20.844255729
 10
10.5453299917
 20
20.8463158486
 10
10.5410614578
 20
20.8483606806
 10
10.5364086827
 20
20.85038857
 10
10.5313754321
 20
20.8523978755
 10
10.5259657795
 20
20.8543869709
 10
10.5201841032
 20
20.8563542466
 10
10.5140350823
 20
20.8582981101
 10
10.5075236934
 20
20.8602169885
 10
10.5006552064
 20
20.8621093285
 10
10.4934351802
 20
20.8639735988
 10
10.485869458
 20
20.8658082906
 10
10.4779641631
 20
20.8676119189
 10
10.4697256934
 20
20.869383024
 10
10.4611607165
 20
20.8711201725
 10
10.4522761642
 20
20.8728219586
 10
10.4430792272
 20
20.8744870048
 10
10.4335773487
 20
20.8761139637
 10
10.4237782188
 20
20.8777015185
 10
10.4136897682
 20
20.8792483844
 10
10.4033201619
 20
20.8807533094
 10
10.3926777921
 20
20.8822150755
 10
10.3817712721
 20
20.8836324998
 10
10.3706094288
 20
20.885004435
 10
10.3592012957
 20
20.8863297708
 10
10.3475561058
 20
20.8876074345
 10
10.3356832839
 20
20.8888363922
 10
10.3235924389
 20
20.8900156492
 10
10.3112933562
 20
20.8911442511
 10
10.29879599
 20
20.8922212845
 10
10.2861104545
 20
20.8932458776
 10
10.2732470166
 20
20.8942172014
 10
10.2602160869
 20
20.8951344696
 10
10.2470282118
 20
20.89599694
 10
10.2336940646
 20
20.8968039144
 10
10.2202244369
 20
20.8975547397
 10
10.2066302301
 20
20.8982488084
 10
10.1929224463
 20
20.8988855586
 10
10.1791121797
 20
20.8994644751
 10
10.1652106071
 20
20.8999850893
 10
10.1512289796
 20
20.9004469799
 10
10.1230708782
 20
20.9011931426
  0
LINE
  5
731
100
AcDbEntity
  8
RACCORDO
100
AcDbLine
 62
7
  6
CONTINUOUS
 10
7.3666300064
 20
21.9028090754
 11
7.0184113324
 21
21.8712002439
  0
LINE
  5
732
100
AcDbEntity
  8
0
100
AcDbLine
 62
250
  6
CONTINUOUS
 10
-11.0298763678
 20
20.9004469786
 11
-11.0017182667
 21
20.9011931413
  0
LINE
  5
733
100
AcDbEntity
  8
0
100
AcDbLine
 62
250
  6
CONTINUOUS
 10
-11.0017182667
 20
20.9011931413
 11
-10.9733764021
 21
20.901700547
  0
LINE
  5
734
100
AcDbEntity
  8
0
100
AcDbLine
 62
250
  6
CONTINUOUS
 10
-10.9733764021
 20
20.901700547
 11
-10.9449425069
 21
20.9019675532
  0
LINE
  5
735
100
AcDbEntity
  8
0
100
AcDbLine
 62
250
  6
CONTINUOUS
 10
10.0662951179
 20
20.9019675545
 11
-10.9449425069
 21
20.9019675545
  0
LINE
  5
736
100
AcDbEntity
  8
0
100
AcDbLine
 62
250
  6
CONTINUOUS
 10
10.0947290134
 20
20.9017005482
 11
10.0662951179
 21
20.9019675545
  0
LINE
  5
737
100
AcDbEntity
  8
0
100
AcDbLine
 62
250
  6
CONTINUOUS
 10
10.1230708782
 20
20.9011931426
 11
10.0947290134
 21
20.9017005482
  0
LINE
  5
738
100
AcDbEntity
  8
RACCORDO
100
AcDbLine
 62
7
  6
CONTINUOUS
 10
-8.2452773954
 20
21.9028090754
 11
-7.8970587214
 21
21.8712002439
  0
LINE
  5
739
100
AcDbEntity
  8
RACCORDO
100
AcDbLine
 62
7
  6
CONTINUOUS
 10
-3.8333699936
 20
21.9028090754
 11
-4.1815886676
 21
21.8712002439
  0
LINE
  5
73A
100
AcDbEntity
  8
0
100
AcDbLine
 62
250
  6
CONTINUOUS
 10
10.0826465736
 20
21.7515149068
 11
-10.9612939626
 21
21.7515149068
  0
LINE
  5
73B
100
AcDbEntity
  8
RACCORDO
100
AcDbLine
 62
7
  6
CONTINUOUS
 10
6.8452062517
 20
21.8659594659
 11
3.4761463593
 21
21.8659594659
  0
LINE
  5
73C
100
AcDbEntity
  8
RACCORDO
100
AcDbLine
 62
7
  6
CONTINUOUS
 10
-4.3547937483
 20
21.8659594659
 11
-7.7238536407
 21
21.8659594659
  0
LINE
  5
73D
100
AcDbEntity
  8
0
100
AcDbLine
 62
7
  6
CONTINUOUS
 10
-11.0621054997
 20
21.9028090754
 11
-8.2452773954
 21
21.9028090754
  0
LINE
  5
73E
100
AcDbEntity
  8
DRAFT
100
AcDbLine
 62
7
  6
CONTINUOUS
 10
-3.8333699936
 20
21.9028090754
 11
2.9547226046
 21
21.9028090754
  0
LINE
  5
73F
100
AcDbEntity
  8
0
100
AcDbLine
 62
7
  6
CONTINUOUS
 10
7.3666300064
 20
21.9028090754
 11
10.1834581108
 21
21.9028090754
  0
LWPOLYLINE
  5
740
100
AcDbEntity
  8
0
100
AcDbPolyline
 62
7
  6
CONTINUOUS
 90
6
 70
0
 43
0.3500000006
 10
1.7035333872
 20
30.6911900482
 10
2.7749620428
 20
30.6911900482
 10
2.9892476606
 20
30.9054745331
 10
2.9892476606
 20
31.9769060211
 10
2.560676425
 20
32.4054749908
 10
2.1321049061
 20
32.4054749908
  0
LWPOLYLINE
  5
741
100
AcDbEntity
  8
0
100
AcDbPolyline
 62
7
  6
CONTINUOUS
 90
7
 70
0
 43
0.3500000006
 10
-0.8678950889
 20
30.6911900482
 10
-2.3678951926
 20
30.6911900482
 10
-0.8678950889
 20
32.8340484924
 10
-0.8678950889
 20
33.2626174622
 10
-1.296466537
 20
33.6911909637
 10
-1.9393236737
 20
33.6911909637
 10
-2.3678951926
 20
33.0483329773
  0
LWPOLYLINE
  5
742
100
AcDbEntity
  8
0
100
AcDbPolyline
 62
7
  6
CONTINUOUS
 90
7
 70
0
 43
0.3500000006
 10
-3.2250380888
 20
30.6911900482
 10
-4.7250379801
 20
30.6911900482
 10
-3.2250380888
 20
32.8340484924
 10
-3.2250380888
 20
33.2626174622
 10
-3.6536093245
 20
33.6911909637
 10
-4.2964664612
 20
33.6911909637
 10
-4.7250379801
 20
33.0483329773
  0
LINE
  5
743
100
AcDbEntity
  8
RACCORDO
100
AcDbLine
 62
7
  6
CONTINUOUS
 10
2.9547226046
 20
21.9028090754
 11
3.3029412786
 21
21.8712002439
  0
LWPOLYLINE
  5
744
100
AcDbEntity
  8
0
100
AcDbPolyline
 62
7
  6
CONTINUOUS
 90
3
 70
0
 43
0.3500000006
 10
-39.1188282166
 20
30.891620636
 10
-39.1902593994
 20
30.6773316193
 10
-39.3331172333
 20
30.3916204834
  0
LWPOLYLINE
  5
745
100
AcDbEntity
  8
0
100
AcDbPolyline
 62
250
  6
CONTINUOUS
 90
3
 70
0
 10
-28.9550375063
 20
-21.4382841935
 10
-28.9690856393
 20
-21.4404058376
 10
-29.0660758528
 20
-21.455113459
  0
LINE
  5
746
100
AcDbEntity
  8
0
100
AcDbLine
 62
7
  6
CONTINUOUS
 10
-28.4955113097
 20
-22.3623726371
 11
-25.6086465978
 21
-22.5136668057
  0
LINE
  5
747
100
AcDbEntity
  8
0
100
AcDbLine
 62
250
  6
CONTINUOUS
 10
-28.48679308
 20
-21.8630578697
 11
-25.5651218072
 21
-22.0161761729
  0
LWPOLYLINE
  5
748
100
AcDbEntity
  8
0
100
AcDbPolyline
 62
250
  6
CONTINUOUS
 90
7
 70
0
 10
-29.4248805192
 20
-21.5113047089
 10
-29.4270614953
 20
-21.511707502
 10
-29.4288463271
 20
-21.5120508716
 10
-29.4302335703
 20
-21.5123345399
 10
-29.4312221019
 20
-21.5125582772
 10
-29.431811122
 20
-21.5127219026
 10
-29.4320001539
 20
-21.5128252835
  0
LINE
  5
749
100
AcDbEntity
  8
0
100
AcDbLine
 62
250
  6
CONTINUOUS
 10
-29.4193375141
 20
-21.5103222042
 11
-29.4248805192
 21
-21.5113047089
  0
LINE
  5
74A
100
AcDbEntity
  8
0
100
AcDbLine
 62
250
  6
CONTINUOUS
 10
-29.408106389
 20
-21.5084124688
 11
-29.4193375141
 21
-21.5103222042
  0
LINE
  5
74B
100
AcDbEntity
  8
0
100
AcDbLine
 62
250
  6
CONTINUOUS
 10
-29.381827576
 20
-21.5041036068
 11
-29.408106389
 21
-21.5084124688
  0
LINE
  5
74C
100
AcDbEntity
  8
0
100
AcDbLine
 62
250
  6
CONTINUOUS
 10
-29.3123844409
 20
-21.493072805
 11
-29.381827576
 21
-21.5041036068
  0
LINE
  5
74D
100
AcDbEntity
  8
0
100
AcDbLine
 62
250
  6
CONTINUOUS
 10
-29.093018387
 20
-21.4592184106
 11
-29.3123844409
 21
-21.493072805
  0
LINE
  5
74E
100
AcDbEntity
  8
0
100
AcDbLine
 62
250
  6
CONTINUOUS
 10
-29.0660758528
 20
-21.455113459
 11
-29.093018387
 21
-21.4592184106
  0
LINE
  5
74F
100
AcDbEntity
  8
RACCORDO
100
AcDbLine
 62
250
  6
CONTINUOUS
 10
-25.2346547537
 20
-18.2389204663
 11
-25.2117790333
 21
-18.2389204663
  0
LWPOLYLINE
  5
750
100
AcDbEntity
  8
RACCORDO
100
AcDbPolyline
 62
250
  6
CONTINUOUS
 90
8
 70
0
 10
-25.2454399149
 20
17.751337693
 10
-25.2443234989
 20
17.7519497946
 10
-25.2429266568
 20
17.7527379159
 10
-25.2417913019
 20
17.7534049141
 10
-25.2409187622
 20
17.753950009
 10
-25.2403100583
 20
17.7543725629
 10
-25.2399659025
 20
17.7546720816
 10
-25.2398866972
 20
17.7548482146
  0
LWPOLYLINE
  5
751
100
AcDbEntity
  8
RACCORDO
100
AcDbPolyline
 62
250
  6
CONTINUOUS
 90
8
 70
0
 10
-25.2454399149
 20
-18.3621954232
 10
-25.2443234996
 20
-18.3628075244
 10
-25.2429266573
 20
-18.3635956458
 10
-25.2417913022
 20
-18.3642626442
 10
-25.2409187623
 20
-18.3648077391
 10
-25.2403100584
 20
-18.3652302931
 10
-25.2399659025
 20
-18.3655298118
 10
-25.2398866972
 20
-18.3657059449
  0
LWPOLYLINE
  5
752
100
AcDbEntity
  8
0
100
AcDbPolyline
 62
7
  6
CONTINUOUS
 90
4
 70
0
 43
0.3500000006
 10
-38.1188324432
 20
32.9630478973
 10
-38.1188324432
 20
33.6059058838
 10
-36.6188297195
 20
33.6059058838
 10
-37.4759721909
 20
30.6059049683
  0
LWPOLYLINE
  5
753
100
AcDbEntity
  8
0
100
AcDbPolyline
 62
250
  6
CONTINUOUS
 90
3
 70
0
 10
-30.4207126322
 20
-9.8053946408
 10
-30.4213188718
 20
-9.80541559
 10
-30.4215208867
 20
-9.8054288651
  0
LINE
  5
754
100
AcDbEntity
  8
0
100
AcDbLine
 62
250
  6
CONTINUOUS
 10
-30.4164751012
 20
-9.8052859496
 11
-30.4207126322
 21
-9.8053946408
  0
LINE
  5
755
100
AcDbEntity
  8
0
100
AcDbLine
 62
250
  6
CONTINUOUS
 10
-29.9390608933
 20
-9.7959288651
 11
-30.4164751012
 21
-9.8052859496
  0
LWPOLYLINE
  5
756
100
AcDbEntity
  8
0
100
AcDbPolyline
 62
250
  6
CONTINUOUS
 90
28
 70
0
 10
-28.9550375063
 20
20.8274264633
 10
-29.0185629515
 20
20.3990494234
 10
-29.0800122347
 20
19.9703902295
 10
-29.1393853562
 20
19.5414488815
 10
-29.1966836082
 20
19.1122153123
 10
-29.2519056984
 20
18.682699589
 10
-29.3050477493
 20
18.2529319132
 10
-29.3561096128
 20
17.8229122808
 10
-29.405091437
 20
17.3926406959
 10
-29.4519897883
 20
16.9621473721
 10
-29.4968045203
 20
16.5314322983
 10
-29.5395357796
 20
16.1004954856
 10
-29.5801805723
 20
15.6693671816
 10
-29.6187387522
 20
15.2380473758
 10
-29.6552104656
 20
14.8065360787
 10
-29.6895931579
 20
14.3748635695
 10
-29.721886683
 20
13.9430298341
 10
-29.752091187
 20
13.5110348867
 10
-29.7802045536
 20
13.0789090486
 10
-29.8062266363
 20
12.6466523063
 10
-29.8301575815
 20
12.2142646733
 10
-29.8519957121
 20
11.781776511
 10
-29.8717408815
 20
11.3491877923
 10
-29.8893932363
 20
10.9164985443
 10
-29.9049515387
 20
10.4837392103
 10
-29.918415376
 20
10.0509199379
 10
-29.9297851609
 20
9.6180305794
 10
-29.9390608933
 20
9.1850711349
  0
LWPOLYLINE
  5
757
100
AcDbEntity
  8
0
100
AcDbPolyline
 62
250
  6
CONTINUOUS
 90
58
 70
0
 10
-28.9550375063
 20
-21.4382841935
 10
-28.9531032847
 20
-21.4501426962
 10
-28.9508878689
 20
-21.4619383566
 10
-28.948391259
 20
-21.4736711747
 10
-28.9456116727
 20
-21.4853479912
 10
-28.9425508923
 20
-21.4969619654
 10
-28.9392142643
 20
-21.5084925753
 10
-28.9356013296
 20
-21.5199395409
 10
-28.9317125473
 20
-21.5313031422
 10
-28.9275546414
 20
-21.5425636975
 10
-28.923127154
 20
-21.553721005
 10
-28.918430543
 20
-21.5647752664
 10
-28.9134729058
 20
-21.5757074054
 10
-28.9082537882
 20
-21.5865172213
 10
-28.9027736444
 20
-21.5972049148
 10
-28.8970419349
 20
-21.6077520112
 10
-28.8910582243
 20
-21.6181582679
 10
-28.8848229479
 20
-21.6284239275
 10
-28.8783468725
 20
-21.6385312429
 10
-28.8716295805
 20
-21.6484799418
 10
-28.8646714896
 20
-21.6582702965
 10
-28.8574846188
 20
-21.6678853779
 10
-28.8500685767
 20
-21.6773248782
 10
-28.8424237547
 20
-21.686589105
 10
-28.8345633465
 20
-21.695662052
 10
-28.826486973
 20
-21.7045433957
 10
-28.8181950134
 20
-21.7132334595
 10
-28.809701798
 20
-21.7217172077
 10
-28.801006983
 20
-21.7299942794
 10
-28.7921109123
 20
-21.7380650355
 10
-28.7830289484
 20
-21.7459155236
 10
-28.773760764
 20
-21.7535453671
 10
-28.7643066865
 20
-21.7609549426
 10
-28.7546830601
 20
-21.7681314267
 10
-28.7448895984
 20
-21.7750744113
 10
-28.7349265879
 20
-21.7817843046
 10
-28.7248112329
 20
-21.788249507
 10
-28.7145432632
 20
-21.7944695998
 10
-28.7041229489
 20
-21.8004450019
 10
-28.6935683047
 20
-21.8061653706
 10
-28.6828790975
 20
-21.8116302642
 10
-28.6720555602
 20
-21.8168401245
 10
-28.6611164068
 20
-21.8217859341
 10
-28.6500614357
 20
-21.8264672356
 10
-28.6388908484
 20
-21.8308844863
 10
-28.6276239624
 20
-21.8350300412
 10
-28.6162606217
 20
-21.8389034275
 10
-28.6048009823
 20
-21.842505118
 10
-28.5932648302
 20
-21.8458288852
 10
-28.5816520079
 20
-21.8488742526
 10
-28.5699626729
 20
-21.8516416967
 10
-28.558217083
 20
-21.8541264208
 10
-28.5464149401
 20
-21.8563279435
 10
-28.5345565424
 20
-21.858246746
 10
-28.5226630423
 20
-21.8598794753
 10
-28.5107414906
 20
-21.8612250134
 10
-28.4987848365
 20
-21.8622844782
 10
-28.48679308
 20
-21.8630578697
  0
LWPOLYLINE
  5
758
100
AcDbEntity
  8
0
100
AcDbPolyline
 62
250
  6
CONTINUOUS
 90
16
 70
0
 10
-30.0273199074
 20
-0.1292687751
 10
-30.027130047
 20
-0.133129398
 10
-30.0269331955
 20
-0.1367479095
 10
-30.0267296281
 20
-0.1401192506
 10
-30.0265196294
 20
-0.1432387081
 10
-30.0263034929
 20
-0.1461019209
 10
-30.0260815208
 20
-0.148704886
 10
-30.0258540235
 20
-0.1510439644
 10
-30.0256213191
 20
-0.1531158859
 10
-30.0253837327
 20
-0.1549177539
 10
-30.0251415966
 20
-0.1564470492
 10
-30.0248952494
 20
-0.1577016339
 10
-30.0246450354
 20
-0.1586797539
 10
-30.0243913044
 20
-0.1593800419
 10
-30.0241344111
 20
-0.1598015187
 10
-30.0238747148
 20
-0.1599435952
  0
LINE
  5
759
100
AcDbEntity
  8
0
100
AcDbLine
 62
250
  6
CONTINUOUS
 10
-30.0276776031
 20
-0.1208431152
 11
-30.0273199074
 21
-0.1292687751
  0
LINE
  5
75A
100
AcDbEntity
  8
0
100
AcDbLine
 62
250
  6
CONTINUOUS
 10
-30.0280042831
 20
-0.1115180312
 11
-30.0276776031
 21
-0.1208431152
  0
LINE
  5
75B
100
AcDbEntity
  8
0
100
AcDbLine
 62
250
  6
CONTINUOUS
 10
-30.0282981211
 20
-0.1013456526
 11
-30.0280042831
 21
-0.1115180312
  0
LINE
  5
75C
100
AcDbEntity
  8
0
100
AcDbLine
 62
250
  6
CONTINUOUS
 10
-30.0285574745
 20
-0.0903828454
 11
-30.0282981211
 21
-0.1013456526
  0
LWPOLYLINE
  5
75D
100
AcDbEntity
  8
0
100
AcDbPolyline
 62
250
  6
CONTINUOUS
 90
28
 70
0
 10
-29.9390608933
 20
-9.7959288651
 10
-29.9297851609
 20
-10.2288883097
 10
-29.918415376
 20
-10.6617776681
 10
-29.9049515387
 20
-11.0945969405
 10
-29.8893932363
 20
-11.5273562746
 10
-29.8717408815
 20
-11.9600455226
 10
-29.8519957121
 20
-12.3926342413
 10
-29.8301575815
 20
-12.8251224035
 10
-29.8062266363
 20
-13.2575100365
 10
-29.7802045536
 20
-13.6897667788
 10
-29.752091187
 20
-14.121892617
 10
-29.721886683
 20
-14.5538875644
 10
-29.6895931579
 20
-14.9857212997
 10
-29.6552104656
 20
-15.4173938089
 10
-29.6187387522
 20
-15.848905106
 10
-29.5801805723
 20
-16.2802249119
 10
-29.5395357796
 20
-16.7113532158
 10
-29.4968045203
 20
-17.1422900285
 10
-29.4519897883
 20
-17.5730051024
 10
-29.405091437
 20
-18.0034984262
 10
-29.3561096128
 20
-18.4337700111
 10
-29.3050477493
 20
-18.8637896435
 10
-29.2519056984
 20
-19.2935573193
 10
-29.1966836082
 20
-19.7230730426
 10
-29.1393853562
 20
-20.1523066118
 10
-29.0800122347
 20
-20.5812479598
 10
-29.0185629515
 20
-21.0099071537
 10
-28.9550375063
 20
-21.4382841935
  0
LINE
  5
75E
100
AcDbEntity
  8
0
100
AcDbLine
 62
250
  6
CONTINUOUS
 10
-30.0288787293
 20
-0.0725917655
 11
-30.0285574745
 21
-0.0903828454
  0
LINE
  5
75F
100
AcDbEntity
  8
0
100
AcDbLine
 62
250
  6
CONTINUOUS
 10
-30.0291151403
 20
-0.053384714
 11
-30.0288787293
 21
-0.0725917655
  0
LINE
  5
760
100
AcDbEntity
  8
0
100
AcDbLine
 62
250
  6
CONTINUOUS
 10
-30.0292637357
 20
-0.033003137
 11
-30.0291151403
 21
-0.053384714
  0
LINE
  5
761
100
AcDbEntity
  8
0
100
AcDbLine
 62
250
  6
CONTINUOUS
 10
-30.0291093071
 20
-0.6509065197
 11
-30.0292911353
 21
-0.6211049344
  0
LWPOLYLINE
  5
762
100
AcDbEntity
  8
0
100
AcDbPolyline
 62
250
  6
CONTINUOUS
 90
10
 70
0
 10
-30.0291072951
 20
-0.6509065021
 10
-30.0273715994
 20
-1.6670968464
 10
-30.0235684764
 20
-2.6832688165
 10
-30.017697926
 20
-3.6994224124
 10
-30.0097598652
 20
-4.7155587182
 10
-29.999754377
 20
-5.7316766498
 10
-29.9876817108
 20
-6.7477729555
 10
-29.9735419497
 20
-7.7638465513
 10
-29.9573350105
 20
-8.7798985212
 10
-29.9390608933
 20
-9.7959288651
  0
LINE
  5
763
100
AcDbEntity
  8
0
100
AcDbLine
 62
250
  6
CONTINUOUS
 10
-30.0293221944
 20
-0.0044452218
 11
-30.0292637357
 21
-0.033003137
  0
LINE
  5
764
100
AcDbEntity
  8
0
100
AcDbLine
 62
250
  6
CONTINUOUS
 10
-30.0292911353
 20
-0.6211049344
 11
-30.0293130442
 21
-0.5919688099
  0
LINE
  5
765
100
AcDbEntity
  8
0
100
AcDbLine
 62
250
  6
CONTINUOUS
 10
-30.0292200403
 20
0.0251062314
 11
-30.0293221944
 21
-0.0044452218
  0
LINE
  5
766
100
AcDbEntity
  8
0
100
AcDbLine
 62
250
  6
CONTINUOUS
 10
-30.0293130442
 20
-0.5919688099
 11
-30.0292240995
 21
-0.570945774
  0
LINE
  5
767
100
AcDbEntity
  8
0
100
AcDbLine
 62
250
  6
CONTINUOUS
 10
-30.0291093071
 20
0.0400487894
 11
-30.0292200403
 21
0.0251062314
  0
LINE
  5
768
100
AcDbEntity
  8
0
100
AcDbLine
 62
250
  6
CONTINUOUS
 10
-30.0292240995
 20
-0.570945774
 11
-30.0290459696
 21
-0.5509279016
  0
LINE
  5
769
100
AcDbEntity
  8
0
100
AcDbLine
 62
250
  6
CONTINUOUS
 10
-30.0290459696
 20
-0.5509279016
 11
-30.0287808935
 21
-0.5321668316
  0
LWPOLYLINE
  5
76A
100
AcDbEntity
  8
0
100
AcDbPolyline
 62
250
  6
CONTINUOUS
 90
10
 70
0
 10
-29.9390608933
 20
9.1850711349
 10
-29.9573350105
 20
8.1690407909
 10
-29.9735419497
 20
7.152988821
 10
-29.9876817108
 20
6.1369152252
 10
-29.999754377
 20
5.1208189195
 10
-30.0097598652
 20
4.1047009879
 10
-30.017697926
 20
3.0885646822
 10
-30.0235684764
 20
2.0724110862
 10
-30.0273715994
 20
1.0562391161
 10
-30.0291072951
 20
0.0400487718
  0
LINE
  5
76B
100
AcDbEntity
  8
0
100
AcDbLine
 62
250
  6
CONTINUOUS
 10
-30.0287808935
 20
-0.5321668316
 11
-30.0285574745
 21
-0.5204748804
  0
LINE
  5
76C
100
AcDbEntity
  8
0
100
AcDbLine
 62
250
  6
CONTINUOUS
 10
-30.0285574745
 20
-0.5204748804
 11
-30.028298121
 21
-0.5095120734
  0
LINE
  5
76D
100
AcDbEntity
  8
0
100
AcDbLine
 62
250
  6
CONTINUOUS
 10
-30.028298121
 20
-0.5095120734
 11
-30.028004283
 21
-0.4993396951
  0
LINE
  5
76E
100
AcDbEntity
  8
0
100
AcDbLine
 62
250
  6
CONTINUOUS
 10
-30.028004283
 20
-0.4993396951
 11
-30.027677603
 21
-0.4900146115
  0
LWPOLYLINE
  5
76F
100
AcDbEntity
  8
0
100
AcDbPolyline
 62
250
  6
CONTINUOUS
 90
17
 70
0
 10
-30.027677603
 20
-0.4900146115
 10
-30.0273199073
 20
-0.4815889521
 10
-30.0271300469
 20
-0.4777283294
 10
-30.0269331954
 20
-0.4741098183
 10
-30.026729628
 20
-0.4707384774
 10
-30.0265196293
 20
-0.4676190202
 10
-30.0263034928
 20
-0.4647558077
 10
-30.0260815207
 20
-0.4621528428
 10
-30.0258540235
 20
-0.4598137647
 10
-30.025621319
 20
-0.4577418435
 10
-30.0253837326
 20
-0.4559399757
 10
-30.0251415966
 20
-0.4544106806
 10
-30.0248952493
 20
-0.4531560961
 10
-30.0246450353
 20
-0.4521779762
 10
-30.0243913043
 20
-0.4514776883
 10
-30.0241344111
 20
-0.4510562115
 10
-30.0238747148
 20
-0.4509141351
  0
LINE
  5
770
100
AcDbEntity
  8
0
100
AcDbLine
 62
250
  6
CONTINUOUS
 10
-28.4903928539
 20
21.3244833225
 11
-28.4923443371
 21
21.3672187659
  0
LINE
  5
771
100
AcDbEntity
  8
0
100
AcDbLine
 62
250
  6
CONTINUOUS
 10
-28.4923443371
 20
21.3672187659
 11
-28.4941211753
 21
21.4090808815
  0
LINE
  5
772
100
AcDbEntity
  8
0
100
AcDbLine
 62
250
  6
CONTINUOUS
 10
-28.4941211753
 20
21.4090808815
 11
-28.4957098773
 21
21.4497518134
  0
LINE
  5
773
100
AcDbEntity
  8
0
100
AcDbLine
 62
250
  6
CONTINUOUS
 10
-28.4957098773
 20
21.4497518134
 11
-28.49709838
 21
21.4889227501
  0
LINE
  5
774
100
AcDbEntity
  8
0
100
AcDbLine
 62
250
  6
CONTINUOUS
 10
-28.49709838
 20
21.4889227501
 11
-28.4982761407
 21
21.5262962695
  0
LINE
  5
775
100
AcDbEntity
  8
0
100
AcDbLine
 62
250
  6
CONTINUOUS
 10
-28.4982761407
 20
21.5262962695
 11
-28.4992342166
 21
21.5615885974
  0
LINE
  5
776
100
AcDbEntity
  8
0
100
AcDbLine
 62
250
  6
CONTINUOUS
 10
-28.4992342166
 20
21.5615885974
 11
-28.4999653334
 21
21.5945317616
  0
LWPOLYLINE
  5
777
100
AcDbEntity
  8
0
100
AcDbPolyline
 62
250
  6
CONTINUOUS
 90
18
 70
0
 10
-28.5006337378
 20
-22.3022592392
 10
-28.5005358213
 20
-22.3089741901
 10
-28.5004115742
 20
-22.3153127283
 10
-28.5002611014
 20
-22.3212695029
 10
-28.5000845299
 20
-22.3268394858
 10
-28.4998820087
 20
-22.3320179751
 10
-28.4996537087
 20
-22.3368005995
 10
-28.4993998228
 20
-22.3411833218
 10
-28.4991205652
 20
-22.3451624424
 10
-28.4988161716
 20
-22.3487346024
 10
-28.498486899
 20
-22.3518967865
 10
-28.4981330253
 20
-22.3546463252
 10
-28.4977548493
 20
-22.3569808977
 10
-28.4973526902
 20
-22.3588985333
 10
-28.4969268875
 20
-22.3603976132
 10
-28.4964778005
 20
-22.3614768719
 10
-28.4960058085
 20
-22.3621353985
 10
-28.4955113097
 20
-22.3623726371
  0
LINE
  5
778
100
AcDbEntity
  8
0
100
AcDbLine
 62
250
  6
CONTINUOUS
 10
-28.4999653334
 20
21.5945317616
 11
-28.5004639395
 21
21.6248756271
  0
LINE
  5
779
100
AcDbEntity
  8
0
100
AcDbLine
 62
250
  6
CONTINUOUS
 10
-28.5004639395
 20
21.6248756271
 11
-28.5006652278
 21
21.6435461727
  0
LINE
  5
77A
100
AcDbEntity
  8
0
100
AcDbLine
 62
250
  6
CONTINUOUS
 10
-28.5007502705
 20
-22.2877230847
 11
-28.5006337378
 21
-22.3022592392
  0
LINE
  5
77B
100
AcDbEntity
  8
0
100
AcDbLine
 62
250
  6
CONTINUOUS
 10
-28.5006652278
 20
21.6435461727
 11
-28.500760779
 21
21.6608956041
  0
LINE
  5
77C
100
AcDbEntity
  8
0
100
AcDbLine
 62
250
  6
CONTINUOUS
 10
-28.500760779
 20
-22.2717533365
 11
-28.5007502705
 21
-22.2877230847
  0
LINE
  5
77D
100
AcDbEntity
  8
0
100
AcDbLine
 62
250
  6
CONTINUOUS
 10
-28.500760779
 20
21.6608956041
 11
-28.5007502705
 21
21.6768653527
  0
LINE
  5
77E
100
AcDbEntity
  8
0
100
AcDbLine
 62
250
  6
CONTINUOUS
 10
-28.5006652278
 20
-22.2544039054
 11
-28.500760779
 21
-22.2717533365
  0
LWPOLYLINE
  5
77F
100
AcDbEntity
  8
0
100
AcDbPolyline
 62
250
  6
CONTINUOUS
 90
19
 70
0
 10
-28.5007502705
 20
21.6768653527
 10
-28.5006337378
 20
21.6914015074
 10
-28.5005358214
 20
21.6981164585
 10
-28.5004115743
 20
21.7044549968
 10
-28.5002611015
 20
21.7104117715
 10
-28.50008453
 20
21.7159817546
 10
-28.4998820087
 20
21.721160244
 10
-28.4996537088
 20
21.7259428685
 10
-28.4993998229
 20
21.7303255909
 10
-28.4991205652
 20
21.7343047117
 10
-28.4988161717
 20
21.7378768718
 10
-28.4984868991
 20
21.7410390559
 10
-28.4981330254
 20
21.7437885948
 10
-28.4977548494
 20
21.7461231673
 10
-28.4973526903
 20
21.7480408029
 10
-28.4969268875
 20
21.7495398828
 10
-28.4964778006
 20
21.7506191416
 10
-28.4960058085
 20
21.7512776682
 10
-28.4955113097
 20
21.7515149068
  0
LINE
  5
780
100
AcDbEntity
  8
0
100
AcDbLine
 62
250
  6
CONTINUOUS
 10
-28.5004639394
 20
-22.23573336
 11
-28.5006652278
 21
-22.2544039054
  0
LINE
  5
781
100
AcDbEntity
  8
0
100
AcDbLine
 62
250
  6
CONTINUOUS
 10
-28.4999653334
 20
-22.2053894948
 11
-28.5004639394
 21
-22.23573336
  0
LINE
  5
782
100
AcDbEntity
  8
0
100
AcDbLine
 62
250
  6
CONTINUOUS
 10
-28.4992342167
 20
-22.1724463308
 11
-28.4999653334
 21
-22.2053894948
  0
LINE
  5
783
100
AcDbEntity
  8
0
100
AcDbLine
 62
250
  6
CONTINUOUS
 10
-28.4982761407
 20
-22.137154003
 11
-28.4992342167
 21
-22.1724463308
  0
LINE
  5
784
100
AcDbEntity
  8
0
100
AcDbLine
 62
250
  6
CONTINUOUS
 10
-28.4966584732
 20
-22.0869087896
 11
-28.4982761407
 21
-22.137154003
  0
LINE
  5
785
100
AcDbEntity
  8
0
100
AcDbLine
 62
250
  6
CONTINUOUS
 10
-28.4946722728
 20
-22.0336434045
 11
-28.4966584732
 21
-22.0869087896
  0
LINE
  5
786
100
AcDbEntity
  8
0
100
AcDbLine
 62
250
  6
CONTINUOUS
 10
-28.4923443371
 20
-21.9780764983
 11
-28.4946722728
 21
-22.0336434045
  0
LINE
  5
787
100
AcDbEntity
  8
0
100
AcDbLine
 62
250
  6
CONTINUOUS
 10
-28.4903928539
 20
-21.9353410541
 11
-28.4923443371
 21
-21.9780764983
  0
LINE
  5
788
100
AcDbEntity
  8
0
100
AcDbLine
 62
250
  6
CONTINUOUS
 10
-24.8117790333
 20
-0.6053755681
 11
-30.0291072951
 21
-0.6509065021
  0
LINE
  5
789
100
AcDbEntity
  8
0
100
AcDbLine
 62
7
  6
CONTINUOUS
 10
-24.8117790333
 20
-0.4054288651
 11
-30.3134031848
 21
-0.4534408117
  0
LINE
  5
78A
100
AcDbEntity
  8
0
100
AcDbLine
 62
250
  6
CONTINUOUS
 10
-30.0291072951
 20
-0.6509065086
 11
-30.511657829
 21
-0.6535724545
  0
LINE
  5
78B
100
AcDbEntity
  8
0
100
AcDbLine
 62
7
  6
CONTINUOUS
 10
-30.3134031849
 20
-0.1574169185
 11
-24.8117790333
 21
-0.2054288651
  0
LWPOLYLINE
  5
78C
100
AcDbEntity
  8
0
100
AcDbPolyline
 62
250
  6
CONTINUOUS
 90
3
 70
0
 10
-28.48679308
 20
21.2522001394
 10
-28.4897060744
 20
21.3101000421
 10
-28.4903928539
 20
21.3244833225
  0
LINE
  5
78D
100
AcDbEntity
  8
0
100
AcDbLine
 62
250
  6
CONTINUOUS
 10
-28.48679308
 20
-21.8630578697
 11
-28.4903928539
 21
-21.9353410541
  0
LINE
  5
78E
100
AcDbEntity
  8
0
100
AcDbLine
 62
250
  6
CONTINUOUS
 10
-30.511657829
 20
0.0427147243
 11
-30.0291072951
 21
0.0400487783
  0
LINE
  5
78F
100
AcDbEntity
  8
0
100
AcDbLine
 62
250
  6
CONTINUOUS
 10
-30.0291072951
 20
0.0400487718
 11
-24.8117790333
 21
-0.0054821621
  0
LINE
  5
790
100
AcDbEntity
  8
RACCORDO
100
AcDbLine
 62
7
  6
CONTINUOUS
 10
-25.2117790333
 20
-18.238918674
 11
-25.2117790333
 21
-17.9774497862
  0
LINE
  5
791
100
AcDbEntity
  8
RACCORDO
100
AcDbLine
 62
7
  6
CONTINUOUS
 10
-25.2117790333
 20
17.366592056
 11
-25.2117790333
 21
17.6280609437
  0
LINE
  5
792
100
AcDbEntity
  8
0
100
AcDbLine
 62
7
  6
CONTINUOUS
 10
-24.8117790333
 20
-0.4054288651
 11
-24.8117790333
 21
-13.4054288651
  0
LINE
  5
793
100
AcDbEntity
  8
0
100
AcDbLine
 62
7
  6
CONTINUOUS
 10
-24.8117790333
 20
-0.2054288651
 11
-24.8117790333
 21
12.7945711349
  0
LINE
  5
794
100
AcDbEntity
  8
0
100
AcDbLine
 62
7
  6
CONTINUOUS
 10
-25.6086465978
 20
21.9028090754
 11
-24.8117790333
 21
12.7945711349
  0
LINE
  5
795
100
AcDbEntity
  8
0
100
AcDbLine
 62
7
  6
CONTINUOUS
 10
-25.6086465978
 20
-22.5136668057
 11
-24.8117790333
 21
-13.4054288651
  0
LWPOLYLINE
  5
796
100
AcDbEntity
  8
0
100
AcDbPolyline
 62
7
  6
CONTINUOUS
 90
10
 70
0
 43
0.3500000006
 10
-39.1902593994
 20
31.1059051208
 10
-39.1188282166
 20
30.963047287
 10
-39.1188282166
 20
30.891620636
 10
-39.2616860504
 20
30.7487628021
 10
-39.3331172333
 20
30.7487628021
 10
-39.4045438843
 20
30.8201894531
 10
-39.4045438843
 20
30.891620636
 10
-39.3331172333
 20
31.034473938
 10
-39.2616860504
 20
31.1059051208
 10
-39.1902593994
 20
31.1059051208
  0
LINE
  5
797
100
AcDbEntity
  8
RACCORDO
100
AcDbLine
 62
7
  6
CONTINUOUS
 10
-25.2471004997
 20
-18.3811759942
 11
-25.2398873581
 21
-18.3657073622
  0
LINE
  5
798
100
AcDbEntity
  8
0
100
AcDbLine
 62
250
  6
CONTINUOUS
 10
-29.9390608933
 20
9.1850711349
 11
-30.2503159126
 21
9.1910676569
  0
LINE
  5
799
100
AcDbEntity
  8
0
100
AcDbLine
 62
250
  6
CONTINUOUS
 10
-30.2503159126
 20
9.1910676569
 11
-30.4182897671
 21
9.1944720642
  0
LWPOLYLINE
  5
79A
100
AcDbEntity
  8
0
100
AcDbPolyline
 62
250
  6
CONTINUOUS
 90
4
 70
0
 10
-30.4182897671
 20
9.1944720642
 10
-30.4207126324
 20
9.1945369106
 10
-30.421318872
 20
9.1945578597
 10
-30.4215208868
 20
9.1945711349
  0
LINE
  5
79B
100
AcDbEntity
  8
RACCORDO
100
AcDbLine
 62
7
  6
CONTINUOUS
 10
-25.2398873581
 20
17.754849632
 11
-25.2471004997
 21
17.7703182639
  0
LINE
  5
79C
100
AcDbEntity
  8
RACCORDO
100
AcDbLine
 62
250
  6
CONTINUOUS
 10
-25.2346547537
 20
17.6280627362
 11
-25.2117790333
 21
17.6280627361
  0
LWPOLYLINE
  5
79D
100
AcDbEntity
  8
0
100
AcDbPolyline
 62
250
  6
CONTINUOUS
 90
58
 70
0
 10
-28.48679308
 20
21.2522001394
 10
-28.4987848365
 20
21.251426748
 10
-28.5107414906
 20
21.2503672832
 10
-28.5226630423
 20
21.249021745
 10
-28.5345565424
 20
21.2473890158
 10
-28.5464149401
 20
21.2454702132
 10
-28.558217083
 20
21.2432686905
 10
-28.5699626729
 20
21.2407839665
 10
-28.5816520079
 20
21.2380165223
 10
-28.5932648302
 20
21.234971155
 10
-28.6048009823
 20
21.2316473877
 10
-28.6162606217
 20
21.2280456973
 10
-28.6276239624
 20
21.2241723109
 10
-28.6388908484
 20
21.2200267561
 10
-28.6500614357
 20
21.2156095053
 10
-28.6611164068
 20
21.2109282038
 10
-28.6720555602
 20
21.2059823942
 10
-28.6828790975
 20
21.2007725339
 10
-28.6935683047
 20
21.1953076403
 10
-28.7041229489
 20
21.1895872716
 10
-28.7145432632
 20
21.1836118696
 10
-28.7248112329
 20
21.1773917768
 10
-28.7349265879
 20
21.1709265743
 10
-28.7448895984
 20
21.1642166811
 10
-28.7546830601
 20
21.1572736964
 10
-28.7643066865
 20
21.1500972123
 10
-28.773760764
 20
21.1426876369
 10
-28.7830289484
 20
21.1350577933
 10
-28.7921109123
 20
21.1272073053
 10
-28.801006983
 20
21.1191365491
 10
-28.809701798
 20
21.1108594774
 10
-28.8181950134
 20
21.1023757292
 10
-28.826486973
 20
21.0936856654
 10
-28.8345633465
 20
21.0848043218
 10
-28.8424237547
 20
21.0757313747
 10
-28.8500685767
 20
21.0664671479
 10
-28.8574846188
 20
21.0570276476
 10
-28.8646714896
 20
21.0474125663
 10
-28.8716295805
 20
21.0376222115
 10
-28.8783468725
 20
21.0276735127
 10
-28.8848229479
 20
21.0175661972
 10
-28.8910582243
 20
21.0073005376
 10
-28.8970419349
 20
20.9968942809
 10
-28.9027736444
 20
20.9863471845
 10
-28.9082537882
 20
20.9756594911
 10
-28.9134729058
 20
20.9648496751
 10
-28.918430543
 20
20.9539175361
 10
-28.923127154
 20
20.9428632747
 10
-28.9275546414
 20
20.9317059672
 10
-28.9317125473
 20
20.920445412
 10
-28.9356013296
 20
20.9090818106
 10
-28.9392142643
 20
20.8976348451
 10
-28.9425508923
 20
20.8861042351
 10
-28.9456116727
 20
20.8744902609
 10
-28.948391259
 20
20.8628134444
 10
-28.9508878689
 20
20.8510806263
 10
-28.9531032847
 20
20.8392849659
 10
-28.9550375063
 20
20.8274264633
  0
LINE
  5
79E
100
AcDbEntity
  8
0
100
AcDbLine
 62
250
  6
CONTINUOUS
 10
-25.5651218072
 20
21.4053184426
 11
-28.48679308
 21
21.2522001394
  0
LINE
  5
79F
100
AcDbEntity
  8
0
100
AcDbLine
 62
7
  6
CONTINUOUS
 10
-25.6086465978
 20
21.9028090754
 11
-28.4955113097
 21
21.7515149068
  0
LWPOLYLINE
  5
7A0
100
AcDbEntity
  8
0
100
AcDbPolyline
 62
7
  6
CONTINUOUS
 90
8
 70
0
 43
0.3500000006
 10
-41.9759712982
 20
30.6059049683
 10
-41.1188288269
 20
30.6059049683
 10
-40.6902598572
 20
31.034473938
 10
-40.6902598572
 20
31.8916209412
 10
-41.1188288269
 20
32.3201899109
 10
-41.9759712982
 20
32.3201899109
 10
-41.9759712982
 20
33.6059058838
 10
-40.6902598572
 20
33.6059058838
  0
LINE
  5
7A1
100
AcDbEntity
  8
0
100
AcDbLine
 62
250
  6
CONTINUOUS
 10
-28.9550375063
 20
20.8274264633
 11
-29.0796045906
 21
20.8463158486
  0
LINE
  5
7A2
100
AcDbEntity
  8
0
100
AcDbLine
 62
250
  6
CONTINUOUS
 10
-29.0796045906
 20
20.8463158486
 11
-29.1949118222
 21
20.8639735988
  0
LINE
  5
7A3
100
AcDbEntity
  8
0
100
AcDbLine
 62
250
  6
CONTINUOUS
 10
-29.1949118222
 20
20.8639735988
 11
-29.2835332036
 21
20.8777015185
  0
LINE
  5
7A4
100
AcDbEntity
  8
0
100
AcDbLine
 62
250
  6
CONTINUOUS
 10
-29.2835332036
 20
20.8777015185
 11
-29.3543116913
 21
20.8888363922
  0
LINE
  5
7A5
100
AcDbEntity
  8
0
100
AcDbLine
 62
250
  6
CONTINUOUS
 10
-29.3543116913
 20
20.8888363922
 11
-29.3934498902
 21
20.8951344696
  0
LINE
  5
7A6
100
AcDbEntity
  8
0
100
AcDbLine
 62
250
  6
CONTINUOUS
 10
-29.3934498902
 20
20.8951344696
 11
-29.4122352605
 21
20.8982488084
  0
LINE
  5
7A7
100
AcDbEntity
  8
0
100
AcDbLine
 62
250
  6
CONTINUOUS
 10
-29.4122352605
 20
20.8982488084
 11
-29.4193375222
 21
20.8994644751
  0
LWPOLYLINE
  5
7A8
100
AcDbEntity
  8
0
100
AcDbPolyline
 62
250
  6
CONTINUOUS
 90
8
 70
0
 10
-29.4193375222
 20
20.8994644751
 10
-29.4248805275
 20
20.9004469799
 10
-29.4270615036
 20
20.900849773
 10
-29.4288463355
 20
20.9011931426
 10
-29.4302335786
 20
20.9014768109
 10
-29.4312221103
 20
20.9017005482
 10
-29.4318111305
 20
20.9018641736
 10
-29.4320001624
 20
20.9019675545
  0
ARC
  5
7A9
100
AcDbEntity
  8
0
100
AcDbCircle
 62
7
  6
CONTINUOUS
 10
59.5622326468
 20
-8.0954288651
 40
90.0
100
AcDbArc
 50
181.08868532
 51
188.5737414447
  0
ARC
  5
7AA
100
AcDbEntity
  8
0
100
AcDbCircle
 62
7
  6
CONTINUOUS
 10
-28.4431753535
 20
-21.3637431023
 40
1.0
100
AcDbArc
 50
188.5737414447
 51
267.0
  0
ARC
  5
7AB
100
AcDbEntity
  8
RACCORDO
100
AcDbCircle
 62
7
  6
CONTINUOUS
 10
-25.5117790333
 20
-18.2389204663
 40
0.3
100
AcDbArc
 50
334.9997013218
 51
0.0003423163
  0
ARC
  5
7AC
100
AcDbEntity
  8
0
100
AcDbCircle
 62
7
  6
CONTINUOUS
 10
-30.3116578609
 20
-0.6534331962
 40
0.2
100
AcDbArc
 50
90.5000048095
 51
180.0398943198
  0
ARC
  5
7AD
100
AcDbEntity
  8
0
100
AcDbCircle
 62
7
  6
CONTINUOUS
 10
59.5622326468
 20
7.4845711349
 40
90.0
100
AcDbArc
 50
171.4262585553
 51
178.91131468
  0
ARC
  5
7AE
100
AcDbEntity
  8
0
100
AcDbCircle
 62
7
  6
CONTINUOUS
 10
-28.4431753535
 20
20.752885372
 40
1.0
100
AcDbArc
 50
93.0
 51
171.4262585553
  0
ARC
  5
7AF
100
AcDbEntity
  8
RACCORDO
100
AcDbCircle
 62
7
  6
CONTINUOUS
 10
-25.5117790333
 20
17.6280627361
 40
0.3
100
AcDbArc
 50
359.9996576837
 51
25.0002986779
  0
ARC
  5
7B0
100
AcDbEntity
  8
0
100
AcDbCircle
 62
7
  6
CONTINUOUS
 10
-30.3116578609
 20
0.0425754659
 40
0.2
100
AcDbArc
 50
179.9601055941
 51
269.4999951905
  0
ARC
  5
7B1
100
AcDbEntity
  8
0
100
AcDbCircle
 62
7
  6
CONTINUOUS
 10
469.4882209667
 20
-0.3054288651
 40
500.0
100
AcDbArc
 50
180.0398943198
 51
181.08868532
  0
ARC
  5
7B2
100
AcDbEntity
  8
0
100
AcDbCircle
 62
7
  6
CONTINUOUS
 10
469.4882209667
 20
-0.3054288651
 40
500.0
100
AcDbArc
 50
178.91131468
 51
179.9601056802
  0
ELLIPSE
  5
7B3
100
AcDbEntity
  8
RACCORDO
100
AcDbEllipse
 62
7
  6
CONTINUOUS
 10
9.6607067711
 20
-0.6054364808
 30
0.0
 11
0.1789222233
 21
0.0894542984
 31
0.0
 40
0.9998096356
 41
1.1071030277
 42
1.5707963267
  0
ELLIPSE
  5
7B4
100
AcDbEntity
  8
RACCORDO
100
AcDbEllipse
 62
7
  6
CONTINUOUS
 10
-7.7238536407
 20
-22.4872987521
 30
0.0
 11
0.2
 21
0.0
 31
0.0
 40
0.0524077793
 41
1.5707963268
 42
2.617993878
  0
ELLIPSE
  5
7B5
100
AcDbEntity
  8
RACCORDO
100
AcDbEllipse
 62
7
  6
CONTINUOUS
 10
3.4761463593
 20
-22.4872987521
 30
0.0
 11
0.2
 21
-0.0
 31
0.0
 40
0.0524077793
 41
1.5707963268
 42
2.617993878
  0
ELLIPSE
  5
7B6
100
AcDbEntity
  8
RACCORDO
100
AcDbEllipse
 62
7
  6
CONTINUOUS
 10
-4.3547937483
 20
-22.4872987521
 30
0.0
 11
0.2
 21
0.0
 31
0.0
 40
0.0524077793
 41
0.5235987756
 42
1.5707963268
  0
ELLIPSE
  5
7B7
100
AcDbEntity
  8
RACCORDO
100
AcDbEllipse
 62
7
  6
CONTINUOUS
 10
6.8452062517
 20
-22.4872987521
 30
0.0
 11
0.2
 21
-0.0
 31
0.0
 40
0.0524077793
 41
0.5235987756
 42
1.5707963268
  0
ELLIPSE
  5
7B8
100
AcDbEntity
  8
0
100
AcDbEllipse
 62
7
  6
CONTINUOUS
 10
-11.3892017856
 20
-0.6054364808
 30
0.0
 11
0.1941585013
 21
-0.0485211407
 31
0.0
 40
0.9993528196
 41
1.8158377039
 42
3.386329479
  0
ELLIPSE
  5
7B9
100
AcDbEntity
  8
0
100
AcDbEllipse
 62
7
  6
CONTINUOUS
 10
10.5105543967
 20
-0.6054364808
 30
0.0
 11
0.1941585013
 21
0.0485211407
 31
0.0
 40
0.9993528196
 41
-0.2447368254
 42
1.3257549497
  0
ELLIPSE
  5
7BA
100
AcDbEntity
  8
0
100
AcDbEllipse
 62
7
  6
CONTINUOUS
 10
-4.6329640719
 20
-1.0990692426
 30
0.0
 11
0.4643386945
 21
-0.1896138901
 31
0.0
 40
0.9790602997
 41
-1.9610078663
 42
-1.1756477791
  0
ELLIPSE
  5
7BB
100
AcDbEntity
  8
0
100
AcDbEllipse
 62
7
  6
CONTINUOUS
 10
-4.6329640719
 20
-1.0990692426
 30
0.0
 11
-0.1896138901
 21
0.4643386945
 31
0.0
 40
0.9790602997
 41
1.1756477791
 42
1.9610078663
  0
ELLIPSE
  5
7BC
100
AcDbEntity
  8
0
100
AcDbEllipse
 62
7
  6
CONTINUOUS
 10
3.754316683
 20
-1.0990692426
 30
0.0
 11
0.1896138901
 21
0.4643386945
 31
0.0
 40
0.9790602997
 41
-1.9610078663
 42
-1.1756477791
  0
ELLIPSE
  5
7BD
100
AcDbEntity
  8
0
100
AcDbEllipse
 62
7
  6
CONTINUOUS
 10
3.754316683
 20
-1.0990692426
 30
0.0
 11
0.4643386945
 21
0.1896138901
 31
0.0
 40
0.9790602997
 41
-1.9659448745
 42
-1.1805847873
  0
ELLIPSE
  5
7BE
100
AcDbEntity
  8
0
100
AcDbEllipse
 62
7
  6
CONTINUOUS
 10
10.1840670052
 20
-22.0152658442
 30
0.0
 11
0.4943891341
 21
0.0770133648
 31
0.0
 40
0.9960067742
 41
-1.7259388368
 42
-0.1569690096
  0
ELLIPSE
  5
7BF
100
AcDbEntity
  8
0
100
AcDbEllipse
 62
7
  6
CONTINUOUS
 10
-11.0627143942
 20
-22.0152658442
 30
0.0
 11
0.4943891341
 21
-0.0770133648
 31
0.0
 40
0.9960067742
 41
-2.984623644
 42
-1.4156538168
  0
ELLIPSE
  5
7C0
100
AcDbEntity
  8
0
100
AcDbEllipse
 62
7
  6
CONTINUOUS
 10
-5.3225671158
 20
-0.6386722865
 30
0.0
 11
-0.075845556
 21
0.1857354778
 31
0.0
 40
0.9790602997
 41
-1.9659448745
 42
-0.3952247001
  0
ELLIPSE
  5
7C1
100
AcDbEntity
  8
0
100
AcDbEllipse
 62
7
  6
CONTINUOUS
 10
4.4439197269
 20
-0.6386722865
 30
0.0
 11
0.075845556
 21
0.1857354778
 31
0.0
 40
0.9790602997
 41
0.3952247001
 42
1.9659448745
  0
ELLIPSE
  5
7C2
100
AcDbEntity
  8
RACCORDO
100
AcDbEllipse
 62
7
  6
CONTINUOUS
 10
-10.5393541601
 20
-0.0054212495
 30
0.0
 11
0.1789222233
 21
0.0894542984
 31
0.0
 40
0.9998096356
 41
-2.0344896259
 42
-1.5707963269
  0
ELLIPSE
  5
7C3
100
AcDbEntity
  8
RACCORDO
100
AcDbEllipse
 62
7
  6
CONTINUOUS
 10
6.8452062517
 20
21.8764410218
 30
0.0
 11
0.2
 21
0.0
 31
0.0
 40
0.0524077793
 41
-1.5707963268
 42
-0.5235987756
  0
ELLIPSE
  5
7C4
100
AcDbEntity
  8
RACCORDO
100
AcDbEllipse
 62
7
  6
CONTINUOUS
 10
-4.3547937483
 20
21.8764410218
 30
0.0
 11
0.2
 21
-0.0
 31
0.0
 40
0.0524077793
 41
-1.5707963268
 42
-0.5235987756
  0
ELLIPSE
  5
7C5
100
AcDbEntity
  8
RACCORDO
100
AcDbEllipse
 62
7
  6
CONTINUOUS
 10
3.4761463593
 20
21.8764410218
 30
0.0
 11
0.2
 21
0.0
 31
0.0
 40
0.0524077793
 41
-2.617993878
 42
-1.5707963268
  0
ELLIPSE
  5
7C6
100
AcDbEntity
  8
RACCORDO
100
AcDbEllipse
 62
7
  6
CONTINUOUS
 10
-7.7238536407
 20
21.8764410218
 30
0.0
 11
0.2
 21
0.0
 31
0.0
 40
0.0524077793
 41
-2.617993878
 42
-1.5707963268
  0
ELLIPSE
  5
7C7
100
AcDbEntity
  8
0
100
AcDbEllipse
 62
7
  6
CONTINUOUS
 10
10.5105543967
 20
-0.0054212495
 30
0.0
 11
0.1941585013
 21
-0.0485211407
 31
0.0
 40
0.9993528196
 41
-1.3257549497
 42
0.2447368254
  0
ELLIPSE
  5
7C8
100
AcDbEntity
  8
0
100
AcDbEllipse
 62
7
  6
CONTINUOUS
 10
-11.3892017856
 20
-0.0054212495
 30
0.0
 11
0.1941585013
 21
0.0485211407
 31
0.0
 40
0.9993528196
 41
2.8968558282
 42
4.4673476033
  0
ELLIPSE
  5
7C9
100
AcDbEntity
  8
0
100
AcDbEllipse
 62
7
  6
CONTINUOUS
 10
3.754316683
 20
0.4882115123
 30
0.0
 11
0.4643386945
 21
-0.1896138901
 31
0.0
 40
0.9790602997
 41
1.1805847873
 42
1.9659448745
  0
ELLIPSE
  5
7CA
100
AcDbEntity
  8
0
100
AcDbEllipse
 62
7
  6
CONTINUOUS
 10
3.754316683
 20
0.4882115123
 30
0.0
 11
-0.1896138901
 21
0.4643386945
 31
0.0
 40
0.9790602997
 41
-1.9659448745
 42
-1.1805847873
  0
ELLIPSE
  5
7CB
100
AcDbEntity
  8
0
100
AcDbEllipse
 62
7
  6
CONTINUOUS
 10
-4.6329640719
 20
0.4882115123
 30
0.0
 11
0.1896138901
 21
0.4643386945
 31
0.0
 40
0.9790602997
 41
1.1805847873
 42
1.9659448745
  0
ELLIPSE
  5
7CC
100
AcDbEntity
  8
0
100
AcDbEllipse
 62
7
  6
CONTINUOUS
 10
-4.6329640719
 20
0.4882115123
 30
0.0
 11
0.4643386945
 21
0.1896138901
 31
0.0
 40
0.9790602997
 41
1.1756477791
 42
1.9610078663
  0
ELLIPSE
  5
7CD
100
AcDbEntity
  8
0
100
AcDbEllipse
 62
7
  6
CONTINUOUS
 10
-11.0627143942
 20
21.404408114
 30
0.0
 11
0.4943891341
 21
0.0770133648
 31
0.0
 40
0.9960067742
 41
1.4156538168
 42
2.984623644
  0
ELLIPSE
  5
7CE
100
AcDbEntity
  8
0
100
AcDbEllipse
 62
7
  6
CONTINUOUS
 10
10.1840670052
 20
21.404408114
 30
0.0
 11
0.4943891341
 21
-0.0770133648
 31
0.0
 40
0.9960067742
 41
0.1569690096
 42
1.7259388368
  0
ELLIPSE
  5
7CF
100
AcDbEntity
  8
0
100
AcDbEllipse
 62
7
  6
CONTINUOUS
 10
4.4439197269
 20
0.0278145562
 30
0.0
 11
-0.075845556
 21
0.1857354778
 31
0.0
 40
0.9790602997
 41
1.1756477791
 42
2.7463679535
  0
ELLIPSE
  5
7D0
100
AcDbEntity
  8
0
100
AcDbEllipse
 62
7
  6
CONTINUOUS
 10
-5.3225671158
 20
0.0278145562
 30
0.0
 11
0.075845556
 21
0.1857354778
 31
0.0
 40
0.9790602997
 41
-2.7463679535
 42
-1.1756477791
  0
ENDSEC
  0
SECTION
  2
OBJECTS
  0
DICTIONARY
  5
C
100
AcDbDictionary
280
0
281
1
  3
ACAD_GROUP
350
D
  3
ACAD_MLINESTYLE
350
17
  3
ACAD_LAYOUT
350
1A
  3
ACAD_PLOTSETTINGS
350
19
  3
ACAD_PLOTSTYLENAME
350
E
  0
DICTIONARY
  5
D
102
{ACAD_REACTORS
330
C
102
}
100
AcDbDictionary
280
0
281
1
  0
ACDBDICTIONARYWDFLT
  5
E
102
{ACAD_REACTORS
330
C
102
}
100
AcDbDictionary
281
1
  3
Normal
350
F
100
AcDbDictionaryWithDefault
340
F
  0
DICTIONARY
  5
17
102
{ACAD_REACTORS
330
C
102
}
100
AcDbDictionary
280
0
281
1
  3
Standard
350
18
  0
DICTIONARY
  5
19
102
{ACAD_REACTORS
330
C
102
}
100
AcDbDictionary
281
1
  0
DICTIONARY
  5
1A
102
{ACAD_REACTORS
330
C
102
}
100
AcDbDictionary
281
1
  3
Model
350
7D1
  3
Layout1
350
7D2
  0
ACDBPLACEHOLDER
  5
F
102
{ACAD_REACTORS
330
E
102
}
  0
MLINESTYLE
  5
18
102
{ACAD_REACTORS
330
17
102
}
100
AcDbMlineStyle
  2
STANDARD
 70
0
  3

 62
256
 51
90.0
 52
90.0
 71
2
 49
0.5
 62
256
  6
BYLAYER
 49
-0.5
 62
256
  6
BYLAYER
  0
LAYOUT
  5
7D1
102
{ACAD_REACTORS
330
1A
102
}
100
AcDbPlotSettings
  1

  2
none_device
  4
ISO_A4_(297.00_x_210.00_MM)
  6

 40
0.0
 41
0.0
 42
0.0
 43
0.0
 44
297.0
 45
210.0
 46
0.0
 47
0.0
 48
0.0
 49
0.0
140
0.0
141
0.0
142
1.0
143
1.0
 70
1024
 72
1
 73
0
 74
0
  7

 75
0
147
1.0
148
0.0
149
0.0
100
AcDbLayout
  1
Model
 70
0
 71
0
 10
0.0
 20
0.0
 11
297.0
 21
210.0
 12
0.0
 22
0.0
 32
0.0
 14
0.0
 24
0.0
 34
0.0
 15
0.0
 25
0.0
 35
0.0
146
0.0
 13
0.0
 23
0.0
 33
0.0
 16
1.0
 26
0.0
 36
0.0
 17
0.0
 27
1.0
 37
0.0
 76
0
330
222
345
0
346
0
  0
LAYOUT
  5
7D2
102
{ACAD_REACTORS
330
1A
102
}
100
AcDbPlotSettings
  1

  2
none_device
  4
ISO_A4_(297.00_x_210.00_MM)
  6

 40
0.0
 41
0.0
 42
0.0
 43
0.0
 44
297.0
 45
210.0
 46
0.0
 47
0.0
 48
0.0
 49
0.0
140
0.0
141
0.0
142
1.0
143
1.0
 70
0
 72
1
 73
0
 74
0
  7

 75
0
147
1.0
148
0.0
149
0.0
100
AcDbLayout
  1
Layout1
 70
0
 71
1
 10
0.0
 20
0.0
 11
297.0
 21
210.0
 12
0.0
 22
0.0
 32
0.0
 14
0.0
 24
0.0
 34
0.0
 15
0.0
 25
0.0
 35
0.0
146
0.0
 13
0.0
 23
0.0
 33
0.0
 16
1.0
 26
0.0
 36
0.0
 17
0.0
 27
1.0
 37
0.0
 76
0
330
223
345
0
346
0
  0
ENDSEC
  0
EOF
