  0
SECTION
  2
HEADER
  9
$ACADVER
  1
AC1024
  9
$DWGCODEPAGE
  3
ANSI_1252
  9
$EXTMAX
 10
210.0
 20
297.0
 30
0.0
  9
$EXTMIN
 10
0.0
 20
0.0
 30
0.0
  9
$LIMMIN
 10
0.0
 20
0.0
  9
$LIMMAX
 10
210.0
 20
297.0
  9
$VIEWCTR
 10
105.0
 20
148.5
  9
$VIEWSIZE
 40
297.0
  9
$CLAYER
  8
0
  9
$LTSCALE
 40
19.36
  9
$CELTYPE
  6
BYLAYER
  9
$DIMSCALE
 40
1.0
  9
$DIMASZ
 40
3.0
  9
$DIMEXO
 40
0.5
  9
$DIMDLI
 40
13.376
  9
$DIMEXE
 40
1.5
  9
$DIMCEN
 40
3.168
  9
$DIMLFAC
 40
1.0
  9
$DIMBLK
  1
_FILLED
  9
$DIMALT
 70
0
  9
$DIMALTF
 40
0.0393700787
  9
$DIMTXT
 40
3.0
  9
$DIMTOL
 70
1
  9
$DIMLIM
 70
0
  9
$DIMTFAC
 40
1.0
  9
$DIMTP
 40
0.01
  9
$DIMTM
 40
0.01
  9
$DIMGAP
 40
0.625
  9
$DIMDSEP
 70
44
  9
$AUNITS
 70
0
  9
$PDMODE
 70
3
  9
$PDSIZE
 40
3.0
  9
$HANDSEED
  5
4A9
  9
$TILEMODE
 70
1
  9
$MEASUREMENT
 70
1
  9
$INSUNITS
 70
4
  0
ENDSEC
  0
SECTION
  2
CLASSES
  0
CLASS
  1
ACDBDICTIONARYWDFLT
  2
AcDbDictionaryWithDefault
  3
AutoCAD 2000
 90
0
 91
1
280
0
281
0
  0
CLASS
  1
ACDBPLACEHOLDER
  2
AcDbPlaceHolder
  3
AutoCAD 2000
 90
0
 91
1
280
0
281
0
  0
CLASS
  1
LAYOUT
  2
AcDbLayout
  3
AutoCAD 2000
 90
0
 91
0
280
0
281
0
  0
ENDSEC
  0
SECTION
  2
TABLES
  0
TABLE
  2
VPORT
  5
8
100
AcDbSymbolTable
 70
2
  0
VPORT
  5
1F4
100
AcDbSymbolTableRecord
100
AcDbViewportTableRecord
  2
*ACTIVE
 70
0
 10
0.0
 20
0.0
 11
1.0
 21
1.0
 12
105.0
 22
148.5
 13
0.0
 23
0.0
 14
1.0
 24
1.0
 15
0.0
 25
0.0
 16
0.0
 26
0.0
 36
1.0
 17
0.0
 27
0.0
 37
0.0
 40
297.0
 41
0.7070707071
 42
50.0
 43
0.0
 44
0.0
 50
0.0
 51
0.0
 71
0
 72
100
 73
1
 74
1
 75
0
 76
0
 77
0
 78
0
  0
ENDTAB
  0
TABLE
  2
LTYPE
  5
5
100
AcDbSymbolTable
 70
6
  0
LTYPE
  5
14
100
AcDbSymbolTableRecord
100
AcDbLinetypeTableRecord
  2
BYBLOCK
 70
0
  3

 72
65
 73
0
 40
0.0
  0
LTYPE
  5
15
100
AcDbSymbolTableRecord
100
AcDbLinetypeTableRecord
  2
BYLAYER
 70
0
  3

 72
65
 73
0
 40
0.0
  0
LTYPE
  5
16
100
AcDbSymbolTableRecord
100
AcDbLinetypeTableRecord
  2
CONTINUOUS
 70
64
  3
Solid line
 72
65
 73
0
 40
0.0
  0
LTYPE
  5
1F5
100
AcDbSymbolTableRecord
100
AcDbLinetypeTableRecord
  2
CENTER
 70
64
  3
____ _ ____ _ ____ _ ____ _ ____ _ ____ _ ____
 72
65
 73
4
 40
0.6
 49
0.375
 74
0
 49
-0.075
 74
0
 49
0.075
 74
0
 49
-0.075
 74
0
  0
LTYPE
  5
1F6
100
AcDbSymbolTableRecord
100
AcDbLinetypeTableRecord
  2
HIDDEN
 70
64
  3
- - - - - - - - - - - - - - - - - - - -
 72
65
 73
2
 40
0.2
 49
0.1
 74
0
 49
-0.1
 74
0
  0
LTYPE
  5
1F7
100
AcDbSymbolTableRecord
100
AcDbLinetypeTableRecord
  2
PHANTOM
 70
64
  3
_____ _ _ _____ _ _ _____ _ _ _____
 72
65
 73
6
 40
0.8
 49
0.45
 74
0
 49
-0.05
 74
0
 49
0.1
 74
0
 49
-0.05
 74
0
 49
0.1
 74
0
 49
-0.05
 74
0
  0
LTYPE
  5
1F8
100
AcDbSymbolTableRecord
100
AcDbLinetypeTableRecord
  2
DOT
 70
64
  3
. . . . . . . . . . . . . . . . . . . .
 72
65
 73
2
 40
0.2
 49
0.1
 74
0
 49
-0.1
 74
0
  0
LTYPE
  5
1F9
100
AcDbSymbolTableRecord
100
AcDbLinetypeTableRecord
  2
DASHED
 70
64
  3
- - - - - - - - - - - - - - - - - - - -
 72
65
 73
2
 40
0.2
 49
0.1
 74
0
 49
-0.1
 74
0
  0
ENDTAB
  0
TABLE
  2
LAYER
  5
2
100
AcDbSymbolTable
 70
36
  0
LAYER
  5
10
100
AcDbSymbolTableRecord
100
AcDbLayerTableRecord
  2
0
 70
0
 62
7
  6
CONTINUOUS
370
-3
390
F
  0
LAYER
  5
1FA
100
AcDbSymbolTableRecord
100
AcDbLayerTableRecord
  2
DEFAULT_1
 70
0
 62
7
  6
CENTER
370
-3
390
F
  0
LAYER
  5
1FB
100
AcDbSymbolTableRecord
100
AcDbLayerTableRecord
  2
DEFAULT_2
 70
0
 62
7
  6
HIDDEN
370
-3
390
F
  0
LAYER
  5
1FC
100
AcDbSymbolTableRecord
100
AcDbLayerTableRecord
  2
DEFAULT_3
 70
0
 62
7
  6
PHANTOM
370
-3
390
F
  0
LAYER
  5
1FD
100
AcDbSymbolTableRecord
100
AcDbLayerTableRecord
  2
ASSI
 70
0
 62
7
  6
CONTINUOUS
370
-3
390
F
  0
LAYER
  5
1FE
100
AcDbSymbolTableRecord
100
AcDbLayerTableRecord
  2
COLOR6
 70
0
 62
7
  6
CONTINUOUS
370
-3
390
F
  0
LAYER
  5
1FF
100
AcDbSymbolTableRecord
100
AcDbLayerTableRecord
  2
COLOR9
 70
0
 62
7
  6
CONTINUOUS
370
-3
390
F
  0
LAYER
  5
200
100
AcDbSymbolTableRecord
100
AcDbLayerTableRecord
  2
COORDINATE
 70
0
 62
7
  6
CONTINUOUS
370
-3
390
F
  0
LAYER
  5
201
100
AcDbSymbolTableRecord
100
AcDbLayerTableRecord
  2
COORD_ORIGINE
 70
0
 62
7
  6
CONTINUOUS
370
-3
390
F
  0
LAYER
  5
202
100
AcDbSymbolTableRecord
100
AcDbLayerTableRecord
  2
COPY_GEOMETRY
 70
0
 62
7
  6
CONTINUOUS
370
-3
390
F
  0
LAYER
  5
203
100
AcDbSymbolTableRecord
100
AcDbLayerTableRecord
  2
COPY_PUBLISH
 70
0
 62
7
  6
CONTINUOUS
370
-3
390
F
  0
LAYER
  5
204
100
AcDbSymbolTableRecord
100
AcDbLayerTableRecord
  2
COSMETIC
 70
0
 62
7
  6
CONTINUOUS
370
-3
390
F
  0
LAYER
  5
205
100
AcDbSymbolTableRecord
100
AcDbLayerTableRecord
  2
COSMETICI
 70
0
 62
7
  6
CONTINUOUS
370
-3
390
F
  0
LAYER
  5
206
100
AcDbSymbolTableRecord
100
AcDbLayerTableRecord
  2
CURVE
 70
0
 62
7
  6
CONTINUOUS
370
-3
390
F
  0
LAYER
  5
207
100
AcDbSymbolTableRecord
100
AcDbLayerTableRecord
  2
DRAFT
 70
0
 62
7
  6
CONTINUOUS
370
-3
390
F
  0
LAYER
  5
208
100
AcDbSymbolTableRecord
100
AcDbLayerTableRecord
  2
IGES
 70
0
 62
7
  6
CONTINUOUS
370
-3
390
F
  0
LAYER
  5
209
100
AcDbSymbolTableRecord
100
AcDbLayerTableRecord
  2
IGS_SCRITTE
 70
0
 62
7
  6
CONTINUOUS
370
-3
390
F
  0
LAYER
  5
20A
100
AcDbSymbolTableRecord
100
AcDbLayerTableRecord
  2
IMPORT_IGES
 70
0
 62
7
  6
CONTINUOUS
370
-3
390
F
  0
LAYER
  5
20B
100
AcDbSymbolTableRecord
100
AcDbLayerTableRecord
  2
INTFCLR_13457
 70
0
 62
7
  6
CONTINUOUS
370
-3
390
F
  0
LAYER
  5
20C
100
AcDbSymbolTableRecord
100
AcDbLayerTableRecord
  2
INTFCLR_20107
 70
0
 62
7
  6
CONTINUOUS
370
-3
390
F
  0
LAYER
  5
20D
100
AcDbSymbolTableRecord
100
AcDbLayerTableRecord
  2
INTF_11
 70
0
 62
7
  6
CONTINUOUS
370
-3
390
F
  0
LAYER
  5
20E
100
AcDbSymbolTableRecord
100
AcDbLayerTableRecord
  2
INTF_2
 70
0
 62
7
  6
CONTINUOUS
370
-3
390
F
  0
LAYER
  5
20F
100
AcDbSymbolTableRecord
100
AcDbLayerTableRecord
  2
INTF_20
 70
0
 62
7
  6
CONTINUOUS
370
-3
390
F
  0
LAYER
  5
210
100
AcDbSymbolTableRecord
100
AcDbLayerTableRecord
  2
INTF_YELLOW
 70
0
 62
7
  6
CONTINUOUS
370
-3
390
F
  0
LAYER
  5
211
100
AcDbSymbolTableRecord
100
AcDbLayerTableRecord
  2
NOTE
 70
0
 62
7
  6
CONTINUOUS
370
-3
390
F
  0
LAYER
  5
212
100
AcDbSymbolTableRecord
100
AcDbLayerTableRecord
  2
PIANI
 70
0
 62
7
  6
CONTINUOUS
370
-3
390
F
  0
LAYER
  5
213
100
AcDbSymbolTableRecord
100
AcDbLayerTableRecord
  2
PIANI_ORIGINE
 70
0
 62
7
  6
CONTINUOUS
370
-3
390
F
  0
LAYER
  5
214
100
AcDbSymbolTableRecord
100
AcDbLayerTableRecord
  2
PIANI_RIFERIMENTO
 70
0
 62
7
  6
CONTINUOUS
370
-3
390
F
  0
LAYER
  5
215
100
AcDbSymbolTableRecord
100
AcDbLayerTableRecord
  2
PUBLISH_GEOMETRY
 70
0
 62
7
  6
CONTINUOUS
370
-3
390
F
  0
LAYER
  5
216
100
AcDbSymbolTableRecord
100
AcDbLayerTableRecord
  2
PUNTI
 70
0
 62
7
  6
CONTINUOUS
370
-3
390
F
  0
LAYER
  5
217
100
AcDbSymbolTableRecord
100
AcDbLayerTableRecord
  2
RACCORDO
 70
0
 62
7
  6
CONTINUOUS
370
-3
390
F
  0
LAYER
  5
218
100
AcDbSymbolTableRecord
100
AcDbLayerTableRecord
  2
SIMBOLI
 70
0
 62
7
  6
CONTINUOUS
370
-3
390
F
  0
LAYER
  5
219
100
AcDbSymbolTableRecord
100
AcDbLayerTableRecord
  2
SMUSSO
 70
0
 62
7
  6
CONTINUOUS
370
-3
390
F
  0
LAYER
  5
21A
100
AcDbSymbolTableRecord
100
AcDbLayerTableRecord
  2
SNAPLINE
 70
0
 62
7
  6
CONTINUOUS
370
-3
390
F
  0
LAYER
  5
21B
100
AcDbSymbolTableRecord
100
AcDbLayerTableRecord
  2
SOLIDO
 70
0
 62
7
  6
CONTINUOUS
370
-3
390
F
  0
LAYER
  5
21C
100
AcDbSymbolTableRecord
100
AcDbLayerTableRecord
  2
SUPERFICI
 70
0
 62
7
  6
CONTINUOUS
370
-3
390
F
  0
LAYER
  5
21D
100
AcDbSymbolTableRecord
100
AcDbLayerTableRecord
  2
TRASH
 70
0
 62
7
  6
CONTINUOUS
370
-3
390
F
  0
LAYER
  5
21E
100
AcDbSymbolTableRecord
100
AcDbLayerTableRecord
  2
WHITE
 70
0
 62
7
  6
CONTINUOUS
370
-3
390
F
  0
LAYER
  5
21F
100
AcDbSymbolTableRecord
100
AcDbLayerTableRecord
  2
XSEC_DATUMS
 70
0
 62
7
  6
CONTINUOUS
370
-3
390
F
  0
LAYER
  5
220
100
AcDbSymbolTableRecord
100
AcDbLayerTableRecord
  2
___SHELL
 70
0
 62
7
  6
CONTINUOUS
370
-3
390
F
  0
ENDTAB
  0
TABLE
  2
STYLE
  5
3
100
AcDbSymbolTable
 70
1
  0
STYLE
  5
11
100
AcDbSymbolTableRecord
100
AcDbTextStyleTableRecord
  2
STANDARD
 70
0
 40
0.0
 41
0.8
 50
0.0
 71
0
 42
0.2
  3
txt
  4

  0
STYLE
  5
221
100
AcDbSymbolTableRecord
100
AcDbTextStyleTableRecord
  2
TEXTSTYLE_1
 70
0
 40
0.0
 41
0.8
 50
0.0
 71
0
 42
0.2
  3
gdt
  4

  0
ENDTAB
  0
TABLE
  2
VIEW
  5
6
100
AcDbSymbolTable
 70
0
  0
ENDTAB
  0
TABLE
  2
UCS
  5
7
100
AcDbSymbolTable
 70
0
  0
ENDTAB
  0
TABLE
  2
APPID
  5
9
100
AcDbSymbolTable
 70
1
  0
APPID
  5
222
100
AcDbSymbolTableRecord
100
AcDbRegAppTableRecord
  2
ACAD
 70
0
  0
ENDTAB
  0
TABLE
  2
BLOCK_RECORD
  5
1
100
AcDbSymbolTable
 70
0
  0
BLOCK_RECORD
  5
223
100
AcDbSymbolTableRecord
100
AcDbBlockTableRecord
  2
*Model_Space
  0
BLOCK_RECORD
  5
224
100
AcDbSymbolTableRecord
100
AcDbBlockTableRecord
  2
*Paper_Space
  0
BLOCK_RECORD
  5
225
100
AcDbSymbolTableRecord
100
AcDbBlockTableRecord
  2
_FILLED
  0
BLOCK_RECORD
  5
226
100
AcDbSymbolTableRecord
100
AcDbBlockTableRecord
  2
*D0
  0
BLOCK_RECORD
  5
227
100
AcDbSymbolTableRecord
100
AcDbBlockTableRecord
  2
*D1
  0
BLOCK_RECORD
  5
228
100
AcDbSymbolTableRecord
100
AcDbBlockTableRecord
  2
*D2
  0
ENDTAB
  0
TABLE
  2
DIMSTYLE
  5
A
100
AcDbSymbolTable
 70
1
100
AcDbDimStyleTable
 71
0
  0
DIMSTYLE
105
229
100
AcDbSymbolTableRecord
100
AcDbDimStyleTableRecord
  2
STANDARD
 70
0
  3

  4

 40
1.0
 41
3.0
 42
0.5
 43
0.38
 44
1.5
 45
0.0
 46
0.0
 47
0.01
 48
0.01
140
3.0
141
0.09
142
0.0
143
25.4
144
1.0
145
0.0
146
1.0
147
0.625
 71
1
 72
0
 73
0
 74
0
 75
0
 76
0
 77
1
 78
8
 79
2
170
0
171
1
172
0
173
0
174
0
175
0
176
0
177
0
178
0
270
2
179
2
271
2
272
2
273
2
274
2
275
0
280
0
281
0
282
0
283
1
284
8
285
0
286
0
287
3
288
0
340
11
278
44
341
225
342
225
343
225
344
225
  0
DIMSTYLE
105
22A
100
AcDbSymbolTableRecord
100
AcDbDimStyleTableRecord
  2
DIMSTYLE_1
 70
0
  3

  4

 40
1.0
 41
3.0
 42
0.5
 43
0.38
 44
1.5
 45
0.0
 46
0.0
 47
0.0
 48
0.0
140
3.0
141
0.09
142
0.0
143
25.4
144
1.0
145
0.0
146
1.0
147
0.75
 71
0
 72
0
 73
0
 74
0
 75
0
 76
0
 77
1
 78
8
 79
2
170
0
171
1
172
0
173
0
174
0
175
0
176
0
177
0
178
0
270
2
179
2
271
2
272
2
273
2
274
2
275
0
280
0
281
0
282
0
283
1
284
8
285
0
286
0
287
3
288
0
340
11
278
44
341
225
342
225
343
225
344
225
  0
DIMSTYLE
105
22B
100
AcDbSymbolTableRecord
100
AcDbDimStyleTableRecord
  2
DIMSTYLE_2
 70
0
  3

  4

 40
1.0
 41
3.0
 42
0.5
 43
0.38
 44
1.5
 45
0.0
 46
0.0
 47
0.0
 48
0.0
140
3.0
141
0.09
142
0.0
143
25.4
144
1.0
145
0.0
146
1.0
147
0.75
 71
0
 72
0
 73
0
 74
0
 75
0
 76
0
 77
1
 78
8
 79
2
170
0
171
1
172
0
173
0
174
0
175
0
176
0
177
0
178
0
270
2
179
2
271
1
272
1
273
2
274
2
275
0
280
0
281
0
282
0
283
1
284
8
285
0
286
0
287
3
288
0
340
11
278
44
341
225
342
225
343
225
344
225
  0
ENDTAB
  0
ENDSEC
  0
SECTION
  2
BLOCKS
  0
BLOCK
  5
20
100
AcDbEntity
  8
0
100
AcDbBlockBegin
  2
*Model_Space
 70
0
 10
0.0
 20
0.0
 30
0.0
  3
*Model_Space
  1

  0
ENDBLK
  5
21
100
AcDbEntity
  8
0
100
AcDbBlockEnd
  0
BLOCK
  5
1C
100
AcDbEntity
  8
0
100
AcDbBlockBegin
  2
*Paper_Space
 70
0
 10
0.0
 20
0.0
 30
0.0
  3
*Paper_Space
  1

  0
ENDBLK
  5
1D
100
AcDbEntity
  8
0
100
AcDbBlockEnd
  0
BLOCK
  5
22C
100
AcDbEntity
  8
0
100
AcDbBlockBegin
  2
_FILLED
 70
64
 10
0.0
 20
0.0
  3
_FILLED
  1

  0
SOLID
  5
22D
100
AcDbEntity
  8
0
  6
BYBLOCK
 62
0
100
AcDbTrace
 10
0.0
 20
0.0
 11
-1.0
 21
0.3166666667
 12
-1.0
 22
-0.3166666667
 13
-1.0
 23
-0.3166666667
  0
ENDBLK
  5
22E
100
AcDbEntity
  8
0
  6
BYBLOCK
 62
0
100
AcDbBlockEnd
  0
BLOCK
  5
22F
100
AcDbEntity
  8
0
100
AcDbBlockBegin
 62
7
  6
CONTINUOUS
  2
*D0
 70
65
 10
0.0
 20
0.0
  3
*D0
  1

  0
LINE
  5
230
100
AcDbEntity
  8
0
100
AcDbLine
 62
7
  6
CONTINUOUS
 10
-11.499329088
 20
13.4810048614
 11
-11.499329088
 21
31.6381003403
  0
LINE
  5
231
100
AcDbEntity
  8
0
100
AcDbLine
 62
7
  6
CONTINUOUS
 10
10.800670912
 20
13.4810048614
 11
10.800670912
 21
31.6381003403
  0
LINE
  5
232
100
AcDbEntity
  8
0
100
AcDbLine
 62
7
  6
CONTINUOUS
 10
-11.499329088
 20
30.1381003403
 11
-0.349329088
 21
30.1381003403
  0
LINE
  5
233
100
AcDbEntity
  8
0
100
AcDbLine
 62
7
  6
CONTINUOUS
 10
10.800670912
 20
30.1381003403
 11
-0.349329088
 21
30.1381003403
  0
INSERT
  5
234
100
AcDbEntity
  8
0
100
AcDbBlockReference
 62
7
  6
CONTINUOUS
  2
_FILLED
 10
-11.499329088
 20
30.1381003403
 41
3.0
 42
3.0
 43
3.0
 50
180.0
  0
INSERT
  5
235
100
AcDbEntity
  8
0
100
AcDbBlockReference
 62
7
  6
CONTINUOUS
  2
_FILLED
 10
10.800670912
 20
30.1381003403
 41
3.0
 42
3.0
 43
3.0
  0
ENDBLK
  5
236
100
AcDbEntity
  8
0
  6
BYBLOCK
 62
0
100
AcDbBlockEnd
  0
BLOCK
  5
237
100
AcDbEntity
  8
0
100
AcDbBlockBegin
 62
7
  6
CONTINUOUS
  2
*D1
 70
65
 10
0.0
 20
0.0
  3
*D1
  1

  0
LINE
  5
238
100
AcDbEntity
  8
0
100
AcDbLine
 62
7
  6
CONTINUOUS
 10
10.7734527172
 20
22.0892428019
 11
20.3532920795
 21
22.0892428019
  0
LINE
  5
239
100
AcDbEntity
  8
0
100
AcDbLine
 62
7
  6
CONTINUOUS
 10
10.7734527172
 20
-22.3272330792
 11
20.3532920795
 21
-22.3272330792
  0
LINE
  5
23A
100
AcDbEntity
  8
0
100
AcDbLine
 62
7
  6
CONTINUOUS
 10
18.8532920795
 20
22.0892428019
 11
18.8532920795
 21
-0.1189951386
  0
LINE
  5
23B
100
AcDbEntity
  8
0
100
AcDbLine
 62
7
  6
CONTINUOUS
 10
18.8532920795
 20
-22.3272330792
 11
18.8532920795
 21
-0.1189951386
  0
INSERT
  5
23C
100
AcDbEntity
  8
0
100
AcDbBlockReference
 62
7
  6
CONTINUOUS
  2
_FILLED
 10
18.8532920795
 20
22.0892428019
 41
3.0
 42
3.0
 43
3.0
 50
90.0
  0
INSERT
  5
23D
100
AcDbEntity
  8
0
100
AcDbBlockReference
 62
7
  6
CONTINUOUS
  2
_FILLED
 10
18.8532920795
 20
-22.3272330792
 41
3.0
 42
3.0
 43
3.0
 50
270.0
  0
ENDBLK
  5
23E
100
AcDbEntity
  8
0
  6
BYBLOCK
 62
0
100
AcDbBlockEnd
  0
BLOCK
  5
23F
100
AcDbEntity
  8
0
100
AcDbBlockBegin
 62
7
  6
CONTINUOUS
  2
*D2
 70
65
 10
0.0
 20
0.0
  3
*D2
  1

  0
LINE
  5
240
100
AcDbEntity
  8
0
100
AcDbLine
 62
7
  6
CONTINUOUS
 10
-27.0509719827
 20
13.4810048614
 11
-27.0509719827
 21
31.5892428019
  0
LINE
  5
241
100
AcDbEntity
  8
0
100
AcDbLine
 62
7
  6
CONTINUOUS
 10
-32.7508507784
 20
0.729148451
 11
-32.7508507784
 21
31.5892428019
  0
LINE
  5
242
100
AcDbEntity
  8
0
100
AcDbLine
 62
7
  6
CONTINUOUS
 10
-27.0509719827
 20
30.0892428019
 11
-16.2869094151
 21
30.0892428019
  0
LINE
  5
243
100
AcDbEntity
  8
0
100
AcDbLine
 62
7
  6
CONTINUOUS
 10
-16.2869094151
 20
30.0892428019
 11
-29.9009113806
 21
30.0892428019
  0
LINE
  5
244
100
AcDbEntity
  8
0
100
AcDbLine
 62
7
  6
CONTINUOUS
 10
-32.7508507784
 20
30.0892428019
 11
-36.7508507784
 21
30.0892428019
  0
LINE
  5
245
100
AcDbEntity
  8
0
100
AcDbLine
 62
7
  6
CONTINUOUS
 10
-36.7508507784
 20
30.0892428019
 11
-29.9009113806
 21
30.0892428019
  0
INSERT
  5
246
100
AcDbEntity
  8
0
100
AcDbBlockReference
 62
7
  6
CONTINUOUS
  2
_FILLED
 10
-27.0509719827
 20
30.0892428019
 41
3.0
 42
3.0
 43
3.0
 50
180.0
  0
INSERT
  5
247
100
AcDbEntity
  8
0
100
AcDbBlockReference
 62
7
  6
CONTINUOUS
  2
_FILLED
 10
-32.7508507784
 20
30.0892428019
 41
3.0
 42
3.0
 43
3.0
  0
ENDBLK
  5
248
100
AcDbEntity
  8
0
  6
BYBLOCK
 62
0
100
AcDbBlockEnd
  0
ENDSEC
  0
SECTION
  2
ENTITIES
  0
DIMENSION
  5
249
100
AcDbEntity
  8
0
100
AcDbDimension
 62
7
  6
CONTINUOUS
  2
*D0
 10
10.800670912
 20
30.1381003403
 11
-4.6350433737
 21
30.1381003403
 70
160
 71
2
 72
2
 41
0.9
 42
22.3
  3
DIMSTYLE_1
100
AcDbAlignedDimension
 13
-11.499329088
 23
12.9810048614
 14
10.800670912
 24
12.9810048614
100
AcDbRotatedDimension
  0
DIMENSION
  5
24A
100
AcDbEntity
  8
0
100
AcDbDimension
 62
7
  6
CONTINUOUS
  2
*D1
 10
18.8532920795
 20
-22.3272330792
 11
18.8532920795
 21
-4.5118522815
 70
160
 71
2
 72
2
 41
0.9
 42
44.4164758811
  3
DIMSTYLE_2
100
AcDbAlignedDimension
 13
10.2734527172
 23
22.0892428019
 14
10.2734527172
 24
-22.3272330792
 50
270.0
100
AcDbRotatedDimension
  0
DIMENSION
  5
24B
100
AcDbEntity
  8
0
100
AcDbDimension
 62
7
  6
CONTINUOUS
  2
*D2
 10
-32.7508507784
 20
30.0892428019
 11
-22.5011951294
 21
30.0892428019
 70
160
 71
1
 72
2
 41
0.9
 42
5.6998787957
  3
DIMSTYLE_1
100
AcDbAlignedDimension
 13
-27.0509719827
 23
12.9810048614
 14
-32.7508507784
 24
0.229148451
 50
180.0
100
AcDbRotatedDimension
  0
LWPOLYLINE
  5
24C
100
AcDbEntity
  8
0
100
AcDbPolyline
 62
7
  6
CONTINUOUS
 90
5
 70
0
 43
0.3500000019
 10
2.650671875
 20
32.6023859863
 10
3.0078120117
 20
32.8166711426
 10
3.0078120117
 20
33.4595292969
 10
2.650671875
 20
33.8880996094
 10
1.7935258789
 20
33.8880996094
  0
LINE
  5
24D
100
AcDbEntity
  8
RACCORDO
100
AcDbLine
 62
7
  6
CONTINUOUS
 10
3.0447172111
 20
-22.3272330792
 11
3.3929358851
 21
-22.2956242477
  0
LINE
  5
24E
100
AcDbEntity
  8
RACCORDO
100
AcDbLine
 62
7
  6
CONTINUOUS
 10
-8.1552827889
 20
-22.3272330792
 11
-7.8070641149
 21
-22.2956242477
  0
LINE
  5
24F
100
AcDbEntity
  8
0
100
AcDbLine
 62
7
  6
CONTINUOUS
 10
10.2734527172
 20
-22.3272330792
 11
7.4566246129
 21
-22.3272330792
  0
LINE
  5
250
100
AcDbEntity
  8
DRAFT
100
AcDbLine
 62
7
  6
CONTINUOUS
 10
3.0447172111
 20
-22.3272330792
 11
-3.7433753871
 21
-22.3272330792
  0
LINE
  5
251
100
AcDbEntity
  8
0
100
AcDbLine
 62
7
  6
CONTINUOUS
 10
-8.1552827889
 20
-22.3272330792
 11
-10.9721108932
 21
-22.3272330792
  0
LINE
  5
252
100
AcDbEntity
  8
RACCORDO
100
AcDbLine
 62
7
  6
CONTINUOUS
 10
-7.6338590342
 20
-22.2903834697
 11
-4.2647991418
 21
-22.2903834697
  0
LINE
  5
253
100
AcDbEntity
  8
RACCORDO
100
AcDbLine
 62
7
  6
CONTINUOUS
 10
3.5661409658
 20
-22.2903834697
 11
6.9352008582
 21
-22.2903834697
  0
LINE
  5
254
100
AcDbEntity
  8
0
100
AcDbLine
 62
250
  6
CONTINUOUS
 10
-10.8712993561
 20
-22.1759389106
 11
10.1726411801
 21
-22.1759389106
  0
LINE
  5
255
100
AcDbEntity
  8
RACCORDO
100
AcDbLine
 62
7
  6
CONTINUOUS
 10
-3.7433753871
 20
-22.3272330792
 11
-4.0915940611
 21
-22.2956242477
  0
LINE
  5
256
100
AcDbEntity
  8
RACCORDO
100
AcDbLine
 62
7
  6
CONTINUOUS
 10
7.4566246129
 20
-22.3272330792
 11
7.1084059389
 21
-22.2956242477
  0
LINE
  5
257
100
AcDbEntity
  8
0
100
AcDbLine
 62
250
  6
CONTINUOUS
 10
-10.8549479004
 20
-21.3263915583
 11
10.1562897244
 21
-21.3263915583
  0
LWPOLYLINE
  5
258
100
AcDbEntity
  8
0
100
AcDbPolyline
 62
250
  6
CONTINUOUS
 90
49
 70
0
 10
-11.3546433139
 20
21.0138601897
 10
-11.3538352472
 20
21.0162469537
 10
-11.3525161772
 20
21.018631273
 10
-11.350687455
 20
21.0210107052
 10
-11.3483509539
 20
21.0233828134
 10
-11.345509067
 20
21.0257451676
 10
-11.3421647052
 20
21.0280953482
 10
-11.3383212941
 20
21.0304309479
 10
-11.3339827705
 20
21.0327495745
 10
-11.3291535783
 20
21.0350488529
 10
-11.3238386638
 20
21.037326428
 10
-11.3180434712
 20
21.039579967
 10
-11.3117739364
 20
21.0418071616
 10
-11.3050364811
 20
21.0440057305
 10
-11.2978380065
 20
21.0461734218
 10
-11.2901858857
 20
21.0483080151
 10
-11.2820879569
 20
21.0504073239
 10
-11.2735525145
 20
21.052469198
 10
-11.2645883014
 20
21.0544915255
 10
-11.2552044994
 20
21.0564722349
 10
-11.2454107202
 20
21.0584092973
 10
-11.2352169955
 20
21.0603007287
 10
-11.2246337665
 20
21.0621445918
 10
-11.2136718735
 20
21.0639389977
 10
-11.2023425446
 20
21.0656821087
 10
-11.1906573843
 20
21.0673721392
 10
-11.1786283615
 20
21.0690073582
 10
-11.1662677974
 20
21.0705860907
 10
-11.1535883528
 20
21.0721067197
 10
-11.1406030149
 20
21.0735676876
 10
-11.1273250846
 20
21.0749674979
 10
-11.1137681621
 20
21.0763047169
 10
-11.0999461337
 20
21.0775779748
 10
-11.0858731571
 20
21.0787859675
 10
-11.071563647
 20
21.0799274576
 10
-11.0570322605
 20
21.0810012759
 10
-11.0422938818
 20
21.0820063226
 10
-11.0273636073
 20
21.0829415682
 10
-11.0122567298
 20
21.0838060547
 10
-10.9969887231
 20
21.0845988966
 10
-10.981575226
 20
21.0853192819
 10
-10.9660320263
 20
21.0859664726
 10
-10.9503750448
 20
21.0865398059
 10
-10.9346203185
 20
21.0870386944
 10
-10.9187839849
 20
21.0874626273
 10
-10.902882265
 20
21.0878111702
 10
-10.8869314465
 20
21.0880839662
 10
-10.8709478677
 20
21.0882807358
 10
-10.8549479004
 20
21.0884012775
  0
LWPOLYLINE
  5
259
100
AcDbEntity
  8
0
100
AcDbPolyline
 62
250
  6
CONTINUOUS
 90
49
 70
0
 10
-11.3546433139
 20
-21.251850467
 10
-11.3538352477
 20
-21.2542372311
 10
-11.3525161783
 20
-21.2566215504
 10
-11.3506874566
 20
-21.2590009828
 10
-11.3483509559
 20
-21.261373091
 10
-11.3455090695
 20
-21.2637354453
 10
-11.3421647081
 20
-21.266085626
 10
-11.3383212974
 20
-21.2684212258
 10
-11.3339827742
 20
-21.2707398524
 10
-11.3291535823
 20
-21.2730391309
 10
-11.3238386682
 20
-21.2753167061
 10
-11.3180434759
 20
-21.2775702452
 10
-11.3117739413
 20
-21.2797974399
 10
-11.3050364863
 20
-21.281996009
 10
-11.2978380118
 20
-21.2841637003
 10
-11.2901858913
 20
-21.2862982937
 10
-11.2820879626
 20
-21.2883976026
 10
-11.2735525204
 20
-21.2904594768
 10
-11.2645883073
 20
-21.2924818044
 10
-11.2552045054
 20
-21.2944625139
 10
-11.2454107263
 20
-21.2963995764
 10
-11.2352170016
 20
-21.2982910079
 10
-11.2246337726
 20
-21.300134871
 10
-11.2136718796
 20
-21.3019292771
 10
-11.2023425507
 20
-21.3036723882
 10
-11.1906573903
 20
-21.3053624188
 10
-11.1786283674
 20
-21.3069976378
 10
-11.1662678032
 20
-21.3085763704
 10
-11.1535883584
 20
-21.3100969995
 10
-11.1406030204
 20
-21.3115579674
 10
-11.1273250899
 20
-21.3129577778
 10
-11.1137681673
 20
-21.3142949969
 10
-11.0999461387
 20
-21.3155682548
 10
-11.0858731619
 20
-21.3167762476
 10
-11.0715636515
 20
-21.3179177378
 10
-11.0570322647
 20
-21.3189915562
 10
-11.0422938858
 20
-21.319996603
 10
-11.027363611
 20
-21.3209318486
 10
-11.0122567332
 20
-21.3217963351
 10
-10.9969887262
 20
-21.3225891771
 10
-10.9815752288
 20
-21.3233095624
 10
-10.9660320288
 20
-21.3239567532
 10
-10.9503750469
 20
-21.3245300865
 10
-10.9346203203
 20
-21.3250289751
 10
-10.9187839864
 20
-21.325452908
 10
-10.902882266
 20
-21.3258014509
 10
-10.8869314472
 20
-21.3260742469
 10
-10.8709478681
 20
-21.3262710165
 10
-10.8549479004
 20
-21.3263915582
  0
LWPOLYLINE
  5
25A
100
AcDbEntity
  8
0
100
AcDbPolyline
 62
250
  6
CONTINUOUS
 90
49
 70
0
 10
-11.3709947696
 20
-21.6766241432
 10
-11.3706980204
 20
-21.6929423009
 10
-11.3698677455
 20
-21.7092430253
 10
-11.3685048319
 20
-21.7255089019
 10
-11.3666107355
 20
-21.7417225531
 10
-11.3641874801
 20
-21.7578666573
 10
-11.3612376543
 20
-21.7739239673
 10
-11.3577644097
 20
-21.7898773283
 10
-11.3537714567
 20
-21.8057096969
 10
-11.3492630613
 20
-21.8214041588
 10
-11.3442440398
 20
-21.8369439469
 10
-11.3387197544
 20
-21.8523124596
 10
-11.3326961067
 20
-21.8674932782
 10
-11.326179532
 20
-21.8824701843
 10
-11.3191769923
 20
-21.8972271777
 10
-11.3116959686
 20
-21.9117484928
 10
-11.3037444531
 20
-21.9260186162
 10
-11.2953309408
 20
-21.9400223023
 10
-11.2864644201
 20
-21.9537445907
 10
-11.2771543634
 20
-21.9671708212
 10
-11.267410717
 20
-21.9802866502
 10
-11.2572438904
 20
-21.9930780655
 10
-11.2466647451
 20
-22.0055314015
 10
-11.2356845833
 20
-22.0176333541
 10
-11.2243151355
 20
-22.029370994
 10
-11.2125685479
 20
-22.0407317817
 10
-11.2004573701
 20
-22.05170358
 10
-11.1879945407
 20
-22.0622746672
 10
-11.1751933742
 20
-22.07243375
 10
-11.1620675467
 20
-22.082169975
 10
-11.1486310808
 20
-22.0914729405
 10
-11.1348983313
 20
-22.100332708
 10
-11.1208839694
 20
-22.1087398122
 10
-11.1066029671
 20
-22.1166852715
 10
-11.0920705814
 20
-22.1241605974
 10
-11.0773023376
 20
-22.1311578038
 10
-11.0623140133
 20
-22.1376694154
 10
-11.0471216211
 20
-22.1436884754
 10
-11.0317413915
 20
-22.1492085536
 10
-11.0161897558
 20
-22.1542237526
 10
-11.0004833283
 20
-22.1587287145
 10
-10.9846388889
 20
-22.1627186265
 10
-10.9686733647
 20
-22.166189226
 10
-10.9526038123
 20
-22.1691368052
 10
-10.9364473993
 20
-22.1715582152
 10
-10.9202213863
 20
-22.1734508691
 10
-10.9039431081
 20
-22.1748127448
 10
-10.8876299554
 20
-22.1756423874
 10
-10.8712993561
 20
-22.1759389106
  0
LWPOLYLINE
  5
25B
100
AcDbEntity
  8
0
100
AcDbPolyline
 62
250
  6
CONTINUOUS
 90
49
 70
0
 10
-11.3709947696
 20
21.4386338659
 10
-11.3706980204
 20
21.4549520245
 10
-11.3698677454
 20
21.4712527499
 10
-11.3685048316
 20
21.4875186273
 10
-11.3666107351
 20
21.5037322794
 10
-11.3641874794
 20
21.5198763844
 10
-11.3612376533
 20
21.5359336951
 10
-11.3577644083
 20
21.5518870569
 10
-11.353771455
 20
21.5677194261
 10
-11.3492630591
 20
21.5834138885
 10
-11.3442440373
 20
21.5989536772
 10
-11.3387197513
 20
21.6143221903
 10
-11.3326961032
 20
21.6295030093
 10
-11.3261795281
 20
21.6444799157
 10
-11.3191769879
 20
21.6592369093
 10
-11.3116959637
 20
21.6737582247
 10
-11.3037444478
 20
21.6880283481
 10
-11.295330935
 20
21.7020320344
 10
-11.2864644139
 20
21.7157543227
 10
-11.2771543568
 20
21.7291805532
 10
-11.26741071
 20
21.7422963821
 10
-11.257243883
 20
21.7550877972
 10
-11.2466647374
 20
21.7675411331
 10
-11.2356845753
 20
21.7796430853
 10
-11.2243151272
 20
21.791380725
 10
-11.2125685395
 20
21.8027415124
 10
-11.2004573615
 20
21.8137133103
 10
-11.1879945319
 20
21.8242843971
 10
-11.1751933654
 20
21.8344434795
 10
-11.1620675379
 20
21.844179704
 10
-11.1486310721
 20
21.8534826691
 10
-11.1348983227
 20
21.8623424361
 10
-11.120883961
 20
21.8707495398
 10
-11.1066029589
 20
21.8786949986
 10
-11.0920705734
 20
21.8861703241
 10
-11.07730233
 20
21.89316753
 10
-11.0623140061
 20
21.8996791411
 10
-11.0471216142
 20
21.9056982007
 10
-11.0317413851
 20
21.9112182785
 10
-11.0161897499
 20
21.9162334771
 10
-11.000483323
 20
21.9207384386
 10
-10.9846388842
 20
21.9247283503
 10
-10.9686733606
 20
21.9281989495
 10
-10.9526038088
 20
21.9311465285
 10
-10.9364473965
 20
21.9335679383
 10
-10.9202213842
 20
21.935460592
 10
-10.9039431067
 20
21.9368224676
 10
-10.8876299547
 20
21.9376521101
 10
-10.8712993561
 20
21.9379486333
  0
LWPOLYLINE
  5
25C
100
AcDbEntity
  8
0
100
AcDbPolyline
 62
250
  6
CONTINUOUS
 90
11
 70
0
 10
-11.3202804601
 20
9.3715048614
 10
-11.3194665145
 20
9.3718089741
 10
-11.318141827
 20
9.3721127755
 10
-11.3163077538
 20
9.3724159545
 10
-11.3139661725
 20
9.3727182008
 10
-11.3111194805
 20
9.3730192049
 10
-11.307770592
 20
9.3733186587
 10
-11.3039229356
 20
9.3736162555
 10
-11.2995804505
 20
9.3739116907
 10
-11.2947475823
 20
9.3742046619
 10
-11.2894292788
 20
9.3744948691
  0
LWPOLYLINE
  5
25D
100
AcDbEntity
  8
0
100
AcDbPolyline
 62
250
  6
CONTINUOUS
 90
12
 70
0
 10
-11.3202804601
 20
-9.6094951386
 10
-11.3194665145
 20
-9.6097992514
 10
-11.318141827
 20
-9.6101030528
 10
-11.3163077538
 20
-9.6104062318
 10
-11.3139661726
 20
-9.6107084781
 10
-11.3111194805
 20
-9.6110094822
 10
-11.3077705921
 20
-9.611308936
 10
-11.3039229357
 20
-9.6116065328
 10
-11.2995804506
 20
-9.611901968
 10
-11.2947475824
 20
-9.6121949392
 10
-11.2894292788
 20
-9.6124851464
 10
-11.2773586363
 20
-9.6130560836
  0
LINE
  5
25E
100
AcDbEntity
  8
0
100
AcDbLine
 62
250
  6
CONTINUOUS
 10
-11.3622062688
 20
21.355018284
 11
-11.3629992354
 21
21.3693291222
  0
LINE
  5
25F
100
AcDbEntity
  8
0
100
AcDbLine
 62
250
  6
CONTINUOUS
 10
-11.3614415328
 20
21.3395158158
 11
-11.3622062688
 21
21.355018284
  0
LINE
  5
260
100
AcDbEntity
  8
0
100
AcDbLine
 62
250
  6
CONTINUOUS
 10
-11.3607066775
 20
21.3228551992
 11
-11.3614415328
 21
21.3395158158
  0
LINE
  5
261
100
AcDbEntity
  8
0
100
AcDbLine
 62
250
  6
CONTINUOUS
 10
-11.3596656965
 20
21.2958110637
 11
-11.3607066775
 21
21.3228551992
  0
LINE
  5
262
100
AcDbEntity
  8
0
100
AcDbLine
 62
250
  6
CONTINUOUS
 10
-11.3587040654
 20
21.2664573631
 11
-11.3596656965
 21
21.2958110637
  0
LINE
  5
263
100
AcDbEntity
  8
0
100
AcDbLine
 62
250
  6
CONTINUOUS
 10
-10.8633036846
 20
21.7993340215
 11
-10.8645403693
 21
21.8375905604
  0
LINE
  5
264
100
AcDbEntity
  8
0
100
AcDbLine
 62
250
  6
CONTINUOUS
 10
-11.3578280074
 20
21.2349842681
 11
-11.3587040654
 21
21.2664573631
  0
LINE
  5
265
100
AcDbEntity
  8
0
100
AcDbLine
 62
250
  6
CONTINUOUS
 10
-10.8621247489
 20
21.7555050858
 11
-10.8633036846
 21
21.7993340215
  0
LINE
  5
266
100
AcDbEntity
  8
0
100
AcDbLine
 62
250
  6
CONTINUOUS
 10
-11.3568028359
 20
21.190080462
 11
-11.3578280074
 21
21.2349842681
  0
LWPOLYLINE
  5
267
100
AcDbEntity
  8
0
100
AcDbPolyline
 62
250
  6
CONTINUOUS
 90
40
 70
0
 10
-11.3171359001
 20
0.2264825159
 10
-11.3169714107
 20
0.2184311935
 10
-11.3164831105
 20
0.2103929253
 10
-11.3156717912
 20
0.2023807444
 10
-11.3145387682
 20
0.1944076416
 10
-11.3130858787
 20
0.1864865442
 10
-11.3113154782
 20
0.1786302952
 10
-11.3092304374
 20
0.1708516328
 10
-11.3068341367
 20
0.1631631689
 10
-11.3041304616
 20
0.1555773694
 10
-11.3011237957
 20
0.1481065339
 10
-11.297819014
 20
0.1407627753
 10
-11.2942214747
 20
0.1335580006
 10
-11.2903370109
 20
0.1265038914
 10
-11.2861719206
 20
0.1196118852
 10
-11.2817329571
 20
0.1128931564
 10
-11.2770273177
 20
0.1063585986
 10
-11.2720626319
 20
0.1000188068
 10
-11.2668469494
 20
0.0938840601
 10
-11.2613887267
 20
0.0879643053
 10
-11.2556968137
 20
0.0822691406
 10
-11.2497804391
 20
0.0768077998
 10
-11.2436491956
 20
0.0715891379
 10
-11.2373130243
 20
0.0666216163
 10
-11.2307821984
 20
0.0619132892
 10
-11.2240673069
 20
0.0574717905
 10
-11.2171792371
 20
0.0533043216
 10
-11.2101291573
 20
0.0494176395
 10
-11.2029284981
 20
0.0458180459
 10
-11.1955889346
 20
0.0425113771
 10
-11.188122367
 20
0.0395029945
 10
-11.1805409014
 20
0.0367977757
 10
-11.1728568302
 20
0.034400107
 10
-11.165082612
 20
0.0323138758
 10
-11.157230852
 20
0.0305424646
 10
-11.1493142806
 20
0.0290887457
 10
-11.1413457336
 20
0.027955076
 10
-11.1333381311
 20
0.0271432935
 10
-11.1253044562
 20
0.0266547146
 10
-11.1172577347
 20
0.0264901313
  0
LINE
  5
268
100
AcDbEntity
  8
0
100
AcDbLine
 62
250
  6
CONTINUOUS
 10
-10.8606559058
 20
21.6888947482
 11
-10.8621247489
 21
21.7555050858
  0
LINE
  5
269
100
AcDbEntity
  8
0
100
AcDbLine
 62
250
  6
CONTINUOUS
 10
-11.3559514417
 20
21.1422821538
 11
-11.3568028359
 21
21.190080462
  0
LINE
  5
26A
100
AcDbEntity
  8
0
100
AcDbLine
 62
250
  6
CONTINUOUS
 10
-10.8590086571
 20
21.5935959731
 11
-10.8606559058
 21
21.6888947482
  0
LINE
  5
26B
100
AcDbEntity
  8
0
100
AcDbLine
 62
250
  6
CONTINUOUS
 10
-11.3551467229
 20
21.0793290324
 11
-11.3559514417
 21
21.1422821538
  0
LINE
  5
26C
100
AcDbEntity
  8
0
100
AcDbLine
 62
250
  6
CONTINUOUS
 10
-10.8571074762
 20
21.4408424362
 11
-10.8590086571
 21
21.5935959731
  0
LINE
  5
26D
100
AcDbEntity
  8
0
100
AcDbLine
 62
250
  6
CONTINUOUS
 10
-11.3546433139
 20
21.0138601897
 11
-11.3551467229
 21
21.0793290324
  0
LINE
  5
26E
100
AcDbEntity
  8
0
100
AcDbLine
 62
250
  6
CONTINUOUS
 10
-10.855588561
 20
21.2450063915
 11
-10.8571074762
 21
21.4408424362
  0
LINE
  5
26F
100
AcDbEntity
  8
0
100
AcDbLine
 62
250
  6
CONTINUOUS
 10
-11.3490853476
 20
19.9117273661
 11
-11.3546433139
 21
21.0138601897
  0
LINE
  5
270
100
AcDbEntity
  8
0
100
AcDbLine
 62
250
  6
CONTINUOUS
 10
-10.8493899312
 20
19.9801393172
 11
-10.8549479004
 21
21.088401281
  0
LINE
  5
271
100
AcDbEntity
  8
0
100
AcDbLine
 62
250
  6
CONTINUOUS
 10
-11.3440069447
 20
18.8077642297
 11
-11.3490853476
 21
19.9117273661
  0
LINE
  5
272
100
AcDbEntity
  8
0
100
AcDbLine
 62
250
  6
CONTINUOUS
 10
-10.8443115281
 20
18.8699729365
 11
-10.8493899312
 21
19.9801393172
  0
LINE
  5
273
100
AcDbEntity
  8
0
100
AcDbLine
 62
250
  6
CONTINUOUS
 10
-11.3394083793
 20
17.702035032
 11
-11.3440069447
 21
18.8077642297
  0
LINE
  5
274
100
AcDbEntity
  8
0
100
AcDbLine
 62
250
  6
CONTINUOUS
 10
-10.8397129645
 20
17.7580739609
 11
-10.8443115281
 21
18.8699729365
  0
LINE
  5
275
100
AcDbEntity
  8
0
100
AcDbLine
 62
250
  6
CONTINUOUS
 10
-11.3352905928
 20
16.5947539279
 11
-11.3394083793
 21
17.702035032
  0
LINE
  5
276
100
AcDbEntity
  8
0
100
AcDbLine
 62
250
  6
CONTINUOUS
 10
-10.835595179
 20
16.6446143933
 11
-10.8397129645
 21
17.7580739609
  0
LINE
  5
277
100
AcDbEntity
  8
0
100
AcDbLine
 62
250
  6
CONTINUOUS
 10
-11.3316542657
 20
15.4861137311
 11
-11.3352905928
 21
16.5947539279
  0
LINE
  5
278
100
AcDbEntity
  8
0
100
AcDbLine
 62
250
  6
CONTINUOUS
 10
-10.8319588527
 20
15.5297665497
 11
-10.835595179
 21
16.6446143933
  0
LINE
  5
279
100
AcDbEntity
  8
0
100
AcDbLine
 62
7
  6
CONTINUOUS
 10
-11.4730217786
 20
-21.8297424464
 11
-11.499329088
 21
-13.2189951386
  0
LINE
  5
27A
100
AcDbEntity
  8
0
100
AcDbLine
 62
250
  6
CONTINUOUS
 10
-10.8549479004
 20
21.088401281
 11
-10.855588561
 21
21.2450063915
  0
LINE
  5
27B
100
AcDbEntity
  8
0
100
AcDbLine
 62
250
  6
CONTINUOUS
 10
-11.328499819
 20
14.3762430864
 11
-11.3316542657
 21
15.4861137311
  0
LINE
  5
27C
100
AcDbEntity
  8
0
100
AcDbLine
 62
250
  6
CONTINUOUS
 10
-10.8288044067
 20
14.4137029464
 11
-10.8319588527
 21
15.5297665497
  0
LINE
  5
27D
100
AcDbEntity
  8
0
100
AcDbLine
 62
250
  6
CONTINUOUS
 10
-11.3258278359
 20
13.2653350583
 11
-11.328499819
 21
14.3762430864
  0
LINE
  5
27E
100
AcDbEntity
  8
0
100
AcDbLine
 62
250
  6
CONTINUOUS
 10
-10.8261324238
 20
13.2965962078
 11
-10.8288044067
 21
14.4137029464
  0
LINE
  5
27F
100
AcDbEntity
  8
0
100
AcDbLine
 62
250
  6
CONTINUOUS
 10
-11.3236387454
 20
12.1535830782
 11
-11.3258278359
 21
13.2653350583
  0
LINE
  5
280
100
AcDbEntity
  8
0
100
AcDbLine
 62
250
  6
CONTINUOUS
 10
-10.8239433336
 20
12.1786192155
 11
-10.8261324238
 21
13.2965962078
  0
LINE
  5
281
100
AcDbEntity
  8
0
100
AcDbLine
 62
250
  6
CONTINUOUS
 10
-11.3219328014
 20
11.0411163324
 11
-11.3236387454
 21
12.1535830782
  0
LINE
  5
282
100
AcDbEntity
  8
0
100
AcDbLine
 62
250
  6
CONTINUOUS
 10
-10.8222373894
 20
11.0599449743
 11
-10.8239433336
 21
12.1786192155
  0
LINE
  5
283
100
AcDbEntity
  8
0
100
AcDbLine
 62
250
  6
CONTINUOUS
 10
-11.320710378
 20
9.9281721598
 11
-11.3219328014
 21
11.0411163324
  0
LINE
  5
284
100
AcDbEntity
  8
0
100
AcDbLine
 62
250
  6
CONTINUOUS
 10
-10.8210149652
 20
9.9407465213
 11
-10.8222373894
 21
11.0599449743
  0
LINE
  5
285
100
AcDbEntity
  8
0
100
AcDbLine
 62
250
  6
CONTINUOUS
 10
-11.3196423138
 20
8.3554745126
 11
-11.320710378
 21
9.9281721598
  0
LINE
  5
286
100
AcDbEntity
  8
0
100
AcDbLine
 62
250
  6
CONTINUOUS
 10
-10.8199470531
 20
8.3642226194
 11
-10.8210149652
 21
9.9407465213
  0
LINE
  5
287
100
AcDbEntity
  8
0
100
AcDbLine
 62
250
  6
CONTINUOUS
 10
-11.3181609958
 20
5.3072526273
 11
-11.3196423138
 21
8.3554745126
  0
LINE
  5
288
100
AcDbEntity
  8
0
100
AcDbLine
 62
250
  6
CONTINUOUS
 10
-10.8184660807
 20
5.3137156842
 11
-10.8199470531
 21
8.3642226194
  0
LINE
  5
289
100
AcDbEntity
  8
0
100
AcDbLine
 62
250
  6
CONTINUOUS
 10
-11.3175343943
 20
3.2749983836
 11
-11.3181609958
 21
5.3072526273
  0
LINE
  5
28A
100
AcDbEntity
  8
0
100
AcDbLine
 62
250
  6
CONTINUOUS
 10
-10.8178393481
 20
3.2799448191
 11
-10.8184660807
 21
5.3137156842
  0
LINE
  5
28B
100
AcDbEntity
  8
0
100
AcDbLine
 62
7
  6
CONTINUOUS
 10
-11.499329088
 20
-0.4189418417
 11
-11.499329088
 21
-13.2189951386
  0
LINE
  5
28C
100
AcDbEntity
  8
0
100
AcDbLine
 62
7
  6
CONTINUOUS
 10
-11.499329088
 20
0.1809515644
 11
-11.499329088
 21
12.9810048614
  0
LINE
  5
28D
100
AcDbEntity
  8
0
100
AcDbLine
 62
250
  6
CONTINUOUS
 10
-11.3171360004
 20
0.2264824908
 11
-11.3175343943
 21
3.2749983836
  0
LINE
  5
28E
100
AcDbEntity
  8
0
100
AcDbLine
 62
250
  6
CONTINUOUS
 10
-10.8174405428
 20
0.029016808
 11
-10.8178393481
 21
3.2799448191
  0
LINE
  5
28F
100
AcDbEntity
  8
0
100
AcDbLine
 62
250
  6
CONTINUOUS
 10
-11.3173293969
 20
-2.4968350676
 11
-11.3171360004
 21
-0.4644727681
  0
LINE
  5
290
100
AcDbEntity
  8
0
100
AcDbLine
 62
250
  6
CONTINUOUS
 10
-10.8176336414
 20
-2.5010161416
 11
-10.8174405428
 21
-0.2670070853
  0
LINE
  5
291
100
AcDbEntity
  8
0
100
AcDbLine
 62
250
  6
CONTINUOUS
 10
-11.3178115953
 20
-4.5291249682
 11
-11.3173293969
 21
-2.4968350676
  0
LINE
  5
292
100
AcDbEntity
  8
0
100
AcDbLine
 62
250
  6
CONTINUOUS
 10
-10.8181167935
 20
-4.5348320205
 11
-10.8176336414
 21
-2.5010161416
  0
LWPOLYLINE
  5
293
100
AcDbEntity
  8
0
100
AcDbPolyline
 62
250
  6
CONTINUOUS
 90
3
 70
0
 10
-11.319076355
 20
-7.5774128154
 10
-11.3185825837
 20
-6.5613392153
 10
-11.3178115953
 20
-4.5291249682
  0
LWPOLYLINE
  5
294
100
AcDbEntity
  8
0
100
AcDbPolyline
 62
250
  6
CONTINUOUS
 90
3
 70
0
 10
-10.8193812105
 20
-7.5854006064
 10
-10.8188875187
 20
-6.5685624745
 10
-10.8181167935
 20
-4.5348320205
  0
LINE
  5
295
100
AcDbEntity
  8
0
100
AcDbLine
 62
250
  6
CONTINUOUS
 10
-11.320710378
 20
-10.1661624371
 11
-11.319076355
 21
-7.5774128154
  0
LINE
  5
296
100
AcDbEntity
  8
0
100
AcDbLine
 62
250
  6
CONTINUOUS
 10
-10.8210149652
 20
-10.1787367986
 11
-10.8193812105
 21
-7.5854006064
  0
LINE
  5
297
100
AcDbEntity
  8
0
100
AcDbLine
 62
250
  6
CONTINUOUS
 10
-11.3219328014
 20
-11.2791066097
 11
-11.320710378
 21
-10.1661624371
  0
LINE
  5
298
100
AcDbEntity
  8
0
100
AcDbLine
 62
250
  6
CONTINUOUS
 10
-10.8222373894
 20
-11.2979352516
 11
-10.8210149652
 21
-10.1787367986
  0
LINE
  5
299
100
AcDbEntity
  8
0
100
AcDbLine
 62
250
  6
CONTINUOUS
 10
-11.3236387454
 20
-12.3915733555
 11
-11.3219328014
 21
-11.2791066097
  0
LINE
  5
29A
100
AcDbEntity
  8
0
100
AcDbLine
 62
250
  6
CONTINUOUS
 10
-10.8239433336
 20
-12.4166094928
 11
-10.8222373894
 21
-11.2979352516
  0
LINE
  5
29B
100
AcDbEntity
  8
0
100
AcDbLine
 62
250
  6
CONTINUOUS
 10
-11.3258278359
 20
-13.5033253356
 11
-11.3236387454
 21
-12.3915733555
  0
LINE
  5
29C
100
AcDbEntity
  8
0
100
AcDbLine
 62
250
  6
CONTINUOUS
 10
-10.8261324238
 20
-13.5345864851
 11
-10.8239433336
 21
-12.4166094928
  0
LINE
  5
29D
100
AcDbEntity
  8
0
100
AcDbLine
 62
250
  6
CONTINUOUS
 10
-11.328499819
 20
-14.6142333637
 11
-11.3258278359
 21
-13.5033253356
  0
LINE
  5
29E
100
AcDbEntity
  8
0
100
AcDbLine
 62
250
  6
CONTINUOUS
 10
-10.8288044067
 20
-14.6516932237
 11
-10.8261324238
 21
-13.5345864851
  0
LINE
  5
29F
100
AcDbEntity
  8
0
100
AcDbLine
 62
250
  6
CONTINUOUS
 10
-11.3316542657
 20
-15.7241040084
 11
-11.328499819
 21
-14.6142333637
  0
LINE
  5
2A0
100
AcDbEntity
  8
0
100
AcDbLine
 62
250
  6
CONTINUOUS
 10
-10.8319588527
 20
-15.767756827
 11
-10.8288044067
 21
-14.6516932237
  0
LINE
  5
2A1
100
AcDbEntity
  8
0
100
AcDbLine
 62
7
  6
CONTINUOUS
 10
-11.4730217786
 20
21.5917521691
 11
-11.499329088
 21
12.9810048614
  0
LINE
  5
2A2
100
AcDbEntity
  8
0
100
AcDbLine
 62
250
  6
CONTINUOUS
 10
-11.3352905928
 20
-16.8327442052
 11
-11.3316542657
 21
-15.7241040084
  0
LINE
  5
2A3
100
AcDbEntity
  8
0
100
AcDbLine
 62
250
  6
CONTINUOUS
 10
-10.835595179
 20
-16.8826046706
 11
-10.8319588527
 21
-15.767756827
  0
LINE
  5
2A4
100
AcDbEntity
  8
0
100
AcDbLine
 62
250
  6
CONTINUOUS
 10
-11.3394083793
 20
-17.9400253093
 11
-11.3352905928
 21
-16.8327442052
  0
LINE
  5
2A5
100
AcDbEntity
  8
0
100
AcDbLine
 62
250
  6
CONTINUOUS
 10
-10.8397129645
 20
-17.9960642382
 11
-10.835595179
 21
-16.8826046706
  0
LINE
  5
2A6
100
AcDbEntity
  8
0
100
AcDbLine
 62
250
  6
CONTINUOUS
 10
-11.3440069447
 20
-19.045754507
 11
-11.3394083793
 21
-17.9400253093
  0
LINE
  5
2A7
100
AcDbEntity
  8
0
100
AcDbLine
 62
250
  6
CONTINUOUS
 10
-10.8443115281
 20
-19.1079632138
 11
-10.8397129645
 21
-17.9960642382
  0
LINE
  5
2A8
100
AcDbEntity
  8
0
100
AcDbLine
 62
250
  6
CONTINUOUS
 10
-11.3490853476
 20
-20.1497176434
 11
-11.3440069447
 21
-19.045754507
  0
LINE
  5
2A9
100
AcDbEntity
  8
0
100
AcDbLine
 62
250
  6
CONTINUOUS
 10
-10.8493899312
 20
-20.2181295945
 11
-10.8443115281
 21
-19.1079632138
  0
LINE
  5
2AA
100
AcDbEntity
  8
0
100
AcDbLine
 62
250
  6
CONTINUOUS
 10
-11.3550215007
 20
-21.3043820535
 11
-11.3490853476
 21
-20.1497176434
  0
LINE
  5
2AB
100
AcDbEntity
  8
0
100
AcDbLine
 62
250
  6
CONTINUOUS
 10
-10.8568778209
 20
-21.6554364325
 11
-10.8493899312
 21
-20.2181295945
  0
LINE
  5
2AC
100
AcDbEntity
  8
0
100
AcDbLine
 62
250
  6
CONTINUOUS
 10
-11.3557670235
 20
-21.3679402379
 11
-11.3550215007
 21
-21.3043820535
  0
LINE
  5
2AD
100
AcDbEntity
  8
0
100
AcDbLine
 62
250
  6
CONTINUOUS
 10
-10.8587069283
 20
-21.8110562605
 11
-10.8568778209
 21
-21.6554364325
  0
LINE
  5
2AE
100
AcDbEntity
  8
0
100
AcDbLine
 62
250
  6
CONTINUOUS
 10
-10.8603086736
 20
-21.9088517808
 11
-10.8587069283
 21
-21.8110562605
  0
LINE
  5
2AF
100
AcDbEntity
  8
0
100
AcDbLine
 62
250
  6
CONTINUOUS
 10
-11.3565731774
 20
-21.4163665624
 11
-11.3557670235
 21
-21.3679402379
  0
LWPOLYLINE
  5
2B0
100
AcDbEntity
  8
0
100
AcDbPolyline
 62
250
  6
CONTINUOUS
 90
40
 70
0
 10
-11.3171359001
 20
-0.4644727932
 10
-11.3169714108
 20
-0.4564214719
 10
-11.3164831107
 20
-0.4483832048
 10
-11.3156717916
 20
-0.440371025
 10
-11.3145387689
 20
-0.4323979232
 10
-11.3130858798
 20
-0.4244768268
 10
-11.3113154798
 20
-0.4166205788
 10
-11.3092304394
 20
-0.4088419172
 10
-11.3068341394
 20
-0.4011534541
 10
-11.3041304649
 20
-0.3935676554
 10
-11.3011237997
 20
-0.3860968205
 10
-11.2978190187
 20
-0.3787530625
 10
-11.2942214801
 20
-0.3715482882
 10
-11.290337017
 20
-0.3644941794
 10
-11.2861719275
 20
-0.3576021734
 10
-11.2817329648
 20
-0.3508834447
 10
-11.2770273261
 20
-0.344348887
 10
-11.2720626409
 20
-0.3380090951
 10
-11.266846959
 20
-0.3318743483
 10
-11.2613887369
 20
-0.3259545933
 10
-11.2556968244
 20
-0.3202594282
 10
-11.2497804503
 20
-0.314798087
 10
-11.2436492071
 20
-0.3095794246
 10
-11.237313036
 20
-0.3046119025
 10
-11.2307822103
 20
-0.2999035747
 10
-11.2240673188
 20
-0.2954620754
 10
-11.217179249
 20
-0.2912946058
 10
-11.2101291689
 20
-0.2874079229
 10
-11.2029285094
 20
-0.2838083286
 10
-11.1955889455
 20
-0.280501659
 10
-11.1881223773
 20
-0.2774932757
 10
-11.180540911
 20
-0.2747880562
 10
-11.1728568389
 20
-0.2723903868
 10
-11.1650826199
 20
-0.270304155
 10
-11.1572308587
 20
-0.2685327433
 10
-11.1493142862
 20
-0.2670790239
 10
-11.141345738
 20
-0.2659453538
 10
-11.133338134
 20
-0.2651335711
 10
-11.1253044578
 20
-0.2646449919
 10
-11.1172577347
 20
-0.2644804086
  0
LINE
  5
2B1
100
AcDbEntity
  8
0
100
AcDbLine
 62
250
  6
CONTINUOUS
 10
-10.8617460348
 20
-21.9776955689
 11
-10.8603086736
 21
-21.9088517808
  0
LINE
  5
2B2
100
AcDbEntity
  8
0
100
AcDbLine
 62
250
  6
CONTINUOUS
 10
-11.3575560772
 20
-21.4620498762
 11
-11.3565731774
 21
-21.4163665624
  0
LINE
  5
2B3
100
AcDbEntity
  8
0
100
AcDbLine
 62
250
  6
CONTINUOUS
 10
-10.8629040064
 20
-22.0233204938
 11
-10.8617460348
 21
-21.9776955689
  0
LINE
  5
2B4
100
AcDbEntity
  8
0
100
AcDbLine
 62
250
  6
CONTINUOUS
 10
-11.3584023277
 20
-21.4941845378
 11
-11.3575560772
 21
-21.4620498762
  0
LINE
  5
2B5
100
AcDbEntity
  8
0
100
AcDbLine
 62
250
  6
CONTINUOUS
 10
-11.3593361056
 20
-21.5242663491
 11
-11.3584023277
 21
-21.4941845378
  0
LWPOLYLINE
  5
2B6
100
AcDbEntity
  8
0
100
AcDbPolyline
 62
250
  6
CONTINUOUS
 90
3
 70
0
 10
-10.8645403693
 20
-22.0755808377
 10
-10.8641223179
 20
-22.0634638997
 10
-10.8629040064
 20
-22.0233204938
  0
LINE
  5
2B7
100
AcDbEntity
  8
0
100
AcDbLine
 62
250
  6
CONTINUOUS
 10
-11.360351367
 20
-21.5521003834
 11
-11.3593361056
 21
-21.5242663491
  0
LINE
  5
2B8
100
AcDbEntity
  8
0
100
AcDbLine
 62
250
  6
CONTINUOUS
 10
-11.3610700717
 20
-21.5693138443
 11
-11.360351367
 21
-21.5521003834
  0
LINE
  5
2B9
100
AcDbEntity
  8
0
100
AcDbLine
 62
250
  6
CONTINUOUS
 10
-11.3618202599
 20
-21.5854045412
 11
-11.3610700717
 21
-21.5693138443
  0
LWPOLYLINE
  5
2BA
100
AcDbEntity
  8
0
100
AcDbPolyline
 62
250
  6
CONTINUOUS
 90
3
 70
0
 10
-11.3629992354
 20
-21.6073193995
 10
-11.3625995437
 20
-21.6003187806
 10
-11.3618202599
 20
-21.5854045412
  0
LINE
  5
2BB
100
AcDbEntity
  8
0
100
AcDbLine
 62
250
  6
CONTINUOUS
 10
10.5907711027
 20
-9.6124851464
 11
10.5787004602
 21
-9.6130560836
  0
LINE
  5
2BC
100
AcDbEntity
  8
0
100
AcDbLine
 62
250
  6
CONTINUOUS
 10
10.5787004602
 20
-9.6130560836
 11
10.5647597646
 21
-9.6136124421
  0
LINE
  5
2BD
100
AcDbEntity
  8
0
100
AcDbLine
 62
250
  6
CONTINUOUS
 10
10.5647597646
 20
-9.6136124421
 11
10.5490060899
 21
-9.6141519441
  0
LINE
  5
2BE
100
AcDbEntity
  8
0
100
AcDbLine
 62
250
  6
CONTINUOUS
 10
10.5490060899
 20
-9.6141519441
 11
10.5221192927
 21
-9.6149247809
  0
LINE
  5
2BF
100
AcDbEntity
  8
0
100
AcDbLine
 62
250
  6
CONTINUOUS
 10
10.5221192927
 20
-9.6149247809
 11
10.4805859755
 21
-9.6158762959
  0
LINE
  5
2C0
100
AcDbEntity
  8
0
100
AcDbLine
 62
250
  6
CONTINUOUS
 10
-11.2207774689
 20
-9.6149247809
 11
-11.1792441516
 21
-9.6158762959
  0
LINE
  5
2C1
100
AcDbEntity
  8
0
100
AcDbLine
 62
250
  6
CONTINUOUS
 10
-11.247664266
 20
-9.6141519442
 11
-11.2207774689
 21
-9.6149247809
  0
LINE
  5
2C2
100
AcDbEntity
  8
0
100
AcDbLine
 62
250
  6
CONTINUOUS
 10
-11.2634179407
 20
-9.6136124421
 11
-11.247664266
 21
-9.6141519442
  0
LINE
  5
2C3
100
AcDbEntity
  8
0
100
AcDbLine
 62
250
  6
CONTINUOUS
 10
-11.2773586363
 20
-9.6130560836
 11
-11.2634179407
 21
-9.6136124421
  0
LWPOLYLINE
  5
2C4
100
AcDbEntity
  8
0
100
AcDbPolyline
 62
250
  6
CONTINUOUS
 90
16
 70
0
 10
-11.3642359631
 20
21.388457577
 10
-11.3646595671
 20
21.3941908445
 10
-11.3650886973
 20
21.3996007211
 10
-11.3655224267
 20
21.4046755132
 10
-11.3659607647
 20
21.4094144912
 10
-11.3664037019
 20
21.4138183847
 10
-11.3668502838
 20
21.4178776884
 10
-11.3673005197
 20
21.4215916654
 10
-11.3677544002
 20
21.4249610526
 10
-11.3682109424
 20
21.4279785551
 10
-11.3686701654
 20
21.430643428
 10
-11.3691320502
 20
21.4329564163
 10
-11.369595557
 20
21.4349124602
 10
-11.3700603392
 20
21.4365098731
 10
-11.3705267434
 20
21.4377503417
 10
-11.3709947696
 20
21.4386338659
  0
LWPOLYLINE
  5
2C5
100
AcDbEntity
  8
0
100
AcDbPolyline
 62
250
  6
CONTINUOUS
 90
3
 70
0
 10
-11.3629992354
 20
21.3693291222
 10
-11.363405358
 20
21.3760194711
 10
-11.3642359631
 20
21.388457577
  0
LWPOLYLINE
  5
2C6
100
AcDbEntity
  8
0
100
AcDbPolyline
 62
250
  6
CONTINUOUS
 90
11
 70
0
 10
-10.8667080319
 20
21.8883111738
 10
-10.8671545985
 20
21.8964312807
 10
-10.867604828
 20
21.9038619499
 10
-10.8680587056
 20
21.9105977901
 10
-10.8685152372
 20
21.9166338999
 10
-10.8689744179
 20
21.9219659102
 10
-10.8694362525
 20
21.9265900142
 10
-10.8698997616
 20
21.9305029122
 10
-10.8703646187
 20
21.9337017795
 10
-10.8708311501
 20
21.9361842871
 10
-10.8712993561
 20
21.9379486333
  0
LINE
  5
2C7
100
AcDbEntity
  8
0
100
AcDbLine
 62
250
  6
CONTINUOUS
 10
-10.865826793
 20
21.8700264796
 11
-10.8667080319
 21
21.8883111738
  0
LWPOLYLINE
  5
2C8
100
AcDbEntity
  8
0
100
AcDbPolyline
 62
250
  6
CONTINUOUS
 90
3
 70
0
 10
-10.8645403693
 20
21.8375905604
 10
-10.8649639602
 20
21.8490604545
 10
-10.865826793
 20
21.8700264796
  0
LINE
  5
2C9
100
AcDbEntity
  8
0
100
AcDbLine
 62
250
  6
CONTINUOUS
 10
-10.8653930776
 20
-22.0978653093
 11
-10.8645403693
 21
-22.0755808377
  0
LWPOLYLINE
  5
2CA
100
AcDbEntity
  8
0
100
AcDbPolyline
 62
7
  6
CONTINUOUS
 90
3
 70
0
 43
0.3500000019
 10
0.7935302734
 20
31.1738146973
 10
0.7221000977
 20
30.959529541
 10
0.5792397461
 20
30.673814209
  0
LINE
  5
2CB
100
AcDbEntity
  8
0
100
AcDbLine
 62
250
  6
CONTINUOUS
 10
10.4805859755
 20
-9.6158762959
 11
10.420507154
 21
-9.6169172234
  0
LINE
  5
2CC
100
AcDbEntity
  8
0
100
AcDbLine
 62
250
  6
CONTINUOUS
 10
10.420507154
 20
-9.6169172234
 11
10.3528019999
 21
-9.6177685762
  0
LINE
  5
2CD
100
AcDbEntity
  8
0
100
AcDbLine
 62
250
  6
CONTINUOUS
 10
10.3528019999
 20
-9.6177685762
 11
10.2791998372
 21
-9.6184086089
  0
LINE
  5
2CE
100
AcDbEntity
  8
0
100
AcDbLine
 62
250
  6
CONTINUOUS
 10
10.2791998372
 20
-9.6184086089
 11
10.2015806111
 21
-9.6188209739
  0
LINE
  5
2CF
100
AcDbEntity
  8
0
100
AcDbLine
 62
250
  6
CONTINUOUS
 10
10.2015806111
 20
-9.6188209739
 11
10.1219268705
 21
-9.6189951386
  0
LINE
  5
2D0
100
AcDbEntity
  8
0
100
AcDbLine
 62
250
  6
CONTINUOUS
 10
-10.91598991
 20
-9.6187573063
 11
10.1219268705
 21
-9.6189951386
  0
LINE
  5
2D1
100
AcDbEntity
  8
0
100
AcDbLine
 62
250
  6
CONTINUOUS
 10
-11.0226245479
 20
-9.6180509892
 11
-10.91598991
 21
-9.6187573063
  0
LINE
  5
2D2
100
AcDbEntity
  8
0
100
AcDbLine
 62
250
  6
CONTINUOUS
 10
-11.1061816059
 20
-9.6171034294
 11
-11.0226245479
 21
-9.6180509892
  0
LWPOLYLINE
  5
2D3
100
AcDbEntity
  8
0
100
AcDbPolyline
 62
250
  6
CONTINUOUS
 90
3
 70
0
 10
-11.1792441516
 20
-9.6158762959
 10
-11.167915289
 20
-9.6160984358
 10
-11.1061816059
 20
-9.6171034294
  0
LINE
  5
2D4
100
AcDbEntity
  8
0
100
AcDbLine
 62
250
  6
CONTINUOUS
 10
-5.2473289166
 20
-0.9173409595
 11
-5.2473334192
 21
-0.2670070853
  0
LINE
  5
2D5
100
AcDbEntity
  8
0
100
AcDbLine
 62
250
  6
CONTINUOUS
 10
-5.2473289166
 20
0.6793506822
 11
-5.2473334192
 21
0.029016808
  0
LWPOLYLINE
  5
2D6
100
AcDbEntity
  8
0
100
AcDbPolyline
 62
250
  6
CONTINUOUS
 90
55
 70
0
 10
-5.2473289166
 20
0.6793506822
 10
-5.2470417005
 20
0.6995702779
 10
-5.2461651728
 20
0.7197809963
 10
-5.2446993336
 20
0.7399828374
 10
-5.2426435729
 20
0.7602008956
 10
-5.2399985007
 20
0.7804100763
 10
-5.2367659464
 20
0.800535096
 10
-5.2329422342
 20
0.8205740904
 10
-5.2285310399
 20
0.8405289237
 10
-5.2235452214
 20
0.8603299049
 10
-5.2179821847
 20
0.8799739217
 10
-5.2118445238
 20
0.8994640863
 10
-5.2051528782
 20
0.9187400444
 10
-5.1979079172
 20
0.937794902
 10
-5.1901089715
 20
0.9566355533
 10
-5.1817746737
 20
0.9752223259
 10
-5.1729046024
 20
0.9935548206
 10
-5.1634991789
 20
1.0116334368
 10
-5.1535782999
 20
1.0294197011
 10
-5.1431389929
 20
1.0469163672
 10
-5.1321842303
 20
1.0641206815
 10
-5.1207428263
 20
1.0809859094
 10
-5.1088130673
 20
1.0975111629
 10
-5.0963966667
 20
1.1136973302
 10
-5.0835275793
 20
1.1295003414
 10
-5.070205877
 20
1.1449176162
 10
-5.0564314877
 20
1.159951735
 10
-5.0422381505
 20
1.1745663692
 10
-5.0276249346
 20
1.1887606647
 10
-5.0125927708
 20
1.2025354757
 10
-4.9971781894
 20
1.2158570352
 10
-4.9813785972
 20
1.2287253983
 10
-4.9651965876
 20
1.24114051
 10
-4.9486764713
 20
1.2530684381
 10
-4.9318175302
 20
1.2645073633
 10
-4.9146204825
 20
1.2754591049
 10
-4.8971317937
 20
1.285895189
 10
-4.8793542929
 20
1.2958126607
 10
-4.8612851511
 20
1.3052144749
 10
-4.8429623472
 20
1.3140810226
 10
-4.8243851831
 20
1.3224120266
 10
-4.8055543569
 20
1.3302077642
 10
-4.7865099422
 20
1.3374494583
 10
-4.7672448448
 20
1.3441377567
 10
-4.7477661589
 20
1.3502720118
 10
-4.7281352409
 20
1.3558315032
 10
-4.7083492902
 20
1.3608134902
 10
-4.6884111074
 20
1.3652207137
 10
-4.6683904504
 20
1.3690406752
 10
-4.6482858502
 20
1.3722696851
 10
-4.6280987757
 20
1.3749114332
 10
-4.607903391
 20
1.3769644909
 10
-4.5877244175
 20
1.378428382
 10
-4.5675371337
 20
1.3793035828
 10
-4.5473415397
 20
1.3795900933
  0
LWPOLYLINE
  5
2D7
100
AcDbEntity
  8
0
100
AcDbPolyline
 62
250
  6
CONTINUOUS
 90
40
 70
0
 10
-5.0473410346
 20
-0.4669994699
 10
-5.0475038263
 20
-0.4589469787
 10
-5.0479907109
 20
-0.4509075474
 10
-5.0488008987
 20
-0.4428942147
 10
-5.0499330758
 20
-0.434919977
 10
-5.051385406
 20
-0.4269977674
 10
-5.0531555337
 20
-0.4191404343
 10
-5.0552405881
 20
-0.4113607213
 10
-5.0576371876
 20
-0.4036712458
 10
-5.0603414453
 20
-0.3960844789
 10
-5.0633489752
 20
-0.3886127253
 10
-5.0666548996
 20
-0.3812681029
 10
-5.0702538569
 20
-0.3740625236
 10
-5.0741400099
 20
-0.3670076738
 10
-5.0783070561
 20
-0.3601149953
 10
-5.0827482371
 20
-0.353395667
 10
-5.08745635
 20
-0.3468605867
 10
-5.0924237589
 20
-0.3405203531
 10
-5.0976424076
 20
-0.3343852493
 10
-5.103103832
 20
-0.3284652253
 10
-5.1087991747
 20
-0.3227698826
 10
-5.1147191986
 20
-0.3173084582
 10
-5.1208543025
 20
-0.3120898096
 10
-5.127194536
 20
-0.3071224007
 10
-5.1337296164
 20
-0.3024142878
 10
-5.1404489447
 20
-0.2979731068
 10
-5.1473416232
 20
-0.2938060606
 10
-5.154396473
 20
-0.2899199075
 10
-5.1616020522
 20
-0.2863209503
 10
-5.1689466746
 20
-0.2830150258
 10
-5.1764184283
 20
-0.2800074959
 10
-5.1840051951
 20
-0.2773032383
 10
-5.1916946707
 20
-0.2749066388
 10
-5.1994743837
 20
-0.2728215843
 10
-5.2073317167
 20
-0.2710514566
 10
-5.2152539264
 20
-0.2695991265
 10
-5.223228164
 20
-0.2684669494
 10
-5.2312414967
 20
-0.2676567615
 10
-5.239280928
 20
-0.2671698769
 10
-5.2473334192
 20
-0.2670070853
  0
LINE
  5
2D8
100
AcDbEntity
  8
0
100
AcDbLine
 62
250
  6
CONTINUOUS
 10
-5.0473365321
 20
-0.9170187582
 11
-5.0473410346
 21
-0.4669994699
  0
LINE
  5
2D9
100
AcDbEntity
  8
0
100
AcDbLine
 62
250
  6
CONTINUOUS
 10
-5.0473410346
 20
0.2290091926
 11
-5.0473365321
 21
0.6790284172
  0
LINE
  5
2DA
100
AcDbEntity
  8
0
100
AcDbLine
 62
7
  6
CONTINUOUS
 10
-5.0355430682
 20
0.6672378801
 11
-5.0355430682
 21
0.2172112262
  0
LINE
  5
2DB
100
AcDbEntity
  8
0
100
AcDbLine
 62
7
  6
CONTINUOUS
 10
-5.0355430682
 20
-0.4552015035
 11
-5.0355430682
 21
-0.9052281574
  0
LINE
  5
2DC
100
AcDbEntity
  8
0
100
AcDbLine
 62
250
  6
CONTINUOUS
 10
-4.5473415397
 20
-1.6175803706
 11
-4.5473415397
 21
-1.4169885519
  0
LINE
  5
2DD
100
AcDbEntity
  8
0
100
AcDbLine
 62
250
  6
CONTINUOUS
 10
-4.5473415397
 20
1.3795900933
 11
-4.5473415397
 21
1.1789982746
  0
LWPOLYLINE
  5
2DE
100
AcDbEntity
  8
0
100
AcDbPolyline
 62
250
  6
CONTINUOUS
 90
55
 70
0
 10
-5.047336532
 20
0.6790284171
 10
-5.0471285817
 20
0.6934559364
 10
-5.0465028304
 20
0.7078987697
 10
-5.0454574265
 20
0.7223447427
 10
-5.0439903366
 20
0.7367861765
 10
-5.0421006898
 20
0.7512060233
 10
-5.0397901218
 20
0.765578052
 10
-5.0370594547
 20
0.7798897647
 10
-5.0339098309
 20
0.7941289216
 10
-5.0303462731
 20
0.8082700836
 10
-5.0263723018
 20
0.8222995973
 10
-5.0219909103
 20
0.8362071839
 10
-5.0172087128
 20
0.8499730844
 10
-5.012032218
 20
0.8635814519
 10
-5.0064650203
 20
0.8770255023
 10
-5.000510088
 20
0.8902993454
 10
-4.9941727195
 20
0.9033917618
 10
-4.9874584574
 20
0.9162918568
 10
-4.9803701845
 20
0.9289940382
 10
-4.9729122028
 20
0.9414897609
 10
-4.9650918907
 20
0.9537658678
 10
-4.9569169241
 20
0.9658099589
 10
-4.9483940558
 20
0.9776119094
 10
-4.9395305294
 20
0.9891615213
 10
-4.9303355585
 20
1.0004468392
 10
-4.92081801
 20
1.0114573155
 10
-4.9109851672
 20
1.0221848488
 10
-4.9008443626
 20
1.0326215624
 10
-4.8904041646
 20
1.0427586521
 10
-4.8796734529
 20
1.0525875106
 10
-4.8686602202
 20
1.0621007518
 10
-4.857372592
 20
1.0712911224
 10
-4.8458211382
 20
1.0801497886
 10
-4.8340179382
 20
1.0886675049
 10
-4.8219733239
 20
1.0968369998
 10
-4.809697337
 20
1.1046516433
 10
-4.7972021658
 20
1.1121039452
 10
-4.7845010042
 20
1.1191865379
 10
-4.7716023705
 20
1.1258951645
 10
-4.7585115202
 20
1.13222713
 10
-4.7452391151
 20
1.1381769848
 10
-4.7317965779
 20
1.1437393198
 10
-4.7181901137
 20
1.148911047
 10
-4.7044263754
 20
1.1536886383
 10
-4.6905213358
 20
1.1580655603
 10
-4.6764954833
 20
1.1620350324
 10
-4.6623593327
 20
1.1655940967
 10
-4.6481263223
 20
1.1687393879
 10
-4.6338219558
 20
1.1714659667
 10
-4.6194585811
 20
1.1737727695
 10
-4.605048576
 20
1.175659091
 10
-4.5906178845
 20
1.1771234163
 10
-4.5761834413
 20
1.178166691
 10
-4.5617529904
 20
1.1787910045
 10
-4.5473386771
 20
1.1789982745
  0
LWPOLYLINE
  5
2DF
100
AcDbEntity
  8
0
100
AcDbPolyline
 62
250
  6
CONTINUOUS
 90
13
 70
0
 10
-10.8712993561
 20
-22.1759389106
 10
-10.8708311501
 20
-22.1741745644
 10
-10.8703646187
 20
-22.1716920568
 10
-10.8698997616
 20
-22.1684931895
 10
-10.8694362525
 20
-22.1645802915
 10
-10.8689744179
 20
-22.1599561875
 10
-10.8685152372
 20
-22.1546241772
 10
-10.8680587056
 20
-22.1485880674
 10
-10.867604828
 20
-22.1418522272
 10
-10.8671545985
 20
-22.134421558
 10
-10.8667080319
 20
-22.1263014511
 10
-10.8662651135
 20
-22.1174977434
 10
-10.8653930776
 20
-22.0978653093
  0
LINE
  5
2E0
100
AcDbEntity
  8
0
100
AcDbLine
 62
250
  6
CONTINUOUS
 10
10.2734527172
 20
22.0892428019
 11
10.1726411801
 21
21.9379486333
  0
LINE
  5
2E1
100
AcDbEntity
  8
0
100
AcDbLine
 62
250
  6
CONTINUOUS
 10
-5.2473334192
 20
-0.2670070853
 11
-5.2325575051
 21
-0.2522311711
  0
LINE
  5
2E2
100
AcDbEntity
  8
RACCORDO
100
AcDbLine
 62
250
  6
CONTINUOUS
 10
-10.3970248233
 20
0.0071854647
 11
-10.4493900181
 21
-0.0189951386
  0
LINE
  5
2E3
100
AcDbEntity
  8
RACCORDO
100
AcDbLine
 62
7
  6
CONTINUOUS
 10
-10.349799212
 20
0.0071854647
 11
-10.3599222841
 21
0.0021243141
  0
LWPOLYLINE
  5
2E4
100
AcDbEntity
  8
0
100
AcDbPolyline
 62
7
  6
CONTINUOUS
 90
2
 70
0
 43
0.3500000019
 10
18.1032924805
 20
-3.5118523865
 10
16.6032910156
 20
-3.5118523865
  0
LINE
  5
2E5
100
AcDbEntity
  8
DRAFT
100
AcDbLine
 62
7
  6
CONTINUOUS
 10
-10.249329088
 20
-0.2189951386
 11
-10.1969638932
 21
-0.245175742
  0
LINE
  5
2E6
100
AcDbEntity
  8
0
100
AcDbLine
 62
250
  6
CONTINUOUS
 10
-5.2325575051
 20
0.0142408938
 11
-5.2473334192
 21
0.029016808
  0
LINE
  5
2E7
100
AcDbEntity
  8
0
100
AcDbLine
 62
250
  6
CONTINUOUS
 10
10.1726411801
 20
-22.1759389106
 11
10.2734527172
 21
-22.3272330792
  0
LINE
  5
2E8
100
AcDbEntity
  8
0
100
AcDbLine
 62
250
  6
CONTINUOUS
 10
10.7743636026
 20
21.5917521691
 11
10.6723365936
 21
21.4386338659
  0
LINE
  5
2E9
100
AcDbEntity
  8
0
100
AcDbLine
 62
250
  6
CONTINUOUS
 10
-5.0473410346
 20
-0.4669994699
 11
-5.0355430682
 21
-0.4552015035
  0
LINE
  5
2EA
100
AcDbEntity
  8
0
100
AcDbLine
 62
250
  6
CONTINUOUS
 10
-4.5355621067
 20
-1.4052091189
 11
-4.5473386137
 21
-1.4169885519
  0
LINE
  5
2EB
100
AcDbEntity
  8
0
100
AcDbLine
 62
250
  6
CONTINUOUS
 10
-5.0355430682
 20
-0.9052281574
 11
-5.0473365321
 21
-0.9170187582
  0
LINE
  5
2EC
100
AcDbEntity
  8
0
100
AcDbLine
 62
250
  6
CONTINUOUS
 10
10.800670912
 20
-0.4189418417
 11
10.6184778244
 21
-0.4644727681
  0
LINE
  5
2ED
100
AcDbEntity
  8
0
100
AcDbLine
 62
250
  6
CONTINUOUS
 10
10.6006099506
 20
-0.2189951386
 11
10.4185995587
 21
-0.2644804086
  0
LWPOLYLINE
  5
2EE
100
AcDbEntity
  8
0
100
AcDbPolyline
 62
250
  6
CONTINUOUS
 90
8
 70
0
 10
10.4185995587
 20
-0.2644804086
 10
10.4181473719
 20
-0.2645592272
 10
10.4174253478
 20
-0.2646377608
 10
10.4164334864
 20
-0.2647160092
 10
10.4151703887
 20
-0.2647940464
 10
10.4136374537
 20
-0.2648717985
 10
10.4118388785
 20
-0.2649490436
 10
10.4097739491
 20
-0.2650257772
  0
LWPOLYLINE
  5
2EF
100
AcDbEntity
  8
0
100
AcDbPolyline
 62
250
  6
CONTINUOUS
 90
6
 70
0
 10
10.6184778244
 20
-0.4644727774
 10
10.6177257418
 20
-0.4645558115
 10
10.6165210981
 20
-0.464638554
 10
10.6148650506
 20
-0.4647209956
 10
10.6127592111
 20
-0.4648031893
 10
10.6102055254
 20
-0.4648850631
  0
LINE
  5
2F0
100
AcDbEntity
  8
0
100
AcDbLine
 62
250
  6
CONTINUOUS
 10
3.8486833637
 20
-1.6175803706
 11
-4.5473415397
 21
-1.6175803706
  0
LWPOLYLINE
  5
2F1
100
AcDbEntity
  8
0
100
AcDbPolyline
 62
250
  6
CONTINUOUS
 90
55
 70
0
 10
-4.5473415397
 20
-1.6175803706
 10
-4.5675436341
 20
-1.6172936313
 10
-4.587737079
 20
-1.6164178942
 10
-4.6079218743
 20
-1.6149531592
 10
-4.6281230544
 20
-1.6128988393
 10
-4.648315585
 20
-1.6102555216
 10
-4.668424363
 20
-1.6070249671
 10
-4.6884475356
 20
-1.6032035103
 10
-4.7083869557
 20
-1.5987948167
 10
-4.7281730788
 20
-1.5938116444
 10
-4.7478028101
 20
-1.5882514047
 10
-4.7672792443
 20
-1.5821166863
 10
-4.7865421216
 20
-1.5754280133
 10
-4.8055845593
 20
-1.568186059
 10
-4.8244134401
 20
-1.56039015
 10
-4.8429891524
 20
-1.5520587914
 10
-4.8613112962
 20
-1.5431915711
 10
-4.8793802716
 20
-1.533788901
 10
-4.8971576661
 20
-1.5238705215
 10
-4.9146462511
 20
-1.5134334596
 10
-4.9318432553
 20
-1.5024806882
 10
-4.9487019532
 20
-1.4910408668
 10
-4.965221478
 20
-1.4791122721
 10
-4.9814026965
 20
-1.4666966272
 10
-4.9972014831
 20
-1.4538277615
 10
-5.0126152685
 20
-1.4405057386
 10
-5.0276466221
 20
-1.4267304948
 10
-5.0422591258
 20
-1.4125356684
 10
-5.0564519292
 20
-1.3979203253
 10
-5.0702258829
 20
-1.3828853995
 10
-5.0835471197
 20
-1.3674673316
 10
-5.0964157035
 20
-1.3516635166
 10
-5.1088315706
 20
-1.3354765593
 10
-5.1207606629
 20
-1.3189507154
 10
-5.132201171
 20
-1.3020852448
 10
-5.1431549043
 20
-1.2848808873
 10
-5.1535932335
 20
-1.2673841189
 10
-5.1635132039
 20
-1.2495977514
 10
-5.1729177702
 20
-1.2315189728
 10
-5.1817871676
 20
-1.2131858229
 10
-5.1901211092
 20
-1.1945976044
 10
-5.197919882
 20
-1.1757550146
 10
-5.2051645821
 20
-1.1566981853
 10
-5.2118558536
 20
-1.1374200101
 10
-5.2179930524
 20
-1.1179275953
 10
-5.2235553424
 20
-1.0982823919
 10
-5.2285399778
 20
-1.0784815817
 10
-5.2329497043
 20
-1.058527983
 10
-5.2367719236
 20
-1.0384915013
 10
-5.2400029351
 20
-1.0183706579
 10
-5.2426464395
 20
-0.9981669315
 10
-5.2447009395
 20
-0.9779546643
 10
-5.2461659362
 20
-0.9577586368
 10
-5.2470419285
 20
-0.9375540685
 10
-5.2473289166
 20
-0.9173409595
  0
LINE
  5
2F2
100
AcDbEntity
  8
0
100
AcDbLine
 62
250
  6
CONTINUOUS
 10
-11.3171360004
 20
-0.4644727681
 11
-11.499329088
 21
-0.4189418417
  0
LINE
  5
2F3
100
AcDbEntity
  8
0
100
AcDbLine
 62
250
  6
CONTINUOUS
 10
-11.1172577347
 20
-0.2644804086
 11
-11.2992681266
 21
-0.2189951386
  0
LINE
  5
2F4
100
AcDbEntity
  8
0
100
AcDbLine
 62
250
  6
CONTINUOUS
 10
-5.0355430682
 20
0.2172112262
 11
-5.0473410346
 21
0.2290091926
  0
LINE
  5
2F5
100
AcDbEntity
  8
0
100
AcDbLine
 62
250
  6
CONTINUOUS
 10
-5.0355430682
 20
0.6672378801
 11
-5.0473365321
 21
0.6790284172
  0
LINE
  5
2F6
100
AcDbEntity
  8
0
100
AcDbLine
 62
250
  6
CONTINUOUS
 10
-4.5355621067
 20
1.1672188416
 11
-4.5473386771
 21
1.1789982746
  0
LINE
  5
2F7
100
AcDbEntity
  8
0
100
AcDbLine
 62
250
  6
CONTINUOUS
 10
10.6723365936
 20
-21.6766241432
 11
10.7743636026
 21
-21.8297424464
  0
LWPOLYLINE
  5
2F8
100
AcDbEntity
  8
0
100
AcDbPolyline
 62
250
  6
CONTINUOUS
 90
17
 70
0
 10
10.6723365936
 20
21.4386338659
 10
10.6718685674
 20
21.4377503417
 10
10.6714021632
 20
21.4365098731
 10
10.670937381
 20
21.4349124602
 10
10.6704738742
 20
21.4329564163
 10
10.6700119894
 20
21.430643428
 10
10.6695527664
 20
21.4279785551
 10
10.6690962242
 20
21.4249610526
 10
10.6686423437
 20
21.4215916654
 10
10.6681921078
 20
21.4178776884
 10
10.6677455259
 20
21.4138183847
 10
10.6673025887
 20
21.4094144912
 10
10.6668642507
 20
21.4046755132
 10
10.6664305213
 20
21.3996007211
 10
10.6660013911
 20
21.3941908445
 10
10.6655777871
 20
21.388457577
 10
10.664747182
 20
21.3760194711
  0
LINE
  5
2F9
100
AcDbEntity
  8
0
100
AcDbLine
 62
250
  6
CONTINUOUS
 10
10.4097739491
 20
-0.2650257772
 11
10.4048535089
 21
-0.2651775155
  0
LINE
  5
2FA
100
AcDbEntity
  8
0
100
AcDbLine
 62
250
  6
CONTINUOUS
 10
10.4048535089
 20
-0.2651775155
 11
10.3988944551
 21
-0.2653263902
  0
LINE
  5
2FB
100
AcDbEntity
  8
0
100
AcDbLine
 62
250
  6
CONTINUOUS
 10
10.6102055254
 20
-0.4648850631
 11
10.6037638011
 21
-0.4650472505
  0
LWPOLYLINE
  5
2FC
100
AcDbEntity
  8
0
100
AcDbPolyline
 62
250
  6
CONTINUOUS
 90
3
 70
0
 10
-5.048117524
 20
-0.9170471757
 10
-5.0475668154
 20
-0.9170344087
 10
-5.047336532
 20
-0.9170216211
  0
LWPOLYLINE
  5
2FD
100
AcDbEntity
  8
0
100
AcDbPolyline
 62
250
  6
CONTINUOUS
 90
40
 70
0
 10
4.5486752432
 20
-0.2670070853
 10
4.540622752
 20
-0.2671698769
 10
4.5325833207
 20
-0.2676567615
 10
4.524569988
 20
-0.2684669494
 10
4.5165957504
 20
-0.2695991265
 10
4.5086735407
 20
-0.2710514566
 10
4.5008162077
 20
-0.2728215843
 10
4.4930364947
 20
-0.2749066388
 10
4.4853470191
 20
-0.2773032383
 10
4.4777602523
 20
-0.2800074959
 10
4.4702884986
 20
-0.2830150258
 10
4.4629438762
 20
-0.2863209503
 10
4.455738297
 20
-0.2899199075
 10
4.4486834472
 20
-0.2938060606
 10
4.4417907687
 20
-0.2979731068
 10
4.4350714404
 20
-0.3024142878
 10
4.42853636
 20
-0.3071224007
 10
4.4221961265
 20
-0.3120898096
 10
4.4160610226
 20
-0.3173084582
 10
4.4101409987
 20
-0.3227698826
 10
4.404445656
 20
-0.3284652253
 10
4.3989842316
 20
-0.3343852493
 10
4.3937655829
 20
-0.3405203531
 10
4.388798174
 20
-0.3468605867
 10
4.3840900611
 20
-0.353395667
 10
4.3796488801
 20
-0.3601149953
 10
4.3754818339
 20
-0.3670076738
 10
4.3715956808
 20
-0.3740625236
 10
4.3679967236
 20
-0.3812681029
 10
4.3646907992
 20
-0.3886127253
 10
4.3616832693
 20
-0.3960844789
 10
4.3589790116
 20
-0.4036712458
 10
4.3565824121
 20
-0.4113607213
 10
4.3544973577
 20
-0.4191404343
 10
4.35272723
 20
-0.4269977674
 10
4.3512748998
 20
-0.434919977
 10
4.3501427227
 20
-0.4428942147
 10
4.3493325349
 20
-0.4509075474
 10
4.3488456503
 20
-0.4589469787
 10
4.3486828586
 20
-0.4669994699
  0
LINE
  5
2FE
100
AcDbEntity
  8
0
100
AcDbLine
 62
250
  6
CONTINUOUS
 10
10.3988944551
 20
-0.2653263902
 11
10.3880604919
 21
-0.2655431284
  0
LINE
  5
2FF
100
AcDbEntity
  8
0
100
AcDbLine
 62
250
  6
CONTINUOUS
 10
10.6037638011
 20
-0.4650472505
 11
10.5908121154
 21
-0.4652859084
  0
LINE
  5
300
100
AcDbEntity
  8
0
100
AcDbLine
 62
7
  6
CONTINUOUS
 10
5.000670912
 20
-0.245175742
 11
4.5338993291
 21
-0.2522311711
  0
LINE
  5
301
100
AcDbEntity
  8
0
100
AcDbLine
 62
7
  6
CONTINUOUS
 10
-5.699329088
 20
0.0071854647
 11
-5.2325575051
 21
0.0142408938
  0
LINE
  5
302
100
AcDbEntity
  8
0
100
AcDbLine
 62
250
  6
CONTINUOUS
 10
10.3880604919
 20
-0.2655431284
 11
10.365176958
 21
-0.2658825622
  0
LINE
  5
303
100
AcDbEntity
  8
0
100
AcDbLine
 62
250
  6
CONTINUOUS
 10
-5.0489922796
 20
-0.4670161633
 11
-5.0475732219
 21
-0.4669981462
  0
LINE
  5
304
100
AcDbEntity
  8
0
100
AcDbLine
 62
250
  6
CONTINUOUS
 10
10.5908121154
 20
-0.4652859084
 11
10.5607364361
 21
-0.4656663829
  0
LINE
  5
305
100
AcDbEntity
  8
0
100
AcDbLine
 62
250
  6
CONTINUOUS
 10
-5.0501761707
 20
-0.9170725664
 11
-5.048117524
 21
-0.9170471757
  0
LINE
  5
306
100
AcDbEntity
  8
0
100
AcDbLine
 62
250
  6
CONTINUOUS
 10
10.365176958
 20
-0.2658825622
 11
10.3172211657
 21
-0.2663525165
  0
LINE
  5
307
100
AcDbEntity
  8
0
100
AcDbLine
 62
250
  6
CONTINUOUS
 10
10.5607364361
 20
-0.4656663829
 11
10.4819978274
 21
-0.4662726209
  0
LINE
  5
308
100
AcDbEntity
  8
0
100
AcDbLine
 62
250
  6
CONTINUOUS
 10
-5.0608059559
 20
-0.9171342628
 11
-5.0501761707
 21
-0.9170725664
  0
LINE
  5
309
100
AcDbEntity
  8
0
100
AcDbLine
 62
250
  6
CONTINUOUS
 10
10.3172211657
 20
-0.2663525165
 11
10.2415496946
 21
-0.2667778293
  0
LINE
  5
30A
100
AcDbEntity
  8
0
100
AcDbLine
 62
250
  6
CONTINUOUS
 10
-11.0090160488
 20
0.0284134785
 11
-10.9235050966
 21
0.0288477246
  0
LINE
  5
30B
100
AcDbEntity
  8
0
100
AcDbLine
 62
250
  6
CONTINUOUS
 10
10.4819978274
 20
-0.4662726209
 11
10.3637261231
 21
-0.4667827027
  0
LINE
  5
30C
100
AcDbEntity
  8
0
100
AcDbLine
 62
250
  6
CONTINUOUS
 10
10.3637261231
 20
-0.4667827027
 11
10.208638075
 21
-0.467092949
  0
LINE
  5
30D
100
AcDbEntity
  8
0
100
AcDbLine
 62
250
  6
CONTINUOUS
 10
10.2415496946
 20
-0.2667778293
 11
10.1458391906
 21
-0.2669964159
  0
LINE
  5
30E
100
AcDbEntity
  8
0
100
AcDbLine
 62
250
  6
CONTINUOUS
 10
-10.9235050966
 20
0.0288477246
 11
-10.8264827968
 21
0.0290156148
  0
LINE
  5
30F
100
AcDbEntity
  8
0
100
AcDbLine
 62
250
  6
CONTINUOUS
 10
3.8486805011
 20
-1.4169885519
 11
-4.5473386137
 21
-1.4169885519
  0
LINE
  5
310
100
AcDbEntity
  8
0
100
AcDbLine
 62
7
  6
CONTINUOUS
 10
-4.5355621067
 20
-1.4052091189
 11
3.8369039307
 21
-1.4052091189
  0
LWPOLYLINE
  5
311
100
AcDbEntity
  8
0
100
AcDbPolyline
 62
7
  6
CONTINUOUS
 90
2
 70
0
 43
0.3500000019
 10
18.1032924805
 20
-1.1547094574
 10
16.6032910156
 20
-1.1547094574
  0
LINE
  5
312
100
AcDbEntity
  8
0
100
AcDbLine
 62
250
  6
CONTINUOUS
 10
-5.2473289166
 20
-0.9173409595
 11
-5.0608059559
 21
-0.9171342628
  0
LINE
  5
313
100
AcDbEntity
  8
0
100
AcDbLine
 62
250
  6
CONTINUOUS
 10
10.208638075
 20
-0.467092949
 11
10.1187795773
 21
-0.4671387283
  0
LINE
  5
314
100
AcDbEntity
  8
0
100
AcDbLine
 62
250
  6
CONTINUOUS
 10
10.1187795773
 20
-0.4671387275
 11
4.5406721374
 21
-0.4671548612
  0
LINE
  5
315
100
AcDbEntity
  8
0
100
AcDbLine
 62
250
  6
CONTINUOUS
 10
10.1458391906
 20
-0.2669964159
 11
4.5486752432
 21
-0.2670070853
  0
LINE
  5
316
100
AcDbEntity
  8
RACCORDO
100
AcDbLine
 62
7
  6
CONTINUOUS
 10
9.6983666473
 20
-0.245175742
 11
5.000670912
 21
-0.245175742
  0
LINE
  5
317
100
AcDbEntity
  8
DRAFT
100
AcDbLine
 62
7
  6
CONTINUOUS
 10
-5.699329088
 20
-0.245175742
 11
-10.1969638932
 21
-0.245175742
  0
LINE
  5
318
100
AcDbEntity
  8
RACCORDO
100
AcDbLine
 62
7
  6
CONTINUOUS
 10
10.6006099506
 20
-0.2189951386
 11
9.7507318421
 21
-0.2189951386
  0
LINE
  5
319
100
AcDbEntity
  8
0
100
AcDbLine
 62
7
  6
CONTINUOUS
 10
-10.249329088
 20
-0.2189951386
 11
-11.2992681266
 21
-0.2189951386
  0
LINE
  5
31A
100
AcDbEntity
  8
RACCORDO
100
AcDbLine
 62
7
  6
CONTINUOUS
 10
-11.2992681266
 20
-0.0189951386
 11
-10.4493900181
 21
-0.0189951386
  0
LINE
  5
31B
100
AcDbEntity
  8
0
100
AcDbLine
 62
7
  6
CONTINUOUS
 10
9.550670912
 20
-0.0189951386
 11
10.6006099506
 21
-0.0189951386
  0
LINE
  5
31C
100
AcDbEntity
  8
RACCORDO
100
AcDbLine
 62
7
  6
CONTINUOUS
 10
-10.3970248233
 20
0.0071854647
 11
-5.699329088
 21
0.0071854647
  0
LINE
  5
31D
100
AcDbEntity
  8
DRAFT
100
AcDbLine
 62
7
  6
CONTINUOUS
 10
5.000670912
 20
0.0071854647
 11
9.4983057172
 21
0.0071854647
  0
LINE
  5
31E
100
AcDbEntity
  8
0
100
AcDbLine
 62
250
  6
CONTINUOUS
 10
-10.8264827968
 20
0.0290156148
 11
-5.2473334192
 21
0.029016808
  0
LINE
  5
31F
100
AcDbEntity
  8
0
100
AcDbLine
 62
250
  6
CONTINUOUS
 10
-5.0747111015
 20
-0.467072017
 11
-5.0489922796
 21
-0.4670161633
  0
LINE
  5
320
100
AcDbEntity
  8
0
100
AcDbLine
 62
250
  6
CONTINUOUS
 10
4.5486707406
 20
-0.9173409594
 11
4.4423075964
 21
-0.917290574
  0
LINE
  5
321
100
AcDbEntity
  8
0
100
AcDbLine
 62
250
  6
CONTINUOUS
 10
4.4423075964
 20
-0.917290574
 11
4.4290954389
 21
-0.9172759328
  0
LINE
  5
322
100
AcDbEntity
  8
0
100
AcDbLine
 62
250
  6
CONTINUOUS
 10
4.4290954389
 20
-0.9172759328
 11
4.4107402964
 21
-0.9172509452
  0
LINE
  5
323
100
AcDbEntity
  8
0
100
AcDbLine
 62
250
  6
CONTINUOUS
 10
4.5406721374
 20
-0.4671548612
 11
4.4050559251
 21
-0.4671002841
  0
LINE
  5
324
100
AcDbEntity
  8
0
100
AcDbLine
 62
250
  6
CONTINUOUS
 10
-5.0747111015
 20
-0.467072017
 11
-11.0082281413
 21
-0.4669281895
  0
LINE
  5
325
100
AcDbEntity
  8
0
100
AcDbLine
 62
250
  6
CONTINUOUS
 10
-5.2473334192
 20
-0.2670070853
 11
-10.9064171864
 21
-0.2668892836
  0
LINE
  5
326
100
AcDbEntity
  8
0
100
AcDbLine
 62
250
  6
CONTINUOUS
 10
4.5486752432
 20
0.029016808
 11
10.2077590104
 21
0.0288990063
  0
LINE
  5
327
100
AcDbEntity
  8
0
100
AcDbLine
 62
250
  6
CONTINUOUS
 10
-11.0082281413
 20
-0.4669281895
 11
-11.1367311254
 21
-0.4665000335
  0
LINE
  5
328
100
AcDbEntity
  8
0
100
AcDbLine
 62
250
  6
CONTINUOUS
 10
4.4050559251
 20
-0.4671002841
 11
4.3503341012
 21
-0.4670161633
  0
LINE
  5
329
100
AcDbEntity
  8
0
100
AcDbLine
 62
250
  6
CONTINUOUS
 10
4.4107402964
 20
-0.9172509452
 11
4.354841008
 21
-0.9170976304
  0
LINE
  5
32A
100
AcDbEntity
  8
0
100
AcDbLine
 62
250
  6
CONTINUOUS
 10
-5.0475732219
 20
-0.4669981462
 11
-5.0473410346
 21
-0.4669994699
  0
LINE
  5
32B
100
AcDbEntity
  8
0
100
AcDbLine
 62
250
  6
CONTINUOUS
 10
-10.9064171864
 20
-0.2668892836
 11
-10.9947689701
 21
-0.2665007608
  0
LINE
  5
32C
100
AcDbEntity
  8
0
100
AcDbLine
 62
250
  6
CONTINUOUS
 10
10.2077590104
 20
0.0288990063
 11
10.2961107941
 21
0.0285104835
  0
LINE
  5
32D
100
AcDbEntity
  8
0
100
AcDbLine
 62
250
  6
CONTINUOUS
 10
10.2961107941
 20
0.0285104835
 11
10.3103578728
 21
0.0284134785
  0
LINE
  5
32E
100
AcDbEntity
  8
0
100
AcDbLine
 62
250
  6
CONTINUOUS
 10
-11.1367311254
 20
-0.4665000335
 11
-11.2280921611
 21
-0.4659502055
  0
LWPOLYLINE
  5
32F
100
AcDbEntity
  8
0
100
AcDbPolyline
 62
250
  6
CONTINUOUS
 90
5
 70
0
 10
4.354841008
 20
-0.9170976304
 10
4.3503295107
 20
-0.9170599018
 10
4.3494592597
 20
-0.9170471757
 10
4.3489085508
 20
-0.9170344087
 10
4.3486782672
 20
-0.9170216211
  0
LINE
  5
330
100
AcDbEntity
  8
0
100
AcDbLine
 62
250
  6
CONTINUOUS
 10
-10.9947689701
 20
-0.2665007608
 11
-11.0530844587
 21
-0.266009315
  0
LINE
  5
331
100
AcDbEntity
  8
0
100
AcDbLine
 62
250
  6
CONTINUOUS
 10
-11.2280921611
 20
-0.4659502055
 11
-11.2726684374
 21
-0.4655171964
  0
LWPOLYLINE
  5
332
100
AcDbEntity
  8
0
100
AcDbPolyline
 62
250
  6
CONTINUOUS
 90
3
 70
0
 10
4.3503341012
 20
-0.4670161633
 10
4.3489150455
 20
-0.4669981463
 10
4.3486828586
 20
-0.4669994699
  0
LWPOLYLINE
  5
333
100
AcDbEntity
  8
0
100
AcDbPolyline
 62
250
  6
CONTINUOUS
 90
55
 70
0
 10
-4.5473386136
 20
-1.4169885518
 10
-4.5617595078
 20
-1.416781094
 10
-4.5761958529
 20
-1.4161562514
 10
-4.5906354914
 20
-1.4151121643
 10
-4.6050707408
 20
-1.4136467934
 10
-4.6194845896
 20
-1.4117592562
 10
-4.6338508809
 20
-1.409451165
 10
-4.6481571335
 20
-1.4067233249
 10
-4.662391118
 20
-1.4035768612
 10
-4.6765274569
 20
-1.400016761
 10
-4.690552513
 20
-1.3960465201
 10
-4.7044560093
 20
-1.3916691096
 10
-4.7182182232
 20
-1.3868911048
 10
-4.7318233132
 20
-1.3817189864
 10
-4.7452644975
 20
-1.3761563233
 10
-4.7585359148
 20
-1.3702060417
 10
-4.7716263383
 20
-1.3638734148
 10
-4.7845248777
 20
-1.3571639533
 10
-4.797225983
 20
-1.3500804825
 10
-4.8097211071
 20
-1.3426272698
 10
-4.8219970779
 20
-1.3348116645
 10
-4.834041511
 20
-1.3266412864
 10
-4.8458442757
 20
-1.31812285
 10
-4.8573951488
 20
-1.3092635726
 10
-4.8686821577
 20
-1.300072629
 10
-4.8796947373
 20
-1.2905588535
 10
-4.8904247617
 20
-1.2807295034
 10
-4.9008643252
 20
-1.2705918829
 10
-4.9110045974
 20
-1.2601545366
 10
-4.9208369469
 20
-1.249426318
 10
-4.9303539601
 20
-1.23841519
 10
-4.9395483575
 20
-1.2271292538
 10
-4.9484112725
 20
-1.2155790616
 10
-4.9569334207
 20
-1.203776676
 10
-4.9651075043
 20
-1.1917324038
 10
-4.9729268546
 20
-1.1794562806
 10
-4.9803839251
 20
-1.1669605114
 10
-4.9874713189
 20
-1.1542582755
 10
-4.994184745
 20
-1.1413580889
 10
-5.0005214507
 20
-1.1282652489
 10
-5.0064759548
 20
-1.1149904226
 10
-5.0120428229
 20
-1.1015450245
 10
-5.0172189259
 20
-1.0879352867
 10
-5.0220007099
 20
-1.0741678646
 10
-5.0263816135
 20
-1.0602587361
 10
-5.0303548167
 20
-1.0462284262
 10
-5.0339173395
 20
-1.0320874513
 10
-5.0370657919
 20
-1.0178492659
 10
-5.0397951985
 20
-1.0035394365
 10
-5.0421044786
 20
-0.9891703217
 10
-5.0439929103
 20
-0.9747543155
 10
-5.0454589551
 20
-0.9603174353
 10
-5.046503547
 20
-0.9458766516
 10
-5.0471287695
 20
-0.9314397052
 10
-5.047336532
 20
-0.9170187581
  0
LINE
  5
334
100
AcDbEntity
  8
0
100
AcDbLine
 62
250
  6
CONTINUOUS
 10
-11.0530844587
 20
-0.266009315
 11
-11.0782720744
 21
-0.2656824555
  0
LINE
  5
335
100
AcDbEntity
  8
0
100
AcDbLine
 62
7
  6
CONTINUOUS
 10
-5.2325575051
 20
-0.2522311711
 11
-5.699329088
 21
-0.245175742
  0
LINE
  5
336
100
AcDbEntity
  8
0
100
AcDbLine
 62
7
  6
CONTINUOUS
 10
4.5338993291
 20
0.0142408938
 11
5.000670912
 21
0.0071854647
  0
LINE
  5
337
100
AcDbEntity
  8
0
100
AcDbLine
 62
250
  6
CONTINUOUS
 10
-11.2726684374
 20
-0.4655171964
 11
-11.294221185
 21
-0.465207102
  0
LINE
  5
338
100
AcDbEntity
  8
0
100
AcDbLine
 62
250
  6
CONTINUOUS
 10
-11.0782720744
 20
-0.2656824555
 11
-11.0941926057
 21
-0.265399554
  0
LINE
  5
339
100
AcDbEntity
  8
0
100
AcDbLine
 62
250
  6
CONTINUOUS
 10
-11.294221185
 20
-0.465207102
 11
-11.3024219771
 21
-0.4650472505
  0
LINE
  5
33A
100
AcDbEntity
  8
0
100
AcDbLine
 62
250
  6
CONTINUOUS
 10
-11.0941926057
 20
-0.265399554
 11
-11.1006618086
 21
-0.2652523102
  0
LWPOLYLINE
  5
33B
100
AcDbEntity
  8
0
100
AcDbPolyline
 62
250
  6
CONTINUOUS
 90
7
 70
0
 10
-11.3024219771
 20
-0.4650472505
 10
-11.3088637014
 20
-0.4648850631
 10
-11.3114173871
 20
-0.4648031893
 10
-11.3135232266
 20
-0.4647209956
 10
-11.3151792741
 20
-0.464638554
 10
-11.3163839178
 20
-0.4645558115
 10
-11.3171360004
 20
-0.4644727774
  0
LWPOLYLINE
  5
33C
100
AcDbEntity
  8
0
100
AcDbPolyline
 62
250
  6
CONTINUOUS
 90
10
 70
0
 10
-11.1006618086
 20
-0.2652523102
 10
-11.1061015556
 20
-0.2651020037
 10
-11.1084321251
 20
-0.2650257772
 10
-11.1104970545
 20
-0.2649490436
 10
-11.1122956297
 20
-0.2648717985
 10
-11.1138285647
 20
-0.2647940464
 10
-11.1150916624
 20
-0.2647160092
 10
-11.1160835238
 20
-0.2646377608
 10
-11.1168055479
 20
-0.2645592272
 10
-11.1172577347
 20
-0.2644804086
  0
LWPOLYLINE
  5
33D
100
AcDbEntity
  8
0
100
AcDbPolyline
 62
250
  6
CONTINUOUS
 90
18
 70
0
 10
-11.3709947696
 20
-21.6766241432
 10
-11.3705267434
 20
-21.675740619
 10
-11.3700603392
 20
-21.6745001504
 10
-11.369595557
 20
-21.6729027375
 10
-11.3691320502
 20
-21.6709466936
 10
-11.3686701654
 20
-21.6686337053
 10
-11.3682109424
 20
-21.6659688324
 10
-11.3677544002
 20
-21.6629513299
 10
-11.3673005197
 20
-21.6595819427
 10
-11.3668502838
 20
-21.6558679657
 10
-11.3664037019
 20
-21.651808662
 10
-11.3659607647
 20
-21.6474047685
 10
-11.3655224267
 20
-21.6426657905
 10
-11.3650886973
 20
-21.6375909984
 10
-11.3646595671
 20
-21.6321811218
 10
-11.3642359631
 20
-21.6264478542
 10
-11.3638178975
 20
-21.6203904968
 10
-11.3629992354
 20
-21.6073193995
  0
LWPOLYLINE
  5
33E
100
AcDbEntity
  8
0
100
AcDbPolyline
 62
250
  6
CONTINUOUS
 90
6
 70
0
 10
-11.3171360004
 20
0.2264825001
 10
-11.3163839178
 20
0.2265655342
 10
-11.3151792741
 20
0.2266482767
 10
-11.3135232266
 20
0.2267307183
 10
-11.3114173871
 20
0.226812912
 10
-11.3088637014
 20
0.2268947858
  0
LINE
  5
33F
100
AcDbEntity
  8
0
100
AcDbLine
 62
250
  6
CONTINUOUS
 10
-11.1084321251
 20
0.0270354999
 11
-11.103511685
 21
0.0271872382
  0
LINE
  5
340
100
AcDbEntity
  8
0
100
AcDbLine
 62
250
  6
CONTINUOUS
 10
-11.103511685
 20
0.0271872382
 11
-11.0975526311
 21
0.0273361129
  0
LINE
  5
341
100
AcDbEntity
  8
0
100
AcDbLine
 62
250
  6
CONTINUOUS
 10
-11.3088637014
 20
0.2268947858
 11
-11.3024219771
 21
0.2270569732
  0
LWPOLYLINE
  5
342
100
AcDbEntity
  8
0
100
AcDbPolyline
 62
250
  6
CONTINUOUS
 90
3
 70
0
 10
4.349459348
 20
0.6790568984
 10
4.3489086394
 20
0.6790441314
 10
4.348678356
 20
0.6790313438
  0
LWPOLYLINE
  5
343
100
AcDbEntity
  8
0
100
AcDbPolyline
 62
250
  6
CONTINUOUS
 90
40
 70
0
 10
-5.2473334192
 20
0.029016808
 10
-5.239280928
 20
0.0291795996
 10
-5.2312414967
 20
0.0296664842
 10
-5.223228164
 20
0.0304766721
 10
-5.2152539264
 20
0.0316088492
 10
-5.2073317167
 20
0.0330611793
 10
-5.1994743837
 20
0.034831307
 10
-5.1916946707
 20
0.0369163615
 10
-5.1840051951
 20
0.039312961
 10
-5.1764184283
 20
0.0420172186
 10
-5.1689466746
 20
0.0450247485
 10
-5.1616020522
 20
0.048330673
 10
-5.154396473
 20
0.0519296302
 10
-5.1473416232
 20
0.0558157833
 10
-5.1404489447
 20
0.0599828295
 10
-5.1337296164
 20
0.0644240105
 10
-5.127194536
 20
0.0691321234
 10
-5.1208543025
 20
0.0740995323
 10
-5.1147191986
 20
0.0793181809
 10
-5.1087991747
 20
0.0847796053
 10
-5.103103832
 20
0.090474948
 10
-5.0976424076
 20
0.096394972
 10
-5.0924237589
 20
0.1025300758
 10
-5.08745635
 20
0.1088703094
 10
-5.0827482371
 20
0.1154053897
 10
-5.0783070561
 20
0.122124718
 10
-5.0741400099
 20
0.1290173965
 10
-5.0702538569
 20
0.1360722463
 10
-5.0666548996
 20
0.1432778256
 10
-5.0633489752
 20
0.150622448
 10
-5.0603414453
 20
0.1580942016
 10
-5.0576371876
 20
0.1656809685
 10
-5.0552405881
 20
0.173370444
 10
-5.0531555337
 20
0.181150157
 10
-5.051385406
 20
0.1890074901
 10
-5.0499330758
 20
0.1969296997
 10
-5.0488008987
 20
0.2049039374
 10
-5.0479907109
 20
0.2129172701
 10
-5.0475038263
 20
0.2209567014
 10
-5.0473410346
 20
0.2290091926
  0
LINE
  5
344
100
AcDbEntity
  8
0
100
AcDbLine
 62
250
  6
CONTINUOUS
 10
-11.0975526311
 20
0.0273361129
 11
-11.086718668
 21
0.0275528511
  0
LINE
  5
345
100
AcDbEntity
  8
0
100
AcDbLine
 62
250
  6
CONTINUOUS
 10
-11.3024219771
 20
0.2270569732
 11
-11.2894702914
 21
0.2272956311
  0
LINE
  5
346
100
AcDbEntity
  8
0
100
AcDbLine
 62
250
  6
CONTINUOUS
 10
-11.086718668
 20
0.0275528511
 11
-11.063835134
 21
0.0278922849
  0
LINE
  5
347
100
AcDbEntity
  8
0
100
AcDbLine
 62
250
  6
CONTINUOUS
 10
4.3503341036
 20
0.229025886
 11
4.3489150459
 21
0.2290078689
  0
LINE
  5
348
100
AcDbEntity
  8
0
100
AcDbLine
 62
250
  6
CONTINUOUS
 10
-11.2894702914
 20
0.2272956311
 11
-11.2593946121
 21
0.2276761056
  0
LINE
  5
349
100
AcDbEntity
  8
0
100
AcDbLine
 62
250
  6
CONTINUOUS
 10
4.3515179947
 20
0.6790822891
 11
4.349459348
 21
0.6790568984
  0
LWPOLYLINE
  5
34A
100
AcDbEntity
  8
0
100
AcDbPolyline
 62
250
  6
CONTINUOUS
 90
3
 70
0
 10
-11.063835134
 20
0.0278922849
 10
-11.0158793417
 20
0.0283622392
 10
-11.0090160488
 20
0.0284134785
  0
LINE
  5
34B
100
AcDbEntity
  8
0
100
AcDbLine
 62
250
  6
CONTINUOUS
 10
-11.2593946121
 20
0.2276761056
 11
-11.1806560034
 21
0.2282823436
  0
LINE
  5
34C
100
AcDbEntity
  8
0
100
AcDbLine
 62
250
  6
CONTINUOUS
 10
4.3621477799
 20
0.6791439855
 11
4.3515179947
 21
0.6790822891
  0
LINE
  5
34D
100
AcDbEntity
  8
0
100
AcDbLine
 62
250
  6
CONTINUOUS
 10
-11.1806560034
 20
0.2282823436
 11
-11.0623842991
 21
0.2287924254
  0
LINE
  5
34E
100
AcDbEntity
  8
0
100
AcDbLine
 62
250
  6
CONTINUOUS
 10
4.3995934385
 20
0.6792421479
 11
4.3621477799
 21
0.6791439855
  0
LINE
  5
34F
100
AcDbEntity
  8
0
100
AcDbLine
 62
250
  6
CONTINUOUS
 10
4.4166502351
 20
0.6792693834
 11
4.3995934385
 21
0.6792421479
  0
LINE
  5
350
100
AcDbEntity
  8
0
100
AcDbLine
 62
250
  6
CONTINUOUS
 10
-11.0623842991
 20
0.2287924254
 11
-10.907296251
 21
0.2291026717
  0
LINE
  5
351
100
AcDbEntity
  8
0
100
AcDbLine
 62
250
  6
CONTINUOUS
 10
4.4356108825
 20
0.6792931861
 11
4.4166502351
 21
0.6792693834
  0
LINE
  5
352
100
AcDbEntity
  8
0
100
AcDbLine
 62
250
  6
CONTINUOUS
 10
-10.8174377533
 20
0.2291484502
 11
-5.2393303134
 21
0.2291645839
  0
LINE
  5
353
100
AcDbEntity
  8
0
100
AcDbLine
 62
250
  6
CONTINUOUS
 10
-10.907296251
 20
0.2291026717
 11
-10.8174377533
 21
0.229148451
  0
LINE
  5
354
100
AcDbEntity
  8
0
100
AcDbLine
 62
250
  6
CONTINUOUS
 10
4.5486707406
 20
0.6793506822
 11
4.4356108825
 21
0.6792931861
  0
LINE
  5
355
100
AcDbEntity
  8
0
100
AcDbLine
 62
7
  6
CONTINUOUS
 10
3.8369039307
 20
1.1672188416
 11
-4.5355621067
 21
1.1672188416
  0
LINE
  5
356
100
AcDbEntity
  8
0
100
AcDbLine
 62
250
  6
CONTINUOUS
 10
-4.5473386771
 20
1.1789982746
 11
3.8486804377
 21
1.1789982746
  0
LINE
  5
357
100
AcDbEntity
  8
0
100
AcDbLine
 62
250
  6
CONTINUOUS
 10
-4.5473415397
 20
1.3795900933
 11
3.8486833637
 21
1.3795900933
  0
LINE
  5
358
100
AcDbEntity
  8
0
100
AcDbLine
 62
250
  6
CONTINUOUS
 10
4.3894060896
 20
0.229096727
 11
4.3503341036
 21
0.229025886
  0
LINE
  5
359
100
AcDbEntity
  8
0
100
AcDbLine
 62
250
  6
CONTINUOUS
 10
-5.2393303134
 20
0.2291645839
 11
-5.1037141011
 21
0.2291100068
  0
LINE
  5
35A
100
AcDbEntity
  8
0
100
AcDbLine
 62
250
  6
CONTINUOUS
 10
10.2814043355
 20
0.2289968975
 11
4.3894060896
 21
0.229096727
  0
LINE
  5
35B
100
AcDbEntity
  8
0
100
AcDbLine
 62
250
  6
CONTINUOUS
 10
10.2814043355
 20
0.2289968975
 11
10.4143325237
 21
0.2286121634
  0
LINE
  5
35C
100
AcDbEntity
  8
0
100
AcDbLine
 62
250
  6
CONTINUOUS
 10
-5.2473289166
 20
0.6793506821
 11
-5.0556285568
 21
0.6791197122
  0
LINE
  5
35D
100
AcDbEntity
  8
0
100
AcDbLine
 62
250
  6
CONTINUOUS
 10
-5.1037141011
 20
0.2291100068
 11
-5.0489922772
 21
0.229025886
  0
LINE
  5
35E
100
AcDbEntity
  8
0
100
AcDbLine
 62
250
  6
CONTINUOUS
 10
4.3489150459
 20
0.2290078689
 11
4.3486828586
 21
0.2290091926
  0
LINE
  5
35F
100
AcDbEntity
  8
0
100
AcDbLine
 62
250
  6
CONTINUOUS
 10
10.4143325237
 20
0.2286121634
 11
10.5206587492
 21
0.2280275277
  0
LINE
  5
360
100
AcDbEntity
  8
0
100
AcDbLine
 62
250
  6
CONTINUOUS
 10
-5.0556285568
 20
0.6791197122
 11
-5.0501760838
 21
0.6790822891
  0
LINE
  5
361
100
AcDbEntity
  8
0
100
AcDbLine
 62
250
  6
CONTINUOUS
 10
10.3103578728
 20
0.0284134785
 11
10.3599084192
 21
0.0279563956
  0
LINE
  5
362
100
AcDbEntity
  8
0
100
AcDbLine
 62
250
  6
CONTINUOUS
 10
10.5206587492
 20
0.2280275277
 11
10.5740102614
 21
0.2275269191
  0
LWPOLYLINE
  5
363
100
AcDbEntity
  8
0
100
AcDbPolyline
 62
250
  6
CONTINUOUS
 90
3
 70
0
 10
-5.0489922772
 20
0.229025886
 10
-5.0475732215
 20
0.229007869
 10
-5.0473410346
 20
0.2290091926
  0
LWPOLYLINE
  5
364
100
AcDbEntity
  8
0
100
AcDbPolyline
 62
250
  6
CONTINUOUS
 90
55
 70
0
 10
3.8486833637
 20
1.3795900933
 10
3.8688854581
 20
1.379303354
 10
3.889078903
 20
1.3784276169
 10
3.9092636983
 20
1.3769628819
 10
3.9294648784
 20
1.374908562
 10
3.949657409
 20
1.3722652443
 10
3.969766187
 20
1.3690346898
 10
3.9897893596
 20
1.365213233
 10
4.0097287797
 20
1.3608045394
 10
4.0295149028
 20
1.3558213671
 10
4.0491446341
 20
1.3502611274
 10
4.0686210683
 20
1.344126409
 10
4.0878839456
 20
1.337437736
 10
4.1069263833
 20
1.3301957817
 10
4.1257552641
 20
1.3223998727
 10
4.1443309764
 20
1.3140685141
 10
4.1626531202
 20
1.3052012938
 10
4.1807220956
 20
1.2957986237
 10
4.1984994901
 20
1.2858802442
 10
4.2159880751
 20
1.2754431823
 10
4.2331850793
 20
1.2644904109
 10
4.2500437772
 20
1.2530505895
 10
4.266563302
 20
1.2411219948
 10
4.2827445205
 20
1.2287063499
 10
4.2985433071
 20
1.2158374842
 10
4.3139570925
 20
1.2025154613
 10
4.3289884461
 20
1.1887402175
 10
4.3436009498
 20
1.1745453911
 10
4.3577937532
 20
1.159930048
 10
4.3715677069
 20
1.1448951222
 10
4.3848889437
 20
1.1294770543
 10
4.3977575275
 20
1.1136732393
 10
4.4101733946
 20
1.097486282
 10
4.4221024869
 20
1.0809604381
 10
4.433542995
 20
1.0640949675
 10
4.4444967283
 20
1.04689061
 10
4.4549350575
 20
1.0293938416
 10
4.4648550279
 20
1.0116074741
 10
4.4742595942
 20
0.9935286955
 10
4.4831289916
 20
0.9751955456
 10
4.4914629332
 20
0.9566073271
 10
4.499261706
 20
0.9377647373
 10
4.5065064061
 20
0.918707908
 10
4.5131976776
 20
0.8994297328
 10
4.5193348764
 20
0.879937318
 10
4.5248971664
 20
0.8602921146
 10
4.5298818018
 20
0.8404913044
 10
4.5342915283
 20
0.8205377057
 10
4.5381137476
 20
0.800501224
 10
4.5413447591
 20
0.7803803806
 10
4.5439882635
 20
0.7601766542
 10
4.5460427635
 20
0.739964387
 10
4.5475077601
 20
0.7197683595
 10
4.5483837525
 20
0.6995637913
 10
4.5486707406
 20
0.6793506822
  0
LWPOLYLINE
  5
365
100
AcDbEntity
  8
0
100
AcDbPolyline
 62
250
  6
CONTINUOUS
 90
55
 70
0
 10
3.8486804376
 20
1.1789982745
 10
3.8631013318
 20
1.1787908167
 10
3.8775376769
 20
1.1781659741
 10
3.8919773154
 20
1.177121887
 10
3.9064125648
 20
1.1756565161
 10
3.9208264136
 20
1.1737689789
 10
3.9351927049
 20
1.1714608877
 10
3.9494989575
 20
1.1687330476
 10
3.963732942
 20
1.1655865839
 10
3.9778692809
 20
1.1620264837
 10
3.991894337
 20
1.1580562428
 10
4.0057978333
 20
1.1536788323
 10
4.0195600472
 20
1.1489008275
 10
4.0331651372
 20
1.1437287091
 10
4.0466063215
 20
1.138166046
 10
4.0598777388
 20
1.1322157644
 10
4.0729681623
 20
1.1258831375
 10
4.0858667017
 20
1.119173676
 10
4.098567807
 20
1.1120902052
 10
4.1110629311
 20
1.1046369925
 10
4.1233389019
 20
1.0968213872
 10
4.135383335
 20
1.0886510091
 10
4.1471860997
 20
1.0801325728
 10
4.1587369728
 20
1.0712732953
 10
4.1700239817
 20
1.0620823517
 10
4.1810365613
 20
1.0525685762
 10
4.1917665857
 20
1.0427392261
 10
4.2022061492
 20
1.0326016056
 10
4.2123464214
 20
1.0221642593
 10
4.2221787709
 20
1.0114360407
 10
4.2316957841
 20
1.0004249127
 10
4.2408901815
 20
0.9891389765
 10
4.2497530965
 20
0.9775887843
 10
4.2582752447
 20
0.9657863987
 10
4.2664493283
 20
0.9537421265
 10
4.2742686786
 20
0.9414660033
 10
4.2817257491
 20
0.9289702341
 10
4.2888131429
 20
0.9162679982
 10
4.295526569
 20
0.9033678116
 10
4.3018632747
 20
0.8902749716
 10
4.3078177788
 20
0.8770001453
 10
4.3133846469
 20
0.8635547472
 10
4.3185607499
 20
0.8499450094
 10
4.3233425339
 20
0.8361775873
 10
4.3277234375
 20
0.8222684588
 10
4.3316966407
 20
0.8082381489
 10
4.3352591635
 20
0.794097174
 10
4.3384076159
 20
0.7798589886
 10
4.3411370225
 20
0.7655491592
 10
4.3434463026
 20
0.7511800444
 10
4.3453347343
 20
0.7367640382
 10
4.346800779
 20
0.722327158
 10
4.347845371
 20
0.7078863743
 10
4.3484705935
 20
0.6934494279
 10
4.348678356
 20
0.6790284808
  0
LWPOLYLINE
  5
366
100
AcDbEntity
  8
0
100
AcDbPolyline
 62
250
  6
CONTINUOUS
 90
4
 70
0
 10
-5.0501760838
 20
0.6790822891
 10
-5.0481174357
 20
0.6790568984
 10
-5.0475667268
 20
0.6790441314
 10
-5.0473364432
 20
0.6790313438
  0
LINE
  5
367
100
AcDbEntity
  8
0
100
AcDbLine
 62
250
  6
CONTINUOUS
 10
10.3599084192
 20
0.0279563956
 11
10.3839577191
 21
0.0276230707
  0
LINE
  5
368
100
AcDbEntity
  8
0
100
AcDbLine
 62
250
  6
CONTINUOUS
 10
10.5740102614
 20
0.2275269191
 11
10.595563009
 21
0.2272168247
  0
LINE
  5
369
100
AcDbEntity
  8
0
100
AcDbLine
 62
250
  6
CONTINUOUS
 10
10.3839577191
 20
0.0276230707
 11
10.3955344297
 21
0.0274092767
  0
LINE
  5
36A
100
AcDbEntity
  8
0
100
AcDbLine
 62
250
  6
CONTINUOUS
 10
10.595563009
 20
0.2272168247
 11
10.6037638011
 21
0.2270569732
  0
LINE
  5
36B
100
AcDbEntity
  8
0
100
AcDbLine
 62
250
  6
CONTINUOUS
 10
10.3955344297
 20
0.0274092767
 11
10.4020036326
 21
0.0272620329
  0
LWPOLYLINE
  5
36C
100
AcDbEntity
  8
0
100
AcDbPolyline
 62
250
  6
CONTINUOUS
 90
7
 70
0
 10
10.6037638011
 20
0.2270569732
 10
10.6102055254
 20
0.2268947858
 10
10.6127592111
 20
0.226812912
 10
10.6148650506
 20
0.2267307183
 10
10.6165210981
 20
0.2266482767
 10
10.6177257418
 20
0.2265655342
 10
10.6184778244
 20
0.2264825001
  0
LWPOLYLINE
  5
36D
100
AcDbEntity
  8
0
100
AcDbPolyline
 62
250
  6
CONTINUOUS
 90
10
 70
0
 10
10.4020036326
 20
0.0272620329
 10
10.4074433796
 20
0.0271117264
 10
10.4097739491
 20
0.0270354999
 10
10.4118388785
 20
0.0269587664
 10
10.4136374537
 20
0.0268815212
 10
10.4151703887
 20
0.0268037691
 10
10.4164334864
 20
0.0267257319
 10
10.4174253478
 20
0.0266474835
 10
10.4181473719
 20
0.0265689499
 10
10.4185995587
 20
0.0264901313
  0
LINE
  5
36E
100
AcDbEntity
  8
0
100
AcDbLine
 62
250
  6
CONTINUOUS
 10
-11.4730217786
 20
-21.8297424464
 11
-11.3709947696
 21
-21.6766241432
  0
LINE
  5
36F
100
AcDbEntity
  8
0
100
AcDbLine
 62
250
  6
CONTINUOUS
 10
-10.9721108932
 20
-22.3272330792
 11
-10.8712993561
 21
-22.1759389106
  0
LINE
  5
370
100
AcDbEntity
  8
0
100
AcDbLine
 62
250
  6
CONTINUOUS
 10
3.8369039307
 20
1.1672188416
 11
3.8486804377
 21
1.1789982746
  0
LINE
  5
371
100
AcDbEntity
  8
0
100
AcDbLine
 62
250
  6
CONTINUOUS
 10
4.3486828586
 20
0.2290091926
 11
4.3368848922
 21
0.2172112262
  0
LINE
  5
372
100
AcDbEntity
  8
0
100
AcDbLine
 62
250
  6
CONTINUOUS
 10
4.5486752432
 20
0.029016808
 11
4.5338993291
 21
0.0142408938
  0
LINE
  5
373
100
AcDbEntity
  8
0
100
AcDbLine
 62
250
  6
CONTINUOUS
 10
4.3368848922
 20
0.6672378801
 11
4.348678356
 21
0.6790284809
  0
LINE
  5
374
100
AcDbEntity
  8
0
100
AcDbLine
 62
250
  6
CONTINUOUS
 10
-11.2992681266
 20
-0.0189951386
 11
-11.1172577347
 21
0.0264901313
  0
LINE
  5
375
100
AcDbEntity
  8
0
100
AcDbLine
 62
250
  6
CONTINUOUS
 10
-11.499329088
 20
0.1809515644
 11
-11.3171360004
 21
0.2264824908
  0
LWPOLYLINE
  5
376
100
AcDbEntity
  8
0
100
AcDbPolyline
 62
250
  6
CONTINUOUS
 90
8
 70
0
 10
-11.1172577347
 20
0.0264901313
 10
-11.1168055479
 20
0.0265689499
 10
-11.1160835238
 20
0.0266474835
 10
-11.1150916624
 20
0.0267257319
 10
-11.1138285647
 20
0.0268037691
 10
-11.1122956297
 20
0.0268815212
 10
-11.1104970545
 20
0.0269587664
 10
-11.1084321251
 20
0.0270354999
  0
LWPOLYLINE
  5
377
100
AcDbEntity
  8
0
100
AcDbPolyline
 62
7
  6
CONTINUOUS
 90
2
 70
0
 43
0.3500000019
 10
18.1032924805
 20
2.9167190857
 10
16.6032910156
 20
2.9167190857
  0
LINE
  5
378
100
AcDbEntity
  8
0
100
AcDbLine
 62
250
  6
CONTINUOUS
 10
10.4185995587
 20
0.0264901313
 11
10.6006099506
 21
-0.0189951386
  0
LINE
  5
379
100
AcDbEntity
  8
0
100
AcDbLine
 62
250
  6
CONTINUOUS
 10
10.6184778244
 20
0.2264824908
 11
10.800670912
 21
0.1809515644
  0
LINE
  5
37A
100
AcDbEntity
  8
0
100
AcDbLine
 62
250
  6
CONTINUOUS
 10
4.3368848922
 20
-0.9052281574
 11
4.348678356
 21
-0.9170186945
  0
LINE
  5
37B
100
AcDbEntity
  8
0
100
AcDbLine
 62
250
  6
CONTINUOUS
 10
4.3368848922
 20
-0.4552015035
 11
4.3486828586
 21
-0.4669994699
  0
LINE
  5
37C
100
AcDbEntity
  8
0
100
AcDbLine
 62
250
  6
CONTINUOUS
 10
4.5338993291
 20
-0.2522311711
 11
4.5486752432
 21
-0.2670070853
  0
LINE
  5
37D
100
AcDbEntity
  8
0
100
AcDbLine
 62
250
  6
CONTINUOUS
 10
3.8369039307
 20
-1.4052091189
 11
3.8486805011
 21
-1.4169885519
  0
LINE
  5
37E
100
AcDbEntity
  8
0
100
AcDbLine
 62
250
  6
CONTINUOUS
 10
-11.3709947696
 20
21.4386338659
 11
-11.4730217786
 21
21.5917521691
  0
LINE
  5
37F
100
AcDbEntity
  8
0
100
AcDbLine
 62
250
  6
CONTINUOUS
 10
-10.8712993561
 20
21.9379486333
 11
-10.9721108932
 21
22.0892428019
  0
LWPOLYLINE
  5
380
100
AcDbEntity
  8
0
100
AcDbPolyline
 62
250
  6
CONTINUOUS
 90
40
 70
0
 10
4.3486828586
 20
0.2290091926
 10
4.3488456503
 20
0.2209567014
 10
4.3493325349
 20
0.2129172701
 10
4.3501427227
 20
0.2049039374
 10
4.3512748998
 20
0.1969296997
 10
4.35272723
 20
0.1890074901
 10
4.3544973577
 20
0.181150157
 10
4.3565824121
 20
0.173370444
 10
4.3589790116
 20
0.1656809685
 10
4.3616832693
 20
0.1580942016
 10
4.3646907992
 20
0.150622448
 10
4.3679967236
 20
0.1432778256
 10
4.3715956808
 20
0.1360722463
 10
4.3754818339
 20
0.1290173965
 10
4.3796488801
 20
0.122124718
 10
4.3840900611
 20
0.1154053897
 10
4.388798174
 20
0.1088703094
 10
4.3937655829
 20
0.1025300758
 10
4.3989842316
 20
0.096394972
 10
4.404445656
 20
0.090474948
 10
4.4101409987
 20
0.0847796053
 10
4.4160610226
 20
0.0793181809
 10
4.4221961265
 20
0.0740995323
 10
4.42853636
 20
0.0691321234
 10
4.4350714404
 20
0.0644240105
 10
4.4417907687
 20
0.0599828295
 10
4.4486834472
 20
0.0558157833
 10
4.455738297
 20
0.0519296302
 10
4.4629438762
 20
0.048330673
 10
4.4702884986
 20
0.0450247485
 10
4.4777602523
 20
0.0420172186
 10
4.4853470191
 20
0.039312961
 10
4.4930364947
 20
0.0369163615
 10
4.5008162077
 20
0.034831307
 10
4.5086735407
 20
0.0330611793
 10
4.5165957504
 20
0.0316088492
 10
4.524569988
 20
0.0304766721
 10
4.5325833207
 20
0.0296664842
 10
4.540622752
 20
0.0291795996
 10
4.5486752432
 20
0.029016808
  0
LINE
  5
381
100
AcDbEntity
  8
0
100
AcDbLine
 62
250
  6
CONTINUOUS
 10
3.8486833637
 20
-1.6175803706
 11
3.8486833637
 21
-1.4169885519
  0
LINE
  5
382
100
AcDbEntity
  8
0
100
AcDbLine
 62
250
  6
CONTINUOUS
 10
3.8486833637
 20
1.3795900933
 11
3.8486833637
 21
1.1789982746
  0
LINE
  5
383
100
AcDbEntity
  8
0
100
AcDbLine
 62
7
  6
CONTINUOUS
 10
4.3368848922
 20
-0.9052281574
 11
4.3368848922
 21
-0.4552015035
  0
LINE
  5
384
100
AcDbEntity
  8
0
100
AcDbLine
 62
7
  6
CONTINUOUS
 10
4.3368848922
 20
0.2172112262
 11
4.3368848922
 21
0.6672378801
  0
LINE
  5
385
100
AcDbEntity
  8
0
100
AcDbLine
 62
250
  6
CONTINUOUS
 10
4.348678356
 20
0.6790284809
 11
4.3486828586
 21
0.2290091926
  0
LINE
  5
386
100
AcDbEntity
  8
0
100
AcDbLine
 62
250
  6
CONTINUOUS
 10
4.3486828586
 20
-0.4669994699
 11
4.348678356
 21
-0.9170186945
  0
LINE
  5
387
100
AcDbEntity
  8
0
100
AcDbLine
 62
250
  6
CONTINUOUS
 10
4.5486707406
 20
0.6793506822
 11
4.5486752432
 21
0.029016808
  0
LINE
  5
388
100
AcDbEntity
  8
0
100
AcDbLine
 62
250
  6
CONTINUOUS
 10
4.5486752432
 20
-0.2670070853
 11
4.5486707406
 21
-0.9173409595
  0
LWPOLYLINE
  5
389
100
AcDbEntity
  8
0
100
AcDbPolyline
 62
250
  6
CONTINUOUS
 90
55
 70
0
 10
4.5486707406
 20
-0.9173409595
 10
4.5483835245
 20
-0.9375605552
 10
4.5475069968
 20
-0.9577712736
 10
4.5460411576
 20
-0.9779731147
 10
4.5439853969
 20
-0.9981911729
 10
4.5413403247
 20
-1.0184003536
 10
4.5381077704
 20
-1.0385253733
 10
4.5342840582
 20
-1.0585643677
 10
4.5298728639
 20
-1.078519201
 10
4.5248870454
 20
-1.0983201822
 10
4.5193240087
 20
-1.117964199
 10
4.5131863478
 20
-1.1374543636
 10
4.5064947022
 20
-1.1567303217
 10
4.4992497412
 20
-1.1757851793
 10
4.4914507955
 20
-1.1946258306
 10
4.4831164977
 20
-1.2132126032
 10
4.4742464264
 20
-1.2315450979
 10
4.4648410029
 20
-1.2496237141
 10
4.4549201239
 20
-1.2674099784
 10
4.4444808169
 20
-1.2849066445
 10
4.4335260543
 20
-1.3021109587
 10
4.4220846503
 20
-1.3189761867
 10
4.4101548913
 20
-1.3355014402
 10
4.3977384907
 20
-1.3516876075
 10
4.3848694033
 20
-1.3674906187
 10
4.371547701
 20
-1.3829078935
 10
4.3577733117
 20
-1.3979420123
 10
4.3435799745
 20
-1.4125566465
 10
4.3289667586
 20
-1.426750942
 10
4.3139345947
 20
-1.440525753
 10
4.2985200134
 20
-1.4538473125
 10
4.2827204212
 20
-1.4667156756
 10
4.2665384116
 20
-1.4791307873
 10
4.2500182953
 20
-1.4910587154
 10
4.2331593542
 20
-1.5024976406
 10
4.2159623065
 20
-1.5134493822
 10
4.1984736177
 20
-1.5238854663
 10
4.1806961169
 20
-1.533802938
 10
4.1626269751
 20
-1.5432047522
 10
4.1443041712
 20
-1.5520712999
 10
4.1257270071
 20
-1.5604023039
 10
4.1068961809
 20
-1.5681980415
 10
4.0878517662
 20
-1.5754397356
 10
4.0685866688
 20
-1.582128034
 10
4.0491079829
 20
-1.5882622891
 10
4.0294770649
 20
-1.5938217805
 10
4.0096911142
 20
-1.5988037675
 10
3.9897529314
 20
-1.603210991
 10
3.9697322744
 20
-1.6070309525
 10
3.9496276742
 20
-1.6102599624
 10
3.9294405997
 20
-1.6129017105
 10
3.909245215
 20
-1.6149547682
 10
3.8890662415
 20
-1.6164186593
 10
3.8688789577
 20
-1.6172938601
 10
3.8486833637
 20
-1.6175803706
  0
LWPOLYLINE
  5
38A
100
AcDbEntity
  8
0
100
AcDbPolyline
 62
250
  6
CONTINUOUS
 90
55
 70
0
 10
4.348678356
 20
-0.9170186944
 10
4.3484704057
 20
-0.9314462137
 10
4.3478446544
 20
-0.945889047
 10
4.3467992505
 20
-0.96033502
 10
4.3453321606
 20
-0.9747764538
 10
4.3434425138
 20
-0.9891963006
 10
4.3411319457
 20
-1.0035683293
 10
4.3384012787
 20
-1.017880042
 10
4.3352516549
 20
-1.0321191989
 10
4.3316880971
 20
-1.0462603609
 10
4.3277141258
 20
-1.0602898746
 10
4.3233327343
 20
-1.0741974612
 10
4.3185505368
 20
-1.0879633617
 10
4.313374042
 20
-1.1015717292
 10
4.3078068443
 20
-1.1150157796
 10
4.301851912
 20
-1.1282896227
 10
4.2955145435
 20
-1.1413820391
 10
4.2888002814
 20
-1.1542821341
 10
4.2817120085
 20
-1.1669843155
 10
4.2742540268
 20
-1.1794800382
 10
4.2664337147
 20
-1.1917561451
 10
4.2582587481
 20
-1.2038002362
 10
4.2497358798
 20
-1.2156021867
 10
4.2408723534
 20
-1.2271517986
 10
4.2316773825
 20
-1.2384371165
 10
4.222159834
 20
-1.2494475928
 10
4.2123269912
 20
-1.2601751261
 10
4.2021861866
 20
-1.2706118397
 10
4.1917459886
 20
-1.2807489294
 10
4.1810152769
 20
-1.2905777879
 10
4.1700020442
 20
-1.3000910291
 10
4.158714416
 20
-1.3092813997
 10
4.1471629622
 20
-1.3181400659
 10
4.1353597622
 20
-1.3266577822
 10
4.1233151479
 20
-1.3348272771
 10
4.111039161
 20
-1.3426419206
 10
4.0985439898
 20
-1.3500942225
 10
4.0858428282
 20
-1.3571768152
 10
4.0729441945
 20
-1.3638854418
 10
4.0598533442
 20
-1.3702174073
 10
4.0465809391
 20
-1.3761672621
 10
4.0331384019
 20
-1.3817295971
 10
4.0195319377
 20
-1.3869013243
 10
4.0057681994
 20
-1.3916789156
 10
3.9918631598
 20
-1.3960558376
 10
3.9778373073
 20
-1.4000253097
 10
3.9637011567
 20
-1.403584374
 10
3.9494681463
 20
-1.4067296652
 10
3.9351637798
 20
-1.409456244
 10
3.9208004051
 20
-1.4117630468
 10
3.9063904
 20
-1.4136493683
 10
3.8919597085
 20
-1.4151136936
 10
3.8775252653
 20
-1.4161569683
 10
3.8630948144
 20
-1.4167812817
 10
3.8486805011
 20
-1.4169885518
  0
LWPOLYLINE
  5
38B
100
AcDbEntity
  8
0
100
AcDbPolyline
 62
250
  6
CONTINUOUS
 90
13
 70
0
 10
10.1726411801
 20
21.9379486333
 10
10.1721729741
 20
21.9361842871
 10
10.1717064427
 20
21.9337017795
 10
10.1712415856
 20
21.9305029122
 10
10.1707780765
 20
21.9265900142
 10
10.1703162419
 20
21.9219659102
 10
10.1698570612
 20
21.9166338999
 10
10.1694005296
 20
21.9105977901
 10
10.168946652
 20
21.9038619499
 10
10.1684964225
 20
21.8964312807
 10
10.1680498559
 20
21.8883111738
 10
10.1676069375
 20
21.8795074661
 10
10.1667349016
 20
21.859875032
  0
LINE
  5
38C
100
AcDbEntity
  8
RACCORDO
100
AcDbLine
 62
7
  6
CONTINUOUS
 10
9.651141036
 20
-0.245175742
 11
9.6612641081
 21
-0.2401145914
  0
LINE
  5
38D
100
AcDbEntity
  8
RACCORDO
100
AcDbLine
 62
250
  6
CONTINUOUS
 10
9.6983666473
 20
-0.245175742
 11
9.7507318421
 21
-0.2189951386
  0
LINE
  5
38E
100
AcDbEntity
  8
DRAFT
100
AcDbLine
 62
7
  6
CONTINUOUS
 10
9.550670912
 20
-0.0189951386
 11
9.4983057172
 21
0.0071854647
  0
LWPOLYLINE
  5
38F
100
AcDbEntity
  8
0
100
AcDbPolyline
 62
7
  6
CONTINUOUS
 90
3
 70
0
 43
0.3500000019
 10
17.8175771484
 20
0.9167191467
 10
18.0318623047
 20
0.8452905655
 10
18.3175776367
 20
0.702433445
  0
LWPOLYLINE
  5
390
100
AcDbEntity
  8
0
100
AcDbPolyline
 62
7
  6
CONTINUOUS
 90
10
 70
0
 43
0.3500000019
 10
17.6032919922
 20
0.8452905655
 10
17.7461469727
 20
0.9167191467
 10
17.8175771484
 20
0.9167191467
 10
17.9604375
 20
0.7738619843
 10
17.9604375
 20
0.702433445
 10
17.8890073242
 20
0.6310048637
 10
17.8175771484
 20
0.6310048637
 10
17.674722168
 20
0.702433445
 10
17.6032919922
 20
0.7738619843
 10
17.6032919922
 20
0.8452905655
  0
LWPOLYLINE
  5
391
100
AcDbEntity
  8
0
100
AcDbPolyline
 62
250
  6
CONTINUOUS
 90
16
 70
0
 10
10.6655777871
 20
-21.6264478542
 10
10.6660013911
 20
-21.6321811218
 10
10.6664305213
 20
-21.6375909984
 10
10.6668642507
 20
-21.6426657905
 10
10.6673025887
 20
-21.6474047685
 10
10.6677455259
 20
-21.651808662
 10
10.6681921078
 20
-21.6558679657
 10
10.6686423437
 20
-21.6595819427
 10
10.6690962242
 20
-21.6629513299
 10
10.6695527664
 20
-21.6659688324
 10
10.6700119894
 20
-21.6686337053
 10
10.6704738742
 20
-21.6709466936
 10
10.670937381
 20
-21.6729027375
 10
10.6714021632
 20
-21.6745001504
 10
10.6718685674
 20
-21.675740619
 10
10.6723365936
 20
-21.6766241432
  0
LINE
  5
392
100
AcDbEntity
  8
0
100
AcDbLine
 62
250
  6
CONTINUOUS
 10
10.664747182
 20
-21.6140097484
 11
10.6655777871
 21
-21.6264478542
  0
LINE
  5
393
100
AcDbEntity
  8
0
100
AcDbLine
 62
250
  6
CONTINUOUS
 10
10.6639413677
 20
-21.6003187806
 11
10.664747182
 21
-21.6140097484
  0
LWPOLYLINE
  5
394
100
AcDbEntity
  8
0
100
AcDbPolyline
 62
250
  6
CONTINUOUS
 90
11
 70
0
 10
10.1680498559
 20
-22.1263014511
 10
10.1684964225
 20
-22.134421558
 10
10.168946652
 20
-22.1418522272
 10
10.1694005296
 20
-22.1485880674
 10
10.1698570612
 20
-22.1546241772
 10
10.1703162419
 20
-22.1599561875
 10
10.1707780765
 20
-22.1645802915
 10
10.1712415856
 20
-22.1684931895
 10
10.1717064427
 20
-22.1716920568
 10
10.1721729741
 20
-22.1741745644
 10
10.1726411801
 20
-22.1759389106
  0
LINE
  5
395
100
AcDbEntity
  8
0
100
AcDbLine
 62
250
  6
CONTINUOUS
 10
10.6631620839
 20
-21.5854045412
 11
10.6639413677
 21
-21.6003187806
  0
LINE
  5
396
100
AcDbEntity
  8
0
100
AcDbLine
 62
250
  6
CONTINUOUS
 10
10.167168617
 20
-22.1080167569
 11
10.1680498559
 21
-22.1263014511
  0
LINE
  5
397
100
AcDbEntity
  8
0
100
AcDbLine
 62
250
  6
CONTINUOUS
 10
10.6624118957
 20
-21.5693138443
 11
10.6631620839
 21
-21.5854045412
  0
LINE
  5
398
100
AcDbEntity
  8
0
100
AcDbLine
 62
250
  6
CONTINUOUS
 10
10.661693191
 20
-21.5521003834
 11
10.6624118957
 21
-21.5693138443
  0
LINE
  5
399
100
AcDbEntity
  8
0
100
AcDbLine
 62
250
  6
CONTINUOUS
 10
10.1663057842
 20
-22.0870507318
 11
10.167168617
 21
-22.1080167569
  0
LINE
  5
39A
100
AcDbEntity
  8
0
100
AcDbLine
 62
250
  6
CONTINUOUS
 10
10.1654641419
 20
-22.0634638997
 11
10.1663057842
 21
-22.0870507318
  0
LINE
  5
39B
100
AcDbEntity
  8
0
100
AcDbLine
 62
250
  6
CONTINUOUS
 10
10.1642458304
 20
-22.0233204938
 11
10.1654641419
 21
-22.0634638997
  0
LINE
  5
39C
100
AcDbEntity
  8
0
100
AcDbLine
 62
250
  6
CONTINUOUS
 10
10.1627164103
 20
-21.9613193271
 11
10.1642458304
 21
-22.0233204938
  0
LWPOLYLINE
  5
39D
100
AcDbEntity
  8
0
100
AcDbPolyline
 62
250
  6
CONTINUOUS
 90
3
 70
0
 10
10.1606617376
 20
-21.8516450529
 10
10.1609825015
 20
-21.8712182312
 10
10.1627164103
 20
-21.9613193271
  0
LINE
  5
39E
100
AcDbEntity
  8
0
100
AcDbLine
 62
250
  6
CONTINUOUS
 10
10.1623530283
 20
21.7063881392
 11
10.1606617376
 21
21.6136547756
  0
LINE
  5
39F
100
AcDbEntity
  8
0
100
AcDbLine
 62
250
  6
CONTINUOUS
 10
10.1638525688
 20
21.7707170545
 11
10.1623530283
 21
21.7063881392
  0
LINE
  5
3A0
100
AcDbEntity
  8
0
100
AcDbLine
 62
250
  6
CONTINUOUS
 10
10.1650516169
 20
21.8127183734
 11
10.1638525688
 21
21.7707170545
  0
LINE
  5
3A1
100
AcDbEntity
  8
0
100
AcDbLine
 62
250
  6
CONTINUOUS
 10
10.1658821933
 20
21.8375905604
 11
10.1650516169
 21
21.8127183734
  0
LINE
  5
3A2
100
AcDbEntity
  8
0
100
AcDbLine
 62
250
  6
CONTINUOUS
 10
10.1667349016
 20
21.859875032
 11
10.1658821933
 21
21.8375905604
  0
LINE
  5
3A3
100
AcDbEntity
  8
0
100
AcDbLine
 62
250
  6
CONTINUOUS
 10
10.6624118957
 20
21.331323567
 11
10.661693191
 21
21.3141101061
  0
LINE
  5
3A4
100
AcDbEntity
  8
0
100
AcDbLine
 62
250
  6
CONTINUOUS
 10
10.6631620839
 20
21.3474142639
 11
10.6624118957
 21
21.331323567
  0
LINE
  5
3A5
100
AcDbEntity
  8
0
100
AcDbLine
 62
250
  6
CONTINUOUS
 10
10.6639413677
 20
21.3623285033
 11
10.6631620839
 21
21.3474142639
  0
LINE
  5
3A6
100
AcDbEntity
  8
0
100
AcDbLine
 62
250
  6
CONTINUOUS
 10
10.664747182
 20
21.3760194711
 11
10.6639413677
 21
21.3623285033
  0
LINE
  5
3A7
100
AcDbEntity
  8
0
100
AcDbLine
 62
250
  6
CONTINUOUS
 10
-11.2894292788
 20
9.3744948691
 11
-11.2773586362
 21
9.3750658063
  0
LINE
  5
3A8
100
AcDbEntity
  8
0
100
AcDbLine
 62
250
  6
CONTINUOUS
 10
-11.2773586362
 20
9.3750658063
 11
-11.2634179406
 21
9.3756221648
  0
LINE
  5
3A9
100
AcDbEntity
  8
0
100
AcDbLine
 62
250
  6
CONTINUOUS
 10
-11.2634179406
 20
9.3756221648
 11
-11.2476642659
 21
9.3761616668
  0
LINE
  5
3AA
100
AcDbEntity
  8
0
100
AcDbLine
 62
250
  6
CONTINUOUS
 10
-11.2476642659
 20
9.3761616668
 11
-11.2207774687
 21
9.3769345036
  0
LINE
  5
3AB
100
AcDbEntity
  8
0
100
AcDbLine
 62
250
  6
CONTINUOUS
 10
-11.2207774687
 20
9.3769345036
 11
-11.1792441515
 21
9.3778860186
  0
LINE
  5
3AC
100
AcDbEntity
  8
0
100
AcDbLine
 62
250
  6
CONTINUOUS
 10
-11.1792441515
 20
9.3778860186
 11
-11.11916533
 21
9.3789269461
  0
LINE
  5
3AD
100
AcDbEntity
  8
0
100
AcDbLine
 62
250
  6
CONTINUOUS
 10
-11.11916533
 20
9.3789269461
 11
-11.0514601759
 21
9.3797782989
  0
LINE
  5
3AE
100
AcDbEntity
  8
0
100
AcDbLine
 62
250
  6
CONTINUOUS
 10
-11.0514601759
 20
9.3797782989
 11
-10.9778580132
 21
9.3804183316
  0
LINE
  5
3AF
100
AcDbEntity
  8
0
100
AcDbLine
 62
250
  6
CONTINUOUS
 10
-10.9778580132
 20
9.3804183316
 11
-10.9002387871
 21
9.3808306966
  0
LINE
  5
3B0
100
AcDbEntity
  8
0
100
AcDbLine
 62
250
  6
CONTINUOUS
 10
-10.9002387871
 20
9.3808306966
 11
-10.8205850465
 21
9.3810048613
  0
LINE
  5
3B1
100
AcDbEntity
  8
0
100
AcDbLine
 62
250
  6
CONTINUOUS
 10
10.217331734
 20
9.380767029
 11
-10.8205850465
 21
9.3810048614
  0
LINE
  5
3B2
100
AcDbEntity
  8
0
100
AcDbLine
 62
250
  6
CONTINUOUS
 10
10.3239663719
 20
9.3800607119
 11
10.217331734
 21
9.380767029
  0
LINE
  5
3B3
100
AcDbEntity
  8
0
100
AcDbLine
 62
250
  6
CONTINUOUS
 10
10.4075234299
 20
9.3791131521
 11
10.3239663719
 21
9.3800607119
  0
LINE
  5
3B4
100
AcDbEntity
  8
0
100
AcDbLine
 62
250
  6
CONTINUOUS
 10
10.469257113
 20
9.3781081585
 11
10.4075234299
 21
9.3791131521
  0
LINE
  5
3B5
100
AcDbEntity
  8
0
100
AcDbLine
 62
250
  6
CONTINUOUS
 10
10.5123249467
 20
9.3771813447
 11
10.469257113
 21
9.3781081585
  0
LINE
  5
3B6
100
AcDbEntity
  8
0
100
AcDbLine
 62
250
  6
CONTINUOUS
 10
10.5404692576
 20
9.3764244035
 11
10.5123249467
 21
9.3771813447
  0
LINE
  5
3B7
100
AcDbEntity
  8
0
100
AcDbLine
 62
250
  6
CONTINUOUS
 10
10.5571056898
 20
9.3758941627
 11
10.5404692576
 21
9.3764244035
  0
LINE
  5
3B8
100
AcDbEntity
  8
0
100
AcDbLine
 62
250
  6
CONTINUOUS
 10
10.5719604789
 20
9.3753459518
 11
10.5571056898
 21
9.3758941627
  0
LINE
  5
3B9
100
AcDbEntity
  8
0
100
AcDbLine
 62
250
  6
CONTINUOUS
 10
10.6606779296
 20
-21.5242663491
 11
10.661693191
 21
-21.5521003834
  0
LINE
  5
3BA
100
AcDbEntity
  8
0
100
AcDbLine
 62
250
  6
CONTINUOUS
 10
10.6597441517
 20
-21.4941845378
 11
10.6606779296
 21
-21.5242663491
  0
LINE
  5
3BB
100
AcDbEntity
  8
0
100
AcDbLine
 62
250
  6
CONTINUOUS
 10
10.6586361098
 20
-21.4509123962
 11
10.6597441517
 21
-21.4941845378
  0
LWPOLYLINE
  5
3BC
100
AcDbEntity
  8
0
100
AcDbPolyline
 62
250
  6
CONTINUOUS
 90
40
 70
0
 10
10.6184777241
 20
-0.4644727932
 10
10.6183132347
 20
-0.4564214708
 10
10.6178249345
 20
-0.4483832026
 10
10.6170136152
 20
-0.4403710217
 10
10.6158805922
 20
-0.4323979189
 10
10.6144277027
 20
-0.4244768215
 10
10.6126573022
 20
-0.4166205725
 10
10.6105722614
 20
-0.4088419101
 10
10.6081759607
 20
-0.4011534462
 10
10.6054722856
 20
-0.3935676467
 10
10.6024656197
 20
-0.3860968112
 10
10.599160838
 20
-0.3787530526
 10
10.5955632987
 20
-0.3715482779
 10
10.5916788349
 20
-0.3644941687
 10
10.5875137446
 20
-0.3576021625
 10
10.5830747811
 20
-0.3508834337
 10
10.5783691417
 20
-0.3443488759
 10
10.5734044559
 20
-0.3380090841
 10
10.5681887734
 20
-0.3318743374
 10
10.5627305507
 20
-0.3259545826
 10
10.5570386377
 20
-0.3202594179
 10
10.5511222631
 20
-0.3147980771
 10
10.5449910196
 20
-0.3095794152
 10
10.5386548483
 20
-0.3046118936
 10
10.5321240224
 20
-0.2999035665
 10
10.5254091309
 20
-0.2954620678
 10
10.5185210611
 20
-0.2912945989
 10
10.5114709813
 20
-0.2874079168
 10
10.5042703221
 20
-0.2838083232
 10
10.4969307586
 20
-0.2805016544
 10
10.489464191
 20
-0.2774932718
 10
10.4818827254
 20
-0.274788053
 10
10.4741986542
 20
-0.2723903843
 10
10.466424436
 20
-0.2703041531
 10
10.458572676
 20
-0.2685327419
 10
10.4506561046
 20
-0.267079023
 10
10.4426875576
 20
-0.2659453532
 10
10.4346799551
 20
-0.2651335708
 10
10.4266462802
 20
-0.2646449919
 10
10.4185995587
 20
-0.2644804086
  0
LINE
  5
3BD
100
AcDbEntity
  8
0
100
AcDbLine
 62
250
  6
CONTINUOUS
 10
10.6576965414
 20
-21.4044988964
 11
10.6586361098
 21
-21.4509123962
  0
LWPOLYLINE
  5
3BE
100
AcDbEntity
  8
0
100
AcDbPolyline
 62
250
  6
CONTINUOUS
 90
49
 70
0
 10
10.6723365936
 20
21.4386338659
 10
10.6720398444
 20
21.4549520236
 10
10.6712095695
 20
21.471252748
 10
10.6698466558
 20
21.4875186246
 10
10.6679525595
 20
21.5037322758
 10
10.6655293041
 20
21.51987638
 10
10.6625794783
 20
21.53593369
 10
10.6591062337
 20
21.551887051
 10
10.6551132807
 20
21.5677194196
 10
10.6506048853
 20
21.5834138815
 10
10.6455858638
 20
21.5989536696
 10
10.6400615784
 20
21.6143221823
 10
10.6340379307
 20
21.6295030009
 10
10.627521356
 20
21.644479907
 10
10.6205188163
 20
21.6592369004
 10
10.6130377926
 20
21.6737582155
 10
10.6050862771
 20
21.6880283389
 10
10.5966727648
 20
21.702032025
 10
10.5878062441
 20
21.7157543134
 10
10.5784961874
 20
21.7291805439
 10
10.568752541
 20
21.7422963729
 10
10.5585857144
 20
21.7550877882
 10
10.5480065691
 20
21.7675411242
 10
10.5370264073
 20
21.7796430768
 10
10.5256569595
 20
21.7913807167
 10
10.5139103719
 20
21.8027415044
 10
10.5017991941
 20
21.8137133027
 10
10.4893363647
 20
21.8242843899
 10
10.4765351982
 20
21.8344434727
 10
10.4634093707
 20
21.8441796977
 10
10.4499729048
 20
21.8534826632
 10
10.4362401553
 20
21.8623424307
 10
10.4222257934
 20
21.8707495349
 10
10.4079447911
 20
21.8786949942
 10
10.3934124054
 20
21.8861703201
 10
10.3786441616
 20
21.8931675265
 10
10.3636558373
 20
21.8996791381
 10
10.3484634451
 20
21.9056981981
 10
10.3330832155
 20
21.9112182763
 10
10.3175315798
 20
21.9162334753
 10
10.3018251523
 20
21.9207384372
 10
10.2859807129
 20
21.9247283492
 10
10.2700151887
 20
21.9281989487
 10
10.2539456363
 20
21.9311465279
 10
10.2377892233
 20
21.9335679379
 10
10.2215632103
 20
21.9354605918
 10
10.2052849321
 20
21.9368224675
 10
10.1889717794
 20
21.9376521101
 10
10.1726411801
 20
21.9379486333
  0
LINE
  5
3BF
100
AcDbEntity
  8
0
100
AcDbLine
 62
250
  6
CONTINUOUS
 10
10.6569360745
 20
-21.3554704912
 11
10.6576965414
 21
-21.4044988964
  0
LINE
  5
3C0
100
AcDbEntity
  8
0
100
AcDbLine
 62
250
  6
CONTINUOUS
 10
10.1589407402
 20
-21.7245253892
 11
10.1606617376
 21
-21.8516450529
  0
LINE
  5
3C1
100
AcDbEntity
  8
0
100
AcDbLine
 62
250
  6
CONTINUOUS
 10
10.6562503452
 20
-21.2913636616
 11
10.6569360745
 21
-21.3554704912
  0
LINE
  5
3C2
100
AcDbEntity
  8
0
100
AcDbLine
 62
250
  6
CONTINUOUS
 10
10.1572407285
 20
-21.5336368657
 11
10.1589407402
 21
-21.7245253892
  0
LINE
  5
3C3
100
AcDbEntity
  8
0
100
AcDbLine
 62
250
  6
CONTINUOUS
 10
10.6531461979
 20
-20.7010101671
 11
10.6562503452
 21
-21.2913636616
  0
LINE
  5
3C4
100
AcDbEntity
  8
0
100
AcDbLine
 62
250
  6
CONTINUOUS
 10
10.1507317552
 20
-20.2181295945
 11
10.1562897244
 21
-21.3263915583
  0
LINE
  5
3C5
100
AcDbEntity
  8
0
100
AcDbLine
 62
250
  6
CONTINUOUS
 10
10.6478280589
 20
-19.5979728957
 11
10.6531461979
 21
-20.7010101671
  0
LINE
  5
3C6
100
AcDbEntity
  8
0
100
AcDbLine
 62
250
  6
CONTINUOUS
 10
10.1456533521
 20
-19.1079632138
 11
10.1507317552
 21
-20.2181295945
  0
LINE
  5
3C7
100
AcDbEntity
  8
0
100
AcDbLine
 62
250
  6
CONTINUOUS
 10
10.6429893922
 20
-18.4930838944
 11
10.6478280589
 21
-19.5979728957
  0
LINE
  5
3C8
100
AcDbEntity
  8
0
100
AcDbLine
 62
250
  6
CONTINUOUS
 10
10.1410547885
 20
-17.9960642382
 11
10.1456533521
 21
-19.1079632138
  0
LINE
  5
3C9
100
AcDbEntity
  8
0
100
AcDbLine
 62
250
  6
CONTINUOUS
 10
10.6386312162
 20
-17.3865787435
 11
10.6429893922
 21
-18.4930838944
  0
LINE
  5
3CA
100
AcDbEntity
  8
0
100
AcDbLine
 62
250
  6
CONTINUOUS
 10
10.136937003
 20
-16.8826046706
 11
10.1410547885
 21
-17.9960642382
  0
LINE
  5
3CB
100
AcDbEntity
  8
0
100
AcDbLine
 62
250
  6
CONTINUOUS
 10
10.6347540366
 20
-16.2785859705
 11
10.6386312162
 21
-17.3865787435
  0
LINE
  5
3CC
100
AcDbEntity
  8
0
100
AcDbLine
 62
250
  6
CONTINUOUS
 10
10.1333006767
 20
-15.767756827
 11
10.136937003
 21
-16.8826046706
  0
LINE
  5
3CD
100
AcDbEntity
  8
0
100
AcDbLine
 62
250
  6
CONTINUOUS
 10
10.6313585619
 20
-15.1692983498
 11
10.6347540366
 21
-16.2785859705
  0
LINE
  5
3CE
100
AcDbEntity
  8
0
100
AcDbLine
 62
7
  6
CONTINUOUS
 10
10.7743636026
 20
21.5917521691
 11
10.800670912
 21
12.9810048614
  0
LINE
  5
3CF
100
AcDbEntity
  8
0
100
AcDbLine
 62
250
  6
CONTINUOUS
 10
10.1562897244
 20
-21.3263915583
 11
10.1572407285
 21
-21.5336368657
  0
LINE
  5
3D0
100
AcDbEntity
  8
0
100
AcDbLine
 62
250
  6
CONTINUOUS
 10
10.1301462307
 20
-14.6516932237
 11
10.1333006767
 21
-15.767756827
  0
LINE
  5
3D1
100
AcDbEntity
  8
0
100
AcDbLine
 62
250
  6
CONTINUOUS
 10
10.628445347
 20
-14.0589090134
 11
10.6313585619
 21
-15.1692983498
  0
LINE
  5
3D2
100
AcDbEntity
  8
0
100
AcDbLine
 62
250
  6
CONTINUOUS
 10
10.1274742478
 20
-13.5345864851
 11
10.1301462307
 21
-14.6516932237
  0
LINE
  5
3D3
100
AcDbEntity
  8
0
100
AcDbLine
 62
250
  6
CONTINUOUS
 10
10.6260147293
 20
-12.9475468085
 11
10.628445347
 21
-14.0589090134
  0
LINE
  5
3D4
100
AcDbEntity
  8
0
100
AcDbLine
 62
250
  6
CONTINUOUS
 10
10.1252851576
 20
-12.4166094928
 11
10.1274742478
 21
-13.5345864851
  0
LINE
  5
3D5
100
AcDbEntity
  8
0
100
AcDbLine
 62
250
  6
CONTINUOUS
 10
10.6240671661
 20
-11.8354050533
 11
10.6260147293
 21
-12.9475468085
  0
LINE
  5
3D6
100
AcDbEntity
  8
0
100
AcDbLine
 62
250
  6
CONTINUOUS
 10
10.1235792134
 20
-11.2979352516
 11
10.1252851576
 21
-12.4166094928
  0
LINE
  5
3D7
100
AcDbEntity
  8
0
100
AcDbLine
 62
250
  6
CONTINUOUS
 10
10.6226029824
 20
-10.7226995941
 11
10.6240671661
 21
-11.8354050533
  0
LINE
  5
3D8
100
AcDbEntity
  8
0
100
AcDbLine
 62
250
  6
CONTINUOUS
 10
10.1223567892
 20
-10.1787367986
 11
10.1235792134
 21
-11.2979352516
  0
LINE
  5
3D9
100
AcDbEntity
  8
0
100
AcDbLine
 62
250
  6
CONTINUOUS
 10
10.621622284
 20
-9.6094951386
 11
10.6226029824
 21
-10.7226995941
  0
LWPOLYLINE
  5
3DA
100
AcDbEntity
  8
0
100
AcDbPolyline
 62
250
  6
CONTINUOUS
 90
3
 70
0
 10
10.1207230345
 20
-7.5854006064
 10
10.1212888771
 20
-8.6022128967
 10
10.1223567892
 20
-10.1787367986
  0
LWPOLYLINE
  5
3DB
100
AcDbEntity
  8
0
100
AcDbPolyline
 62
250
  6
CONTINUOUS
 90
3
 70
0
 10
10.620418179
 20
-7.5774128154
 10
10.6209841378
 20
-8.5934647899
 10
10.621622284
 20
-9.6094951386
  0
LINE
  5
3DC
100
AcDbEntity
  8
0
100
AcDbLine
 62
250
  6
CONTINUOUS
 10
10.1198079047
 20
-5.5517059615
 11
10.1207230345
 21
-7.5854006064
  0
LINE
  5
3DD
100
AcDbEntity
  8
0
100
AcDbLine
 62
250
  6
CONTINUOUS
 10
10.6195028198
 20
-5.5452429046
 11
10.620418179
 21
-7.5774128154
  0
LINE
  5
3DE
100
AcDbEntity
  8
0
100
AcDbLine
 62
250
  6
CONTINUOUS
 10
10.1191811721
 20
-3.5179350964
 11
10.1198079047
 21
-5.5517059615
  0
LINE
  5
3DF
100
AcDbEntity
  8
0
100
AcDbLine
 62
250
  6
CONTINUOUS
 10
10.1188416005
 20
-1.4840826165
 11
10.1191811721
 21
-3.5179350964
  0
LINE
  5
3E0
100
AcDbEntity
  8
0
100
AcDbLine
 62
250
  6
CONTINUOUS
 10
10.6188762183
 20
-3.5129886609
 11
10.6195028198
 21
-5.5452429046
  0
LINE
  5
3E1
100
AcDbEntity
  8
0
100
AcDbLine
 62
250
  6
CONTINUOUS
 10
10.1188416005
 20
-1.4840826165
 11
10.1187823668
 21
-0.2670070853
  0
LWPOLYLINE
  5
3E2
100
AcDbEntity
  8
0
100
AcDbPolyline
 62
250
  6
CONTINUOUS
 90
3
 70
0
 10
10.6184778244
 20
-0.4644727681
 10
10.6185384229
 20
-1.4806631033
 10
10.6188762183
 20
-3.5129886609
  0
LINE
  5
3E3
100
AcDbEntity
  8
0
100
AcDbLine
 62
7
  6
CONTINUOUS
 10
10.800670912
 20
-0.4189418417
 11
10.800670912
 21
-13.2189951386
  0
LINE
  5
3E4
100
AcDbEntity
  8
0
100
AcDbLine
 62
7
  6
CONTINUOUS
 10
10.800670912
 20
0.1809515644
 11
10.800670912
 21
12.9810048614
  0
LINE
  5
3E5
100
AcDbEntity
  8
0
100
AcDbLine
 62
250
  6
CONTINUOUS
 10
10.1188416005
 20
1.2460923392
 11
10.1187823668
 21
0.029016808
  0
LINE
  5
3E6
100
AcDbEntity
  8
0
100
AcDbLine
 62
250
  6
CONTINUOUS
 10
10.6185384229
 20
1.242672826
 11
10.6184778244
 21
0.2264824908
  0
LINE
  5
3E7
100
AcDbEntity
  8
0
100
AcDbLine
 62
250
  6
CONTINUOUS
 10
10.1194586175
 20
4.2968417432
 11
10.1188416005
 21
1.2460923392
  0
LINE
  5
3E8
100
AcDbEntity
  8
0
100
AcDbLine
 62
250
  6
CONTINUOUS
 10
10.6191534193
 20
4.2911346909
 11
10.6185384229
 21
1.242672826
  0
LINE
  5
3E9
100
AcDbEntity
  8
0
100
AcDbLine
 62
250
  6
CONTINUOUS
 10
10.1202293427
 20
6.3305721972
 11
10.1194586175
 21
4.2968417432
  0
LINE
  5
3EA
100
AcDbEntity
  8
0
100
AcDbLine
 62
250
  6
CONTINUOUS
 10
10.6199244077
 20
6.323348938
 11
10.6191534193
 21
4.2911346909
  0
LINE
  5
3EB
100
AcDbEntity
  8
0
100
AcDbLine
 62
250
  6
CONTINUOUS
 10
10.1219268705
 20
9.3810048614
 11
10.1202293427
 21
6.3305721972
  0
LINE
  5
3EC
100
AcDbEntity
  8
0
100
AcDbLine
 62
250
  6
CONTINUOUS
 10
10.621622284
 20
9.3715048614
 11
10.6199244077
 21
6.323348938
  0
LINE
  5
3ED
100
AcDbEntity
  8
0
100
AcDbLine
 62
250
  6
CONTINUOUS
 10
10.1229075701
 20
10.500400445
 11
10.1219268705
 21
9.3810048614
  0
LINE
  5
3EE
100
AcDbEntity
  8
0
100
AcDbLine
 62
250
  6
CONTINUOUS
 10
10.6226029824
 20
10.4847093168
 11
10.621622284
 21
9.3715048614
  0
LINE
  5
3EF
100
AcDbEntity
  8
0
100
AcDbLine
 62
250
  6
CONTINUOUS
 10
10.1243717543
 20
11.6193584436
 11
10.1229075701
 21
10.500400445
  0
LINE
  5
3F0
100
AcDbEntity
  8
0
100
AcDbLine
 62
250
  6
CONTINUOUS
 10
10.6240671661
 20
11.597414776
 11
10.6226029824
 21
10.4847093168
  0
LINE
  5
3F1
100
AcDbEntity
  8
0
100
AcDbLine
 62
250
  6
CONTINUOUS
 10
10.1263193174
 20
12.7377056808
 11
10.1243717543
 21
11.6193584436
  0
LINE
  5
3F2
100
AcDbEntity
  8
0
100
AcDbLine
 62
250
  6
CONTINUOUS
 10
10.6260147293
 20
12.7095565312
 11
10.6240671661
 21
11.597414776
  0
LINE
  5
3F3
100
AcDbEntity
  8
0
100
AcDbLine
 62
250
  6
CONTINUOUS
 10
10.1287499348
 20
13.855269163
 11
10.1263193174
 21
12.7377056808
  0
LINE
  5
3F4
100
AcDbEntity
  8
0
100
AcDbLine
 62
250
  6
CONTINUOUS
 10
10.628445347
 20
13.8209187361
 11
10.6260147293
 21
12.7095565312
  0
LINE
  5
3F5
100
AcDbEntity
  8
0
100
AcDbLine
 62
250
  6
CONTINUOUS
 10
10.1316631492
 20
14.9718759402
 11
10.1287499348
 21
13.855269163
  0
LINE
  5
3F6
100
AcDbEntity
  8
0
100
AcDbLine
 62
250
  6
CONTINUOUS
 10
10.6313585619
 20
14.9313080725
 11
10.628445347
 21
13.8209187361
  0
LINE
  5
3F7
100
AcDbEntity
  8
0
100
AcDbLine
 62
250
  6
CONTINUOUS
 10
10.1350586233
 20
16.0873532248
 11
10.1316631492
 21
14.9718759402
  0
LINE
  5
3F8
100
AcDbEntity
  8
0
100
AcDbLine
 62
250
  6
CONTINUOUS
 10
10.6347540366
 20
16.0405956932
 11
10.6313585619
 21
14.9313080725
  0
LINE
  5
3F9
100
AcDbEntity
  8
0
100
AcDbLine
 62
7
  6
CONTINUOUS
 10
10.7743636026
 20
-21.8297424464
 11
10.800670912
 21
-13.2189951386
  0
LINE
  5
3FA
100
AcDbEntity
  8
0
100
AcDbLine
 62
250
  6
CONTINUOUS
 10
10.1389358019
 20
17.2015284827
 11
10.1350586233
 21
16.0873532248
  0
LINE
  5
3FB
100
AcDbEntity
  8
0
100
AcDbLine
 62
250
  6
CONTINUOUS
 10
10.6386312162
 20
17.1485884662
 11
10.6347540366
 21
16.0405956932
  0
LINE
  5
3FC
100
AcDbEntity
  8
0
100
AcDbLine
 62
250
  6
CONTINUOUS
 10
10.1432939765
 20
18.3142292852
 11
10.1389358019
 21
17.2015284827
  0
LINE
  5
3FD
100
AcDbEntity
  8
0
100
AcDbLine
 62
250
  6
CONTINUOUS
 10
10.6429893922
 20
18.2550936171
 11
10.6386312162
 21
17.1485884662
  0
LINE
  5
3FE
100
AcDbEntity
  8
0
100
AcDbLine
 62
250
  6
CONTINUOUS
 10
10.1481326421
 20
19.4252834404
 11
10.1432939765
 21
18.3142292852
  0
LINE
  5
3FF
100
AcDbEntity
  8
0
100
AcDbLine
 62
250
  6
CONTINUOUS
 10
10.6478280589
 20
19.3599826184
 11
10.6429893922
 21
18.2550936171
  0
LINE
  5
400
100
AcDbEntity
  8
0
100
AcDbLine
 62
250
  6
CONTINUOUS
 10
10.6531461979
 20
20.4630198898
 11
10.6478280589
 21
19.3599826184
  0
LWPOLYLINE
  5
401
100
AcDbEntity
  8
0
100
AcDbPolyline
 62
250
  6
CONTINUOUS
 90
3
 70
0
 10
10.1562897244
 20
21.088401281
 10
10.1534507827
 20
20.5345190824
 10
10.1481326421
 20
19.4252834404
  0
LINE
  5
402
100
AcDbEntity
  8
0
100
AcDbLine
 62
250
  6
CONTINUOUS
 10
10.1574135038
 20
21.3205909437
 11
10.1562897244
 21
21.088401281
  0
LINE
  5
403
100
AcDbEntity
  8
0
100
AcDbLine
 62
250
  6
CONTINUOUS
 10
10.6563633247
 20
21.0663917762
 11
10.6531461979
 21
20.4630198898
  0
LINE
  5
404
100
AcDbEntity
  8
0
100
AcDbLine
 62
250
  6
CONTINUOUS
 10
10.159202525
 20
21.5087985865
 11
10.1574135038
 21
21.3205909437
  0
LINE
  5
405
100
AcDbEntity
  8
0
100
AcDbLine
 62
250
  6
CONTINUOUS
 10
10.6571088475
 20
21.1299499606
 11
10.6563633247
 21
21.0663917762
  0
LINE
  5
406
100
AcDbEntity
  8
0
100
AcDbLine
 62
250
  6
CONTINUOUS
 10
10.1606617376
 20
21.6136547756
 11
10.159202525
 21
21.5087985865
  0
LWPOLYLINE
  5
407
100
AcDbEntity
  8
0
100
AcDbPolyline
 62
250
  6
CONTINUOUS
 90
49
 70
0
 10
10.6723365936
 20
-21.6766241432
 10
10.6720398444
 20
-21.6929423018
 10
10.6712095694
 20
-21.7092430272
 10
10.6698466556
 20
-21.7255089046
 10
10.6679525591
 20
-21.7417225567
 10
10.6655293033
 20
-21.7578666617
 10
10.6625794773
 20
-21.7739239724
 10
10.6591062323
 20
-21.7898773342
 10
10.655113279
 20
-21.8057097034
 10
10.6506048831
 20
-21.8214041658
 10
10.6455858613
 20
-21.8369439545
 10
10.6400615753
 20
-21.8523124676
 10
10.6340379272
 20
-21.8674932866
 10
10.6275213521
 20
-21.882470193
 10
10.6205188119
 20
-21.8972271866
 10
10.6130377877
 20
-21.911748502
 10
10.6050862718
 20
-21.9260186254
 10
10.596672759
 20
-21.9400223116
 10
10.5878062379
 20
-21.9537446
 10
10.5784961808
 20
-21.9671708305
 10
10.568752534
 20
-21.9802866594
 10
10.558585707
 20
-21.9930780745
 10
10.5480065614
 20
-22.0055314104
 10
10.5370263993
 20
-22.0176333626
 10
10.5256569512
 20
-22.0293710023
 10
10.5139103635
 20
-22.0407317897
 10
10.5017991855
 20
-22.0517035876
 10
10.4893363559
 20
-22.0622746744
 10
10.4765351894
 20
-22.0724337568
 10
10.4634093619
 20
-22.0821699813
 10
10.4499728961
 20
-22.0914729464
 10
10.4362401467
 20
-22.1003327134
 10
10.422225785
 20
-22.1087398171
 10
10.4079447829
 20
-22.1166852759
 10
10.3934123974
 20
-22.1241606014
 10
10.378644154
 20
-22.1311578073
 10
10.3636558301
 20
-22.1376694184
 10
10.3484634382
 20
-22.143688478
 10
10.3330832091
 20
-22.1492085558
 10
10.3175315739
 20
-22.1542237544
 10
10.301825147
 20
-22.1587287159
 10
10.2859807082
 20
-22.1627186276
 10
10.2700151846
 20
-22.1661892268
 10
10.2539456328
 20
-22.1691368058
 10
10.2377892205
 20
-22.1715582156
 10
10.2215632082
 20
-22.1734508693
 10
10.2052849307
 20
-22.1748127449
 10
10.1889717787
 20
-22.1756423874
 10
10.1726411801
 20
-22.1759389106
  0
LINE
  5
408
100
AcDbEntity
  8
0
100
AcDbLine
 62
250
  6
CONTINUOUS
 10
10.6579150014
 20
21.1783762851
 11
10.6571088475
 21
21.1299499606
  0
LWPOLYLINE
  5
409
100
AcDbEntity
  8
0
100
AcDbPolyline
 62
250
  6
CONTINUOUS
 90
40
 70
0
 10
10.6184777241
 20
0.2264825159
 10
10.6183132348
 20
0.2184311946
 10
10.6178249347
 20
0.2103929275
 10
10.6170136156
 20
0.2023807477
 10
10.6158805929
 20
0.1944076459
 10
10.6144277038
 20
0.1864865495
 10
10.6126573038
 20
0.1786303015
 10
10.6105722634
 20
0.1708516399
 10
10.6081759634
 20
0.1631631768
 10
10.6054722889
 20
0.1555773781
 10
10.6024656237
 20
0.1481065432
 10
10.5991608427
 20
0.1407627852
 10
10.5955633041
 20
0.1335580109
 10
10.591678841
 20
0.1265039021
 10
10.5875137515
 20
0.1196118961
 10
10.5830747888
 20
0.1128931674
 10
10.5783691501
 20
0.1063586097
 10
10.5734044649
 20
0.1000188178
 10
10.568188783
 20
0.093884071
 10
10.5627305609
 20
0.087964316
 10
10.5570386484
 20
0.0822691509
 10
10.5511222743
 20
0.0768078097
 10
10.5449910311
 20
0.0715891473
 10
10.53865486
 20
0.0666216252
 10
10.5321240343
 20
0.0619132974
 10
10.5254091428
 20
0.0574717981
 10
10.518521073
 20
0.0533043285
 10
10.5114709929
 20
0.0494176456
 10
10.5042703334
 20
0.0458180513
 10
10.4969307695
 20
0.0425113817
 10
10.4894642013
 20
0.0395029984
 10
10.481882735
 20
0.0367977789
 10
10.4741986629
 20
0.0344001095
 10
10.4664244439
 20
0.0323138777
 10
10.4585726827
 20
0.030542466
 10
10.4506561102
 20
0.0290887466
 10
10.442687562
 20
0.0279550765
 10
10.434679958
 20
0.0271432938
 10
10.4266462818
 20
0.0266547146
 10
10.4185995587
 20
0.0264901313
  0
LINE
  5
40A
100
AcDbEntity
  8
0
100
AcDbLine
 62
250
  6
CONTINUOUS
 10
10.6588979012
 20
21.2240595989
 11
10.6579150014
 21
21.1783762851
  0
LINE
  5
40B
100
AcDbEntity
  8
0
100
AcDbLine
 62
250
  6
CONTINUOUS
 10
10.6597441517
 20
21.2561942605
 11
10.6588979012
 21
21.2240595989
  0
LINE
  5
40C
100
AcDbEntity
  8
0
100
AcDbLine
 62
250
  6
CONTINUOUS
 10
10.6606779296
 20
21.2862760718
 11
10.6597441517
 21
21.2561942605
  0
LINE
  5
40D
100
AcDbEntity
  8
0
100
AcDbLine
 62
250
  6
CONTINUOUS
 10
10.661693191
 20
21.3141101061
 11
10.6606779296
 21
21.2862760718
  0
LWPOLYLINE
  5
40E
100
AcDbEntity
  8
0
100
AcDbPolyline
 62
250
  6
CONTINUOUS
 90
11
 70
0
 10
10.621622284
 20
-9.6094951386
 10
10.6208083385
 20
-9.6097992514
 10
10.619483651
 20
-9.6101030528
 10
10.6176495778
 20
-9.6104062318
 10
10.6153079965
 20
-9.6107084781
 10
10.6124613045
 20
-9.6110094822
 10
10.609112416
 20
-9.611308936
 10
10.6052647596
 20
-9.6116065328
 10
10.6009222745
 20
-9.611901968
 10
10.5960894063
 20
-9.6121949392
 10
10.5907711027
 20
-9.6124851464
  0
LWPOLYLINE
  5
40F
100
AcDbEntity
  8
0
100
AcDbPolyline
 62
250
  6
CONTINUOUS
 90
13
 70
0
 10
10.621622284
 20
9.3715048614
 10
10.6208083385
 20
9.3718089741
 10
10.619483651
 20
9.3721127755
 10
10.6176495778
 20
9.3724159545
 10
10.6153079966
 20
9.3727182008
 10
10.6124613045
 20
9.3730192049
 10
10.6091124161
 20
9.3733186587
 10
10.6052647597
 20
9.3736162555
 10
10.6009222746
 20
9.3739116907
 10
10.5960894064
 20
9.3742046619
 10
10.5907711028
 20
9.3744948692
 10
10.5849728088
 20
9.3747820153
 10
10.5719604789
 20
9.3753459518
  0
LWPOLYLINE
  5
410
100
AcDbEntity
  8
0
100
AcDbPolyline
 62
7
  6
CONTINUOUS
 90
10
 70
0
 43
0.3500000019
 10
0.7221000977
 20
31.3880998535
 10
0.7935302734
 20
31.2452421875
 10
0.7935302734
 20
31.1738146973
 10
0.6506699219
 20
31.0309570313
 10
0.5792397461
 20
31.0309570313
 10
0.5078149414
 20
31.102387207
 10
0.5078149414
 20
31.1738146973
 10
0.5792397461
 20
31.3166723633
 10
0.6506699219
 20
31.3880998535
 10
0.7221000977
 20
31.3880998535
  0
LWPOLYLINE
  5
411
100
AcDbEntity
  8
0
100
AcDbPolyline
 62
7
  6
CONTINUOUS
 90
3
 70
0
 43
0.3500000019
 10
17.4604370117
 20
3.4167192383
 10
17.4604370117
 20
1.9167191162
 10
15.1032895508
 20
2.5595762634
  0
LWPOLYLINE
  5
412
100
AcDbEntity
  8
0
100
AcDbPolyline
 62
7
  6
CONTINUOUS
 90
3
 70
0
 43
0.3500000019
 10
17.4604370117
 20
-0.6547094307
 10
17.4604370117
 20
-2.1547094269
 10
15.1032895508
 20
-1.5118522797
  0
LWPOLYLINE
  5
413
100
AcDbEntity
  8
0
100
AcDbPolyline
 62
7
  6
CONTINUOUS
 90
3
 70
0
 43
0.3500000019
 10
17.4604370117
 20
-3.0118522339
 10
17.4604370117
 20
-4.511852356
 10
15.1032895508
 20
-3.8689952087
  0
LWPOLYLINE
  5
414
100
AcDbEntity
  8
0
100
AcDbPolyline
 62
250
  6
CONTINUOUS
 90
49
 70
0
 10
10.6559851379
 20
-21.251850467
 10
10.6551770712
 20
-21.254237231
 10
10.6538580012
 20
-21.2566215503
 10
10.652029279
 20
-21.2590009825
 10
10.6496927779
 20
-21.2613730907
 10
10.646850891
 20
-21.2637354449
 10
10.6435065292
 20
-21.2660856255
 10
10.6396631181
 20
-21.2684212252
 10
10.6353245945
 20
-21.2707398518
 10
10.6304954023
 20
-21.2730391302
 10
10.6251804878
 20
-21.2753167053
 10
10.6193852952
 20
-21.2775702443
 10
10.6131157604
 20
-21.2797974389
 10
10.6063783051
 20
-21.2819960078
 10
10.5991798305
 20
-21.2841636991
 10
10.5915277097
 20
-21.2862982924
 10
10.5834297809
 20
-21.2883976012
 10
10.5748943385
 20
-21.2904594753
 10
10.5659301254
 20
-21.2924818028
 10
10.5565463234
 20
-21.2944625122
 10
10.5467525442
 20
-21.2963995746
 10
10.5365588195
 20
-21.298291006
 10
10.5259755905
 20
-21.3001348691
 10
10.5150136975
 20
-21.301929275
 10
10.5036843686
 20
-21.303672386
 10
10.4919992083
 20
-21.3053624165
 10
10.4799701855
 20
-21.3069976355
 10
10.4676096214
 20
-21.308576368
 10
10.4549301768
 20
-21.310096997
 10
10.4419448389
 20
-21.3115579649
 10
10.4286669086
 20
-21.3129577752
 10
10.4151099861
 20
-21.3142949942
 10
10.4012879577
 20
-21.3155682521
 10
10.3872149811
 20
-21.3167762448
 10
10.372905471
 20
-21.3179177349
 10
10.3583740845
 20
-21.3189915532
 10
10.3436357058
 20
-21.3199965999
 10
10.3287054313
 20
-21.3209318455
 10
10.3135985538
 20
-21.321796332
 10
10.2983305471
 20
-21.3225891739
 10
10.28291705
 20
-21.3233095592
 10
10.2673738503
 20
-21.3239567499
 10
10.2517168688
 20
-21.3245300832
 10
10.2359621425
 20
-21.3250289717
 10
10.2201258089
 20
-21.3254529046
 10
10.204224089
 20
-21.3258014475
 10
10.1882732705
 20
-21.3260742435
 10
10.1722896917
 20
-21.3262710131
 10
10.1562897244
 20
-21.3263915547
  0
LWPOLYLINE
  5
415
100
AcDbEntity
  8
0
100
AcDbPolyline
 62
250
  6
CONTINUOUS
 90
49
 70
0
 10
10.6559851379
 20
21.0138601897
 10
10.6551770717
 20
21.0162469538
 10
10.6538580023
 20
21.0186312731
 10
10.6520292806
 20
21.0210107055
 10
10.6496927799
 20
21.0233828137
 10
10.6468508935
 20
21.025745168
 10
10.6435065321
 20
21.0280953487
 10
10.6396631214
 20
21.0304309485
 10
10.6353245982
 20
21.0327495751
 10
10.6304954063
 20
21.0350488536
 10
10.6251804922
 20
21.0373264288
 10
10.6193852999
 20
21.0395799679
 10
10.6131157653
 20
21.0418071626
 10
10.6063783103
 20
21.0440057317
 10
10.5991798358
 20
21.046173423
 10
10.5915277153
 20
21.0483080164
 10
10.5834297866
 20
21.0504073253
 10
10.5748943444
 20
21.0524691995
 10
10.5659301313
 20
21.0544915271
 10
10.5565463294
 20
21.0564722366
 10
10.5467525503
 20
21.0584092991
 10
10.5365588256
 20
21.0603007306
 10
10.5259755966
 20
21.0621445937
 10
10.5150137036
 20
21.0639389998
 10
10.5036843747
 20
21.0656821109
 10
10.4919992143
 20
21.0673721415
 10
10.4799701914
 20
21.0690073605
 10
10.4676096272
 20
21.0705860931
 10
10.4549301824
 20
21.0721067222
 10
10.4419448444
 20
21.0735676901
 10
10.4286669139
 20
21.0749675005
 10
10.4151099913
 20
21.0763047196
 10
10.4012879627
 20
21.0775779776
 10
10.3872149858
 20
21.0787859703
 10
10.3729054755
 20
21.0799274605
 10
10.3583740887
 20
21.0810012789
 10
10.3436357098
 20
21.0820063257
 10
10.328705435
 20
21.0829415713
 10
10.3135985572
 20
21.0838060578
 10
10.2983305502
 20
21.0845988998
 10
10.2829170528
 20
21.0853192851
 10
10.2673738528
 20
21.0859664759
 10
10.2517168709
 20
21.0865398092
 10
10.2359621443
 20
21.0870386978
 10
10.2201258104
 20
21.0874626307
 10
10.20422409
 20
21.0878111736
 10
10.1882732712
 20
21.0880839696
 10
10.1722896921
 20
21.0882807392
 10
10.1562897244
 20
21.0884012809
  0
LINE
  5
416
100
AcDbEntity
  8
RACCORDO
100
AcDbLine
 62
7
  6
CONTINUOUS
 10
7.4566246129
 20
22.0892428019
 11
7.1084059389
 21
22.0576339704
  0
LINE
  5
417
100
AcDbEntity
  8
0
100
AcDbLine
 62
250
  6
CONTINUOUS
 10
10.1562897244
 20
21.088401281
 11
-10.8549479004
 21
21.088401281
  0
LINE
  5
418
100
AcDbEntity
  8
RACCORDO
100
AcDbLine
 62
7
  6
CONTINUOUS
 10
-8.1552827889
 20
22.0892428019
 11
-7.8070641149
 21
22.0576339704
  0
LINE
  5
419
100
AcDbEntity
  8
RACCORDO
100
AcDbLine
 62
7
  6
CONTINUOUS
 10
-3.7433753871
 20
22.0892428019
 11
-4.0915940611
 21
22.0576339704
  0
LINE
  5
41A
100
AcDbEntity
  8
0
100
AcDbLine
 62
250
  6
CONTINUOUS
 10
10.1726411801
 20
21.9379486333
 11
-10.8712993561
 21
21.9379486333
  0
LINE
  5
41B
100
AcDbEntity
  8
RACCORDO
100
AcDbLine
 62
7
  6
CONTINUOUS
 10
6.9352008582
 20
22.0523931924
 11
3.5661409658
 21
22.0523931924
  0
LINE
  5
41C
100
AcDbEntity
  8
RACCORDO
100
AcDbLine
 62
7
  6
CONTINUOUS
 10
-4.2647991418
 20
22.0523931924
 11
-7.6338590342
 21
22.0523931924
  0
LINE
  5
41D
100
AcDbEntity
  8
0
100
AcDbLine
 62
7
  6
CONTINUOUS
 10
-10.9721108932
 20
22.0892428019
 11
-8.1552827889
 21
22.0892428019
  0
LINE
  5
41E
100
AcDbEntity
  8
DRAFT
100
AcDbLine
 62
7
  6
CONTINUOUS
 10
-3.7433753871
 20
22.0892428019
 11
3.0447172111
 21
22.0892428019
  0
LINE
  5
41F
100
AcDbEntity
  8
0
100
AcDbLine
 62
7
  6
CONTINUOUS
 10
7.4566246129
 20
22.0892428019
 11
10.2734527172
 21
22.0892428019
  0
LWPOLYLINE
  5
420
100
AcDbEntity
  8
0
100
AcDbPolyline
 62
7
  6
CONTINUOUS
 90
7
 70
0
 43
0.3500000019
 10
-0.7779013672
 20
30.8880993652
 10
-2.277902832
 20
30.8880993652
 10
-0.7779013672
 20
33.0309562988
 10
-0.7779013672
 20
33.4595292969
 10
-1.2064716797
 20
33.8880996094
 10
-1.8493271484
 20
33.8880996094
 10
-2.277902832
 20
33.2452441406
  0
LWPOLYLINE
  5
421
100
AcDbEntity
  8
0
100
AcDbPolyline
 62
7
  6
CONTINUOUS
 90
7
 70
0
 43
0.3500000019
 10
-3.135043457
 20
30.8880993652
 10
-4.6350449219
 20
30.8880993652
 10
-3.135043457
 20
33.0309562988
 10
-3.135043457
 20
33.4595292969
 10
-3.5636137695
 20
33.8880996094
 10
-4.2064746094
 20
33.8880996094
 10
-4.6350449219
 20
33.2452441406
  0
LWPOLYLINE
  5
422
100
AcDbEntity
  8
0
100
AcDbPolyline
 62
7
  6
CONTINUOUS
 90
6
 70
0
 43
0.3500000019
 10
1.7935258789
 20
30.8880993652
 10
2.8649570313
 20
30.8880993652
 10
3.0792421875
 20
31.102387207
 10
3.0792421875
 20
32.1738156738
 10
2.650671875
 20
32.6023859863
 10
2.2221015625
 20
32.6023859863
  0
LINE
  5
423
100
AcDbEntity
  8
RACCORDO
100
AcDbLine
 62
7
  6
CONTINUOUS
 10
3.0447172111
 20
22.0892428019
 11
3.3929358851
 21
22.0576339704
  0
LINE
  5
424
100
AcDbEntity
  8
0
100
AcDbLine
 62
7
  6
CONTINUOUS
 10
-30.7347042591
 20
-22.1759389106
 11
-27.8478395472
 21
-22.3272330792
  0
LINE
  5
425
100
AcDbEntity
  8
0
100
AcDbLine
 62
250
  6
CONTINUOUS
 10
-30.7259860294
 20
-21.6766241432
 11
-27.8043147567
 21
-21.8297424464
  0
LWPOLYLINE
  5
426
100
AcDbEntity
  8
0
100
AcDbPolyline
 62
250
  6
CONTINUOUS
 90
7
 70
0
 10
-31.6621788025
 20
-21.3245300832
 10
-31.6649376384
 20
-21.3250289717
 10
-31.667196462
 20
-21.3254529046
 10
-31.6689529597
 20
-21.3258014475
 10
-31.6702053322
 20
-21.3260742435
 10
-31.6709522969
 20
-21.3262710131
 10
-31.6711930886
 20
-21.3263915547
  0
LINE
  5
427
100
AcDbEntity
  8
0
100
AcDbLine
 62
250
  6
CONTINUOUS
 10
-31.6551729066
 20
-21.3233095592
 11
-31.6621788025
 21
-21.3245300832
  0
LINE
  5
428
100
AcDbEntity
  8
0
100
AcDbLine
 62
250
  6
CONTINUOUS
 10
-31.6410010923
 20
-21.3209318455
 11
-31.6551729066
 21
-21.3233095592
  0
LINE
  5
429
100
AcDbEntity
  8
0
100
AcDbLine
 62
250
  6
CONTINUOUS
 10
-31.6079603568
 20
-21.3155682521
 11
-31.6410010923
 21
-21.3209318455
  0
LINE
  5
42A
100
AcDbEntity
  8
0
100
AcDbLine
 62
250
  6
CONTINUOUS
 10
-31.4980884699
 20
-21.298291006
 11
-31.6079603568
 21
-21.3155682521
  0
LINE
  5
42B
100
AcDbEntity
  8
0
100
AcDbLine
 62
250
  6
CONTINUOUS
 10
-31.1942304558
 20
-21.251850467
 11
-31.4980884699
 21
-21.298291006
  0
LINE
  5
42C
100
AcDbEntity
  8
RACCORDO
100
AcDbLine
 62
250
  6
CONTINUOUS
 10
-27.4738477031
 20
-18.0524867399
 11
-27.4509719827
 21
-18.0524867399
  0
LWPOLYLINE
  5
42D
100
AcDbEntity
  8
RACCORDO
100
AcDbPolyline
 62
250
  6
CONTINUOUS
 90
7
 70
0
 10
-27.4846328697
 20
17.9377714812
 10
-27.4831709719
 20
17.9385760998
 10
-27.4816519067
 20
17.93944256
 10
-27.4804816925
 20
17.940147345
 10
-27.4796621515
 20
17.9406893571
 10
-27.4791945602
 20
17.9410677522
 10
-27.4790796466
 20
17.9412819411
  0
LWPOLYLINE
  5
42E
100
AcDbEntity
  8
RACCORDO
100
AcDbPolyline
 62
250
  6
CONTINUOUS
 90
7
 70
0
 10
-27.4846328697
 20
-18.1757617584
 10
-27.4831709734
 20
-18.1765663761
 10
-27.4816519077
 20
-18.1774328366
 10
-27.480481693
 20
-18.1781376218
 10
-27.4796621518
 20
-18.1786796341
 10
-27.4791945602
 20
-18.1790580294
 10
-27.4790796466
 20
-18.1792722184
  0
LWPOLYLINE
  5
42F
100
AcDbEntity
  8
0
100
AcDbPolyline
 62
250
  6
CONTINUOUS
 90
3
 70
0
 10
-32.6596909117
 20
-9.6189544798
 10
-32.6604581402
 20
-9.6189796642
 10
-32.6607138358
 20
-9.6189951386
  0
LINE
  5
430
100
AcDbEntity
  8
0
100
AcDbLine
 62
250
  6
CONTINUOUS
 10
-32.6543304969
 20
-9.6188209739
 11
-32.6596909117
 21
-9.6189544798
  0
LINE
  5
431
100
AcDbEntity
  8
0
100
AcDbLine
 62
250
  6
CONTINUOUS
 10
-32.1782538427
 20
-9.6094951386
 11
-32.6543304969
 21
-9.6188209739
  0
LWPOLYLINE
  5
432
100
AcDbEntity
  8
0
100
AcDbPolyline
 62
250
  6
CONTINUOUS
 90
22
 70
0
 10
-31.1942304558
 20
21.0138601897
 10
-31.2755270616
 20
20.4630198898
 10
-31.3533897882
 20
19.9117273661
 10
-31.4278186355
 20
19.3599826184
 10
-31.4988162186
 20
18.8077642297
 10
-31.5663799223
 20
18.2550936171
 10
-31.6305019018
 20
17.702035032
 10
-31.6911817524
 20
17.1485884662
 10
-31.7484198788
 20
16.5947539279
 10
-31.8022096495
 20
16.0405956932
 10
-31.8525506645
 20
15.4861137311
 10
-31.8994433237
 20
14.9313080725
 10
-31.9428821967
 20
14.3762430864
 10
-31.9828668835
 20
13.8209187361
 10
-32.019397784
 20
13.2653350583
 10
-32.0524706669
 20
12.7095565312
 10
-32.0820851322
 20
12.1535830782
 10
-32.1082415798
 20
11.597414776
 10
-32.1309369779
 20
11.0411163324
 10
-32.1501703157
 20
10.4847093168
 10
-32.165942604
 20
9.9281721598
 10
-32.1782538427
 20
9.3715048614
  0
LWPOLYLINE
  5
433
100
AcDbEntity
  8
0
100
AcDbPolyline
 62
250
  6
CONTINUOUS
 90
52
 70
0
 10
-31.1942304558
 20
-21.251850467
 10
-31.1920495295
 20
-21.2651026675
 10
-31.1895180151
 20
-21.2782737324
 10
-31.1866359125
 20
-21.2913636616
 10
-31.183400604
 20
-21.3043820535
 10
-31.1798147074
 20
-21.3173193097
 10
-31.1758860756
 20
-21.3301466357
 10
-31.1716140034
 20
-21.3428635286
 10
-31.1669991962
 20
-21.3554704912
 10
-31.1620516226
 20
-21.3679402379
 10
-31.1567705777
 20
-21.3802724311
 10
-31.1511567665
 20
-21.3924674083
 10
-31.1452222725
 20
-21.4044988964
 10
-31.1389663965
 20
-21.4163665624
 10
-31.1323898378
 20
-21.4280707393
 10
-31.1255067774
 20
-21.4395861534
 10
-31.1183165533
 20
-21.4509123962
 10
-31.1108198275
 20
-21.4620498762
 10
-31.1030327675
 20
-21.4729745454
 10
-31.0949547432
 20
-21.483685947
 10
-31.0865863846
 20
-21.4941845378
 10
-31.0779457491
 20
-21.5044476404
 10
-31.0690322552
 20
-21.5144747389
 10
-31.0598464843
 20
-21.5242663491
 10
-31.0504082374
 20
-21.533801341
 10
-31.0407169575
 20
-21.5430791714
 10
-31.0307732015
 20
-21.5521003834
 10
-31.0205984419
 20
-21.5608454765
 10
-31.0101921912
 20
-21.5693138443
 10
-30.9995549368
 20
-21.5775060931
 10
-30.988709614
 20
-21.5854045412
 10
-30.9776557638
 20
-21.5930085613
 10
-30.9663938451
 20
-21.6003187806
 10
-30.9549481705
 20
-21.6073193995
 10
-30.943318342
 20
-21.6140097484
 10
-30.9315047574
 20
-21.6203904968
 10
-30.919532923
 20
-21.6264478542
 10
-30.9074024928
 20
-21.6321811218
 10
-30.8951138127
 20
-21.6375909984
 10
-30.8826934264
 20
-21.6426657905
 10
-30.8701410693
 20
-21.6474047685
 10
-30.857457006
 20
-21.651808662
 10
-30.8446685746
 20
-21.6558679657
 10
-30.8317755061
 20
-21.6595819427
 10
-30.8187780694
 20
-21.6629513299
 10
-30.8057044096
 20
-21.6659688324
 10
-30.7925539832
 20
-21.6686337053
 10
-30.7793273336
 20
-21.6709466936
 10
-30.7660542359
 20
-21.6729027375
 10
-30.7527446151
 20
-21.6745001504
 10
-30.7393885463
 20
-21.675740619
 10
-30.7259860294
 20
-21.6766241432
  0
LWPOLYLINE
  5
434
100
AcDbEntity
  8
0
100
AcDbPolyline
 62
250
  6
CONTINUOUS
 90
22
 70
0
 10
-32.1782538427
 20
-9.6094951386
 10
-32.165942604
 20
-10.1661624371
 10
-32.1501703157
 20
-10.7226995941
 10
-32.1309369779
 20
-11.2791066097
 10
-32.1082415798
 20
-11.8354050533
 10
-32.0820851322
 20
-12.3915733555
 10
-32.0524706669
 20
-12.9475468085
 10
-32.019397784
 20
-13.5033253356
 10
-31.9828668835
 20
-14.0589090134
 10
-31.9428821967
 20
-14.6142333637
 10
-31.8994433237
 20
-15.1692983498
 10
-31.8525506645
 20
-15.7241040084
 10
-31.8022096495
 20
-16.2785859705
 10
-31.7484198788
 20
-16.8327442052
 10
-31.6911817524
 20
-17.3865787435
 10
-31.6305019018
 20
-17.9400253093
 10
-31.5663799223
 20
-18.4930838944
 10
-31.4988162186
 20
-19.045754507
 10
-31.4278186355
 20
-19.5979728957
 10
-31.3533897882
 20
-20.1497176434
 10
-31.2755270616
 20
-20.7010101671
 10
-31.1942304558
 20
-21.251850467
  0
LWPOLYLINE
  5
435
100
AcDbEntity
  8
0
100
AcDbPolyline
 62
250
  6
CONTINUOUS
 90
10
 70
0
 10
-32.1782538427
 20
9.3715048614
 10
-32.19652796
 20
8.3554745126
 10
-32.2127348993
 20
7.3394225381
 10
-32.2268746604
 20
6.323348938
 10
-32.2389473585
 20
5.3072526273
 10
-32.2489528785
 20
4.2911346909
 10
-32.2568908756
 20
3.2749983836
 10
-32.2627612349
 20
2.2588447903
 10
-32.2665640713
 20
1.242672826
 10
-32.2682993848
 20
0.2264824908
  0
LWPOLYLINE
  5
436
100
AcDbEntity
  8
0
100
AcDbPolyline
 62
250
  6
CONTINUOUS
 90
15
 70
0
 10
-32.2665271642
 20
0.0574717981
 10
-32.2663229964
 20
0.0533043285
 10
-32.2661107208
 20
0.0494176456
 10
-32.2658906814
 20
0.0458180513
 10
-32.2656632351
 20
0.0425113817
 10
-32.2654287505
 20
0.0395029984
 10
-32.265187608
 20
0.0367977789
 10
-32.2649401984
 20
0.0344001095
 10
-32.264686923
 20
0.0323138777
 10
-32.2644281923
 20
0.030542466
 10
-32.2641644259
 20
0.0290887466
 10
-32.2638960515
 20
0.0279550765
 10
-32.2636235041
 20
0.0271432938
 10
-32.2633472257
 20
0.0266547146
 10
-32.2630676642
 20
0.0264901313
  0
LINE
  5
437
100
AcDbEntity
  8
0
100
AcDbLine
 62
250
  6
CONTINUOUS
 10
-32.2669098655
 20
0.0666216252
 11
-32.2665271642
 21
0.0574717981
  0
LINE
  5
438
100
AcDbEntity
  8
0
100
AcDbLine
 62
250
  6
CONTINUOUS
 10
-32.2672563437
 20
0.0768078097
 11
-32.2669098655
 21
0.0666216252
  0
LINE
  5
439
100
AcDbEntity
  8
0
100
AcDbLine
 62
250
  6
CONTINUOUS
 10
-32.2675643527
 20
0.087964316
 11
-32.2672563437
 21
0.0768078097
  0
LINE
  5
43A
100
AcDbEntity
  8
0
100
AcDbLine
 62
250
  6
CONTINUOUS
 10
-32.2678318955
 20
0.1000188178
 11
-32.2675643527
 21
0.087964316
  0
LINE
  5
43B
100
AcDbEntity
  8
0
100
AcDbLine
 62
250
  6
CONTINUOUS
 10
-32.2681536165
 20
0.1196118961
 11
-32.2678318955
 21
0.1000188178
  0
LINE
  5
43C
100
AcDbEntity
  8
0
100
AcDbLine
 62
250
  6
CONTINUOUS
 10
-32.2683757609
 20
0.1407627852
 11
-32.2681536165
 21
0.1196118961
  0
LWPOLYLINE
  5
43D
100
AcDbEntity
  8
0
100
AcDbPolyline
 62
250
  6
CONTINUOUS
 90
18
 70
0
 10
-30.739946985
 20
-22.1003327134
 10
-30.7398981903
 20
-22.1087398171
 10
-30.7398158906
 20
-22.1166852759
 10
-30.7397001737
 20
-22.1241606014
 10
-30.7395511633
 20
-22.1311578073
 10
-30.7393690186
 20
-22.1376694184
 10
-30.7391539341
 20
-22.143688478
 10
-30.7389061397
 20
-22.1492085558
 10
-30.7386259001
 20
-22.1542237544
 10
-30.7383135146
 20
-22.1587287159
 10
-30.737969317
 20
-22.1627186276
 10
-30.737593675
 20
-22.1661892268
 10
-30.73718699
 20
-22.1691368058
 10
-30.7367496964
 20
-22.1715582156
 10
-30.7362822613
 20
-22.1734508693
 10
-30.7357851842
 20
-22.1748127449
 10
-30.7352589961
 20
-22.1756423874
 10
-30.7347042591
 20
-22.1759389106
  0
LINE
  5
43E
100
AcDbEntity
  8
0
100
AcDbLine
 62
250
  6
CONTINUOUS
 10
-32.2683022565
 20
-0.4644727932
 11
-32.2684914758
 21
-0.4323979189
  0
LINE
  5
43F
100
AcDbEntity
  8
0
100
AcDbLine
 62
250
  6
CONTINUOUS
 10
-32.2684950906
 20
0.1631631768
 11
-32.2683757609
 21
0.1407627852
  0
LWPOLYLINE
  5
440
100
AcDbEntity
  8
0
100
AcDbPolyline
 62
250
  6
CONTINUOUS
 90
10
 70
0
 10
-32.2682993848
 20
-0.4644727681
 10
-32.2665640713
 20
-1.4806631033
 10
-32.2627612349
 20
-2.4968350676
 10
-32.2568908756
 20
-3.5129886609
 10
-32.2489528785
 20
-4.5291249682
 10
-32.2389473585
 20
-5.5452429046
 10
-32.2268746604
 20
-6.5613392153
 10
-32.2127348993
 20
-7.5774128154
 10
-32.19652796
 20
-8.5934647899
 10
-32.1782538427
 20
-9.6094951386
  0
LINE
  5
441
100
AcDbEntity
  8
0
100
AcDbLine
 62
250
  6
CONTINUOUS
 10
-32.2684914758
 20
-0.4323979189
 11
-32.268511675
 21
-0.4088419101
  0
LINE
  5
442
100
AcDbEntity
  8
0
100
AcDbLine
 62
250
  6
CONTINUOUS
 10
-32.2685098662
 20
0.1864865495
 11
-32.2684950906
 21
0.1631631768
  0
LINE
  5
443
100
AcDbEntity
  8
0
100
AcDbLine
 62
250
  6
CONTINUOUS
 10
-32.268511675
 20
-0.4088419101
 11
-32.2684270784
 21
-0.3860968112
  0
LWPOLYLINE
  5
444
100
AcDbEntity
  8
0
100
AcDbPolyline
 62
250
  6
CONTINUOUS
 90
3
 70
0
 10
-32.2683022565
 20
0.2264825159
 10
-32.2683667752
 20
0.2184311946
 10
-32.2685098662
 20
0.1864865495
  0
LINE
  5
445
100
AcDbEntity
  8
0
100
AcDbLine
 62
250
  6
CONTINUOUS
 10
-32.2684270784
 20
-0.3860968112
 11
-32.2682389189
 21
-0.3644941687
  0
LINE
  5
446
100
AcDbEntity
  8
0
100
AcDbLine
 62
250
  6
CONTINUOUS
 10
-32.2682389189
 20
-0.3644941687
 11
-32.2679499395
 21
-0.3443488759
  0
LINE
  5
447
100
AcDbEntity
  8
0
100
AcDbLine
 62
250
  6
CONTINUOUS
 10
-32.2679499395
 20
-0.3443488759
 11
-32.2677032969
 21
-0.3318743374
  0
LINE
  5
448
100
AcDbEntity
  8
0
100
AcDbLine
 62
250
  6
CONTINUOUS
 10
-32.2677032969
 20
-0.3318743374
 11
-32.2674152874
 21
-0.3202594179
  0
LINE
  5
449
100
AcDbEntity
  8
0
100
AcDbLine
 62
250
  6
CONTINUOUS
 10
-32.2674152874
 20
-0.3202594179
 11
-32.2670877783
 21
-0.3095794152
  0
LWPOLYLINE
  5
44A
100
AcDbEntity
  8
0
100
AcDbPolyline
 62
250
  6
CONTINUOUS
 90
17
 70
0
 10
-32.2670877783
 20
-0.3095794152
 10
-32.2667228927
 20
-0.2999035665
 10
-32.2665271639
 20
-0.2954620678
 10
-32.2663229962
 20
-0.2912945989
 10
-32.2661107205
 20
-0.2874079168
 10
-32.2658906811
 20
-0.2838083232
 10
-32.2656632348
 20
-0.2805016544
 10
-32.2654287502
 20
-0.2774932718
 10
-32.2651876077
 20
-0.274788053
 10
-32.2649401982
 20
-0.2723903843
 10
-32.2646869227
 20
-0.2703041531
 10
-32.2644281921
 20
-0.2685327419
 10
-32.2641644257
 20
-0.267079023
 10
-32.2638960513
 20
-0.2659453532
 10
-32.263623504
 20
-0.2651335708
 10
-32.2633472256
 20
-0.2646449919
 10
-32.2630676642
 20
-0.2644804086
  0
LINE
  5
44B
100
AcDbEntity
  8
0
100
AcDbLine
 62
250
  6
CONTINUOUS
 10
-30.7259860294
 20
21.4386338659
 11
-30.7292445987
 21
21.5037322758
  0
LINE
  5
44C
100
AcDbEntity
  8
0
100
AcDbLine
 62
250
  6
CONTINUOUS
 10
-30.7292445987
 20
21.5037322758
 11
-30.7321496653
 21
21.5677194196
  0
LINE
  5
44D
100
AcDbEntity
  8
0
100
AcDbLine
 62
250
  6
CONTINUOUS
 10
-30.7321496653
 20
21.5677194196
 11
-30.7346516382
 21
21.6295030009
  0
LINE
  5
44E
100
AcDbEntity
  8
0
100
AcDbLine
 62
250
  6
CONTINUOUS
 10
-30.7346516382
 20
21.6295030009
 11
-30.7367078072
 21
21.6880283389
  0
LINE
  5
44F
100
AcDbEntity
  8
0
100
AcDbLine
 62
250
  6
CONTINUOUS
 10
-30.7367078072
 20
21.6880283389
 11
-30.7379359565
 21
21.7291805439
  0
LINE
  5
450
100
AcDbEntity
  8
0
100
AcDbLine
 62
250
  6
CONTINUOUS
 10
-30.7379359565
 20
21.7291805439
 11
-30.7388816284
 21
21.7675411242
  0
LINE
  5
451
100
AcDbEntity
  8
0
100
AcDbLine
 62
250
  6
CONTINUOUS
 10
-30.7388816284
 20
21.7675411242
 11
-30.7393505429
 21
21.7913807167
  0
LINE
  5
452
100
AcDbEntity
  8
0
100
AcDbLine
 62
250
  6
CONTINUOUS
 10
-30.7393505429
 20
21.7913807167
 11
-30.7396878126
 21
21.8137133027
  0
LINE
  5
453
100
AcDbEntity
  8
0
100
AcDbLine
 62
250
  6
CONTINUOUS
 10
-30.7396878126
 20
21.8137133027
 11
-30.7398919966
 21
21.8344434727
  0
LWPOLYLINE
  5
454
100
AcDbEntity
  8
0
100
AcDbPolyline
 62
250
  6
CONTINUOUS
 90
20
 70
0
 10
-30.7398919966
 20
21.8344434727
 10
-30.7399622226
 20
21.8534826632
 10
-30.7399469851
 20
21.8623424307
 10
-30.7398981905
 20
21.8707495349
 10
-30.7398158908
 20
21.8786949942
 10
-30.7397001739
 20
21.8861703201
 10
-30.7395511635
 20
21.8931675265
 10
-30.7393690188
 20
21.8996791381
 10
-30.7391539343
 20
21.9056981981
 10
-30.7389061399
 20
21.9112182763
 10
-30.7386259003
 20
21.9162334753
 10
-30.7383135148
 20
21.9207384372
 10
-30.7379693172
 20
21.9247283492
 10
-30.7375936752
 20
21.9281989487
 10
-30.7371869901
 20
21.9311465279
 10
-30.7367496965
 20
21.9335679379
 10
-30.7362822614
 20
21.9354605918
 10
-30.7357851843
 20
21.9368224675
 10
-30.7352589961
 20
21.9376521101
 10
-30.7347042591
 20
21.9379486333
  0
LINE
  5
455
100
AcDbEntity
  8
0
100
AcDbLine
 62
250
  6
CONTINUOUS
 10
-30.7399438865
 20
-22.0821699813
 11
-30.739946985
 21
-22.1003327134
  0
LINE
  5
456
100
AcDbEntity
  8
0
100
AcDbLine
 62
250
  6
CONTINUOUS
 10
-30.7398066082
 20
-22.0622746744
 11
-30.7399438865
 21
-22.0821699813
  0
LINE
  5
457
100
AcDbEntity
  8
0
100
AcDbLine
 62
250
  6
CONTINUOUS
 10
-30.7395357367
 20
-22.0407317897
 11
-30.7398066082
 21
-22.0622746744
  0
LINE
  5
458
100
AcDbEntity
  8
0
100
AcDbLine
 62
250
  6
CONTINUOUS
 10
-30.7391324292
 20
-22.0176333626
 11
-30.7395357367
 21
-22.0407317897
  0
LINE
  5
459
100
AcDbEntity
  8
0
100
AcDbLine
 62
250
  6
CONTINUOUS
 10
-30.7382830724
 20
-21.9802866594
 11
-30.7391324292
 21
-22.0176333626
  0
LINE
  5
45A
100
AcDbEntity
  8
0
100
AcDbLine
 62
250
  6
CONTINUOUS
 10
-30.7371479031
 20
-21.9400223116
 11
-30.7382830724
 21
-21.9802866594
  0
LINE
  5
45B
100
AcDbEntity
  8
0
100
AcDbLine
 62
250
  6
CONTINUOUS
 10
-30.7357378282
 20
-21.8972271866
 11
-30.7371479031
 21
-21.9400223116
  0
LINE
  5
45C
100
AcDbEntity
  8
0
100
AcDbLine
 62
250
  6
CONTINUOUS
 10
-30.7334538785
 20
-21.8369439545
 11
-30.7357378282
 21
-21.8972271866
  0
LINE
  5
45D
100
AcDbEntity
  8
0
100
AcDbLine
 62
250
  6
CONTINUOUS
 10
-30.7307445713
 20
-21.7739239724
 11
-30.7334538785
 21
-21.8369439545
  0
LINE
  5
45E
100
AcDbEntity
  8
0
100
AcDbLine
 62
250
  6
CONTINUOUS
 10
-30.7276561561
 20
-21.7092430272
 11
-30.7307445713
 21
-21.7739239724
  0
LINE
  5
45F
100
AcDbEntity
  8
0
100
AcDbLine
 62
250
  6
CONTINUOUS
 10
-30.7259860294
 20
-21.6766241432
 11
-30.7276561561
 21
-21.7092430272
  0
LWPOLYLINE
  5
460
100
AcDbEntity
  8
0
100
AcDbPolyline
 62
7
  6
CONTINUOUS
 90
3
 70
0
 43
0.3500000019
 10
-19.6440507812
 20
31.124956543
 10
-19.715480957
 20
30.9106713867
 10
-19.8583359375
 20
30.6249560547
  0
LINE
  5
461
100
AcDbEntity
  8
0
100
AcDbLine
 62
250
  6
CONTINUOUS
 10
-27.0509719827
 20
-0.4189418417
 11
-32.2682993848
 21
-0.4644727681
  0
LINE
  5
462
100
AcDbEntity
  8
0
100
AcDbLine
 62
7
  6
CONTINUOUS
 10
-27.0509719827
 20
-0.2189951386
 11
-32.5525961343
 21
-0.2670070853
  0
LINE
  5
463
100
AcDbEntity
  8
0
100
AcDbLine
 62
250
  6
CONTINUOUS
 10
-32.2682993848
 20
-0.4644727774
 11
-32.7508507784
 21
-0.4671387283
  0
LINE
  5
464
100
AcDbEntity
  8
0
100
AcDbLine
 62
7
  6
CONTINUOUS
 10
-32.5525961343
 20
0.029016808
 11
-27.0509719827
 21
-0.0189951386
  0
LINE
  5
465
100
AcDbEntity
  8
RACCORDO
100
AcDbLine
 62
7
  6
CONTINUOUS
 10
-27.4509719827
 20
-18.0524867399
 11
-27.4509719827
 21
-17.7910160598
  0
LINE
  5
466
100
AcDbEntity
  8
RACCORDO
100
AcDbLine
 62
7
  6
CONTINUOUS
 10
-27.4509719827
 20
17.5530257825
 11
-27.4509719827
 21
17.8144964626
  0
LINE
  5
467
100
AcDbEntity
  8
0
100
AcDbLine
 62
7
  6
CONTINUOUS
 10
-27.0509719827
 20
-0.2189951386
 11
-27.0509719827
 21
-13.2189951386
  0
LINE
  5
468
100
AcDbEntity
  8
0
100
AcDbLine
 62
7
  6
CONTINUOUS
 10
-27.0509719827
 20
-0.0189951386
 11
-27.0509719827
 21
12.9810048614
  0
LINE
  5
469
100
AcDbEntity
  8
0
100
AcDbLine
 62
250
  6
CONTINUOUS
 10
-32.7508507784
 20
0.229148451
 11
-32.2682993848
 21
0.2264825001
  0
LINE
  5
46A
100
AcDbEntity
  8
0
100
AcDbLine
 62
250
  6
CONTINUOUS
 10
-32.2682993848
 20
0.2264824908
 11
-27.0509719827
 21
0.1809515644
  0
LINE
  5
46B
100
AcDbEntity
  8
0
100
AcDbLine
 62
7
  6
CONTINUOUS
 10
-27.8478395472
 20
22.0892428019
 11
-27.0509719827
 21
12.9810048614
  0
LINE
  5
46C
100
AcDbEntity
  8
0
100
AcDbLine
 62
7
  6
CONTINUOUS
 10
-27.0509719827
 20
-13.2189951386
 11
-27.8478395472
 21
-22.3272330792
  0
LINE
  5
46D
100
AcDbEntity
  8
RACCORDO
100
AcDbLine
 62
7
  6
CONTINUOUS
 10
-27.4862934491
 20
-18.1947422677
 11
-27.4790805015
 21
-18.1792740516
  0
LINE
  5
46E
100
AcDbEntity
  8
RACCORDO
100
AcDbLine
 62
7
  6
CONTINUOUS
 10
-27.4790805015
 20
17.9412837744
 11
-27.4862934491
 21
17.9567519904
  0
LWPOLYLINE
  5
46F
100
AcDbEntity
  8
0
100
AcDbPolyline
 62
7
  6
CONTINUOUS
 90
4
 70
0
 43
0.3500000019
 10
-18.6440498047
 20
33.1963859863
 10
-18.6440498047
 20
33.8392441406
 10
-17.1440537109
 20
33.8392441406
 10
-18.0011943359
 20
30.8392438965
  0
LINE
  5
470
100
AcDbEntity
  8
0
100
AcDbLine
 62
250
  6
CONTINUOUS
 10
-32.1782538427
 20
9.3715048614
 11
-32.5418843929
 21
9.3785319369
  0
LINE
  5
471
100
AcDbEntity
  8
0
100
AcDbLine
 62
250
  6
CONTINUOUS
 10
-32.5418843929
 20
9.3785319369
 11
-32.6566255213
 21
9.3808848168
  0
LWPOLYLINE
  5
472
100
AcDbEntity
  8
0
100
AcDbPolyline
 62
250
  6
CONTINUOUS
 90
4
 70
0
 10
-32.6566255213
 20
9.3808848168
 10
-32.659690912
 20
9.3809642026
 10
-32.6604581405
 20
9.380989387
 10
-32.6607138362
 20
9.3810048614
  0
LINE
  5
473
100
AcDbEntity
  8
RACCORDO
100
AcDbLine
 62
250
  6
CONTINUOUS
 10
-27.4738477031
 20
17.8144964627
 11
-27.4509719827
 21
17.8144964626
  0
LWPOLYLINE
  5
474
100
AcDbEntity
  8
0
100
AcDbPolyline
 62
250
  6
CONTINUOUS
 90
52
 70
0
 10
-30.7259860294
 20
21.4386338659
 10
-30.7393885463
 20
21.4377503417
 10
-30.7527446151
 20
21.4365098731
 10
-30.7660542359
 20
21.4349124602
 10
-30.7793273336
 20
21.4329564163
 10
-30.7925539832
 20
21.430643428
 10
-30.8057044096
 20
21.4279785551
 10
-30.8187780694
 20
21.4249610526
 10
-30.8317755061
 20
21.4215916654
 10
-30.8446685746
 20
21.4178776884
 10
-30.857457006
 20
21.4138183847
 10
-30.8701410693
 20
21.4094144912
 10
-30.8826934264
 20
21.4046755132
 10
-30.8951138127
 20
21.3996007211
 10
-30.9074024928
 20
21.3941908445
 10
-30.919532923
 20
21.388457577
 10
-30.9315047574
 20
21.3824002195
 10
-30.943318342
 20
21.3760194711
 10
-30.9549481705
 20
21.3693291222
 10
-30.9663938451
 20
21.3623285033
 10
-30.9776557638
 20
21.355018284
 10
-30.988709614
 20
21.3474142639
 10
-30.9995549368
 20
21.3395158158
 10
-31.0101921912
 20
21.331323567
 10
-31.0205984419
 20
21.3228551992
 10
-31.0307732015
 20
21.3141101061
 10
-31.0407169575
 20
21.3050888941
 10
-31.0504082374
 20
21.2958110637
 10
-31.0598464843
 20
21.2862760718
 10
-31.0690322552
 20
21.2764844616
 10
-31.0779457491
 20
21.2664573631
 10
-31.0865863846
 20
21.2561942605
 10
-31.0949547432
 20
21.2456956697
 10
-31.1030327675
 20
21.2349842681
 10
-31.1108198275
 20
21.2240595989
 10
-31.1183165533
 20
21.2129221189
 10
-31.1255067774
 20
21.2015958761
 10
-31.1323898378
 20
21.190080462
 10
-31.1389663965
 20
21.1783762851
 10
-31.1452222725
 20
21.1665086191
 10
-31.1511567665
 20
21.154477131
 10
-31.1567705777
 20
21.1422821538
 10
-31.1620516226
 20
21.1299499606
 10
-31.1669991962
 20
21.1174802139
 10
-31.1716140034
 20
21.1048732513
 10
-31.1758860756
 20
21.0921563584
 10
-31.1798147074
 20
21.0793290324
 10
-31.183400604
 20
21.0663917762
 10
-31.1866359125
 20
21.0533733843
 10
-31.1895180151
 20
21.0402834551
 10
-31.1920495295
 20
21.0271123902
 10
-31.1942304558
 20
21.0138601897
  0
LINE
  5
475
100
AcDbEntity
  8
0
100
AcDbLine
 62
250
  6
CONTINUOUS
 10
-27.8043147567
 20
21.5917521691
 11
-30.7259860294
 21
21.4386338659
  0
LINE
  5
476
100
AcDbEntity
  8
0
100
AcDbLine
 62
7
  6
CONTINUOUS
 10
-27.8478395472
 20
22.0892428019
 11
-30.7347042591
 21
21.9379486333
  0
LWPOLYLINE
  5
477
100
AcDbEntity
  8
0
100
AcDbPolyline
 62
7
  6
CONTINUOUS
 90
8
 70
0
 43
0.3500000019
 10
-22.5011933594
 20
30.8392438965
 10
-21.6440527344
 20
30.8392438965
 10
-21.2154824219
 20
31.267814209
 10
-21.2154824219
 20
32.1249575195
 10
-21.6440527344
 20
32.553527832
 10
-22.5011933594
 20
32.553527832
 10
-22.5011933594
 20
33.8392441406
 10
-21.2154824219
 20
33.8392441406
  0
LINE
  5
478
100
AcDbEntity
  8
0
100
AcDbLine
 62
250
  6
CONTINUOUS
 10
-31.1942304558
 20
21.0138601897
 11
-31.3488004255
 21
21.0373264288
  0
LINE
  5
479
100
AcDbEntity
  8
0
100
AcDbLine
 62
250
  6
CONTINUOUS
 10
-31.3488004255
 20
21.0373264288
 11
-31.4858990639
 21
21.0584092991
  0
LINE
  5
47A
100
AcDbEntity
  8
0
100
AcDbLine
 62
250
  6
CONTINUOUS
 10
-31.4858990639
 20
21.0584092991
 11
-31.5827809126
 21
21.0735676901
  0
LINE
  5
47B
100
AcDbEntity
  8
0
100
AcDbLine
 62
250
  6
CONTINUOUS
 10
-31.5827809126
 20
21.0735676901
 11
-31.6291676917
 21
21.0810012789
  0
LINE
  5
47C
100
AcDbEntity
  8
0
100
AcDbLine
 62
250
  6
CONTINUOUS
 10
-31.6291676917
 20
21.0810012789
 11
-31.6509330441
 21
21.0845988998
  0
LWPOLYLINE
  5
47D
100
AcDbEntity
  8
0
100
AcDbPolyline
 62
250
  6
CONTINUOUS
 90
9
 70
0
 10
-31.6509330441
 20
21.0845988998
 10
-31.6589228023
 20
21.0859664759
 10
-31.6621788248
 20
21.0865398092
 10
-31.6649376609
 20
21.0870386978
 10
-31.6671964846
 20
21.0874626307
 10
-31.6689529824
 20
21.0878111736
 10
-31.6702053551
 20
21.0880839696
 10
-31.6709523199
 20
21.0882807392
 10
-31.6711931116
 20
21.0884012809
  0
LWPOLYLINE
  5
47E
100
AcDbEntity
  8
0
100
AcDbPolyline
 62
7
  6
CONTINUOUS
 90
10
 70
0
 43
0.3500000019
 10
-19.715480957
 20
31.3392416992
 10
-19.6440507812
 20
31.1963867188
 10
-19.6440507812
 20
31.124956543
 10
-19.7869111328
 20
30.982098877
 10
-19.8583359375
 20
30.982098877
 10
-19.9297661133
 20
31.0535290527
 10
-19.9297661133
 20
31.124956543
 10
-19.8583359375
 20
31.267814209
 10
-19.7869111328
 20
31.3392416992
 10
-19.715480957
 20
31.3392416992
  0
ARC
  5
47F
100
AcDbEntity
  8
0
100
AcDbCircle
 62
7
  6
CONTINUOUS
 10
467.2490280172
 20
-0.1189951386
 40
500.0
100
AcDbArc
 50
178.91131468
 51
179.9601056802
  0
ARC
  5
480
100
AcDbEntity
  8
0
100
AcDbCircle
 62
7
  6
CONTINUOUS
 10
467.2490280172
 20
-0.1189951386
 40
500.0
100
AcDbArc
 50
180.0398943198
 51
181.08868532
  0
ARC
  5
481
100
AcDbEntity
  8
0
100
AcDbCircle
 62
7
  6
CONTINUOUS
 10
57.3230396974
 20
7.6710048614
 40
90.0
100
AcDbArc
 50
171.4262585553
 51
178.91131468
  0
ARC
  5
482
100
AcDbEntity
  8
0
100
AcDbCircle
 62
7
  6
CONTINUOUS
 10
57.3230396974
 20
-7.9089951386
 40
90.0
100
AcDbArc
 50
181.08868532
 51
188.5737414447
  0
ARC
  5
483
100
AcDbEntity
  8
0
100
AcDbCircle
 62
7
  6
CONTINUOUS
 10
-30.6823683029
 20
20.9393190985
 40
1.0
100
AcDbArc
 50
93.0
 51
171.4262585553
  0
ARC
  5
484
100
AcDbEntity
  8
0
100
AcDbCircle
 62
7
  6
CONTINUOUS
 10
-30.6823683029
 20
-21.1773093758
 40
1.0
100
AcDbArc
 50
188.5737414447
 51
267.0
  0
ARC
  5
485
100
AcDbEntity
  8
RACCORDO
100
AcDbCircle
 62
7
  6
CONTINUOUS
 10
-27.7509719827
 20
17.8144964626
 40
0.3
100
AcDbArc
 50
0.0
 51
25.0003863239
  0
ARC
  5
486
100
AcDbEntity
  8
RACCORDO
100
AcDbCircle
 62
7
  6
CONTINUOUS
 10
-27.7509719827
 20
-18.0524867399
 40
0.3
100
AcDbArc
 50
334.9996136756
 51
360.0
  0
ARC
  5
487
100
AcDbEntity
  8
0
100
AcDbCircle
 62
7
  6
CONTINUOUS
 10
-32.5508507907
 20
0.2290091923
 40
0.2
100
AcDbArc
 50
179.9601055486
 51
269.4999895873
  0
ARC
  5
488
100
AcDbEntity
  8
0
100
AcDbCircle
 62
7
  6
CONTINUOUS
 10
-32.5508508272
 20
-0.4669994699
 40
0.2
100
AcDbArc
 50
90.5
 51
180.0398943198
  0
ELLIPSE
  5
489
100
AcDbEntity
  8
RACCORDO
100
AcDbEllipse
 62
7
  6
CONTINUOUS
 10
9.7507013776
 20
-0.4190027543
 30
0.0
 11
0.1789222233
 21
0.0894542984
 31
0.0
 40
0.9998096356
 41
1.1071030277
 42
1.570796327
  0
ELLIPSE
  5
48A
100
AcDbEntity
  8
RACCORDO
100
AcDbEllipse
 62
7
  6
CONTINUOUS
 10
-7.6338590342
 20
-22.3008650256
 30
0.0
 11
0.2
 21
0.0
 31
0.0
 40
0.0524077793
 41
1.5707963268
 42
2.617993878
  0
ELLIPSE
  5
48B
100
AcDbEntity
  8
RACCORDO
100
AcDbEllipse
 62
7
  6
CONTINUOUS
 10
3.5661409658
 20
-22.3008650256
 30
0.0
 11
0.2
 21
-0.0
 31
0.0
 40
0.0524077793
 41
1.5707963268
 42
2.617993878
  0
ELLIPSE
  5
48C
100
AcDbEntity
  8
RACCORDO
100
AcDbEllipse
 62
7
  6
CONTINUOUS
 10
-4.2647991418
 20
-22.3008650256
 30
0.0
 11
0.2
 21
0.0
 31
0.0
 40
0.0524077793
 41
0.5235987756
 42
1.5707963268
  0
ELLIPSE
  5
48D
100
AcDbEntity
  8
RACCORDO
100
AcDbEllipse
 62
7
  6
CONTINUOUS
 10
6.9352008582
 20
-22.3008650256
 30
0.0
 11
0.2
 21
0.0
 31
0.0
 40
0.0524077793
 41
0.5235987756
 42
1.5707963268
  0
ELLIPSE
  5
48E
100
AcDbEntity
  8
0
100
AcDbEllipse
 62
7
  6
CONTINUOUS
 10
-11.2992071791
 20
-0.4190027543
 30
0.0
 11
0.1941585013
 21
-0.0485211407
 31
0.0
 40
0.9993528196
 41
1.8158377039
 42
3.386329479
  0
ELLIPSE
  5
48F
100
AcDbEntity
  8
0
100
AcDbEllipse
 62
7
  6
CONTINUOUS
 10
10.6005490031
 20
-0.4190027543
 30
0.0
 11
0.1941585013
 21
0.0485211407
 31
0.0
 40
0.9993528196
 41
-0.2447368254
 42
1.3257549497
  0
ELLIPSE
  5
490
100
AcDbEntity
  8
0
100
AcDbEllipse
 62
7
  6
CONTINUOUS
 10
-4.5429694654
 20
-0.9126355161
 30
0.0
 11
0.4643386945
 21
-0.1896138901
 31
0.0
 40
0.9790602997
 41
-1.9610078663
 42
-1.1756477791
  0
ELLIPSE
  5
491
100
AcDbEntity
  8
0
100
AcDbEllipse
 62
7
  6
CONTINUOUS
 10
-4.5429694654
 20
-0.9126355161
 30
0.0
 11
-0.1896138901
 21
0.4643386945
 31
0.0
 40
0.9790602997
 41
1.1756477791
 42
1.9610078663
  0
ELLIPSE
  5
492
100
AcDbEntity
  8
0
100
AcDbEllipse
 62
7
  6
CONTINUOUS
 10
3.8443112894
 20
-0.9126355161
 30
0.0
 11
0.1896138901
 21
0.4643386945
 31
0.0
 40
0.9790602997
 41
-1.9610078663
 42
-1.1756477791
  0
ELLIPSE
  5
493
100
AcDbEntity
  8
0
100
AcDbEllipse
 62
7
  6
CONTINUOUS
 10
3.8443112894
 20
-0.9126355161
 30
0.0
 11
0.4643386945
 21
0.1896138901
 31
0.0
 40
0.9790602997
 41
-1.9659448745
 42
-1.1805847873
  0
ELLIPSE
  5
494
100
AcDbEntity
  8
0
100
AcDbEllipse
 62
7
  6
CONTINUOUS
 10
10.2740616117
 20
-21.8288321178
 30
0.0
 11
0.4943891341
 21
0.0770133648
 31
0.0
 40
0.9960067742
 41
-1.7259388368
 42
-0.1569690096
  0
ELLIPSE
  5
495
100
AcDbEntity
  8
0
100
AcDbEllipse
 62
7
  6
CONTINUOUS
 10
-10.9727197877
 20
-21.8288321178
 30
0.0
 11
0.4943891341
 21
-0.0770133648
 31
0.0
 40
0.9960067742
 41
-2.984623644
 42
-1.4156538168
  0
ELLIPSE
  5
496
100
AcDbEntity
  8
0
100
AcDbEllipse
 62
7
  6
CONTINUOUS
 10
-5.2325725094
 20
-0.45223856
 30
0.0
 11
-0.075845556
 21
0.1857354778
 31
0.0
 40
0.9790602997
 41
-1.9659448745
 42
-0.3952247001
  0
ELLIPSE
  5
497
100
AcDbEntity
  8
0
100
AcDbEllipse
 62
7
  6
CONTINUOUS
 10
4.5339143334
 20
-0.45223856
 30
0.0
 11
0.075845556
 21
0.1857354778
 31
0.0
 40
0.9790602997
 41
0.3952247001
 42
1.9659448745
  0
ELLIPSE
  5
498
100
AcDbEntity
  8
RACCORDO
100
AcDbEllipse
 62
7
  6
CONTINUOUS
 10
-10.4493595536
 20
0.181012477
 30
0.0
 11
0.1789222233
 21
0.0894542984
 31
0.0
 40
0.9998096356
 41
-2.0344896259
 42
-1.5707963266
  0
ELLIPSE
  5
499
100
AcDbEntity
  8
RACCORDO
100
AcDbEllipse
 62
7
  6
CONTINUOUS
 10
6.9352008582
 20
22.0628747483
 30
0.0
 11
0.2
 21
-0.0
 31
0.0
 40
0.0524077793
 41
-1.5707963268
 42
-0.5235987756
  0
ELLIPSE
  5
49A
100
AcDbEntity
  8
RACCORDO
100
AcDbEllipse
 62
7
  6
CONTINUOUS
 10
-4.2647991418
 20
22.0628747483
 30
0.0
 11
0.2
 21
0.0
 31
0.0
 40
0.0524077793
 41
-1.5707963268
 42
-0.5235987756
  0
ELLIPSE
  5
49B
100
AcDbEntity
  8
RACCORDO
100
AcDbEllipse
 62
7
  6
CONTINUOUS
 10
3.5661409658
 20
22.0628747483
 30
0.0
 11
0.2
 21
-0.0
 31
0.0
 40
0.0524077793
 41
-2.617993878
 42
-1.5707963268
  0
ELLIPSE
  5
49C
100
AcDbEntity
  8
RACCORDO
100
AcDbEllipse
 62
7
  6
CONTINUOUS
 10
-7.6338590342
 20
22.0628747483
 30
0.0
 11
0.2
 21
0.0
 31
0.0
 40
0.0524077793
 41
-2.617993878
 42
-1.5707963268
  0
ELLIPSE
  5
49D
100
AcDbEntity
  8
0
100
AcDbEllipse
 62
7
  6
CONTINUOUS
 10
10.6005490031
 20
0.181012477
 30
0.0
 11
0.1941585013
 21
-0.0485211407
 31
0.0
 40
0.9993528196
 41
-1.3257549497
 42
0.2447368254
  0
ELLIPSE
  5
49E
100
AcDbEntity
  8
0
100
AcDbEllipse
 62
7
  6
CONTINUOUS
 10
-11.2992071791
 20
0.181012477
 30
0.0
 11
0.1941585013
 21
0.0485211407
 31
0.0
 40
0.9993528196
 41
2.8968558282
 42
4.4673476033
  0
ELLIPSE
  5
49F
100
AcDbEntity
  8
0
100
AcDbEllipse
 62
7
  6
CONTINUOUS
 10
3.8443112894
 20
0.6746452388
 30
0.0
 11
0.4643386945
 21
-0.1896138901
 31
0.0
 40
0.9790602997
 41
1.1805847873
 42
1.9659448745
  0
ELLIPSE
  5
4A0
100
AcDbEntity
  8
0
100
AcDbEllipse
 62
7
  6
CONTINUOUS
 10
3.8443112894
 20
0.6746452388
 30
0.0
 11
-0.1896138901
 21
0.4643386945
 31
0.0
 40
0.9790602997
 41
-1.9659448745
 42
-1.1805847873
  0
ELLIPSE
  5
4A1
100
AcDbEntity
  8
0
100
AcDbEllipse
 62
7
  6
CONTINUOUS
 10
-4.5429694654
 20
0.6746452388
 30
0.0
 11
0.1896138901
 21
0.4643386945
 31
0.0
 40
0.9790602997
 41
1.1805847873
 42
1.9659448745
  0
ELLIPSE
  5
4A2
100
AcDbEntity
  8
0
100
AcDbEllipse
 62
7
  6
CONTINUOUS
 10
-4.5429694654
 20
0.6746452388
 30
0.0
 11
0.4643386945
 21
0.1896138901
 31
0.0
 40
0.9790602997
 41
1.1756477791
 42
1.9610078663
  0
ELLIPSE
  5
4A3
100
AcDbEntity
  8
0
100
AcDbEllipse
 62
7
  6
CONTINUOUS
 10
-10.9727197877
 20
21.5908418405
 30
0.0
 11
0.4943891341
 21
0.0770133648
 31
0.0
 40
0.9960067742
 41
1.4156538168
 42
2.984623644
  0
ELLIPSE
  5
4A4
100
AcDbEntity
  8
0
100
AcDbEllipse
 62
7
  6
CONTINUOUS
 10
10.2740616117
 20
21.5908418405
 30
0.0
 11
0.4943891341
 21
-0.0770133648
 31
0.0
 40
0.9960067742
 41
0.1569690096
 42
1.7259388368
  0
ELLIPSE
  5
4A5
100
AcDbEntity
  8
0
100
AcDbEllipse
 62
7
  6
CONTINUOUS
 10
4.5339143334
 20
0.2142482827
 30
0.0
 11
-0.075845556
 21
0.1857354778
 31
0.0
 40
0.9790602997
 41
1.1756477791
 42
2.7463679535
  0
ELLIPSE
  5
4A6
100
AcDbEntity
  8
0
100
AcDbEllipse
 62
7
  6
CONTINUOUS
 10
-5.2325725094
 20
0.2142482827
 30
0.0
 11
0.075845556
 21
0.1857354778
 31
0.0
 40
0.9790602997
 41
-2.7463679535
 42
-1.1756477791
  0
ENDSEC
  0
SECTION
  2
OBJECTS
  0
DICTIONARY
  5
C
100
AcDbDictionary
280
0
281
1
  3
ACAD_GROUP
350
D
  3
ACAD_MLINESTYLE
350
17
  3
ACAD_LAYOUT
350
1A
  3
ACAD_PLOTSETTINGS
350
19
  3
ACAD_PLOTSTYLENAME
350
E
  0
DICTIONARY
  5
D
102
{ACAD_REACTORS
330
C
102
}
100
AcDbDictionary
280
0
281
1
  0
ACDBDICTIONARYWDFLT
  5
E
102
{ACAD_REACTORS
330
C
102
}
100
AcDbDictionary
281
1
  3
Normal
350
F
100
AcDbDictionaryWithDefault
340
F
  0
DICTIONARY
  5
17
102
{ACAD_REACTORS
330
C
102
}
100
AcDbDictionary
280
0
281
1
  3
Standard
350
18
  0
DICTIONARY
  5
19
102
{ACAD_REACTORS
330
C
102
}
100
AcDbDictionary
281
1
  0
DICTIONARY
  5
1A
102
{ACAD_REACTORS
330
C
102
}
100
AcDbDictionary
281
1
  3
Model
350
4A7
  3
Layout1
350
4A8
  0
ACDBPLACEHOLDER
  5
F
102
{ACAD_REACTORS
330
E
102
}
  0
MLINESTYLE
  5
18
102
{ACAD_REACTORS
330
17
102
}
100
AcDbMlineStyle
  2
STANDARD
 70
0
  3

 62
256
 51
90.0
 52
90.0
 71
2
 49
0.5
 62
256
  6
BYLAYER
 49
-0.5
 62
256
  6
BYLAYER
  0
LAYOUT
  5
4A7
102
{ACAD_REACTORS
330
1A
102
}
100
AcDbPlotSettings
  1

  2
none_device
  4

  6

 40
0.0
 41
0.0
 42
0.0
 43
0.0
 44
210.0
 45
297.0
 46
0.0
 47
0.0
 48
0.0
 49
0.0
140
0.0
141
0.0
142
1.0
143
1.0
 70
1024
 72
1
 73
0
 74
0
  7

 75
0
147
1.0
148
0.0
149
0.0
100
AcDbLayout
  1
Model
 70
0
 71
0
 10
0.0
 20
0.0
 11
210.0
 21
297.0
 12
0.0
 22
0.0
 32
0.0
 14
0.0
 24
0.0
 34
0.0
 15
0.0
 25
0.0
 35
0.0
146
0.0
 13
0.0
 23
0.0
 33
0.0
 16
1.0
 26
0.0
 36
0.0
 17
0.0
 27
1.0
 37
0.0
 76
0
330
223
345
0
346
0
  0
LAYOUT
  5
4A8
102
{ACAD_REACTORS
330
1A
102
}
100
AcDbPlotSettings
  1

  2
none_device
  4

  6

 40
0.0
 41
0.0
 42
0.0
 43
0.0
 44
210.0
 45
297.0
 46
0.0
 47
0.0
 48
0.0
 49
0.0
140
0.0
141
0.0
142
1.0
143
1.0
 70
0
 72
1
 73
0
 74
0
  7

 75
0
147
1.0
148
0.0
149
0.0
100
AcDbLayout
  1
Layout1
 70
0
 71
1
 10
0.0
 20
0.0
 11
210.0
 21
297.0
 12
0.0
 22
0.0
 32
0.0
 14
0.0
 24
0.0
 34
0.0
 15
0.0
 25
0.0
 35
0.0
146
0.0
 13
0.0
 23
0.0
 33
0.0
 16
1.0
 26
0.0
 36
0.0
 17
0.0
 27
1.0
 37
0.0
 76
0
330
224
345
0
346
0
  0
ENDSEC
  0
EOF
