  0
SECTION
  2
HEADER
  9
$ACADVER
  1
AC1024
  9
$DWGCODEPAGE
  3
ANSI_1252
  9
$EXTMAX
 10
210.0
 20
297.0
 30
0.0
  9
$EXTMIN
 10
0.0
 20
0.0
 30
0.0
  9
$LIMMIN
 10
0.0
 20
0.0
  9
$LIMMAX
 10
210.0
 20
297.0
  9
$VIEWCTR
 10
105.0
 20
148.5
  9
$VIEWSIZE
 40
297.0
  9
$CLAYER
  8
0
  9
$LTSCALE
 40
19.36
  9
$CELTYPE
  6
BYLAYER
  9
$DIMSCALE
 40
1.0
  9
$DIMASZ
 40
3.0
  9
$DIMEXO
 40
0.5
  9
$DIMDLI
 40
13.376
  9
$DIMEXE
 40
1.5
  9
$DIMCEN
 40
3.168
  9
$DIMLFAC
 40
1.0
  9
$DIMBLK
  1
_FILLED
  9
$DIMALT
 70
0
  9
$DIMALTF
 40
0.0393700787
  9
$DIMTXT
 40
3.0
  9
$DIMTOL
 70
1
  9
$DIMLIM
 70
0
  9
$DIMTFAC
 40
1.0
  9
$DIMTP
 40
0.01
  9
$DIMTM
 40
0.01
  9
$DIMGAP
 40
0.625
  9
$DIMDSEP
 70
44
  9
$AUNITS
 70
0
  9
$PDMODE
 70
3
  9
$PDSIZE
 40
3.0
  9
$HANDSEED
  5
526
  9
$TILEMODE
 70
1
  9
$MEASUREMENT
 70
1
  9
$INSUNITS
 70
4
  0
ENDSEC
  0
SECTION
  2
CLASSES
  0
CLASS
  1
ACDBDICTIONARYWDFLT
  2
AcDbDictionaryWithDefault
  3
AutoCAD 2000
 90
0
 91
1
280
0
281
0
  0
CLASS
  1
ACDBPLACEHOLDER
  2
AcDbPlaceHolder
  3
AutoCAD 2000
 90
0
 91
1
280
0
281
0
  0
CLASS
  1
LAYOUT
  2
AcDbLayout
  3
AutoCAD 2000
 90
0
 91
0
280
0
281
0
  0
ENDSEC
  0
SECTION
  2
TABLES
  0
TABLE
  2
VPORT
  5
8
100
AcDbSymbolTable
 70
2
  0
VPORT
  5
1F4
100
AcDbSymbolTableRecord
100
AcDbViewportTableRecord
  2
*ACTIVE
 70
0
 10
0.0
 20
0.0
 11
1.0
 21
1.0
 12
105.0
 22
148.5
 13
0.0
 23
0.0
 14
1.0
 24
1.0
 15
0.0
 25
0.0
 16
0.0
 26
0.0
 36
1.0
 17
0.0
 27
0.0
 37
0.0
 40
297.0
 41
0.7070707071
 42
50.0
 43
0.0
 44
0.0
 50
0.0
 51
0.0
 71
0
 72
100
 73
1
 74
1
 75
0
 76
0
 77
0
 78
0
  0
ENDTAB
  0
TABLE
  2
LTYPE
  5
5
100
AcDbSymbolTable
 70
6
  0
LTYPE
  5
14
100
AcDbSymbolTableRecord
100
AcDbLinetypeTableRecord
  2
BYBLOCK
 70
0
  3

 72
65
 73
0
 40
0.0
  0
LTYPE
  5
15
100
AcDbSymbolTableRecord
100
AcDbLinetypeTableRecord
  2
BYLAYER
 70
0
  3

 72
65
 73
0
 40
0.0
  0
LTYPE
  5
16
100
AcDbSymbolTableRecord
100
AcDbLinetypeTableRecord
  2
CONTINUOUS
 70
64
  3
Solid line
 72
65
 73
0
 40
0.0
  0
LTYPE
  5
1F5
100
AcDbSymbolTableRecord
100
AcDbLinetypeTableRecord
  2
CENTER
 70
64
  3
____ _ ____ _ ____ _ ____ _ ____ _ ____ _ ____
 72
65
 73
4
 40
0.6
 49
0.375
 74
0
 49
-0.075
 74
0
 49
0.075
 74
0
 49
-0.075
 74
0
  0
LTYPE
  5
1F6
100
AcDbSymbolTableRecord
100
AcDbLinetypeTableRecord
  2
HIDDEN
 70
64
  3
- - - - - - - - - - - - - - - - - - - -
 72
65
 73
2
 40
0.2
 49
0.1
 74
0
 49
-0.1
 74
0
  0
LTYPE
  5
1F7
100
AcDbSymbolTableRecord
100
AcDbLinetypeTableRecord
  2
PHANTOM
 70
64
  3
_____ _ _ _____ _ _ _____ _ _ _____
 72
65
 73
6
 40
0.8
 49
0.45
 74
0
 49
-0.05
 74
0
 49
0.1
 74
0
 49
-0.05
 74
0
 49
0.1
 74
0
 49
-0.05
 74
0
  0
LTYPE
  5
1F8
100
AcDbSymbolTableRecord
100
AcDbLinetypeTableRecord
  2
DOT
 70
64
  3
. . . . . . . . . . . . . . . . . . . .
 72
65
 73
2
 40
0.2
 49
0.1
 74
0
 49
-0.1
 74
0
  0
LTYPE
  5
1F9
100
AcDbSymbolTableRecord
100
AcDbLinetypeTableRecord
  2
DASHED
 70
64
  3
- - - - - - - - - - - - - - - - - - - -
 72
65
 73
2
 40
0.2
 49
0.1
 74
0
 49
-0.1
 74
0
  0
ENDTAB
  0
TABLE
  2
LAYER
  5
2
100
AcDbSymbolTable
 70
36
  0
LAYER
  5
10
100
AcDbSymbolTableRecord
100
AcDbLayerTableRecord
  2
0
 70
0
 62
7
  6
CONTINUOUS
370
-3
390
F
  0
LAYER
  5
1FA
100
AcDbSymbolTableRecord
100
AcDbLayerTableRecord
  2
DEFAULT_1
 70
0
 62
7
  6
CENTER
370
-3
390
F
  0
LAYER
  5
1FB
100
AcDbSymbolTableRecord
100
AcDbLayerTableRecord
  2
DEFAULT_2
 70
0
 62
7
  6
HIDDEN
370
-3
390
F
  0
LAYER
  5
1FC
100
AcDbSymbolTableRecord
100
AcDbLayerTableRecord
  2
DEFAULT_3
 70
0
 62
7
  6
PHANTOM
370
-3
390
F
  0
LAYER
  5
1FD
100
AcDbSymbolTableRecord
100
AcDbLayerTableRecord
  2
ASSI
 70
0
 62
7
  6
CONTINUOUS
370
-3
390
F
  0
LAYER
  5
1FE
100
AcDbSymbolTableRecord
100
AcDbLayerTableRecord
  2
COLOR9
 70
0
 62
7
  6
CONTINUOUS
370
-3
390
F
  0
LAYER
  5
1FF
100
AcDbSymbolTableRecord
100
AcDbLayerTableRecord
  2
COORDINATE
 70
0
 62
7
  6
CONTINUOUS
370
-3
390
F
  0
LAYER
  5
200
100
AcDbSymbolTableRecord
100
AcDbLayerTableRecord
  2
COORD_ORIGINE
 70
0
 62
7
  6
CONTINUOUS
370
-3
390
F
  0
LAYER
  5
201
100
AcDbSymbolTableRecord
100
AcDbLayerTableRecord
  2
COPY_GEOMETRY
 70
0
 62
7
  6
CONTINUOUS
370
-3
390
F
  0
LAYER
  5
202
100
AcDbSymbolTableRecord
100
AcDbLayerTableRecord
  2
COPY_PUBLISH
 70
0
 62
7
  6
CONTINUOUS
370
-3
390
F
  0
LAYER
  5
203
100
AcDbSymbolTableRecord
100
AcDbLayerTableRecord
  2
COSMETIC
 70
0
 62
7
  6
CONTINUOUS
370
-3
390
F
  0
LAYER
  5
204
100
AcDbSymbolTableRecord
100
AcDbLayerTableRecord
  2
COSMETICI
 70
0
 62
7
  6
CONTINUOUS
370
-3
390
F
  0
LAYER
  5
205
100
AcDbSymbolTableRecord
100
AcDbLayerTableRecord
  2
CURVE
 70
0
 62
7
  6
CONTINUOUS
370
-3
390
F
  0
LAYER
  5
206
100
AcDbSymbolTableRecord
100
AcDbLayerTableRecord
  2
DRAFT
 70
0
 62
7
  6
CONTINUOUS
370
-3
390
F
  0
LAYER
  5
207
100
AcDbSymbolTableRecord
100
AcDbLayerTableRecord
  2
IGES
 70
0
 62
7
  6
CONTINUOUS
370
-3
390
F
  0
LAYER
  5
208
100
AcDbSymbolTableRecord
100
AcDbLayerTableRecord
  2
IGS_SCRITTE
 70
0
 62
7
  6
CONTINUOUS
370
-3
390
F
  0
LAYER
  5
209
100
AcDbSymbolTableRecord
100
AcDbLayerTableRecord
  2
IMPORT_IGES
 70
0
 62
7
  6
CONTINUOUS
370
-3
390
F
  0
LAYER
  5
20A
100
AcDbSymbolTableRecord
100
AcDbLayerTableRecord
  2
INTFCLR_13457
 70
0
 62
7
  6
CONTINUOUS
370
-3
390
F
  0
LAYER
  5
20B
100
AcDbSymbolTableRecord
100
AcDbLayerTableRecord
  2
INTFCLR_20107
 70
0
 62
7
  6
CONTINUOUS
370
-3
390
F
  0
LAYER
  5
20C
100
AcDbSymbolTableRecord
100
AcDbLayerTableRecord
  2
INTFCLR_35047
 70
0
 62
7
  6
CONTINUOUS
370
-3
390
F
  0
LAYER
  5
20D
100
AcDbSymbolTableRecord
100
AcDbLayerTableRecord
  2
INTF_11
 70
0
 62
7
  6
CONTINUOUS
370
-3
390
F
  0
LAYER
  5
20E
100
AcDbSymbolTableRecord
100
AcDbLayerTableRecord
  2
INTF_20
 70
0
 62
7
  6
CONTINUOUS
370
-3
390
F
  0
LAYER
  5
20F
100
AcDbSymbolTableRecord
100
AcDbLayerTableRecord
  2
INTF_25
 70
0
 62
7
  6
CONTINUOUS
370
-3
390
F
  0
LAYER
  5
210
100
AcDbSymbolTableRecord
100
AcDbLayerTableRecord
  2
INTF_YELLOW
 70
0
 62
7
  6
CONTINUOUS
370
-3
390
F
  0
LAYER
  5
211
100
AcDbSymbolTableRecord
100
AcDbLayerTableRecord
  2
NOTE
 70
0
 62
7
  6
CONTINUOUS
370
-3
390
F
  0
LAYER
  5
212
100
AcDbSymbolTableRecord
100
AcDbLayerTableRecord
  2
PIANI
 70
0
 62
7
  6
CONTINUOUS
370
-3
390
F
  0
LAYER
  5
213
100
AcDbSymbolTableRecord
100
AcDbLayerTableRecord
  2
PIANI_ORIGINE
 70
0
 62
7
  6
CONTINUOUS
370
-3
390
F
  0
LAYER
  5
214
100
AcDbSymbolTableRecord
100
AcDbLayerTableRecord
  2
PIANI_RIFERIMENTO
 70
0
 62
7
  6
CONTINUOUS
370
-3
390
F
  0
LAYER
  5
215
100
AcDbSymbolTableRecord
100
AcDbLayerTableRecord
  2
PUBLISH_GEOMETRY
 70
0
 62
7
  6
CONTINUOUS
370
-3
390
F
  0
LAYER
  5
216
100
AcDbSymbolTableRecord
100
AcDbLayerTableRecord
  2
PUNTI
 70
0
 62
7
  6
CONTINUOUS
370
-3
390
F
  0
LAYER
  5
217
100
AcDbSymbolTableRecord
100
AcDbLayerTableRecord
  2
RACCORDO
 70
0
 62
7
  6
CONTINUOUS
370
-3
390
F
  0
LAYER
  5
218
100
AcDbSymbolTableRecord
100
AcDbLayerTableRecord
  2
SIMBOLI
 70
0
 62
7
  6
CONTINUOUS
370
-3
390
F
  0
LAYER
  5
219
100
AcDbSymbolTableRecord
100
AcDbLayerTableRecord
  2
SMUSSO
 70
0
 62
7
  6
CONTINUOUS
370
-3
390
F
  0
LAYER
  5
21A
100
AcDbSymbolTableRecord
100
AcDbLayerTableRecord
  2
SNAPLINE
 70
0
 62
7
  6
CONTINUOUS
370
-3
390
F
  0
LAYER
  5
21B
100
AcDbSymbolTableRecord
100
AcDbLayerTableRecord
  2
SOLIDO
 70
0
 62
7
  6
CONTINUOUS
370
-3
390
F
  0
LAYER
  5
21C
100
AcDbSymbolTableRecord
100
AcDbLayerTableRecord
  2
SUPERFICI
 70
0
 62
7
  6
CONTINUOUS
370
-3
390
F
  0
LAYER
  5
21D
100
AcDbSymbolTableRecord
100
AcDbLayerTableRecord
  2
TRASH
 70
0
 62
7
  6
CONTINUOUS
370
-3
390
F
  0
LAYER
  5
21E
100
AcDbSymbolTableRecord
100
AcDbLayerTableRecord
  2
WHITE
 70
0
 62
7
  6
CONTINUOUS
370
-3
390
F
  0
LAYER
  5
21F
100
AcDbSymbolTableRecord
100
AcDbLayerTableRecord
  2
XSEC_DATUMS
 70
0
 62
7
  6
CONTINUOUS
370
-3
390
F
  0
ENDTAB
  0
TABLE
  2
STYLE
  5
3
100
AcDbSymbolTable
 70
1
  0
STYLE
  5
11
100
AcDbSymbolTableRecord
100
AcDbTextStyleTableRecord
  2
STANDARD
 70
0
 40
0.0
 41
0.8
 50
0.0
 71
0
 42
0.2
  3
txt
  4

  0
STYLE
  5
220
100
AcDbSymbolTableRecord
100
AcDbTextStyleTableRecord
  2
TEXTSTYLE_1
 70
0
 40
0.0
 41
0.8
 50
0.0
 71
0
 42
0.2
  3
gdt
  4

  0
ENDTAB
  0
TABLE
  2
VIEW
  5
6
100
AcDbSymbolTable
 70
0
  0
ENDTAB
  0
TABLE
  2
UCS
  5
7
100
AcDbSymbolTable
 70
0
  0
ENDTAB
  0
TABLE
  2
APPID
  5
9
100
AcDbSymbolTable
 70
1
  0
APPID
  5
221
100
AcDbSymbolTableRecord
100
AcDbRegAppTableRecord
  2
ACAD
 70
0
  0
ENDTAB
  0
TABLE
  2
BLOCK_RECORD
  5
1
100
AcDbSymbolTable
 70
0
  0
BLOCK_RECORD
  5
222
100
AcDbSymbolTableRecord
100
AcDbBlockTableRecord
  2
*Model_Space
  0
BLOCK_RECORD
  5
223
100
AcDbSymbolTableRecord
100
AcDbBlockTableRecord
  2
*Paper_Space
  0
BLOCK_RECORD
  5
224
100
AcDbSymbolTableRecord
100
AcDbBlockTableRecord
  2
_FILLED
  0
BLOCK_RECORD
  5
225
100
AcDbSymbolTableRecord
100
AcDbBlockTableRecord
  2
*D0
  0
BLOCK_RECORD
  5
226
100
AcDbSymbolTableRecord
100
AcDbBlockTableRecord
  2
*D1
  0
BLOCK_RECORD
  5
227
100
AcDbSymbolTableRecord
100
AcDbBlockTableRecord
  2
*D2
  0
ENDTAB
  0
TABLE
  2
DIMSTYLE
  5
A
100
AcDbSymbolTable
 70
1
100
AcDbDimStyleTable
 71
0
  0
DIMSTYLE
105
228
100
AcDbSymbolTableRecord
100
AcDbDimStyleTableRecord
  2
STANDARD
 70
0
  3

  4

 40
1.0
 41
3.0
 42
0.5
 43
0.38
 44
1.5
 45
0.0
 46
0.0
 47
0.01
 48
0.01
140
3.0
141
0.09
142
0.0
143
25.4
144
1.0
145
0.0
146
1.0
147
0.625
 71
1
 72
0
 73
0
 74
0
 75
0
 76
0
 77
1
 78
8
 79
2
170
0
171
1
172
0
173
0
174
0
175
0
176
0
177
0
178
0
270
2
179
2
271
2
272
2
273
2
274
2
275
0
280
0
281
0
282
0
283
1
284
8
285
0
286
0
287
3
288
0
340
11
278
44
341
224
342
224
343
224
344
224
  0
DIMSTYLE
105
229
100
AcDbSymbolTableRecord
100
AcDbDimStyleTableRecord
  2
DIMSTYLE_1
 70
0
  3

  4

 40
1.0
 41
3.0
 42
0.5
 43
0.38
 44
1.5
 45
0.0
 46
0.0
 47
0.0
 48
0.0
140
3.0
141
0.09
142
0.0
143
25.4
144
1.0
145
0.0
146
1.0
147
0.75
 71
0
 72
0
 73
0
 74
0
 75
0
 76
0
 77
1
 78
8
 79
2
170
0
171
1
172
0
173
0
174
0
175
0
176
0
177
0
178
0
270
2
179
2
271
2
272
2
273
2
274
2
275
0
280
0
281
0
282
0
283
1
284
8
285
0
286
0
287
3
288
0
340
11
278
44
341
224
342
224
343
224
344
224
  0
DIMSTYLE
105
22A
100
AcDbSymbolTableRecord
100
AcDbDimStyleTableRecord
  2
DIMSTYLE_2
 70
0
  3

  4

 40
1.0
 41
3.0
 42
0.5
 43
0.38
 44
1.5
 45
0.0
 46
0.0
 47
0.0
 48
0.0
140
3.0
141
0.09
142
0.0
143
25.4
144
1.0
145
0.0
146
1.0
147
0.75
 71
0
 72
0
 73
0
 74
0
 75
0
 76
0
 77
1
 78
8
 79
2
170
0
171
1
172
0
173
0
174
0
175
0
176
0
177
0
178
0
270
2
179
2
271
1
272
1
273
2
274
2
275
0
280
0
281
0
282
0
283
1
284
8
285
0
286
0
287
3
288
0
340
11
278
44
341
224
342
224
343
224
344
224
  0
ENDTAB
  0
ENDSEC
  0
SECTION
  2
BLOCKS
  0
BLOCK
  5
20
100
AcDbEntity
  8
0
100
AcDbBlockBegin
  2
*Model_Space
 70
0
 10
0.0
 20
0.0
 30
0.0
  3
*Model_Space
  1

  0
ENDBLK
  5
21
100
AcDbEntity
  8
0
100
AcDbBlockEnd
  0
BLOCK
  5
1C
100
AcDbEntity
  8
0
100
AcDbBlockBegin
  2
*Paper_Space
 70
0
 10
0.0
 20
0.0
 30
0.0
  3
*Paper_Space
  1

  0
ENDBLK
  5
1D
100
AcDbEntity
  8
0
100
AcDbBlockEnd
  0
BLOCK
  5
22B
100
AcDbEntity
  8
0
100
AcDbBlockBegin
  2
_FILLED
 70
64
 10
0.0
 20
0.0
  3
_FILLED
  1

  0
SOLID
  5
22C
100
AcDbEntity
  8
0
  6
BYBLOCK
 62
0
100
AcDbTrace
 10
0.0
 20
0.0
 11
-1.0
 21
0.3166666667
 12
-1.0
 22
-0.3166666667
 13
-1.0
 23
-0.3166666667
  0
ENDBLK
  5
22D
100
AcDbEntity
  8
0
  6
BYBLOCK
 62
0
100
AcDbBlockEnd
  0
BLOCK
  5
22E
100
AcDbEntity
  8
0
100
AcDbBlockBegin
 62
7
  6
CONTINUOUS
  2
*D0
 70
65
 10
0.0
 20
0.0
  3
*D0
  1

  0
LINE
  5
22F
100
AcDbEntity
  8
0
100
AcDbLine
 62
7
  6
CONTINUOUS
 10
-11.0930905885
 20
13.7282282781
 11
-11.0930905885
 21
31.8754566411
  0
LINE
  5
230
100
AcDbEntity
  8
0
100
AcDbLine
 62
7
  6
CONTINUOUS
 10
11.2069094115
 20
13.7282282781
 11
11.2069094115
 21
31.8754566411
  0
LINE
  5
231
100
AcDbEntity
  8
0
100
AcDbLine
 62
7
  6
CONTINUOUS
 10
-11.0930905885
 20
30.3754566411
 11
0.0569094115
 21
30.3754566411
  0
LINE
  5
232
100
AcDbEntity
  8
0
100
AcDbLine
 62
7
  6
CONTINUOUS
 10
11.2069094115
 20
30.3754566411
 11
0.0569094115
 21
30.3754566411
  0
INSERT
  5
233
100
AcDbEntity
  8
0
100
AcDbBlockReference
 62
7
  6
CONTINUOUS
  2
_FILLED
 10
-11.0930905885
 20
30.3754566411
 41
3.0
 42
3.0
 43
3.0
 50
180.0
  0
INSERT
  5
234
100
AcDbEntity
  8
0
100
AcDbBlockReference
 62
7
  6
CONTINUOUS
  2
_FILLED
 10
11.2069094115
 20
30.3754566411
 41
3.0
 42
3.0
 43
3.0
  0
ENDBLK
  5
235
100
AcDbEntity
  8
0
  6
BYBLOCK
 62
0
100
AcDbBlockEnd
  0
BLOCK
  5
236
100
AcDbEntity
  8
0
100
AcDbBlockBegin
 62
7
  6
CONTINUOUS
  2
*D1
 70
65
 10
0.0
 20
0.0
  3
*D1
  1

  0
LINE
  5
237
100
AcDbEntity
  8
0
100
AcDbLine
 62
7
  6
CONTINUOUS
 10
11.1796912168
 20
22.3364662187
 11
20.7216050697
 21
22.3364662187
  0
LINE
  5
238
100
AcDbEntity
  8
0
100
AcDbLine
 62
7
  6
CONTINUOUS
 10
11.1796912168
 20
-22.0800096625
 11
20.7216050697
 21
-22.0800096625
  0
LINE
  5
239
100
AcDbEntity
  8
0
100
AcDbLine
 62
7
  6
CONTINUOUS
 10
19.2216050697
 20
22.3364662187
 11
19.2216050697
 21
0.1282282781
  0
LINE
  5
23A
100
AcDbEntity
  8
0
100
AcDbLine
 62
7
  6
CONTINUOUS
 10
19.2216050697
 20
-22.0800096625
 11
19.2216050697
 21
0.1282282781
  0
INSERT
  5
23B
100
AcDbEntity
  8
0
100
AcDbBlockReference
 62
7
  6
CONTINUOUS
  2
_FILLED
 10
19.2216050697
 20
22.3364662187
 41
3.0
 42
3.0
 43
3.0
 50
90.0
  0
INSERT
  5
23C
100
AcDbEntity
  8
0
100
AcDbBlockReference
 62
7
  6
CONTINUOUS
  2
_FILLED
 10
19.2216050697
 20
-22.0800096625
 41
3.0
 42
3.0
 43
3.0
 50
270.0
  0
ENDBLK
  5
23D
100
AcDbEntity
  8
0
  6
BYBLOCK
 62
0
100
AcDbBlockEnd
  0
BLOCK
  5
23E
100
AcDbEntity
  8
0
100
AcDbBlockBegin
 62
7
  6
CONTINUOUS
  2
*D2
 70
65
 10
0.0
 20
0.0
  3
*D2
  1

  0
LINE
  5
23F
100
AcDbEntity
  8
0
100
AcDbLine
 62
7
  6
CONTINUOUS
 10
-23.841176777
 20
13.7282282781
 11
-23.841176777
 21
31.8678129651
  0
LINE
  5
240
100
AcDbEntity
  8
0
100
AcDbLine
 62
7
  6
CONTINUOUS
 10
-29.5410555727
 20
0.9763718675
 11
-29.5410555727
 21
31.8678129651
  0
LINE
  5
241
100
AcDbEntity
  8
0
100
AcDbLine
 62
7
  6
CONTINUOUS
 10
-23.841176777
 20
30.3678129651
 11
-13.423574172
 21
30.3678129651
  0
LINE
  5
242
100
AcDbEntity
  8
0
100
AcDbLine
 62
7
  6
CONTINUOUS
 10
-13.423574172
 20
30.3678129651
 11
-26.6911161749
 21
30.3678129651
  0
LINE
  5
243
100
AcDbEntity
  8
0
100
AcDbLine
 62
7
  6
CONTINUOUS
 10
-29.5410555727
 20
30.3678129651
 11
-33.5410555727
 21
30.3678129651
  0
LINE
  5
244
100
AcDbEntity
  8
0
100
AcDbLine
 62
7
  6
CONTINUOUS
 10
-33.5410555727
 20
30.3678129651
 11
-26.6911161749
 21
30.3678129651
  0
INSERT
  5
245
100
AcDbEntity
  8
0
100
AcDbBlockReference
 62
7
  6
CONTINUOUS
  2
_FILLED
 10
-23.841176777
 20
30.3678129651
 41
3.0
 42
3.0
 43
3.0
 50
180.0
  0
INSERT
  5
246
100
AcDbEntity
  8
0
100
AcDbBlockReference
 62
7
  6
CONTINUOUS
  2
_FILLED
 10
-29.5410555727
 20
30.3678129651
 41
3.0
 42
3.0
 43
3.0
  0
ENDBLK
  5
247
100
AcDbEntity
  8
0
  6
BYBLOCK
 62
0
100
AcDbBlockEnd
  0
ENDSEC
  0
SECTION
  2
ENTITIES
  0
DIMENSION
  5
248
100
AcDbEntity
  8
0
100
AcDbDimension
 62
7
  6
CONTINUOUS
  2
*D0
 10
11.2069094115
 20
30.3754566411
 11
-4.2288048742
 21
30.3754566411
 70
160
 71
2
 72
2
 41
0.9
 42
22.3
  3
DIMSTYLE_1
100
AcDbAlignedDimension
 13
-11.0930905885
 23
13.2282282781
 14
11.2069094115
 24
13.2282282781
100
AcDbRotatedDimension
  0
DIMENSION
  5
249
100
AcDbEntity
  8
0
100
AcDbDimension
 62
7
  6
CONTINUOUS
  2
*D1
 10
19.2216050697
 20
-22.0800096625
 11
19.2216050697
 21
-4.2646288648
 70
160
 71
2
 72
2
 41
0.9
 42
44.4164758811
  3
DIMSTYLE_2
100
AcDbAlignedDimension
 13
10.6796912168
 23
22.3364662187
 14
10.6796912168
 24
-22.0800096625
 50
270.0
100
AcDbRotatedDimension
  0
DIMENSION
  5
24A
100
AcDbEntity
  8
0
100
AcDbDimension
 62
7
  6
CONTINUOUS
  2
*D2
 10
-29.5410555727
 20
30.3678129651
 11
-19.6378598863
 21
30.3678129651
 70
160
 71
1
 72
2
 41
0.9
 42
5.6998787957
  3
DIMSTYLE_1
100
AcDbAlignedDimension
 13
-23.841176777
 23
13.2282282781
 14
-29.5410555727
 24
0.4763718675
 50
180.0
100
AcDbRotatedDimension
  0
LWPOLYLINE
  5
24B
100
AcDbEntity
  8
0
100
AcDbPolyline
 62
7
  6
CONTINUOUS
 90
5
 70
0
 43
0.3500000019
 10
3.0569091797
 20
32.8397426758
 10
3.4140546875
 20
33.054027832
 10
3.4140546875
 20
33.6968859863
 10
3.0569091797
 20
34.1254562988
 10
2.1997685547
 20
34.1254562988
  0
LINE
  5
24C
100
AcDbEntity
  8
RACCORDO
100
AcDbLine
 62
7
  6
CONTINUOUS
 10
3.4509557106
 20
-22.0800096625
 11
3.7991743846
 21
-22.0484008309
  0
LINE
  5
24D
100
AcDbEntity
  8
RACCORDO
100
AcDbLine
 62
7
  6
CONTINUOUS
 10
-7.7490442894
 20
-22.0800096625
 11
-7.4008256154
 21
-22.0484008309
  0
LINE
  5
24E
100
AcDbEntity
  8
0
100
AcDbLine
 62
250
  6
CONTINUOUS
 10
10.6474620849
 20
-21.0776475657
 11
10.6193039837
 21
-21.0783937284
  0
LWPOLYLINE
  5
24F
100
AcDbEntity
  8
0
100
AcDbPolyline
 62
250
  6
CONTINUOUS
 90
4
 70
0
 10
10.6193039837
 20
-21.0783937284
 10
10.5909621191
 20
-21.078901134
 10
10.5767509269
 20
-21.0790647593
 10
10.5625282239
 20
-21.0791681402
  0
LINE
  5
250
100
AcDbEntity
  8
0
100
AcDbLine
 62
7
  6
CONTINUOUS
 10
10.6796912168
 20
-22.0800096625
 11
7.8628631124
 21
-22.0800096625
  0
LINE
  5
251
100
AcDbEntity
  8
DRAFT
100
AcDbLine
 62
7
  6
CONTINUOUS
 10
3.4509557106
 20
-22.0800096625
 11
-3.3371368876
 21
-22.0800096625
  0
LINE
  5
252
100
AcDbEntity
  8
0
100
AcDbLine
 62
7
  6
CONTINUOUS
 10
-7.7490442894
 20
-22.0800096625
 11
-10.5658723937
 21
-22.0800096625
  0
LINE
  5
253
100
AcDbEntity
  8
RACCORDO
100
AcDbLine
 62
7
  6
CONTINUOUS
 10
-7.2276205346
 20
-22.043160053
 11
-3.8585606423
 21
-22.043160053
  0
LINE
  5
254
100
AcDbEntity
  8
RACCORDO
100
AcDbLine
 62
7
  6
CONTINUOUS
 10
3.9723794654
 20
-22.043160053
 11
7.3414393577
 21
-22.043160053
  0
LINE
  5
255
100
AcDbEntity
  8
0
100
AcDbLine
 62
250
  6
CONTINUOUS
 10
-10.4650608566
 20
-21.9287154938
 11
10.5788796796
 21
-21.9287154938
  0
LINE
  5
256
100
AcDbEntity
  8
0
100
AcDbLine
 62
250
  6
CONTINUOUS
 10
-10.4913314764
 20
-21.0786773979
 11
-10.462932104
 21
-21.0790647606
  0
LINE
  5
257
100
AcDbEntity
  8
RACCORDO
100
AcDbLine
 62
7
  6
CONTINUOUS
 10
-3.3371368876
 20
-22.0800096625
 11
-3.6853555616
 21
-22.0484008309
  0
LINE
  5
258
100
AcDbEntity
  8
RACCORDO
100
AcDbLine
 62
7
  6
CONTINUOUS
 10
7.8628631124
 20
-22.0800096625
 11
7.5146444384
 21
-22.0484008309
  0
LINE
  5
259
100
AcDbEntity
  8
0
100
AcDbLine
 62
250
  6
CONTINUOUS
 10
-10.4487094009
 20
-21.0791681415
 11
10.5625282239
 21
-21.0791681415
  0
LINE
  5
25A
100
AcDbEntity
  8
0
100
AcDbLine
 62
250
  6
CONTINUOUS
 10
-10.462932104
 20
-21.0790647606
 11
-10.4487094009
 21
-21.0791681415
  0
LWPOLYLINE
  5
25B
100
AcDbEntity
  8
0
100
AcDbPolyline
 62
250
  6
CONTINUOUS
 90
49
 70
0
 10
-10.9484048144
 20
21.2610836065
 10
-10.9477117875
 20
21.2632052505
 10
-10.9466149047
 20
21.2653251775
 10
-10.9451150536
 20
21.2674416716
 10
-10.943213448
 20
21.26955302
 10
-10.9409116271
 20
21.2716575138
 10
-10.9382114537
 20
21.2737534499
 10
-10.9351151132
 20
21.275839132
 10
-10.9316251115
 20
21.277912872
 10
-10.9277442732
 20
21.2799729916
 10
-10.9234757391
 20
21.2820178236
 10
-10.9188229639
 20
21.2840457129
 10
-10.9137897132
 20
21.2860550184
 10
-10.9083800606
 20
21.2880441138
 10
-10.9025983841
 20
21.2900113894
 10
-10.8964493631
 20
21.2919552529
 10
-10.8899379742
 20
21.2938741312
 10
-10.8830694871
 20
21.2957664713
 10
-10.8758494608
 20
21.2976307416
 10
-10.8682837386
 20
21.2994654333
 10
-10.8603784437
 20
21.3012690615
 10
-10.8521399739
 20
21.3030401666
 10
-10.843574997
 20
21.3047773151
 10
-10.8346904447
 20
21.3064791011
 10
-10.8254935077
 20
21.3081441474
 10
-10.8159916292
 20
21.3097711062
 10
-10.8061924993
 20
21.311358661
 10
-10.7961040488
 20
21.3129055268
 10
-10.7857344424
 20
21.3144104518
 10
-10.7750920727
 20
21.3158722179
 10
-10.7641855527
 20
21.3172896421
 10
-10.7530237094
 20
21.3186615773
 10
-10.7416155764
 20
21.3199869131
 10
-10.7299703866
 20
21.3212645768
 10
-10.7180975647
 20
21.3224935345
 10
-10.7060067198
 20
21.3236727914
 10
-10.6937076372
 20
21.3248013933
 10
-10.681210271
 20
21.3258784266
 10
-10.6685247356
 20
21.3269030198
 10
-10.6556612978
 20
21.3278743436
 10
-10.6426303682
 20
21.3287916118
 10
-10.6294424932
 20
21.3296540821
 10
-10.6161083461
 20
21.3304610564
 10
-10.6026387186
 20
21.3312118818
 10
-10.5890445119
 20
21.3319059505
 10
-10.5753367282
 20
21.3325427007
 10
-10.5615264616
 20
21.3331216172
 10
-10.5476248892
 20
21.3336422313
 10
-10.5336432618
 20
21.3341041219
  0
LWPOLYLINE
  5
25C
100
AcDbEntity
  8
0
100
AcDbPolyline
 62
250
  6
CONTINUOUS
 90
51
 70
0
 10
-10.9484048144
 20
-21.0046270503
 10
-10.9477117877
 20
-21.0067486944
 10
-10.9466149051
 20
-21.0088686213
 10
-10.9451150541
 20
-21.0109851155
 10
-10.9432134488
 20
-21.0130964639
 10
-10.940911628
 20
-21.0152009578
 10
-10.9382114548
 20
-21.0172968939
 10
-10.9351151144
 20
-21.019382576
 10
-10.9316251129
 20
-21.021456316
 10
-10.9277442747
 20
-21.0235164357
 10
-10.9234757408
 20
-21.0255612677
 10
-10.9188229657
 20
-21.027589157
 10
-10.9137897151
 20
-21.0295984625
 10
-10.9083800625
 20
-21.031587558
 10
-10.9025983861
 20
-21.0335548336
 10
-10.8964493652
 20
-21.0354986972
 10
-10.8899379764
 20
-21.0374175755
 10
-10.8830694894
 20
-21.0393099156
 10
-10.8758494632
 20
-21.0411741859
 10
-10.868283741
 20
-21.0430088776
 10
-10.8603784461
 20
-21.0448125059
 10
-10.8521399764
 20
-21.046583611
 10
-10.8435749994
 20
-21.0483207596
 10
-10.8346904472
 20
-21.0500225456
 10
-10.8254935102
 20
-21.0516875919
 10
-10.8159916317
 20
-21.0533145508
 10
-10.8061925018
 20
-21.0549021056
 10
-10.7961040512
 20
-21.0564489714
 10
-10.7857344449
 20
-21.0579538964
 10
-10.7750920751
 20
-21.0594156626
 10
-10.7641855551
 20
-21.0608330868
 10
-10.7530237118
 20
-21.062205022
 10
-10.7416155787
 20
-21.0635303578
 10
-10.7299703888
 20
-21.0648080216
 10
-10.7180975669
 20
-21.0660369793
 10
-10.7060067219
 20
-21.0672162362
 10
-10.6937076392
 20
-21.0683448381
 10
-10.6812102729
 20
-21.0694218715
 10
-10.6685247375
 20
-21.0704464647
 10
-10.6556612995
 20
-21.0714177885
 10
-10.6426303699
 20
-21.0723350567
 10
-10.6294424948
 20
-21.073197527
 10
-10.6161083476
 20
-21.0740045014
 10
-10.6026387199
 20
-21.0747553268
 10
-10.5890445131
 20
-21.0754493954
 10
-10.5753367293
 20
-21.0760861457
 10
-10.5615264626
 20
-21.0766650622
 10
-10.5476248901
 20
-21.0771856764
 10
-10.5336432626
 20
-21.0776475669
 10
-10.5195928958
 20
-21.07805036
 10
-10.4913314764
 20
-21.0786773979
  0
LWPOLYLINE
  5
25D
100
AcDbEntity
  8
0
100
AcDbPolyline
 62
250
  6
CONTINUOUS
 90
12
 70
0
 10
-10.9140419605
 20
9.6187282781
 10
-10.9133436949
 20
9.6189986102
 10
-10.9122417794
 20
9.6192687237
 10
-10.9107371052
 20
9.6195383999
 10
-10.9088308896
 20
9.6198074209
 10
-10.9065246746
 20
9.6200755689
 10
-10.9038203257
 20
9.620342627
 10
-10.9007200305
 20
9.6206083793
 10
-10.8972262969
 20
9.6208726107
 10
-10.893341951
 20
9.6211351075
 10
-10.8890701351
 20
9.6213956574
 10
-10.8844143046
 20
9.6216540495
  0
LWPOLYLINE
  5
25E
100
AcDbEntity
  8
0
100
AcDbPolyline
 62
250
  6
CONTINUOUS
 90
14
 70
0
 10
-10.9140419605
 20
-9.3622717219
 10
-10.9133436949
 20
-9.362542054
 10
-10.9122417794
 20
-9.3628121675
 10
-10.9107371052
 20
-9.3630818437
 10
-10.9088308897
 20
-9.3633508647
 10
-10.9065246746
 20
-9.3636190127
 10
-10.9038203257
 20
-9.3638860708
 10
-10.9007200305
 20
-9.3641518231
 10
-10.8972262969
 20
-9.3644160545
 10
-10.8933419511
 20
-9.3646785513
 10
-10.8890701351
 20
-9.3649391012
 10
-10.8844143047
 20
-9.3651974933
 10
-10.8793782259
 20
-9.3654535188
 10
-10.8681819228
 20
-9.3659576432
  0
LINE
  5
25F
100
AcDbEntity
  8
0
100
AcDbLine
 62
250
  6
CONTINUOUS
 10
-10.9560912571
 20
21.6045837175
 11
-10.9568030584
 21
21.6172690128
  0
LINE
  5
260
100
AcDbEntity
  8
0
100
AcDbLine
 62
250
  6
CONTINUOUS
 10
-10.9554013458
 20
21.5909308396
 11
-10.9560912571
 21
21.6045837175
  0
LINE
  5
261
100
AcDbEntity
  8
0
100
AcDbLine
 62
250
  6
CONTINUOUS
 10
-10.9547351377
 20
21.5763447801
 11
-10.9554013458
 21
21.5909308396
  0
LINE
  5
262
100
AcDbEntity
  8
0
100
AcDbLine
 62
250
  6
CONTINUOUS
 10
-10.9537836788
 20
21.5527936923
 11
-10.9547351377
 21
21.5763447801
  0
LINE
  5
263
100
AcDbEntity
  8
0
100
AcDbLine
 62
250
  6
CONTINUOUS
 10
-10.9528938979
 20
21.5273428086
 11
-10.9537836788
 21
21.5527936923
  0
LINE
  5
264
100
AcDbEntity
  8
0
100
AcDbLine
 62
250
  6
CONTINUOUS
 10
-10.457107571
 20
22.0479955563
 11
-10.4582132879
 21
22.0823164258
  0
LINE
  5
265
100
AcDbEntity
  8
0
100
AcDbLine
 62
250
  6
CONTINUOUS
 10
-10.9518114363
 20
21.4906847908
 11
-10.9528938979
 21
21.5273428086
  0
LINE
  5
266
100
AcDbEntity
  8
0
100
AcDbLine
 62
250
  6
CONTINUOUS
 10
-10.4557058838
 20
21.9953169422
 11
-10.457107571
 21
22.0479955563
  0
LINE
  5
267
100
AcDbEntity
  8
0
100
AcDbLine
 62
250
  6
CONTINUOUS
 10
-10.9508567608
 20
21.4512233404
 11
-10.9518114363
 21
21.4906847908
  0
LINE
  5
268
100
AcDbEntity
  8
0
100
AcDbLine
 62
250
  6
CONTINUOUS
 10
-10.4540882453
 20
21.9190472035
 11
-10.4557058838
 21
21.9953169422
  0
LWPOLYLINE
  5
269
100
AcDbEntity
  8
0
100
AcDbPolyline
 62
250
  6
CONTINUOUS
 90
43
 70
0
 10
-10.9108974006
 20
0.4737059326
 10
-10.9107554053
 20
0.4662294269
 10
-10.9103341691
 20
0.4587633738
 10
-10.909634281
 20
0.451318211
 10
-10.9086567195
 20
0.4439043474
 10
-10.9074028512
 20
0.4365321478
 10
-10.9058744291
 20
0.429211919
 10
-10.90407359
 20
0.421953895
 10
-10.9020028516
 20
0.4147682229
 10
-10.8996651089
 20
0.4076649485
 10
-10.8970636302
 20
0.4006540026
 10
-10.8942020524
 20
0.3937451869
 10
-10.8910843761
 20
0.3869481602
 10
-10.8877149602
 20
0.3802724251
 10
-10.884098515
 20
0.3737273145
 10
-10.8802400967
 20
0.3673219789
 10
-10.8761450995
 20
0.3610653732
 10
-10.8718192483
 20
0.3549662445
 10
-10.867268591
 20
0.3490331197
 10
-10.8624994895
 20
0.3432742934
 10
-10.8575186114
 20
0.3376978169
 10
-10.8523329201
 20
0.3323114863
 10
-10.8469496655
 20
0.3271228321
 10
-10.8413763736
 20
0.322139108
 10
-10.8356208361
 20
0.3173672817
 10
-10.8296910997
 20
0.3128140245
 10
-10.8235954543
 20
0.3084857018
 10
-10.8173424219
 20
0.304388365
 10
-10.8109407446
 20
0.3005277424
 10
-10.8043993723
 20
0.2969092312
 10
-10.7977274501
 20
0.2935378904
 10
-10.7909343056
 20
0.2904184331
 10
-10.7840294361
 20
0.2875552206
 10
-10.7770224948
 20
0.2849522558
 10
-10.7699232778
 20
0.2826131777
 10
-10.7627417102
 20
0.2805412564
 10
-10.7554878321
 20
0.2787393887
 10
-10.7481717848
 20
0.2772100935
 10
-10.7408037965
 20
0.275955509
 10
-10.7333941679
 20
0.2749773891
 10
-10.7259532582
 20
0.2742771013
 10
-10.71849147
 20
0.2738556245
 10
-10.7110192352
 20
0.273713548
  0
LINE
  5
26A
100
AcDbEntity
  8
0
100
AcDbLine
 62
250
  6
CONTINUOUS
 10
-10.9498562822
 20
21.3985068183
 11
-10.9508567608
 21
21.4512233404
  0
LWPOLYLINE
  5
26B
100
AcDbEntity
  8
0
100
AcDbPolyline
 62
250
  6
CONTINUOUS
 90
55
 70
0
 10
-10.9647562701
 20
-21.4294007265
 10
-10.9645188507
 20
-21.4439062982
 10
-10.9638598221
 20
-21.4583996253
 10
-10.9627797406
 20
-21.4728684735
 10
-10.961279518
 20
-21.4873006291
 10
-10.9593604207
 20
-21.5016839095
 10
-10.9570240685
 20
-21.5160061733
 10
-10.9542724338
 20
-21.5302553305
 10
-10.9511078392
 20
-21.544419353
 10
-10.9475329561
 20
-21.5584862844
 10
-10.9435508022
 20
-21.5724442504
 10
-10.9391647389
 20
-21.5862814686
 10
-10.9343784686
 20
-21.5999862585
 10
-10.9291960317
 20
-21.6135470515
 10
-10.9236218028
 20
-21.6269524004
 10
-10.9176604872
 20
-21.6401909894
 10
-10.9113171171
 20
-21.6532516433
 10
-10.9045970472
 20
-21.6661233371
 10
-10.8975059501
 20
-21.6787952055
 10
-10.8900498117
 20
-21.6912565516
 10
-10.8822349258
 20
-21.7034968566
 10
-10.8740678893
 20
-21.7155057878
 10
-10.8655555963
 20
-21.7272732082
 10
-10.8567052323
 20
-21.7387891844
 10
-10.8475242682
 20
-21.7500439956
 10
-10.8380204539
 20
-21.761028141
 10
-10.8282018119
 20
-21.7717323486
 10
-10.8180766305
 20
-21.7821475827
 10
-10.8076534567
 20
-21.7922650514
 10
-10.7969410889
 20
-21.8020762142
 10
-10.78594857
 20
-21.8115727891
 10
-10.774685179
 20
-21.8207467598
 10
-10.7631604237
 20
-21.8295903822
 10
-10.7513840326
 20
-21.8380961912
 10
-10.7393659465
 20
-21.8462570066
 10
-10.7271163103
 20
-21.8540659397
 10
-10.7146454643
 20
-21.8615163987
 10
-10.7019639356
 20
-21.8686020944
 10
-10.6890824291
 20
-21.8753170455
 10
-10.6760118184
 20
-21.8816555838
 10
-10.662763137
 20
-21.8876123586
 10
-10.6493475684
 20
-21.8931823416
 10
-10.6357764373
 20
-21.898360831
 10
-10.6220611994
 20
-21.9031434556
 10
-10.6082134323
 20
-21.907526178
 10
-10.5942448253
 20
-21.9115052987
 10
-10.5801671697
 20
-21.9150774588
 10
-10.5659923491
 20
-21.918239643
 10
-10.5517323288
 20
-21.9209891818
 10
-10.5373991462
 20
-21.9233237544
 10
-10.5230049005
 20
-21.92524139
 10
-10.5085617422
 20
-21.9267404699
 10
-10.4940818634
 20
-21.9278197287
 10
-10.479577487
 20
-21.9284782553
 10
-10.4650608566
 20
-21.9287154938
  0
LINE
  5
26C
100
AcDbEntity
  8
0
100
AcDbLine
 62
250
  6
CONTINUOUS
 10
-10.4526419638
 20
21.8322315988
 11
-10.4540882453
 21
21.9190472035
  0
LINE
  5
26D
100
AcDbEntity
  8
0
100
AcDbLine
 62
250
  6
CONTINUOUS
 10
-10.9490835407
 20
21.3427389539
 11
-10.9498562822
 21
21.3985068183
  0
LINE
  5
26E
100
AcDbEntity
  8
0
100
AcDbLine
 62
250
  6
CONTINUOUS
 10
-10.4511613718
 20
21.7159029533
 11
-10.4526419638
 21
21.8322315988
  0
LINE
  5
26F
100
AcDbEntity
  8
0
100
AcDbLine
 62
250
  6
CONTINUOUS
 10
-10.9485497229
 20
21.2847377696
 11
-10.9490835407
 21
21.3427389539
  0
LINE
  5
270
100
AcDbEntity
  8
0
100
AcDbLine
 62
250
  6
CONTINUOUS
 10
-10.4498237712
 20
21.5665080568
 11
-10.4511613718
 21
21.7159029533
  0
LINE
  5
271
100
AcDbEntity
  8
0
100
AcDbLine
 62
250
  6
CONTINUOUS
 10
-10.4489415283
 20
21.4064068812
 11
-10.4498237712
 21
21.5665080568
  0
LINE
  5
272
100
AcDbEntity
  8
0
100
AcDbLine
 62
7
  6
CONTINUOUS
 10
-11.0667832791
 20
-21.5825190297
 11
-11.0930905885
 21
-12.9717717219
  0
LINE
  5
273
100
AcDbEntity
  8
0
100
AcDbLine
 62
250
  6
CONTINUOUS
 10
-10.444345186
 20
20.4738137643
 11
-10.4489415283
 21
21.4064068812
  0
LWPOLYLINE
  5
274
100
AcDbEntity
  8
0
100
AcDbPolyline
 62
250
  6
CONTINUOUS
 90
27
 70
0
 10
-10.9143658763
 20
10.0516877226
 10
-10.9147629179
 20
10.4845770811
 10
-10.9152330854
 20
10.9173963535
 10
-10.9157763933
 20
11.3501556875
 10
-10.9163928271
 20
11.7828449355
 10
-10.9170823437
 20
12.2154336543
 10
-10.917844948
 20
12.6479218165
 10
-10.918680635
 20
13.0803094495
 10
-10.9195893462
 20
13.5125661918
 10
-10.9205710866
 20
13.9446920299
 10
-10.9216258511
 20
14.3766869773
 10
-10.9227535658
 20
14.8085207127
 10
-10.9239542359
 20
15.2401932219
 10
-10.9252278562
 20
15.671704519
 10
-10.9265743375
 20
16.1030243248
 10
-10.9279936849
 20
16.5341526288
 10
-10.9294858934
 20
16.9650894415
 10
-10.9310508583
 20
17.3958045153
 10
-10.9326885848
 20
17.8262978391
 10
-10.9343990678
 20
18.2565694241
 10
-10.9361821874
 20
18.6865890565
 10
-10.9380379487
 20
19.1163567323
 10
-10.9399663466
 20
19.5458724555
 10
-10.9419672456
 20
19.9751060247
 10
-10.9440406007
 20
20.4040473727
 10
-10.946186457
 20
20.8327065666
 10
-10.9485497229
 20
21.2847377696
  0
LWPOLYLINE
  5
275
100
AcDbEntity
  8
0
100
AcDbPolyline
 62
250
  6
CONTINUOUS
 90
25
 70
0
 10
-10.414670463
 20
10.0635897399
 10
-10.4150675048
 20
10.498901036
 10
-10.4155376725
 20
10.9341519754
 10
-10.4160809805
 20
11.3693323646
 10
-10.4166974143
 20
11.8044320196
 10
-10.4173869308
 20
12.2394407661
 10
-10.4181495351
 20
12.6743484223
 10
-10.4189852221
 20
13.1091448045
 10
-10.4198939332
 20
13.5438197389
 10
-10.4208756736
 20
13.9783630449
 10
-10.421930438
 20
14.4127645539
 10
-10.4230581527
 20
14.8470141139
 10
-10.4242588227
 20
15.2811015558
 10
-10.4255324429
 20
15.7150167201
 10
-10.4268789241
 20
16.1487494745
 10
-10.4282982714
 20
16.5822896678
 10
-10.4297904797
 20
17.0156271472
 10
-10.4313554445
 20
17.4487517857
 10
-10.4329931709
 20
17.8816534475
 10
-10.4347036537
 20
18.3143219935
 10
-10.4364867731
 20
18.7467472992
 10
-10.4383425341
 20
19.1789192388
 10
-10.4402709317
 20
19.6108276968
 10
-10.4422718307
 20
20.0424625724
 10
-10.444345186
 20
20.4738137643
  0
LINE
  5
276
100
AcDbEntity
  8
0
100
AcDbLine
 62
250
  6
CONTINUOUS
 10
-10.9134038143
 20
8.6026979341
 11
-10.9143658763
 21
10.0516877226
  0
LINE
  5
277
100
AcDbEntity
  8
0
100
AcDbLine
 62
250
  6
CONTINUOUS
 10
-10.4137085536
 20
8.6114460489
 11
-10.414670463
 21
10.0635897399
  0
LINE
  5
278
100
AcDbEntity
  8
0
100
AcDbLine
 62
250
  6
CONTINUOUS
 10
-10.9119224974
 20
5.5544760628
 11
-10.9134038143
 21
8.6026979341
  0
LINE
  5
279
100
AcDbEntity
  8
0
100
AcDbLine
 62
250
  6
CONTINUOUS
 10
-10.4122275493
 20
5.5609391164
 11
-10.4137085536
 21
8.6114460489
  0
LINE
  5
27A
100
AcDbEntity
  8
0
100
AcDbLine
 62
250
  6
CONTINUOUS
 10
-10.9112958948
 20
3.5222218254
 11
-10.9119224974
 21
5.5544760628
  0
LINE
  5
27B
100
AcDbEntity
  8
0
100
AcDbLine
 62
250
  6
CONTINUOUS
 10
-10.4116008486
 20
3.5271682308
 11
-10.4122275493
 21
5.5609391164
  0
LINE
  5
27C
100
AcDbEntity
  8
0
100
AcDbLine
 62
7
  6
CONTINUOUS
 10
-11.0930905885
 20
-0.1717184249
 11
-11.0930905885
 21
-12.9717717219
  0
LINE
  5
27D
100
AcDbEntity
  8
0
100
AcDbLine
 62
7
  6
CONTINUOUS
 10
-11.0930905885
 20
0.4281749811
 11
-11.0930905885
 21
13.2282282781
  0
LINE
  5
27E
100
AcDbEntity
  8
0
100
AcDbLine
 62
250
  6
CONTINUOUS
 10
-10.9108974709
 20
0.4737059151
 11
-10.9112958948
 21
3.5222218254
  0
LINE
  5
27F
100
AcDbEntity
  8
0
100
AcDbLine
 62
250
  6
CONTINUOUS
 10
-10.4112020433
 20
0.2762402247
 11
-10.4116008486
 21
3.5271682308
  0
LINE
  5
280
100
AcDbEntity
  8
0
100
AcDbLine
 62
250
  6
CONTINUOUS
 10
-10.9110908907
 20
-2.2496116732
 11
-10.9108974709
 21
-0.2172493589
  0
LINE
  5
281
100
AcDbEntity
  8
0
100
AcDbLine
 62
250
  6
CONTINUOUS
 10
-10.4112617549
 20
-1.2368591945
 11
-10.4112020433
 21
-0.0197836685
  0
LINE
  5
282
100
AcDbEntity
  8
0
100
AcDbLine
 62
250
  6
CONTINUOUS
 10
-10.911573098
 20
-4.281901575
 11
-10.9110908907
 21
-2.2496116732
  0
LWPOLYLINE
  5
283
100
AcDbEntity
  8
0
100
AcDbPolyline
 62
250
  6
CONTINUOUS
 90
3
 70
0
 10
-10.4118782303
 20
-4.2876086071
 10
-10.4116008486
 20
-3.2707116746
 10
-10.4112617549
 20
-1.2368591945
  0
LWPOLYLINE
  5
284
100
AcDbEntity
  8
0
100
AcDbPolyline
 62
250
  6
CONTINUOUS
 90
3
 70
0
 10
-10.9128378555
 20
-7.3301894081
 10
-10.9123440842
 20
-6.3141158122
 10
-10.911573098
 20
-4.281901575
  0
LWPOLYLINE
  5
285
100
AcDbEntity
  8
0
100
AcDbPolyline
 62
250
  6
CONTINUOUS
 90
3
 70
0
 10
-10.413142711
 20
-7.3381772098
 10
-10.4126490192
 20
-6.3213390798
 10
-10.4118782303
 20
-4.2876086071
  0
LINE
  5
286
100
AcDbEntity
  8
0
100
AcDbLine
 62
250
  6
CONTINUOUS
 10
-10.9140419605
 20
-9.3622717219
 11
-10.9128378555
 21
-7.3301894081
  0
LINE
  5
287
100
AcDbEntity
  8
0
100
AcDbLine
 62
250
  6
CONTINUOUS
 10
-10.414346547
 20
-9.3717717219
 11
-10.413142711
 21
-7.3381772098
  0
LINE
  5
288
100
AcDbEntity
  8
0
100
AcDbLine
 62
7
  6
CONTINUOUS
 10
-11.0667832791
 20
21.8389755858
 11
-11.0930905885
 21
13.2282282781
  0
LWPOLYLINE
  5
289
100
AcDbEntity
  8
0
100
AcDbPolyline
 62
250
  6
CONTINUOUS
 90
27
 70
0
 10
-10.946186457
 20
-20.5762500104
 10
-10.9440406007
 20
-20.1475908165
 10
-10.9419672456
 20
-19.7186494686
 10
-10.9399663466
 20
-19.2894158994
 10
-10.9380379487
 20
-18.8599001761
 10
-10.9361821874
 20
-18.4301325003
 10
-10.9343990678
 20
-18.0001128679
 10
-10.9326885848
 20
-17.5698412829
 10
-10.9310508583
 20
-17.1393479592
 10
-10.9294858934
 20
-16.7086328853
 10
-10.9279936849
 20
-16.2776960726
 10
-10.9265743375
 20
-15.8465677686
 10
-10.9252278562
 20
-15.4152479628
 10
-10.9239542359
 20
-14.9837366657
 10
-10.9227535658
 20
-14.5520641565
 10
-10.9216258511
 20
-14.1202304212
 10
-10.9205710866
 20
-13.6882354737
 10
-10.9195893462
 20
-13.2561096356
 10
-10.918680635
 20
-12.8238528933
 10
-10.917844948
 20
-12.3914652603
 10
-10.9170823437
 20
-11.9589770981
 10
-10.9163928271
 20
-11.5263883793
 10
-10.9157763933
 20
-11.0936991314
 10
-10.9152330854
 20
-10.6609397973
 10
-10.9147629179
 20
-10.2281205249
 10
-10.9143658763
 20
-9.7952311664
 10
-10.9140419605
 20
-9.3622717219
  0
LWPOLYLINE
  5
28A
100
AcDbEntity
  8
0
100
AcDbPolyline
 62
250
  6
CONTINUOUS
 90
28
 70
0
 10
-10.4487094009
 20
-21.0791681415
 10
-10.4464910427
 20
-20.6484146138
 10
-10.444345186
 20
-20.2173572081
 10
-10.4422718307
 20
-19.7860060162
 10
-10.4402709317
 20
-19.3543711406
 10
-10.4383425341
 20
-18.9224626827
 10
-10.4364867731
 20
-18.490290743
 10
-10.4347036537
 20
-18.0578654373
 10
-10.4329931709
 20
-17.6251968913
 10
-10.4313554445
 20
-17.1922952295
 10
-10.4297904797
 20
-16.759170591
 10
-10.4282982714
 20
-16.3258331116
 10
-10.4268789241
 20
-15.8922929184
 10
-10.4255324429
 20
-15.4585601639
 10
-10.4242588227
 20
-15.0246449996
 10
-10.4230581527
 20
-14.5905575577
 10
-10.421930438
 20
-14.1563079977
 10
-10.4208756736
 20
-13.7219064887
 10
-10.4198939332
 20
-13.2873631827
 10
-10.4189852221
 20
-12.8526882484
 10
-10.4181495351
 20
-12.4178918661
 10
-10.4173869308
 20
-11.9829842099
 10
-10.4166974143
 20
-11.5479754634
 10
-10.4160809805
 20
-11.1128758084
 10
-10.4155376725
 20
-10.6776954192
 10
-10.4150675048
 20
-10.2424444799
 10
-10.414670463
 20
-9.8071331838
 10
-10.414346547
 20
-9.3717717219
  0
LINE
  5
28B
100
AcDbEntity
  8
0
100
AcDbLine
 62
250
  6
CONTINUOUS
 10
-10.4495239614
 20
-21.2652079747
 11
-10.4487094009
 21
-21.0791681415
  0
LINE
  5
28C
100
AcDbEntity
  8
0
100
AcDbLine
 62
250
  6
CONTINUOUS
 10
-10.9488408566
 20
-21.0633048222
 11
-10.946186457
 21
-20.5762500104
  0
LINE
  5
28D
100
AcDbEntity
  8
0
100
AcDbLine
 62
250
  6
CONTINUOUS
 10
-10.4507346801
 20
-21.418107004
 11
-10.4495239614
 21
-21.2652079747
  0
LINE
  5
28E
100
AcDbEntity
  8
0
100
AcDbLine
 62
250
  6
CONTINUOUS
 10
-10.4523750048
 20
-21.5572540416
 11
-10.4507346801
 21
-21.418107004
  0
LINE
  5
28F
100
AcDbEntity
  8
0
100
AcDbLine
 62
250
  6
CONTINUOUS
 10
-10.9495191485
 20
-21.1200638617
 11
-10.9488408566
 21
-21.0633048222
  0
LWPOLYLINE
  5
290
100
AcDbEntity
  8
0
100
AcDbPolyline
 62
250
  6
CONTINUOUS
 90
55
 70
0
 10
-10.9647562701
 20
21.6858572826
 10
-10.9645188507
 20
21.7003628547
 10
-10.9638598221
 20
21.7148561821
 10
-10.9627797406
 20
21.7293250306
 10
-10.9612795179
 20
21.7437571865
 10
-10.9593604205
 20
21.7581404671
 10
-10.9570240682
 20
21.7724627311
 10
-10.9542724334
 20
21.7867118885
 10
-10.9511078387
 20
21.8008759112
 10
-10.9475329555
 20
21.8149428428
 10
-10.9435508014
 20
21.828900809
 10
-10.939164738
 20
21.8427380274
 10
-10.9343784676
 20
21.8564428174
 10
-10.9291960306
 20
21.8700036105
 10
-10.9236218015
 20
21.8834089596
 10
-10.9176604858
 20
21.8966475486
 10
-10.9113171156
 20
21.9097082026
 10
-10.9045970455
 20
21.9225798965
 10
-10.8975059483
 20
21.9352517649
 10
-10.8900498097
 20
21.9477131111
 10
-10.8822349237
 20
21.959953416
 10
-10.8740678871
 20
21.9719623472
 10
-10.865555594
 20
21.9837297675
 10
-10.8567052298
 20
21.9952457438
 10
-10.8475242656
 20
22.0065005548
 10
-10.8380204512
 20
22.0174847002
 10
-10.8282018092
 20
22.0281889078
 10
-10.8180766277
 20
22.0386041417
 10
-10.8076534538
 20
22.0487216103
 10
-10.796941086
 20
22.058532773
 10
-10.785948567
 20
22.0680293478
 10
-10.774685176
 20
22.0772033183
 10
-10.7631604207
 20
22.0860469406
 10
-10.7513840296
 20
22.0945527494
 10
-10.7393659436
 20
22.1027135647
 10
-10.7271163074
 20
22.1105224977
 10
-10.7146454615
 20
22.1179729566
 10
-10.7019639328
 20
22.1250586521
 10
-10.6890824264
 20
22.1317736031
 10
-10.6760118158
 20
22.1381121412
 10
-10.6627631345
 20
22.1440689159
 10
-10.649347566
 20
22.1496388987
 10
-10.635776435
 20
22.1548173881
 10
-10.6220611973
 20
22.1596000124
 10
-10.6082134303
 20
22.1639827348
 10
-10.5942448235
 20
22.1679618554
 10
-10.5801671681
 20
22.1715340154
 10
-10.5659923477
 20
22.1746961994
 10
-10.5517323276
 20
22.1774457382
 10
-10.5373991452
 20
22.1797803107
 10
-10.5230048996
 20
22.1816979463
 10
-10.5085617416
 20
22.1831970261
 10
-10.494081863
 20
22.1842762849
 10
-10.4795774868
 20
22.1849348115
 10
-10.4650608566
 20
22.18517205
  0
LINE
  5
291
100
AcDbEntity
  8
0
100
AcDbLine
 62
250
  6
CONTINUOUS
 10
-10.4540882453
 20
-21.6625906473
 11
-10.4523750048
 21
-21.5572540416
  0
LWPOLYLINE
  5
292
100
AcDbEntity
  8
0
100
AcDbPolyline
 62
250
  6
CONTINUOUS
 90
43
 70
0
 10
-10.9108974006
 20
-0.2172493764
 10
-10.9107554053
 20
-0.2097728712
 10
-10.9103341692
 20
-0.2023068184
 10
-10.9096342811
 20
-0.1948616561
 10
-10.9086567197
 20
-0.1874477928
 10
-10.9074028516
 20
-0.1800755936
 10
-10.9058744296
 20
-0.1727553652
 10
-10.9040735907
 20
-0.1654973415
 10
-10.9020028526
 20
-0.1583116697
 10
-10.8996651101
 20
-0.1512083956
 10
-10.8970636316
 20
-0.14419745
 10
-10.894202054
 20
-0.1372886346
 10
-10.8910843781
 20
-0.130491608
 10
-10.8877149624
 20
-0.1238158731
 10
-10.8840985175
 20
-0.1172707627
 10
-10.8802400995
 20
-0.1108654271
 10
-10.8761451025
 20
-0.1046088215
 10
-10.8718192516
 20
-0.0985096928
 10
-10.8672685946
 20
-0.092576568
 10
-10.8624994934
 20
-0.0868177417
 10
-10.8575186155
 20
-0.0812412651
 10
-10.8523329244
 20
-0.0758549344
 10
-10.8469496699
 20
-0.07066628
 10
-10.8413763782
 20
-0.0656825558
 10
-10.8356208409
 20
-0.0609107293
 10
-10.8296911045
 20
-0.0563574718
 10
-10.8235954591
 20
-0.0520291489
 10
-10.8173424268
 20
-0.0479318119
 10
-10.8109407495
 20
-0.044071189
 10
-10.8043993771
 20
-0.0404526776
 10
-10.7977274547
 20
-0.0370813364
 10
-10.7909343101
 20
-0.0339618789
 10
-10.7840294404
 20
-0.0310986661
 10
-10.7770224989
 20
-0.028495701
 10
-10.7699232816
 20
-0.0261566226
 10
-10.7627417136
 20
-0.0240847011
 10
-10.7554878352
 20
-0.0222828332
 10
-10.7481717874
 20
-0.0207535379
 10
-10.7408037986
 20
-0.0194989532
 10
-10.7333941696
 20
-0.0185208331
 10
-10.7259532593
 20
-0.0178205452
 10
-10.7184914705
 20
-0.0173990683
 10
-10.7110192352
 20
-0.0172569918
  0
LINE
  5
293
100
AcDbEntity
  8
0
100
AcDbLine
 62
250
  6
CONTINUOUS
 10
-10.9504300644
 20
-21.174094868
 11
-10.9495191485
 21
-21.1200638617
  0
LINE
  5
294
100
AcDbEntity
  8
0
100
AcDbLine
 62
250
  6
CONTINUOUS
 10
-10.4557058838
 20
-21.7388603861
 11
-10.4540882453
 21
-21.6625906473
  0
LINE
  5
295
100
AcDbEntity
  8
0
100
AcDbLine
 62
250
  6
CONTINUOUS
 10
-10.9513174834
 20
-21.2148227986
 11
-10.9504300644
 21
-21.174094868
  0
LINE
  5
296
100
AcDbEntity
  8
0
100
AcDbLine
 62
250
  6
CONTINUOUS
 10
-10.9523373733
 20
-21.2529319618
 11
-10.9513174834
 21
-21.2148227986
  0
LINE
  5
297
100
AcDbEntity
  8
0
100
AcDbLine
 62
250
  6
CONTINUOUS
 10
-10.457107571
 20
-21.7915390001
 11
-10.4557058838
 21
-21.7388603861
  0
LINE
  5
298
100
AcDbEntity
  8
0
100
AcDbLine
 62
250
  6
CONTINUOUS
 10
-10.9531834596
 20
-21.2795763162
 11
-10.9523373733
 21
-21.2529319618
  0
LINE
  5
299
100
AcDbEntity
  8
0
100
AcDbLine
 62
250
  6
CONTINUOUS
 10
-10.4582132879
 20
-21.8258598696
 11
-10.457107571
 21
-21.7915390001
  0
LINE
  5
29A
100
AcDbEntity
  8
0
100
AcDbLine
 62
250
  6
CONTINUOUS
 10
-10.9540943364
 20
-21.3044078923
 11
-10.9531834596
 21
-21.2795763162
  0
LINE
  5
29B
100
AcDbEntity
  8
0
100
AcDbLine
 62
250
  6
CONTINUOUS
 10
-10.9550652814
 20
-21.3272977994
 11
-10.9540943364
 21
-21.3044078923
  0
LINE
  5
29C
100
AcDbEntity
  8
0
100
AcDbLine
 62
250
  6
CONTINUOUS
 10
-10.9557433411
 20
-21.3414172681
 11
-10.9550652814
 21
-21.3272977994
  0
LWPOLYLINE
  5
29D
100
AcDbEntity
  8
0
100
AcDbPolyline
 62
250
  6
CONTINUOUS
 90
3
 70
0
 10
-10.9568030584
 20
-21.3608124566
 10
-10.956444493
 20
-21.3545923638
 10
-10.9557433411
 20
-21.3414172681
  0
LINE
  5
29E
100
AcDbEntity
  8
0
100
AcDbLine
 62
250
  6
CONTINUOUS
 10
10.9982331276
 20
-9.3651974933
 11
10.9877847955
 21
-9.3657069704
  0
LINE
  5
29F
100
AcDbEntity
  8
0
100
AcDbLine
 62
250
  6
CONTINUOUS
 10
10.9877847955
 20
-9.3657069704
 11
10.9758495784
 21
-9.3662053343
  0
LINE
  5
2A0
100
AcDbEntity
  8
0
100
AcDbLine
 62
250
  6
CONTINUOUS
 10
10.9758495784
 20
-9.3662053343
 11
10.9624660872
 21
-9.3666909729
  0
LINE
  5
2A1
100
AcDbEntity
  8
0
100
AcDbLine
 62
250
  6
CONTINUOUS
 10
10.9624660872
 20
-9.3666909729
 11
10.9397712934
 21
-9.3673921464
  0
LINE
  5
2A2
100
AcDbEntity
  8
0
100
AcDbLine
 62
250
  6
CONTINUOUS
 10
10.9397712934
 20
-9.3673921464
 11
10.9048843866
 21
-9.3682682439
  0
LINE
  5
2A3
100
AcDbEntity
  8
0
100
AcDbLine
 62
250
  6
CONTINUOUS
 10
10.9048843866
 20
-9.3682682439
 11
10.8855836363
 21
-9.3686778882
  0
LINE
  5
2A4
100
AcDbEntity
  8
0
100
AcDbLine
 62
250
  6
CONTINUOUS
 10
-10.8091476147
 20
-9.3678392007
 11
-10.7717648133
 21
-9.3686778882
  0
LINE
  5
2A5
100
AcDbEntity
  8
0
100
AcDbLine
 62
250
  6
CONTINUOUS
 10
-10.8338587949
 20
-9.367162315
 11
-10.8091476147
 21
-9.3678392007
  0
LINE
  5
2A6
100
AcDbEntity
  8
0
100
AcDbLine
 62
250
  6
CONTINUOUS
 10
-10.8555174463
 20
-9.3664498435
 11
-10.8338587949
 21
-9.367162315
  0
LINE
  5
2A7
100
AcDbEntity
  8
0
100
AcDbLine
 62
250
  6
CONTINUOUS
 10
-10.8681819228
 20
-9.3659576432
 11
-10.8555174463
 21
-9.3664498435
  0
LINE
  5
2A8
100
AcDbEntity
  8
0
100
AcDbLine
 62
7
  6
CONTINUOUS
 10
1.8554665709
 20
-13.0065793431
 11
1.3358513277
 21
-12.706579343
  0
LINE
  5
2A9
100
AcDbEntity
  8
ASSI
100
AcDbLine
 62
7
  6
CONTINUOUS
 10
1.8554665709
 20
-13.0065793431
 11
1.3358513277
 21
-12.706579343
  0
LINE
  5
2AA
100
AcDbEntity
  8
0
100
AcDbLine
 62
7
  6
CONTINUOUS
 10
-1.5220325041
 20
-11.0565793431
 11
-2.0416477473
 21
-10.756579343
  0
LINE
  5
2AB
100
AcDbEntity
  8
ASSI
100
AcDbLine
 62
7
  6
CONTINUOUS
 10
-1.5220325041
 20
-11.0565793431
 11
-2.0416477473
 21
-10.756579343
  0
LINE
  5
2AC
100
AcDbEntity
  8
0
100
AcDbLine
 62
7
  6
CONTINUOUS
 10
2.1554667082
 20
-12.4869641804
 11
1.6358513273
 21
-12.1869641008
  0
LINE
  5
2AD
100
AcDbEntity
  8
ASSI
100
AcDbLine
 62
7
  6
CONTINUOUS
 10
2.1554667082
 20
-12.4869641804
 11
1.6358513273
 21
-12.1869641008
  0
LINE
  5
2AE
100
AcDbEntity
  8
0
100
AcDbLine
 62
7
  6
CONTINUOUS
 10
-1.2220325047
 20
-10.5369641008
 11
-1.7416477477
 21
-10.2369641008
  0
LINE
  5
2AF
100
AcDbEntity
  8
ASSI
100
AcDbLine
 62
7
  6
CONTINUOUS
 10
-1.2220325047
 20
-10.5369641008
 11
-1.7416477477
 21
-10.2369641008
  0
LWPOLYLINE
  5
2B0
100
AcDbEntity
  8
ASSI
100
AcDbPolyline
 62
7
  6
CONTINUOUS
 90
37
 70
0
 10
2.1554667082
 20
-12.4869641804
 10
2.1627047654
 20
-12.4912504629
 10
2.1698476179
 20
-12.4957731285
 10
2.1768952657
 20
-12.5005321751
 10
2.1838608079
 20
-12.5055342454
 10
2.1907311455
 20
-12.5107726925
 10
2.1974669809
 20
-12.5162275804
 10
2.2040664849
 20
-12.5219006824
 10
2.2105314866
 20
-12.5277902208
 10
2.2168281768
 20
-12.5338709328
 10
2.2229508793
 20
-12.5401386941
 10
2.2289052702
 20
-12.5465976248
 10
2.2346745688
 20
-12.5532348296
 10
2.2402585964
 20
-12.5600493524
 10
2.2456575317
 20
-12.5670421449
 10
2.2508551295
 20
-12.5742031725
 10
2.2558552541
 20
-12.5815406501
 10
2.2606540412
 20
-12.5890463582
 10
2.2652236524
 20
-12.5966856123
 10
2.2695604478
 20
-12.6044608033
 10
2.2736680674
 20
-12.6123695363
 10
2.2775295931
 20
-12.6203699485
 10
2.2811397768
 20
-12.6284547982
 10
2.2845038666
 20
-12.6366313243
 10
2.2876206898
 20
-12.6448793866
 10
2.2904907327
 20
-12.6531989737
 10
2.2931135089
 20
-12.6615900946
 10
2.2954863862
 20
-12.670032641
 10
2.297610192
 20
-12.6785334334
 10
2.2994840988
 20
-12.6870856494
 10
2.3011029924
 20
-12.6956487164
 10
2.3024645855
 20
-12.7042240417
 10
2.3035711653
 20
-12.7128102175
 10
2.304424479
 20
-12.7213624493
 10
2.305025109
 20
-12.7298658064
 10
2.3053724728
 20
-12.7383352206
 10
2.3054665705
 20
-12.7467706924
  0
LWPOLYLINE
  5
2B1
100
AcDbEntity
  8
0
100
AcDbPolyline
 62
7
  6
CONTINUOUS
 90
34
 70
0
 10
2.1554667066
 20
-12.4869641795
 10
2.1633642018
 20
-12.4916545566
 10
2.1711439531
 20
-12.4966242111
 10
2.1788059604
 20
-12.5018731405
 10
2.1863669825
 20
-12.5074103796
 10
2.1938102606
 20
-12.5132268881
 10
2.2010855184
 20
-12.5192955505
 10
2.2081895032
 20
-12.5256180025
 10
2.2151254677
 20
-12.5321926027
 10
2.2218528932
 20
-12.5389873211
 10
2.2283632628
 20
-12.5459941073
 10
2.2346650935
 20
-12.5532210061
 10
2.240743418
 20
-12.56066013
 10
2.2466040791
 20
-12.5683188592
 10
2.252241234
 20
-12.5761898073
 10
2.2576223869
 20
-12.5842429375
 10
2.2627464162
 20
-12.5924848452
 10
2.2676144434
 20
-12.6009089293
 10
2.2721973373
 20
-12.6094653584
 10
2.2764888136
 20
-12.6181519027
 10
2.2804951565
 20
-12.6269707878
 10
2.2842060874
 20
-12.6358788671
 10
2.287618072
 20
-12.6448672795
 10
2.2907346445
 20
-12.6539448831
 10
2.2935561297
 20
-12.6630951107
 10
2.2960852938
 20
-12.672329505
 10
2.2983193705
 20
-12.6816365207
 10
2.3002503855
 20
-12.6909649599
 10
2.3018752975
 20
-12.7003167347
 10
2.3031971477
 20
-12.7096899322
 10
2.3042170852
 20
-12.7190276194
 10
2.304935493
 20
-12.7283108195
 10
2.3053519881
 20
-12.7375585106
 10
2.3054665705
 20
-12.7467706932
  0
LWPOLYLINE
  5
2B2
100
AcDbEntity
  8
0
100
AcDbPolyline
 62
250
  6
CONTINUOUS
 90
17
 70
0
 10
-10.9582867617
 20
21.6396395375
 10
-10.9586687654
 20
21.644585347
 10
-10.9590548135
 20
21.6492666485
 10
-10.959444899
 20
21.6536838993
 10
-10.9598383473
 20
21.6578294542
 10
-10.9602351639
 20
21.6617028405
 10
-10.9606353433
 20
21.6653045309
 10
-10.9610381946
 20
21.6686282982
 10
-10.9614437233
 20
21.6716736655
 10
-10.9618519239
 20
21.6744411097
 10
-10.9622620889
 20
21.6769258337
 10
-10.9626742289
 20
21.6791273564
 10
-10.9630883332
 20
21.681046159
 10
-10.9635036634
 20
21.6826788882
 10
-10.9639199732
 20
21.6840244264
 10
-10.9643375087
 20
21.6850838912
 10
-10.9647562701
 20
21.6858572826
  0
LINE
  5
2B3
100
AcDbEntity
  8
0
100
AcDbLine
 62
250
  6
CONTINUOUS
 10
-10.9575355201
 20
21.6289647835
 11
-10.9582867617
 21
21.6396395375
  0
LINE
  5
2B4
100
AcDbEntity
  8
0
100
AcDbLine
 62
250
  6
CONTINUOUS
 10
-10.9568030584
 20
21.6172690128
 11
-10.9575355201
 21
21.6289647835
  0
LWPOLYLINE
  5
2B5
100
AcDbEntity
  8
0
100
AcDbPolyline
 62
250
  6
CONTINUOUS
 90
11
 70
0
 10
-10.4609397836
 20
22.1440630224
 10
-10.4613426273
 20
22.1507115288
 10
-10.4617481551
 20
22.1568040089
 10
-10.4621563575
 20
22.1623369281
 10
-10.4625665183
 20
22.167307068
 10
-10.4629786331
 20
22.1717115502
 10
-10.4633927063
 20
22.1755478526
 10
-10.4638080355
 20
22.1788137792
 10
-10.4642243865
 20
22.1815074429
 10
-10.4646419936
 20
22.1836272766
 10
-10.4650608566
 20
22.18517205
  0
LINE
  5
2B6
100
AcDbEntity
  8
0
100
AcDbLine
 62
250
  6
CONTINUOUS
 10
-10.4601428072
 20
22.1291135606
 11
-10.4609397836
 21
22.1440630224
  0
LINE
  5
2B7
100
AcDbEntity
  8
0
100
AcDbLine
 62
250
  6
CONTINUOUS
 10
-10.4593592858
 20
22.1119900711
 11
-10.4601428072
 21
22.1291135606
  0
LWPOLYLINE
  5
2B8
100
AcDbEntity
  8
0
100
AcDbPolyline
 62
250
  6
CONTINUOUS
 90
3
 70
0
 10
-10.4582132879
 20
22.0823164258
 10
-10.458591247
 20
22.0927321191
 10
-10.4593592858
 20
22.1119900711
  0
LINE
  5
2B9
100
AcDbEntity
  8
0
100
AcDbLine
 62
250
  6
CONTINUOUS
 10
-10.4589732437
 20
-21.8461686812
 11
-10.4582132879
 21
-21.8258598696
  0
LINE
  5
2BA
100
AcDbEntity
  8
0
100
AcDbLine
 62
250
  6
CONTINUOUS
 10
-10.4597493656
 20
-21.8643646579
 11
-10.4589732437
 21
-21.8461686812
  0
LINE
  5
2BB
100
AcDbEntity
  8
0
100
AcDbLine
 62
250
  6
CONTINUOUS
 10
-10.9575355201
 20
-21.3725082274
 11
-10.9568030584
 21
-21.3608124566
  0
LWPOLYLINE
  5
2BC
100
AcDbEntity
  8
0
100
AcDbPolyline
 62
7
  6
CONTINUOUS
 90
3
 70
0
 43
0.3500000019
 10
1.1997675781
 20
31.4111713867
 10
1.1283374023
 20
31.1968862305
 10
0.9854824219
 20
30.9111708984
  0
LINE
  5
2BD
100
AcDbEntity
  8
0
100
AcDbLine
 62
7
  6
CONTINUOUS
 10
2.1075190765
 20
14.3531020121
 11
1.2236356012
 21
13.4692185368
  0
LINE
  5
2BE
100
AcDbEntity
  8
ASSI
100
AcDbLine
 62
7
  6
CONTINUOUS
 10
2.1075190765
 20
14.3531020121
 11
1.2236356012
 21
13.4692185368
  0
LINE
  5
2BF
100
AcDbEntity
  8
0
100
AcDbLine
 62
7
  6
CONTINUOUS
 10
-1.5340808372
 20
10.7115020984
 11
-2.4179643218
 21
9.8276186138
  0
LINE
  5
2C0
100
AcDbEntity
  8
ASSI
100
AcDbLine
 62
7
  6
CONTINUOUS
 10
-2.4179643218
 20
9.8276186138
 11
-1.5340808372
 21
10.7115020984
  0
LINE
  5
2C1
100
AcDbEntity
  8
0
100
AcDbLine
 62
250
  6
CONTINUOUS
 10
10.8855836363
 20
-9.3686778882
 11
10.8435795329
 21
-9.3694337461
  0
LINE
  5
2C2
100
AcDbEntity
  8
0
100
AcDbLine
 62
250
  6
CONTINUOUS
 10
10.8435795329
 20
-9.3694337461
 11
10.7974972269
 21
-9.3700970014
  0
LINE
  5
2C3
100
AcDbEntity
  8
0
100
AcDbLine
 62
250
  6
CONTINUOUS
 10
10.7974972269
 20
-9.3700970014
 11
10.7479325474
 21
-9.3706590783
  0
LINE
  5
2C4
100
AcDbEntity
  8
0
100
AcDbLine
 62
250
  6
CONTINUOUS
 10
10.7479325474
 20
-9.3706590783
 11
10.6955263498
 21
-9.3711127095
  0
LINE
  5
2C5
100
AcDbEntity
  8
0
100
AcDbLine
 62
250
  6
CONTINUOUS
 10
10.6955263498
 20
-9.3711127095
 11
10.6409562291
 21
-9.3714520295
  0
LINE
  5
2C6
100
AcDbEntity
  8
0
100
AcDbLine
 62
250
  6
CONTINUOUS
 10
10.6409562291
 20
-9.3714520295
 11
10.5849277592
 21
-9.3716726512
  0
LINE
  5
2C7
100
AcDbEntity
  8
0
100
AcDbLine
 62
250
  6
CONTINUOUS
 10
10.5849277592
 20
-9.3716726512
 11
10.5281653701
 21
-9.3717717219
  0
LINE
  5
2C8
100
AcDbEntity
  8
0
100
AcDbLine
 62
250
  6
CONTINUOUS
 10
-10.5132389616
 20
-9.371518451
 11
10.5281653701
 21
-9.3717717219
  0
LINE
  5
2C9
100
AcDbEntity
  8
0
100
AcDbLine
 62
250
  6
CONTINUOUS
 10
-10.6212526608
 20
-9.3707829067
 11
-10.5132389616
 21
-9.371518451
  0
LINE
  5
2CA
100
AcDbEntity
  8
0
100
AcDbLine
 62
250
  6
CONTINUOUS
 10
-10.7071932416
 20
-9.3697775145
 11
-10.6212526608
 21
-9.3707829067
  0
LWPOLYLINE
  5
2CB
100
AcDbEntity
  8
0
100
AcDbPolyline
 62
250
  6
CONTINUOUS
 90
3
 70
0
 10
-10.7717648133
 20
-9.3686778882
 10
-10.7616767894
 20
-9.3688750191
 10
-10.7071932416
 20
-9.3697775145
  0
LINE
  5
2CC
100
AcDbEntity
  8
0
100
AcDbLine
 62
7
  6
CONTINUOUS
 10
2.5317831455
 20
13.9288379431
 11
1.6478996697
 21
13.0449544672
  0
LINE
  5
2CD
100
AcDbEntity
  8
ASSI
100
AcDbLine
 62
7
  6
CONTINUOUS
 10
2.5317831455
 20
13.9288379431
 11
1.6478996697
 21
13.0449544672
  0
LINE
  5
2CE
100
AcDbEntity
  8
0
100
AcDbLine
 62
7
  6
CONTINUOUS
 10
-1.1098167775
 20
10.2872380201
 11
-1.9937002536
 21
9.4033545439
  0
LINE
  5
2CF
100
AcDbEntity
  8
ASSI
100
AcDbLine
 62
7
  6
CONTINUOUS
 10
-1.1098167775
 20
10.2872380201
 11
-1.9937002536
 21
9.4033545439
  0
LINE
  5
2D0
100
AcDbEntity
  8
0
100
AcDbLine
 62
250
  6
CONTINUOUS
 10
-4.8410904171
 20
0.9265740989
 11
-4.8410949197
 21
0.2762402247
  0
LINE
  5
2D1
100
AcDbEntity
  8
0
100
AcDbLine
 62
250
  6
CONTINUOUS
 10
-4.8410904171
 20
-0.6701175427
 11
-4.8410949197
 21
-0.0197836685
  0
LWPOLYLINE
  5
2D2
100
AcDbEntity
  8
0
100
AcDbPolyline
 62
250
  6
CONTINUOUS
 90
61
 70
0
 10
-4.8410904171
 20
0.9265740989
 10
-4.8408578705
 20
0.9447614865
 10
-4.8401484253
 20
0.9629471205
 10
-4.8389620814
 20
0.9811310009
 10
-4.8372988738
 20
0.999331142
 10
-4.8351587676
 20
1.0175295295
 10
-4.8325416577
 20
1.0356721198
 10
-4.8294450954
 20
1.0537580436
 10
-4.8258715294
 20
1.0717881702
 10
-4.8218282006
 20
1.0897110637
 10
-4.8173128747
 20
1.107525772
 10
-4.8123277859
 20
1.1252332471
 10
-4.8068868775
 20
1.1427849102
 10
-4.800989803
 20
1.1601763746
 10
-4.7946369089
 20
1.177412027
 10
-4.7878431769
 20
1.1944564475
 10
-4.7806092322
 20
1.2113066014
 10
-4.7729344496
 20
1.2279655234
 10
-4.7648319358
 20
1.244406898
 10
-4.7563006391
 20
1.2606319832
 10
-4.747341611
 20
1.276639521
 10
-4.7379711132
 20
1.292399422
 10
-4.7281870496
 20
1.3079132088
 10
-4.7179915163
 20
1.3231793587
 10
-4.707407062
 20
1.3381632145
 10
-4.6964328742
 20
1.3528636827
 10
-4.6850697654
 20
1.3672818569
 10
-4.6733427222
 20
1.3813863599
 10
-4.661251891
 20
1.3951754583
 10
-4.6487971253
 20
1.4086508857
 10
-4.6360029731
 20
1.4217864651
 10
-4.6228688503
 20
1.4345816513
 10
-4.6093953409
 20
1.4470369898
 10
-4.5956087448
 20
1.4591279391
 10
-4.5815073174
 20
1.4708546406
 10
-4.5670928033
 20
1.4822169531
 10
-4.5523967356
 20
1.4931899112
 10
-4.5374180971
 20
1.5037726483
 10
-4.522157905
 20
1.5139660312
 10
-4.5066507446
 20
1.5237476936
 10
-4.4908982114
 20
1.5331155247
 10
-4.4748987097
 20
1.5420716355
 10
-4.4586820382
 20
1.5505999937
 10
-4.4422493662
 20
1.5586996129
 10
-4.4255995243
 20
1.5663714795
 10
-4.408758803
 20
1.5736025198
 10
-4.3917240205
 20
1.5803933952
 10
-4.3744983586
 20
1.5867434444
 10
-4.3571176534
 20
1.59263761
 10
-4.3395775614
 20
1.5980754902
 10
-4.3218824261
 20
1.6030574869
 10
-4.3040811141
 20
1.6075697487
 10
-4.2861728067
 20
1.6116100003
 10
-4.2681583225
 20
1.6151805172
 10
-4.2500889843
 20
1.6182742741
 10
-4.2319641449
 20
1.6208888293
 10
-4.2137844515
 20
1.6230266246
 10
-4.195603168
 20
1.6246879603
 10
-4.1774380489
 20
1.6258729365
 10
-4.1592713396
 20
1.6265814531
 10
-4.1411030402
 20
1.6268135101
  0
LWPOLYLINE
  5
2D3
100
AcDbEntity
  8
0
100
AcDbPolyline
 62
250
  6
CONTINUOUS
 90
46
 70
0
 10
-4.6411025351
 20
-0.2197760531
 10
-4.6412248847
 20
-0.2127967578
 10
-4.6415907216
 20
-0.2058259648
 10
-4.6421996001
 20
-0.1988721662
 10
-4.6430507783
 20
-0.1919438333
 10
-4.6441432195
 20
-0.1850494064
 10
-4.6454755927
 20
-0.1781972845
 10
-4.6470462748
 20
-0.1713958149
 10
-4.6488533523
 20
-0.1646532835
 10
-4.650894624
 20
-0.1579779043
 10
-4.6531676028
 20
-0.1513778092
 10
-4.65566952
 20
-0.1448610388
 10
-4.6583973276
 20
-0.1384355319
 10
-4.6613477025
 20
-0.1321091164
 10
-4.6645170504
 20
-0.1258894991
 10
-4.6679015104
 20
-0.1197842571
 10
-4.6714969595
 20
-0.1138008278
 10
-4.6752990175
 20
-0.1079465005
 10
-4.6793030527
 20
-0.1022284071
 10
-4.6835041872
 20
-0.0966535135
 10
-4.6878973032
 20
-0.0912286112
 10
-4.6924770487
 20
-0.085960309
 10
-4.6972378447
 20
-0.0808550248
 10
-4.7021738914
 20
-0.0759189781
 10
-4.7072791756
 20
-0.0711581821
 10
-4.7125474778
 20
-0.0665784366
 10
-4.7179723801
 20
-0.0621853206
 10
-4.7235472737
 20
-0.0579841861
 10
-4.7292653671
 20
-0.0539801509
 10
-4.7351196944
 20
-0.0501780929
 10
-4.7411031236
 20
-0.0465826438
 10
-4.7472083657
 20
-0.0431981838
 10
-4.753427983
 20
-0.0400288359
 10
-4.7597543985
 20
-0.037078461
 10
-4.7661799054
 20
-0.0343506535
 10
-4.7726966758
 20
-0.0318487363
 10
-4.7792967708
 20
-0.0295757574
 10
-4.7859721501
 20
-0.0275344858
 10
-4.7927146815
 20
-0.0257274082
 10
-4.799516151
 20
-0.0241567261
 10
-4.806368273
 20
-0.0228243529
 10
-4.8132626999
 20
-0.0217319117
 10
-4.8201910328
 20
-0.0208807335
 10
-4.8271448314
 20
-0.020271855
 10
-4.8341156244
 20
-0.0199060182
 10
-4.8410949197
 20
-0.0197836685
  0
LINE
  5
2D4
100
AcDbEntity
  8
0
100
AcDbLine
 62
250
  6
CONTINUOUS
 10
-4.6410980325
 20
-0.6697963475
 11
-4.6411025351
 21
-0.2197760531
  0
LINE
  5
2D5
100
AcDbEntity
  8
0
100
AcDbLine
 62
250
  6
CONTINUOUS
 10
-4.6411025351
 20
0.4762326093
 11
-4.6410980325
 21
0.926252719
  0
LINE
  5
2D6
100
AcDbEntity
  8
0
100
AcDbLine
 62
7
  6
CONTINUOUS
 10
-4.6293045687
 20
0.9144612968
 11
-4.6293045687
 21
0.4644346429
  0
LINE
  5
2D7
100
AcDbEntity
  8
0
100
AcDbLine
 62
7
  6
CONTINUOUS
 10
-4.6293045687
 20
-0.2079780868
 11
-4.6293045687
 21
-0.6580047406
  0
LINE
  5
2D8
100
AcDbEntity
  8
0
100
AcDbLine
 62
250
  6
CONTINUOUS
 10
-4.1411030402
 20
1.6268135101
 11
-4.1411030402
 21
1.4262216914
  0
LINE
  5
2D9
100
AcDbEntity
  8
0
100
AcDbLine
 62
250
  6
CONTINUOUS
 10
-4.1411030402
 20
-1.3703569539
 11
-4.1411030402
 21
-1.1697651352
  0
LWPOLYLINE
  5
2DA
100
AcDbEntity
  8
0
100
AcDbPolyline
 62
250
  6
CONTINUOUS
 90
61
 70
0
 10
-4.6410980325
 20
0.9262527189
 10
-4.6409297811
 20
0.9392304392
 10
-4.6404235157
 20
0.9522230336
 10
-4.6395777329
 20
0.9652216451
 10
-4.6383908183
 20
0.9782206165
 10
-4.6368619048
 20
0.9912076238
 10
-4.6349917339
 20
1.0041637842
 10
-4.6327805073
 20
1.0170801114
 10
-4.6302286827
 20
1.0299475033
 10
-4.6273392928
 20
1.0427471174
 10
-4.6241141288
 20
1.0554697451
 10
-4.6205550576
 20
1.0681068818
 10
-4.6166670366
 20
1.0806411483
 10
-4.6124541006
 20
1.0930613253
 10
-4.6079187276
 20
1.1053617563
 10
-4.6030645821
 20
1.1175337514
 10
-4.5978962798
 20
1.1295671722
 10
-4.5924170157
 20
1.1414559267
 10
-4.5866282406
 20
1.153197376
 10
-4.5805333534
 20
1.1647844754
 10
-4.5741370101
 20
1.17620823
 10
-4.5674422635
 20
1.1874629416
 10
-4.5604525944
 20
1.1985421996
 10
-4.5531734627
 20
1.209436814
 10
-4.5456111955
 20
1.220137103
 10
-4.5377711528
 20
1.2306354725
 10
-4.5296585364
 20
1.2409249473
 10
-4.5212799945
 20
1.2509971754
 10
-4.5126420392
 20
1.2608445687
 10
-4.5037500536
 20
1.2704612234
 10
-4.4946092824
 20
1.2798415609
 10
-4.4852259891
 20
1.288979166
 10
-4.4756066335
 20
1.2978677601
 10
-4.4657568603
 20
1.3065020751
 10
-4.4556825848
 20
1.3148767527
 10
-4.4453914156
 20
1.3229852993
 10
-4.43489179
 20
1.3308210433
 10
-4.4241907502
 20
1.3383787772
 10
-4.4132958579
 20
1.3456532082
 10
-4.4022167272
 20
1.3526380949
 10
-4.3909625969
 20
1.3593279792
 10
-4.3795398458
 20
1.3657194305
 10
-4.3679539679
 20
1.3718095313
 10
-4.3562138828
 20
1.3775936694
 10
-4.3443267016
 20
1.3830684168
 10
-4.3322950612
 20
1.3882323322
 10
-4.3201249464
 20
1.3930822685
 10
-4.3078265919
 20
1.3976135745
 10
-4.2954090006
 20
1.4018224941
 10
-4.2828778655
 20
1.405706572
 10
-4.2702443733
 20
1.4092618197
 10
-4.257526122
 20
1.4124832649
 10
-4.2447317086
 20
1.4153690722
 10
-4.2318702501
 20
1.4179175255
 10
-4.2189605316
 20
1.4201256545
 10
-4.2060116825
 20
1.4219930434
 10
-4.1930326445
 20
1.4235195426
 10
-4.1800421306
 20
1.4247044702
 10
-4.1670523961
 20
1.4255487286
 10
-4.1540691343
 20
1.4260539576
 10
-4.1411011835
 20
1.4262216913
  0
LWPOLYLINE
  5
2DB
100
AcDbEntity
  8
0
100
AcDbPolyline
 62
250
  6
CONTINUOUS
 90
13
 70
0
 10
-10.4650608566
 20
-21.9287154938
 10
-10.4646419936
 20
-21.9271707205
 10
-10.4642243865
 20
-21.9250508868
 10
-10.4638080355
 20
-21.922357223
 10
-10.4633927063
 20
-21.9190912964
 10
-10.4629786331
 20
-21.915254994
 10
-10.4625665183
 20
-21.9108505119
 10
-10.4621563575
 20
-21.9058803719
 10
-10.4617481551
 20
-21.9003474527
 10
-10.4613426273
 20
-21.8942549727
 10
-10.4609397836
 20
-21.8876064662
 10
-10.4605396145
 20
-21.8804057619
 10
-10.4597493656
 20
-21.8643646579
  0
LINE
  5
2DC
100
AcDbEntity
  8
0
100
AcDbLine
 62
250
  6
CONTINUOUS
 10
10.6796912168
 20
22.3364662187
 11
10.5788796796
 21
22.18517205
  0
LINE
  5
2DD
100
AcDbEntity
  8
0
100
AcDbLine
 62
250
  6
CONTINUOUS
 10
-4.8410949197
 20
-0.0197836685
 11
-4.8263190056
 21
-0.0050077544
  0
LINE
  5
2DE
100
AcDbEntity
  8
RACCORDO
100
AcDbLine
 62
250
  6
CONTINUOUS
 10
-9.9907863238
 20
0.2544088815
 11
-10.0431515185
 21
0.2282282781
  0
LINE
  5
2DF
100
AcDbEntity
  8
RACCORDO
100
AcDbLine
 62
7
  6
CONTINUOUS
 10
-9.9435607125
 20
0.2544088815
 11
-9.9536837846
 21
0.2493477309
  0
LWPOLYLINE
  5
2E0
100
AcDbEntity
  8
0
100
AcDbPolyline
 62
7
  6
CONTINUOUS
 90
2
 70
0
 43
0.3500000019
 10
18.4716044922
 20
-3.2646289978
 10
16.9716030273
 20
-3.2646289978
  0
LINE
  5
2E1
100
AcDbEntity
  8
DRAFT
100
AcDbLine
 62
7
  6
CONTINUOUS
 10
-9.8430905885
 20
0.0282282781
 11
-9.7907253937
 21
0.0020476747
  0
LINE
  5
2E2
100
AcDbEntity
  8
0
100
AcDbLine
 62
250
  6
CONTINUOUS
 10
-4.8263190056
 20
0.2614643106
 11
-4.8410949197
 21
0.2762402247
  0
LINE
  5
2E3
100
AcDbEntity
  8
0
100
AcDbLine
 62
250
  6
CONTINUOUS
 10
10.5788796796
 20
-21.9287154938
 11
10.6796912168
 21
-22.0800096625
  0
LINE
  5
2E4
100
AcDbEntity
  8
0
100
AcDbLine
 62
250
  6
CONTINUOUS
 10
11.1806021022
 20
21.8389755858
 11
11.0785750931
 21
21.6858572826
  0
LINE
  5
2E5
100
AcDbEntity
  8
0
100
AcDbLine
 62
250
  6
CONTINUOUS
 10
-4.6411025351
 20
-0.2197760531
 11
-4.6293045687
 21
-0.2079780868
  0
LINE
  5
2E6
100
AcDbEntity
  8
0
100
AcDbLine
 62
250
  6
CONTINUOUS
 10
-4.1293236072
 20
-1.1579857021
 11
-4.1411009989
 21
-1.1697651352
  0
LINE
  5
2E7
100
AcDbEntity
  8
0
100
AcDbLine
 62
250
  6
CONTINUOUS
 10
-4.6293045687
 20
-0.6580047406
 11
-4.6410980325
 21
-0.6697963475
  0
LINE
  5
2E8
100
AcDbEntity
  8
0
100
AcDbLine
 62
250
  6
CONTINUOUS
 10
11.2069094115
 20
-0.1717184249
 11
11.0247162939
 21
-0.2172493589
  0
LINE
  5
2E9
100
AcDbEntity
  8
0
100
AcDbLine
 62
250
  6
CONTINUOUS
 10
11.0068484501
 20
0.0282282781
 11
10.8248380583
 21
-0.0172569918
  0
LWPOLYLINE
  5
2EA
100
AcDbEntity
  8
0
100
AcDbPolyline
 62
250
  6
CONTINUOUS
 90
8
 70
0
 10
10.8248380583
 20
-0.0172569918
 10
10.8244181427
 20
-0.0173314367
 10
10.8237573899
 20
-0.0174056348
 10
10.8228557998
 20
-0.017479586
 10
10.8217122464
 20
-0.017553352
 10
10.8203278558
 20
-0.0176268713
 10
10.8187060057
 20
-0.0176999588
 10
10.8168461253
 20
-0.0177726115
  0
LWPOLYLINE
  5
2EB
100
AcDbEntity
  8
0
100
AcDbPolyline
 62
250
  6
CONTINUOUS
 90
6
 70
0
 10
11.0247162939
 20
-0.2172493654
 10
11.0240178963
 20
-0.2173277754
 10
11.0229157996
 20
-0.2174059364
 10
11.0214109342
 20
-0.2174838403
 10
11.0195045833
 20
-0.2175615325
 10
11.0171983106
 20
-0.2176389518
  0
LINE
  5
2EC
100
AcDbEntity
  8
0
100
AcDbLine
 62
250
  6
CONTINUOUS
 10
4.2549218633
 20
-1.3703569539
 11
-4.1411030402
 21
-1.3703569539
  0
LWPOLYLINE
  5
2ED
100
AcDbEntity
  8
0
100
AcDbPolyline
 62
250
  6
CONTINUOUS
 90
61
 70
0
 10
-4.1411030402
 20
-1.3703569539
 10
-4.159274666
 20
-1.3701248168
 10
-4.1774447118
 20
-1.3694160399
 10
-4.1956131776
 20
-1.3682306233
 10
-4.2137980341
 20
-1.3665686173
 10
-4.2319813107
 20
-1.3644299716
 10
-4.250109095
 20
-1.3618145349
 10
-4.2681805243
 20
-1.3587198655
 10
-4.2861964613
 20
-1.3551484051
 10
-4.3041055831
 20
-1.3511073267
 10
-4.3219069455
 20
-1.3465944014
 10
-4.3396014925
 20
-1.3416118579
 10
-4.3571407333
 20
-1.336173556
 10
-4.3745202964
 20
-1.3302791498
 10
-4.3917445533
 20
-1.3239289851
 10
-4.4087781272
 20
-1.3171379584
 10
-4.425617982
 20
-1.3099067006
 10
-4.4422671539
 20
-1.3022345809
 10
-4.4586993745
 20
-1.2941346032
 10
-4.4749159046
 20
-1.2856057214
 10
-4.4909154835
 20
-1.2766489815
 10
-4.5066680604
 20
-1.267280526
 10
-4.5221751737
 20
-1.2574982552
 10
-4.5374352851
 20
-1.2473042687
 10
-4.5524137291
 20
-1.2367210076
 10
-4.5671094251
 20
-1.2257476527
 10
-4.5815234537
 20
-1.2143850232
 10
-4.5956243914
 20
-1.2026580177
 10
-4.6094105113
 20
-1.1905667775
 10
-4.6228835403
 20
-1.1781111613
 10
-4.6360172361
 20
-1.165315644
 10
-4.6488110557
 20
-1.1521796393
 10
-4.6612655421
 20
-1.1387037335
 10
-4.6733560813
 20
-1.1249141603
 10
-4.6850828199
 20
-1.1108091688
 10
-4.6964456113
 20
-1.0963905098
 10
-4.7074194022
 20
-1.0816896704
 10
-4.7180033328
 20
-1.0667056202
 10
-4.7281982629
 20
-1.0514393895
 10
-4.7379817183
 20
-1.035925556
 10
-4.7473515915
 20
-1.0201656997
 10
-4.7563099901
 20
-1.0041582406
 10
-4.7648407625
 20
-0.9879330162
 10
-4.7729429168
 20
-0.9714911935
 10
-4.7806174449
 20
-0.9548316055
 10
-4.7878511712
 20
-0.9379805888
 10
-4.7946447514
 20
-0.9209349629
 10
-4.8009975299
 20
-0.9036979083
 10
-4.806894364
 20
-0.8863053035
 10
-4.8123348516
 20
-0.8687527895
 10
-4.8173193948
 20
-0.8510447253
 10
-4.8218340585
 20
-0.8332300664
 10
-4.8258765617
 20
-0.8153079862
 10
-4.8294491853
 20
-0.7972793114
 10
-4.8325448363
 20
-0.7791954773
 10
-4.8351610657
 20
-0.7610558313
 10
-4.8373003224
 20
-0.7428610261
 10
-4.8389628606
 20
-0.7246644552
 10
-4.8401487647
 20
-0.7064839166
 10
-4.8408579502
 20
-0.6883016124
 10
-4.8410904171
 20
-0.6701175427
  0
LINE
  5
2EE
100
AcDbEntity
  8
0
100
AcDbLine
 62
250
  6
CONTINUOUS
 10
-10.9108974709
 20
-0.2172493589
 11
-11.0930905885
 21
-0.1717184249
  0
LINE
  5
2EF
100
AcDbEntity
  8
0
100
AcDbLine
 62
250
  6
CONTINUOUS
 10
-10.7110192352
 20
-0.0172569918
 11
-10.8930296271
 21
0.0282282781
  0
LINE
  5
2F0
100
AcDbEntity
  8
0
100
AcDbLine
 62
250
  6
CONTINUOUS
 10
-4.6293045687
 20
0.4644346429
 11
-4.6411025351
 21
0.4762326093
  0
LINE
  5
2F1
100
AcDbEntity
  8
0
100
AcDbLine
 62
250
  6
CONTINUOUS
 10
-4.6293045687
 20
0.9144612968
 11
-4.6410980325
 21
0.926252719
  0
LINE
  5
2F2
100
AcDbEntity
  8
0
100
AcDbLine
 62
250
  6
CONTINUOUS
 10
-4.1293236072
 20
1.4144422583
 11
-4.1411011836
 21
1.4262216914
  0
LINE
  5
2F3
100
AcDbEntity
  8
0
100
AcDbLine
 62
250
  6
CONTINUOUS
 10
11.0785750931
 20
-21.4294007265
 11
11.1806021022
 21
-21.5825190297
  0
LWPOLYLINE
  5
2F4
100
AcDbEntity
  8
0
100
AcDbPolyline
 62
7
  6
CONTINUOUS
 90
3
 70
0
 10
0.3564552119
 20
-13.2537790392
 10
0.3568314733
 20
-13.2628057793
 10
0.3569094069
 20
-13.271771721
  0
LINE
  5
2F5
100
AcDbEntity
  8
0
100
AcDbLine
 62
7
  6
CONTINUOUS
 10
-0.2430905875
 20
-13.8717717219
 11
-0.2430905875
 21
-13.2717717173
  0
LINE
  5
2F6
100
AcDbEntity
  8
ASSI
100
AcDbLine
 62
7
  6
CONTINUOUS
 10
-0.2430905875
 20
-13.8717717219
 11
-0.2430905875
 21
-13.2717717173
  0
LINE
  5
2F7
100
AcDbEntity
  8
0
100
AcDbLine
 62
7
  6
CONTINUOUS
 10
-0.2430905875
 20
-9.9717717219
 11
-0.2430905875
 21
-9.3717717219
  0
LINE
  5
2F8
100
AcDbEntity
  8
ASSI
100
AcDbLine
 62
7
  6
CONTINUOUS
 10
-0.2430905875
 20
-9.9717717219
 11
-0.2430905875
 21
-9.3717717219
  0
LINE
  5
2F9
100
AcDbEntity
  8
0
100
AcDbLine
 62
7
  6
CONTINUOUS
 10
-0.2430905838
 20
15.0782282781
 11
-0.2430905838
 21
13.8282282787
  0
LINE
  5
2FA
100
AcDbEntity
  8
ASSI
100
AcDbLine
 62
7
  6
CONTINUOUS
 10
-0.2430905838
 20
15.0782282781
 11
-0.2430905838
 21
13.8282282787
  0
LINE
  5
2FB
100
AcDbEntity
  8
0
100
AcDbLine
 62
7
  6
CONTINUOUS
 10
-0.2430905838
 20
9.9282282781
 11
-0.2430905838
 21
8.6782282781
  0
LINE
  5
2FC
100
AcDbEntity
  8
ASSI
100
AcDbLine
 62
7
  6
CONTINUOUS
 10
-0.2430905838
 20
9.9282282781
 11
-0.2430905838
 21
8.6782282781
  0
LWPOLYLINE
  5
2FD
100
AcDbEntity
  8
0
100
AcDbPolyline
 62
7
  6
CONTINUOUS
 90
98
 70
0
 10
-0.2430905875
 20
-13.2717717212
 10
-0.2430132627
 20
-13.2628151294
 10
-0.2426377943
 20
-13.2537953887
 10
-0.2419641824
 20
-13.2447124981
 10
-0.2409943234
 20
-13.2355455517
 10
-0.2397263209
 20
-13.2263154528
 10
-0.2381544859
 20
-13.2170849154
 10
-0.2362754044
 20
-13.2078575845
 10
-0.2340924906
 20
-13.1986298153
 10
-0.2316102979
 20
-13.1894533898
 10
-0.2288258704
 20
-13.1803289029
 10
-0.2257421641
 20
-13.1712557618
 10
-0.2223726013
 20
-13.1622839695
 10
-0.2187196441
 20
-13.1534227145
 10
-0.2147808304
 20
-13.1446628124
 10
-0.2105621959
 20
-13.1360267081
 10
-0.2060592508
 20
-13.1275077945
 10
-0.2012764849
 20
-13.1191126831
 10
-0.1962334035
 20
-13.1108836482
 10
-0.190926977
 20
-13.1028228159
 10
-0.185360235
 20
-13.0949280656
 10
-0.1795617706
 20
-13.087235302
 10
-0.1735331885
 20
-13.0797492323
 10
-0.167272884
 20
-13.0724651556
 10
-0.1608046375
 20
-13.0654048657
 10
-0.1541334436
 20
-13.0585731807
 10
-0.1472543075
 20
-13.0519652889
 10
-0.1401760254
 20
-13.0455885393
 10
-0.132892336
 20
-13.0394391707
 10
-0.1254095006
 20
-13.0335209502
 10
-0.1177550986
 20
-13.0278525202
 10
-0.10993269
 20
-13.0224369387
 10
-0.1019387148
 20
-13.0172711532
 10
-0.0937900725
 20
-13.0123646407
 10
-0.0854833086
 20
-13.0077152649
 10
-0.0770218777
 20
-13.0033251669
 10
-0.068433043
 20
-12.9992102399
 10
-0.0597231206
 20
-12.995374091
 10
-0.0508857944
 20
-12.9918131175
 10
-0.0419293789
 20
-12.9885323975
 10
-0.0328438287
 20
-12.9855284674
 10
-0.0236391892
 20
-12.9828047944
 10
-0.0143539113
 20
-12.9803768536
 10
-0.0049861467
 20
-12.9782465024
 10
0.0044622564
 20
-12.9764118862
 10
0.0139473025
 20
-12.9748829115
 10
0.0234666924
 20
-12.9736632082
 10
0.0330227252
 20
-12.972749148
 10
0.0425783038
 20
-12.9721397503
 10
0.0521206294
 20
-12.9718346966
 10
0.0616625007
 20
-12.9718343058
 10
0.0712052166
 20
-12.9721385528
 10
0.0807616635
 20
-12.9727470745
 10
0.090318955
 20
-12.9736602334
 10
0.0998397314
 20
-12.9748790927
 10
0.1093262317
 20
-12.9764072854
 10
0.1187762169
 20
-12.9782411768
 10
0.1281456092
 20
-12.9803709277
 10
0.1374324861
 20
-12.9827984126
 10
0.1466387701
 20
-12.9855217544
 10
0.155726151
 20
-12.988525486
 10
0.1646846767
 20
-12.9918061306
 10
0.1735242991
 20
-12.9953671615
 10
0.1822365641
 20
-12.9992035375
 10
0.1908279198
 20
-13.0033189687
 10
0.199291918
 20
-13.0077097405
 10
0.2076007597
 20
-13.0123596747
 10
0.215750809
 20
-13.0172666295
 10
0.2237457017
 20
-13.0224327418
 10
0.2315685468
 20
-13.0278482505
 10
0.239222821
 20
-13.0335160625
 10
0.2467050477
 20
-13.0394332655
 10
0.2539879054
 20
-13.0455813699
 10
0.2610651263
 20
-13.0519565783
 10
0.2679429783
 20
-13.0585626823
 10
0.2746129444
 20
-13.0653925772
 10
0.2810800893
 20
-13.0724512053
 10
0.2873393483
 20
-13.0797336179
 10
0.2933670099
 20
-13.0872178739
 10
0.2991646863
 20
-13.0949086045
 10
0.3047307653
 20
-13.1028011723
 10
0.3100366997
 20
-13.1108597341
 10
0.3150794701
 20
-13.119086343
 10
0.3198620959
 20
-13.1274789402
 10
0.3243650875
 20
-13.1359955166
 10
0.3285839476
 20
-13.1446294561
 10
0.3325231735
 20
-13.1533873703
 10
0.3361767675
 20
-13.1622470923
 10
0.3395472407
 20
-13.1712178708
 10
0.342632082
 20
-13.1802904531
 10
0.3454177606
 20
-13.1894149214
 10
0.3479013162
 20
-13.1985917781
 10
0.3500857092
 20
-13.2078205187
 10
0.3519662894
 20
-13.2170497166
 10
0.3535396917
 20
-13.2262829688
 10
0.3548092812
 20
-13.235516678
 10
0.355780503
 20
-13.2446886282
 10
0.356455172
 20
-13.253778082
  0
LWPOLYLINE
  5
2FE
100
AcDbEntity
  8
ASSI
100
AcDbPolyline
 62
7
  6
CONTINUOUS
 90
4
 70
0
 10
-0.2430905875
 20
-13.2717717173
 10
-0.2430132031
 20
-13.2628139834
 10
-0.24263765
 20
-13.2537932953
 10
-0.2419640381
 20
-13.2447111339
  0
LINE
  5
2FF
100
AcDbEntity
  8
ASSI
100
AcDbLine
 62
7
  6
CONTINUOUS
 10
0.3569094106
 20
13.8282282787
 11
0.3568291345
 21
13.819213067
  0
LWPOLYLINE
  5
300
100
AcDbEntity
  8
0
100
AcDbPolyline
 62
7
  6
CONTINUOUS
 90
97
 70
0
 10
0.3569094106
 20
13.8282282809
 10
0.3568293229
 20
13.8192175665
 10
0.3564497681
 20
13.8101523899
 10
0.3557707462
 20
13.8010327501
 10
0.3547938862
 20
13.791839678
 10
0.3535175592
 20
13.7825921404
 10
0.3519368778
 20
13.7733470412
 10
0.3500473125
 20
13.7641032443
 10
0.3478533927
 20
13.754861886
 10
0.3453638196
 20
13.7456832813
 10
0.3425777123
 20
13.7365746961
 10
0.3394959516
 20
13.7275288672
 10
0.3361298803
 20
13.7185843181
 10
0.3324824559
 20
13.7097483626
 10
0.328550721
 20
13.7010136912
 10
0.3243371453
 20
13.6923968929
 10
0.3198359327
 20
13.6838883026
 10
0.3150528793
 20
13.6754975898
 10
0.3100078434
 20
13.6672703471
 10
0.3046974812
 20
13.6592089178
 10
0.2991251365
 20
13.6513109644
 10
0.2933206981
 20
13.6436150602
 10
0.287285628
 20
13.6361262638
 10
0.2810184644
 20
13.6288395232
 10
0.2745447109
 20
13.6217782465
 10
0.2678698939
 20
13.6149480022
 10
0.2609884871
 20
13.6083432286
 10
0.253909415
 20
13.6019706382
 10
0.2466268747
 20
13.5958266929
 10
0.2391466691
 20
13.5899149371
 10
0.231495131
 20
13.584252707
 10
0.223675526
 20
13.5788426761
 10
0.2156845885
 20
13.5736821767
 10
0.2075388538
 20
13.5687805335
 10
0.1992346572
 20
13.5641354929
 10
0.1907756635
 20
13.5597493136
 10
0.1821894025
 20
13.5556380885
 10
0.1734822339
 20
13.5518054808
 10
0.164647798
 20
13.5482478319
 10
0.1556945451
 20
13.544970251
 10
0.1466124865
 20
13.5419693031
 10
0.1374116109
 20
13.5392484271
 10
0.1281303345
 20
13.5368230425
 10
0.1187668286
 20
13.5346950067
 10
0.109322922
 20
13.5328624653
 10
0.0998425164
 20
13.5313352709
 10
0.0903279156
 20
13.5301170434
 10
0.0807768159
 20
13.5292041646
 10
0.0712262081
 20
13.5285956303
 10
0.0616888793
 20
13.528291114
 10
0.0521520423
 20
13.5282909427
 10
0.0426143262
 20
13.5285950917
 10
0.0330628512
 20
13.5292031908
 10
0.0235104971
 20
13.5301156095
 10
0.0139945323
 20
13.5313334329
 10
0.0045127184
 20
13.5328602843
 10
-0.0049327061
 20
13.5346925386
 10
-0.014297758
 20
13.5368204079
 10
-0.0235805317
 20
13.5392457651
 10
-0.0327829327
 20
13.5419667344
 10
-0.0418666946
 20
13.544967905
 10
-0.0508219261
 20
13.5482458289
 10
-0.0596585184
 20
13.5518039503
 10
-0.0683678791
 20
13.5556371962
 10
-0.0769565047
 20
13.5597493361
 10
-0.0854178986
 20
13.5641365959
 10
-0.0937239781
 20
13.5687825864
 10
-0.1018708847
 20
13.5736850418
 10
-0.109862477
 20
13.5788462228
 10
-0.1176822479
 20
13.5842565301
 10
-0.1253333767
 20
13.5899184788
 10
-0.1328126842
 20
13.5958295479
 10
-0.1400941255
 20
13.6019725846
 10
-0.1471719045
 20
13.6083440219
 10
-0.1540518173
 20
13.6149474205
 10
-0.160725207
 20
13.6217763192
 10
-0.1671976868
 20
13.6288364378
 10
-0.1734636435
 20
13.6361220495
 10
-0.1794975803
 20
13.6436095235
 10
-0.185300951
 20
13.6513038401
 10
-0.1908723017
 20
13.6592000121
 10
-0.1961817741
 20
13.6672594578
 10
-0.2012260213
 20
13.6754844343
 10
-0.2060083902
 20
13.6838726786
 10
-0.2105090621
 20
13.6923788295
 10
-0.2147222186
 20
13.7009931696
 10
-0.2186536782
 20
13.7097254121
 10
-0.222301078
 20
13.7185593425
 10
-0.2256674432
 20
13.7275023638
 10
-0.2287497487
 20
13.7365470689
 10
-0.2315365553
 20
13.74565503
 10
-0.2340269828
 20
13.7548334507
 10
-0.2362219114
 20
13.7640751246
 10
-0.2381125431
 20
13.7733200106
 10
-0.2396943866
 20
13.7825669263
 10
-0.2409719333
 20
13.7918170539
 10
-0.2419498588
 20
13.8010139013
  0
LWPOLYLINE
  5
301
100
AcDbEntity
  8
ASSI
100
AcDbPolyline
 62
7
  6
CONTINUOUS
 90
99
 70
0
 10
0.3568291247
 20
13.8192119704
 10
0.3564491005
 20
13.8101415688
 10
0.3557693379
 20
13.8010170729
 10
0.3547914147
 20
13.7918194452
 10
0.3535137532
 20
13.7825677209
 10
0.3519316199
 20
13.7733190091
 10
0.3500405474
 20
13.7640724041
 10
0.3478450032
 20
13.7548288119
 10
0.3453536553
 20
13.7456480612
 10
0.3425656461
 20
13.7365373231
 10
0.3394818333
 20
13.7274894293
 10
0.3361134582
 20
13.7185427015
 10
0.3324635703
 20
13.7097045357
 10
0.3285291202
 20
13.70096754
 10
0.3243122015
 20
13.6923478552
 10
0.3198069214
 20
13.6838355733
 10
0.3150191727
 20
13.6754406066
 10
0.3099687266
 20
13.6672088274
 10
0.3046521263
 20
13.6591424905
 10
0.2990728286
 20
13.6512393469
 10
0.2932609751
 20
13.6435385145
 10
0.2872179456
 20
13.6360450622
 10
0.2809423603
 20
13.6287539278
 10
0.2744602223
 20
13.621689034
 10
0.2677773085
 20
13.6148562382
 10
0.260887842
 20
13.6082496898
 10
0.2538004939
 20
13.6018757497
 10
0.2465095227
 20
13.5957308526
 10
0.2390206699
 20
13.5898185699
 10
0.2313598311
 20
13.5841559679
 10
0.2235300344
 20
13.5787455188
 10
0.2155282515
 20
13.5735847562
 10
0.2073712939
 20
13.5686833388
 10
0.1990552178
 20
13.5640389721
 10
0.1905839669
 20
13.5596539557
 10
0.1819861835
 20
13.5555448397
 10
0.1732686412
 20
13.5517155362
 10
0.1644245664
 20
13.5481621377
 10
0.1554622803
 20
13.5448894653
 10
0.1463720873
 20
13.5418940862
 10
0.1371636829
 20
13.5391794369
 10
0.1278744755
 20
13.5367606421
 10
0.1185025164
 20
13.5346394314
 10
0.1090497542
 20
13.5328140781
 10
0.0995594429
 20
13.5312945227
 10
0.0900331452
 20
13.5300843334
 10
0.0804692983
 20
13.5291799437
 10
0.070906468
 20
13.5285805924
 10
0.0613534904
 20
13.5282866919
 10
0.0518015294
 20
13.5282978304
 10
0.0422626427
 20
13.5286120106
 10
0.0327275028
 20
13.5292297945
 10
0.0232054372
 20
13.5301506196
 10
0.0137364868
 20
13.5313708017
 10
0.0043272072
 20
13.5328913948
 10
-0.0050289572
 20
13.5347113433
 10
-0.0143116324
 20
13.5368237978
 10
-0.0235238541
 20
13.5392296717
 10
-0.0326625865
 20
13.5419280489
 10
-0.0416983482
 20
13.5449093366
 10
-0.0506271984
 20
13.5481720872
 10
-0.0594530779
 20
13.5517177446
 10
-0.0681583279
 20
13.5555410532
 10
-0.0767480766
 20
13.5596460977
 10
-0.0852171958
 20
13.5640287888
 10
-0.0935326411
 20
13.5686716097
 10
-0.101689589
 20
13.5735722777
 10
-0.1096928631
 20
13.5787330704
 10
-0.117523889
 20
13.5841433115
 10
-0.1251850866
 20
13.5898051095
 10
-0.132674036
 20
13.5957163499
 10
-0.1399649037
 20
13.6018600226
 10
-0.1470520262
 20
13.6082326759
 10
-0.153941067
 20
13.6148377553
 10
-0.1606231832
 20
13.6216685969
 10
-0.1671037346
 20
13.6287305876
 10
-0.1733773614
 20
13.6360183337
 10
-0.1794191418
 20
13.6435090006
 10
-0.1852308187
 20
13.6512078299
 10
-0.1908106492
 20
13.6591095733
 10
-0.1961284821
 20
13.6671756616
 10
-0.2011810933
 20
13.6754087037
 10
-0.2059717069
 20
13.6838060849
 10
-0.2104798447
 20
13.6923214022
 10
-0.2146995932
 20
13.7009451496
 10
-0.218636866
 20
13.7096868287
 10
-0.2222889246
 20
13.7185285496
 10
-0.2256583986
 20
13.7274767129
 10
-0.2287426586
 20
13.7365249139
 10
-0.231531078
 20
13.7456360554
 10
-0.2340229972
 20
13.7548176358
 10
-0.2362190759
 20
13.7640621539
 10
-0.2381106675
 20
13.7733100141
 10
-0.2396933381
 20
13.7825606073
 10
-0.2409715215
 20
13.7918145423
 10
-0.2419498724
 20
13.8010140525
 10
-0.2426299421
 20
13.8101398834
 10
-0.2430101793
 20
13.8192112918
 10
-0.2430905838
 20
13.8282282787
  0
LWPOLYLINE
  5
302
100
AcDbEntity
  8
0
100
AcDbPolyline
 62
250
  6
CONTINUOUS
 90
19
 70
0
 10
11.0785750931
 20
21.6858572826
 10
11.0781563317
 20
21.6850838912
 10
11.0777387962
 20
21.6840244264
 10
11.0773224864
 20
21.6826788882
 10
11.0769071562
 20
21.681046159
 10
11.0764930519
 20
21.6791273564
 10
11.076080912
 20
21.6769258337
 10
11.0756707469
 20
21.6744411097
 10
11.0752625464
 20
21.6716736655
 10
11.0748570177
 20
21.6686282982
 10
11.0744541664
 20
21.6653045309
 10
11.0740539869
 20
21.6617028405
 10
11.0736571703
 20
21.6578294542
 10
11.073263722
 20
21.6536838993
 10
11.0728736365
 20
21.6492666485
 10
11.0724875884
 20
21.644585347
 10
11.0721055847
 20
21.6396395375
 10
11.0717276185
 20
21.6344296772
 10
11.0709857669
 20
21.6232444148
  0
LINE
  5
303
100
AcDbEntity
  8
0
100
AcDbLine
 62
250
  6
CONTINUOUS
 10
10.8168461253
 20
-0.0177726115
 11
10.8124190762
 21
-0.0179164464
  0
LINE
  5
304
100
AcDbEntity
  8
0
100
AcDbLine
 62
250
  6
CONTINUOUS
 10
10.8124190762
 20
-0.0179164464
 11
10.8070614296
 21
-0.0180578491
  0
LWPOLYLINE
  5
305
100
AcDbEntity
  8
0
100
AcDbPolyline
 62
250
  6
CONTINUOUS
 90
3
 70
0
 10
-4.6417807619
 20
-0.6698219371
 10
-4.6413012334
 20
-0.669810079
 10
-4.6410980325
 20
-0.6697982044
  0
LINE
  5
306
100
AcDbEntity
  8
0
100
AcDbLine
 62
250
  6
CONTINUOUS
 10
11.0171983106
 20
-0.2176389518
 11
11.0113935004
 21
-0.2177924621
  0
LINE
  5
307
100
AcDbEntity
  8
0
100
AcDbLine
 62
250
  6
CONTINUOUS
 10
10.8070614296
 20
-0.0180578491
 11
10.7973217242
 21
-0.0182643726
  0
LINE
  5
308
100
AcDbEntity
  8
0
100
AcDbLine
 62
250
  6
CONTINUOUS
 10
11.0113935004
 20
-0.2177924621
 11
10.9997432327
 21
-0.2180187975
  0
LWPOLYLINE
  5
309
100
AcDbEntity
  8
0
100
AcDbPolyline
 62
250
  6
CONTINUOUS
 90
46
 70
0
 10
4.9549137427
 20
-0.0197836685
 10
4.9479344474
 20
-0.0199060182
 10
4.9409636544
 20
-0.020271855
 10
4.9340098558
 20
-0.0208807335
 10
4.9270815229
 20
-0.0217319117
 10
4.920187096
 20
-0.0228243529
 10
4.9133349741
 20
-0.0241567261
 10
4.9065335045
 20
-0.0257274082
 10
4.8997909732
 20
-0.0275344858
 10
4.8931155939
 20
-0.0295757574
 10
4.8865154988
 20
-0.0318487363
 10
4.8799987284
 20
-0.0343506535
 10
4.8735732215
 20
-0.037078461
 10
4.867246806
 20
-0.0400288359
 10
4.8610271887
 20
-0.0431981838
 10
4.8549219467
 20
-0.0465826438
 10
4.8489385174
 20
-0.0501780929
 10
4.8430841901
 20
-0.0539801509
 10
4.8373660967
 20
-0.0579841861
 10
4.8317912031
 20
-0.0621853206
 10
4.8263663008
 20
-0.0665784366
 10
4.8210979986
 20
-0.0711581821
 10
4.8159927144
 20
-0.0759189781
 10
4.8110566677
 20
-0.0808550248
 10
4.8062958718
 20
-0.085960309
 10
4.8017161262
 20
-0.0912286112
 10
4.7973230102
 20
-0.0966535135
 10
4.7931218757
 20
-0.1022284071
 10
4.7891178405
 20
-0.1079465005
 10
4.7853157825
 20
-0.1138008278
 10
4.7817203334
 20
-0.1197842571
 10
4.7783358734
 20
-0.1258894991
 10
4.7751665255
 20
-0.1321091164
 10
4.7722161506
 20
-0.1384355319
 10
4.7694883431
 20
-0.1448610388
 10
4.7669864259
 20
-0.1513778092
 10
4.764713447
 20
-0.1579779043
 10
4.7626721754
 20
-0.1646532835
 10
4.7608650978
 20
-0.1713958149
 10
4.7592944157
 20
-0.1781972845
 10
4.7579620425
 20
-0.1850494064
 10
4.7568696013
 20
-0.1919438333
 10
4.7560184231
 20
-0.1988721662
 10
4.7554095446
 20
-0.2058259648
 10
4.7550437078
 20
-0.2127967578
 10
4.7549213581
 20
-0.2197760531
  0
LINE
  5
30A
100
AcDbEntity
  8
0
100
AcDbLine
 62
7
  6
CONTINUOUS
 10
5.4069094115
 20
0.0020476747
 11
4.9401378286
 21
-0.0050077544
  0
LINE
  5
30B
100
AcDbEntity
  8
0
100
AcDbLine
 62
7
  6
CONTINUOUS
 10
-5.2930905885
 20
0.2544088815
 11
-4.8263190056
 21
0.2614643106
  0
LINE
  5
30C
100
AcDbEntity
  8
0
100
AcDbLine
 62
250
  6
CONTINUOUS
 10
10.7973217242
 20
-0.0182643726
 11
10.7767295408
 21
-0.0185900622
  0
LINE
  5
30D
100
AcDbEntity
  8
0
100
AcDbLine
 62
250
  6
CONTINUOUS
 10
10.9997432327
 20
-0.2180187975
 11
10.9788546814
 21
-0.2183106037
  0
LINE
  5
30E
100
AcDbEntity
  8
0
100
AcDbLine
 62
250
  6
CONTINUOUS
 10
-4.6425404583
 20
-0.2197915593
 11
-4.641307188
 21
-0.2197760573
  0
LINE
  5
30F
100
AcDbEntity
  8
0
100
AcDbLine
 62
250
  6
CONTINUOUS
 10
-4.6435657672
 20
-0.6698455386
 11
-4.6417807619
 21
-0.6698219371
  0
LINE
  5
310
100
AcDbEntity
  8
0
100
AcDbLine
 62
250
  6
CONTINUOUS
 10
10.7767295408
 20
-0.0185900622
 11
10.7394690695
 21
-0.0189964211
  0
LINE
  5
311
100
AcDbEntity
  8
0
100
AcDbLine
 62
250
  6
CONTINUOUS
 10
10.9788546814
 20
-0.2183106037
 11
10.9366246947
 21
-0.2187192266
  0
LINE
  5
312
100
AcDbEntity
  8
0
100
AcDbLine
 62
250
  6
CONTINUOUS
 10
10.7394690695
 20
-0.0189964211
 11
10.6866189042
 21
-0.0193713839
  0
LINE
  5
313
100
AcDbEntity
  8
0
100
AcDbLine
 62
250
  6
CONTINUOUS
 10
10.9366246947
 20
-0.2187192266
 11
10.8723487863
 21
-0.2191378876
  0
LINE
  5
314
100
AcDbEntity
  8
0
100
AcDbLine
 62
250
  6
CONTINUOUS
 10
-4.6527711061
 20
-0.6699031153
 11
-4.6435657672
 21
-0.6698455386
  0
LINE
  5
315
100
AcDbEntity
  8
0
100
AcDbLine
 62
250
  6
CONTINUOUS
 10
-10.600448667
 20
0.2756535927
 11
-10.5430562301
 21
0.2759737984
  0
LINE
  5
316
100
AcDbEntity
  8
0
100
AcDbLine
 62
250
  6
CONTINUOUS
 10
10.8723487863
 20
-0.2191378876
 11
10.7943506315
 21
-0.2194783459
  0
LINE
  5
317
100
AcDbEntity
  8
0
100
AcDbLine
 62
250
  6
CONTINUOUS
 10
10.6866189042
 20
-0.0193713839
 11
10.6254325953
 21
-0.0196326667
  0
LINE
  5
318
100
AcDbEntity
  8
0
100
AcDbLine
 62
250
  6
CONTINUOUS
 10
10.7943506315
 20
-0.2194783459
 11
10.6923805272
 21
-0.2197545859
  0
LINE
  5
319
100
AcDbEntity
  8
0
100
AcDbLine
 62
250
  6
CONTINUOUS
 10
-10.5430562301
 20
0.2759737984
 11
-10.4788730137
 21
0.2761727471
  0
LINE
  5
31A
100
AcDbEntity
  8
0
100
AcDbLine
 62
250
  6
CONTINUOUS
 10
10.6254325953
 20
-0.0196326667
 11
10.5590690635
 21
-0.0197667495
  0
LINE
  5
31B
100
AcDbEntity
  8
0
100
AcDbLine
 62
250
  6
CONTINUOUS
 10
-4.7547632201
 20
-0.67008506
 11
-4.6527711061
 21
-0.6699031153
  0
LINE
  5
31C
100
AcDbEntity
  8
0
100
AcDbLine
 62
250
  6
CONTINUOUS
 10
10.6923805272
 20
-0.2197545859
 11
10.5817838675
 21
-0.2198969273
  0
LINE
  5
31D
100
AcDbEntity
  8
0
100
AcDbLine
 62
250
  6
CONTINUOUS
 10
4.2549200066
 20
-1.1697651352
 11
-4.1411009989
 21
-1.1697651352
  0
LINE
  5
31E
100
AcDbEntity
  8
0
100
AcDbLine
 62
7
  6
CONTINUOUS
 10
-4.1293236072
 20
-1.1579857021
 11
4.2431424302
 21
-1.1579857021
  0
LWPOLYLINE
  5
31F
100
AcDbEntity
  8
0
100
AcDbPolyline
 62
7
  6
CONTINUOUS
 90
2
 70
0
 43
0.3500000019
 10
18.4716044922
 20
-0.9074859848
 10
16.9716030273
 20
-0.9074859848
  0
LWPOLYLINE
  5
320
100
AcDbEntity
  8
0
100
AcDbPolyline
 62
250
  6
CONTINUOUS
 90
3
 70
0
 10
-4.8410904171
 20
-0.6701175427
 10
-4.8336537048
 20
-0.6701172183
 10
-4.7547632201
 20
-0.67008506
  0
LINE
  5
321
100
AcDbEntity
  8
0
100
AcDbLine
 62
250
  6
CONTINUOUS
 10
10.5817838675
 20
-0.2198969273
 11
10.5250189371
 21
-0.2199153113
  0
LINE
  5
322
100
AcDbEntity
  8
0
100
AcDbLine
 62
250
  6
CONTINUOUS
 10
10.5250189371
 20
-0.2199153107
 11
4.9474813259
 21
-0.21992819
  0
LINE
  5
323
100
AcDbEntity
  8
0
100
AcDbLine
 62
250
  6
CONTINUOUS
 10
-4.641307188
 20
-0.2197760573
 11
-4.6411025351
 21
-0.2197760531
  0
LINE
  5
324
100
AcDbEntity
  8
0
100
AcDbLine
 62
250
  6
CONTINUOUS
 10
10.5590690635
 20
-0.0197667495
 11
10.5250208663
 21
-0.0197836685
  0
LINE
  5
325
100
AcDbEntity
  8
0
100
AcDbLine
 62
250
  6
CONTINUOUS
 10
10.5250208663
 20
-0.0197836685
 11
4.9549137427
 21
-0.0197836685
  0
LINE
  5
326
100
AcDbEntity
  8
RACCORDO
100
AcDbLine
 62
7
  6
CONTINUOUS
 10
10.1046051468
 20
0.0020476747
 11
5.4069094115
 21
0.0020476747
  0
LINE
  5
327
100
AcDbEntity
  8
DRAFT
100
AcDbLine
 62
7
  6
CONTINUOUS
 10
-5.2930905885
 20
0.0020476747
 11
-9.7907253937
 21
0.0020476747
  0
LINE
  5
328
100
AcDbEntity
  8
RACCORDO
100
AcDbLine
 62
7
  6
CONTINUOUS
 10
11.0068484501
 20
0.0282282781
 11
10.1569703416
 21
0.0282282781
  0
LINE
  5
329
100
AcDbEntity
  8
0
100
AcDbLine
 62
7
  6
CONTINUOUS
 10
-9.8430905885
 20
0.0282282781
 11
-10.8930296271
 21
0.0282282781
  0
LINE
  5
32A
100
AcDbEntity
  8
RACCORDO
100
AcDbLine
 62
7
  6
CONTINUOUS
 10
-10.8930296271
 20
0.2282282781
 11
-10.0431515185
 21
0.2282282781
  0
LINE
  5
32B
100
AcDbEntity
  8
0
100
AcDbLine
 62
7
  6
CONTINUOUS
 10
9.9569094115
 20
0.2282282781
 11
11.0068484501
 21
0.2282282781
  0
LINE
  5
32C
100
AcDbEntity
  8
RACCORDO
100
AcDbLine
 62
7
  6
CONTINUOUS
 10
-9.9907863238
 20
0.2544088815
 11
-5.2930905885
 21
0.2544088815
  0
LINE
  5
32D
100
AcDbEntity
  8
DRAFT
100
AcDbLine
 62
7
  6
CONTINUOUS
 10
5.4069094115
 20
0.2544088815
 11
9.9045442167
 21
0.2544088815
  0
LINE
  5
32E
100
AcDbEntity
  8
0
100
AcDbLine
 62
250
  6
CONTINUOUS
 10
-10.4112020433
 20
0.2762402247
 11
-4.8410949197
 21
0.2762402247
  0
LINE
  5
32F
100
AcDbEntity
  8
0
100
AcDbLine
 62
250
  6
CONTINUOUS
 10
-10.4788730137
 20
0.2761727471
 11
-10.4112020433
 21
0.2762402247
  0
LINE
  5
330
100
AcDbEntity
  8
0
100
AcDbLine
 62
250
  6
CONTINUOUS
 10
4.9549092401
 20
-0.6701175427
 11
4.9400460997
 21
-0.6701164525
  0
LWPOLYLINE
  5
331
100
AcDbEntity
  8
0
100
AcDbPolyline
 62
250
  6
CONTINUOUS
 90
3
 70
0
 10
4.9400460997
 20
-0.6701164525
 10
4.9252651591
 20
-0.6701136023
 10
4.9179310894
 20
-0.6701115218
  0
LWPOLYLINE
  5
332
100
AcDbEntity
  8
0
100
AcDbPolyline
 62
250
  6
CONTINUOUS
 90
3
 70
0
 10
4.9179310894
 20
-0.6701115218
 10
4.9034264557
 20
-0.670106064
 10
4.8962759531
 20
-0.6701026944
  0
LINE
  5
333
100
AcDbEntity
  8
0
100
AcDbLine
 62
250
  6
CONTINUOUS
 10
-4.676457137
 20
-0.2198573077
 11
-4.6425404583
 21
-0.2197915593
  0
LWPOLYLINE
  5
334
100
AcDbEntity
  8
0
100
AcDbPolyline
 62
250
  6
CONTINUOUS
 90
3
 70
0
 10
4.8962759531
 20
-0.6701026944
 10
4.8822280117
 20
-0.6700946971
 10
4.8753500025
 20
-0.6700900804
  0
LINE
  5
335
100
AcDbEntity
  8
0
100
AcDbLine
 62
250
  6
CONTINUOUS
 10
-4.7547677473
 20
-0.2199011455
 11
-4.676457137
 21
-0.2198573077
  0
LINE
  5
336
100
AcDbEntity
  8
0
100
AcDbLine
 62
250
  6
CONTINUOUS
 10
4.8753500025
 20
-0.6700900804
 11
4.861933459
 21
-0.6700796428
  0
LINE
  5
337
100
AcDbEntity
  8
0
100
AcDbLine
 62
250
  6
CONTINUOUS
 10
4.861933459
 20
-0.6700796428
 11
4.849031115
 21
-0.6700676488
  0
LINE
  5
338
100
AcDbEntity
  8
0
100
AcDbLine
 62
250
  6
CONTINUOUS
 10
4.849031115
 20
-0.6700676488
 11
4.8367143266
 21
-0.6700541646
  0
LINE
  5
339
100
AcDbEntity
  8
0
100
AcDbLine
 62
250
  6
CONTINUOUS
 10
4.8367143266
 20
-0.6700541646
 11
4.8250512114
 21
-0.6700392648
  0
LINE
  5
33A
100
AcDbEntity
  8
0
100
AcDbLine
 62
250
  6
CONTINUOUS
 10
4.9474813259
 20
-0.21992819
 11
4.8308014615
 21
-0.2198844988
  0
LINE
  5
33B
100
AcDbEntity
  8
0
100
AcDbLine
 62
250
  6
CONTINUOUS
 10
4.8250512114
 20
-0.6700392648
 11
4.8089221985
 21
-0.6700144432
  0
LINE
  5
33C
100
AcDbEntity
  8
0
100
AcDbLine
 62
250
  6
CONTINUOUS
 10
-10.5239922417
 20
-0.2198431138
 11
-4.7547677473
 21
-0.2199011455
  0
LINE
  5
33D
100
AcDbEntity
  8
0
100
AcDbLine
 62
250
  6
CONTINUOUS
 10
-4.8410949197
 20
-0.0197836685
 11
-10.4788730137
 21
-0.0197161909
  0
LINE
  5
33E
100
AcDbEntity
  8
0
100
AcDbLine
 62
250
  6
CONTINUOUS
 10
4.9549137427
 20
0.2762402247
 11
10.5926918367
 21
0.2761727471
  0
LINE
  5
33F
100
AcDbEntity
  8
0
100
AcDbLine
 62
250
  6
CONTINUOUS
 10
4.8308014615
 20
-0.2198844988
 11
4.7752643733
 21
-0.2198361639
  0
LINE
  5
340
100
AcDbEntity
  8
0
100
AcDbLine
 62
250
  6
CONTINUOUS
 10
-10.5239922417
 20
-0.2198431138
 11
-10.6309673672
 21
-0.2196324771
  0
LINE
  5
341
100
AcDbEntity
  8
0
100
AcDbLine
 62
250
  6
CONTINUOUS
 10
4.7752643733
 20
-0.2198361639
 11
4.7602665024
 21
-0.2198068727
  0
LINE
  5
342
100
AcDbEntity
  8
0
100
AcDbLine
 62
250
  6
CONTINUOUS
 10
-10.4788730137
 20
-0.0197161909
 11
-10.5430562301
 21
-0.0195172422
  0
LINE
  5
343
100
AcDbEntity
  8
0
100
AcDbLine
 62
250
  6
CONTINUOUS
 10
10.5926918367
 20
0.2761727471
 11
10.6568750532
 21
0.2759737984
  0
LINE
  5
344
100
AcDbEntity
  8
0
100
AcDbLine
 62
250
  6
CONTINUOUS
 10
-10.6309673672
 20
-0.2196324771
 11
-10.7266139117
 21
-0.2192942425
  0
LINE
  5
345
100
AcDbEntity
  8
0
100
AcDbLine
 62
250
  6
CONTINUOUS
 10
4.8089221985
 20
-0.6700144432
 11
4.7621055818
 21
-0.6698804096
  0
LINE
  5
346
100
AcDbEntity
  8
0
100
AcDbLine
 62
250
  6
CONTINUOUS
 10
4.7602665024
 20
-0.2198068727
 11
4.7563592804
 21
-0.2197915593
  0
LINE
  5
347
100
AcDbEntity
  8
0
100
AcDbLine
 62
250
  6
CONTINUOUS
 10
-10.7266139117
 20
-0.2192942425
 11
-10.7971159349
 21
-0.2189072348
  0
LINE
  5
348
100
AcDbEntity
  8
0
100
AcDbLine
 62
250
  6
CONTINUOUS
 10
-10.5430562301
 20
-0.0195172422
 11
-10.600448667
 21
-0.0191970365
  0
LINE
  5
349
100
AcDbEntity
  8
0
100
AcDbLine
 62
250
  6
CONTINUOUS
 10
10.6568750532
 20
0.2759737984
 11
10.7142674901
 21
0.2756535927
  0
LINE
  5
34A
100
AcDbEntity
  8
0
100
AcDbLine
 62
250
  6
CONTINUOUS
 10
4.7621055818
 20
-0.6698804096
 11
4.7573845544
 21
-0.6698455386
  0
LINE
  5
34B
100
AcDbEntity
  8
0
100
AcDbLine
 62
250
  6
CONTINUOUS
 10
-10.7971159349
 20
-0.2189072348
 11
-10.8455009165
 21
-0.2185198653
  0
LINE
  5
34C
100
AcDbEntity
  8
0
100
AcDbLine
 62
250
  6
CONTINUOUS
 10
-10.600448667
 20
-0.0191970365
 11
-10.6427496992
 21
-0.0188302623
  0
LWPOLYLINE
  5
34D
100
AcDbEntity
  8
0
100
AcDbPolyline
 62
250
  6
CONTINUOUS
 90
61
 70
0
 10
-4.1411009988
 20
-1.1697651351
 10
-4.1540727455
 20
-1.1695973079
 10
-4.1670594726
 20
-1.1690918048
 10
-4.1800523354
 20
-1.1682471172
 10
-4.1930456742
 20
-1.1670616262
 10
-4.2060271916
 20
-1.1655344571
 10
-4.2189780588
 20
-1.1636663358
 10
-4.2318893016
 20
-1.1614574529
 10
-4.2447518265
 20
-1.1589082544
 10
-4.2575468385
 20
-1.1560217492
 10
-4.2702651393
 20
-1.1527997122
 10
-4.2828982294
 20
-1.1492439951
 10
-4.295428766
 20
-1.1453595257
 10
-4.3078455405
 20
-1.141150317
 10
-4.3201428943
 20
-1.1366188305
 10
-4.3323121521
 20
-1.1317687039
 10
-4.3443431715
 20
-1.1266045346
 10
-4.3562298667
 20
-1.1211294962
 10
-4.3679696266
 20
-1.1153450036
 10
-4.3795554016
 20
-1.1092544354
 10
-4.3909781957
 20
-1.1028624244
 10
-4.4022323401
 20
-1.0961719785
 10
-4.4133114236
 20
-1.0891865509
 10
-4.424206241
 20
-1.0819115815
 10
-4.434907114
 20
-1.0743533601
 10
-4.4454064414
 20
-1.0665172195
 10
-4.4556972307
 20
-1.058408342
 10
-4.4657711147
 20
-1.0500333495
 10
-4.475620491
 20
-1.0413987312
 10
-4.4852394389
 20
-1.0325098506
 10
-4.4946223586
 20
-1.0233719324
 10
-4.5037628156
 20
-1.0139912223
 10
-4.5126545138
 20
-1.004374161
 10
-4.5212921651
 20
-0.9945263718
 10
-4.5296703918
 20
-0.9844537527
 10
-4.5377826771
 20
-0.9741638984
 10
-4.5456223231
 20
-0.963665231
 10
-4.5531841029
 20
-0.9529647751
 10
-4.5604626965
 20
-0.9420700855
 10
-4.5674518246
 20
-0.9309907803
 10
-4.5741460092
 20
-0.9197360833
 10
-4.5805417923
 20
-0.9083123727
 10
-4.5866362114
 20
-0.8967251717
 10
-4.5924246311
 20
-0.8849833995
 10
-4.5979036031
 20
-0.873094162
 10
-4.6030716508
 20
-0.8610601229
 10
-4.6079256055
 20
-0.8488872733
 10
-4.6124607977
 20
-0.8365858438
 10
-4.6166734448
 20
-0.8241648514
 10
-4.6205610746
 20
-0.8116299868
 10
-4.624119677
 20
-0.7989924473
 10
-4.6273442499
 20
-0.7862698683
 10
-4.6302329423
 20
-0.7734708517
 10
-4.6327840221
 20
-0.760604525
 10
-4.6349944952
 20
-0.7476897204
 10
-4.636863934
 20
-0.7347355766
 10
-4.6383921779
 20
-0.7217510468
 10
-4.6395785294
 20
-0.7087548976
 10
-4.6404238831
 20
-0.6957594107
 10
-4.6409298747
 20
-0.6827702771
 10
-4.6410980325
 20
-0.6697963475
  0
LINE
  5
34E
100
AcDbEntity
  8
0
100
AcDbLine
 62
250
  6
CONTINUOUS
 10
-10.8455009165
 20
-0.2185198653
 11
-10.8762323279
 21
-0.2181663298
  0
LWPOLYLINE
  5
34F
100
AcDbEntity
  8
0
100
AcDbPolyline
 62
250
  6
CONTINUOUS
 90
3
 70
0
 10
4.7563592804
 20
-0.2197915593
 10
4.7551260109
 20
-0.2197760573
 10
4.7549213581
 20
-0.2197760531
  0
LINE
  5
350
100
AcDbEntity
  8
0
100
AcDbLine
 62
250
  6
CONTINUOUS
 10
-10.6427496992
 20
-0.0188302623
 11
-10.6717816623
 21
-0.0184629014
  0
LINE
  5
351
100
AcDbEntity
  8
0
100
AcDbLine
 62
7
  6
CONTINUOUS
 10
-4.8263190056
 20
-0.0050077544
 11
-5.2930905885
 21
0.0020476747
  0
LINE
  5
352
100
AcDbEntity
  8
0
100
AcDbLine
 62
7
  6
CONTINUOUS
 10
4.9401378286
 20
0.2614643106
 11
5.4069094115
 21
0.2544088815
  0
LWPOLYLINE
  5
353
100
AcDbEntity
  8
0
100
AcDbPolyline
 62
250
  6
CONTINUOUS
 90
4
 70
0
 10
4.7573845544
 20
-0.6698455386
 10
4.7555995486
 20
-0.6698219371
 10
4.7551200201
 20
-0.669810079
 10
4.7549168191
 20
-0.6697982044
  0
LINE
  5
354
100
AcDbEntity
  8
0
100
AcDbLine
 62
250
  6
CONTINUOUS
 10
-10.8762323279
 20
-0.2181663298
 11
-10.8901963293
 21
-0.2179439859
  0
LINE
  5
355
100
AcDbEntity
  8
0
100
AcDbLine
 62
250
  6
CONTINUOUS
 10
-10.6717816623
 20
-0.0184629014
 11
-10.6869752499
 21
-0.0181963097
  0
LINE
  5
356
100
AcDbEntity
  8
0
100
AcDbLine
 62
250
  6
CONTINUOUS
 10
-10.8901963293
 20
-0.2179439859
 11
-10.8975746773
 21
-0.2177924621
  0
LINE
  5
357
100
AcDbEntity
  8
0
100
AcDbLine
 62
250
  6
CONTINUOUS
 10
-10.6869752499
 20
-0.0181963097
 11
-10.6960376145
 21
-0.0179874514
  0
LWPOLYLINE
  5
358
100
AcDbEntity
  8
0
100
AcDbPolyline
 62
250
  6
CONTINUOUS
 90
7
 70
0
 10
-10.8975746773
 20
-0.2177924621
 10
-10.9033794876
 20
-0.2176389518
 10
-10.9056857603
 20
-0.2175615325
 10
-10.9075921112
 20
-0.2174838403
 10
-10.9090969766
 20
-0.2174059364
 10
-10.9101990733
 20
-0.2173277754
 10
-10.9108974709
 20
-0.2172493654
  0
LWPOLYLINE
  5
359
100
AcDbEntity
  8
0
100
AcDbPolyline
 62
250
  6
CONTINUOUS
 90
10
 70
0
 10
-10.6960376145
 20
-0.0179874514
 10
-10.7009299623
 20
-0.0178448326
 10
-10.7030273022
 20
-0.0177726115
 10
-10.7048871827
 20
-0.0176999588
 10
-10.7065090328
 20
-0.0176268713
 10
-10.7078934234
 20
-0.017553352
 10
-10.7090369768
 20
-0.017479586
 10
-10.7099385669
 20
-0.0174056348
 10
-10.7105993197
 20
-0.0173314367
 10
-10.7110192352
 20
-0.0172569918
  0
LWPOLYLINE
  5
35A
100
AcDbEntity
  8
0
100
AcDbPolyline
 62
7
  6
CONTINUOUS
 90
4
 70
0
 10
-0.2419498588
 20
13.8010139013
 10
-0.2426297217
 20
13.8101386389
 10
-0.2430099633
 20
13.8192100984
 10
-0.2430905838
 20
13.8282282809
  0
LINE
  5
35B
100
AcDbEntity
  8
0
100
AcDbLine
 62
7
  6
CONTINUOUS
 10
0.3569094069
 20
-13.8717717219
 11
0.3569094069
 21
-13.2717717173
  0
LINE
  5
35C
100
AcDbEntity
  8
ASSI
100
AcDbLine
 62
7
  6
CONTINUOUS
 10
0.3569094069
 20
-13.8717717219
 11
0.3569094069
 21
-13.2717717173
  0
LINE
  5
35D
100
AcDbEntity
  8
0
100
AcDbLine
 62
7
  6
CONTINUOUS
 10
0.3569094069
 20
-9.9717717219
 11
0.3569094069
 21
-9.3717717219
  0
LINE
  5
35E
100
AcDbEntity
  8
ASSI
100
AcDbLine
 62
7
  6
CONTINUOUS
 10
0.3569094069
 20
-9.9717717219
 11
0.3569094069
 21
-9.3717717219
  0
LINE
  5
35F
100
AcDbEntity
  8
0
100
AcDbLine
 62
7
  6
CONTINUOUS
 10
0.3569094106
 20
15.0782282781
 11
0.3569094106
 21
13.8282282787
  0
LINE
  5
360
100
AcDbEntity
  8
ASSI
100
AcDbLine
 62
7
  6
CONTINUOUS
 10
0.3569094106
 20
15.0782282781
 11
0.3569094106
 21
13.8282282787
  0
LINE
  5
361
100
AcDbEntity
  8
0
100
AcDbLine
 62
7
  6
CONTINUOUS
 10
0.3569094106
 20
9.9282282781
 11
0.3569094106
 21
8.6782282781
  0
LINE
  5
362
100
AcDbEntity
  8
ASSI
100
AcDbLine
 62
7
  6
CONTINUOUS
 10
0.3569094106
 20
9.9282282781
 11
0.3569094106
 21
8.6782282781
  0
LWPOLYLINE
  5
363
100
AcDbEntity
  8
ASSI
100
AcDbPolyline
 62
7
  6
CONTINUOUS
 90
97
 70
0
 10
-0.2419639282
 20
-13.2447096517
 10
-0.2409939279
 20
-13.2355421907
 10
-0.239725759
 20
-13.2263117718
 10
-0.2381537502
 20
-13.2170809773
 10
-0.2362745
 20
-13.2078534398
 10
-0.2340914099
 20
-13.1986255269
 10
-0.2316090136
 20
-13.1894489253
 10
-0.2288242866
 20
-13.1803240681
 10
-0.2257402534
 20
-13.1712505245
 10
-0.2223705205
 20
-13.162278687
 10
-0.2187176367
 20
-13.153417982
 10
-0.2147790532
 20
-13.1446589873
 10
-0.2105607301
 20
-13.1360238235
 10
-0.2060582059
 20
-13.127505855
 10
-0.2012759422
 20
-13.1191117219
 10
-0.1962332838
 20
-13.1108834598
 10
-0.1909271524
 20
-13.1028230908
 10
-0.1853606263
 20
-13.0949285985
 10
-0.1795622849
 20
-13.0872359618
 10
-0.1735336468
 20
-13.0797498217
 10
-0.1672731933
 20
-13.0724655435
 10
-0.1608049479
 20
-13.0654051939
 10
-0.1541340957
 20
-13.0585737844
 10
-0.1472554516
 20
-13.0519663097
 10
-0.1401774834
 20
-13.0455898111
 10
-0.1328938853
 20
-13.0394404353
 10
-0.1254109632
 20
-13.0335220414
 10
-0.1177561033
 20
-13.0278532394
 10
-0.1099328048
 20
-13.0224370344
 10
-0.1019375685
 20
-13.0172704268
 10
-0.0937872829
 20
-13.0123630204
 10
-0.0854782783
 20
-13.0077126092
 10
-0.0770142244
 20
-13.003321404
 10
-0.0684230193
 20
-12.9992056333
 10
-0.0597112166
 20
-12.995369054
 10
-0.0508722628
 20
-12.9918079136
 10
-0.0419143949
 20
-12.9885271763
 10
-0.0328276806
 20
-12.9855233789
 10
-0.0236220523
 20
-12.9827999882
 10
-0.0143355435
 20
-12.9803723632
 10
-0.0049661182
 20
-12.9782422976
 10
0.0044841874
 20
-12.9764080004
 10
0.0139712316
 20
-12.9748794538
 10
0.0234929431
 20
-12.9736603172
 10
0.033051393
 20
-12.9727469328
 10
0.042608653
 20
-12.9721383068
 10
0.0521516611
 20
-12.9718341853
 10
0.0616934792
 20
-12.9718348226
 10
0.0712353641
 20
-12.972139987
 10
0.0807898743
 20
-12.972749246
 10
0.0903444514
 20
-12.9736630314
 10
0.0998626769
 20
-12.9748824075
 10
0.1093470663
 20
-12.9764109798
 10
0.1187951041
 20
-12.978245141
 10
0.1281628263
 20
-12.9803751362
 10
0.1374485465
 20
-12.9828029302
 10
0.1466539511
 20
-12.9855265554
 10
0.1557401345
 20
-12.9885303582
 10
0.1646969812
 20
-12.9918108597
 10
0.1735346068
 20
-12.9953715353
 10
0.1822444534
 20
-12.9992071627
 10
0.1908325788
 20
-13.0033212014
 10
0.1992929251
 20
-13.0077101875
 10
0.2075987617
 20
-13.0123585143
 10
0.2157468231
 20
-13.0172641632
 10
0.2237403747
 20
-13.0224291478
 10
0.2315624815
 20
-13.0278439087
 10
0.2392167116
 20
-13.0335114337
 10
0.2466994969
 20
-13.0394287295
 10
0.2539831987
 20
-13.045577265
 10
0.2610616557
 20
-13.0519534334
 10
0.2679410292
 20
-13.0585608357
 10
0.2746121649
 20
-13.0653917533
 10
0.2810797354
 20
-13.0724507187
 10
0.287339068
 20
-13.079733193
 10
0.2933669916
 20
-13.0872178504
 10
0.2991653126
 20
-13.0949094744
 10
0.3047322246
 20
-13.1028032753
 10
0.310039136
 20
-13.1108635683
 10
0.3150831457
 20
-13.1190926658
 10
0.3198671548
 20
-13.1274882498
 10
0.3243712757
 20
-13.1360076916
 10
0.3285909445
 20
-13.1446444679
 10
0.332530725
 20
-13.1534050976
 10
0.3361844203
 20
-13.1622665165
 10
0.3395542965
 20
-13.1712372845
 10
0.3426380875
 20
-13.1803088377
 10
0.3454227984
 20
-13.189432427
 10
0.3479056786
 20
-13.1986091045
 10
0.3500894788
 20
-13.207837816
 10
0.3519694554
 20
-13.2170666551
 10
0.3535421804
 20
-13.2262993147
 10
0.3548110819
 20
-13.2355321017
 10
0.3557817011
 20
-13.2447020326
 10
0.3564558853
 20
-13.2537881141
 10
0.3568317872
 20
-13.262811342
 10
0.3569094069
 20
-13.2717717173
  0
LWPOLYLINE
  5
364
100
AcDbEntity
  8
0
100
AcDbPolyline
 62
250
  6
CONTINUOUS
 90
18
 70
0
 10
-10.9647562701
 20
-21.4294007265
 10
-10.9643375087
 20
-21.428627335
 10
-10.9639199732
 20
-21.4275678702
 10
-10.9635036634
 20
-21.4262223321
 10
-10.9630883332
 20
-21.4245896028
 10
-10.9626742289
 20
-21.4226708002
 10
-10.9622620889
 20
-21.4204692775
 10
-10.9618519239
 20
-21.4179845535
 10
-10.9614437233
 20
-21.4152171093
 10
-10.9610381946
 20
-21.412171742
 10
-10.9606353433
 20
-21.4088479747
 10
-10.9602351639
 20
-21.4052462843
 10
-10.9598383473
 20
-21.401372898
 10
-10.959444899
 20
-21.3972273431
 10
-10.9590548135
 20
-21.3928100923
 10
-10.9586687654
 20
-21.3881287909
 10
-10.9582867617
 20
-21.3831829813
 10
-10.9575355201
 20
-21.3725082274
  0
LWPOLYLINE
  5
365
100
AcDbEntity
  8
0
100
AcDbPolyline
 62
250
  6
CONTINUOUS
 90
6
 70
0
 10
-10.9108974709
 20
0.4737059216
 10
-10.9101990733
 20
0.4737843316
 10
-10.9090969766
 20
0.4738624925
 10
-10.9075921112
 20
0.4739403965
 10
-10.9056857603
 20
0.4740180887
 10
-10.9033794876
 20
0.474095508
  0
LINE
  5
366
100
AcDbEntity
  8
0
100
AcDbLine
 62
250
  6
CONTINUOUS
 10
-10.7030273022
 20
0.2742291677
 11
-10.6986002532
 21
0.2743730026
  0
LINE
  5
367
100
AcDbEntity
  8
0
100
AcDbLine
 62
250
  6
CONTINUOUS
 10
-10.6986002532
 20
0.2743730026
 11
-10.6932426066
 21
0.2745144053
  0
LINE
  5
368
100
AcDbEntity
  8
0
100
AcDbLine
 62
250
  6
CONTINUOUS
 10
-10.9033794876
 20
0.474095508
 11
-10.8975746773
 21
0.4742490183
  0
LWPOLYLINE
  5
369
100
AcDbEntity
  8
0
100
AcDbPolyline
 62
250
  6
CONTINUOUS
 90
3
 70
0
 10
4.7555995849
 20
0.9262784933
 10
4.7551200565
 20
0.9262666352
 10
4.7549168555
 20
0.9262547606
  0
LINE
  5
36A
100
AcDbEntity
  8
0
100
AcDbLine
 62
250
  6
CONTINUOUS
 10
-10.6932426066
 20
0.2745144053
 11
-10.6835029011
 21
0.2747209287
  0
LWPOLYLINE
  5
36B
100
AcDbEntity
  8
0
100
AcDbPolyline
 62
250
  6
CONTINUOUS
 90
46
 70
0
 10
-4.8410949197
 20
0.2762402247
 10
-4.8341156244
 20
0.2763625743
 10
-4.8271448314
 20
0.2767284112
 10
-4.8201910328
 20
0.2773372897
 10
-4.8132626999
 20
0.2781884679
 10
-4.806368273
 20
0.2792809091
 10
-4.799516151
 20
0.2806132823
 10
-4.7927146815
 20
0.2821839644
 10
-4.7859721501
 20
0.283991042
 10
-4.7792967708
 20
0.2860323136
 10
-4.7726966758
 20
0.2883052925
 10
-4.7661799054
 20
0.2908072096
 10
-4.7597543985
 20
0.2935350172
 10
-4.753427983
 20
0.2964853921
 10
-4.7472083657
 20
0.29965474
 10
-4.7411031236
 20
0.3030392
 10
-4.7351196944
 20
0.3066346491
 10
-4.7292653671
 20
0.3104367071
 10
-4.7235472737
 20
0.3144407423
 10
-4.7179723801
 20
0.3186418768
 10
-4.7125474778
 20
0.3230349928
 10
-4.7072791756
 20
0.3276147383
 10
-4.7021738914
 20
0.3323755343
 10
-4.6972378447
 20
0.337311581
 10
-4.6924770487
 20
0.3424168652
 10
-4.6878973032
 20
0.3476851674
 10
-4.6835041872
 20
0.3531100697
 10
-4.6793030527
 20
0.3586849633
 10
-4.6752990175
 20
0.3644030567
 10
-4.6714969595
 20
0.370257384
 10
-4.6679015104
 20
0.3762408132
 10
-4.6645170504
 20
0.3823460553
 10
-4.6613477025
 20
0.3885656726
 10
-4.6583973276
 20
0.3948920881
 10
-4.65566952
 20
0.401317595
 10
-4.6531676028
 20
0.4078343654
 10
-4.650894624
 20
0.4144344604
 10
-4.6488533523
 20
0.4211098397
 10
-4.6470462748
 20
0.4278523711
 10
-4.6454755927
 20
0.4346538406
 10
-4.6441432195
 20
0.4415059626
 10
-4.6430507783
 20
0.4484003895
 10
-4.6421996001
 20
0.4553287224
 10
-4.6415907216
 20
0.462282521
 10
-4.6412248847
 20
0.469253314
 10
-4.6411025351
 20
0.4762326093
  0
LINE
  5
36C
100
AcDbEntity
  8
0
100
AcDbLine
 62
250
  6
CONTINUOUS
 10
-10.8975746773
 20
0.4742490183
 11
-10.8859244096
 21
0.4744753537
  0
LINE
  5
36D
100
AcDbEntity
  8
0
100
AcDbLine
 62
250
  6
CONTINUOUS
 10
-10.6835029011
 20
0.2747209287
 11
-10.6629107178
 21
0.2750466184
  0
LINE
  5
36E
100
AcDbEntity
  8
0
100
AcDbLine
 62
250
  6
CONTINUOUS
 10
-10.8859244096
 20
0.4744753537
 11
-10.8650358584
 21
0.4747671598
  0
LINE
  5
36F
100
AcDbEntity
  8
0
100
AcDbLine
 62
250
  6
CONTINUOUS
 10
4.7563592814
 20
0.4762481155
 11
4.755126011
 21
0.4762326135
  0
LINE
  5
370
100
AcDbEntity
  8
0
100
AcDbLine
 62
250
  6
CONTINUOUS
 10
4.7573845902
 20
0.9263020948
 11
4.7555995849
 21
0.9262784933
  0
LINE
  5
371
100
AcDbEntity
  8
0
100
AcDbLine
 62
250
  6
CONTINUOUS
 10
-10.6629107178
 20
0.2750466184
 11
-10.6256502465
 21
0.2754529773
  0
LINE
  5
372
100
AcDbEntity
  8
0
100
AcDbLine
 62
250
  6
CONTINUOUS
 10
-10.8650358584
 20
0.4747671598
 11
-10.8228058717
 21
0.4751757827
  0
LINE
  5
373
100
AcDbEntity
  8
0
100
AcDbLine
 62
250
  6
CONTINUOUS
 10
-10.6256502465
 20
0.2754529773
 11
-10.600448667
 21
0.2756535927
  0
LINE
  5
374
100
AcDbEntity
  8
0
100
AcDbLine
 62
250
  6
CONTINUOUS
 10
-10.8228058717
 20
0.4751757827
 11
-10.7585299633
 21
0.4755944438
  0
LINE
  5
375
100
AcDbEntity
  8
0
100
AcDbLine
 62
250
  6
CONTINUOUS
 10
4.7665899291
 20
0.9263596715
 11
4.7573845902
 21
0.9263020948
  0
LINE
  5
376
100
AcDbEntity
  8
0
100
AcDbLine
 62
250
  6
CONTINUOUS
 10
-10.7585299633
 20
0.4755944438
 11
-10.6805318084
 21
0.4759349021
  0
LINE
  5
377
100
AcDbEntity
  8
0
100
AcDbLine
 62
250
  6
CONTINUOUS
 10
-10.6805318084
 20
0.4759349021
 11
-10.5785617042
 21
0.4762111421
  0
LINE
  5
378
100
AcDbEntity
  8
0
100
AcDbLine
 62
250
  6
CONTINUOUS
 10
4.8141062945
 20
0.926479588
 11
4.7665899291
 21
0.9263596715
  0
LINE
  5
379
100
AcDbEntity
  8
0
100
AcDbLine
 62
250
  6
CONTINUOUS
 10
4.8307969584
 20
0.9265034428
 11
4.8141062945
 21
0.926479588
  0
LINE
  5
37A
100
AcDbEntity
  8
0
100
AcDbLine
 62
250
  6
CONTINUOUS
 10
4.8427952051
 20
0.9265176446
 11
4.8307969584
 21
0.9265034428
  0
LINE
  5
37B
100
AcDbEntity
  8
0
100
AcDbLine
 62
250
  6
CONTINUOUS
 10
4.855413495
 20
0.9265303926
 11
4.8427952051
 21
0.9265176446
  0
LINE
  5
37C
100
AcDbEntity
  8
0
100
AcDbLine
 62
250
  6
CONTINUOUS
 10
-10.5785617042
 20
0.4762111421
 11
-10.4679650445
 21
0.4763534835
  0
LWPOLYLINE
  5
37D
100
AcDbEntity
  8
0
100
AcDbPolyline
 62
250
  6
CONTINUOUS
 90
3
 70
0
 10
4.8753500131
 20
0.9265466365
 10
4.8685820431
 20
0.9265416161
 10
4.855413495
 20
0.9265303926
  0
LINE
  5
37E
100
AcDbEntity
  8
0
100
AcDbLine
 62
250
  6
CONTINUOUS
 10
4.8892065541
 20
0.9265554599
 11
4.8753500131
 21
0.9265466365
  0
LWPOLYLINE
  5
37F
100
AcDbEntity
  8
0
100
AcDbPolyline
 62
250
  6
CONTINUOUS
 90
3
 70
0
 10
4.910648169
 20
0.926565564
 10
4.9034264618
 20
0.9265626202
 10
4.8892065541
 20
0.9265554599
  0
LWPOLYLINE
  5
380
100
AcDbEntity
  8
0
100
AcDbPolyline
 62
250
  6
CONTINUOUS
 90
3
 70
0
 10
4.9326402316
 20
0.9265718029
 10
4.9252651622
 20
0.9265701585
 10
4.910648169
 20
0.926565564
  0
LINE
  5
381
100
AcDbEntity
  8
0
100
AcDbLine
 62
250
  6
CONTINUOUS
 10
4.755126011
 20
0.4762326135
 11
4.7549213581
 21
0.4762326093
  0
LINE
  5
382
100
AcDbEntity
  8
0
100
AcDbLine
 62
250
  6
CONTINUOUS
 10
-10.4112001141
 20
0.4763718669
 11
-4.8336625028
 21
0.4763847462
  0
LINE
  5
383
100
AcDbEntity
  8
0
100
AcDbLine
 62
250
  6
CONTINUOUS
 10
-10.4679650445
 20
0.4763534835
 11
-10.4112001141
 21
0.4763718675
  0
LWPOLYLINE
  5
384
100
AcDbEntity
  8
0
100
AcDbPolyline
 62
250
  6
CONTINUOUS
 90
3
 70
0
 10
4.9549092401
 20
0.9265740989
 10
4.9474725278
 20
0.9265737744
 10
4.9326402316
 20
0.9265718029
  0
LINE
  5
385
100
AcDbEntity
  8
0
100
AcDbLine
 62
7
  6
CONTINUOUS
 10
4.2431424302
 20
1.4144422583
 11
-4.1293236072
 21
1.4144422583
  0
LINE
  5
386
100
AcDbEntity
  8
0
100
AcDbLine
 62
250
  6
CONTINUOUS
 10
-4.1411011836
 20
1.4262216914
 11
4.2549198219
 21
1.4262216914
  0
LINE
  5
387
100
AcDbEntity
  8
0
100
AcDbLine
 62
250
  6
CONTINUOUS
 10
-4.1411030402
 20
1.6268135101
 11
4.2549218633
 21
1.6268135101
  0
LINE
  5
388
100
AcDbEntity
  8
0
100
AcDbLine
 62
250
  6
CONTINUOUS
 10
4.8039441282
 20
0.476326715
 11
4.7563592814
 21
0.4762481155
  0
LINE
  5
389
100
AcDbEntity
  8
0
100
AcDbLine
 62
250
  6
CONTINUOUS
 10
-4.7352168104
 20
0.4763501089
 11
-4.7169826385
 21
0.476341055
  0
LINE
  5
38A
100
AcDbEntity
  8
0
100
AcDbLine
 62
250
  6
CONTINUOUS
 10
-4.8410904171
 20
0.9265740989
 11
-4.7228955035
 21
0.9265107207
  0
LINE
  5
38B
100
AcDbEntity
  8
0
100
AcDbLine
 62
250
  6
CONTINUOUS
 10
-4.8336625028
 20
0.4763847462
 11
-4.7352168104
 21
0.4763501089
  0
LINE
  5
38C
100
AcDbEntity
  8
0
100
AcDbLine
 62
250
  6
CONTINUOUS
 10
10.5676336442
 20
0.4763614177
 11
4.8039441282
 21
0.476326715
  0
LINE
  5
38D
100
AcDbEntity
  8
0
100
AcDbLine
 62
250
  6
CONTINUOUS
 10
10.5676336442
 20
0.4763614177
 11
10.6789139017
 21
0.4762364682
  0
LINE
  5
38E
100
AcDbEntity
  8
0
100
AcDbLine
 62
250
  6
CONTINUOUS
 10
-4.7169826385
 20
0.476341055
 11
-4.6614455503
 21
0.4762927201
  0
LINE
  5
38F
100
AcDbEntity
  8
0
100
AcDbLine
 62
250
  6
CONTINUOUS
 10
10.6789139017
 20
0.4762364682
 11
10.7822616669
 21
0.4759763472
  0
LINE
  5
390
100
AcDbEntity
  8
0
100
AcDbLine
 62
250
  6
CONTINUOUS
 10
-4.6614455503
 20
0.4762927201
 11
-4.6464476793
 21
0.4762634289
  0
LINE
  5
391
100
AcDbEntity
  8
0
100
AcDbLine
 62
250
  6
CONTINUOUS
 10
-4.7228955035
 20
0.9265107207
 11
-4.6527710726
 21
0.9263596715
  0
LINE
  5
392
100
AcDbEntity
  8
0
100
AcDbLine
 62
250
  6
CONTINUOUS
 10
10.7822616669
 20
0.4759763472
 11
10.8619797979
 21
0.4756482068
  0
LINE
  5
393
100
AcDbEntity
  8
0
100
AcDbLine
 62
250
  6
CONTINUOUS
 10
-4.6464476793
 20
0.4762634289
 11
-4.6425404574
 21
0.4762481155
  0
LINE
  5
394
100
AcDbEntity
  8
0
100
AcDbLine
 62
250
  6
CONTINUOUS
 10
10.8619797979
 20
0.4756482068
 11
10.9283853508
 21
0.4752397696
  0
LINE
  5
395
100
AcDbEntity
  8
0
100
AcDbLine
 62
250
  6
CONTINUOUS
 10
-4.6527710726
 20
0.9263596715
 11
-4.6435657314
 21
0.9263020948
  0
LINE
  5
396
100
AcDbEntity
  8
0
100
AcDbLine
 62
250
  6
CONTINUOUS
 10
10.7142674901
 20
0.2756535927
 11
10.7565685222
 21
0.2752868184
  0
LINE
  5
397
100
AcDbEntity
  8
0
100
AcDbLine
 62
250
  6
CONTINUOUS
 10
10.9283853508
 20
0.4752397696
 11
10.972703429
 21
0.4748379056
  0
LWPOLYLINE
  5
398
100
AcDbEntity
  8
0
100
AcDbPolyline
 62
250
  6
CONTINUOUS
 90
61
 70
0
 10
4.2549218633
 20
1.6268135101
 10
4.273093489
 20
1.6265813729
 10
4.2912635348
 20
1.6258725961
 10
4.3094320006
 20
1.6246871795
 10
4.3276168572
 20
1.6230251735
 10
4.3458001337
 20
1.6208865278
 10
4.3639279181
 20
1.618271091
 10
4.3819993473
 20
1.6151764217
 10
4.4000152844
 20
1.6116049613
 10
4.4179244061
 20
1.6075638829
 10
4.4357257685
 20
1.6030509575
 10
4.4534203155
 20
1.5980684141
 10
4.4709595563
 20
1.5926301122
 10
4.4883391194
 20
1.586735706
 10
4.5055633763
 20
1.5803855412
 10
4.5225969502
 20
1.5735945146
 10
4.5394368051
 20
1.5663632568
 10
4.5560859769
 20
1.558691137
 10
4.5725181975
 20
1.5505911593
 10
4.5887347276
 20
1.5420622775
 10
4.6047343065
 20
1.5331055377
 10
4.6204868834
 20
1.5237370822
 10
4.6359939968
 20
1.5139548114
 10
4.6512541082
 20
1.5037608249
 10
4.6662325522
 20
1.4931775638
 10
4.6809282481
 20
1.4822042089
 10
4.6953422767
 20
1.4708415794
 10
4.7094432144
 20
1.4591145739
 10
4.7232293343
 20
1.4470233337
 10
4.7367023633
 20
1.4345677175
 10
4.7498360591
 20
1.4217722002
 10
4.7626298787
 20
1.4086361955
 10
4.7750843651
 20
1.3951602897
 10
4.7871749043
 20
1.3813707165
 10
4.7989016429
 20
1.3672657249
 10
4.8102644343
 20
1.352847066
 10
4.8212382253
 20
1.3381462265
 10
4.8318221559
 20
1.3231621764
 10
4.8420170859
 20
1.3078959456
 10
4.8518005413
 20
1.2923821122
 10
4.8611704145
 20
1.2766222559
 10
4.8701288131
 20
1.2606147968
 10
4.8786595855
 20
1.2443895724
 10
4.8867617398
 20
1.2279477497
 10
4.8944362679
 20
1.2112881617
 10
4.9016699942
 20
1.194437145
 10
4.9084635745
 20
1.1773915191
 10
4.9148163529
 20
1.1601544645
 10
4.9207131871
 20
1.1427618597
 10
4.9261536746
 20
1.1252093457
 10
4.9311382178
 20
1.1075012815
 10
4.9356528815
 20
1.0896866226
 10
4.9396953847
 20
1.0717645424
 10
4.9432680083
 20
1.0537358676
 10
4.9463636593
 20
1.0356520335
 10
4.9489798887
 20
1.0175123875
 10
4.9511191455
 20
0.9993175822
 10
4.9527816836
 20
0.9811210114
 10
4.9539675877
 20
0.9629404728
 10
4.9546767733
 20
0.9447581686
 10
4.9549092401
 20
0.9265740989
  0
LWPOLYLINE
  5
399
100
AcDbEntity
  8
0
100
AcDbPolyline
 62
250
  6
CONTINUOUS
 90
61
 70
0
 10
4.2549198218
 20
1.4262216913
 10
4.2678915686
 20
1.4260538641
 10
4.2808782956
 20
1.425548361
 10
4.2938711584
 20
1.4247036734
 10
4.3068644972
 20
1.4235181823
 10
4.3198460146
 20
1.4219910133
 10
4.3327968818
 20
1.420122892
 10
4.3457081247
 20
1.417914009
 10
4.3585706495
 20
1.4153648106
 10
4.3713656615
 20
1.4124783053
 10
4.3840839624
 20
1.4092562684
 10
4.3967170524
 20
1.4057005513
 10
4.409247589
 20
1.4018160818
 10
4.4216643635
 20
1.3976068732
 10
4.4339617173
 20
1.3930753867
 10
4.4461309751
 20
1.38822526
 10
4.4581619946
 20
1.3830610908
 10
4.4700486897
 20
1.3775860524
 10
4.4817884497
 20
1.3718015598
 10
4.4933742246
 20
1.3657109915
 10
4.5047970187
 20
1.3593189806
 10
4.5160511632
 20
1.3526285347
 10
4.5271302466
 20
1.3456431071
 10
4.538025064
 20
1.3383681377
 10
4.548725937
 20
1.3308099163
 10
4.5592252644
 20
1.3229737757
 10
4.5695160538
 20
1.3148648982
 10
4.5795899377
 20
1.3064899057
 10
4.589439314
 20
1.2978552873
 10
4.5990582619
 20
1.2889664068
 10
4.6084411816
 20
1.2798284886
 10
4.6175816386
 20
1.2704477785
 10
4.6264733368
 20
1.2608307172
 10
4.6351109882
 20
1.250982928
 10
4.6434892148
 20
1.2409103089
 10
4.6516015001
 20
1.2306204546
 10
4.6594411461
 20
1.2201217872
 10
4.667002926
 20
1.2094213313
 10
4.6742815195
 20
1.1985266417
 10
4.6812706476
 20
1.1874473364
 10
4.6879648323
 20
1.1761926395
 10
4.6943606153
 20
1.1647689289
 10
4.7004550345
 20
1.1531817279
 10
4.7062434541
 20
1.1414399557
 10
4.7117224261
 20
1.1295507182
 10
4.7168904739
 20
1.1175166791
 10
4.7217444285
 20
1.1053438295
 10
4.7262796207
 20
1.0930424
 10
4.7304922678
 20
1.0806214076
 10
4.7343798976
 20
1.068086543
 10
4.7379385
 20
1.0554490035
 10
4.7411630729
 20
1.0427264245
 10
4.7440517653
 20
1.0299274079
 10
4.7466028451
 20
1.0170610811
 10
4.7488133182
 20
1.0041462766
 10
4.750682757
 20
0.9911921327
 10
4.7522110009
 20
0.978207603
 10
4.7533973524
 20
0.9652114538
 10
4.7542427061
 20
0.9522159669
 10
4.7547486977
 20
0.9392268333
 10
4.7549168555
 20
0.9262529037
  0
LWPOLYLINE
  5
39A
100
AcDbEntity
  8
0
100
AcDbPolyline
 62
250
  6
CONTINUOUS
 90
3
 70
0
 10
-4.6425404574
 20
0.4762481155
 10
-4.6413071879
 20
0.4762326135
 10
-4.6411025351
 20
0.4762326093
  0
LINE
  5
39B
100
AcDbEntity
  8
0
100
AcDbLine
 62
250
  6
CONTINUOUS
 10
10.972703429
 20
0.4748379056
 11
10.9950873141
 21
0.4745495229
  0
LINE
  5
39C
100
AcDbEntity
  8
0
100
AcDbLine
 62
250
  6
CONTINUOUS
 10
10.7565685222
 20
0.2752868184
 11
10.7856004854
 21
0.2749194575
  0
LWPOLYLINE
  5
39D
100
AcDbEntity
  8
0
100
AcDbPolyline
 62
250
  6
CONTINUOUS
 90
4
 70
0
 10
-4.6435657314
 20
0.9263020948
 10
-4.6417807256
 20
0.9262784933
 10
-4.641301197
 20
0.9262666352
 10
-4.641097996
 20
0.9262547606
  0
LINE
  5
39E
100
AcDbEntity
  8
0
100
AcDbLine
 62
250
  6
CONTINUOUS
 10
10.9950873141
 20
0.4745495229
 11
11.0078996296
 21
0.4743250936
  0
LINE
  5
39F
100
AcDbEntity
  8
0
100
AcDbLine
 62
250
  6
CONTINUOUS
 10
10.7856004854
 20
0.2749194575
 11
10.8007940729
 21
0.2746528659
  0
LWPOLYLINE
  5
3A0
100
AcDbEntity
  8
0
100
AcDbPolyline
 62
250
  6
CONTINUOUS
 90
8
 70
0
 10
11.0078996296
 20
0.4743250936
 10
11.0144939075
 20
0.4741724868
 10
11.0171983106
 20
0.474095508
 10
11.0195045833
 20
0.4740180887
 10
11.0214109342
 20
0.4739403965
 10
11.0229157996
 20
0.4738624925
 10
11.0240178963
 20
0.4737843316
 10
11.0247162939
 20
0.4737059216
  0
LINE
  5
3A1
100
AcDbEntity
  8
0
100
AcDbLine
 62
250
  6
CONTINUOUS
 10
10.8007940729
 20
0.2746528659
 11
10.8098564375
 21
0.2744440076
  0
LWPOLYLINE
  5
3A2
100
AcDbEntity
  8
0
100
AcDbPolyline
 62
250
  6
CONTINUOUS
 90
10
 70
0
 10
10.8098564375
 20
0.2744440076
 10
10.8147487853
 20
0.2743013888
 10
10.8168461253
 20
0.2742291677
 10
10.8187060057
 20
0.274156515
 10
10.8203278558
 20
0.2740834274
 10
10.8217122464
 20
0.2740099082
 10
10.8228557998
 20
0.2739361422
 10
10.8237573899
 20
0.2738621909
 10
10.8244181427
 20
0.2737879929
 10
10.8248380583
 20
0.273713548
  0
LINE
  5
3A3
100
AcDbEntity
  8
0
100
AcDbLine
 62
250
  6
CONTINUOUS
 10
-11.0667832791
 20
-21.5825190297
 11
-10.9647562701
 21
-21.4294007265
  0
LINE
  5
3A4
100
AcDbEntity
  8
0
100
AcDbLine
 62
250
  6
CONTINUOUS
 10
-10.5658723937
 20
-22.0800096625
 11
-10.4650608566
 21
-21.9287154938
  0
LINE
  5
3A5
100
AcDbEntity
  8
0
100
AcDbLine
 62
250
  6
CONTINUOUS
 10
4.2431424302
 20
1.4144422583
 11
4.2549198219
 21
1.4262216914
  0
LINE
  5
3A6
100
AcDbEntity
  8
0
100
AcDbLine
 62
250
  6
CONTINUOUS
 10
4.7549213581
 20
0.4762326093
 11
4.7431233918
 21
0.4644346429
  0
LINE
  5
3A7
100
AcDbEntity
  8
0
100
AcDbLine
 62
250
  6
CONTINUOUS
 10
4.9549137427
 20
0.2762402247
 11
4.9401378286
 21
0.2614643106
  0
LINE
  5
3A8
100
AcDbEntity
  8
0
100
AcDbLine
 62
250
  6
CONTINUOUS
 10
4.7431233918
 20
0.9144612968
 11
4.7549168555
 21
0.9262529037
  0
LINE
  5
3A9
100
AcDbEntity
  8
0
100
AcDbLine
 62
250
  6
CONTINUOUS
 10
-10.8930296271
 20
0.2282282781
 11
-10.7110192352
 21
0.273713548
  0
LINE
  5
3AA
100
AcDbEntity
  8
0
100
AcDbLine
 62
250
  6
CONTINUOUS
 10
-11.0930905885
 20
0.4281749811
 11
-10.9108974709
 21
0.4737059151
  0
LWPOLYLINE
  5
3AB
100
AcDbEntity
  8
0
100
AcDbPolyline
 62
250
  6
CONTINUOUS
 90
8
 70
0
 10
-10.7110192352
 20
0.273713548
 10
-10.7105993197
 20
0.2737879929
 10
-10.7099385669
 20
0.2738621909
 10
-10.7090369768
 20
0.2739361422
 10
-10.7078934234
 20
0.2740099082
 10
-10.7065090328
 20
0.2740834274
 10
-10.7048871827
 20
0.274156515
 10
-10.7030273022
 20
0.2742291677
  0
LWPOLYLINE
  5
3AC
100
AcDbEntity
  8
0
100
AcDbPolyline
 62
7
  6
CONTINUOUS
 90
2
 70
0
 43
0.3500000019
 10
18.4716044922
 20
3.1639424744
 10
16.9716030273
 20
3.1639424744
  0
LINE
  5
3AD
100
AcDbEntity
  8
0
100
AcDbLine
 62
250
  6
CONTINUOUS
 10
10.8248380583
 20
0.273713548
 11
11.0068484501
 21
0.2282282781
  0
LINE
  5
3AE
100
AcDbEntity
  8
0
100
AcDbLine
 62
250
  6
CONTINUOUS
 10
11.0247162939
 20
0.4737059151
 11
11.2069094115
 21
0.4281749811
  0
LINE
  5
3AF
100
AcDbEntity
  8
0
100
AcDbLine
 62
250
  6
CONTINUOUS
 10
4.7431233918
 20
-0.6580047406
 11
4.7549168556
 21
-0.6697961628
  0
LINE
  5
3B0
100
AcDbEntity
  8
0
100
AcDbLine
 62
250
  6
CONTINUOUS
 10
4.7431233918
 20
-0.2079780868
 11
4.7549213581
 21
-0.2197760531
  0
LINE
  5
3B1
100
AcDbEntity
  8
0
100
AcDbLine
 62
250
  6
CONTINUOUS
 10
4.9401378286
 20
-0.0050077544
 11
4.9549137427
 21
-0.0197836685
  0
LINE
  5
3B2
100
AcDbEntity
  8
0
100
AcDbLine
 62
250
  6
CONTINUOUS
 10
4.2431424302
 20
-1.1579857021
 11
4.2549200066
 21
-1.1697651352
  0
LINE
  5
3B3
100
AcDbEntity
  8
0
100
AcDbLine
 62
250
  6
CONTINUOUS
 10
-10.9647562701
 20
21.6858572826
 11
-11.0667832791
 21
21.8389755858
  0
LINE
  5
3B4
100
AcDbEntity
  8
0
100
AcDbLine
 62
250
  6
CONTINUOUS
 10
-10.4650608566
 20
22.18517205
 11
-10.5658723937
 21
22.3364662187
  0
LWPOLYLINE
  5
3B5
100
AcDbEntity
  8
0
100
AcDbPolyline
 62
250
  6
CONTINUOUS
 90
46
 70
0
 10
4.7549213581
 20
0.4762326093
 10
4.7550437078
 20
0.469253314
 10
4.7554095446
 20
0.462282521
 10
4.7560184231
 20
0.4553287224
 10
4.7568696013
 20
0.4484003895
 10
4.7579620425
 20
0.4415059626
 10
4.7592944157
 20
0.4346538406
 10
4.7608650978
 20
0.4278523711
 10
4.7626721754
 20
0.4211098397
 10
4.764713447
 20
0.4144344604
 10
4.7669864259
 20
0.4078343654
 10
4.7694883431
 20
0.401317595
 10
4.7722161506
 20
0.3948920881
 10
4.7751665255
 20
0.3885656726
 10
4.7783358734
 20
0.3823460553
 10
4.7817203334
 20
0.3762408132
 10
4.7853157825
 20
0.370257384
 10
4.7891178405
 20
0.3644030567
 10
4.7931218757
 20
0.3586849633
 10
4.7973230102
 20
0.3531100697
 10
4.8017161262
 20
0.3476851674
 10
4.8062958718
 20
0.3424168652
 10
4.8110566677
 20
0.337311581
 10
4.8159927144
 20
0.3323755343
 10
4.8210979986
 20
0.3276147383
 10
4.8263663008
 20
0.3230349928
 10
4.8317912031
 20
0.3186418768
 10
4.8373660967
 20
0.3144407423
 10
4.8430841901
 20
0.3104367071
 10
4.8489385174
 20
0.3066346491
 10
4.8549219467
 20
0.3030392
 10
4.8610271887
 20
0.29965474
 10
4.867246806
 20
0.2964853921
 10
4.8735732215
 20
0.2935350172
 10
4.8799987284
 20
0.2908072096
 10
4.8865154988
 20
0.2883052925
 10
4.8931155939
 20
0.2860323136
 10
4.8997909732
 20
0.283991042
 10
4.9065335045
 20
0.2821839644
 10
4.9133349741
 20
0.2806132823
 10
4.920187096
 20
0.2792809091
 10
4.9270815229
 20
0.2781884679
 10
4.9340098558
 20
0.2773372897
 10
4.9409636544
 20
0.2767284112
 10
4.9479344474
 20
0.2763625743
 10
4.9549137427
 20
0.2762402247
  0
LINE
  5
3B6
100
AcDbEntity
  8
0
100
AcDbLine
 62
250
  6
CONTINUOUS
 10
4.2549218633
 20
1.6268135101
 11
4.2549218633
 21
1.4262216914
  0
LINE
  5
3B7
100
AcDbEntity
  8
0
100
AcDbLine
 62
250
  6
CONTINUOUS
 10
4.2549218633
 20
-1.3703569539
 11
4.2549218633
 21
-1.1697651352
  0
LINE
  5
3B8
100
AcDbEntity
  8
0
100
AcDbLine
 62
7
  6
CONTINUOUS
 10
4.7431233918
 20
-0.6580047406
 11
4.7431233918
 21
-0.2079780868
  0
LINE
  5
3B9
100
AcDbEntity
  8
0
100
AcDbLine
 62
7
  6
CONTINUOUS
 10
4.7431233918
 20
0.4644346429
 11
4.7431233918
 21
0.9144612968
  0
LINE
  5
3BA
100
AcDbEntity
  8
0
100
AcDbLine
 62
250
  6
CONTINUOUS
 10
4.7549168555
 20
0.9262529037
 11
4.7549213581
 21
0.4762326093
  0
LINE
  5
3BB
100
AcDbEntity
  8
0
100
AcDbLine
 62
250
  6
CONTINUOUS
 10
4.7549213581
 20
-0.2197760531
 11
4.7549168556
 21
-0.6697961628
  0
LINE
  5
3BC
100
AcDbEntity
  8
0
100
AcDbLine
 62
250
  6
CONTINUOUS
 10
4.9549092401
 20
0.9265740989
 11
4.9549137427
 21
0.2762402247
  0
LINE
  5
3BD
100
AcDbEntity
  8
0
100
AcDbLine
 62
250
  6
CONTINUOUS
 10
4.9549137427
 20
-0.0197836685
 11
4.9549092401
 21
-0.6701175427
  0
LWPOLYLINE
  5
3BE
100
AcDbEntity
  8
0
100
AcDbPolyline
 62
250
  6
CONTINUOUS
 90
61
 70
0
 10
4.9549092401
 20
-0.6701175427
 10
4.9546766935
 20
-0.6883049303
 10
4.9539672483
 20
-0.7064905643
 10
4.9527809044
 20
-0.7246744447
 10
4.9511176968
 20
-0.7428745859
 10
4.9489775906
 20
-0.7610729733
 10
4.9463604807
 20
-0.7792155636
 10
4.9432639185
 20
-0.7973014874
 10
4.9396903525
 20
-0.815331614
 10
4.9356470236
 20
-0.8332545075
 10
4.9311316977
 20
-0.8510692158
 10
4.926146609
 20
-0.8687766909
 10
4.9207057005
 20
-0.886328354
 10
4.9148086261
 20
-0.9037198185
 10
4.9084557319
 20
-0.9209554708
 10
4.9016619999
 20
-0.9379998913
 10
4.8944280552
 20
-0.9548500452
 10
4.8867532727
 20
-0.9715089672
 10
4.8786507588
 20
-0.9879503418
 10
4.8701194621
 20
-1.004175427
 10
4.861160434
 20
-1.0201829649
 10
4.8517899362
 20
-1.0359428658
 10
4.8420058727
 20
-1.0514566526
 10
4.8318103393
 20
-1.0667228025
 10
4.821225885
 20
-1.0817066583
 10
4.8102516972
 20
-1.0964071266
 10
4.7988885884
 20
-1.1108253007
 10
4.7871615453
 20
-1.1249298037
 10
4.775070714
 20
-1.1387189022
 10
4.7626159483
 20
-1.1521943295
 10
4.7498217961
 20
-1.1653299089
 10
4.7366876733
 20
-1.1781250952
 10
4.7232141639
 20
-1.1905804336
 10
4.7094275678
 20
-1.2026713829
 10
4.6953261405
 20
-1.2143980844
 10
4.6809116263
 20
-1.225760397
 10
4.6662155587
 20
-1.236733355
 10
4.6512369201
 20
-1.2473160922
 10
4.6359767281
 20
-1.257509475
 10
4.6204695676
 20
-1.2672911375
 10
4.6047170344
 20
-1.2766589685
 10
4.5887175328
 20
-1.2856150794
 10
4.5725008613
 20
-1.2941434375
 10
4.5560681892
 20
-1.3022430567
 10
4.5394183473
 20
-1.3099149233
 10
4.522577626
 20
-1.3171459636
 10
4.5055428435
 20
-1.323936839
 10
4.4883171816
 20
-1.3302868882
 10
4.4709364764
 20
-1.3361810539
 10
4.4533963845
 20
-1.341618934
 10
4.4357012492
 20
-1.3466009307
 10
4.4178999372
 20
-1.3511131925
 10
4.3999916297
 20
-1.3551534441
 10
4.3819771455
 20
-1.358723961
 10
4.3639078073
 20
-1.3618177179
 10
4.345782968
 20
-1.3644322731
 10
4.3276032746
 20
-1.3665700684
 10
4.309421991
 20
-1.3682314042
 10
4.2912568719
 20
-1.3694163803
 10
4.2730901627
 20
-1.3701248969
 10
4.2549218633
 20
-1.3703569539
  0
LWPOLYLINE
  5
3BF
100
AcDbEntity
  8
0
100
AcDbPolyline
 62
250
  6
CONTINUOUS
 90
61
 70
0
 10
4.7549168555
 20
-0.6697961627
 10
4.7547486041
 20
-0.682773883
 10
4.7542423387
 20
-0.6957664774
 10
4.753396556
 20
-0.708765089
 10
4.7522096413
 20
-0.7217640603
 10
4.7506807278
 20
-0.7347510676
 10
4.7488105569
 20
-0.747707228
 10
4.7465993303
 20
-0.7606235553
 10
4.7440475058
 20
-0.7734909471
 10
4.7411581159
 20
-0.7862905612
 10
4.7379329518
 20
-0.7990131889
 10
4.7343738806
 20
-0.8116503256
 10
4.7304858597
 20
-0.8241845921
 10
4.7262729236
 20
-0.8366047691
 10
4.7217375506
 20
-0.8489052002
 10
4.7168834052
 20
-0.8610771952
 10
4.7117151028
 20
-0.873110616
 10
4.7062358387
 20
-0.8849993705
 10
4.7004470636
 20
-0.8967408199
 10
4.6943521764
 20
-0.9083279192
 10
4.6879558331
 20
-0.9197516738
 10
4.6812610866
 20
-0.9310063854
 10
4.6742714174
 20
-0.9420856434
 10
4.6669922857
 20
-0.9529802578
 10
4.6594300185
 20
-0.9636805469
 10
4.6515899758
 20
-0.9741789163
 10
4.6434773594
 20
-0.9844683911
 10
4.6350988176
 20
-0.9945406192
 10
4.6264608622
 20
-1.0043880125
 10
4.6175688766
 20
-1.0140046672
 10
4.6084281054
 20
-1.0233850048
 10
4.5990448121
 20
-1.0325226099
 10
4.5894254565
 20
-1.0414112039
 10
4.5795756833
 20
-1.0500455189
 10
4.5695014078
 20
-1.0584201965
 10
4.5592102387
 20
-1.0665287431
 10
4.548710613
 20
-1.0743644871
 10
4.5380095732
 20
-1.081922221
 10
4.527114681
 20
-1.089196652
 10
4.5160355502
 20
-1.0961815387
 10
4.5047814199
 20
-1.102871423
 10
4.4933586689
 20
-1.1092628743
 10
4.4817727909
 20
-1.1153529751
 10
4.4700327058
 20
-1.1211371133
 10
4.4581455246
 20
-1.1266118606
 10
4.4461138842
 20
-1.131775776
 10
4.4339437694
 20
-1.1366257123
 10
4.421645415
 20
-1.1411570183
 10
4.4092278236
 20
-1.1453659379
 10
4.3966966885
 20
-1.1492500158
 10
4.3840631963
 20
-1.1528052635
 10
4.371344945
 20
-1.1560267087
 10
4.3585505316
 20
-1.158912516
 10
4.3456890732
 20
-1.1614609693
 10
4.3327793547
 20
-1.1636690983
 10
4.3198305055
 20
-1.1655364872
 10
4.3068514676
 20
-1.1670629864
 10
4.2938609536
 20
-1.1682479141
 10
4.2808712191
 20
-1.1690921724
 10
4.2678879573
 20
-1.1695974015
 10
4.2549200066
 20
-1.1697651351
  0
LWPOLYLINE
  5
3C0
100
AcDbEntity
  8
0
100
AcDbPolyline
 62
250
  6
CONTINUOUS
 90
13
 70
0
 10
10.5788796796
 20
22.18517205
 10
10.5784608166
 20
22.1836272766
 10
10.5780432096
 20
22.1815074429
 10
10.5776268585
 20
22.1788137792
 10
10.5772115293
 20
22.1755478526
 10
10.5767974561
 20
22.1717115502
 10
10.5763853414
 20
22.167307068
 10
10.5759751805
 20
22.1623369281
 10
10.5755669782
 20
22.1568040089
 10
10.5751614503
 20
22.1507115288
 10
10.5747586066
 20
22.1440630224
 10
10.5743584375
 20
22.1368623181
 10
10.5735681886
 20
22.1208212141
  0
LINE
  5
3C1
100
AcDbEntity
  8
RACCORDO
100
AcDbLine
 62
7
  6
CONTINUOUS
 10
10.0573795355
 20
0.0020476747
 11
10.0675026076
 21
0.0071088253
  0
LINE
  5
3C2
100
AcDbEntity
  8
RACCORDO
100
AcDbLine
 62
250
  6
CONTINUOUS
 10
10.1046051468
 20
0.0020476747
 11
10.1569703416
 21
0.0282282781
  0
LINE
  5
3C3
100
AcDbEntity
  8
DRAFT
100
AcDbLine
 62
7
  6
CONTINUOUS
 10
9.9569094115
 20
0.2282282781
 11
9.9045442167
 21
0.2544088815
  0
LWPOLYLINE
  5
3C4
100
AcDbEntity
  8
0
100
AcDbPolyline
 62
7
  6
CONTINUOUS
 90
3
 70
0
 43
0.3500000019
 10
18.1858891602
 20
1.1639425354
 10
18.4001743164
 20
1.0925139542
 10
18.6858896484
 20
0.9496568756
  0
LWPOLYLINE
  5
3C5
100
AcDbEntity
  8
0
100
AcDbPolyline
 62
7
  6
CONTINUOUS
 90
10
 70
0
 43
0.3500000019
 10
17.9716040039
 20
1.0925139542
 10
18.1144643555
 20
1.1639425354
 10
18.1858891602
 20
1.1639425354
 10
18.3287495117
 20
1.0210854568
 10
18.3287495117
 20
0.9496568756
 10
18.2573193359
 20
0.8782282944
 10
18.1858891602
 20
0.8782282944
 10
18.0430341797
 20
0.9496568756
 10
17.9716040039
 20
1.0210854568
 10
17.9716040039
 20
1.0925139542
  0
LINE
  5
3C6
100
AcDbEntity
  8
0
100
AcDbLine
 62
7
  6
CONTINUOUS
 10
-2.4179643218
 20
13.9288379424
 11
-1.5340808465
 21
13.0449544671
  0
LINE
  5
3C7
100
AcDbEntity
  8
ASSI
100
AcDbLine
 62
7
  6
CONTINUOUS
 10
-2.4179643218
 20
13.9288379424
 11
-1.5340808465
 21
13.0449544671
  0
LINE
  5
3C8
100
AcDbEntity
  8
0
100
AcDbLine
 62
7
  6
CONTINUOUS
 10
1.2236356012
 20
10.2872380194
 11
2.1075190765
 21
9.4033545441
  0
LINE
  5
3C9
100
AcDbEntity
  8
ASSI
100
AcDbLine
 62
7
  6
CONTINUOUS
 10
1.2236356012
 20
10.2872380194
 11
2.1075190765
 21
9.4033545441
  0
LWPOLYLINE
  5
3CA
100
AcDbEntity
  8
0
100
AcDbPolyline
 62
250
  6
CONTINUOUS
 90
17
 70
0
 10
11.0721055847
 20
-21.3831829813
 10
11.0724875884
 20
-21.3881287909
 10
11.0728736365
 20
-21.3928100923
 10
11.073263722
 20
-21.3972273431
 10
11.0736571703
 20
-21.401372898
 10
11.0740539869
 20
-21.4052462843
 10
11.0744541664
 20
-21.4088479747
 10
11.0748570177
 20
-21.412171742
 10
11.0752625464
 20
-21.4152171093
 10
11.0756707469
 20
-21.4179845535
 10
11.076080912
 20
-21.4204692775
 10
11.0764930519
 20
-21.4226708002
 10
11.0769071562
 20
-21.4245896028
 10
11.0773224864
 20
-21.4262223321
 10
11.0777387962
 20
-21.4275678702
 10
11.0781563317
 20
-21.428627335
 10
11.0785750931
 20
-21.4294007265
  0
LINE
  5
3CB
100
AcDbEntity
  8
0
100
AcDbLine
 62
250
  6
CONTINUOUS
 10
11.0713543432
 20
-21.3725082274
 11
11.0721055847
 21
-21.3831829813
  0
LINE
  5
3CC
100
AcDbEntity
  8
0
100
AcDbLine
 62
250
  6
CONTINUOUS
 10
11.0706218815
 20
-21.3608124566
 11
11.0713543432
 21
-21.3725082274
  0
LWPOLYLINE
  5
3CD
100
AcDbEntity
  8
0
100
AcDbPolyline
 62
250
  6
CONTINUOUS
 90
11
 70
0
 10
10.5747586066
 20
-21.8876064662
 10
10.5751614503
 20
-21.8942549727
 10
10.5755669782
 20
-21.9003474527
 10
10.5759751805
 20
-21.9058803719
 10
10.5763853414
 20
-21.9108505119
 10
10.5767974561
 20
-21.915254994
 10
10.5772115293
 20
-21.9190912964
 10
10.5776268585
 20
-21.922357223
 10
10.5780432096
 20
-21.9250508868
 10
10.5784608166
 20
-21.9271707205
 10
10.5788796796
 20
-21.9287154938
  0
LINE
  5
3CE
100
AcDbEntity
  8
0
100
AcDbLine
 62
250
  6
CONTINUOUS
 10
11.0699100801
 20
-21.3481271613
 11
11.0706218815
 21
-21.3608124566
  0
LINE
  5
3CF
100
AcDbEntity
  8
0
100
AcDbLine
 62
250
  6
CONTINUOUS
 10
10.5739616302
 20
-21.8726570044
 11
10.5747586066
 21
-21.8876064662
  0
LINE
  5
3D0
100
AcDbEntity
  8
0
100
AcDbLine
 62
250
  6
CONTINUOUS
 10
11.0692201689
 20
-21.3344742834
 11
11.0699100801
 21
-21.3481271613
  0
LINE
  5
3D1
100
AcDbEntity
  8
0
100
AcDbLine
 62
250
  6
CONTINUOUS
 10
11.0685539608
 20
-21.3198882239
 11
11.0692201689
 21
-21.3344742834
  0
LINE
  5
3D2
100
AcDbEntity
  8
0
100
AcDbLine
 62
250
  6
CONTINUOUS
 10
10.5731781088
 20
-21.8555335149
 11
10.5739616302
 21
-21.8726570044
  0
LINE
  5
3D3
100
AcDbEntity
  8
0
100
AcDbLine
 62
250
  6
CONTINUOUS
 10
11.0679131595
 20
-21.3044078923
 11
11.0685539608
 21
-21.3198882239
  0
LINE
  5
3D4
100
AcDbEntity
  8
0
100
AcDbLine
 62
250
  6
CONTINUOUS
 10
10.57241007
 20
-21.8362755629
 11
10.5731781088
 21
-21.8555335149
  0
LINE
  5
3D5
100
AcDbEntity
  8
0
100
AcDbLine
 62
250
  6
CONTINUOUS
 10
10.571290273
 20
-21.8034851307
 11
10.57241007
 21
-21.8362755629
  0
LINE
  5
3D6
100
AcDbEntity
  8
0
100
AcDbLine
 62
250
  6
CONTINUOUS
 10
10.5702146055
 20
-21.7661637292
 11
10.571290273
 21
-21.8034851307
  0
LINE
  5
3D7
100
AcDbEntity
  8
0
100
AcDbLine
 62
250
  6
CONTINUOUS
 10
10.5688585106
 20
-21.7096919163
 11
10.5702146055
 21
-21.7661637292
  0
LWPOLYLINE
  5
3D8
100
AcDbEntity
  8
0
100
AcDbPolyline
 62
250
  6
CONTINUOUS
 90
3
 70
0
 10
10.5670173025
 20
-21.6116899226
 10
10.5673068593
 20
-21.6290630799
 10
10.5688585106
 20
-21.7096919163
  0
LINE
  5
3D9
100
AcDbEntity
  8
0
100
AcDbLine
 62
250
  6
CONTINUOUS
 10
10.5685348642
 20
21.950885711
 11
10.5670173025
 21
21.8681464787
  0
LINE
  5
3DA
100
AcDbEntity
  8
0
100
AcDbLine
 62
250
  6
CONTINUOUS
 10
10.5698666958
 20
22.0092057927
 11
10.5685348642
 21
21.950885711
  0
LINE
  5
3DB
100
AcDbEntity
  8
0
100
AcDbLine
 62
250
  6
CONTINUOUS
 10
10.5709263941
 20
22.0479955563
 11
10.5698666958
 21
22.0092057927
  0
LINE
  5
3DC
100
AcDbEntity
  8
0
100
AcDbLine
 62
250
  6
CONTINUOUS
 10
10.5720321109
 20
22.0823164258
 11
10.5709263941
 21
22.0479955563
  0
LINE
  5
3DD
100
AcDbEntity
  8
0
100
AcDbLine
 62
250
  6
CONTINUOUS
 10
10.5727920667
 20
22.1026252374
 11
10.5720321109
 21
22.0823164258
  0
LINE
  5
3DE
100
AcDbEntity
  8
0
100
AcDbLine
 62
250
  6
CONTINUOUS
 10
10.5735681886
 20
22.1208212141
 11
10.5727920667
 21
22.1026252374
  0
LINE
  5
3DF
100
AcDbEntity
  8
0
100
AcDbLine
 62
250
  6
CONTINUOUS
 10
11.0688841044
 20
21.5837543556
 11
11.0679131595
 21
21.5608644485
  0
LINE
  5
3E0
100
AcDbEntity
  8
0
100
AcDbLine
 62
250
  6
CONTINUOUS
 10
11.0695621641
 20
21.5978738243
 11
11.0688841044
 21
21.5837543556
  0
LINE
  5
3E1
100
AcDbEntity
  8
0
100
AcDbLine
 62
250
  6
CONTINUOUS
 10
11.0702633161
 20
21.61104892
 11
11.0695621641
 21
21.5978738243
  0
LINE
  5
3E2
100
AcDbEntity
  8
0
100
AcDbLine
 62
250
  6
CONTINUOUS
 10
11.0709857669
 20
21.6232444148
 11
11.0702633161
 21
21.61104892
  0
LINE
  5
3E3
100
AcDbEntity
  8
0
100
AcDbLine
 62
7
  6
CONTINUOUS
 10
-2.0416477473
 20
-12.4869641008
 11
-1.5220325041
 21
-12.1869641007
  0
LINE
  5
3E4
100
AcDbEntity
  8
ASSI
100
AcDbLine
 62
7
  6
CONTINUOUS
 10
-2.0416477473
 20
-12.4869641008
 11
-1.5220325041
 21
-12.1869641007
  0
LINE
  5
3E5
100
AcDbEntity
  8
0
100
AcDbLine
 62
7
  6
CONTINUOUS
 10
1.3358513277
 20
-10.5369641008
 11
1.8554665709
 21
-10.2369641007
  0
LINE
  5
3E6
100
AcDbEntity
  8
ASSI
100
AcDbLine
 62
7
  6
CONTINUOUS
 10
1.3358513277
 20
-10.5369641008
 11
1.8554665709
 21
-10.2369641007
  0
LINE
  5
3E7
100
AcDbEntity
  8
0
100
AcDbLine
 62
250
  6
CONTINUOUS
 10
-10.8844143046
 20
9.6216540495
 11
-10.8739659725
 21
9.6221635266
  0
LINE
  5
3E8
100
AcDbEntity
  8
0
100
AcDbLine
 62
250
  6
CONTINUOUS
 10
-10.8739659725
 20
9.6221635266
 11
-10.8620307554
 21
9.6226618905
  0
LINE
  5
3E9
100
AcDbEntity
  8
0
100
AcDbLine
 62
250
  6
CONTINUOUS
 10
-10.8620307554
 20
9.6226618905
 11
-10.8486472642
 21
9.623147529
  0
LINE
  5
3EA
100
AcDbEntity
  8
0
100
AcDbLine
 62
250
  6
CONTINUOUS
 10
-10.8486472642
 20
9.623147529
 11
-10.8259524704
 21
9.6238487026
  0
LINE
  5
3EB
100
AcDbEntity
  8
0
100
AcDbLine
 62
250
  6
CONTINUOUS
 10
-10.8259524704
 20
9.6238487026
 11
-10.7910655636
 21
9.6247248001
  0
LINE
  5
3EC
100
AcDbEntity
  8
0
100
AcDbLine
 62
250
  6
CONTINUOUS
 10
-10.7910655636
 20
9.6247248001
 11
-10.7513078023
 21
9.6255233645
  0
LINE
  5
3ED
100
AcDbEntity
  8
0
100
AcDbLine
 62
250
  6
CONTINUOUS
 10
-10.7513078023
 20
9.6255233645
 11
-10.7071932415
 21
9.6262340707
  0
LINE
  5
3EE
100
AcDbEntity
  8
0
100
AcDbLine
 62
250
  6
CONTINUOUS
 10
-10.7071932415
 20
9.6262340707
 11
-10.6592922681
 21
9.6268477294
  0
LINE
  5
3EF
100
AcDbEntity
  8
0
100
AcDbLine
 62
250
  6
CONTINUOUS
 10
-10.6592922681
 20
9.6268477294
 11
-10.6082242261
 21
9.6273564063
  0
LINE
  5
3F0
100
AcDbEntity
  8
0
100
AcDbLine
 62
250
  6
CONTINUOUS
 10
-10.6082242261
 20
9.6273564063
 11
-10.5546494087
 21
9.6277535242
  0
LINE
  5
3F1
100
AcDbEntity
  8
0
100
AcDbLine
 62
250
  6
CONTINUOUS
 10
-10.5546494087
 20
9.6277535242
 11
-10.4992605209
 21
9.6280339486
  0
LINE
  5
3F2
100
AcDbEntity
  8
0
100
AcDbLine
 62
250
  6
CONTINUOUS
 10
-10.4992605209
 20
9.6280339486
 11
-10.442773723
 21
9.6281940538
  0
LINE
  5
3F3
100
AcDbEntity
  8
0
100
AcDbLine
 62
250
  6
CONTINUOUS
 10
-10.442773723
 20
9.6281940538
 11
-1.7688265195
 21
9.6282282781
  0
LINE
  5
3F4
100
AcDbEntity
  8
ASSI
100
AcDbLine
 62
250
  6
CONTINUOUS
 10
-1.7688265195
 20
9.6282282781
 11
-0.2430905838
 21
9.6282282781
  0
LINE
  5
3F5
100
AcDbEntity
  8
0
100
AcDbLine
 62
250
  6
CONTINUOUS
 10
-0.2430905838
 20
9.6282282781
 11
0.3569094106
 21
9.6282282781
  0
LINE
  5
3F6
100
AcDbEntity
  8
ASSI
100
AcDbLine
 62
250
  6
CONTINUOUS
 10
0.3569094106
 20
9.6282282781
 11
1.8826453425
 21
9.6282282781
  0
LINE
  5
3F7
100
AcDbEntity
  8
0
100
AcDbLine
 62
250
  6
CONTINUOUS
 10
10.6270577847
 20
9.6279750071
 11
1.8826453425
 21
9.6282282781
  0
LINE
  5
3F8
100
AcDbEntity
  8
0
100
AcDbLine
 62
250
  6
CONTINUOUS
 10
10.7350714838
 20
9.6272394628
 11
10.6270577847
 21
9.6279750071
  0
LINE
  5
3F9
100
AcDbEntity
  8
0
100
AcDbLine
 62
250
  6
CONTINUOUS
 10
10.8210120646
 20
9.6262340707
 11
10.7350714838
 21
9.6272394628
  0
LINE
  5
3FA
100
AcDbEntity
  8
0
100
AcDbLine
 62
250
  6
CONTINUOUS
 10
10.8754956125
 20
9.6253315752
 11
10.8210120646
 21
9.6262340707
  0
LINE
  5
3FB
100
AcDbEntity
  8
0
100
AcDbLine
 62
250
  6
CONTINUOUS
 10
10.9140815003
 20
9.624512618
 11
10.8754956125
 21
9.6253315752
  0
LINE
  5
3FC
100
AcDbEntity
  8
0
100
AcDbLine
 62
250
  6
CONTINUOUS
 10
10.9397712934
 20
9.6238487026
 11
10.9140815003
 21
9.624512618
  0
LINE
  5
3FD
100
AcDbEntity
  8
0
100
AcDbLine
 62
250
  6
CONTINUOUS
 10
10.9624660872
 20
9.623147529
 11
10.9397712934
 21
9.6238487026
  0
LINE
  5
3FE
100
AcDbEntity
  8
0
100
AcDbLine
 62
250
  6
CONTINUOUS
 10
10.9758495785
 20
9.6226618905
 11
10.9624660872
 21
9.623147529
  0
LINE
  5
3FF
100
AcDbEntity
  8
0
100
AcDbLine
 62
250
  6
CONTINUOUS
 10
10.9877847956
 20
9.6221635266
 11
10.9758495785
 21
9.6226618905
  0
LINE
  5
400
100
AcDbEntity
  8
0
100
AcDbLine
 62
7
  6
CONTINUOUS
 10
-1.9937002537
 20
14.3531020123
 11
-1.1098167775
 21
13.4692185361
  0
LINE
  5
401
100
AcDbEntity
  8
ASSI
100
AcDbLine
 62
7
  6
CONTINUOUS
 10
-1.9937002537
 20
14.3531020123
 11
-1.1098167775
 21
13.4692185361
  0
LINE
  5
402
100
AcDbEntity
  8
0
100
AcDbLine
 62
7
  6
CONTINUOUS
 10
1.6478996697
 20
10.7115020889
 11
2.5317831455
 21
9.8276186131
  0
LINE
  5
403
100
AcDbEntity
  8
ASSI
100
AcDbLine
 62
7
  6
CONTINUOUS
 10
1.6478996697
 20
10.7115020889
 11
2.5317831455
 21
9.8276186131
  0
LINE
  5
404
100
AcDbEntity
  8
0
100
AcDbLine
 62
250
  6
CONTINUOUS
 10
11.0670022826
 20
-21.2795763162
 11
11.0679131595
 21
-21.3044078923
  0
LINE
  5
405
100
AcDbEntity
  8
0
100
AcDbLine
 62
250
  6
CONTINUOUS
 10
11.0661561963
 20
-21.2529319618
 11
11.0670022826
 21
-21.2795763162
  0
LINE
  5
406
100
AcDbEntity
  8
0
100
AcDbLine
 62
250
  6
CONTINUOUS
 10
11.0651363064
 20
-21.2148227986
 11
11.0661561963
 21
-21.2529319618
  0
LINE
  5
407
100
AcDbEntity
  8
0
100
AcDbLine
 62
250
  6
CONTINUOUS
 10
11.0642488874
 20
-21.174094868
 11
11.0651363064
 21
-21.2148227986
  0
LWPOLYLINE
  5
408
100
AcDbEntity
  8
0
100
AcDbPolyline
 62
250
  6
CONTINUOUS
 90
43
 70
0
 10
11.0247162237
 20
-0.2172493764
 10
11.0245742283
 20
-0.2097728708
 10
11.0241529921
 20
-0.2023068176
 10
11.023453104
 20
-0.1948616548
 10
11.0224755425
 20
-0.1874477912
 10
11.0212216742
 20
-0.1800755916
 10
11.0196932521
 20
-0.1727553628
 10
11.017892413
 20
-0.1654973388
 10
11.0158216747
 20
-0.1583116667
 10
11.013483932
 20
-0.1512083923
 10
11.0108824532
 20
-0.1441974465
 10
11.0080208754
 20
-0.1372886307
 10
11.0049031992
 20
-0.130491604
 10
11.0015337832
 20
-0.1238158689
 10
10.997917338
 20
-0.1172707583
 10
10.9940589197
 20
-0.1108654227
 10
10.9899639225
 20
-0.1046088171
 10
10.9856380713
 20
-0.0985096883
 10
10.981087414
 20
-0.0925765635
 10
10.9763183126
 20
-0.0868177372
 10
10.9713374344
 20
-0.0812412607
 10
10.9661517431
 20
-0.0758549302
 10
10.9607684885
 20
-0.0706662759
 10
10.9551951966
 20
-0.0656825518
 10
10.9494396592
 20
-0.0609107256
 10
10.9435099227
 20
-0.0563574683
 10
10.9374142773
 20
-0.0520291456
 10
10.9311612449
 20
-0.0479318089
 10
10.9247595676
 20
-0.0440711862
 10
10.9182181953
 20
-0.040452675
 10
10.9115462731
 20
-0.0370813342
 10
10.9047531286
 20
-0.0339618769
 10
10.8978482591
 20
-0.0310986644
 10
10.8908413178
 20
-0.0284956996
 10
10.8837421009
 20
-0.0261566215
 10
10.8765605332
 20
-0.0240847002
 10
10.8693066551
 20
-0.0222828325
 10
10.8619906078
 20
-0.0207535374
 10
10.8546226195
 20
-0.0194989528
 10
10.8472129909
 20
-0.0185208329
 10
10.8397720812
 20
-0.0178205451
 10
10.832310293
 20
-0.0173990683
 10
10.8248380583
 20
-0.0172569918
  0
LWPOLYLINE
  5
409
100
AcDbEntity
  8
0
100
AcDbPolyline
 62
250
  6
CONTINUOUS
 90
55
 70
0
 10
11.0785750931
 20
21.6858572826
 10
11.0783376737
 20
21.7003628544
 10
11.0776786451
 20
21.7148561815
 10
11.0765985637
 20
21.7293250297
 10
11.0750983411
 20
21.7437571853
 10
11.0731792437
 20
21.7581404657
 10
11.0708428915
 20
21.7724627295
 10
11.0680912568
 20
21.7867118867
 10
11.0649266622
 20
21.8008759091
 10
11.0613517791
 20
21.8149428406
 10
11.0573696252
 20
21.8289008066
 10
11.0529835619
 20
21.8427380248
 10
11.0481972917
 20
21.8564428147
 10
11.0430148547
 20
21.8700036077
 10
11.0374406258
 20
21.8834089566
 10
11.0314793102
 20
21.8966475456
 10
11.0251359402
 20
21.9097081994
 10
11.0184158703
 20
21.9225798933
 10
11.0113247732
 20
21.9352517617
 10
11.0038686347
 20
21.9477131078
 10
10.9960537488
 20
21.9599534128
 10
10.9878867123
 20
21.971962344
 10
10.9793744194
 20
21.9837297644
 10
10.9705240553
 20
21.9952457406
 10
10.9613430912
 20
22.0065005518
 10
10.9518392769
 20
22.0174846972
 10
10.942020635
 20
22.0281889048
 10
10.9318954535
 20
22.0386041389
 10
10.9214722797
 20
22.0487216076
 10
10.910759912
 20
22.0585327703
 10
10.899767393
 20
22.0680293453
 10
10.888504002
 20
22.077203316
 10
10.8769792467
 20
22.0860469384
 10
10.8652028556
 20
22.0945527473
 10
10.8531847695
 20
22.1027135628
 10
10.8409351333
 20
22.1105224959
 10
10.8284642874
 20
22.1179729549
 10
10.8157827586
 20
22.1250586506
 10
10.8029012521
 20
22.1317736017
 10
10.7898306415
 20
22.13811214
 10
10.77658196
 20
22.1440689148
 10
10.7631663915
 20
22.1496388978
 10
10.7495952603
 20
22.1548173872
 10
10.7358800225
 20
22.1596000117
 10
10.7220322553
 20
22.1639827342
 10
10.7080636483
 20
22.1679618549
 10
10.6939859928
 20
22.171534015
 10
10.6798111721
 20
22.1746961991
 10
10.6655511519
 20
22.177445738
 10
10.6512179693
 20
22.1797803105
 10
10.6368237235
 20
22.1816979462
 10
10.6223805653
 20
22.1831970261
 10
10.6079006864
 20
22.1842762848
 10
10.59339631
 20
22.1849348114
 10
10.5788796796
 20
22.18517205
  0
LINE
  5
40A
100
AcDbEntity
  8
0
100
AcDbLine
 62
250
  6
CONTINUOUS
 10
11.0633379715
 20
-21.1200638617
 11
11.0642488874
 21
-21.174094868
  0
LINE
  5
40B
100
AcDbEntity
  8
0
100
AcDbLine
 62
250
  6
CONTINUOUS
 10
10.5654409115
 20
-21.499565407
 11
10.5670173025
 21
-21.6116899226
  0
LINE
  5
40C
100
AcDbEntity
  8
0
100
AcDbLine
 62
250
  6
CONTINUOUS
 10
11.0626596796
 20
-21.0633048222
 11
11.0633379715
 21
-21.1200638617
  0
LINE
  5
40D
100
AcDbEntity
  8
0
100
AcDbLine
 62
250
  6
CONTINUOUS
 10
10.5641619789
 20
-21.3756425884
 11
10.5654409115
 21
-21.499565407
  0
LINE
  5
40E
100
AcDbEntity
  8
0
100
AcDbLine
 62
250
  6
CONTINUOUS
 10
11.0622236374
 20
-21.0046270503
 11
11.0626596796
 21
-21.0633048222
  0
LINE
  5
40F
100
AcDbEntity
  8
0
100
AcDbLine
 62
250
  6
CONTINUOUS
 10
10.5630808138
 20
-21.2195918696
 11
10.5641619789
 21
-21.3756425884
  0
LINE
  5
410
100
AcDbEntity
  8
0
100
AcDbLine
 62
7
  6
CONTINUOUS
 10
11.1806021022
 20
21.8389755858
 11
11.2069094115
 21
13.2282282781
  0
LINE
  5
411
100
AcDbEntity
  8
0
100
AcDbLine
 62
250
  6
CONTINUOUS
 10
10.558164009
 20
-20.2173572081
 11
10.5630808138
 21
-21.2195918696
  0
LWPOLYLINE
  5
412
100
AcDbEntity
  8
0
100
AcDbPolyline
 62
250
  6
CONTINUOUS
 90
25
 70
0
 10
10.528489286
 20
-9.8071331838
 10
10.5288863278
 20
-10.2424444799
 10
10.5293564955
 20
-10.6776954192
 10
10.5298998035
 20
-11.1128758084
 10
10.5305162373
 20
-11.5479754634
 10
10.5312057538
 20
-11.9829842099
 10
10.5319683581
 20
-12.4178918661
 10
10.5328040451
 20
-12.8526882484
 10
10.5337127562
 20
-13.2873631827
 10
10.5346944966
 20
-13.7219064887
 10
10.5357492611
 20
-14.1563079977
 10
10.5368769757
 20
-14.5905575577
 10
10.5380776457
 20
-15.0246449996
 10
10.5393512659
 20
-15.4585601639
 10
10.5406977471
 20
-15.8922929184
 10
10.5421170944
 20
-16.3258331116
 10
10.5436093027
 20
-16.759170591
 10
10.5451742675
 20
-17.1922952295
 10
10.5468119939
 20
-17.6251968913
 10
10.5485224767
 20
-18.0578654373
 10
10.5503055961
 20
-18.490290743
 10
10.5521613571
 20
-18.9224626827
 10
10.5540897547
 20
-19.3543711406
 10
10.5560906537
 20
-19.7860060162
 10
10.558164009
 20
-20.2173572081
  0
LWPOLYLINE
  5
413
100
AcDbEntity
  8
0
100
AcDbPolyline
 62
250
  6
CONTINUOUS
 90
27
 70
0
 10
11.0281846993
 20
-9.7952311664
 10
11.0285817409
 20
-10.2281205249
 10
11.0290519085
 20
-10.6609397973
 10
11.0295952164
 20
-11.0936991314
 10
11.0302116502
 20
-11.5263883793
 10
11.0309011667
 20
-11.9589770981
 10
11.031663771
 20
-12.3914652603
 10
11.032499458
 20
-12.8238528933
 10
11.0334081692
 20
-13.2561096356
 10
11.0343899096
 20
-13.6882354737
 10
11.0354446741
 20
-14.1202304212
 10
11.0365723888
 20
-14.5520641565
 10
11.0377730589
 20
-14.9837366657
 10
11.0390466792
 20
-15.4152479628
 10
11.0403931605
 20
-15.8465677686
 10
11.041812508
 20
-16.2776960726
 10
11.0433047164
 20
-16.7086328853
 10
11.0448696813
 20
-17.1393479592
 10
11.0465074079
 20
-17.5698412829
 10
11.0482178909
 20
-18.0001128679
 10
11.0500010104
 20
-18.4301325003
 10
11.0518567717
 20
-18.8599001761
 10
11.0537851696
 20
-19.2894158994
 10
11.0557860687
 20
-19.7186494686
 10
11.0578594237
 20
-20.1475908165
 10
11.06000528
 20
-20.5762500104
 10
11.0622236374
 20
-21.0046270503
  0
LWPOLYLINE
  5
414
100
AcDbEntity
  8
0
100
AcDbPolyline
 62
250
  6
CONTINUOUS
 90
3
 70
0
 10
10.526961534
 20
-7.3381772098
 10
10.5275273766
 20
-8.3549894927
 10
10.528489286
 20
-9.8071331838
  0
LWPOLYLINE
  5
415
100
AcDbEntity
  8
0
100
AcDbPolyline
 62
250
  6
CONTINUOUS
 90
3
 70
0
 10
11.0266566785
 20
-7.3301894081
 10
11.0272226373
 20
-8.346241378
 10
11.0281846993
 20
-9.7952311664
  0
LINE
  5
416
100
AcDbEntity
  8
0
100
AcDbLine
 62
250
  6
CONTINUOUS
 10
10.5260463724
 20
-5.3044825602
 11
10.526961534
 21
-7.3381772098
  0
LINE
  5
417
100
AcDbEntity
  8
0
100
AcDbLine
 62
250
  6
CONTINUOUS
 10
11.0257413204
 20
-5.2980195066
 11
11.0266566785
 21
-7.3301894081
  0
LINE
  5
418
100
AcDbEntity
  8
0
100
AcDbLine
 62
250
  6
CONTINUOUS
 10
10.5254196716
 20
-3.2707116746
 11
10.5260463724
 21
-5.3044825602
  0
LINE
  5
419
100
AcDbEntity
  8
0
100
AcDbLine
 62
250
  6
CONTINUOUS
 10
10.525080578
 20
-1.2368591945
 11
10.5254196716
 21
-3.2707116746
  0
LINE
  5
41A
100
AcDbEntity
  8
0
100
AcDbLine
 62
250
  6
CONTINUOUS
 10
11.0251147179
 20
-3.2657652692
 11
11.0257413204
 21
-5.2980195066
  0
LINE
  5
41B
100
AcDbEntity
  8
0
100
AcDbLine
 62
250
  6
CONTINUOUS
 10
10.525080578
 20
-1.2368591945
 11
10.5250208663
 21
-0.0197836685
  0
LWPOLYLINE
  5
41C
100
AcDbEntity
  8
0
100
AcDbPolyline
 62
250
  6
CONTINUOUS
 90
3
 70
0
 10
11.0247162939
 20
-0.2172493589
 10
11.0247769057
 20
-1.2334397031
 10
11.0251147179
 20
-3.2657652692
  0
LINE
  5
41D
100
AcDbEntity
  8
0
100
AcDbLine
 62
7
  6
CONTINUOUS
 10
11.2069094115
 20
-0.1717184249
 11
11.2069094115
 21
-12.9717717219
  0
LINE
  5
41E
100
AcDbEntity
  8
0
100
AcDbLine
 62
7
  6
CONTINUOUS
 10
11.2069094115
 20
0.4281749811
 11
11.2069094115
 21
13.2282282781
  0
LINE
  5
41F
100
AcDbEntity
  8
0
100
AcDbLine
 62
250
  6
CONTINUOUS
 10
10.525080578
 20
1.4933157506
 11
10.5250208663
 21
0.2762402247
  0
LINE
  5
420
100
AcDbEntity
  8
0
100
AcDbLine
 62
250
  6
CONTINUOUS
 10
11.0247769057
 20
1.4898962593
 11
11.0247162939
 21
0.4737059151
  0
LINE
  5
421
100
AcDbEntity
  8
0
100
AcDbLine
 62
250
  6
CONTINUOUS
 10
10.5256970533
 20
4.5440651633
 11
10.525080578
 21
1.4933157506
  0
LINE
  5
422
100
AcDbEntity
  8
0
100
AcDbLine
 62
250
  6
CONTINUOUS
 10
11.0253919211
 20
4.5383581311
 11
11.0247769057
 21
1.4898962593
  0
LINE
  5
423
100
AcDbEntity
  8
0
100
AcDbLine
 62
250
  6
CONTINUOUS
 10
10.5264678422
 20
6.577795636
 11
10.5256970533
 21
4.5440651633
  0
LINE
  5
424
100
AcDbEntity
  8
0
100
AcDbLine
 62
250
  6
CONTINUOUS
 10
11.0261629072
 20
6.5705723684
 11
11.0253919211
 21
4.5383581311
  0
LINE
  5
425
100
AcDbEntity
  8
0
100
AcDbLine
 62
250
  6
CONTINUOUS
 10
10.5281653701
 20
9.6282282781
 11
10.5264678422
 21
6.577795636
  0
LINE
  5
426
100
AcDbEntity
  8
0
100
AcDbLine
 62
250
  6
CONTINUOUS
 10
11.0278607836
 20
9.6187282781
 11
11.0261629072
 21
6.5705723684
  0
LINE
  5
427
100
AcDbEntity
  8
0
100
AcDbLine
 62
7
  6
CONTINUOUS
 10
11.1806021022
 20
-21.5825190297
 11
11.2069094115
 21
-12.9717717219
  0
LWPOLYLINE
  5
428
100
AcDbEntity
  8
0
100
AcDbPolyline
 62
250
  6
CONTINUOUS
 90
27
 70
0
 10
11.06000528
 20
20.8327065666
 10
11.0578594237
 20
20.4040473727
 10
11.0557860687
 20
19.9751060247
 10
11.0537851696
 20
19.5458724555
 10
11.0518567717
 20
19.1163567323
 10
11.0500010104
 20
18.6865890565
 10
11.0482178909
 20
18.2565694241
 10
11.0465074079
 20
17.8262978391
 10
11.0448696813
 20
17.3958045153
 10
11.0433047164
 20
16.9650894415
 10
11.041812508
 20
16.5341526288
 10
11.0403931605
 20
16.1030243248
 10
11.0390466792
 20
15.671704519
 10
11.0377730589
 20
15.2401932219
 10
11.0365723888
 20
14.8085207127
 10
11.0354446741
 20
14.3766869773
 10
11.0343899096
 20
13.9446920299
 10
11.0334081692
 20
13.5125661918
 10
11.032499458
 20
13.0803094495
 10
11.031663771
 20
12.6479218165
 10
11.0309011667
 20
12.2154336543
 10
11.0302116502
 20
11.7828449355
 10
11.0295952164
 20
11.3501556875
 10
11.0290519085
 20
10.9173963535
 10
11.0285817409
 20
10.4845770811
 10
11.0281846993
 20
10.0516877226
 10
11.0278607836
 20
9.6187282781
  0
LWPOLYLINE
  5
429
100
AcDbEntity
  8
0
100
AcDbPolyline
 62
250
  6
CONTINUOUS
 90
28
 70
0
 10
10.5625282239
 20
21.3356246977
 10
10.5603098658
 20
20.90487117
 10
10.558164009
 20
20.4738137643
 10
10.5560906537
 20
20.0424625724
 10
10.5540897547
 20
19.6108276968
 10
10.5521613571
 20
19.1789192388
 10
10.5503055961
 20
18.7467472992
 10
10.5485224767
 20
18.3143219935
 10
10.5468119939
 20
17.8816534475
 10
10.5451742675
 20
17.4487517857
 10
10.5436093027
 20
17.0156271472
 10
10.5421170944
 20
16.5822896678
 10
10.5406977471
 20
16.1487494745
 10
10.5393512659
 20
15.7150167201
 10
10.5380776457
 20
15.2811015558
 10
10.5368769757
 20
14.8470141139
 10
10.5357492611
 20
14.4127645539
 10
10.5346944966
 20
13.9783630449
 10
10.5337127562
 20
13.5438197389
 10
10.5328040451
 20
13.1091448045
 10
10.5319683581
 20
12.6743484223
 10
10.5312057538
 20
12.2394407661
 10
10.5305162373
 20
11.8044320196
 10
10.5298998035
 20
11.3693323646
 10
10.5293564955
 20
10.9341519754
 10
10.5288863278
 20
10.498901036
 10
10.528489286
 20
10.0635897399
 10
10.5281653701
 20
9.6282282781
  0
LINE
  5
42A
100
AcDbEntity
  8
0
100
AcDbLine
 62
250
  6
CONTINUOUS
 10
10.5633427844
 20
21.5216645309
 11
10.5625282239
 21
21.3356246977
  0
LINE
  5
42B
100
AcDbEntity
  8
0
100
AcDbLine
 62
250
  6
CONTINUOUS
 10
11.0626596796
 20
21.3197613784
 11
11.06000528
 21
20.8327065666
  0
LINE
  5
42C
100
AcDbEntity
  8
0
100
AcDbLine
 62
250
  6
CONTINUOUS
 10
10.5645535031
 20
21.6745635602
 11
10.5633427844
 21
21.5216645309
  0
LINE
  5
42D
100
AcDbEntity
  8
0
100
AcDbLine
 62
250
  6
CONTINUOUS
 10
10.5661938279
 20
21.8137105978
 11
10.5645535031
 21
21.6745635602
  0
LINE
  5
42E
100
AcDbEntity
  8
0
100
AcDbLine
 62
250
  6
CONTINUOUS
 10
11.0633379715
 20
21.3765204179
 11
11.0626596796
 21
21.3197613784
  0
LINE
  5
42F
100
AcDbEntity
  8
0
100
AcDbLine
 62
250
  6
CONTINUOUS
 10
10.5670173025
 20
21.8681464787
 11
10.5661938279
 21
21.8137105978
  0
LWPOLYLINE
  5
430
100
AcDbEntity
  8
0
100
AcDbPolyline
 62
250
  6
CONTINUOUS
 90
55
 70
0
 10
11.0785750931
 20
-21.4294007265
 10
11.0783376737
 20
-21.4439062985
 10
11.0776786451
 20
-21.4583996259
 10
11.0765985636
 20
-21.4728684744
 10
11.0750983409
 20
-21.4873006303
 10
11.0731792435
 20
-21.5016839109
 10
11.0708428912
 20
-21.5160061749
 10
11.0680912564
 20
-21.5302553323
 10
11.0649266617
 20
-21.544419355
 10
11.0613517785
 20
-21.5584862866
 10
11.0573696245
 20
-21.5724442528
 10
11.052983561
 20
-21.5862814712
 10
11.0481972907
 20
-21.5999862612
 10
11.0430148536
 20
-21.6135470544
 10
11.0374406245
 20
-21.6269524034
 10
11.0314793088
 20
-21.6401909924
 10
11.0251359386
 20
-21.6532516464
 10
11.0184158685
 20
-21.6661233403
 10
11.0113247713
 20
-21.6787952087
 10
11.0038686327
 20
-21.6912565549
 10
10.9960537467
 20
-21.7034968598
 10
10.9878867101
 20
-21.715505791
 10
10.979374417
 20
-21.7272732114
 10
10.9705240529
 20
-21.7387891876
 10
10.9613430886
 20
-21.7500439987
 10
10.9518392742
 20
-21.761028144
 10
10.9420206322
 20
-21.7717323516
 10
10.9318954507
 20
-21.7821475856
 10
10.9214722768
 20
-21.7922650541
 10
10.910759909
 20
-21.8020762168
 10
10.89976739
 20
-21.8115727916
 10
10.888503999
 20
-21.8207467621
 10
10.8769792437
 20
-21.8295903844
 10
10.8652028526
 20
-21.8380961933
 10
10.8531847666
 20
-21.8462570086
 10
10.8409351304
 20
-21.8540659415
 10
10.8284642845
 20
-21.8615164004
 10
10.8157827558
 20
-21.8686020959
 10
10.8029012494
 20
-21.8753170469
 10
10.7898306388
 20
-21.881655585
 10
10.7765819575
 20
-21.8876123597
 10
10.7631663891
 20
-21.8931823426
 10
10.7495952581
 20
-21.8983608319
 10
10.7358800203
 20
-21.9031434563
 10
10.7220322534
 20
-21.9075261786
 10
10.7080636465
 20
-21.9115052992
 10
10.6939859911
 20
-21.9150774592
 10
10.6798111707
 20
-21.9182396433
 10
10.6655511506
 20
-21.920989182
 10
10.6512179682
 20
-21.9233237545
 10
10.6368237227
 20
-21.9252413901
 10
10.6223805646
 20
-21.9267404699
 10
10.607900686
 20
-21.9278197287
 10
10.5933963098
 20
-21.9284782553
 10
10.5788796796
 20
-21.9287154938
  0
LINE
  5
431
100
AcDbEntity
  8
0
100
AcDbLine
 62
250
  6
CONTINUOUS
 10
11.0642488874
 20
21.4305514241
 11
11.0633379715
 21
21.3765204179
  0
LWPOLYLINE
  5
432
100
AcDbEntity
  8
0
100
AcDbPolyline
 62
250
  6
CONTINUOUS
 90
43
 70
0
 10
11.0247162237
 20
0.4737059326
 10
11.0245742283
 20
0.4662294274
 10
11.0241529922
 20
0.4587633746
 10
11.0234531042
 20
0.4513182122
 10
11.0224755427
 20
0.443904349
 10
11.0212216746
 20
0.4365321498
 10
11.0196932527
 20
0.4292119214
 10
11.0178924138
 20
0.4219538977
 10
11.0158216756
 20
0.4147682259
 10
11.0134839331
 20
0.4076649518
 10
11.0108824546
 20
0.4006540062
 10
11.0080208771
 20
0.3937451907
 10
11.0049032011
 20
0.3869481642
 10
11.0015337854
 20
0.3802724293
 10
10.9979173405
 20
0.3737273188
 10
10.9940589225
 20
0.3673219833
 10
10.9899639255
 20
0.3610653777
 10
10.9856380747
 20
0.354966249
 10
10.9810874176
 20
0.3490331241
 10
10.9763183164
 20
0.3432742979
 10
10.9713374385
 20
0.3376978213
 10
10.9661517474
 20
0.3323114906
 10
10.960768493
 20
0.3271228362
 10
10.9551952012
 20
0.322139112
 10
10.9494396639
 20
0.3173672855
 10
10.9435099275
 20
0.312814028
 10
10.9374142821
 20
0.3084857051
 10
10.9311612498
 20
0.3043883681
 10
10.9247595725
 20
0.3005277452
 10
10.9182182001
 20
0.2969092338
 10
10.9115462778
 20
0.2935378926
 10
10.9047531331
 20
0.2904184351
 10
10.8978482634
 20
0.2875552223
 10
10.8908413219
 20
0.2849522572
 10
10.8837421046
 20
0.2826131788
 10
10.8765605367
 20
0.2805412573
 10
10.8693066582
 20
0.2787393894
 10
10.8619906104
 20
0.277210094
 10
10.8546226217
 20
0.2759555094
 10
10.8472129926
 20
0.2749773893
 10
10.8397720823
 20
0.2742771013
 10
10.8323102936
 20
0.2738556245
 10
10.8248380583
 20
0.273713548
  0
LINE
  5
433
100
AcDbEntity
  8
0
100
AcDbLine
 62
250
  6
CONTINUOUS
 10
11.0651363064
 20
21.4712793547
 11
11.0642488874
 21
21.4305514241
  0
LINE
  5
434
100
AcDbEntity
  8
0
100
AcDbLine
 62
250
  6
CONTINUOUS
 10
11.0661561963
 20
21.509388518
 11
11.0651363064
 21
21.4712793547
  0
LINE
  5
435
100
AcDbEntity
  8
0
100
AcDbLine
 62
250
  6
CONTINUOUS
 10
11.0670022826
 20
21.5360328724
 11
11.0661561963
 21
21.509388518
  0
LINE
  5
436
100
AcDbEntity
  8
0
100
AcDbLine
 62
250
  6
CONTINUOUS
 10
11.0679131595
 20
21.5608644485
 11
11.0670022826
 21
21.5360328724
  0
LINE
  5
437
100
AcDbEntity
  8
0
100
AcDbLine
 62
7
  6
CONTINUOUS
 10
-1.7416477477
 20
-13.006579343
 11
-1.2220325047
 21
-12.706579343
  0
LINE
  5
438
100
AcDbEntity
  8
ASSI
100
AcDbLine
 62
7
  6
CONTINUOUS
 10
-1.7416477477
 20
-13.006579343
 11
-1.2220325047
 21
-12.706579343
  0
LINE
  5
439
100
AcDbEntity
  8
0
100
AcDbLine
 62
7
  6
CONTINUOUS
 10
1.6358513253
 20
-11.0565793441
 11
2.1554665705
 21
-10.756579348
  0
LINE
  5
43A
100
AcDbEntity
  8
ASSI
100
AcDbLine
 62
7
  6
CONTINUOUS
 10
1.6358513253
 20
-11.0565793441
 11
2.1554665705
 21
-10.756579348
  0
LINE
  5
43B
100
AcDbEntity
  8
ASSI
100
AcDbLine
 62
7
  6
CONTINUOUS
 10
-1.8930905885
 20
11.5782282781
 11
-3.1430905881
 21
11.5782282781
  0
LINE
  5
43C
100
AcDbEntity
  8
0
100
AcDbLine
 62
7
  6
CONTINUOUS
 10
-3.1430905881
 20
11.5782282781
 11
-1.8930905885
 21
11.5782282781
  0
LINE
  5
43D
100
AcDbEntity
  8
0
100
AcDbLine
 62
7
  6
CONTINUOUS
 10
2.0069094119
 20
11.5782282831
 11
3.2569094115
 21
11.5782282831
  0
LINE
  5
43E
100
AcDbEntity
  8
ASSI
100
AcDbLine
 62
7
  6
CONTINUOUS
 10
2.0069094119
 20
11.5782282831
 11
3.2569094115
 21
11.5782282831
  0
LWPOLYLINE
  5
43F
100
AcDbEntity
  8
0
100
AcDbPolyline
 62
250
  6
CONTINUOUS
 90
12
 70
0
 10
11.0278607836
 20
-9.3622717219
 10
11.027162518
 20
-9.362542054
 10
11.0260606024
 20
-9.3628121675
 10
11.0245559282
 20
-9.3630818437
 10
11.0226497127
 20
-9.3633508647
 10
11.0203434976
 20
-9.3636190127
 10
11.0176391487
 20
-9.3638860708
 10
11.0145388535
 20
-9.3641518231
 10
11.0110451199
 20
-9.3644160545
 10
11.0071607741
 20
-9.3646785513
 10
11.0028889581
 20
-9.3649391012
 10
10.9982331276
 20
-9.3651974933
  0
LINE
  5
440
100
AcDbEntity
  8
0
100
AcDbLine
 62
7
  6
CONTINUOUS
 10
-3.1430905881
 20
12.1782282729
 11
-1.8930905885
 21
12.1782282729
  0
LINE
  5
441
100
AcDbEntity
  8
ASSI
100
AcDbLine
 62
7
  6
CONTINUOUS
 10
-3.1430905881
 20
12.1782282729
 11
-1.8930905885
 21
12.1782282729
  0
LINE
  5
442
100
AcDbEntity
  8
0
100
AcDbLine
 62
7
  6
CONTINUOUS
 10
2.0069094119
 20
12.1782282729
 11
3.2569094115
 21
12.1782282729
  0
LINE
  5
443
100
AcDbEntity
  8
ASSI
100
AcDbLine
 62
7
  6
CONTINUOUS
 10
2.0069094119
 20
12.1782282729
 11
3.2569094115
 21
12.1782282729
  0
LWPOLYLINE
  5
444
100
AcDbEntity
  8
0
100
AcDbPolyline
 62
250
  6
CONTINUOUS
 90
13
 70
0
 10
11.0278607836
 20
9.6187282781
 10
11.027162518
 20
9.6189986102
 10
11.0260606024
 20
9.6192687237
 10
11.0245559283
 20
9.6195383999
 10
11.0226497127
 20
9.6198074209
 10
11.0203434977
 20
9.6200755689
 10
11.0176391487
 20
9.620342627
 10
11.0145388535
 20
9.6206083793
 10
11.0110451199
 20
9.6208726107
 10
11.0071607741
 20
9.6211351075
 10
11.0028889581
 20
9.6213956574
 10
10.9982331277
 20
9.6216540495
 10
10.9877847956
 20
9.6221635266
  0
LWPOLYLINE
  5
445
100
AcDbEntity
  8
0
100
AcDbPolyline
 62
7
  6
CONTINUOUS
 90
10
 70
0
 43
0.3500000019
 10
1.1283374023
 20
31.625456543
 10
1.1997675781
 20
31.482598877
 10
1.1997675781
 20
31.4111713867
 10
1.0569072266
 20
31.2683137207
 10
0.9854824219
 20
31.2683137207
 10
0.9140522461
 20
31.3397412109
 10
0.9140522461
 20
31.4111713867
 10
0.9854824219
 20
31.5540290527
 10
1.0569072266
 20
31.625456543
 10
1.1283374023
 20
31.625456543
  0
LWPOLYLINE
  5
446
100
AcDbEntity
  8
0
100
AcDbPolyline
 62
7
  6
CONTINUOUS
 90
3
 70
0
 43
0.3500000019
 10
17.8287490234
 20
3.663942627
 10
17.8287490234
 20
2.1639425049
 10
15.4716069336
 20
2.8067996521
  0
LWPOLYLINE
  5
447
100
AcDbEntity
  8
0
100
AcDbPolyline
 62
7
  6
CONTINUOUS
 90
3
 70
0
 43
0.3500000019
 10
17.8287490234
 20
-0.4074860001
 10
17.8287490234
 20
-1.9074860382
 10
15.4716069336
 20
-1.264628891
  0
LWPOLYLINE
  5
448
100
AcDbEntity
  8
0
100
AcDbPolyline
 62
7
  6
CONTINUOUS
 90
3
 70
0
 43
0.3500000019
 10
17.8287490234
 20
-2.7646288452
 10
17.8287490234
 20
-4.2646289673
 10
15.4716069336
 20
-3.6217718201
  0
LWPOLYLINE
  5
449
100
AcDbEntity
  8
0
100
AcDbPolyline
 62
250
  6
CONTINUOUS
 90
49
 70
0
 10
11.0622236374
 20
-21.0046270503
 10
11.0615306106
 20
-21.0067486943
 10
11.0604337277
 20
-21.0088686213
 10
11.0589338766
 20
-21.0109851154
 10
11.057032271
 20
-21.0130964638
 10
11.0547304501
 20
-21.0152009576
 10
11.0520302768
 20
-21.0172968937
 10
11.0489339362
 20
-21.0193825758
 10
11.0454439346
 20
-21.0214563158
 10
11.0415630962
 20
-21.0235164354
 10
11.0372945622
 20
-21.0255612674
 10
11.032641787
 20
-21.0275891567
 10
11.0276085363
 20
-21.0295984622
 10
11.0221988836
 20
-21.0315875576
 10
11.0164172071
 20
-21.0335548332
 10
11.0102681861
 20
-21.0354986968
 10
11.0037567972
 20
-21.0374175751
 10
10.9968883102
 20
-21.0393099151
 10
10.9896682839
 20
-21.0411741854
 10
10.9821025617
 20
-21.0430088771
 10
10.9741972667
 20
-21.0448125053
 10
10.9659587969
 20
-21.0465836104
 10
10.95739382
 20
-21.0483207589
 10
10.9485092678
 20
-21.050022545
 10
10.9393123307
 20
-21.0516875912
 10
10.9298104522
 20
-21.0533145501
 10
10.9200113223
 20
-21.0549021048
 10
10.9099228718
 20
-21.0564489707
 10
10.8995532655
 20
-21.0579538956
 10
10.8889108957
 20
-21.0594156617
 10
10.8780043757
 20
-21.0608330859
 10
10.8668425325
 20
-21.0622050211
 10
10.8554343995
 20
-21.0635303569
 10
10.8437892096
 20
-21.0648080206
 10
10.8319163877
 20
-21.0660369783
 10
10.8198255428
 20
-21.0672162353
 10
10.8075264602
 20
-21.0683448371
 10
10.795029094
 20
-21.0694218705
 10
10.7823435586
 20
-21.0704464636
 10
10.7694801208
 20
-21.0714177874
 10
10.7564491913
 20
-21.0723350556
 10
10.7432613163
 20
-21.0731975259
 10
10.7299271692
 20
-21.0740045003
 10
10.7164575416
 20
-21.0747553256
 10
10.7028633349
 20
-21.0754493943
 10
10.6891555512
 20
-21.0760861445
 10
10.6753452847
 20
-21.076665061
 10
10.6614437122
 20
-21.0771856752
 10
10.6474620849
 20
-21.0776475657
  0
LWPOLYLINE
  5
44A
100
AcDbEntity
  8
0
100
AcDbPolyline
 62
250
  6
CONTINUOUS
 90
50
 70
0
 10
11.0622236374
 20
21.2610836065
 10
11.0615306108
 20
21.2632052505
 10
11.0604337281
 20
21.2653251775
 10
11.0589338771
 20
21.2674416717
 10
11.0570322718
 20
21.2695530201
 10
11.054730451
 20
21.2716575139
 10
11.0520302778
 20
21.2737534501
 10
11.0489339375
 20
21.2758391322
 10
11.0454439359
 20
21.2779128722
 10
11.0415630977
 20
21.2799729919
 10
11.0372945638
 20
21.2820178238
 10
11.0326417887
 20
21.2840457132
 10
11.0276085381
 20
21.2860550187
 10
11.0221988855
 20
21.2880441142
 10
11.0164172092
 20
21.2900113898
 10
11.0102681883
 20
21.2919552534
 10
11.0037567994
 20
21.2938741317
 10
10.9968883124
 20
21.2957664718
 10
10.9896682862
 20
21.2976307421
 10
10.982102564
 20
21.2994654338
 10
10.9741972691
 20
21.3012690621
 10
10.9659587994
 20
21.3030401672
 10
10.9573938225
 20
21.3047773157
 10
10.9485092702
 20
21.3064791018
 10
10.9393123332
 20
21.3081441481
 10
10.9298104547
 20
21.309771107
 10
10.9200113248
 20
21.3113586618
 10
10.9099228742
 20
21.3129055276
 10
10.8995532679
 20
21.3144104526
 10
10.8889108981
 20
21.3158722187
 10
10.8780043781
 20
21.317289643
 10
10.8668425348
 20
21.3186615782
 10
10.8554344017
 20
21.319986914
 10
10.8437892118
 20
21.3212645777
 10
10.8319163899
 20
21.3224935354
 10
10.8198255449
 20
21.3236727924
 10
10.8075264622
 20
21.3248013943
 10
10.795029096
 20
21.3258784277
 10
10.7823435605
 20
21.3269030209
 10
10.7694801226
 20
21.3278743446
 10
10.7564491929
 20
21.3287916129
 10
10.7432613178
 20
21.3296540832
 10
10.7299271706
 20
21.3304610576
 10
10.7164575429
 20
21.331211883
 10
10.7028633361
 20
21.3319059516
 10
10.6891555523
 20
21.3325427019
 10
10.6753452857
 20
21.3331216184
 10
10.6614437131
 20
21.3336422325
 10
10.6474620856
 20
21.3341041231
 10
10.6193039842
 20
21.3348502858
  0
LINE
  5
44B
100
AcDbEntity
  8
RACCORDO
100
AcDbLine
 62
7
  6
CONTINUOUS
 10
7.8628631124
 20
22.3364662187
 11
7.5146444384
 21
22.3048573871
  0
LINE
  5
44C
100
AcDbEntity
  8
0
100
AcDbLine
 62
250
  6
CONTINUOUS
 10
-10.5336432618
 20
21.3341041219
 11
-10.5054851607
 21
21.3348502846
  0
LINE
  5
44D
100
AcDbEntity
  8
0
100
AcDbLine
 62
250
  6
CONTINUOUS
 10
-10.5054851607
 20
21.3348502846
 11
-10.4771432961
 21
21.3353576902
  0
LINE
  5
44E
100
AcDbEntity
  8
0
100
AcDbLine
 62
250
  6
CONTINUOUS
 10
-10.4771432961
 20
21.3353576902
 11
-10.4487094009
 21
21.3356246964
  0
LINE
  5
44F
100
AcDbEntity
  8
0
100
AcDbLine
 62
250
  6
CONTINUOUS
 10
10.5625282239
 20
21.3356246977
 11
-10.4487094009
 21
21.3356246977
  0
LINE
  5
450
100
AcDbEntity
  8
0
100
AcDbLine
 62
250
  6
CONTINUOUS
 10
10.5909621194
 20
21.3353576914
 11
10.5625282239
 21
21.3356246977
  0
LINE
  5
451
100
AcDbEntity
  8
0
100
AcDbLine
 62
250
  6
CONTINUOUS
 10
10.6193039842
 20
21.3348502858
 11
10.5909621194
 21
21.3353576914
  0
LINE
  5
452
100
AcDbEntity
  8
RACCORDO
100
AcDbLine
 62
7
  6
CONTINUOUS
 10
-7.7490442894
 20
22.3364662187
 11
-7.4008256154
 21
22.3048573871
  0
LINE
  5
453
100
AcDbEntity
  8
RACCORDO
100
AcDbLine
 62
7
  6
CONTINUOUS
 10
-3.3371368876
 20
22.3364662187
 11
-3.6853555616
 21
22.3048573871
  0
LINE
  5
454
100
AcDbEntity
  8
0
100
AcDbLine
 62
250
  6
CONTINUOUS
 10
10.5788796796
 20
22.18517205
 11
-10.4650608566
 21
22.18517205
  0
LINE
  5
455
100
AcDbEntity
  8
RACCORDO
100
AcDbLine
 62
7
  6
CONTINUOUS
 10
7.3414393577
 20
22.2996166092
 11
3.9723794654
 21
22.2996166092
  0
LINE
  5
456
100
AcDbEntity
  8
RACCORDO
100
AcDbLine
 62
7
  6
CONTINUOUS
 10
-3.8585606423
 20
22.2996166092
 11
-7.2276205346
 21
22.2996166092
  0
LINE
  5
457
100
AcDbEntity
  8
0
100
AcDbLine
 62
7
  6
CONTINUOUS
 10
-10.5658723937
 20
22.3364662187
 11
-7.7490442894
 21
22.3364662187
  0
LINE
  5
458
100
AcDbEntity
  8
DRAFT
100
AcDbLine
 62
7
  6
CONTINUOUS
 10
-3.3371368876
 20
22.3364662187
 11
3.4509557106
 21
22.3364662187
  0
LINE
  5
459
100
AcDbEntity
  8
0
100
AcDbLine
 62
7
  6
CONTINUOUS
 10
7.8628631124
 20
22.3364662187
 11
10.6796912168
 21
22.3364662187
  0
LWPOLYLINE
  5
45A
100
AcDbEntity
  8
0
100
AcDbPolyline
 62
7
  6
CONTINUOUS
 90
7
 70
0
 43
0.3500000019
 10
-0.3716640625
 20
31.1254560547
 10
-1.8716601562
 20
31.1254560547
 10
-0.3716640625
 20
33.2683129883
 10
-0.3716640625
 20
33.6968859863
 10
-0.800234375
 20
34.1254562988
 10
-1.4430898437
 20
34.1254562988
 10
-1.8716601562
 20
33.4826008301
  0
LWPOLYLINE
  5
45B
100
AcDbEntity
  8
0
100
AcDbPolyline
 62
7
  6
CONTINUOUS
 90
7
 70
0
 43
0.3500000019
 10
-2.7288061523
 20
31.1254560547
 10
-4.2288022461
 20
31.1254560547
 10
-2.7288061523
 20
33.2683129883
 10
-2.7288061523
 20
33.6968859863
 10
-3.1573764648
 20
34.1254562988
 10
-3.8002319336
 20
34.1254562988
 10
-4.2288022461
 20
33.4826008301
  0
LWPOLYLINE
  5
45C
100
AcDbEntity
  8
0
100
AcDbPolyline
 62
7
  6
CONTINUOUS
 90
6
 70
0
 43
0.3500000019
 10
2.1997685547
 20
31.1254560547
 10
3.2711943359
 20
31.1254560547
 10
3.4854794922
 20
31.3397412109
 10
3.4854794922
 20
32.4111696777
 10
3.0569091797
 20
32.8397426758
 10
2.6283388672
 20
32.8397426758
  0
LINE
  5
45D
100
AcDbEntity
  8
RACCORDO
100
AcDbLine
 62
7
  6
CONTINUOUS
 10
3.4509557106
 20
22.3364662187
 11
3.7991743846
 21
22.3048573871
  0
LWPOLYLINE
  5
45E
100
AcDbEntity
  8
0
100
AcDbPolyline
 62
250
  6
CONTINUOUS
 90
3
 70
0
 10
-27.98443525
 20
-21.0046270503
 10
-27.998483383
 20
-21.0067486943
 10
-28.0954735965
 20
-21.0214563158
  0
LINE
  5
45F
100
AcDbEntity
  8
0
100
AcDbLine
 62
7
  6
CONTINUOUS
 10
-27.5249090534
 20
-21.9287154938
 11
-24.6380443415
 21
-22.0800096625
  0
LINE
  5
460
100
AcDbEntity
  8
0
100
AcDbLine
 62
250
  6
CONTINUOUS
 10
-27.5161908236
 20
-21.4294007265
 11
-24.5945195509
 21
-21.5825190297
  0
LWPOLYLINE
  5
461
100
AcDbEntity
  8
0
100
AcDbPolyline
 62
250
  6
CONTINUOUS
 90
7
 70
0
 10
-28.4542782629
 20
-21.0776475657
 10
-28.456459239
 20
-21.0780503588
 10
-28.4582440708
 20
-21.0783937284
 10
-28.4596313139
 20
-21.0786773967
 10
-28.4606198456
 20
-21.078901134
 10
-28.4612088657
 20
-21.0790647593
 10
-28.4613978976
 20
-21.0791681402
  0
LINE
  5
462
100
AcDbEntity
  8
0
100
AcDbLine
 62
250
  6
CONTINUOUS
 10
-28.4487352578
 20
-21.076665061
 11
-28.4542782629
 21
-21.0776475657
  0
LINE
  5
463
100
AcDbEntity
  8
0
100
AcDbLine
 62
250
  6
CONTINUOUS
 10
-28.4375041327
 20
-21.0747553256
 11
-28.4487352578
 21
-21.076665061
  0
LINE
  5
464
100
AcDbEntity
  8
0
100
AcDbLine
 62
250
  6
CONTINUOUS
 10
-28.4112253197
 20
-21.0704464636
 11
-28.4375041327
 21
-21.0747553256
  0
LINE
  5
465
100
AcDbEntity
  8
0
100
AcDbLine
 62
250
  6
CONTINUOUS
 10
-28.3417821845
 20
-21.0594156617
 11
-28.4112253197
 21
-21.0704464636
  0
LINE
  5
466
100
AcDbEntity
  8
0
100
AcDbLine
 62
250
  6
CONTINUOUS
 10
-28.1224161307
 20
-21.0255612674
 11
-28.3417821845
 21
-21.0594156617
  0
LINE
  5
467
100
AcDbEntity
  8
0
100
AcDbLine
 62
250
  6
CONTINUOUS
 10
-28.0954735965
 20
-21.0214563158
 11
-28.1224161307
 21
-21.0255612674
  0
LINE
  5
468
100
AcDbEntity
  8
RACCORDO
100
AcDbLine
 62
250
  6
CONTINUOUS
 10
-24.2640524974
 20
-17.8052633231
 11
-24.241176777
 21
-17.8052633231
  0
LWPOLYLINE
  5
469
100
AcDbEntity
  8
RACCORDO
100
AcDbPolyline
 62
250
  6
CONTINUOUS
 90
8
 70
0
 10
-24.2748376586
 20
18.1849948362
 10
-24.2737212426
 20
18.1856069378
 10
-24.2723244005
 20
18.1863950591
 10
-24.2711890456
 20
18.1870620574
 10
-24.2703165058
 20
18.1876071523
 10
-24.269707802
 20
18.1880297062
 10
-24.2693636462
 20
18.1883292248
 10
-24.2692844409
 20
18.1885053578
  0
LWPOLYLINE
  5
46A
100
AcDbEntity
  8
RACCORDO
100
AcDbPolyline
 62
250
  6
CONTINUOUS
 90
8
 70
0
 10
-24.2748376586
 20
-17.9285382799
 10
-24.2737212433
 20
-17.9291503812
 10
-24.272324401
 20
-17.9299385026
 10
-24.2711890458
 20
-17.9306055009
 10
-24.270316506
 20
-17.9311505959
 10
-24.2697078021
 20
-17.9315731499
 10
-24.2693636462
 20
-17.9318726686
 10
-24.2692844409
 20
-17.9320488016
  0
LWPOLYLINE
  5
46B
100
AcDbEntity
  8
0
100
AcDbPolyline
 62
250
  6
CONTINUOUS
 90
3
 70
0
 10
-29.4501103759
 20
-9.3717374976
 10
-29.4507166155
 20
-9.3717584468
 10
-29.4509186303
 20
-9.3717717219
  0
LINE
  5
46C
100
AcDbEntity
  8
0
100
AcDbLine
 62
250
  6
CONTINUOUS
 10
-29.4458728449
 20
-9.3716288064
 11
-29.4501103759
 21
-9.3717374976
  0
LINE
  5
46D
100
AcDbEntity
  8
0
100
AcDbLine
 62
250
  6
CONTINUOUS
 10
-28.968458637
 20
-9.3622717219
 11
-29.4458728449
 21
-9.3716288064
  0
LWPOLYLINE
  5
46E
100
AcDbEntity
  8
0
100
AcDbPolyline
 62
250
  6
CONTINUOUS
 90
28
 70
0
 10
-27.98443525
 20
21.2610836065
 10
-28.0479606951
 20
20.8327065666
 10
-28.1094099784
 20
20.4040473727
 10
-28.1687830998
 20
19.9751060247
 10
-28.2260813519
 20
19.5458724555
 10
-28.2813034421
 20
19.1163567323
 10
-28.334445493
 20
18.6865890565
 10
-28.3855073565
 20
18.2565694241
 10
-28.4344891806
 20
17.8262978391
 10
-28.481387532
 20
17.3958045153
 10
-28.526202264
 20
16.9650894415
 10
-28.5689335233
 20
16.5341526288
 10
-28.609578316
 20
16.1030243248
 10
-28.6481364959
 20
15.671704519
 10
-28.6846082093
 20
15.2401932219
 10
-28.7189909015
 20
14.8085207127
 10
-28.7512844267
 20
14.3766869773
 10
-28.7814889307
 20
13.9446920299
 10
-28.8096022973
 20
13.5125661918
 10
-28.8356243799
 20
13.0803094495
 10
-28.8595553252
 20
12.6479218165
 10
-28.8813934558
 20
12.2154336543
 10
-28.9011386252
 20
11.7828449355
 10
-28.91879098
 20
11.3501556875
 10
-28.9343492824
 20
10.9173963535
 10
-28.9478131197
 20
10.4845770811
 10
-28.9591829045
 20
10.0516877226
 10
-28.968458637
 20
9.6187282781
  0
LWPOLYLINE
  5
46F
100
AcDbEntity
  8
0
100
AcDbPolyline
 62
250
  6
CONTINUOUS
 90
58
 70
0
 10
-27.98443525
 20
-21.0046270503
 10
-27.9825010284
 20
-21.016485553
 10
-27.9802856126
 20
-21.0282812134
 10
-27.9777890027
 20
-21.0400140315
 10
-27.9750094164
 20
-21.051690848
 10
-27.971948636
 20
-21.0633048222
 10
-27.968612008
 20
-21.0748354321
 10
-27.9649990733
 20
-21.0862823977
 10
-27.961110291
 20
-21.097645999
 10
-27.9569523851
 20
-21.1089065543
 10
-27.9525248977
 20
-21.1200638617
 10
-27.9478282867
 20
-21.1311181232
 10
-27.9428706495
 20
-21.1420502621
 10
-27.9376515319
 20
-21.1528600781
 10
-27.9321713881
 20
-21.1635477716
 10
-27.9264396786
 20
-21.174094868
 10
-27.920455968
 20
-21.1845011247
 10
-27.9142206916
 20
-21.1947667842
 10
-27.9077446161
 20
-21.2048740997
 10
-27.9010273242
 20
-21.2148227986
 10
-27.8940692333
 20
-21.2246131533
 10
-27.8868823625
 20
-21.2342282347
 10
-27.8794663203
 20
-21.2436677349
 10
-27.8718214984
 20
-21.2529319618
 10
-27.8639610902
 20
-21.2620049088
 10
-27.8558847167
 20
-21.2708862524
 10
-27.8475927571
 20
-21.2795763162
 10
-27.8390995417
 20
-21.2880600645
 10
-27.8304047267
 20
-21.2963371362
 10
-27.821508656
 20
-21.3044078923
 10
-27.8124266921
 20
-21.3122583804
 10
-27.8031585077
 20
-21.3198882239
 10
-27.7937044301
 20
-21.3272977994
 10
-27.7840808038
 20
-21.3344742834
 10
-27.7742873421
 20
-21.3414172681
 10
-27.7643243316
 20
-21.3481271613
 10
-27.7542089766
 20
-21.3545923638
 10
-27.7439410069
 20
-21.3608124566
 10
-27.7335206926
 20
-21.3667878587
 10
-27.7229660484
 20
-21.3725082274
 10
-27.7122768411
 20
-21.377973121
 10
-27.7014533039
 20
-21.3831829813
 10
-27.6905141504
 20
-21.3881287909
 10
-27.6794591794
 20
-21.3928100923
 10
-27.6682885921
 20
-21.3972273431
 10
-27.6570217061
 20
-21.401372898
 10
-27.6456583654
 20
-21.4052462843
 10
-27.634198726
 20
-21.4088479747
 10
-27.6226625738
 20
-21.412171742
 10
-27.6110497516
 20
-21.4152171093
 10
-27.5993604165
 20
-21.4179845535
 10
-27.5876148267
 20
-21.4204692775
 10
-27.5758126838
 20
-21.4226708002
 10
-27.5639542861
 20
-21.4245896028
 10
-27.5520607859
 20
-21.4262223321
 10
-27.5401392342
 20
-21.4275678702
 10
-27.5281825801
 20
-21.428627335
 10
-27.5161908236
 20
-21.4294007265
  0
LWPOLYLINE
  5
470
100
AcDbEntity
  8
0
100
AcDbPolyline
 62
250
  6
CONTINUOUS
 90
16
 70
0
 10
-29.0567176511
 20
0.3043883681
 10
-29.0565277907
 20
0.3005277452
 10
-29.0563309392
 20
0.2969092338
 10
-29.0561273718
 20
0.2935378926
 10
-29.0559173731
 20
0.2904184351
 10
-29.0557012366
 20
0.2875552223
 10
-29.0554792645
 20
0.2849522572
 10
-29.0552517672
 20
0.2826131788
 10
-29.0550190627
 20
0.2805412573
 10
-29.0547814764
 20
0.2787393894
 10
-29.0545393403
 20
0.277210094
 10
-29.0542929931
 20
0.2759555094
 10
-29.0540427791
 20
0.2749773893
 10
-29.0537890481
 20
0.2742771013
 10
-29.0535321548
 20
0.2738556245
 10
-29.0532724585
 20
0.273713548
  0
LINE
  5
471
100
AcDbEntity
  8
0
100
AcDbLine
 62
250
  6
CONTINUOUS
 10
-29.0570753468
 20
0.312814028
 11
-29.0567176511
 21
0.3043883681
  0
LINE
  5
472
100
AcDbEntity
  8
0
100
AcDbLine
 62
250
  6
CONTINUOUS
 10
-29.0574020267
 20
0.322139112
 11
-29.0570753468
 21
0.312814028
  0
LINE
  5
473
100
AcDbEntity
  8
0
100
AcDbLine
 62
250
  6
CONTINUOUS
 10
-29.0576958648
 20
0.3323114906
 11
-29.0574020267
 21
0.322139112
  0
LINE
  5
474
100
AcDbEntity
  8
0
100
AcDbLine
 62
250
  6
CONTINUOUS
 10
-29.0579552182
 20
0.3432742979
 11
-29.0576958648
 21
0.3323114906
  0
LWPOLYLINE
  5
475
100
AcDbEntity
  8
0
100
AcDbPolyline
 62
250
  6
CONTINUOUS
 90
28
 70
0
 10
-28.968458637
 20
-9.3622717219
 10
-28.9591829045
 20
-9.7952311664
 10
-28.9478131197
 20
-10.2281205249
 10
-28.9343492824
 20
-10.6609397973
 10
-28.91879098
 20
-11.0936991314
 10
-28.9011386252
 20
-11.5263883793
 10
-28.8813934558
 20
-11.9589770981
 10
-28.8595553252
 20
-12.3914652603
 10
-28.8356243799
 20
-12.8238528933
 10
-28.8096022973
 20
-13.2561096356
 10
-28.7814889307
 20
-13.6882354737
 10
-28.7512844267
 20
-14.1202304212
 10
-28.7189909015
 20
-14.5520641565
 10
-28.6846082093
 20
-14.9837366657
 10
-28.6481364959
 20
-15.4152479628
 10
-28.609578316
 20
-15.8465677686
 10
-28.5689335233
 20
-16.2776960726
 10
-28.526202264
 20
-16.7086328853
 10
-28.481387532
 20
-17.1393479592
 10
-28.4344891806
 20
-17.5698412829
 10
-28.3855073565
 20
-18.0001128679
 10
-28.334445493
 20
-18.4301325003
 10
-28.2813034421
 20
-18.8599001761
 10
-28.2260813519
 20
-19.2894158994
 10
-28.1687830998
 20
-19.7186494686
 10
-28.1094099784
 20
-20.1475908165
 10
-28.0479606951
 20
-20.5762500104
 10
-27.98443525
 20
-21.0046270503
  0
LINE
  5
476
100
AcDbEntity
  8
0
100
AcDbLine
 62
250
  6
CONTINUOUS
 10
-29.058276473
 20
0.3610653777
 11
-29.0579552182
 21
0.3432742979
  0
LINE
  5
477
100
AcDbEntity
  8
0
100
AcDbLine
 62
250
  6
CONTINUOUS
 10
-29.058512884
 20
0.3802724293
 11
-29.058276473
 21
0.3610653777
  0
LINE
  5
478
100
AcDbEntity
  8
0
100
AcDbLine
 62
250
  6
CONTINUOUS
 10
-29.0586614794
 20
0.4006540062
 11
-29.058512884
 21
0.3802724293
  0
LINE
  5
479
100
AcDbEntity
  8
0
100
AcDbLine
 62
250
  6
CONTINUOUS
 10
-29.0585070507
 20
-0.2172493764
 11
-29.0586888789
 21
-0.1874477912
  0
LWPOLYLINE
  5
47A
100
AcDbEntity
  8
0
100
AcDbPolyline
 62
250
  6
CONTINUOUS
 90
10
 70
0
 10
-29.0585050388
 20
-0.2172493589
 10
-29.0567693431
 20
-1.2334397031
 10
-29.0529662201
 20
-2.2496116732
 10
-29.0470956697
 20
-3.2657652692
 10
-29.0391576089
 20
-4.281901575
 10
-29.0291521207
 20
-5.2980195066
 10
-29.0170794545
 20
-6.3141158122
 10
-29.0029396934
 20
-7.3301894081
 10
-28.9867327542
 20
-8.346241378
 10
-28.968458637
 20
-9.3622717219
  0
LINE
  5
47B
100
AcDbEntity
  8
0
100
AcDbLine
 62
250
  6
CONTINUOUS
 10
-29.0587199381
 20
0.4292119214
 11
-29.0586614794
 21
0.4006540062
  0
LINE
  5
47C
100
AcDbEntity
  8
0
100
AcDbLine
 62
250
  6
CONTINUOUS
 10
-29.0586888789
 20
-0.1874477912
 11
-29.0587107879
 21
-0.1583116667
  0
LINE
  5
47D
100
AcDbEntity
  8
0
100
AcDbLine
 62
250
  6
CONTINUOUS
 10
-29.058617784
 20
0.4587633746
 11
-29.0587199381
 21
0.4292119214
  0
LINE
  5
47E
100
AcDbEntity
  8
0
100
AcDbLine
 62
250
  6
CONTINUOUS
 10
-29.0587107879
 20
-0.1583116667
 11
-29.0586218432
 21
-0.1372886307
  0
LINE
  5
47F
100
AcDbEntity
  8
0
100
AcDbLine
 62
250
  6
CONTINUOUS
 10
-29.0585070507
 20
0.4737059326
 11
-29.058617784
 21
0.4587633746
  0
LINE
  5
480
100
AcDbEntity
  8
0
100
AcDbLine
 62
250
  6
CONTINUOUS
 10
-29.0586218432
 20
-0.1372886307
 11
-29.0584437133
 21
-0.1172707583
  0
LINE
  5
481
100
AcDbEntity
  8
0
100
AcDbLine
 62
250
  6
CONTINUOUS
 10
-29.0584437133
 20
-0.1172707583
 11
-29.0581786372
 21
-0.0985096883
  0
LWPOLYLINE
  5
482
100
AcDbEntity
  8
0
100
AcDbPolyline
 62
250
  6
CONTINUOUS
 90
10
 70
0
 10
-28.968458637
 20
9.6187282781
 10
-28.9867327542
 20
8.6026979341
 10
-29.0029396934
 20
7.5866459642
 10
-29.0170794545
 20
6.5705723684
 10
-29.0291521207
 20
5.5544760628
 10
-29.0391576089
 20
4.5383581311
 10
-29.0470956697
 20
3.5222218254
 10
-29.0529662201
 20
2.5060682294
 10
-29.0567693431
 20
1.4898962593
 10
-29.0585050388
 20
0.4737059151
  0
LINE
  5
483
100
AcDbEntity
  8
0
100
AcDbLine
 62
250
  6
CONTINUOUS
 10
-29.0581786372
 20
-0.0985096883
 11
-29.0579552182
 21
-0.0868177372
  0
LINE
  5
484
100
AcDbEntity
  8
0
100
AcDbLine
 62
250
  6
CONTINUOUS
 10
-29.0579552182
 20
-0.0868177372
 11
-29.0576958647
 21
-0.0758549302
  0
LINE
  5
485
100
AcDbEntity
  8
0
100
AcDbLine
 62
250
  6
CONTINUOUS
 10
-29.0576958647
 20
-0.0758549302
 11
-29.0574020267
 21
-0.0656825518
  0
LINE
  5
486
100
AcDbEntity
  8
0
100
AcDbLine
 62
250
  6
CONTINUOUS
 10
-29.0574020267
 20
-0.0656825518
 11
-29.0570753467
 21
-0.0563574683
  0
LWPOLYLINE
  5
487
100
AcDbEntity
  8
0
100
AcDbPolyline
 62
250
  6
CONTINUOUS
 90
17
 70
0
 10
-29.0570753467
 20
-0.0563574683
 10
-29.056717651
 20
-0.0479318089
 10
-29.0565277906
 20
-0.0440711862
 10
-29.0563309391
 20
-0.040452675
 10
-29.0561273717
 20
-0.0370813342
 10
-29.055917373
 20
-0.0339618769
 10
-29.0557012365
 20
-0.0310986644
 10
-29.0554792644
 20
-0.0284956996
 10
-29.0552517671
 20
-0.0261566215
 10
-29.0550190626
 20
-0.0240847002
 10
-29.0547814763
 20
-0.0222828325
 10
-29.0545393403
 20
-0.0207535374
 10
-29.054292993
 20
-0.0194989528
 10
-29.054042779
 20
-0.0185208329
 10
-29.053789048
 20
-0.0178205451
 10
-29.0535321548
 20
-0.0173990683
 10
-29.0532724585
 20
-0.0172569918
  0
LINE
  5
488
100
AcDbEntity
  8
0
100
AcDbLine
 62
250
  6
CONTINUOUS
 10
-27.5197905975
 20
21.7581404657
 11
-27.5217420808
 21
21.8008759091
  0
LINE
  5
489
100
AcDbEntity
  8
0
100
AcDbLine
 62
250
  6
CONTINUOUS
 10
-27.5217420808
 20
21.8008759091
 11
-27.523518919
 21
21.8427380248
  0
LINE
  5
48A
100
AcDbEntity
  8
0
100
AcDbLine
 62
250
  6
CONTINUOUS
 10
-27.523518919
 20
21.8427380248
 11
-27.525107621
 21
21.8834089566
  0
LINE
  5
48B
100
AcDbEntity
  8
0
100
AcDbLine
 62
250
  6
CONTINUOUS
 10
-27.525107621
 20
21.8834089566
 11
-27.5264961237
 21
21.9225798933
  0
LINE
  5
48C
100
AcDbEntity
  8
0
100
AcDbLine
 62
250
  6
CONTINUOUS
 10
-27.5264961237
 20
21.9225798933
 11
-27.5276738843
 21
21.9599534128
  0
LINE
  5
48D
100
AcDbEntity
  8
0
100
AcDbLine
 62
250
  6
CONTINUOUS
 10
-27.5276738843
 20
21.9599534128
 11
-27.5286319603
 21
21.9952457406
  0
LINE
  5
48E
100
AcDbEntity
  8
0
100
AcDbLine
 62
250
  6
CONTINUOUS
 10
-27.5286319603
 20
21.9952457406
 11
-27.529363077
 21
22.0281889048
  0
LWPOLYLINE
  5
48F
100
AcDbEntity
  8
0
100
AcDbPolyline
 62
250
  6
CONTINUOUS
 90
18
 70
0
 10
-27.5300314814
 20
-21.8686020959
 10
-27.529933565
 20
-21.8753170469
 10
-27.5298093179
 20
-21.881655585
 10
-27.5296588451
 20
-21.8876123597
 10
-27.5294822736
 20
-21.8931823426
 10
-27.5292797524
 20
-21.8983608319
 10
-27.5290514524
 20
-21.9031434563
 10
-27.5287975665
 20
-21.9075261786
 10
-27.5285183089
 20
-21.9115052992
 10
-27.5282139153
 20
-21.9150774592
 10
-27.5278846427
 20
-21.9182396433
 10
-27.527530769
 20
-21.920989182
 10
-27.527152593
 20
-21.9233237545
 10
-27.5267504339
 20
-21.9252413901
 10
-27.5263246312
 20
-21.9267404699
 10
-27.5258755442
 20
-21.9278197287
 10
-27.5254035522
 20
-21.9284782553
 10
-27.5249090534
 20
-21.9287154938
  0
LINE
  5
490
100
AcDbEntity
  8
0
100
AcDbLine
 62
250
  6
CONTINUOUS
 10
-27.529363077
 20
22.0281889048
 11
-27.5298616831
 21
22.0585327703
  0
LINE
  5
491
100
AcDbEntity
  8
0
100
AcDbLine
 62
250
  6
CONTINUOUS
 10
-27.5298616831
 20
22.0585327703
 11
-27.5300629715
 21
22.077203316
  0
LINE
  5
492
100
AcDbEntity
  8
0
100
AcDbLine
 62
250
  6
CONTINUOUS
 10
-27.5301480141
 20
-21.8540659415
 11
-27.5300314814
 21
-21.8686020959
  0
LINE
  5
493
100
AcDbEntity
  8
0
100
AcDbLine
 62
250
  6
CONTINUOUS
 10
-27.5300629715
 20
22.077203316
 11
-27.5301585227
 21
22.0945527473
  0
LINE
  5
494
100
AcDbEntity
  8
0
100
AcDbLine
 62
250
  6
CONTINUOUS
 10
-27.5301585226
 20
-21.8380961933
 11
-27.5301480141
 21
-21.8540659415
  0
LINE
  5
495
100
AcDbEntity
  8
0
100
AcDbLine
 62
250
  6
CONTINUOUS
 10
-27.5301585227
 20
22.0945527473
 11
-27.5301480142
 21
22.1105224959
  0
LINE
  5
496
100
AcDbEntity
  8
0
100
AcDbLine
 62
250
  6
CONTINUOUS
 10
-27.5300629714
 20
-21.8207467621
 11
-27.5301585226
 21
-21.8380961933
  0
LWPOLYLINE
  5
497
100
AcDbEntity
  8
0
100
AcDbPolyline
 62
250
  6
CONTINUOUS
 90
19
 70
0
 10
-27.5301480142
 20
22.1105224959
 10
-27.5300314815
 20
22.1250586506
 10
-27.5299335651
 20
22.1317736017
 10
-27.529809318
 20
22.13811214
 10
-27.5296588452
 20
22.1440689148
 10
-27.5294822736
 20
22.1496388978
 10
-27.5292797524
 20
22.1548173872
 10
-27.5290514525
 20
22.1596000117
 10
-27.5287975666
 20
22.1639827342
 10
-27.5285183089
 20
22.1679618549
 10
-27.5282139153
 20
22.171534015
 10
-27.5278846427
 20
22.1746961991
 10
-27.5275307691
 20
22.177445738
 10
-27.5271525931
 20
22.1797803105
 10
-27.526750434
 20
22.1816979462
 10
-27.5263246312
 20
22.1831970261
 10
-27.5258755442
 20
22.1842762848
 10
-27.5254035522
 20
22.1849348114
 10
-27.5249090534
 20
22.18517205
  0
LINE
  5
498
100
AcDbEntity
  8
0
100
AcDbLine
 62
250
  6
CONTINUOUS
 10
-27.5298616831
 20
-21.8020762168
 11
-27.5300629714
 21
-21.8207467621
  0
LINE
  5
499
100
AcDbEntity
  8
0
100
AcDbLine
 62
250
  6
CONTINUOUS
 10
-27.529363077
 20
-21.7717323516
 11
-27.5298616831
 21
-21.8020762168
  0
LINE
  5
49A
100
AcDbEntity
  8
0
100
AcDbLine
 62
250
  6
CONTINUOUS
 10
-27.5286319604
 20
-21.7387891876
 11
-27.529363077
 21
-21.7717323516
  0
LINE
  5
49B
100
AcDbEntity
  8
0
100
AcDbLine
 62
250
  6
CONTINUOUS
 10
-27.5276738844
 20
-21.7034968598
 11
-27.5286319604
 21
-21.7387891876
  0
LINE
  5
49C
100
AcDbEntity
  8
0
100
AcDbLine
 62
250
  6
CONTINUOUS
 10
-27.5260562168
 20
-21.6532516464
 11
-27.5276738844
 21
-21.7034968598
  0
LINE
  5
49D
100
AcDbEntity
  8
0
100
AcDbLine
 62
250
  6
CONTINUOUS
 10
-27.5240700165
 20
-21.5999862612
 11
-27.5260562168
 21
-21.6532516464
  0
LINE
  5
49E
100
AcDbEntity
  8
0
100
AcDbLine
 62
250
  6
CONTINUOUS
 10
-27.5217420808
 20
-21.544419355
 11
-27.5240700165
 21
-21.5999862612
  0
LINE
  5
49F
100
AcDbEntity
  8
0
100
AcDbLine
 62
250
  6
CONTINUOUS
 10
-27.5197905976
 20
-21.5016839109
 11
-27.5217420808
 21
-21.544419355
  0
LWPOLYLINE
  5
4A0
100
AcDbEntity
  8
0
100
AcDbPolyline
 62
7
  6
CONTINUOUS
 90
3
 70
0
 43
0.3500000019
 10
-16.780715332
 20
31.4035283203
 10
-16.8521455078
 20
31.1892404785
 10
-16.9950004883
 20
30.903527832
  0
LINE
  5
4A1
100
AcDbEntity
  8
0
100
AcDbLine
 62
250
  6
CONTINUOUS
 10
-23.841176777
 20
-0.1717184249
 11
-29.0585050388
 21
-0.2172493589
  0
LINE
  5
4A2
100
AcDbEntity
  8
0
100
AcDbLine
 62
7
  6
CONTINUOUS
 10
-23.841176777
 20
0.0282282781
 11
-29.3428009285
 21
-0.0197836685
  0
LINE
  5
4A3
100
AcDbEntity
  8
0
100
AcDbLine
 62
250
  6
CONTINUOUS
 10
-29.0585050388
 20
-0.2172493654
 11
-29.5410555727
 21
-0.2199153113
  0
LINE
  5
4A4
100
AcDbEntity
  8
0
100
AcDbLine
 62
7
  6
CONTINUOUS
 10
-29.3428009286
 20
0.2762402247
 11
-23.841176777
 21
0.2282282781
  0
LINE
  5
4A5
100
AcDbEntity
  8
0
100
AcDbLine
 62
250
  6
CONTINUOUS
 10
-27.5161908236
 20
21.6858572826
 11
-27.5183998498
 21
21.7293250297
  0
LINE
  5
4A6
100
AcDbEntity
  8
0
100
AcDbLine
 62
250
  6
CONTINUOUS
 10
-27.5183998498
 20
21.7293250297
 11
-27.5197905975
 21
21.7581404657
  0
LINE
  5
4A7
100
AcDbEntity
  8
0
100
AcDbLine
 62
250
  6
CONTINUOUS
 10
-27.5161908236
 20
-21.4294007265
 11
-27.5197905976
 21
-21.5016839109
  0
LINE
  5
4A8
100
AcDbEntity
  8
0
100
AcDbLine
 62
250
  6
CONTINUOUS
 10
-29.5410555727
 20
0.4763718675
 11
-29.0585050388
 21
0.4737059216
  0
LINE
  5
4A9
100
AcDbEntity
  8
0
100
AcDbLine
 62
250
  6
CONTINUOUS
 10
-29.0585050388
 20
0.4737059151
 11
-23.841176777
 21
0.4281749811
  0
LINE
  5
4AA
100
AcDbEntity
  8
RACCORDO
100
AcDbLine
 62
7
  6
CONTINUOUS
 10
-24.241176777
 20
-17.8052615308
 11
-24.241176777
 21
-17.543792643
  0
LINE
  5
4AB
100
AcDbEntity
  8
RACCORDO
100
AcDbLine
 62
7
  6
CONTINUOUS
 10
-24.241176777
 20
17.8002491992
 11
-24.241176777
 21
18.0617180869
  0
LINE
  5
4AC
100
AcDbEntity
  8
0
100
AcDbLine
 62
7
  6
CONTINUOUS
 10
-23.841176777
 20
0.0282282781
 11
-23.841176777
 21
-12.9717717219
  0
LINE
  5
4AD
100
AcDbEntity
  8
0
100
AcDbLine
 62
7
  6
CONTINUOUS
 10
-23.841176777
 20
0.2282282781
 11
-23.841176777
 21
13.2282282781
  0
LINE
  5
4AE
100
AcDbEntity
  8
0
100
AcDbLine
 62
7
  6
CONTINUOUS
 10
-24.6380443415
 20
22.3364662187
 11
-23.841176777
 21
13.2282282781
  0
LINE
  5
4AF
100
AcDbEntity
  8
0
100
AcDbLine
 62
7
  6
CONTINUOUS
 10
-23.841176777
 20
-12.9717717219
 11
-24.6380443415
 21
-22.0800096625
  0
LINE
  5
4B0
100
AcDbEntity
  8
RACCORDO
100
AcDbLine
 62
7
  6
CONTINUOUS
 10
-24.2764982434
 20
-17.947518851
 11
-24.2692851018
 21
-17.932050219
  0
LINE
  5
4B1
100
AcDbEntity
  8
0
100
AcDbLine
 62
250
  6
CONTINUOUS
 10
-28.968458637
 20
9.6187282781
 11
-29.2797136562
 21
9.6247248001
  0
LINE
  5
4B2
100
AcDbEntity
  8
0
100
AcDbLine
 62
250
  6
CONTINUOUS
 10
-29.2797136562
 20
9.6247248001
 11
-29.4476875108
 21
9.6281292074
  0
LWPOLYLINE
  5
4B3
100
AcDbEntity
  8
0
100
AcDbPolyline
 62
250
  6
CONTINUOUS
 90
4
 70
0
 10
-29.4476875108
 20
9.6281292074
 10
-29.450110376
 20
9.6281940538
 10
-29.4507166156
 20
9.628215003
 10
-29.4509186305
 20
9.6282282781
  0
LINE
  5
4B4
100
AcDbEntity
  8
RACCORDO
100
AcDbLine
 62
7
  6
CONTINUOUS
 10
-24.2692851018
 20
18.1885067752
 11
-24.2764982434
 21
18.2039754072
  0
LWPOLYLINE
  5
4B5
100
AcDbEntity
  8
0
100
AcDbPolyline
 62
7
  6
CONTINUOUS
 90
4
 70
0
 43
0.3500000019
 10
-15.7807143555
 20
33.4749550781
 10
-15.7807143555
 20
34.1178132324
 10
-14.2807182617
 20
34.1178132324
 10
-15.1378588867
 20
31.1178129883
  0
LINE
  5
4B6
100
AcDbEntity
  8
RACCORDO
100
AcDbLine
 62
250
  6
CONTINUOUS
 10
-24.2640524974
 20
18.0617198794
 11
-24.241176777
 21
18.0617198793
  0
LWPOLYLINE
  5
4B7
100
AcDbEntity
  8
0
100
AcDbPolyline
 62
250
  6
CONTINUOUS
 90
58
 70
0
 10
-27.5161908236
 20
21.6858572826
 10
-27.5281825801
 20
21.6850838912
 10
-27.5401392342
 20
21.6840244264
 10
-27.5520607859
 20
21.6826788882
 10
-27.5639542861
 20
21.681046159
 10
-27.5758126838
 20
21.6791273564
 10
-27.5876148267
 20
21.6769258337
 10
-27.5993604165
 20
21.6744411097
 10
-27.6110497516
 20
21.6716736655
 10
-27.6226625738
 20
21.6686282982
 10
-27.634198726
 20
21.6653045309
 10
-27.6456583654
 20
21.6617028405
 10
-27.6570217061
 20
21.6578294542
 10
-27.6682885921
 20
21.6536838993
 10
-27.6794591794
 20
21.6492666485
 10
-27.6905141504
 20
21.644585347
 10
-27.7014533039
 20
21.6396395375
 10
-27.7122768411
 20
21.6344296772
 10
-27.7229660484
 20
21.6289647835
 10
-27.7335206926
 20
21.6232444148
 10
-27.7439410069
 20
21.6172690128
 10
-27.7542089766
 20
21.61104892
 10
-27.7643243316
 20
21.6045837175
 10
-27.7742873421
 20
21.5978738243
 10
-27.7840808038
 20
21.5909308396
 10
-27.7937044301
 20
21.5837543556
 10
-27.8031585077
 20
21.5763447801
 10
-27.8124266921
 20
21.5687149366
 10
-27.821508656
 20
21.5608644485
 10
-27.8304047267
 20
21.5527936923
 10
-27.8390995417
 20
21.5445166207
 10
-27.8475927571
 20
21.5360328724
 10
-27.8558847167
 20
21.5273428086
 10
-27.8639610902
 20
21.518461465
 10
-27.8718214984
 20
21.509388518
 10
-27.8794663203
 20
21.5001242911
 10
-27.8868823625
 20
21.4906847908
 10
-27.8940692333
 20
21.4810697095
 10
-27.9010273242
 20
21.4712793547
 10
-27.9077446161
 20
21.4613306559
 10
-27.9142206916
 20
21.4512233404
 10
-27.920455968
 20
21.4409576808
 10
-27.9264396786
 20
21.4305514241
 10
-27.9321713881
 20
21.4200043278
 10
-27.9376515319
 20
21.4093166343
 10
-27.9428706495
 20
21.3985068183
 10
-27.9478282867
 20
21.3875746793
 10
-27.9525248977
 20
21.3765204179
 10
-27.9569523851
 20
21.3653631105
 10
-27.961110291
 20
21.3541025552
 10
-27.9649990733
 20
21.3427389539
 10
-27.968612008
 20
21.3312919883
 10
-27.971948636
 20
21.3197613784
 10
-27.9750094164
 20
21.3081474042
 10
-27.9777890027
 20
21.2964705877
 10
-27.9802856126
 20
21.2847377696
 10
-27.9825010284
 20
21.2729421092
 10
-27.98443525
 20
21.2610836065
  0
LINE
  5
4B8
100
AcDbEntity
  8
0
100
AcDbLine
 62
250
  6
CONTINUOUS
 10
-24.5945195509
 20
21.8389755858
 11
-27.5161908236
 21
21.6858572826
  0
LINE
  5
4B9
100
AcDbEntity
  8
0
100
AcDbLine
 62
7
  6
CONTINUOUS
 10
-24.6380443415
 20
22.3364662187
 11
-27.5249090534
 21
22.18517205
  0
LWPOLYLINE
  5
4BA
100
AcDbEntity
  8
0
100
AcDbPolyline
 62
7
  6
CONTINUOUS
 90
8
 70
0
 43
0.3500000019
 10
-19.6378579102
 20
31.1178129883
 10
-18.7807172852
 20
31.1178129883
 10
-18.3521469727
 20
31.5463833008
 10
-18.3521469727
 20
32.4035266113
 10
-18.7807172852
 20
32.8320996094
 10
-19.6378579102
 20
32.8320996094
 10
-19.6378579102
 20
34.1178132324
 10
-18.3521469727
 20
34.1178132324
  0
LINE
  5
4BB
100
AcDbEntity
  8
0
100
AcDbLine
 62
250
  6
CONTINUOUS
 10
-27.98443525
 20
21.2610836065
 11
-28.095473598
 21
21.2779128722
  0
LINE
  5
4BC
100
AcDbEntity
  8
0
100
AcDbLine
 62
250
  6
CONTINUOUS
 10
-28.095473598
 20
21.2779128722
 11
-28.1998848911
 21
21.2938741317
  0
LINE
  5
4BD
100
AcDbEntity
  8
0
100
AcDbLine
 62
250
  6
CONTINUOUS
 10
-28.1998848911
 20
21.2938741317
 11
-28.2922838883
 21
21.3081441481
  0
LINE
  5
4BE
100
AcDbEntity
  8
0
100
AcDbLine
 62
250
  6
CONTINUOUS
 10
-28.2922838883
 20
21.3081441481
 11
-28.3595126693
 21
21.3186615782
  0
LINE
  5
4BF
100
AcDbEntity
  8
0
100
AcDbLine
 62
250
  6
CONTINUOUS
 10
-28.3595126693
 20
21.3186615782
 11
-28.4048724455
 21
21.3258784277
  0
LINE
  5
4C0
100
AcDbEntity
  8
0
100
AcDbLine
 62
250
  6
CONTINUOUS
 10
-28.4048724455
 20
21.3258784277
 11
-28.4329944735
 21
21.3304610576
  0
LINE
  5
4C1
100
AcDbEntity
  8
0
100
AcDbLine
 62
250
  6
CONTINUOUS
 10
-28.4329944735
 20
21.3304610576
 11
-28.4453777229
 21
21.3325427019
  0
LWPOLYLINE
  5
4C2
100
AcDbEntity
  8
0
100
AcDbPolyline
 62
250
  6
CONTINUOUS
 90
9
 70
0
 10
-28.4453777229
 20
21.3325427019
 10
-28.4517029159
 20
21.3336422325
 10
-28.4542782712
 20
21.3341041231
 10
-28.4564592473
 20
21.3345069162
 10
-28.4582440792
 20
21.3348502858
 10
-28.4596313223
 20
21.3351339541
 10
-28.460619854
 20
21.3353576914
 10
-28.4612088742
 20
21.3355213168
 10
-28.4613979061
 20
21.3356246977
  0
LWPOLYLINE
  5
4C3
100
AcDbEntity
  8
0
100
AcDbPolyline
 62
7
  6
CONTINUOUS
 90
10
 70
0
 43
0.3500000019
 10
-16.8521455078
 20
31.6178134766
 10
-16.780715332
 20
31.4749558105
 10
-16.780715332
 20
31.4035283203
 10
-16.9235756836
 20
31.2606706543
 10
-16.9950004883
 20
31.2606706543
 10
-17.0664306641
 20
31.3320981445
 10
-17.0664306641
 20
31.4035283203
 10
-16.9950004883
 20
31.5463833008
 10
-16.9235756836
 20
31.6178134766
 10
-16.8521455078
 20
31.6178134766
  0
ARC
  5
4C4
100
AcDbEntity
  8
0
100
AcDbCircle
 62
7
  6
CONTINUOUS
 10
-1.3720325043
 20
-12.4467717218
 40
0.2999999999
100
AcDbArc
 50
299.9999999649
 51
119.9999999649
  0
ARC
  5
4C5
100
AcDbEntity
  8
0
100
AcDbCircle
 62
7
  6
CONTINUOUS
 10
-1.8916477475
 20
-12.7467717219
 40
0.2999999999
100
AcDbArc
 50
119.9999999649
 51
299.9999999649
  0
ARC
  5
4C6
100
AcDbEntity
  8
0
100
AcDbCircle
 62
7
  6
CONTINUOUS
 10
-1.8916477475
 20
-10.4967717219
 40
0.2999999999
100
AcDbArc
 50
60.0000000351
 51
240.0000000351
  0
ARC
  5
4C7
100
AcDbEntity
  8
0
100
AcDbCircle
 62
7
  6
CONTINUOUS
 10
-1.3720325043
 20
-10.796771722
 40
0.2999999999
100
AcDbArc
 50
240.0000000351
 51
60.0000000351
  0
ARC
  5
4C8
100
AcDbEntity
  8
ASSI
100
AcDbCircle
 62
7
  6
CONTINUOUS
 10
-1.8916477475
 20
-10.4967717219
 40
0.2999999999
100
AcDbArc
 50
60.0000000351
 51
240.0000000351
  0
ARC
  5
4C9
100
AcDbEntity
  8
ASSI
100
AcDbCircle
 62
7
  6
CONTINUOUS
 10
-1.8916477475
 20
-12.7467717219
 40
0.2999999999
100
AcDbArc
 50
119.9999999649
 51
299.9999999649
  0
ARC
  5
4CA
100
AcDbEntity
  8
ASSI
100
AcDbCircle
 62
7
  6
CONTINUOUS
 10
-1.3720325043
 20
-12.4467717218
 40
0.2999999999
100
AcDbArc
 50
299.9999999649
 51
119.9999999649
  0
ARC
  5
4CB
100
AcDbEntity
  8
ASSI
100
AcDbCircle
 62
7
  6
CONTINUOUS
 10
-1.3720325043
 20
-10.796771722
 40
0.2999999999
100
AcDbArc
 50
240.0000000351
 51
60.000000035
  0
ARC
  5
4CC
100
AcDbEntity
  8
0
100
AcDbCircle
 62
7
  6
CONTINUOUS
 10
-2.2058322848
 20
14.1409699793
 40
0.3000000037
100
AcDbArc
 50
45.0
 51
225.0
  0
ARC
  5
4CD
100
AcDbEntity
  8
ASSI
100
AcDbCircle
 62
7
  6
CONTINUOUS
 10
-2.2058322848
 20
14.1409699793
 40
0.3000000037
100
AcDbArc
 50
45.0
 51
225.0
  0
ARC
  5
4CE
100
AcDbEntity
  8
0
100
AcDbCircle
 62
7
  6
CONTINUOUS
 10
-1.321948812
 20
13.2570865016
 40
0.3000000002
100
AcDbArc
 50
225.0
 51
45.0
  0
ARC
  5
4CF
100
AcDbEntity
  8
0
100
AcDbCircle
 62
7
  6
CONTINUOUS
 10
-3.1430905881
 20
11.8782282784
 40
0.3000000004
100
AcDbArc
 50
90.0
 51
270.0
  0
ARC
  5
4D0
100
AcDbEntity
  8
ASSI
100
AcDbCircle
 62
7
  6
CONTINUOUS
 10
-3.1430905881
 20
11.8782282784
 40
0.3000000004
100
AcDbArc
 50
90.0
 51
270.0
  0
ARC
  5
4D1
100
AcDbEntity
  8
0
100
AcDbCircle
 62
7
  6
CONTINUOUS
 10
-1.8930905885
 20
11.8782282781
 40
0.3
100
AcDbArc
 50
270.0
 51
90.0
  0
ARC
  5
4D2
100
AcDbEntity
  8
0
100
AcDbCircle
 62
7
  6
CONTINUOUS
 10
-2.2058322882
 20
9.6154865785
 40
0.3000000003
100
AcDbArc
 50
135.0
 51
315.0
  0
ARC
  5
4D3
100
AcDbEntity
  8
0
100
AcDbCircle
 62
7
  6
CONTINUOUS
 10
-1.321948812
 20
10.4993700546
 40
0.3000000002
100
AcDbArc
 50
315.0
 51
134.9999974815
  0
ARC
  5
4D4
100
AcDbEntity
  8
ASSI
100
AcDbCircle
 62
7
  6
CONTINUOUS
 10
-1.321948812
 20
13.2570865016
 40
0.3000000002
100
AcDbArc
 50
225.0
 51
45.0
  0
ARC
  5
4D5
100
AcDbEntity
  8
ASSI
100
AcDbCircle
 62
7
  6
CONTINUOUS
 10
-1.8930905885
 20
11.8782282781
 40
0.3
100
AcDbArc
 50
270.0
 51
90.0
  0
ARC
  5
4D6
100
AcDbEntity
  8
ASSI
100
AcDbCircle
 62
7
  6
CONTINUOUS
 10
-2.2058322882
 20
9.6154865785
 40
0.3000000003
100
AcDbArc
 50
134.9999997425
 51
315.0
  0
ARC
  5
4D7
100
AcDbEntity
  8
ASSI
100
AcDbCircle
 62
7
  6
CONTINUOUS
 10
-1.321948812
 20
10.4993700546
 40
0.3000000002
100
AcDbArc
 50
315.0
 51
134.9999974815
  0
CIRCLE
  5
4D8
100
AcDbEntity
  8
0
100
AcDbCircle
 62
7
  6
CONTINUOUS
 10
0.0569094115
 20
-11.6217717219
 40
0.65
  0
CIRCLE
  5
4D9
100
AcDbEntity
  8
ASSI
100
AcDbCircle
 62
7
  6
CONTINUOUS
 10
0.0569094115
 20
-11.6217717219
 40
0.65
  0
ARC
  5
4DA
100
AcDbEntity
  8
0
100
AcDbCircle
 62
7
  6
CONTINUOUS
 10
2.0054665707
 20
-10.4967717218
 40
0.2999999999
100
AcDbArc
 50
299.9999995358
 51
119.9999999649
  0
ARC
  5
4DB
100
AcDbEntity
  8
0
100
AcDbCircle
 62
7
  6
CONTINUOUS
 10
1.4858513275
 20
-10.7967717219
 40
0.2999999999
100
AcDbArc
 50
119.9999999649
 51
299.9999995358
  0
ARC
  5
4DC
100
AcDbEntity
  8
0
100
AcDbCircle
 62
7
  6
CONTINUOUS
 10
2.0054665707
 20
-12.746771722
 40
0.2999999999
100
AcDbArc
 50
240.0000000351
 51
0.0001966481
  0
ARC
  5
4DD
100
AcDbEntity
  8
0
100
AcDbCircle
 62
7
  6
CONTINUOUS
 10
1.4858513275
 20
-12.4467717219
 40
0.2999999999
100
AcDbArc
 50
60.0000000351
 51
240.0000000351
  0
ARC
  5
4DE
100
AcDbEntity
  8
0
100
AcDbCircle
 62
7
  6
CONTINUOUS
 10
0.0569094115
 20
-13.8717717219
 40
0.3
100
AcDbArc
 50
180.0
 51
360.0
  0
ARC
  5
4DF
100
AcDbEntity
  8
0
100
AcDbCircle
 62
7
  6
CONTINUOUS
 10
0.0569094115
 20
-9.3717717219
 40
0.3
100
AcDbArc
 50
0.0
 51
180.0
  0
ARC
  5
4E0
100
AcDbEntity
  8
0
100
AcDbCircle
 62
7
  6
CONTINUOUS
 10
0.0569094115
 20
-9.9717717219
 40
0.3
100
AcDbArc
 50
180.0
 51
360.0
  0
ARC
  5
4E1
100
AcDbEntity
  8
ASSI
100
AcDbCircle
 62
7
  6
CONTINUOUS
 10
0.0569094115
 20
-9.3717717219
 40
0.3
100
AcDbArc
 50
0.0
 51
180.0
  0
ARC
  5
4E2
100
AcDbEntity
  8
ASSI
100
AcDbCircle
 62
7
  6
CONTINUOUS
 10
0.0569094115
 20
-13.8717717219
 40
0.3
100
AcDbArc
 50
180.0
 51
360.0
  0
ARC
  5
4E3
100
AcDbEntity
  8
ASSI
100
AcDbCircle
 62
7
  6
CONTINUOUS
 10
2.0054665707
 20
-12.746771722
 40
0.2999999999
100
AcDbArc
 50
240.0000000636
 51
0.0001966481
  0
ARC
  5
4E4
100
AcDbEntity
  8
ASSI
100
AcDbCircle
 62
7
  6
CONTINUOUS
 10
1.4858513275
 20
-12.4467717219
 40
0.2999999999
100
AcDbArc
 50
60.0000000351
 51
240.0000000351
  0
ARC
  5
4E5
100
AcDbEntity
  8
ASSI
100
AcDbCircle
 62
7
  6
CONTINUOUS
 10
0.0569094115
 20
-9.9717717219
 40
0.3
100
AcDbArc
 50
180.0
 51
360.0
  0
ARC
  5
4E6
100
AcDbEntity
  8
ASSI
100
AcDbCircle
 62
7
  6
CONTINUOUS
 10
2.0054665707
 20
-10.4967717218
 40
0.2999999999
100
AcDbArc
 50
299.9999995358
 51
119.9999999649
  0
ARC
  5
4E7
100
AcDbEntity
  8
ASSI
100
AcDbCircle
 62
7
  6
CONTINUOUS
 10
1.4858513275
 20
-10.7967717219
 40
0.2999999999
100
AcDbArc
 50
119.9999999649
 51
299.9999995358
  0
ARC
  5
4E8
100
AcDbEntity
  8
0
100
AcDbCircle
 62
7
  6
CONTINUOUS
 10
1.435767635
 20
10.4993700543
 40
0.3000000005
100
AcDbArc
 50
45.0
 51
225.0
  0
ARC
  5
4E9
100
AcDbEntity
  8
ASSI
100
AcDbCircle
 62
7
  6
CONTINUOUS
 10
1.435767635
 20
10.4993700543
 40
0.3000000005
100
AcDbArc
 50
45.0
 51
225.0
  0
ARC
  5
4EA
100
AcDbEntity
  8
0
100
AcDbCircle
 62
7
  6
CONTINUOUS
 10
0.0569094115
 20
8.6782282781
 40
0.3
100
AcDbArc
 50
180.0
 51
360.0
  0
ARC
  5
4EB
100
AcDbEntity
  8
0
100
AcDbCircle
 62
7
  6
CONTINUOUS
 10
0.0569094115
 20
9.9282282781
 40
0.3
100
AcDbArc
 50
0.0
 51
180.0
  0
ARC
  5
4EC
100
AcDbEntity
  8
ASSI
100
AcDbCircle
 62
7
  6
CONTINUOUS
 10
0.0569094115
 20
8.6782282781
 40
0.3
100
AcDbArc
 50
180.0
 51
360.0
  0
ARC
  5
4ED
100
AcDbEntity
  8
ASSI
100
AcDbCircle
 62
7
  6
CONTINUOUS
 10
0.0569094115
 20
9.9282282781
 40
0.3
100
AcDbArc
 50
0.0
 51
180.0
  0
CIRCLE
  5
4EE
100
AcDbEntity
  8
0
100
AcDbCircle
 62
7
  6
CONTINUOUS
 10
0.0569094115
 20
11.8782282781
 40
0.95
  0
CIRCLE
  5
4EF
100
AcDbEntity
  8
ASSI
100
AcDbCircle
 62
7
  6
CONTINUOUS
 10
0.0569094115
 20
11.8782282781
 40
0.95
  0
ARC
  5
4F0
100
AcDbEntity
  8
0
100
AcDbCircle
 62
7
  6
CONTINUOUS
 10
1.435767635
 20
13.2570865019
 40
0.3000000005
100
AcDbArc
 50
135.0
 51
315.0
  0
ARC
  5
4F1
100
AcDbEntity
  8
ASSI
100
AcDbCircle
 62
7
  6
CONTINUOUS
 10
1.435767635
 20
13.2570865019
 40
0.3000000005
100
AcDbArc
 50
135.0
 51
315.0
  0
ARC
  5
4F2
100
AcDbEntity
  8
0
100
AcDbCircle
 62
7
  6
CONTINUOUS
 10
0.0569094115
 20
15.0782282781
 40
0.3
100
AcDbArc
 50
0.0
 51
180.0
  0
ARC
  5
4F3
100
AcDbEntity
  8
ASSI
100
AcDbCircle
 62
7
  6
CONTINUOUS
 10
0.0569094115
 20
15.0782282781
 40
0.3
100
AcDbArc
 50
0.0
 51
180.0
  0
ARC
  5
4F4
100
AcDbEntity
  8
0
100
AcDbCircle
 62
7
  6
CONTINUOUS
 10
2.319651111
 20
9.6154865786
 40
0.3000000002
100
AcDbArc
 50
225.0
 51
45.0
  0
ARC
  5
4F5
100
AcDbEntity
  8
ASSI
100
AcDbCircle
 62
7
  6
CONTINUOUS
 10
2.319651111
 20
9.6154865786
 40
0.3000000002
100
AcDbArc
 50
225.0
 51
45.0000000015
  0
ARC
  5
4F6
100
AcDbEntity
  8
0
100
AcDbCircle
 62
7
  6
CONTINUOUS
 10
2.0069094119
 20
11.8782282784
 40
0.3000000004
100
AcDbArc
 50
90.0
 51
270.0
  0
ARC
  5
4F7
100
AcDbEntity
  8
ASSI
100
AcDbCircle
 62
7
  6
CONTINUOUS
 10
2.0069094119
 20
11.8782282784
 40
0.3000000004
100
AcDbArc
 50
90.0
 51
270.0
  0
ARC
  5
4F8
100
AcDbEntity
  8
0
100
AcDbCircle
 62
7
  6
CONTINUOUS
 10
3.2569094115
 20
11.8782282781
 40
0.3
100
AcDbArc
 50
270.0
 51
90.0
  0
ARC
  5
4F9
100
AcDbEntity
  8
0
100
AcDbCircle
 62
7
  6
CONTINUOUS
 10
2.319651111
 20
14.1409699776
 40
0.3000000002
100
AcDbArc
 50
315.0
 51
135.0
  0
ARC
  5
4FA
100
AcDbEntity
  8
ASSI
100
AcDbCircle
 62
7
  6
CONTINUOUS
 10
2.319651111
 20
14.1409699776
 40
0.3000000002
100
AcDbArc
 50
315.0
 51
135.0
  0
ARC
  5
4FB
100
AcDbEntity
  8
ASSI
100
AcDbCircle
 62
7
  6
CONTINUOUS
 10
3.2569094115
 20
11.8782282781
 40
0.3
100
AcDbArc
 50
270.0
 51
90.0
  0
ARC
  5
4FC
100
AcDbEntity
  8
0
100
AcDbCircle
 62
7
  6
CONTINUOUS
 10
-27.4725730972
 20
-20.9300859591
 40
1.0
100
AcDbArc
 50
188.5737414447
 51
267.0
  0
ARC
  5
4FD
100
AcDbEntity
  8
RACCORDO
100
AcDbCircle
 62
7
  6
CONTINUOUS
 10
-24.541176777
 20
-17.8052633231
 40
0.3
100
AcDbArc
 50
334.9997013218
 51
0.0003423163
  0
ARC
  5
4FE
100
AcDbEntity
  8
0
100
AcDbCircle
 62
7
  6
CONTINUOUS
 10
-29.3410556215
 20
-0.2197760531
 40
0.2
100
AcDbArc
 50
90.5
 51
180.0398943198
  0
ARC
  5
4FF
100
AcDbEntity
  8
0
100
AcDbCircle
 62
7
  6
CONTINUOUS
 10
60.5328349032
 20
-7.6617717219
 40
90.0
100
AcDbArc
 50
181.08868532
 51
188.5737414447
  0
ARC
  5
500
100
AcDbEntity
  8
0
100
AcDbCircle
 62
7
  6
CONTINUOUS
 10
-29.3410556046
 20
0.4762326092
 40
0.2
100
AcDbArc
 50
179.9601055941
 51
269.4999951905
  0
ARC
  5
501
100
AcDbEntity
  8
0
100
AcDbCircle
 62
7
  6
CONTINUOUS
 10
-27.4725730972
 20
21.1865425153
 40
1.0
100
AcDbArc
 50
93.0
 51
171.4262585553
  0
ARC
  5
502
100
AcDbEntity
  8
RACCORDO
100
AcDbCircle
 62
7
  6
CONTINUOUS
 10
-24.541176777
 20
18.0617198793
 40
0.3
100
AcDbArc
 50
359.9996576837
 51
25.0002986779
  0
ARC
  5
503
100
AcDbEntity
  8
0
100
AcDbCircle
 62
7
  6
CONTINUOUS
 10
60.5328349032
 20
7.9182282781
 40
90.0
100
AcDbArc
 50
171.4262585553
 51
178.91131468
  0
ARC
  5
504
100
AcDbEntity
  8
0
100
AcDbCircle
 62
7
  6
CONTINUOUS
 10
470.458823223
 20
0.1282282781
 40
500.0
100
AcDbArc
 50
178.91131468
 51
179.9601056802
  0
ARC
  5
505
100
AcDbEntity
  8
0
100
AcDbCircle
 62
7
  6
CONTINUOUS
 10
470.458823223
 20
0.1282282781
 40
500.0
100
AcDbArc
 50
180.0398943198
 51
181.08868532
  0
ELLIPSE
  5
506
100
AcDbEntity
  8
RACCORDO
100
AcDbEllipse
 62
7
  6
CONTINUOUS
 10
-10.0431210541
 20
0.4282358938
 30
0.0
 11
0.1789222233
 21
0.0894542984
 31
0.0
 40
0.9998096356
 41
-2.0344896259
 42
-1.5707963269
  0
ELLIPSE
  5
507
100
AcDbEntity
  8
RACCORDO
100
AcDbEllipse
 62
7
  6
CONTINUOUS
 10
7.3414393577
 20
22.310098165
 30
0.0
 11
0.2
 21
-0.0
 31
0.0
 40
0.0524077793
 41
-1.5707963268
 42
-0.5235987756
  0
ELLIPSE
  5
508
100
AcDbEntity
  8
RACCORDO
100
AcDbEllipse
 62
7
  6
CONTINUOUS
 10
-3.8585606423
 20
22.310098165
 30
0.0
 11
0.2
 21
0.0
 31
0.0
 40
0.0524077793
 41
-1.5707963268
 42
-0.5235987756
  0
ELLIPSE
  5
509
100
AcDbEntity
  8
RACCORDO
100
AcDbEllipse
 62
7
  6
CONTINUOUS
 10
3.9723794654
 20
22.310098165
 30
0.0
 11
0.2
 21
-0.0
 31
0.0
 40
0.0524077793
 41
-2.617993878
 42
-1.5707963268
  0
ELLIPSE
  5
50A
100
AcDbEntity
  8
RACCORDO
100
AcDbEllipse
 62
7
  6
CONTINUOUS
 10
-7.2276205346
 20
22.310098165
 30
0.0
 11
0.2
 21
0.0
 31
0.0
 40
0.0524077793
 41
-2.617993878
 42
-1.5707963268
  0
ELLIPSE
  5
50B
100
AcDbEntity
  8
0
100
AcDbEllipse
 62
7
  6
CONTINUOUS
 10
11.0067875027
 20
0.4282358938
 30
0.0
 11
0.1941585013
 21
-0.0485211407
 31
0.0
 40
0.9993528196
 41
-1.3257549497
 42
0.2447368254
  0
ELLIPSE
  5
50C
100
AcDbEntity
  8
0
100
AcDbEllipse
 62
7
  6
CONTINUOUS
 10
-10.8929686796
 20
0.4282358938
 30
0.0
 11
0.1941585013
 21
0.0485211407
 31
0.0
 40
0.9993528196
 41
2.8968558282
 42
4.4673476033
  0
ELLIPSE
  5
50D
100
AcDbEntity
  8
0
100
AcDbEllipse
 62
7
  6
CONTINUOUS
 10
4.250549789
 20
0.9218686555
 30
0.0
 11
0.4643386945
 21
-0.1896138901
 31
0.0
 40
0.9790602997
 41
1.1805847873
 42
1.9659448745
  0
ELLIPSE
  5
50E
100
AcDbEntity
  8
0
100
AcDbEllipse
 62
7
  6
CONTINUOUS
 10
4.250549789
 20
0.9218686555
 30
0.0
 11
-0.1896138901
 21
0.4643386945
 31
0.0
 40
0.9790602997
 41
-1.9659448745
 42
-1.1805847873
  0
ELLIPSE
  5
50F
100
AcDbEntity
  8
0
100
AcDbEllipse
 62
7
  6
CONTINUOUS
 10
-4.1367309659
 20
0.9218686555
 30
0.0
 11
0.1896138901
 21
0.4643386945
 31
0.0
 40
0.9790602997
 41
1.1805847873
 42
1.9659448745
  0
ELLIPSE
  5
510
100
AcDbEntity
  8
0
100
AcDbEllipse
 62
7
  6
CONTINUOUS
 10
-4.1367309659
 20
0.9218686555
 30
0.0
 11
0.4643386945
 21
0.1896138901
 31
0.0
 40
0.9790602997
 41
1.1756477791
 42
1.9610078663
  0
ELLIPSE
  5
511
100
AcDbEntity
  8
0
100
AcDbEllipse
 62
7
  6
CONTINUOUS
 10
-10.5664812882
 20
21.8380652572
 30
0.0
 11
0.4943891341
 21
0.0770133648
 31
0.0
 40
0.9960067742
 41
1.4156538168
 42
2.984623644
  0
ELLIPSE
  5
512
100
AcDbEntity
  8
0
100
AcDbEllipse
 62
7
  6
CONTINUOUS
 10
10.6803001112
 20
21.8380652572
 30
0.0
 11
0.4943891341
 21
-0.0770133648
 31
0.0
 40
0.9960067742
 41
0.1569690096
 42
1.7259388368
  0
ELLIPSE
  5
513
100
AcDbEntity
  8
0
100
AcDbEllipse
 62
7
  6
CONTINUOUS
 10
4.9401528329
 20
0.4614716994
 30
0.0
 11
-0.075845556
 21
0.1857354778
 31
0.0
 40
0.9790602997
 41
1.1756477791
 42
2.7463679535
  0
ELLIPSE
  5
514
100
AcDbEntity
  8
0
100
AcDbEllipse
 62
7
  6
CONTINUOUS
 10
-4.8263340098
 20
0.4614716994
 30
0.0
 11
0.075845556
 21
0.1857354778
 31
0.0
 40
0.9790602997
 41
-2.7463679535
 42
-1.1756477791
  0
ELLIPSE
  5
515
100
AcDbEntity
  8
RACCORDO
100
AcDbEllipse
 62
7
  6
CONTINUOUS
 10
10.1569398771
 20
-0.1717793376
 30
0.0
 11
0.1789222233
 21
0.0894542984
 31
0.0
 40
0.9998096356
 41
1.1071030277
 42
1.5707963267
  0
ELLIPSE
  5
516
100
AcDbEntity
  8
RACCORDO
100
AcDbEllipse
 62
7
  6
CONTINUOUS
 10
-7.2276205346
 20
-22.0536416088
 30
0.0
 11
0.2
 21
0.0
 31
0.0
 40
0.0524077793
 41
1.5707963268
 42
2.617993878
  0
ELLIPSE
  5
517
100
AcDbEntity
  8
RACCORDO
100
AcDbEllipse
 62
7
  6
CONTINUOUS
 10
3.9723794654
 20
-22.0536416088
 30
0.0
 11
0.2
 21
0.0
 31
0.0
 40
0.0524077793
 41
1.5707963268
 42
2.617993878
  0
ELLIPSE
  5
518
100
AcDbEntity
  8
RACCORDO
100
AcDbEllipse
 62
7
  6
CONTINUOUS
 10
-3.8585606423
 20
-22.0536416088
 30
0.0
 11
0.2
 21
-0.0
 31
0.0
 40
0.0524077793
 41
0.5235987756
 42
1.5707963268
  0
ELLIPSE
  5
519
100
AcDbEntity
  8
RACCORDO
100
AcDbEllipse
 62
7
  6
CONTINUOUS
 10
7.3414393577
 20
-22.0536416088
 30
0.0
 11
0.2
 21
0.0
 31
0.0
 40
0.0524077793
 41
0.5235987756
 42
1.5707963268
  0
ELLIPSE
  5
51A
100
AcDbEntity
  8
0
100
AcDbEllipse
 62
7
  6
CONTINUOUS
 10
-10.8929686796
 20
-0.1717793376
 30
0.0
 11
0.1941585013
 21
-0.0485211407
 31
0.0
 40
0.9993528196
 41
1.8158377039
 42
3.386329479
  0
ELLIPSE
  5
51B
100
AcDbEntity
  8
0
100
AcDbEllipse
 62
7
  6
CONTINUOUS
 10
11.0067875027
 20
-0.1717793376
 30
0.0
 11
0.1941585013
 21
0.0485211407
 31
0.0
 40
0.9993528196
 41
-0.2447368254
 42
1.3257549497
  0
ELLIPSE
  5
51C
100
AcDbEntity
  8
0
100
AcDbEllipse
 62
7
  6
CONTINUOUS
 10
-4.1367309659
 20
-0.6654120994
 30
0.0
 11
0.4643386945
 21
-0.1896138901
 31
0.0
 40
0.9790602997
 41
-1.9610078663
 42
-1.1756477791
  0
ELLIPSE
  5
51D
100
AcDbEntity
  8
0
100
AcDbEllipse
 62
7
  6
CONTINUOUS
 10
-4.1367309659
 20
-0.6654120994
 30
0.0
 11
-0.1896138901
 21
0.4643386945
 31
0.0
 40
0.9790602997
 41
1.1756477791
 42
1.9610078663
  0
ELLIPSE
  5
51E
100
AcDbEntity
  8
0
100
AcDbEllipse
 62
7
  6
CONTINUOUS
 10
4.250549789
 20
-0.6654120994
 30
0.0
 11
0.1896138901
 21
0.4643386945
 31
0.0
 40
0.9790602997
 41
-1.9610078663
 42
-1.1756477791
  0
ELLIPSE
  5
51F
100
AcDbEntity
  8
0
100
AcDbEllipse
 62
7
  6
CONTINUOUS
 10
4.250549789
 20
-0.6654120994
 30
0.0
 11
0.4643386945
 21
0.1896138901
 31
0.0
 40
0.9790602997
 41
-1.9659448745
 42
-1.1805847873
  0
ELLIPSE
  5
520
100
AcDbEntity
  8
0
100
AcDbEllipse
 62
7
  6
CONTINUOUS
 10
10.6803001112
 20
-21.581608701
 30
0.0
 11
0.4943891341
 21
0.0770133648
 31
0.0
 40
0.9960067742
 41
-1.7259388368
 42
-0.1569690096
  0
ELLIPSE
  5
521
100
AcDbEntity
  8
0
100
AcDbEllipse
 62
7
  6
CONTINUOUS
 10
-10.5664812882
 20
-21.581608701
 30
0.0
 11
0.4943891341
 21
-0.0770133648
 31
0.0
 40
0.9960067742
 41
-2.984623644
 42
-1.4156538168
  0
ELLIPSE
  5
522
100
AcDbEntity
  8
0
100
AcDbEllipse
 62
7
  6
CONTINUOUS
 10
-4.8263340098
 20
-0.2050151433
 30
0.0
 11
-0.075845556
 21
0.1857354778
 31
0.0
 40
0.9790602997
 41
-1.9659448745
 42
-0.3952247001
  0
ELLIPSE
  5
523
100
AcDbEntity
  8
0
100
AcDbEllipse
 62
7
  6
CONTINUOUS
 10
4.9401528329
 20
-0.2050151433
 30
0.0
 11
0.075845556
 21
0.1857354778
 31
0.0
 40
0.9790602997
 41
0.3952247001
 42
1.9659448745
  0
ENDSEC
  0
SECTION
  2
OBJECTS
  0
DICTIONARY
  5
C
100
AcDbDictionary
280
0
281
1
  3
ACAD_GROUP
350
D
  3
ACAD_MLINESTYLE
350
17
  3
ACAD_LAYOUT
350
1A
  3
ACAD_PLOTSETTINGS
350
19
  3
ACAD_PLOTSTYLENAME
350
E
  0
DICTIONARY
  5
D
102
{ACAD_REACTORS
330
C
102
}
100
AcDbDictionary
280
0
281
1
  0
ACDBDICTIONARYWDFLT
  5
E
102
{ACAD_REACTORS
330
C
102
}
100
AcDbDictionary
281
1
  3
Normal
350
F
100
AcDbDictionaryWithDefault
340
F
  0
DICTIONARY
  5
17
102
{ACAD_REACTORS
330
C
102
}
100
AcDbDictionary
280
0
281
1
  3
Standard
350
18
  0
DICTIONARY
  5
19
102
{ACAD_REACTORS
330
C
102
}
100
AcDbDictionary
281
1
  0
DICTIONARY
  5
1A
102
{ACAD_REACTORS
330
C
102
}
100
AcDbDictionary
281
1
  3
Model
350
524
  3
Layout1
350
525
  0
ACDBPLACEHOLDER
  5
F
102
{ACAD_REACTORS
330
E
102
}
  0
MLINESTYLE
  5
18
102
{ACAD_REACTORS
330
17
102
}
100
AcDbMlineStyle
  2
STANDARD
 70
0
  3

 62
256
 51
90.0
 52
90.0
 71
2
 49
0.5
 62
256
  6
BYLAYER
 49
-0.5
 62
256
  6
BYLAYER
  0
LAYOUT
  5
524
102
{ACAD_REACTORS
330
1A
102
}
100
AcDbPlotSettings
  1

  2
none_device
  4

  6

 40
0.0
 41
0.0
 42
0.0
 43
0.0
 44
210.0
 45
297.0
 46
0.0
 47
0.0
 48
0.0
 49
0.0
140
0.0
141
0.0
142
1.0
143
1.0
 70
1024
 72
1
 73
0
 74
0
  7

 75
0
147
1.0
148
0.0
149
0.0
100
AcDbLayout
  1
Model
 70
0
 71
0
 10
0.0
 20
0.0
 11
210.0
 21
297.0
 12
0.0
 22
0.0
 32
0.0
 14
0.0
 24
0.0
 34
0.0
 15
0.0
 25
0.0
 35
0.0
146
0.0
 13
0.0
 23
0.0
 33
0.0
 16
1.0
 26
0.0
 36
0.0
 17
0.0
 27
1.0
 37
0.0
 76
0
330
222
345
0
346
0
  0
LAYOUT
  5
525
102
{ACAD_REACTORS
330
1A
102
}
100
AcDbPlotSettings
  1

  2
none_device
  4

  6

 40
0.0
 41
0.0
 42
0.0
 43
0.0
 44
210.0
 45
297.0
 46
0.0
 47
0.0
 48
0.0
 49
0.0
140
0.0
141
0.0
142
1.0
143
1.0
 70
0
 72
1
 73
0
 74
0
  7

 75
0
147
1.0
148
0.0
149
0.0
100
AcDbLayout
  1
Layout1
 70
0
 71
1
 10
0.0
 20
0.0
 11
210.0
 21
297.0
 12
0.0
 22
0.0
 32
0.0
 14
0.0
 24
0.0
 34
0.0
 15
0.0
 25
0.0
 35
0.0
146
0.0
 13
0.0
 23
0.0
 33
0.0
 16
1.0
 26
0.0
 36
0.0
 17
0.0
 27
1.0
 37
0.0
 76
0
330
223
345
0
346
0
  0
ENDSEC
  0
EOF
