  0
SECTION
  2
HEADER
  9
$ACADVER
  1
AC1024
  9
$DWGCODEPAGE
  3
ANSI_1252
  9
$EXTMAX
 10
210.0
 20
297.0
 30
0.0
  9
$EXTMIN
 10
0.0
 20
0.0
 30
0.0
  9
$LIMMIN
 10
0.0
 20
0.0
  9
$LIMMAX
 10
210.0
 20
297.0
  9
$VIEWCTR
 10
105.0
 20
148.5
  9
$VIEWSIZE
 40
297.0
  9
$CLAYER
  8
0
  9
$LTSCALE
 40
19.36
  9
$CELTYPE
  6
BYLAYER
  9
$DIMSCALE
 40
1.0
  9
$DIMASZ
 40
3.0
  9
$DIMEXO
 40
0.5
  9
$DIMDLI
 40
13.376
  9
$DIMEXE
 40
1.5
  9
$DIMCEN
 40
3.168
  9
$DIMLFAC
 40
1.0
  9
$DIMBLK
  1
_FILLED
  9
$DIMALT
 70
0
  9
$DIMALTF
 40
0.0393700787
  9
$DIMTXT
 40
3.0
  9
$DIMTOL
 70
1
  9
$DIMLIM
 70
0
  9
$DIMTFAC
 40
1.0
  9
$DIMTP
 40
0.01
  9
$DIMTM
 40
0.01
  9
$DIMGAP
 40
0.625
  9
$DIMDSEP
 70
44
  9
$AUNITS
 70
0
  9
$PDMODE
 70
3
  9
$PDSIZE
 40
3.0
  9
$HANDSEED
  5
664
  9
$TILEMODE
 70
1
  9
$MEASUREMENT
 70
1
  9
$INSUNITS
 70
4
  0
ENDSEC
  0
SECTION
  2
CLASSES
  0
CLASS
  1
ACDBDICTIONARYWDFLT
  2
AcDbDictionaryWithDefault
  3
AutoCAD 2000
 90
0
 91
1
280
0
281
0
  0
CLASS
  1
ACDBPLACEHOLDER
  2
AcDbPlaceHolder
  3
AutoCAD 2000
 90
0
 91
1
280
0
281
0
  0
CLASS
  1
LAYOUT
  2
AcDbLayout
  3
AutoCAD 2000
 90
0
 91
0
280
0
281
0
  0
ENDSEC
  0
SECTION
  2
TABLES
  0
TABLE
  2
VPORT
  5
8
100
AcDbSymbolTable
 70
2
  0
VPORT
  5
1F4
100
AcDbSymbolTableRecord
100
AcDbViewportTableRecord
  2
*ACTIVE
 70
0
 10
0.0
 20
0.0
 11
1.0
 21
1.0
 12
105.0
 22
148.5
 13
0.0
 23
0.0
 14
1.0
 24
1.0
 15
0.0
 25
0.0
 16
0.0
 26
0.0
 36
1.0
 17
0.0
 27
0.0
 37
0.0
 40
297.0
 41
0.7070707071
 42
50.0
 43
0.0
 44
0.0
 50
0.0
 51
0.0
 71
0
 72
100
 73
1
 74
1
 75
0
 76
0
 77
0
 78
0
  0
ENDTAB
  0
TABLE
  2
LTYPE
  5
5
100
AcDbSymbolTable
 70
6
  0
LTYPE
  5
14
100
AcDbSymbolTableRecord
100
AcDbLinetypeTableRecord
  2
BYBLOCK
 70
0
  3

 72
65
 73
0
 40
0.0
  0
LTYPE
  5
15
100
AcDbSymbolTableRecord
100
AcDbLinetypeTableRecord
  2
BYLAYER
 70
0
  3

 72
65
 73
0
 40
0.0
  0
LTYPE
  5
16
100
AcDbSymbolTableRecord
100
AcDbLinetypeTableRecord
  2
CONTINUOUS
 70
64
  3
Solid line
 72
65
 73
0
 40
0.0
  0
LTYPE
  5
1F5
100
AcDbSymbolTableRecord
100
AcDbLinetypeTableRecord
  2
CENTER
 70
64
  3
____ _ ____ _ ____ _ ____ _ ____ _ ____ _ ____
 72
65
 73
4
 40
0.6
 49
0.375
 74
0
 49
-0.075
 74
0
 49
0.075
 74
0
 49
-0.075
 74
0
  0
LTYPE
  5
1F6
100
AcDbSymbolTableRecord
100
AcDbLinetypeTableRecord
  2
HIDDEN
 70
64
  3
- - - - - - - - - - - - - - - - - - - -
 72
65
 73
2
 40
0.2
 49
0.1
 74
0
 49
-0.1
 74
0
  0
LTYPE
  5
1F7
100
AcDbSymbolTableRecord
100
AcDbLinetypeTableRecord
  2
PHANTOM
 70
64
  3
_____ _ _ _____ _ _ _____ _ _ _____
 72
65
 73
6
 40
0.8
 49
0.45
 74
0
 49
-0.05
 74
0
 49
0.1
 74
0
 49
-0.05
 74
0
 49
0.1
 74
0
 49
-0.05
 74
0
  0
LTYPE
  5
1F8
100
AcDbSymbolTableRecord
100
AcDbLinetypeTableRecord
  2
DOT
 70
64
  3
. . . . . . . . . . . . . . . . . . . .
 72
65
 73
2
 40
0.2
 49
0.1
 74
0
 49
-0.1
 74
0
  0
LTYPE
  5
1F9
100
AcDbSymbolTableRecord
100
AcDbLinetypeTableRecord
  2
DASHED
 70
64
  3
- - - - - - - - - - - - - - - - - - - -
 72
65
 73
2
 40
0.2
 49
0.1
 74
0
 49
-0.1
 74
0
  0
ENDTAB
  0
TABLE
  2
LAYER
  5
2
100
AcDbSymbolTable
 70
36
  0
LAYER
  5
10
100
AcDbSymbolTableRecord
100
AcDbLayerTableRecord
  2
0
 70
0
 62
7
  6
CONTINUOUS
370
-3
390
F
  0
LAYER
  5
1FA
100
AcDbSymbolTableRecord
100
AcDbLayerTableRecord
  2
DEFAULT_1
 70
0
 62
7
  6
CENTER
370
-3
390
F
  0
LAYER
  5
1FB
100
AcDbSymbolTableRecord
100
AcDbLayerTableRecord
  2
DEFAULT_2
 70
0
 62
7
  6
HIDDEN
370
-3
390
F
  0
LAYER
  5
1FC
100
AcDbSymbolTableRecord
100
AcDbLayerTableRecord
  2
DEFAULT_3
 70
0
 62
7
  6
PHANTOM
370
-3
390
F
  0
LAYER
  5
1FD
100
AcDbSymbolTableRecord
100
AcDbLayerTableRecord
  2
ASSI
 70
0
 62
7
  6
CONTINUOUS
370
-3
390
F
  0
LAYER
  5
1FE
100
AcDbSymbolTableRecord
100
AcDbLayerTableRecord
  2
COLOR6
 70
0
 62
7
  6
CONTINUOUS
370
-3
390
F
  0
LAYER
  5
1FF
100
AcDbSymbolTableRecord
100
AcDbLayerTableRecord
  2
COLOR9
 70
0
 62
7
  6
CONTINUOUS
370
-3
390
F
  0
LAYER
  5
200
100
AcDbSymbolTableRecord
100
AcDbLayerTableRecord
  2
COORDINATE
 70
0
 62
7
  6
CONTINUOUS
370
-3
390
F
  0
LAYER
  5
201
100
AcDbSymbolTableRecord
100
AcDbLayerTableRecord
  2
COORD_ORIGINE
 70
0
 62
7
  6
CONTINUOUS
370
-3
390
F
  0
LAYER
  5
202
100
AcDbSymbolTableRecord
100
AcDbLayerTableRecord
  2
COPY_GEOMETRY
 70
0
 62
7
  6
CONTINUOUS
370
-3
390
F
  0
LAYER
  5
203
100
AcDbSymbolTableRecord
100
AcDbLayerTableRecord
  2
COPY_PUBLISH
 70
0
 62
7
  6
CONTINUOUS
370
-3
390
F
  0
LAYER
  5
204
100
AcDbSymbolTableRecord
100
AcDbLayerTableRecord
  2
COSMETIC
 70
0
 62
7
  6
CONTINUOUS
370
-3
390
F
  0
LAYER
  5
205
100
AcDbSymbolTableRecord
100
AcDbLayerTableRecord
  2
COSMETICI
 70
0
 62
7
  6
CONTINUOUS
370
-3
390
F
  0
LAYER
  5
206
100
AcDbSymbolTableRecord
100
AcDbLayerTableRecord
  2
CURVE
 70
0
 62
7
  6
CONTINUOUS
370
-3
390
F
  0
LAYER
  5
207
100
AcDbSymbolTableRecord
100
AcDbLayerTableRecord
  2
DRAFT
 70
0
 62
7
  6
CONTINUOUS
370
-3
390
F
  0
LAYER
  5
208
100
AcDbSymbolTableRecord
100
AcDbLayerTableRecord
  2
IGES
 70
0
 62
7
  6
CONTINUOUS
370
-3
390
F
  0
LAYER
  5
209
100
AcDbSymbolTableRecord
100
AcDbLayerTableRecord
  2
IGS_SCRITTE
 70
0
 62
7
  6
CONTINUOUS
370
-3
390
F
  0
LAYER
  5
20A
100
AcDbSymbolTableRecord
100
AcDbLayerTableRecord
  2
IMPORT_IGES
 70
0
 62
7
  6
CONTINUOUS
370
-3
390
F
  0
LAYER
  5
20B
100
AcDbSymbolTableRecord
100
AcDbLayerTableRecord
  2
INTFCLR_13457
 70
0
 62
7
  6
CONTINUOUS
370
-3
390
F
  0
LAYER
  5
20C
100
AcDbSymbolTableRecord
100
AcDbLayerTableRecord
  2
INTFCLR_20107
 70
0
 62
7
  6
CONTINUOUS
370
-3
390
F
  0
LAYER
  5
20D
100
AcDbSymbolTableRecord
100
AcDbLayerTableRecord
  2
INTF_11
 70
0
 62
7
  6
CONTINUOUS
370
-3
390
F
  0
LAYER
  5
20E
100
AcDbSymbolTableRecord
100
AcDbLayerTableRecord
  2
INTF_2
 70
0
 62
7
  6
CONTINUOUS
370
-3
390
F
  0
LAYER
  5
20F
100
AcDbSymbolTableRecord
100
AcDbLayerTableRecord
  2
INTF_20
 70
0
 62
7
  6
CONTINUOUS
370
-3
390
F
  0
LAYER
  5
210
100
AcDbSymbolTableRecord
100
AcDbLayerTableRecord
  2
INTF_YELLOW
 70
0
 62
7
  6
CONTINUOUS
370
-3
390
F
  0
LAYER
  5
211
100
AcDbSymbolTableRecord
100
AcDbLayerTableRecord
  2
NOTE
 70
0
 62
7
  6
CONTINUOUS
370
-3
390
F
  0
LAYER
  5
212
100
AcDbSymbolTableRecord
100
AcDbLayerTableRecord
  2
PIANI
 70
0
 62
7
  6
CONTINUOUS
370
-3
390
F
  0
LAYER
  5
213
100
AcDbSymbolTableRecord
100
AcDbLayerTableRecord
  2
PIANI_ORIGINE
 70
0
 62
7
  6
CONTINUOUS
370
-3
390
F
  0
LAYER
  5
214
100
AcDbSymbolTableRecord
100
AcDbLayerTableRecord
  2
PIANI_RIFERIMENTO
 70
0
 62
7
  6
CONTINUOUS
370
-3
390
F
  0
LAYER
  5
215
100
AcDbSymbolTableRecord
100
AcDbLayerTableRecord
  2
PUBLISH_GEOMETRY
 70
0
 62
7
  6
CONTINUOUS
370
-3
390
F
  0
LAYER
  5
216
100
AcDbSymbolTableRecord
100
AcDbLayerTableRecord
  2
PUNTI
 70
0
 62
7
  6
CONTINUOUS
370
-3
390
F
  0
LAYER
  5
217
100
AcDbSymbolTableRecord
100
AcDbLayerTableRecord
  2
RACCORDO
 70
0
 62
7
  6
CONTINUOUS
370
-3
390
F
  0
LAYER
  5
218
100
AcDbSymbolTableRecord
100
AcDbLayerTableRecord
  2
SIMBOLI
 70
0
 62
7
  6
CONTINUOUS
370
-3
390
F
  0
LAYER
  5
219
100
AcDbSymbolTableRecord
100
AcDbLayerTableRecord
  2
SMUSSO
 70
0
 62
7
  6
CONTINUOUS
370
-3
390
F
  0
LAYER
  5
21A
100
AcDbSymbolTableRecord
100
AcDbLayerTableRecord
  2
SNAPLINE
 70
0
 62
7
  6
CONTINUOUS
370
-3
390
F
  0
LAYER
  5
21B
100
AcDbSymbolTableRecord
100
AcDbLayerTableRecord
  2
SOLIDO
 70
0
 62
7
  6
CONTINUOUS
370
-3
390
F
  0
LAYER
  5
21C
100
AcDbSymbolTableRecord
100
AcDbLayerTableRecord
  2
SUPERFICI
 70
0
 62
7
  6
CONTINUOUS
370
-3
390
F
  0
LAYER
  5
21D
100
AcDbSymbolTableRecord
100
AcDbLayerTableRecord
  2
TRASH
 70
0
 62
7
  6
CONTINUOUS
370
-3
390
F
  0
LAYER
  5
21E
100
AcDbSymbolTableRecord
100
AcDbLayerTableRecord
  2
WHITE
 70
0
 62
7
  6
CONTINUOUS
370
-3
390
F
  0
LAYER
  5
21F
100
AcDbSymbolTableRecord
100
AcDbLayerTableRecord
  2
XSEC_DATUMS
 70
0
 62
7
  6
CONTINUOUS
370
-3
390
F
  0
LAYER
  5
220
100
AcDbSymbolTableRecord
100
AcDbLayerTableRecord
  2
___SHELL
 70
0
 62
7
  6
CONTINUOUS
370
-3
390
F
  0
ENDTAB
  0
TABLE
  2
STYLE
  5
3
100
AcDbSymbolTable
 70
1
  0
STYLE
  5
11
100
AcDbSymbolTableRecord
100
AcDbTextStyleTableRecord
  2
STANDARD
 70
0
 40
0.0
 41
0.8
 50
0.0
 71
0
 42
0.2
  3
txt
  4

  0
STYLE
  5
221
100
AcDbSymbolTableRecord
100
AcDbTextStyleTableRecord
  2
TEXTSTYLE_1
 70
0
 40
0.0
 41
0.8
 50
0.0
 71
0
 42
0.2
  3
gdt
  4

  0
ENDTAB
  0
TABLE
  2
VIEW
  5
6
100
AcDbSymbolTable
 70
0
  0
ENDTAB
  0
TABLE
  2
UCS
  5
7
100
AcDbSymbolTable
 70
0
  0
ENDTAB
  0
TABLE
  2
APPID
  5
9
100
AcDbSymbolTable
 70
1
  0
APPID
  5
222
100
AcDbSymbolTableRecord
100
AcDbRegAppTableRecord
  2
ACAD
 70
0
  0
ENDTAB
  0
TABLE
  2
BLOCK_RECORD
  5
1
100
AcDbSymbolTable
 70
0
  0
BLOCK_RECORD
  5
223
100
AcDbSymbolTableRecord
100
AcDbBlockTableRecord
  2
*Model_Space
  0
BLOCK_RECORD
  5
224
100
AcDbSymbolTableRecord
100
AcDbBlockTableRecord
  2
*Paper_Space
  0
BLOCK_RECORD
  5
225
100
AcDbSymbolTableRecord
100
AcDbBlockTableRecord
  2
_FILLED
  0
BLOCK_RECORD
  5
226
100
AcDbSymbolTableRecord
100
AcDbBlockTableRecord
  2
*D0
  0
BLOCK_RECORD
  5
227
100
AcDbSymbolTableRecord
100
AcDbBlockTableRecord
  2
*D1
  0
BLOCK_RECORD
  5
228
100
AcDbSymbolTableRecord
100
AcDbBlockTableRecord
  2
*D2
  0
ENDTAB
  0
TABLE
  2
DIMSTYLE
  5
A
100
AcDbSymbolTable
 70
1
100
AcDbDimStyleTable
 71
0
  0
DIMSTYLE
105
229
100
AcDbSymbolTableRecord
100
AcDbDimStyleTableRecord
  2
STANDARD
 70
0
  3

  4

 40
1.0
 41
3.0
 42
0.5
 43
0.38
 44
1.5
 45
0.0
 46
0.0
 47
0.01
 48
0.01
140
3.0
141
0.09
142
0.0
143
25.4
144
1.0
145
0.0
146
1.0
147
0.625
 71
1
 72
0
 73
0
 74
0
 75
0
 76
0
 77
1
 78
8
 79
2
170
0
171
1
172
0
173
0
174
0
175
0
176
0
177
0
178
0
270
2
179
2
271
2
272
2
273
2
274
2
275
0
280
0
281
0
282
0
283
1
284
8
285
0
286
0
287
3
288
0
340
11
278
44
341
225
342
225
343
225
344
225
  0
DIMSTYLE
105
22A
100
AcDbSymbolTableRecord
100
AcDbDimStyleTableRecord
  2
DIMSTYLE_1
 70
0
  3

  4

 40
1.0
 41
3.0
 42
0.5
 43
0.38
 44
1.5
 45
0.0
 46
0.0
 47
0.0
 48
0.0
140
3.0
141
0.09
142
0.0
143
25.4
144
1.0
145
0.0
146
1.0
147
0.75
 71
0
 72
0
 73
0
 74
0
 75
0
 76
0
 77
1
 78
8
 79
2
170
0
171
1
172
0
173
0
174
0
175
0
176
0
177
0
178
0
270
2
179
2
271
2
272
2
273
2
274
2
275
0
280
0
281
0
282
0
283
1
284
8
285
0
286
0
287
3
288
0
340
11
278
44
341
225
342
225
343
225
344
225
  0
DIMSTYLE
105
22B
100
AcDbSymbolTableRecord
100
AcDbDimStyleTableRecord
  2
DIMSTYLE_2
 70
0
  3

  4

 40
1.0
 41
3.0
 42
0.5
 43
0.38
 44
1.5
 45
0.0
 46
0.0
 47
0.0
 48
0.0
140
3.0
141
0.09
142
0.0
143
25.4
144
1.0
145
0.0
146
1.0
147
0.75
 71
0
 72
0
 73
0
 74
0
 75
0
 76
0
 77
1
 78
8
 79
2
170
0
171
1
172
0
173
0
174
0
175
0
176
0
177
0
178
0
270
2
179
2
271
1
272
1
273
2
274
2
275
0
280
0
281
0
282
0
283
1
284
8
285
0
286
0
287
3
288
0
340
11
278
44
341
225
342
225
343
225
344
225
  0
ENDTAB
  0
ENDSEC
  0
SECTION
  2
BLOCKS
  0
BLOCK
  5
20
100
AcDbEntity
  8
0
100
AcDbBlockBegin
  2
*Model_Space
 70
0
 10
0.0
 20
0.0
 30
0.0
  3
*Model_Space
  1

  0
ENDBLK
  5
21
100
AcDbEntity
  8
0
100
AcDbBlockEnd
  0
BLOCK
  5
1C
100
AcDbEntity
  8
0
100
AcDbBlockBegin
  2
*Paper_Space
 70
0
 10
0.0
 20
0.0
 30
0.0
  3
*Paper_Space
  1

  0
ENDBLK
  5
1D
100
AcDbEntity
  8
0
100
AcDbBlockEnd
  0
BLOCK
  5
22C
100
AcDbEntity
  8
0
100
AcDbBlockBegin
  2
_FILLED
 70
64
 10
0.0
 20
0.0
  3
_FILLED
  1

  0
SOLID
  5
22D
100
AcDbEntity
  8
0
  6
BYBLOCK
 62
0
100
AcDbTrace
 10
0.0
 20
0.0
 11
-1.0
 21
0.3166666667
 12
-1.0
 22
-0.3166666667
 13
-1.0
 23
-0.3166666667
  0
ENDBLK
  5
22E
100
AcDbEntity
  8
0
  6
BYBLOCK
 62
0
100
AcDbBlockEnd
  0
BLOCK
  5
22F
100
AcDbEntity
  8
0
100
AcDbBlockBegin
 62
7
  6
CONTINUOUS
  2
*D0
 70
65
 10
0.0
 20
0.0
  3
*D0
  1

  0
LINE
  5
230
100
AcDbEntity
  8
0
100
AcDbLine
 62
7
  6
CONTINUOUS
 10
-11.2243357474
 20
13.5888133312
 11
-11.2243357474
 21
31.7055252832
  0
LINE
  5
231
100
AcDbEntity
  8
0
100
AcDbLine
 62
7
  6
CONTINUOUS
 10
11.0756642526
 20
13.5888133312
 11
11.0756642526
 21
31.7055252832
  0
LINE
  5
232
100
AcDbEntity
  8
0
100
AcDbLine
 62
7
  6
CONTINUOUS
 10
-11.2243357474
 20
30.2055252832
 11
-0.0743357474
 21
30.2055252832
  0
LINE
  5
233
100
AcDbEntity
  8
0
100
AcDbLine
 62
7
  6
CONTINUOUS
 10
11.0756642526
 20
30.2055252832
 11
-0.0743357474
 21
30.2055252832
  0
INSERT
  5
234
100
AcDbEntity
  8
0
100
AcDbBlockReference
 62
7
  6
CONTINUOUS
  2
_FILLED
 10
-11.2243357474
 20
30.2055252832
 41
3.0
 42
3.0
 43
3.0
 50
180.0
  0
INSERT
  5
235
100
AcDbEntity
  8
0
100
AcDbBlockReference
 62
7
  6
CONTINUOUS
  2
_FILLED
 10
11.0756642526
 20
30.2055252832
 41
3.0
 42
3.0
 43
3.0
  0
ENDBLK
  5
236
100
AcDbEntity
  8
0
  6
BYBLOCK
 62
0
100
AcDbBlockEnd
  0
BLOCK
  5
237
100
AcDbEntity
  8
0
100
AcDbBlockBegin
 62
7
  6
CONTINUOUS
  2
*D1
 70
65
 10
0.0
 20
0.0
  3
*D1
  1

  0
LINE
  5
238
100
AcDbEntity
  8
0
100
AcDbLine
 62
7
  6
CONTINUOUS
 10
11.0484460579
 20
22.1970512718
 11
20.6204607847
 21
22.1970512718
  0
LINE
  5
239
100
AcDbEntity
  8
0
100
AcDbLine
 62
7
  6
CONTINUOUS
 10
11.0484460579
 20
-22.2194246094
 11
20.6204607847
 21
-22.2194246094
  0
LINE
  5
23A
100
AcDbEntity
  8
0
100
AcDbLine
 62
7
  6
CONTINUOUS
 10
19.1204607847
 20
22.1970512718
 11
19.1204607847
 21
-0.0111866688
  0
LINE
  5
23B
100
AcDbEntity
  8
0
100
AcDbLine
 62
7
  6
CONTINUOUS
 10
19.1204607847
 20
-22.2194246094
 11
19.1204607847
 21
-0.0111866688
  0
INSERT
  5
23C
100
AcDbEntity
  8
0
100
AcDbBlockReference
 62
7
  6
CONTINUOUS
  2
_FILLED
 10
19.1204607847
 20
22.1970512718
 41
3.0
 42
3.0
 43
3.0
 50
90.0
  0
INSERT
  5
23D
100
AcDbEntity
  8
0
100
AcDbBlockReference
 62
7
  6
CONTINUOUS
  2
_FILLED
 10
19.1204607847
 20
-22.2194246094
 41
3.0
 42
3.0
 43
3.0
 50
270.0
  0
ENDBLK
  5
23E
100
AcDbEntity
  8
0
  6
BYBLOCK
 62
0
100
AcDbBlockEnd
  0
BLOCK
  5
23F
100
AcDbEntity
  8
0
100
AcDbBlockBegin
 62
7
  6
CONTINUOUS
  2
*D2
 70
65
 10
0.0
 20
0.0
  3
*D2
  1

  0
LINE
  5
240
100
AcDbEntity
  8
0
100
AcDbLine
 62
7
  6
CONTINUOUS
 10
-28.5367191947
 20
13.5888133312
 11
-28.5367191947
 21
31.737694698
  0
LINE
  5
241
100
AcDbEntity
  8
0
100
AcDbLine
 62
7
  6
CONTINUOUS
 10
-34.2365979904
 20
0.8369569208
 11
-34.2365979904
 21
31.737694698
  0
LINE
  5
242
100
AcDbEntity
  8
0
100
AcDbLine
 62
7
  6
CONTINUOUS
 10
-28.5367191947
 20
30.237694698
 11
-16.8204129973
 21
30.237694698
  0
LINE
  5
243
100
AcDbEntity
  8
0
100
AcDbLine
 62
7
  6
CONTINUOUS
 10
-16.8204129973
 20
30.237694698
 11
-31.3866585926
 21
30.237694698
  0
LINE
  5
244
100
AcDbEntity
  8
0
100
AcDbLine
 62
7
  6
CONTINUOUS
 10
-34.2365979904
 20
30.237694698
 11
-38.2365979904
 21
30.237694698
  0
LINE
  5
245
100
AcDbEntity
  8
0
100
AcDbLine
 62
7
  6
CONTINUOUS
 10
-38.2365979904
 20
30.237694698
 11
-31.3866585926
 21
30.237694698
  0
INSERT
  5
246
100
AcDbEntity
  8
0
100
AcDbBlockReference
 62
7
  6
CONTINUOUS
  2
_FILLED
 10
-28.5367191947
 20
30.237694698
 41
3.0
 42
3.0
 43
3.0
 50
180.0
  0
INSERT
  5
247
100
AcDbEntity
  8
0
100
AcDbBlockReference
 62
7
  6
CONTINUOUS
  2
_FILLED
 10
-34.2365979904
 20
30.237694698
 41
3.0
 42
3.0
 43
3.0
  0
ENDBLK
  5
248
100
AcDbEntity
  8
0
  6
BYBLOCK
 62
0
100
AcDbBlockEnd
  0
ENDSEC
  0
SECTION
  2
ENTITIES
  0
DIMENSION
  5
249
100
AcDbEntity
  8
0
100
AcDbDimension
 62
7
  6
CONTINUOUS
  2
*D0
 10
11.0756642526
 20
30.2055252832
 11
-4.3600500331
 21
30.2055252832
 70
160
 71
2
 72
2
 41
0.9
 42
22.3
  3
DIMSTYLE_1
100
AcDbAlignedDimension
 13
-11.2243357474
 23
13.0888133312
 14
11.0756642526
 24
13.0888133312
100
AcDbRotatedDimension
  0
DIMENSION
  5
24A
100
AcDbEntity
  8
0
100
AcDbDimension
 62
7
  6
CONTINUOUS
  2
*D1
 10
19.1204607847
 20
-22.2194246094
 11
19.1204607847
 21
-4.4040438117
 70
160
 71
2
 72
2
 41
0.9
 42
44.4164758811
  3
DIMSTYLE_2
100
AcDbAlignedDimension
 13
10.5484460579
 23
22.1970512718
 14
10.5484460579
 24
-22.2194246094
 50
270.0
100
AcDbRotatedDimension
  0
DIMENSION
  5
24B
100
AcDbEntity
  8
0
100
AcDbDimension
 62
7
  6
CONTINUOUS
  2
*D2
 10
-34.2365979904
 20
30.237694698
 11
-23.0346987116
 21
30.237694698
 70
160
 71
1
 72
2
 41
0.9
 42
5.6998787957
  3
DIMSTYLE_1
100
AcDbAlignedDimension
 13
-28.5367191947
 23
13.0888133312
 14
-34.2365979904
 24
0.3369569208
 50
180.0
100
AcDbRotatedDimension
  0
LWPOLYLINE
  5
24C
100
AcDbEntity
  8
0
100
AcDbPolyline
 62
7
  6
CONTINUOUS
 90
5
 70
0
 43
0.3500000019
 10
2.9256665039
 20
32.6698120117
 10
3.2828066406
 20
32.884097168
 10
3.2828066406
 20
33.5269526367
 10
2.9256665039
 20
33.9555256348
 10
2.0685205078
 20
33.9555256348
  0
LINE
  5
24D
100
AcDbEntity
  8
RACCORDO
100
AcDbLine
 62
7
  6
CONTINUOUS
 10
3.3197105517
 20
-22.2194246094
 11
3.6679292257
 21
-22.1878157778
  0
LINE
  5
24E
100
AcDbEntity
  8
RACCORDO
100
AcDbLine
 62
7
  6
CONTINUOUS
 10
-7.8802894483
 20
-22.2194246094
 11
-7.5320707743
 21
-22.1878157778
  0
LINE
  5
24F
100
AcDbEntity
  8
0
100
AcDbLine
 62
7
  6
CONTINUOUS
 10
10.5484460579
 20
-22.2194246094
 11
7.7316179535
 21
-22.2194246094
  0
LINE
  5
250
100
AcDbEntity
  8
DRAFT
100
AcDbLine
 62
7
  6
CONTINUOUS
 10
3.3197105517
 20
-22.2194246094
 11
-3.4683820465
 21
-22.2194246094
  0
LINE
  5
251
100
AcDbEntity
  8
0
100
AcDbLine
 62
7
  6
CONTINUOUS
 10
-7.8802894483
 20
-22.2194246094
 11
-10.6971175526
 21
-22.2194246094
  0
LINE
  5
252
100
AcDbEntity
  8
RACCORDO
100
AcDbLine
 62
7
  6
CONTINUOUS
 10
-7.3588656935
 20
-22.1825749999
 11
-3.9898058012
 21
-22.1825749999
  0
LINE
  5
253
100
AcDbEntity
  8
RACCORDO
100
AcDbLine
 62
7
  6
CONTINUOUS
 10
3.8411343065
 20
-22.1825749999
 11
7.2101941988
 21
-22.1825749999
  0
LINE
  5
254
100
AcDbEntity
  8
0
100
AcDbLine
 62
250
  6
CONTINUOUS
 10
-10.5963060155
 20
-22.0681304407
 11
10.4476345207
 21
-22.0681304407
  0
LINE
  5
255
100
AcDbEntity
  8
RACCORDO
100
AcDbLine
 62
7
  6
CONTINUOUS
 10
-3.4683820465
 20
-22.2194246094
 11
-3.8166007205
 21
-22.1878157778
  0
LINE
  5
256
100
AcDbEntity
  8
RACCORDO
100
AcDbLine
 62
7
  6
CONTINUOUS
 10
7.7316179535
 20
-22.2194246094
 11
7.3833992795
 21
-22.1878157778
  0
LINE
  5
257
100
AcDbEntity
  8
0
100
AcDbLine
 62
250
  6
CONTINUOUS
 10
-10.5799545598
 20
-21.2185830884
 11
10.431283065
 21
-21.2185830884
  0
LWPOLYLINE
  5
258
100
AcDbEntity
  8
0
100
AcDbPolyline
 62
250
  6
CONTINUOUS
 90
49
 70
0
 10
-11.0796499733
 20
21.1216686596
 10
-11.0788419066
 20
21.1240554236
 10
-11.0775228366
 20
21.1264397428
 10
-11.0756941144
 20
21.1288191751
 10
-11.0733576133
 20
21.1311912832
 10
-11.0705157263
 20
21.1335536374
 10
-11.0671713646
 20
21.135903818
 10
-11.0633279535
 20
21.1382394178
 10
-11.0589894299
 20
21.1405580443
 10
-11.0541602376
 20
21.1428573227
 10
-11.0488453232
 20
21.1451348979
 10
-11.0430501306
 20
21.1473884369
 10
-11.0367805958
 20
21.1496156315
 10
-11.0300431405
 20
21.1518142004
 10
-11.0228446658
 20
21.1539818916
 10
-11.0151925451
 20
21.1561164849
 10
-11.0070946163
 20
21.1582157938
 10
-10.9985591739
 20
21.1602776679
 10
-10.9895949608
 20
21.1622999954
 10
-10.9802111588
 20
21.1642807047
 10
-10.9704173796
 20
21.1662177672
 10
-10.9602236548
 20
21.1681091986
 10
-10.9496404259
 20
21.1699530616
 10
-10.9386785329
 20
21.1717474676
 10
-10.927349204
 20
21.1734905786
 10
-10.9156640437
 20
21.1751806091
 10
-10.9036350209
 20
21.1768158281
 10
-10.8912744568
 20
21.1783945606
 10
-10.8785950121
 20
21.1799151896
 10
-10.8656096743
 20
21.1813761574
 10
-10.8523317439
 20
21.1827759677
 10
-10.8387748215
 20
21.1841131867
 10
-10.8249527931
 20
21.1853864446
 10
-10.8108798165
 20
21.1865944373
 10
-10.7965703064
 20
21.1877359274
 10
-10.7820389199
 20
21.1888097458
 10
-10.7673005412
 20
21.1898147925
 10
-10.7523702667
 20
21.1907500381
 10
-10.7372633892
 20
21.1916145245
 10
-10.7219953825
 20
21.1924073665
 10
-10.7065818854
 20
21.1931277517
 10
-10.6910386857
 20
21.1937749424
 10
-10.6753817041
 20
21.1943482757
 10
-10.6596269779
 20
21.1948471643
 10
-10.6437906443
 20
21.1952710971
 10
-10.6278889243
 20
21.19561964
 10
-10.6119381059
 20
21.195892436
 10
-10.5959545271
 20
21.1960892056
 10
-10.5799545598
 20
21.1962097473
  0
LWPOLYLINE
  5
259
100
AcDbEntity
  8
0
100
AcDbPolyline
 62
250
  6
CONTINUOUS
 90
49
 70
0
 10
-11.0796499733
 20
-21.1440419972
 10
-11.0788419071
 20
-21.1464287612
 10
-11.0775228376
 20
-21.1488130806
 10
-11.075694116
 20
-21.1511925129
 10
-11.0733576153
 20
-21.1535646211
 10
-11.0705157288
 20
-21.1559269754
 10
-11.0671713675
 20
-21.1582771561
 10
-11.0633279568
 20
-21.1606127559
 10
-11.0589894336
 20
-21.1629313826
 10
-11.0541602417
 20
-21.165230661
 10
-11.0488453276
 20
-21.1675082363
 10
-11.0430501353
 20
-21.1697617754
 10
-11.0367806007
 20
-21.1719889701
 10
-11.0300431457
 20
-21.1741875391
 10
-11.0228446712
 20
-21.1763552305
 10
-11.0151925507
 20
-21.1784898238
 10
-11.007094622
 20
-21.1805891328
 10
-10.9985591798
 20
-21.182651007
 10
-10.9895949667
 20
-21.1846733345
 10
-10.9802111648
 20
-21.186654044
 10
-10.9704173857
 20
-21.1885911065
 10
-10.960223661
 20
-21.190482538
 10
-10.949640432
 20
-21.1923264012
 10
-10.938678539
 20
-21.1941208072
 10
-10.92734921
 20
-21.1958639183
 10
-10.9156640497
 20
-21.1975539489
 10
-10.9036350268
 20
-21.199189168
 10
-10.8912744626
 20
-21.2007679006
 10
-10.8785950178
 20
-21.2022885296
 10
-10.8656096798
 20
-21.2037494976
 10
-10.8523317493
 20
-21.205149308
 10
-10.8387748266
 20
-21.206486527
 10
-10.8249527981
 20
-21.207759785
 10
-10.8108798212
 20
-21.2089677778
 10
-10.7965703109
 20
-21.2101092679
 10
-10.7820389241
 20
-21.2111830864
 10
-10.7673005452
 20
-21.2121881331
 10
-10.7523702704
 20
-21.2131233787
 10
-10.7372633926
 20
-21.2139878653
 10
-10.7219953856
 20
-21.2147807072
 10
-10.7065818882
 20
-21.2155010925
 10
-10.6910386882
 20
-21.2161482833
 10
-10.6753817063
 20
-21.2167216166
 10
-10.6596269797
 20
-21.2172205052
 10
-10.6437906457
 20
-21.2176444381
 10
-10.6278889254
 20
-21.217992981
 10
-10.6119381066
 20
-21.218265777
 10
-10.5959545275
 20
-21.2184625467
 10
-10.5799545598
 20
-21.2185830884
  0
LINE
  5
25A
100
AcDbEntity
  8
0
100
AcDbLine
 62
7
  6
CONTINUOUS
 10
2.6289061107
 20
-15.0896763378
 11
2.6184679895
 21
-15.0916919781
  0
LINE
  5
25B
100
AcDbEntity
  8
0
100
AcDbLine
 62
7
  6
CONTINUOUS
 10
2.6186166453
 20
-15.0916666957
 11
2.6080740503
 21
-15.0933279553
  0
LINE
  5
25C
100
AcDbEntity
  8
0
100
AcDbLine
 62
7
  6
CONTINUOUS
 10
2.6082453482
 20
-15.0933058197
 11
2.5976700337
 21
-15.0946014061
  0
LWPOLYLINE
  5
25D
100
AcDbEntity
  8
0
100
AcDbPolyline
 62
7
  6
CONTINUOUS
 90
4
 70
0
 10
2.5978396012
 20
-15.0945835709
 10
2.5874151982
 20
-15.0954965704
 10
2.5769563453
 20
-15.0960481993
 10
2.5664630425
 20
-15.0962384582
  0
LINE
  5
25E
100
AcDbEntity
  8
0
100
AcDbLine
 62
7
  6
CONTINUOUS
 10
2.5664630425
 20
-15.0962384582
 11
-3.5194036936
 21
-15.0962384582
  0
LWPOLYLINE
  5
25F
100
AcDbEntity
  8
0
100
AcDbPolyline
 62
7
  6
CONTINUOUS
 90
3
 70
0
 10
-3.5194036936
 20
-15.0962384582
 10
-3.5298187075
 20
-15.0960552198
 10
-3.5402237401
 20
-15.0955092498
  0
LINE
  5
260
100
AcDbEntity
  8
0
100
AcDbLine
 62
7
  6
CONTINUOUS
 10
-3.5402237401
 20
-15.0955092498
 11
-3.550782968
 21
-15.0945832738
  0
LINE
  5
261
100
AcDbEntity
  8
0
100
AcDbLine
 62
7
  6
CONTINUOUS
 10
-3.5506187912
 20
-15.0946005476
 11
-3.5611895139
 21
-15.0933052948
  0
LWPOLYLINE
  5
262
100
AcDbEntity
  8
0
100
AcDbPolyline
 62
7
  6
CONTINUOUS
 90
8
 70
0
 10
-3.561026093
 20
-15.0933262867
 10
-3.5714234134
 20
-15.0916892914
 10
-3.5817440558
 20
-15.0896980378
 10
-3.5919844007
 20
-15.0873509128
 10
-3.6021480675
 20
-15.0846495252
 10
-3.6121792185
 20
-15.0816071831
 10
-3.6220603677
 20
-15.0782295356
 10
-3.6318090012
 20
-15.0745109276
  0
LWPOLYLINE
  5
263
100
AcDbEntity
  8
0
100
AcDbPolyline
 62
7
  6
CONTINUOUS
 90
5
 70
0
 10
-3.6318388247
 20
-15.0744954774
 10
-3.6414552982
 20
-15.0704328153
 10
-3.6509057017
 20
-15.0660368764
 10
-3.6601992927
 20
-15.0613073074
 10
-3.6693232422
 20
-15.0562547872
  0
LINE
  5
264
100
AcDbEntity
  8
0
100
AcDbLine
 62
7
  6
CONTINUOUS
 10
-3.6693232422
 20
-15.0562547872
 11
-3.6784579203
 21
-15.0507658834
  0
LWPOLYLINE
  5
265
100
AcDbEntity
  8
0
100
AcDbPolyline
 62
7
  6
CONTINUOUS
 90
12
 70
0
 10
-0.2612467916
 20
16.5247719074
 10
-0.2526403374
 20
16.5313070414
 10
-0.2439618694
 20
16.5373719233
 10
-0.2349239907
 20
16.54321812
 10
-0.2255594236
 20
16.5488195626
 10
-0.215966336
 20
16.5540980364
 10
-0.2061479805
 20
16.5590419764
 10
-0.1961011044
 20
16.5636629585
 10
-0.1859141173
 20
16.5679174809
 10
-0.1755810631
 20
16.5717995524
 10
-0.1651078979
 20
16.575315174
 10
-0.154600899
 20
16.5784388324
  0
LWPOLYLINE
  5
266
100
AcDbEntity
  8
0
100
AcDbPolyline
 62
7
  6
CONTINUOUS
 90
11
 70
0
 10
-0.2532713295
 20
16.5308267657
 10
-0.2450908253
 20
16.5366075608
 10
-0.2366867851
 20
16.5421214731
 10
-0.2280777028
 20
16.547361332
 10
-0.2193190599
 20
16.5523056165
 10
-0.2104152726
 20
16.5569504488
 10
-0.2013619246
 20
16.5612997161
 10
-0.192201249
 20
16.565343544
 10
-0.1829484627
 20
16.5690782648
 10
-0.1735883486
 20
16.572507554
 10
-0.1641174886
 20
16.5756325529
  0
LWPOLYLINE
  5
267
100
AcDbEntity
  8
0
100
AcDbPolyline
 62
7
  6
CONTINUOUS
 90
4
 70
0
 10
2.0408895622
 20
-13.7856702004
 10
2.0303525132
 20
-13.7880812652
 10
2.0197076858
 20
-13.7901197263
 10
2.0089939008
 20
-13.7917763285
  0
LWPOLYLINE
  5
268
100
AcDbEntity
  8
0
100
AcDbPolyline
 62
7
  6
CONTINUOUS
 90
24
 70
0
 10
2.0090050734
 20
-13.7917748024
 10
1.9982208565
 20
-13.7930503367
 10
1.987369354
 20
-13.7939437197
 10
1.976493797
 20
-13.7944452841
 10
1.9655827871
 20
-13.7945511135
 10
1.9546477228
 20
-13.7942651248
 10
1.9437660305
 20
-13.7935894005
 10
1.9329529073
 20
-13.7925214769
 10
1.9221931561
 20
-13.7910638161
 10
1.9115186122
 20
-13.7892258884
 10
1.9009248168
 20
-13.7870060615
 10
1.8904162287
 20
-13.7844059642
 10
1.8800380601
 20
-13.7814399583
 10
1.8698008221
 20
-13.7781115158
 10
1.8596940037
 20
-13.7744171597
 10
1.8497312834
 20
-13.7703608281
 10
1.8399052001
 20
-13.7659389136
 10
1.830223215
 20
-13.7611550167
 10
1.8207213899
 20
-13.7560238878
 10
1.8114029716
 20
-13.7505472184
 10
1.8022647133
 20
-13.7447233088
 10
1.7933329368
 20
-13.7385618224
 10
1.7845986731
 20
-13.7320505343
 10
1.7760708912
 20
-13.7252016598
  0
LINE
  5
269
100
AcDbEntity
  8
0
100
AcDbLine
 62
7
  6
CONTINUOUS
 10
2.5664630425
 20
-14.4949350804
 11
-3.2187520047
 21
-14.4949350804
  0
LWPOLYLINE
  5
26A
100
AcDbEntity
  8
0
100
AcDbPolyline
 62
7
  6
CONTINUOUS
 90
3
 70
0
 10
2.5664630425
 20
-14.4949350804
 10
2.5768819918
 20
-14.4951185031
 10
2.5872906573
 20
-14.4956648542
  0
LINE
  5
26B
100
AcDbEntity
  8
0
100
AcDbLine
 62
7
  6
CONTINUOUS
 10
2.5872906573
 20
-14.4956648542
 11
2.5978530526
 21
-14.4965913957
  0
LINE
  5
26C
100
AcDbEntity
  8
0
100
AcDbLine
 62
7
  6
CONTINUOUS
 10
2.5976890391
 20
-14.4965741331
 11
2.6082629072
 21
-14.4978702135
  0
LINE
  5
26D
100
AcDbEntity
  8
0
100
AcDbLine
 62
7
  6
CONTINUOUS
 10
2.6080993669
 20
-14.4978491884
 11
2.6186380203
 21
-14.4995106534
  0
LWPOLYLINE
  5
26E
100
AcDbEntity
  8
0
100
AcDbPolyline
 62
7
  6
CONTINUOUS
 90
7
 70
0
 10
2.6184994109
 20
-14.4994871695
 10
2.628822482
 20
-14.5014795269
 10
2.6390649499
 20
-14.5038278607
 10
2.6492304448
 20
-14.5065305669
 10
2.6592631687
 20
-14.5095742899
 10
2.6691456352
 20
-14.5129533712
 10
2.6788953307
 20
-14.5166734637
  0
LINE
  5
26F
100
AcDbEntity
  8
0
100
AcDbLine
 62
7
  6
CONTINUOUS
 10
2.6289303891
 20
-14.5015023178
 11
2.6391352652
 21
-14.5038436643
  0
LINE
  5
270
100
AcDbEntity
  8
0
100
AcDbLine
 62
7
  6
CONTINUOUS
 10
-3.6782823732
 20
-15.0508777116
 11
-3.6873046073
 21
-15.0450174165
  0
LINE
  5
271
100
AcDbEntity
  8
0
100
AcDbLine
 62
7
  6
CONTINUOUS
 10
-3.6870718626
 20
-15.0451776757
 11
-3.6959302894
 21
-15.0389771088
  0
LINE
  5
272
100
AcDbEntity
  8
0
100
AcDbLine
 62
7
  6
CONTINUOUS
 10
-3.6956644118
 20
-15.039170156
 11
-3.7043300352
 21
-15.03264522
  0
LINE
  5
273
100
AcDbEntity
  8
0
100
AcDbLine
 62
7
  6
CONTINUOUS
 10
-3.7040621265
 20
-15.0328539638
 11
-3.7125087762
 21
-15.0260214806
  0
LWPOLYLINE
  5
274
100
AcDbEntity
  8
0
100
AcDbPolyline
 62
7
  6
CONTINUOUS
 90
3
 70
0
 10
-3.7122629011
 20
-15.0262302778
 10
-3.7204303418
 20
-15.0191408862
 10
-3.7280818623
 20
-15.0120161277
  0
LWPOLYLINE
  5
275
100
AcDbEntity
  8
0
100
AcDbPolyline
 62
7
  6
CONTINUOUS
 90
4
 70
0
 10
-3.7202331203
 20
-15.0193181257
 10
-3.7279800425
 20
-15.0121056898
 10
-3.7354964094
 20
-15.0046047769
 10
-3.7427268306
 20
-14.9968698529
  0
LWPOLYLINE
  5
276
100
AcDbEntity
  8
0
100
AcDbPolyline
 62
250
  6
CONTINUOUS
 90
49
 70
0
 10
-11.096001429
 20
-21.5688156733
 10
-11.0957046798
 20
-21.585133831
 10
-11.0948744049
 20
-21.6014345555
 10
-11.0935114912
 20
-21.617700432
 10
-11.0916173949
 20
-21.6339140832
 10
-11.0891941395
 20
-21.6500581875
 10
-11.0862443137
 20
-21.6661154974
 10
-11.0827710691
 20
-21.6820688585
 10
-11.0787781161
 20
-21.6979012271
 10
-11.0742697207
 20
-21.7135956889
 10
-11.0692506992
 20
-21.7291354771
 10
-11.0637264137
 20
-21.7445039898
 10
-11.057702766
 20
-21.7596848083
 10
-11.0511861914
 20
-21.7746617145
 10
-11.0441836517
 20
-21.7894187078
 10
-11.036702628
 20
-21.803940023
 10
-11.0287511125
 20
-21.8182101463
 10
-11.0203376002
 20
-21.8322138325
 10
-11.0114710795
 20
-21.8459361208
 10
-11.0021610228
 20
-21.8593623513
 10
-10.9924173764
 20
-21.8724781803
 10
-10.9822505498
 20
-21.8852695956
 10
-10.9716714045
 20
-21.8977229317
 10
-10.9606912427
 20
-21.9098248842
 10
-10.9493217948
 20
-21.9215625242
 10
-10.9375752073
 20
-21.9329233119
 10
-10.9254640295
 20
-21.9438951101
 10
-10.9130012
 20
-21.9544661974
 10
-10.9002000336
 20
-21.9646252802
 10
-10.887074206
 20
-21.9743615051
 10
-10.8736377402
 20
-21.9836644707
 10
-10.8599049907
 20
-21.9925242382
 10
-10.8458906288
 20
-22.0009313424
 10
-10.8316096265
 20
-22.0088768016
 10
-10.8170772407
 20
-22.0163521276
 10
-10.802308997
 20
-22.023349334
 10
-10.7873206727
 20
-22.0298609455
 10
-10.7721282805
 20
-22.0358800056
 10
-10.7567480509
 20
-22.0414000837
 10
-10.7411964151
 20
-22.0464152827
 10
-10.7254899877
 20
-22.0509202446
 10
-10.7096455483
 20
-22.0549101566
 10
-10.6936800241
 20
-22.0583807561
 10
-10.6776104717
 20
-22.0613283354
 10
-10.6614540587
 20
-22.0637497454
 10
-10.6452280457
 20
-22.0656423992
 10
-10.6289497675
 20
-22.0670042749
 10
-10.6126366148
 20
-22.0678339175
 10
-10.5963060155
 20
-22.0681304407
  0
LWPOLYLINE
  5
277
100
AcDbEntity
  8
0
100
AcDbPolyline
 62
250
  6
CONTINUOUS
 90
49
 70
0
 10
-11.096001429
 20
21.5464423357
 10
-11.0957046798
 20
21.5627604944
 10
-11.0948744047
 20
21.5790612198
 10
-11.093511491
 20
21.5953270972
 10
-11.0916173944
 20
21.6115407492
 10
-11.0891941387
 20
21.6276848543
 10
-11.0862443127
 20
21.643742165
 10
-11.0827710677
 20
21.6596955267
 10
-11.0787781144
 20
21.6755278959
 10
-11.0742697185
 20
21.6912223584
 10
-11.0692506966
 20
21.706762147
 10
-11.0637264107
 20
21.7221306602
 10
-11.0577027626
 20
21.7373114791
 10
-11.0511861874
 20
21.7522883856
 10
-11.0441836473
 20
21.7670453792
 10
-11.0367026231
 20
21.7815666945
 10
-11.0287511072
 20
21.795836818
 10
-11.0203375944
 20
21.8098405042
 10
-11.0114710733
 20
21.8235627926
 10
-11.0021610161
 20
21.836989023
 10
-10.9924173694
 20
21.8501048519
 10
-10.9822505424
 20
21.8628962671
 10
-10.9716713968
 20
21.8753496029
 10
-10.9606912347
 20
21.8874515552
 10
-10.9493217866
 20
21.8991891949
 10
-10.9375751989
 20
21.9105499822
 10
-10.9254640208
 20
21.9215217801
 10
-10.9130011913
 20
21.932092867
 10
-10.9002000248
 20
21.9422519493
 10
-10.8870741973
 20
21.9519881738
 10
-10.8736377315
 20
21.9612911389
 10
-10.8599049821
 20
21.970150906
 10
-10.8458906203
 20
21.9785580097
 10
-10.8316096183
 20
21.9865034685
 10
-10.8170772328
 20
21.9939787939
 10
-10.8023089894
 20
22.0009759999
 10
-10.7873206654
 20
22.007487611
 10
-10.7721282736
 20
22.0135066706
 10
-10.7567480445
 20
22.0190267483
 10
-10.7411964093
 20
22.0240419469
 10
-10.7254899824
 20
22.0285469085
 10
-10.7096455435
 20
22.0325368202
 10
-10.6936800199
 20
22.0360074194
 10
-10.6776104682
 20
22.0389549984
 10
-10.6614540559
 20
22.0413764082
 10
-10.6452280436
 20
22.0432690618
 10
-10.6289497661
 20
22.0446309374
 10
-10.6126366141
 20
22.04546058
 10
-10.5963060155
 20
22.0457571031
  0
LINE
  5
278
100
AcDbEntity
  8
0
100
AcDbLine
 62
7
  6
CONTINUOUS
 10
-0.2690172084
 20
16.5184429829
 11
-3.712704435
 21
13.6213481207
  0
LINE
  5
279
100
AcDbEntity
  8
0
100
AcDbLine
 62
7
  6
CONTINUOUS
 10
-0.075543877
 20
15.8957384516
 11
-3.2185794147
 21
13.2516604527
  0
LINE
  5
27A
100
AcDbEntity
  8
0
100
AcDbLine
 62
7
  6
CONTINUOUS
 10
-0.2690172084
 20
16.5184429829
 11
-0.260992117
 21
16.5249973963
  0
LINE
  5
27B
100
AcDbEntity
  8
0
100
AcDbLine
 62
7
  6
CONTINUOUS
 10
2.6786313899
 20
13.7866377482
 11
2.6684723719
 21
13.7827767981
  0
LWPOLYLINE
  5
27C
100
AcDbEntity
  8
0
100
AcDbPolyline
 62
250
  6
CONTINUOUS
 90
11
 70
0
 10
-11.0452871194
 20
9.4793133312
 10
-11.0444731738
 20
9.479617444
 10
-11.0431484863
 20
9.4799212454
 10
-11.0413144131
 20
9.4802244244
 10
-11.0389728319
 20
9.4805266707
 10
-11.0361261399
 20
9.4808276748
 10
-11.0327772514
 20
9.4811271285
 10
-11.028929595
 20
9.4814247254
 10
-11.0245871099
 20
9.4817201606
 10
-11.0197542416
 20
9.4820131318
 10
-11.0144359381
 20
9.482303339
  0
LWPOLYLINE
  5
27D
100
AcDbEntity
  8
0
100
AcDbPolyline
 62
7
  6
CONTINUOUS
 90
3
 70
0
 10
0.2517465072
 20
-11.7912583096
 10
0.2626454846
 20
-11.7906601138
 10
0.2736055912
 20
-11.7904505998
  0
LINE
  5
27E
100
AcDbEntity
  8
0
100
AcDbLine
 62
7
  6
CONTINUOUS
 10
2.6448188787
 20
-12.3917539776
 11
0.2736055872
 21
-12.3917539776
  0
LINE
  5
27F
100
AcDbEntity
  8
0
100
AcDbLine
 62
7
  6
CONTINUOUS
 10
2.6448188787
 20
-11.7904505998
 11
0.2736055872
 21
-11.7904505998
  0
LWPOLYLINE
  5
280
100
AcDbEntity
  8
0
100
AcDbPolyline
 62
7
  6
CONTINUOUS
 90
42
 70
0
 10
0.2736055872
 20
-12.3917539776
 10
0.2626703417
 20
-12.3915460621
 10
0.251786346
 20
-12.3909498459
 10
0.2409536
 20
-12.3899653285
 10
0.2301565222
 20
-12.3885882895
 10
0.2194106941
 20
-12.3868229478
 10
0.2087628606
 20
-12.3846819619
 10
0.1982180663
 20
-12.3821677671
 10
0.1877712666
 20
-12.379277925
 10
0.1774540725
 20
-12.3760177832
 10
0.1672626206
 20
-12.3723840339
 10
0.1572007743
 20
-12.3683799805
 10
0.1473117354
 20
-12.3640208862
 10
0.1376046633
 20
-12.3593068218
 10
0.1280703985
 20
-12.3542377109
 10
0.1187246641
 20
-12.348828596
 10
0.1095614796
 20
-12.3430775351
 10
0.1005868254
 20
-12.3369864637
 10
0.0918343668
 20
-12.3305762403
 10
0.0833028475
 20
-12.3238461547
 10
0.0749935237
 20
-12.3167969102
 10
0.0669438289
 20
-12.3094514863
 10
0.0591484725
 20
-12.3017989091
 10
0.051612745
 20
-12.2938501451
 10
0.0443899517
 20
-12.2856610855
 10
0.0374924732
 20
-12.2772405953
 10
0.0309079288
 20
-12.268579803
 10
0.0246524818
 20
-12.2597079954
 10
0.0187239898
 20
-12.2506207432
 10
0.0131245951
 20
-12.2413224696
 10
0.0078768874
 20
-12.231855742
 10
0.0029855975
 20
-12.2222295251
 10
-0.0015540054
 20
-12.2124348491
 10
-0.005733524
 20
-12.2024873802
 10
-0.0095554224
 20
-12.1923786012
 10
-0.0130172366
 20
-12.1821170245
 10
-0.0161031777
 20
-12.1717438617
 10
-0.0188111951
 20
-12.1612641062
 10
-0.0211433394
 20
-12.1506727612
 10
-0.0230899733
 20
-12.1399960543
 10
-0.0246495094
 20
-12.1292205753
 10
-0.0258235352
 20
-12.1183597317
  0
LWPOLYLINE
  5
281
100
AcDbEntity
  8
0
100
AcDbPolyline
 62
250
  6
CONTINUOUS
 90
12
 70
0
 10
-11.0452871194
 20
-9.5016866688
 10
-11.0444731738
 20
-9.5019907815
 10
-11.0431484864
 20
-9.5022945829
 10
-11.0413144132
 20
-9.502597762
 10
-11.0389728319
 20
-9.5029000083
 10
-11.0361261399
 20
-9.5032010124
 10
-11.0327772515
 20
-9.5035004661
 10
-11.0289295951
 20
-9.5037980629
 10
-11.0245871099
 20
-9.5040934982
 10
-11.0197542417
 20
-9.5043864694
 10
-11.0144359382
 20
-9.5046766766
 10
-11.0023652957
 20
-9.5052476138
  0
LWPOLYLINE
  5
282
100
AcDbEntity
  8
0
100
AcDbPolyline
 62
7
  6
CONTINUOUS
 90
6
 70
0
 10
2.6691544469
 20
-14.5129597133
 10
2.6789293649
 20
-14.5166906221
 10
2.6885471475
 20
-14.5207551529
 10
2.6979985286
 20
-14.525152954
 10
2.7072927742
 20
-14.52988437
 10
2.716417049
 20
-14.5349386283
  0
LINE
  5
283
100
AcDbEntity
  8
0
100
AcDbLine
 62
7
  6
CONTINUOUS
 10
2.6885089155
 20
-14.5207381787
 11
2.6979966655
 21
-14.5251544047
  0
LINE
  5
284
100
AcDbEntity
  8
0
100
AcDbLine
 62
7
  6
CONTINUOUS
 10
-3.7426158156
 20
-14.9969929255
 11
-3.7496596138
 21
-14.9889078537
  0
LINE
  5
285
100
AcDbEntity
  8
0
100
AcDbLine
 62
7
  6
CONTINUOUS
 10
-3.7495135533
 20
-14.9890782384
 11
-3.7563064513
 21
-14.9807118337
  0
LINE
  5
286
100
AcDbEntity
  8
0
100
AcDbLine
 62
7
  6
CONTINUOUS
 10
-3.7561565539
 20
-14.9809035842
 11
-3.7626470302
 21
-14.9723154386
  0
LINE
  5
287
100
AcDbEntity
  8
0
100
AcDbLine
 62
7
  6
CONTINUOUS
 10
-3.762508656
 20
-14.9725053104
 11
-3.7686800661
 21
-14.9637207878
  0
LINE
  5
288
100
AcDbEntity
  8
0
100
AcDbLine
 62
250
  6
CONTINUOUS
 10
-11.0872129282
 20
21.4628267538
 11
-11.0880058948
 21
21.4771375921
  0
LINE
  5
289
100
AcDbEntity
  8
0
100
AcDbLine
 62
250
  6
CONTINUOUS
 10
-11.0864481922
 20
21.4473242856
 11
-11.0872129282
 21
21.4628267538
  0
LINE
  5
28A
100
AcDbEntity
  8
0
100
AcDbLine
 62
250
  6
CONTINUOUS
 10
-11.0857133368
 20
21.430663669
 11
-11.0864481922
 21
21.4473242856
  0
LINE
  5
28B
100
AcDbEntity
  8
0
100
AcDbLine
 62
250
  6
CONTINUOUS
 10
-11.0846723558
 20
21.4036195335
 11
-11.0857133368
 21
21.430663669
  0
LINE
  5
28C
100
AcDbEntity
  8
0
100
AcDbLine
 62
250
  6
CONTINUOUS
 10
-11.0837107247
 20
21.374265833
 11
-11.0846723558
 21
21.4036195335
  0
LINE
  5
28D
100
AcDbEntity
  8
0
100
AcDbLine
 62
250
  6
CONTINUOUS
 10
-10.5883103439
 20
21.9071424914
 11
-10.5895470287
 21
21.9453990303
  0
LINE
  5
28E
100
AcDbEntity
  8
0
100
AcDbLine
 62
250
  6
CONTINUOUS
 10
-11.0828346667
 20
21.342792738
 11
-11.0837107247
 21
21.374265833
  0
LINE
  5
28F
100
AcDbEntity
  8
0
100
AcDbLine
 62
250
  6
CONTINUOUS
 10
-10.5871314083
 20
21.8633135556
 11
-10.5883103439
 21
21.9071424914
  0
LINE
  5
290
100
AcDbEntity
  8
0
100
AcDbLine
 62
250
  6
CONTINUOUS
 10
-11.0818094953
 20
21.2978889319
 11
-11.0828346667
 21
21.342792738
  0
LWPOLYLINE
  5
291
100
AcDbEntity
  8
0
100
AcDbPolyline
 62
250
  6
CONTINUOUS
 90
40
 70
0
 10
-11.0421425595
 20
0.3342909857
 10
-11.0419780701
 20
0.3262396633
 10
-11.0414897699
 20
0.3182013952
 10
-11.0406784506
 20
0.3101892143
 10
-11.0395454276
 20
0.3022161114
 10
-11.0380925381
 20
0.294295014
 10
-11.0363221376
 20
0.2864387651
 10
-11.0342370967
 20
0.2786601026
 10
-11.0318407961
 20
0.2709716387
 10
-11.029137121
 20
0.2633858393
 10
-11.0261304551
 20
0.2559150037
 10
-11.0228256734
 20
0.2485712451
 10
-11.0192281341
 20
0.2413664704
 10
-11.0153436702
 20
0.2343123613
 10
-11.01117858
 20
0.227420355
 10
-11.0067396165
 20
0.2207016262
 10
-11.0020339771
 20
0.2141670684
 10
-10.9970692913
 20
0.2078272766
 10
-10.9918536088
 20
0.20169253
 10
-10.9863953861
 20
0.1957727752
 10
-10.9807034731
 20
0.1900776104
 10
-10.9747870985
 20
0.1846162697
 10
-10.968655855
 20
0.1793976078
 10
-10.9623196837
 20
0.1744300862
 10
-10.9557888578
 20
0.1697217591
 10
-10.9490739663
 20
0.1652802604
 10
-10.9421858965
 20
0.1611127915
 10
-10.9351358167
 20
0.1572261093
 10
-10.9279351575
 20
0.1536265157
 10
-10.920595594
 20
0.150319847
 10
-10.9131290264
 20
0.1473114643
 10
-10.9055475608
 20
0.1446062456
 10
-10.8978634895
 20
0.1422085768
 10
-10.8900892714
 20
0.1401223456
 10
-10.8822375113
 20
0.1383509345
 10
-10.87432094
 20
0.1368972155
 10
-10.866352393
 20
0.1357635458
 10
-10.8583447904
 20
0.1349517634
 10
-10.8503111156
 20
0.1344631844
 10
-10.8422643941
 20
0.1342986011
  0
LINE
  5
292
100
AcDbEntity
  8
0
100
AcDbLine
 62
250
  6
CONTINUOUS
 10
-10.5856625651
 20
21.796703218
 11
-10.5871314083
 21
21.8633135556
  0
LINE
  5
293
100
AcDbEntity
  8
0
100
AcDbLine
 62
250
  6
CONTINUOUS
 10
-11.0809581011
 20
21.2500906237
 11
-11.0818094953
 21
21.2978889319
  0
LINE
  5
294
100
AcDbEntity
  8
0
100
AcDbLine
 62
250
  6
CONTINUOUS
 10
-10.5840153165
 20
21.7014044429
 11
-10.5856625651
 21
21.796703218
  0
LINE
  5
295
100
AcDbEntity
  8
0
100
AcDbLine
 62
250
  6
CONTINUOUS
 10
-11.0801533823
 20
21.1871375024
 11
-11.0809581011
 21
21.2500906237
  0
LINE
  5
296
100
AcDbEntity
  8
0
100
AcDbLine
 62
250
  6
CONTINUOUS
 10
-10.5821141355
 20
21.5486509061
 11
-10.5840153165
 21
21.7014044429
  0
LINE
  5
297
100
AcDbEntity
  8
0
100
AcDbLine
 62
250
  6
CONTINUOUS
 10
-11.0796499733
 20
21.1216686596
 11
-11.0801533823
 21
21.1871375024
  0
LINE
  5
298
100
AcDbEntity
  8
0
100
AcDbLine
 62
250
  6
CONTINUOUS
 10
-10.5805952204
 20
21.3528148613
 11
-10.5821141355
 21
21.5486509061
  0
LINE
  5
299
100
AcDbEntity
  8
0
100
AcDbLine
 62
250
  6
CONTINUOUS
 10
-11.0740920069
 20
20.0195358359
 11
-11.0796499733
 21
21.1216686596
  0
LINE
  5
29A
100
AcDbEntity
  8
0
100
AcDbLine
 62
250
  6
CONTINUOUS
 10
-10.5743965906
 20
20.087947787
 11
-10.5799545598
 21
21.1962097508
  0
LINE
  5
29B
100
AcDbEntity
  8
0
100
AcDbLine
 62
250
  6
CONTINUOUS
 10
-11.0690136041
 20
18.9155726995
 11
-11.0740920069
 21
20.0195358359
  0
LINE
  5
29C
100
AcDbEntity
  8
0
100
AcDbLine
 62
250
  6
CONTINUOUS
 10
-10.5693181875
 20
18.9777814063
 11
-10.5743965906
 21
20.087947787
  0
LINE
  5
29D
100
AcDbEntity
  8
0
100
AcDbLine
 62
250
  6
CONTINUOUS
 10
-11.0644150387
 20
17.8098435019
 11
-11.0690136041
 21
18.9155726995
  0
LINE
  5
29E
100
AcDbEntity
  8
0
100
AcDbLine
 62
250
  6
CONTINUOUS
 10
-10.5647196238
 20
17.8658824308
 11
-10.5693181875
 21
18.9777814063
  0
LINE
  5
29F
100
AcDbEntity
  8
0
100
AcDbLine
 62
250
  6
CONTINUOUS
 10
-11.0602972522
 20
16.7025623978
 11
-11.0644150387
 21
17.8098435019
  0
LINE
  5
2A0
100
AcDbEntity
  8
0
100
AcDbLine
 62
250
  6
CONTINUOUS
 10
-10.5606018384
 20
16.7524228631
 11
-10.5647196238
 21
17.8658824308
  0
LINE
  5
2A1
100
AcDbEntity
  8
0
100
AcDbLine
 62
250
  6
CONTINUOUS
 10
-11.056660925
 20
15.593922201
 11
-11.0602972522
 21
16.7025623978
  0
LINE
  5
2A2
100
AcDbEntity
  8
0
100
AcDbLine
 62
250
  6
CONTINUOUS
 10
-10.556965512
 20
15.6375750195
 11
-10.5606018384
 21
16.7524228631
  0
LINE
  5
2A3
100
AcDbEntity
  8
0
100
AcDbLine
 62
7
  6
CONTINUOUS
 10
-11.198028438
 20
-21.7219339765
 11
-11.2243357474
 21
-13.1111866688
  0
LINE
  5
2A4
100
AcDbEntity
  8
0
100
AcDbLine
 62
250
  6
CONTINUOUS
 10
-10.5799545598
 20
21.1962097508
 11
-10.5805952204
 21
21.3528148613
  0
LINE
  5
2A5
100
AcDbEntity
  8
0
100
AcDbLine
 62
250
  6
CONTINUOUS
 10
-11.0535064784
 20
14.4840515563
 11
-11.056660925
 21
15.593922201
  0
LINE
  5
2A6
100
AcDbEntity
  8
0
100
AcDbLine
 62
250
  6
CONTINUOUS
 10
-10.553811066
 20
14.5215114163
 11
-10.556965512
 21
15.6375750195
  0
LINE
  5
2A7
100
AcDbEntity
  8
0
100
AcDbLine
 62
250
  6
CONTINUOUS
 10
-11.0508344952
 20
13.3731435282
 11
-11.0535064784
 21
14.4840515563
  0
LINE
  5
2A8
100
AcDbEntity
  8
0
100
AcDbLine
 62
250
  6
CONTINUOUS
 10
-10.5511390832
 20
13.4044046777
 11
-10.553811066
 21
14.5215114163
  0
LINE
  5
2A9
100
AcDbEntity
  8
0
100
AcDbLine
 62
250
  6
CONTINUOUS
 10
-11.0486454048
 20
12.2613915481
 11
-11.0508344952
 21
13.3731435282
  0
LINE
  5
2AA
100
AcDbEntity
  8
0
100
AcDbLine
 62
250
  6
CONTINUOUS
 10
-10.548949993
 20
12.2864276853
 11
-10.5511390832
 21
13.4044046777
  0
LINE
  5
2AB
100
AcDbEntity
  8
0
100
AcDbLine
 62
250
  6
CONTINUOUS
 10
-11.0469394608
 20
11.1489248023
 11
-11.0486454048
 21
12.2613915481
  0
LINE
  5
2AC
100
AcDbEntity
  8
0
100
AcDbLine
 62
250
  6
CONTINUOUS
 10
-10.5472440488
 20
11.1677534441
 11
-10.548949993
 21
12.2864276853
  0
LINE
  5
2AD
100
AcDbEntity
  8
0
100
AcDbLine
 62
250
  6
CONTINUOUS
 10
-11.0457170374
 20
10.0359806296
 11
-11.0469394608
 21
11.1489248023
  0
LINE
  5
2AE
100
AcDbEntity
  8
0
100
AcDbLine
 62
250
  6
CONTINUOUS
 10
-10.5460216245
 20
10.0485549912
 11
-10.5472440488
 21
11.1677534441
  0
LINE
  5
2AF
100
AcDbEntity
  8
0
100
AcDbLine
 62
250
  6
CONTINUOUS
 10
-11.0446489732
 20
8.4632829824
 11
-11.0457170374
 21
10.0359806296
  0
LINE
  5
2B0
100
AcDbEntity
  8
0
100
AcDbLine
 62
250
  6
CONTINUOUS
 10
-10.5449537125
 20
8.4720310892
 11
-10.5460216245
 21
10.0485549912
  0
LINE
  5
2B1
100
AcDbEntity
  8
0
100
AcDbLine
 62
250
  6
CONTINUOUS
 10
-11.0431676552
 20
5.4150610972
 11
-11.0446489732
 21
8.4632829824
  0
LINE
  5
2B2
100
AcDbEntity
  8
0
100
AcDbLine
 62
250
  6
CONTINUOUS
 10
-10.5434727401
 20
5.4215241541
 11
-10.5449537125
 21
8.4720310892
  0
LINE
  5
2B3
100
AcDbEntity
  8
0
100
AcDbLine
 62
250
  6
CONTINUOUS
 10
-11.0425410537
 20
3.3828068535
 11
-11.0431676552
 21
5.4150610972
  0
LINE
  5
2B4
100
AcDbEntity
  8
0
100
AcDbLine
 62
250
  6
CONTINUOUS
 10
-10.5428460075
 20
3.3877532889
 11
-10.5434727401
 21
5.4215241541
  0
LINE
  5
2B5
100
AcDbEntity
  8
0
100
AcDbLine
 62
7
  6
CONTINUOUS
 10
-11.2243357474
 20
-0.3111333718
 11
-11.2243357474
 21
-13.1111866688
  0
LINE
  5
2B6
100
AcDbEntity
  8
0
100
AcDbLine
 62
7
  6
CONTINUOUS
 10
-11.2243357474
 20
0.2887600342
 11
-11.2243357474
 21
13.0888133312
  0
LINE
  5
2B7
100
AcDbEntity
  8
0
100
AcDbLine
 62
250
  6
CONTINUOUS
 10
-11.0421426598
 20
0.3342909607
 11
-11.0425410537
 21
3.3828068535
  0
LINE
  5
2B8
100
AcDbEntity
  8
0
100
AcDbLine
 62
250
  6
CONTINUOUS
 10
-10.5424472022
 20
0.1368252778
 11
-10.5428460075
 21
3.3877532889
  0
LINE
  5
2B9
100
AcDbEntity
  8
0
100
AcDbLine
 62
250
  6
CONTINUOUS
 10
-11.0423360563
 20
-2.3890265977
 11
-11.0421426598
 21
-0.3566642983
  0
LINE
  5
2BA
100
AcDbEntity
  8
0
100
AcDbLine
 62
250
  6
CONTINUOUS
 10
-10.5426403008
 20
-2.3932076718
 11
-10.5424472022
 21
-0.1591986154
  0
LINE
  5
2BB
100
AcDbEntity
  8
0
100
AcDbLine
 62
250
  6
CONTINUOUS
 10
-11.0428182547
 20
-4.4213164984
 11
-11.0423360563
 21
-2.3890265977
  0
LINE
  5
2BC
100
AcDbEntity
  8
0
100
AcDbLine
 62
250
  6
CONTINUOUS
 10
-10.5431234529
 20
-4.4270235506
 11
-10.5426403008
 21
-2.3932076718
  0
LWPOLYLINE
  5
2BD
100
AcDbEntity
  8
0
100
AcDbPolyline
 62
250
  6
CONTINUOUS
 90
3
 70
0
 10
-11.0440830144
 20
-7.4696043456
 10
-11.0435892431
 20
-6.4535307454
 10
-11.0428182547
 20
-4.4213164984
  0
LWPOLYLINE
  5
2BE
100
AcDbEntity
  8
0
100
AcDbPolyline
 62
250
  6
CONTINUOUS
 90
3
 70
0
 10
-10.5443878699
 20
-7.4775921365
 10
-10.5438941781
 20
-6.4607540047
 10
-10.5431234529
 20
-4.4270235506
  0
LINE
  5
2BF
100
AcDbEntity
  8
0
100
AcDbLine
 62
250
  6
CONTINUOUS
 10
-11.0457170374
 20
-10.0583539672
 11
-11.0440830144
 21
-7.4696043456
  0
LINE
  5
2C0
100
AcDbEntity
  8
0
100
AcDbLine
 62
250
  6
CONTINUOUS
 10
-10.5460216245
 20
-10.0709283288
 11
-10.5443878699
 21
-7.4775921365
  0
LINE
  5
2C1
100
AcDbEntity
  8
0
100
AcDbLine
 62
250
  6
CONTINUOUS
 10
-11.0469394608
 20
-11.1712981399
 11
-11.0457170374
 21
-10.0583539672
  0
LINE
  5
2C2
100
AcDbEntity
  8
0
100
AcDbLine
 62
250
  6
CONTINUOUS
 10
-10.5472440488
 20
-11.1901267817
 11
-10.5460216245
 21
-10.0709283288
  0
LINE
  5
2C3
100
AcDbEntity
  8
0
100
AcDbLine
 62
250
  6
CONTINUOUS
 10
-11.0486454048
 20
-12.2837648857
 11
-11.0469394608
 21
-11.1712981399
  0
LINE
  5
2C4
100
AcDbEntity
  8
0
100
AcDbLine
 62
250
  6
CONTINUOUS
 10
-10.548949993
 20
-12.3088010229
 11
-10.5472440488
 21
-11.1901267817
  0
LINE
  5
2C5
100
AcDbEntity
  8
0
100
AcDbLine
 62
250
  6
CONTINUOUS
 10
-11.0508344952
 20
-13.3955168657
 11
-11.0486454048
 21
-12.2837648857
  0
LINE
  5
2C6
100
AcDbEntity
  8
0
100
AcDbLine
 62
250
  6
CONTINUOUS
 10
-10.5511390832
 20
-13.4267780153
 11
-10.548949993
 21
-12.3088010229
  0
LINE
  5
2C7
100
AcDbEntity
  8
0
100
AcDbLine
 62
250
  6
CONTINUOUS
 10
-11.0535064784
 20
-14.5064248938
 11
-11.0508344952
 21
-13.3955168657
  0
LINE
  5
2C8
100
AcDbEntity
  8
0
100
AcDbLine
 62
250
  6
CONTINUOUS
 10
-10.553811066
 20
-14.5438847539
 11
-10.5511390832
 21
-13.4267780153
  0
LINE
  5
2C9
100
AcDbEntity
  8
0
100
AcDbLine
 62
250
  6
CONTINUOUS
 10
-11.056660925
 20
-15.6162955386
 11
-11.0535064784
 21
-14.5064248938
  0
LINE
  5
2CA
100
AcDbEntity
  8
0
100
AcDbLine
 62
250
  6
CONTINUOUS
 10
-10.556965512
 20
-15.6599483571
 11
-10.553811066
 21
-14.5438847539
  0
LINE
  5
2CB
100
AcDbEntity
  8
0
100
AcDbLine
 62
7
  6
CONTINUOUS
 10
-11.198028438
 20
21.6995606389
 11
-11.2243357474
 21
13.0888133312
  0
LINE
  5
2CC
100
AcDbEntity
  8
0
100
AcDbLine
 62
250
  6
CONTINUOUS
 10
-11.0602972522
 20
-16.7249357354
 11
-11.056660925
 21
-15.6162955386
  0
LINE
  5
2CD
100
AcDbEntity
  8
0
100
AcDbLine
 62
250
  6
CONTINUOUS
 10
-10.5606018384
 20
-16.7747962007
 11
-10.556965512
 21
-15.6599483571
  0
LINE
  5
2CE
100
AcDbEntity
  8
0
100
AcDbLine
 62
250
  6
CONTINUOUS
 10
-11.0644150387
 20
-17.8322168395
 11
-11.0602972522
 21
-16.7249357354
  0
LINE
  5
2CF
100
AcDbEntity
  8
0
100
AcDbLine
 62
250
  6
CONTINUOUS
 10
-10.5647196238
 20
-17.8882557684
 11
-10.5606018384
 21
-16.7747962007
  0
LINE
  5
2D0
100
AcDbEntity
  8
0
100
AcDbLine
 62
250
  6
CONTINUOUS
 10
-11.0690136041
 20
-18.9379460371
 11
-11.0644150387
 21
-17.8322168395
  0
LINE
  5
2D1
100
AcDbEntity
  8
0
100
AcDbLine
 62
250
  6
CONTINUOUS
 10
-10.5693181875
 20
-19.0001547439
 11
-10.5647196238
 21
-17.8882557684
  0
LINE
  5
2D2
100
AcDbEntity
  8
0
100
AcDbLine
 62
250
  6
CONTINUOUS
 10
-11.0740920069
 20
-20.0419091735
 11
-11.0690136041
 21
-18.9379460371
  0
LINE
  5
2D3
100
AcDbEntity
  8
0
100
AcDbLine
 62
250
  6
CONTINUOUS
 10
-10.5743965906
 20
-20.1103211246
 11
-10.5693181875
 21
-19.0001547439
  0
LINE
  5
2D4
100
AcDbEntity
  8
0
100
AcDbLine
 62
250
  6
CONTINUOUS
 10
-11.0800281601
 20
-21.1965735836
 11
-11.0740920069
 21
-20.0419091735
  0
LINE
  5
2D5
100
AcDbEntity
  8
0
100
AcDbLine
 62
250
  6
CONTINUOUS
 10
-10.5818844803
 20
-21.5476279627
 11
-10.5743965906
 21
-20.1103211246
  0
LINE
  5
2D6
100
AcDbEntity
  8
0
100
AcDbLine
 62
250
  6
CONTINUOUS
 10
-11.0807736829
 20
-21.260131768
 11
-11.0800281601
 21
-21.1965735836
  0
LINE
  5
2D7
100
AcDbEntity
  8
0
100
AcDbLine
 62
250
  6
CONTINUOUS
 10
-10.5837135877
 20
-21.7032477907
 11
-10.5818844803
 21
-21.5476279627
  0
LINE
  5
2D8
100
AcDbEntity
  8
0
100
AcDbLine
 62
250
  6
CONTINUOUS
 10
-10.585315333
 20
-21.801043311
 11
-10.5837135877
 21
-21.7032477907
  0
LINE
  5
2D9
100
AcDbEntity
  8
0
100
AcDbLine
 62
250
  6
CONTINUOUS
 10
-11.0815798368
 20
-21.3085580925
 11
-11.0807736829
 21
-21.260131768
  0
LWPOLYLINE
  5
2DA
100
AcDbEntity
  8
0
100
AcDbPolyline
 62
250
  6
CONTINUOUS
 90
40
 70
0
 10
-11.0421425595
 20
-0.3566643233
 10
-11.0419780702
 20
-0.3486130021
 10
-11.0414897701
 20
-0.340574735
 10
-11.040678451
 20
-0.3325625552
 10
-11.0395454283
 20
-0.3245894534
 10
-11.0380925392
 20
-0.3166683569
 10
-11.0363221392
 20
-0.308812109
 10
-11.0342370988
 20
-0.3010334474
 10
-11.0318407988
 20
-0.2933449843
 10
-11.0291371243
 20
-0.2857591856
 10
-11.0261304591
 20
-0.2782883507
 10
-11.0228256781
 20
-0.2709445926
 10
-11.0192281395
 20
-0.2637398183
 10
-11.0153436764
 20
-0.2566857095
 10
-11.0111785869
 20
-0.2497937035
 10
-11.0067396242
 20
-0.2430749749
 10
-11.0020339854
 20
-0.2365404171
 10
-10.9970693003
 20
-0.2302006253
 10
-10.9918536184
 20
-0.2240658785
 10
-10.9863953963
 20
-0.2181461234
 10
-10.9807034838
 20
-0.2124509583
 10
-10.9747871097
 20
-0.2069896172
 10
-10.9686558665
 20
-0.2017709548
 10
-10.9623196954
 20
-0.1968034326
 10
-10.9557888697
 20
-0.1920951049
 10
-10.9490739782
 20
-0.1876536055
 10
-10.9421859084
 20
-0.1834861359
 10
-10.9351358283
 20
-0.179599453
 10
-10.9279351688
 20
-0.1759998587
 10
-10.9205956049
 20
-0.1726931892
 10
-10.9131290367
 20
-0.1696848058
 10
-10.9055475704
 20
-0.1669795864
 10
-10.8978634983
 20
-0.164581917
 10
-10.8900892792
 20
-0.1624956851
 10
-10.8822375181
 20
-0.1607242735
 10
-10.8743209456
 20
-0.159270554
 10
-10.8663523973
 20
-0.1581368839
 10
-10.8583447934
 20
-0.1573251012
 10
-10.8503111171
 20
-0.1568365221
 10
-10.8422643941
 20
-0.1566719387
  0
LINE
  5
2DB
100
AcDbEntity
  8
0
100
AcDbLine
 62
250
  6
CONTINUOUS
 10
-10.5867526942
 20
-21.869887099
 11
-10.585315333
 21
-21.801043311
  0
LINE
  5
2DC
100
AcDbEntity
  8
0
100
AcDbLine
 62
250
  6
CONTINUOUS
 10
-11.0825627366
 20
-21.3542414063
 11
-11.0815798368
 21
-21.3085580925
  0
LINE
  5
2DD
100
AcDbEntity
  8
0
100
AcDbLine
 62
250
  6
CONTINUOUS
 10
-10.5879106658
 20
-21.9155120239
 11
-10.5867526942
 21
-21.869887099
  0
LINE
  5
2DE
100
AcDbEntity
  8
0
100
AcDbLine
 62
250
  6
CONTINUOUS
 10
-11.0834089871
 20
-21.386376068
 11
-11.0825627366
 21
-21.3542414063
  0
LINE
  5
2DF
100
AcDbEntity
  8
0
100
AcDbLine
 62
250
  6
CONTINUOUS
 10
-11.084342765
 20
-21.4164578793
 11
-11.0834089871
 21
-21.386376068
  0
LWPOLYLINE
  5
2E0
100
AcDbEntity
  8
0
100
AcDbPolyline
 62
250
  6
CONTINUOUS
 90
3
 70
0
 10
-10.5895470287
 20
-21.9677723679
 10
-10.5891289772
 20
-21.9556554298
 10
-10.5879106658
 20
-21.9155120239
  0
LINE
  5
2E1
100
AcDbEntity
  8
0
100
AcDbLine
 62
250
  6
CONTINUOUS
 10
-11.0853580264
 20
-21.4442919136
 11
-11.084342765
 21
-21.4164578793
  0
LINE
  5
2E2
100
AcDbEntity
  8
0
100
AcDbLine
 62
250
  6
CONTINUOUS
 10
-11.0860767311
 20
-21.4615053744
 11
-11.0853580264
 21
-21.4442919136
  0
LINE
  5
2E3
100
AcDbEntity
  8
0
100
AcDbLine
 62
250
  6
CONTINUOUS
 10
-11.0868269192
 20
-21.4775960713
 11
-11.0860767311
 21
-21.4615053744
  0
LWPOLYLINE
  5
2E4
100
AcDbEntity
  8
0
100
AcDbPolyline
 62
250
  6
CONTINUOUS
 90
3
 70
0
 10
-11.0880058948
 20
-21.4995109297
 10
-11.0876062031
 20
-21.4925103107
 10
-11.0868269192
 20
-21.4775960713
  0
LINE
  5
2E5
100
AcDbEntity
  8
0
100
AcDbLine
 62
7
  6
CONTINUOUS
 10
-3.7762282019
 20
13.5473669299
 11
-3.7702856189
 21
13.5567283371
  0
LWPOLYLINE
  5
2E6
100
AcDbEntity
  8
0
100
AcDbPolyline
 62
7
  6
CONTINUOUS
 90
9
 70
0
 10
-3.7703880169
 20
13.5565775524
 10
-3.7642117382
 20
13.5655764849
 10
-3.7577266962
 20
13.5743331759
 10
-3.7509302473
 20
13.5828514179
 10
-3.743825035
 20
13.5911274273
 10
-3.7364463215
 20
13.5991192893
 10
-3.7288058606
 20
13.6068130359
 10
-3.7208918985
 20
13.6142226449
 10
-3.712704435
 20
13.6213481207
  0
LWPOLYLINE
  5
2E7
100
AcDbEntity
  8
0
100
AcDbPolyline
 62
7
  6
CONTINUOUS
 90
8
 70
0
 10
-3.7648052957
 20
13.5647407851
 10
-3.7590691185
 20
13.5725730516
 10
-3.7530959024
 20
13.5802048568
 10
-3.7468775485
 20
13.587644165
 10
-3.7404221559
 20
13.5948830182
 10
-3.733772837
 20
13.6018772533
 10
-3.7269439625
 20
13.608612152
 10
-3.7199211618
 20
13.6151024401
  0
LINE
  5
2E8
100
AcDbEntity
  8
0
100
AcDbLine
 62
7
  6
CONTINUOUS
 10
2.7269910375
 20
13.8113033157
 11
2.7176628363
 21
13.8056608075
  0
LINE
  5
2E9
100
AcDbEntity
  8
0
100
AcDbLine
 62
7
  6
CONTINUOUS
 10
2.6984840096
 20
13.7954378696
 11
2.6886333842
 21
13.7908574479
  0
LINE
  5
2EA
100
AcDbEntity
  8
0
100
AcDbLine
 62
7
  6
CONTINUOUS
 10
1.8900166995
 20
-10.3982673016
 11
1.9005524111
 21
-10.3956445851
  0
LWPOLYLINE
  5
2EB
100
AcDbEntity
  8
0
100
AcDbPolyline
 62
7
  6
CONTINUOUS
 90
27
 70
0
 10
1.9005247794
 20
-10.3956509076
 10
1.9111390735
 20
-10.3934099924
 10
1.9218294706
 20
-10.3915525286
 10
1.9326006538
 20
-10.3900773148
 10
1.9434235118
 20
-10.3889930756
 10
1.954313943
 20
-10.3883019936
 10
1.965256049
 20
-10.3880018869
 10
1.976173024
 20
-10.3880949329
 10
1.9870542497
 20
-10.3885853966
 10
1.9979103445
 20
-10.3894690128
 10
2.0086963572
 20
-10.3907351628
 10
2.0194098863
 20
-10.3923834367
 10
2.0300533332
 20
-10.3944142434
 10
2.0405889508
 20
-10.3968181927
 10
2.0510108927
 20
-10.3995921818
 10
2.0613250051
 20
-10.4027393117
 10
2.0715110793
 20
-10.4062594969
 10
2.0815750018
 20
-10.4101585065
 10
2.091510886
 20
-10.4144305687
 10
2.1012808636
 20
-10.419058287
 10
2.1108811071
 20
-10.4240416102
 10
2.120315444
 20
-10.4293805862
 10
2.129557488
 20
-10.4350579665
 10
2.1386125111
 20
-10.4410754623
 10
2.1474752413
 20
-10.4474313585
 10
2.1561034774
 20
-10.4541032671
 10
2.1644831523
 20
-10.461083724
  0
LINE
  5
2EC
100
AcDbEntity
  8
0
100
AcDbLine
 62
7
  6
CONTINUOUS
 10
2.5953888457
 20
-9.7824880314
 11
2.5838354101
 21
-9.7833911009
  0
LINE
  5
2ED
100
AcDbEntity
  8
0
100
AcDbLine
 62
250
  6
CONTINUOUS
 10
10.8657644434
 20
-9.5046766766
 11
10.8536938008
 21
-9.5052476138
  0
LINE
  5
2EE
100
AcDbEntity
  8
0
100
AcDbLine
 62
7
  6
CONTINUOUS
 10
2.5844461111
 20
-9.7833564252
 11
2.5734958626
 21
-9.7838237772
  0
LINE
  5
2EF
100
AcDbEntity
  8
0
100
AcDbLine
 62
250
  6
CONTINUOUS
 10
10.8536938008
 20
-9.5052476138
 11
10.8397531052
 21
-9.5058039722
  0
LINE
  5
2F0
100
AcDbEntity
  8
0
100
AcDbLine
 62
250
  6
CONTINUOUS
 10
10.8397531052
 20
-9.5058039722
 11
10.8239994305
 21
-9.5063434743
  0
LINE
  5
2F1
100
AcDbEntity
  8
0
100
AcDbLine
 62
250
  6
CONTINUOUS
 10
10.8239994305
 20
-9.5063434743
 11
10.7971126334
 21
-9.507116311
  0
LINE
  5
2F2
100
AcDbEntity
  8
0
100
AcDbLine
 62
250
  6
CONTINUOUS
 10
10.7971126334
 20
-9.507116311
 11
10.7555793161
 21
-9.5080678261
  0
LINE
  5
2F3
100
AcDbEntity
  8
0
100
AcDbLine
 62
7
  6
CONTINUOUS
 10
2.573397195
 20
-9.7838280377
 11
2.5625347804
 21
-9.7838937853
  0
LINE
  5
2F4
100
AcDbEntity
  8
0
100
AcDbLine
 62
250
  6
CONTINUOUS
 10
-10.9457841282
 20
-9.507116311
 11
-10.904250811
 21
-9.5080678261
  0
LINE
  5
2F5
100
AcDbEntity
  8
0
100
AcDbLine
 62
250
  6
CONTINUOUS
 10
-10.9726709254
 20
-9.5063434743
 11
-10.9457841282
 21
-9.507116311
  0
LINE
  5
2F6
100
AcDbEntity
  8
0
100
AcDbLine
 62
250
  6
CONTINUOUS
 10
-10.9884246001
 20
-9.5058039722
 11
-10.9726709254
 21
-9.5063434743
  0
LINE
  5
2F7
100
AcDbEntity
  8
0
100
AcDbLine
 62
250
  6
CONTINUOUS
 10
-11.0023652957
 20
-9.5052476138
 11
-10.9884246001
 21
-9.5058039722
  0
LINE
  5
2F8
100
AcDbEntity
  8
0
100
AcDbLine
 62
7
  6
CONTINUOUS
 10
0.1472662673
 20
-12.3639998252
 11
0.1375675964
 21
-12.3592880964
  0
LINE
  5
2F9
100
AcDbEntity
  8
0
100
AcDbLine
 62
7
  6
CONTINUOUS
 10
2.716417049
 20
-14.5349386283
 11
2.7255463433
 21
-14.5404258268
  0
LINE
  5
2FA
100
AcDbEntity
  8
0
100
AcDbLine
 62
7
  6
CONTINUOUS
 10
0.118702467
 20
-12.3488152069
 11
0.1095438416
 21
-12.3430659459
  0
LINE
  5
2FB
100
AcDbEntity
  8
0
100
AcDbLine
 62
7
  6
CONTINUOUS
 10
2.7253761591
 20
-14.540317314
 11
2.7343927422
 21
-14.5461755582
  0
LINE
  5
2FC
100
AcDbEntity
  8
0
100
AcDbLine
 62
7
  6
CONTINUOUS
 10
2.7341652984
 20
-14.5460188334
 11
2.7430179227
 21
-14.5522169908
  0
LWPOLYLINE
  5
2FD
100
AcDbEntity
  8
0
100
AcDbPolyline
 62
7
  6
CONTINUOUS
 90
3
 70
0
 10
0.1005721868
 20
-12.336976215
 10
0.0918214032
 20
-12.3305663882
 10
0.0832898149
 20
-12.3238352788
  0
LINE
  5
2FE
100
AcDbEntity
  8
0
100
AcDbLine
 62
7
  6
CONTINUOUS
 10
2.7427572125
 20
-14.5520276453
 11
2.7514169417
 21
-14.5585498464
  0
LWPOLYLINE
  5
2FF
100
AcDbEntity
  8
0
100
AcDbPolyline
 62
7
  6
CONTINUOUS
 90
3
 70
0
 10
-3.7685699854
 20
-14.9638785733
 10
-3.7743404162
 20
-14.9550282065
 10
-3.7797834092
 20
-14.9460050746
  0
LWPOLYLINE
  5
300
100
AcDbEntity
  8
0
100
AcDbPolyline
 62
7
  6
CONTINUOUS
 90
10
 70
0
 10
-3.779810902
 20
-14.9459576086
 10
-3.7848906992
 20
-14.9368209768
 10
-3.7896477779
 20
-14.9275112274
 10
-3.7940703067
 20
-14.9180417568
 10
-3.798158499
 20
-14.9084035109
 10
-3.8019121415
 20
-14.8986055359
 10
-3.8053187621
 20
-14.8886883801
 10
-3.808376363
 20
-14.8786536995
 10
-3.8110869421
 20
-14.8684998322
 10
-3.8134440215
 20
-14.8582623513
  0
LWPOLYLINE
  5
301
100
AcDbEntity
  8
0
100
AcDbPolyline
 62
250
  6
CONTINUOUS
 90
16
 70
0
 10
-11.0892426225
 20
21.4962660468
 10
-11.0896662265
 20
21.5019993143
 10
-11.0900953566
 20
21.5074091909
 10
-11.0905290861
 20
21.512483983
 10
-11.0909674241
 20
21.517222961
 10
-11.0914103613
 20
21.5216268545
 10
-11.0918569432
 20
21.5256861582
 10
-11.092307179
 20
21.5294001352
 10
-11.0927610595
 20
21.5327695224
 10
-11.0932176018
 20
21.5357870249
 10
-11.0936768248
 20
21.5384518978
 10
-11.0941387096
 20
21.5407648861
 10
-11.0946022164
 20
21.54272093
 10
-11.0950669986
 20
21.5443183429
 10
-11.0955334028
 20
21.5455588115
 10
-11.096001429
 20
21.5464423357
  0
LWPOLYLINE
  5
302
100
AcDbEntity
  8
0
100
AcDbPolyline
 62
250
  6
CONTINUOUS
 90
3
 70
0
 10
-11.0880058948
 20
21.4771375921
 10
-11.0884120174
 20
21.4838279409
 10
-11.0892426225
 20
21.4962660468
  0
LWPOLYLINE
  5
303
100
AcDbEntity
  8
0
100
AcDbPolyline
 62
250
  6
CONTINUOUS
 90
11
 70
0
 10
-10.5917146913
 20
21.9961196436
 10
-10.5921612579
 20
22.0042397506
 10
-10.5926114874
 20
22.0116704198
 10
-10.593065365
 20
22.01840626
 10
-10.5935218966
 20
22.0244423698
 10
-10.5939810773
 20
22.02977438
 10
-10.5944429119
 20
22.034398484
 10
-10.594906421
 20
22.038311382
 10
-10.595371278
 20
22.0415102493
 10
-10.5958378095
 20
22.0439927569
 10
-10.5963060155
 20
22.0457571031
  0
LINE
  5
304
100
AcDbEntity
  8
0
100
AcDbLine
 62
250
  6
CONTINUOUS
 10
-10.5908334524
 20
21.9778349495
 11
-10.5917146913
 21
21.9961196436
  0
LWPOLYLINE
  5
305
100
AcDbEntity
  8
0
100
AcDbPolyline
 62
250
  6
CONTINUOUS
 90
3
 70
0
 10
-10.5895470287
 20
21.9453990303
 10
-10.5899706196
 20
21.9568689243
 10
-10.5908334524
 20
21.9778349495
  0
LINE
  5
306
100
AcDbEntity
  8
0
100
AcDbLine
 62
250
  6
CONTINUOUS
 10
-10.590399737
 20
-21.9900568395
 11
-10.5895470287
 21
-21.9677723679
  0
LWPOLYLINE
  5
307
100
AcDbEntity
  8
0
100
AcDbPolyline
 62
7
  6
CONTINUOUS
 90
3
 70
0
 43
0.3500000019
 10
1.0685195313
 20
31.2412407227
 10
0.9970947266
 20
31.0269528809
 10
0.854234375
 20
30.7412402344
  0
LINE
  5
308
100
AcDbEntity
  8
0
100
AcDbLine
 62
7
  6
CONTINUOUS
 10
1.4634152442
 20
13.0728318181
 11
0.0609491268
 21
11.6700205224
  0
LINE
  5
309
100
AcDbEntity
  8
0
100
AcDbLine
 62
7
  6
CONTINUOUS
 10
1.4634152442
 20
13.0728318181
 11
1.4712564686
 21
13.0803800533
  0
LWPOLYLINE
  5
30A
100
AcDbEntity
  8
0
100
AcDbPolyline
 62
7
  6
CONTINUOUS
 90
20
 70
0
 10
1.4634152176
 20
13.0728317931
 10
1.4712427461
 20
13.0803679571
 10
1.4793110131
 20
13.0875967292
 10
1.4876200188
 20
13.0945181139
 10
1.4961833076
 20
13.1011399917
 10
1.5049873351
 20
13.1074544901
 10
1.513991467
 20
13.1134379839
 10
1.5231902435
 20
13.1190888313
 10
1.5325891244
 20
13.1244086817
 10
1.5421638551
 20
13.1293788472
 10
1.5519196163
 20
13.1340000836
 10
1.5618512273
 20
13.1382716416
 10
1.5719188901
 20
13.1421725759
 10
1.5821162841
 20
13.1456963804
 10
1.5924497299
 20
13.1488495666
 10
1.6028983921
 20
13.1516307155
 10
1.6134684317
 20
13.1540426449
 10
1.6241536877
 20
13.1560825409
 10
1.6349148419
 20
13.1577405363
 10
1.6457550843
 20
13.1590168141
  0
LINE
  5
30B
100
AcDbEntity
  8
0
100
AcDbLine
 62
7
  6
CONTINUOUS
 10
1.4793369709
 20
13.0876186353
 11
1.487656751
 21
13.0945475685
  0
LINE
  5
30C
100
AcDbEntity
  8
0
100
AcDbLine
 62
7
  6
CONTINUOUS
 10
2.7449439819
 20
13.8235384709
 11
2.7360883585
 21
13.8172638169
  0
LINE
  5
30D
100
AcDbEntity
  8
0
100
AcDbLine
 62
7
  6
CONTINUOUS
 10
3.5160947864
 20
11.1939461619
 11
3.5065622384
 21
11.1888755474
  0
LWPOLYLINE
  5
30E
100
AcDbEntity
  8
0
100
AcDbPolyline
 62
7
  6
CONTINUOUS
 90
3
 70
0
 10
1.7849983157
 20
9.7743196356
 10
1.7748418235
 20
9.7705888911
 10
1.764560898
 20
9.7672281055
  0
LWPOLYLINE
  5
30F
100
AcDbEntity
  8
0
100
AcDbPolyline
 62
7
  6
CONTINUOUS
 90
14
 70
0
 10
1.7645842647
 20
9.7672352795
 10
1.7541733274
 20
9.7642418012
 10
1.7436383765
 20
9.7616183257
 10
1.7330225943
 20
9.7593772013
 10
1.7223306599
 20
9.7575196322
 10
1.7115578942
 20
9.7560444153
 10
1.7007334417
 20
9.7549602872
 10
1.6898413973
 20
9.7542694358
 10
1.6788976661
 20
9.7539696736
 10
1.6679791083
 20
9.7540631742
 10
1.657096352
 20
9.754554206
 10
1.6462387692
 20
9.7554385003
 10
1.6354513358
 20
9.7567054258
 10
1.6247364555
 20
9.7583545725
  0
LINE
  5
310
100
AcDbEntity
  8
0
100
AcDbLine
 62
250
  6
CONTINUOUS
 10
10.7555793161
 20
-9.5080678261
 11
10.6955004946
 21
-9.5091087536
  0
LINE
  5
311
100
AcDbEntity
  8
0
100
AcDbLine
 62
250
  6
CONTINUOUS
 10
10.6955004946
 20
-9.5091087536
 11
10.6277953405
 21
-9.5099601063
  0
LINE
  5
312
100
AcDbEntity
  8
0
100
AcDbLine
 62
250
  6
CONTINUOUS
 10
10.6277953405
 20
-9.5099601063
 11
10.5541931779
 21
-9.510600139
  0
LINE
  5
313
100
AcDbEntity
  8
0
100
AcDbLine
 62
250
  6
CONTINUOUS
 10
10.5541931779
 20
-9.510600139
 11
10.4765739518
 21
-9.5110125041
  0
LINE
  5
314
100
AcDbEntity
  8
0
100
AcDbLine
 62
250
  6
CONTINUOUS
 10
10.4765739518
 20
-9.5110125041
 11
10.3969202112
 21
-9.5111866688
  0
LINE
  5
315
100
AcDbEntity
  8
0
100
AcDbLine
 62
250
  6
CONTINUOUS
 10
-10.6409965694
 20
-9.5109488364
 11
10.3969202112
 21
-9.5111866688
  0
LINE
  5
316
100
AcDbEntity
  8
0
100
AcDbLine
 62
250
  6
CONTINUOUS
 10
-10.7476312073
 20
-9.5102425193
 11
-10.6409965694
 21
-9.5109488364
  0
LINE
  5
317
100
AcDbEntity
  8
0
100
AcDbLine
 62
250
  6
CONTINUOUS
 10
-10.8311882653
 20
-9.5092949596
 11
-10.7476312073
 21
-9.5102425193
  0
LWPOLYLINE
  5
318
100
AcDbEntity
  8
0
100
AcDbPolyline
 62
250
  6
CONTINUOUS
 90
3
 70
0
 10
-10.904250811
 20
-9.5080678261
 10
-10.8929219483
 20
-9.5082899659
 10
-10.8311882653
 20
-9.5092949596
  0
LINE
  5
319
100
AcDbEntity
  8
0
100
AcDbLine
 62
7
  6
CONTINUOUS
 10
2.5629894146
 20
-9.7839017666
 11
2.5516197916
 21
-9.7835720784
  0
LWPOLYLINE
  5
31A
100
AcDbEntity
  8
0
100
AcDbPolyline
 62
7
  6
CONTINUOUS
 90
16
 70
0
 10
2.5525981627
 20
-9.7836156667
 10
2.5407590077
 20
-9.7828579159
 10
2.5299443171
 20
-9.781752038
 10
2.5192083128
 20
-9.7802622943
 10
2.5085545261
 20
-9.7783919534
 10
2.4979794258
 20
-9.7761377458
 10
2.4875050109
 20
-9.7734977135
 10
2.4771260556
 20
-9.7704661137
 10
2.4668477858
 20
-9.7670486876
 10
2.4567078781
 20
-9.7632607035
 10
2.4467087753
 20
-9.759101746
 10
2.4368480346
 20
-9.7545722284
 10
2.4271560041
 20
-9.7496886616
 10
2.4176286411
 20
-9.744450148
 10
2.4082699882
 20
-9.7388575826
 10
2.3991225212
 20
-9.7329301654
  0
LWPOLYLINE
  5
31B
100
AcDbEntity
  8
0
100
AcDbPolyline
 62
7
  6
CONTINUOUS
 90
16
 70
0
 10
2.5422552942
 20
-9.7829774721
 10
2.5319605007
 20
-9.7819879858
 10
2.5217140908
 20
-9.7806464043
 10
2.5115488451
 20
-9.7789580518
 10
2.5014718124
 20
-9.7769255115
 10
2.491475944
 20
-9.7745461992
 10
2.4815728751
 20
-9.7718176879
 10
2.4717539751
 20
-9.7687338085
 10
2.4620278747
 20
-9.7653007287
 10
2.4524321009
 20
-9.7615345269
 10
2.4429720578
 20
-9.7574367804
 10
2.4336423414
 20
-9.7530059102
 10
2.4244642673
 20
-9.74825326
 10
2.4154313567
 20
-9.7431768557
 10
2.4065500883
 20
-9.7377786693
 10
2.3978612141
 20
-9.732075964
  0
LWPOLYLINE
  5
31C
100
AcDbEntity
  8
0
100
AcDbPolyline
 62
7
  6
CONTINUOUS
 90
3
 70
0
 10
2.0300802712
 20
-10.3944198214
 10
2.0406205738
 20
-10.3968260041
 10
2.0510492693
 20
-10.3996033217
  0
LINE
  5
31D
100
AcDbEntity
  8
0
100
AcDbLine
 62
7
  6
CONTINUOUS
 10
2.7511539949
 20
-14.5583449176
 11
2.7595947422
 21
-14.5651743941
  0
LWPOLYLINE
  5
31E
100
AcDbEntity
  8
0
100
AcDbPolyline
 62
7
  6
CONTINUOUS
 90
15
 70
0
 10
1.7760711015
 20
-13.725201831
 10
1.7678051446
 20
-13.7180636063
 10
1.7598071758
 20
-13.7106408127
 10
1.7520690415
 20
-13.7029271469
 10
1.7446192859
 20
-13.6949500388
 10
1.7374517078
 20
-13.6867013147
 10
1.7305725084
 20
-13.6781891388
 10
1.724028835
 20
-13.669465449
 10
1.7178328066
 20
-13.6605387397
 10
1.7119723043
 20
-13.6514005087
 10
1.7064581189
 20
-13.6420771998
 10
1.7012883844
 20
-13.63256492
 10
1.6964649668
 20
-13.6228675549
 10
1.6920042553
 20
-13.6130232179
 10
1.6879101397
 20
-13.6030395807
  0
LINE
  5
31F
100
AcDbEntity
  8
0
100
AcDbLine
 62
7
  6
CONTINUOUS
 10
2.7593535521
 20
-14.5649694728
 11
2.7675152129
 21
-14.5720556176
  0
LWPOLYLINE
  5
320
100
AcDbEntity
  8
0
100
AcDbPolyline
 62
7
  6
CONTINUOUS
 90
4
 70
0
 10
2.7673223502
 20
-14.5718822523
 10
2.7750676343
 20
-14.5790950476
 10
2.7825821592
 20
-14.5865960566
 10
2.7898106547
 20
-14.5943308309
  0
LINE
  5
321
100
AcDbEntity
  8
0
100
AcDbLine
 62
7
  6
CONTINUOUS
 10
-3.7896745558
 20
-14.9274516974
 11
-3.7941112224
 21
-14.9179499185
  0
LWPOLYLINE
  5
322
100
AcDbEntity
  8
0
100
AcDbPolyline
 62
7
  6
CONTINUOUS
 90
8
 70
0
 10
-3.8072757664
 20
13.4774798559
 10
-3.8039089144
 20
13.4880675508
 10
-3.8002134192
 20
13.4983527733
 10
-3.7961409532
 20
13.5085105743
 10
-3.7917048638
 20
13.5184954387
 10
-3.7869004234
 20
13.5283051216
 10
-3.7817323595
 20
13.5379418749
 10
-3.7762282019
 20
13.5473669299
  0
LWPOLYLINE
  5
323
100
AcDbEntity
  8
0
100
AcDbPolyline
 62
7
  6
CONTINUOUS
 90
8
 70
0
 10
-3.8043457828
 20
13.4867638881
 10
-3.8011138232
 20
13.4959631323
 10
-3.7975804715
 20
13.5050519437
 10
-3.793737281
 20
13.5140397841
 10
-3.7895926984
 20
13.5229171958
 10
-3.7851726485
 20
13.5316301563
 10
-3.7804792349
 20
13.5401659092
 10
-3.775510354
 20
13.548537217
  0
LINE
  5
324
100
AcDbEntity
  8
0
100
AcDbLine
 62
7
  6
CONTINUOUS
 10
0.0272844107
 20
11.6298607528
 11
0.0335562185
 21
11.638487497
  0
LINE
  5
325
100
AcDbEntity
  8
0
100
AcDbLine
 62
7
  6
CONTINUOUS
 10
0.0334627968
 20
11.6383666214
 11
0.040018852
 21
11.6467604348
  0
LWPOLYLINE
  5
326
100
AcDbEntity
  8
0
100
AcDbPolyline
 62
7
  6
CONTINUOUS
 90
4
 70
0
 10
0.0399211733
 20
11.6466396976
 10
0.0466505007
 20
11.654666092
 10
0.0536598186
 20
11.6624596995
 10
0.0609491268
 20
11.6700205224
  0
LWPOLYLINE
  5
327
100
AcDbEntity
  8
0
100
AcDbPolyline
 62
7
  6
CONTINUOUS
 90
6
 70
0
 10
2.7997985661
 20
13.8756964101
 10
2.792808258
 20
13.8674391883
 10
2.7855257084
 20
13.8594410488
 10
2.7779431228
 20
13.8516958905
 10
2.7700682956
 20
13.8442098238
 10
2.7619413894
 20
13.8370198761
  0
LWPOLYLINE
  5
328
100
AcDbEntity
  8
0
100
AcDbPolyline
 62
7
  6
CONTINUOUS
 90
3
 70
0
 10
1.903636979
 20
12.6636818752
 10
1.8963588601
 20
12.655552792
 10
1.8887632836
 20
12.647656637
  0
LWPOLYLINE
  5
329
100
AcDbEntity
  8
0
100
AcDbPolyline
 62
7
  6
CONTINUOUS
 90
41
 70
0
 10
2.7855329812
 20
13.8594487496
 10
2.7779536144
 20
13.85170628
 10
2.7700818828
 20
13.844222299
 10
2.7619580209
 20
13.8370340715
 10
2.7535885329
 20
13.8301467944
 10
2.7449669147
 20
13.8235552804
 10
2.7361138886
 20
13.8172812189
 10
2.7270182526
 20
13.8113205507
 10
2.7176912087
 20
13.8056773438
 10
2.7081870856
 20
13.8003854783
 10
2.6985153796
 20
13.7954531512
 10
2.6886665945
 20
13.7908721737
 10
2.6786665698
 20
13.7866518473
 10
2.6685097448
 20
13.7827902155
 10
2.6582016803
 20
13.7792892414
 10
2.6477848985
 20
13.7761641058
 10
2.6372641808
 20
13.7734164452
 10
2.6266347458
 20
13.7710446281
 10
2.6159247723
 20
13.7690589329
 10
2.6051173071
 20
13.7674601829
 10
2.5942293034
 20
13.7662475579
 10
2.5833397988
 20
13.7654288702
 10
2.5724603951
 20
13.7650093256
 10
2.5615794905
 20
13.7649837195
 10
2.550741317
 20
13.7653442482
 10
2.5399480822
 20
13.7660905031
 10
2.5291975785
 20
13.767222892
 10
2.5185274149
 20
13.7687348352
 10
2.5079441789
 20
13.7706235509
 10
2.4974412829
 20
13.7728918181
 10
2.4870365739
 20
13.7755413979
 10
2.476722758
 20
13.7785778891
 10
2.4665071289
 20
13.7819956881
 10
2.4564294145
 20
13.7857797519
 10
2.4464940641
 20
13.7899299858
 10
2.4366966283
 20
13.794446478
 10
2.4270634868
 20
13.7993144594
 10
2.4175888132
 20
13.8045352641
 10
2.4082784338
 20
13.8101075499
 10
2.3991762067
 20
13.8160125327
 10
2.3902967513
 20
13.8222439484
  0
LINE
  5
32A
100
AcDbEntity
  8
0
100
AcDbLine
 62
7
  6
CONTINUOUS
 10
1.8887632836
 20
12.647656637
 11
0.9993463173
 21
11.7577218653
  0
LWPOLYLINE
  5
32B
100
AcDbEntity
  8
0
100
AcDbPolyline
 62
7
  6
CONTINUOUS
 90
3
 70
0
 10
3.5523224851
 20
11.2176143173
 10
3.5435721109
 20
11.211202136
 10
3.5345997227
 20
11.2051094586
  0
LWPOLYLINE
  5
32C
100
AcDbEntity
  8
0
100
AcDbPolyline
 62
7
  6
CONTINUOUS
 90
8
 70
0
 10
1.8515449245
 20
9.8104152275
 10
1.8426286264
 20
9.8042434981
 10
1.8334933741
 20
9.7983955367
 10
1.8241634394
 20
9.792887888
 10
1.8146306084
 20
9.7877181583
 10
1.8049030951
 20
9.7828887442
 10
1.7950298127
 20
9.7784233752
 10
1.7850198139
 20
9.7743279779
  0
LWPOLYLINE
  5
32D
100
AcDbEntity
  8
0
100
AcDbPolyline
 62
7
  6
CONTINUOUS
 90
3
 70
0
 10
1.8426115031
 20
9.8042321023
 10
1.8334739588
 20
9.7983836618
 10
1.8241424444
 20
9.7928760057
  0
LWPOLYLINE
  5
32E
100
AcDbEntity
  8
0
100
AcDbPolyline
 62
7
  6
CONTINUOUS
 90
3
 70
0
 10
1.8146092122
 20
9.7877069398
 10
1.80488201
 20
9.7828786611
 10
1.795008783
 20
9.7784143221
  0
LINE
  5
32F
100
AcDbEntity
  8
0
100
AcDbLine
 62
7
  6
CONTINUOUS
 10
2.6887829463
 20
8.4784725191
 11
2.6791637278
 21
8.4744013628
  0
LWPOLYLINE
  5
330
100
AcDbEntity
  8
0
100
AcDbPolyline
 62
7
  6
CONTINUOUS
 90
5
 70
0
 10
2.6792583069
 20
8.4744428871
 10
2.6694730744
 20
8.470701826
 10
2.6595699372
 20
8.4673068791
 10
2.6495506212
 20
8.4642599869
 10
2.6394134004
 20
8.4615592093
  0
LINE
  5
331
100
AcDbEntity
  8
0
100
AcDbLine
 62
7
  6
CONTINUOUS
 10
-0.1547564219
 20
-6.9704201123
 11
-0.1443107738
 21
-6.9677149594
  0
LWPOLYLINE
  5
332
100
AcDbEntity
  8
0
100
AcDbPolyline
 62
7
  6
CONTINUOUS
 90
13
 70
0
 10
-0.1450447773
 20
-6.9678934124
 10
-0.1337551314
 20
-6.9653818432
 10
-0.1231955633
 20
-6.9634368755
 10
-0.1126383738
 20
-6.9618782157
 10
-0.1020772586
 20
-6.9607077046
 10
-0.091524495
 20
-6.9599270516
 10
-0.0809896895
 20
-6.9595368355
 10
-0.0704632357
 20
-6.9595364775
 10
-0.0599285916
 20
-6.9599259501
 10
-0.0493763529
 20
-6.9607057776
 10
-0.0388159239
 20
-6.9618754357
 10
-0.0282589758
 20
-6.9634333235
 10
-0.0176989694
 20
-6.9653776054
  0
LWPOLYLINE
  5
333
100
AcDbEntity
  8
0
100
AcDbPolyline
 62
7
  6
CONTINUOUS
 90
13
 70
0
 10
-0.1352645185
 20
-6.9656912644
 10
-0.125413068
 20
-6.963814886
 10
-0.1154930034
 20
-6.9622630595
 10
-0.1055552094
 20
-6.9610525215
 10
-0.0956107618
 20
-6.9601862924
 10
-0.0856485847
 20
-6.9596613518
 10
-0.075686336
 20
-6.9594853755
 10
-0.0657238113
 20
-6.9596635119
 10
-0.0557612149
 20
-6.9601906125
 10
-0.0458168176
 20
-6.9610589081
 10
-0.035879566
 20
-6.962271488
 10
-0.0259605136
 20
-6.9638252627
 10
-0.0161110913
 20
-6.965703195
  0
LINE
  5
334
100
AcDbEntity
  8
0
100
AcDbLine
 62
7
  6
CONTINUOUS
 10
-0.0176989694
 20
-6.9653776054
 11
-0.0063344595
 21
-6.9679063351
  0
LINE
  5
335
100
AcDbEntity
  8
0
100
AcDbLine
 62
7
  6
CONTINUOUS
 10
-0.0071424438
 20
-6.967710117
 11
0.0033793129
 21
-6.9704347636
  0
LWPOLYLINE
  5
336
100
AcDbEntity
  8
0
100
AcDbPolyline
 62
7
  6
CONTINUOUS
 90
11
 70
0
 10
0.0033725423
 20
-6.9704336327
 10
0.0138913508
 20
-6.9735614536
 10
0.0243686198
 20
-6.9770802786
 10
0.034704681
 20
-6.9809654184
 10
0.0448938691
 20
-6.9852231514
 10
0.0549418493
 20
-6.989847199
 10
0.0647591788
 20
-6.9947929061
 10
0.0743487741
 20
-7.0000717889
 10
0.0837077186
 20
-7.005672331
 10
0.0927378192
 20
-7.0115153279
 10
0.1014063448
 20
-7.0175743781
  0
LWPOLYLINE
  5
337
100
AcDbEntity
  8
0
100
AcDbPolyline
 62
7
  6
CONTINUOUS
 90
10
 70
0
 10
0.0129679647
 20
-6.9732648999
 10
0.022436682
 20
-6.9763931041
 10
0.0317938198
 20
-6.9798252778
 10
0.0410428059
 20
-6.9835623306
 10
0.0501993658
 20
-6.9876083023
 10
0.0592477739
 20
-6.9919591529
 10
0.0681442816
 20
-6.9966036728
 10
0.0768924189
 20
-7.0015453692
 10
0.0854886556
 20
-7.0067807346
 10
0.0938786528
 20
-7.0122880381
  0
LINE
  5
338
100
AcDbEntity
  8
0
100
AcDbLine
 62
7
  6
CONTINUOUS
 10
2.3991225212
 20
-9.7329301654
 11
2.389378318
 21
-9.7260744934
  0
LWPOLYLINE
  5
339
100
AcDbEntity
  8
0
100
AcDbPolyline
 62
7
  6
CONTINUOUS
 90
3
 70
0
 10
2.1561504502
 20
-10.4541409434
 10
2.1645166517
 20
-10.4611119363
 10
2.1726461763
 20
-10.4683958438
  0
LINE
  5
33A
100
AcDbEntity
  8
0
100
AcDbLine
 62
7
  6
CONTINUOUS
 10
2.6448188787
 20
-11.7904505998
 11
1.7554831462
 21
-10.9012874533
  0
LWPOLYLINE
  5
33B
100
AcDbEntity
  8
0
100
AcDbPolyline
 62
7
  6
CONTINUOUS
 90
4
 70
0
 10
0.0515957108
 20
-12.2938313337
 10
0.0443731476
 20
-12.2856413143
 10
0.0374772624
 20
-12.2772215193
 10
0.0308951489
 20
-12.2685624626
  0
LINE
  5
33C
100
AcDbEntity
  8
0
100
AcDbLine
 62
7
  6
CONTINUOUS
 10
2.7896965344
 20
-14.594204287
 11
2.7967414336
 21
-14.6022924097
  0
LINE
  5
33D
100
AcDbEntity
  8
0
100
AcDbLine
 62
7
  6
CONTINUOUS
 10
2.7965926824
 20
-14.6021187923
 11
2.8033861831
 21
-14.6104877445
  0
LWPOLYLINE
  5
33E
100
AcDbEntity
  8
0
100
AcDbPolyline
 62
7
  6
CONTINUOUS
 90
6
 70
0
 10
1.7374416415
 20
-13.6866893396
 10
1.7305622502
 20
-13.6781758994
 10
1.7240188955
 20
-13.669451678
 10
1.7178237436
 20
-13.6605252431
 10
1.7119646283
 20
-13.6513880194
 10
1.7064520286
 20
-13.6420664579
  0
LINE
  5
33F
100
AcDbEntity
  8
0
100
AcDbLine
 62
7
  6
CONTINUOUS
 10
2.8032340027
 20
-14.610293044
 11
2.8097246946
 21
-14.6188832571
  0
LINE
  5
340
100
AcDbEntity
  8
0
100
AcDbLine
 62
7
  6
CONTINUOUS
 10
-3.8134440215
 20
-14.8582623513
 11
-3.8154761186
 21
-14.8477781798
  0
LWPOLYLINE
  5
341
100
AcDbEntity
  8
0
100
AcDbPolyline
 62
7
  6
CONTINUOUS
 90
4
 70
0
 10
-3.8183877832
 20
-14.8270837824
 10
-3.8193076677
 20
-14.8166201618
 10
-3.8198635341
 20
-14.8061211577
 10
-3.8200553825
 20
-14.7955867693
  0
LINE
  5
342
100
AcDbEntity
  8
0
100
AcDbLine
 62
250
  6
CONTINUOUS
 10
-4.972335576
 20
0.787159152
 11
-4.9723400786
 21
0.1368252778
  0
LINE
  5
343
100
AcDbEntity
  8
0
100
AcDbLine
 62
250
  6
CONTINUOUS
 10
-4.972335576
 20
-0.8095324896
 11
-4.9723400786
 21
-0.1591986154
  0
LWPOLYLINE
  5
344
100
AcDbEntity
  8
0
100
AcDbPolyline
 62
250
  6
CONTINUOUS
 90
55
 70
0
 10
-4.972335576
 20
0.787159152
 10
-4.9720483599
 20
0.8073787476
 10
-4.9711718322
 20
0.8275894658
 10
-4.969705993
 20
0.8477913066
 10
-4.9676502324
 20
0.8680093646
 10
-4.9650051602
 20
0.8882185451
 10
-4.961772606
 20
0.9083435646
 10
-4.9579488938
 20
0.9283825589
 10
-4.9535376996
 20
0.9483373922
 10
-4.9485518811
 20
0.9681383734
 10
-4.9429888445
 20
0.9877823902
 10
-4.9368511835
 20
1.007272555
 10
-4.930159538
 20
1.0265485132
 10
-4.9229145769
 20
1.045603371
 10
-4.9151156313
 20
1.0644440223
 10
-4.9067813335
 20
1.0830307951
 10
-4.8979112621
 20
1.1013632898
 10
-4.8885058386
 20
1.119441906
 10
-4.8785849596
 20
1.1372281704
 10
-4.8681456526
 20
1.1547248365
 10
-4.85719089
 20
1.1719291508
 10
-4.845749486
 20
1.1887943788
 10
-4.8338197269
 20
1.2053196323
 10
-4.8214033264
 20
1.2215057997
 10
-4.808534239
 20
1.2373088109
 10
-4.7952125366
 20
1.2527260858
 10
-4.7814381473
 20
1.2677602046
 10
-4.7672448101
 20
1.2823748388
 10
-4.7526315942
 20
1.2965691344
 10
-4.7375994303
 20
1.3103439455
 10
-4.7221848489
 20
1.323665505
 10
-4.7063852567
 20
1.3365338681
 10
-4.690203247
 20
1.3489489798
 10
-4.6736831307
 20
1.360876908
 10
-4.6568241896
 20
1.3723158331
 10
-4.6396271418
 20
1.3832675748
 10
-4.6221384531
 20
1.3937036589
 10
-4.6043609522
 20
1.4036211306
 10
-4.5862918103
 20
1.4130229448
 10
-4.5679690064
 20
1.4218894926
 10
-4.5493918422
 20
1.4302204965
 10
-4.5305610159
 20
1.4380162342
 10
-4.5115166012
 20
1.4452579283
 10
-4.4922515037
 20
1.4519462267
 10
-4.4727728178
 20
1.4580804818
 10
-4.4531418997
 20
1.4636399732
 10
-4.433355949
 20
1.4686219602
 10
-4.4134177663
 20
1.4730291836
 10
-4.3933971092
 20
1.4768491452
 10
-4.3732925092
 20
1.480078155
 10
-4.3531054348
 20
1.4827199031
 10
-4.3329100503
 20
1.4847729607
 10
-4.3127310768
 20
1.4862368519
 10
-4.2925437931
 20
1.4871120527
 10
-4.2723481991
 20
1.4873985632
  0
LWPOLYLINE
  5
345
100
AcDbEntity
  8
0
100
AcDbPolyline
 62
7
  6
CONTINUOUS
 90
6
 70
0
 10
0.0010687093
 20
11.5845643347
 10
0.0056690728
 20
11.5939677474
 10
0.0105965531
 20
11.603205311
 10
0.0158512888
 20
11.6122800999
 10
0.0214131334
 20
11.6211637657
 10
0.0272844107
 20
11.6298607528
  0
LINE
  5
346
100
AcDbEntity
  8
0
100
AcDbLine
 62
7
  6
CONTINUOUS
 10
0.0106022073
 20
11.6032115414
 11
0.0158805585
 21
11.6123257166
  0
LWPOLYLINE
  5
347
100
AcDbEntity
  8
0
100
AcDbPolyline
 62
7
  6
CONTINUOUS
 90
6
 70
0
 10
1.8925796879
 20
9.8459207459
 10
1.8848982119
 20
9.838243781
 10
1.8769502526
 20
9.830851469
 10
1.8687275065
 20
9.8237380573
 10
1.860238277
 20
9.8169093017
 10
1.8515303749
 20
9.8104047614
  0
LWPOLYLINE
  5
348
100
AcDbEntity
  8
0
100
AcDbPolyline
 62
7
  6
CONTINUOUS
 90
3
 70
0
 10
3.5850011432
 20
11.2464022914
 10
3.5772081588
 20
11.23874728
 10
3.5691602057
 20
11.2313990314
  0
LINE
  5
349
100
AcDbEntity
  8
0
100
AcDbLine
 62
7
  6
CONTINUOUS
 10
2.7598843918
 20
8.5229620825
 11
2.7515229908
 21
8.5161874814
  0
LINE
  5
34A
100
AcDbEntity
  8
0
100
AcDbLine
 62
7
  6
CONTINUOUS
 10
2.7517062554
 20
8.5163304755
 11
2.7431258889
 21
8.5098593032
  0
LINE
  5
34B
100
AcDbEntity
  8
0
100
AcDbLine
 62
7
  6
CONTINUOUS
 10
2.743306406
 20
8.5099905856
 11
2.7345323558
 21
8.5038393085
  0
LWPOLYLINE
  5
34C
100
AcDbEntity
  8
0
100
AcDbPolyline
 62
7
  6
CONTINUOUS
 90
4
 70
0
 10
2.7346801669
 20
8.5039424165
 10
2.7258322148
 20
8.4981859648
 10
2.7168134288
 20
8.4927571565
 10
2.7076295815
 20
8.4876622962
  0
LWPOLYLINE
  5
34D
100
AcDbEntity
  8
0
100
AcDbPolyline
 62
7
  6
CONTINUOUS
 90
4
 70
0
 10
2.7167767152
 20
8.492735936
 10
2.7076465619
 20
8.487670054
 10
2.6983450506
 20
8.4829270013
 10
2.6888853187
 20
8.4785180319
  0
LINE
  5
34E
100
AcDbEntity
  8
0
100
AcDbLine
 62
7
  6
CONTINUOUS
 10
0.0938786528
 20
-7.0122880381
 11
0.1020442972
 21
-7.0180600358
  0
LINE
  5
34F
100
AcDbEntity
  8
0
100
AcDbLine
 62
7
  6
CONTINUOUS
 10
0.1014063448
 20
-7.0175743781
 11
0.110003702
 21
-7.0241039713
  0
LINE
  5
350
100
AcDbEntity
  8
0
100
AcDbLine
 62
7
  6
CONTINUOUS
 10
2.3902003987
 20
-9.7266742952
 11
2.381087816
 21
-9.7197685014
  0
LINE
  5
351
100
AcDbEntity
  8
0
100
AcDbLine
 62
7
  6
CONTINUOUS
 10
2.381489462
 20
-9.7200835704
 11
2.3729897111
 21
-9.7131579892
  0
LINE
  5
352
100
AcDbEntity
  8
0
100
AcDbLine
 62
7
  6
CONTINUOUS
 10
0.1097460266
 20
-7.0238758828
 11
0.1177568644
 21
-7.030419842
  0
LINE
  5
353
100
AcDbEntity
  8
0
100
AcDbLine
 62
7
  6
CONTINUOUS
 10
2.3729897082
 20
-9.7131579867
 11
-0.075716467
 21
-7.6531243734
  0
LINE
  5
354
100
AcDbEntity
  8
0
100
AcDbLine
 62
7
  6
CONTINUOUS
 10
2.7599363739
 20
-9.2533783685
 11
0.1177568644
 21
-7.030419842
  0
LWPOLYLINE
  5
355
100
AcDbEntity
  8
0
100
AcDbPolyline
 62
7
  6
CONTINUOUS
 90
3
 70
0
 10
2.7599363737
 20
-9.2533783684
 10
2.7679503774
 20
-9.2603583681
 10
2.7757085811
 20
-9.2676151763
  0
LWPOLYLINE
  5
356
100
AcDbEntity
  8
0
100
AcDbPolyline
 62
7
  6
CONTINUOUS
 90
3
 70
0
 10
2.1644879385
 20
-10.4610880115
 10
2.172628333
 20
-10.468380189
 10
2.1805390196
 20
-10.4759926598
  0
LINE
  5
357
100
AcDbEntity
  8
0
100
AcDbLine
 62
7
  6
CONTINUOUS
 10
3.5831775998
 20
-11.8784586496
 11
2.1805390239
 21
-10.4759926638
  0
LINE
  5
358
100
AcDbEntity
  8
0
100
AcDbLine
 62
7
  6
CONTINUOUS
 10
3.5831776071
 20
-11.8784586573
 11
3.5904105179
 21
-11.8859497571
  0
LWPOLYLINE
  5
359
100
AcDbEntity
  8
0
100
AcDbPolyline
 62
7
  6
CONTINUOUS
 90
44
 70
0
 10
1.755483161
 20
-10.901287469
 10
1.747899115
 20
-10.8934108574
 10
1.7406251748
 20
-10.8852942149
 10
1.7336613402
 20
-10.8769375393
 10
1.7269993939
 20
-10.8683267163
 10
1.7206475533
 20
-10.8594758556
 10
1.7146304708
 20
-10.8504272921
 10
1.7089500574
 20
-10.8411863555
 10
1.7036044021
 20
-10.8317477122
 10
1.6986124243
 20
-10.8221377035
 10
1.6939737426
 20
-10.8123511728
 10
1.6896887385
 20
-10.8023932731
 10
1.6857774755
 20
-10.7923058103
 10
1.6822464148
 20
-10.7820953162
 10
1.6790890953
 20
-10.7717552564
 10
1.6763061963
 20
-10.7613078374
 10
1.6738949341
 20
-10.7507474314
 10
1.6718580925
 20
-10.7400796639
 10
1.670204702
 20
-10.7293436227
 10
1.6689344174
 20
-10.7185379712
 10
1.6680475839
 20
-10.7076640447
 10
1.6675542668
 20
-10.6967649394
 10
1.6674585303
 20
-10.6858291213
 10
1.6677563101
 20
-10.6748681241
 10
1.6684454796
 20
-10.663959647
 10
1.6695284244
 20
-10.6531190771
 10
1.6710027588
 20
-10.6423310289
 10
1.672859198
 20
-10.6316270446
 10
1.6750992501
 20
-10.6210025909
 10
1.6777214071
 20
-10.6104622031
 10
1.6807118606
 20
-10.6000510272
 10
1.6840681468
 20
-10.5897774342
 10
1.6877927296
 20
-10.5796330562
 10
1.6918791919
 20
-10.5696379317
 10
1.6963327537
 20
-10.5597836677
 10
1.7011481951
 20
-10.5500786605
 10
1.7063034398
 20
-10.5405681322
 10
1.7117956749
 20
-10.531259716
 10
1.7176277132
 20
-10.5221457828
 10
1.7237859167
 20
-10.5132486622
 10
1.7302780304
 20
-10.5045606
 10
1.7370963092
 20
-10.4960893544
 10
1.7442038801
 20
-10.4878805237
 10
1.7515960919
 20
-10.4799418865
  0
LWPOLYLINE
  5
35A
100
AcDbEntity
  8
0
100
AcDbPolyline
 62
7
  6
CONTINUOUS
 90
3
 70
0
 10
1.7554831462
 20
-10.9012874533
 10
1.747884689
 20
-10.8933944607
 10
1.7406035397
 20
-10.8852682526
  0
LINE
  5
35B
100
AcDbEntity
  8
0
100
AcDbLine
 62
7
  6
CONTINUOUS
 10
3.5904105179
 20
-11.8859497571
 11
3.597476117
 21
-11.8938070421
  0
LINE
  5
35C
100
AcDbEntity
  8
0
100
AcDbLine
 62
7
  6
CONTINUOUS
 10
3.5973805771
 20
-11.8936918359
 11
3.6042058244
 21
-11.9018307145
  0
LINE
  5
35D
100
AcDbEntity
  8
0
100
AcDbLine
 62
7
  6
CONTINUOUS
 10
1.7405991061
 20
-10.8852633044
 11
1.7336263975
 21
-10.8768939821
  0
LINE
  5
35E
100
AcDbEntity
  8
0
100
AcDbLine
 62
7
  6
CONTINUOUS
 10
2.8095844079
 20
-14.6186907217
 11
2.8157556925
 21
-14.6274768117
  0
LWPOLYLINE
  5
35F
100
AcDbEntity
  8
0
100
AcDbPolyline
 62
7
  6
CONTINUOUS
 90
3
 70
0
 10
2.8156440222
 20
-14.6273166459
 10
2.8214127212
 20
-14.6361659861
 10
2.8268540443
 20
-14.6451879473
  0
LWPOLYLINE
  5
360
100
AcDbEntity
  8
0
100
AcDbPolyline
 62
7
  6
CONTINUOUS
 90
3
 70
0
 10
0.0187156572
 20
-12.2506075404
 10
0.013118279
 20
-12.2413116688
 10
0.0078721996
 20
-12.2318469151
  0
LINE
  5
361
100
AcDbEntity
  8
0
100
AcDbLine
 62
7
  6
CONTINUOUS
 10
-3.8154489479
 20
-14.8479370344
 11
-3.8171235709
 21
-14.8373501493
  0
LINE
  5
362
100
AcDbEntity
  8
0
100
AcDbLine
 62
7
  6
CONTINUOUS
 10
-3.8171003746
 20
-14.8375280994
 11
-3.8184060903
 21
-14.8269103872
  0
LWPOLYLINE
  5
363
100
AcDbEntity
  8
0
100
AcDbPolyline
 62
7
  6
CONTINUOUS
 90
3
 70
0
 10
-3.8191377299
 20
8.732279758
 10
-3.8196916549
 20
8.7427603859
 10
-3.8198827925
 20
8.7532760557
  0
LWPOLYLINE
  5
364
100
AcDbEntity
  8
0
100
AcDbPolyline
 62
250
  6
CONTINUOUS
 90
40
 70
0
 10
-4.772347694
 20
-0.359191
 10
-4.7725104857
 20
-0.3511385088
 10
-4.7729973703
 20
-0.3430990775
 10
-4.7738075581
 20
-0.3350857448
 10
-4.7749397352
 20
-0.3271115072
 10
-4.7763920653
 20
-0.3191892975
 10
-4.7781621931
 20
-0.3113319645
 10
-4.7802472475
 20
-0.3035522515
 10
-4.782643847
 20
-0.2958627759
 10
-4.7853481047
 20
-0.2882760091
 10
-4.7883556346
 20
-0.2808042554
 10
-4.791661559
 20
-0.273459633
 10
-4.7952605162
 20
-0.2662540538
 10
-4.7991466693
 20
-0.2591992039
 10
-4.8033137155
 20
-0.2523065255
 10
-4.8077548965
 20
-0.2455871972
 10
-4.8124630094
 20
-0.2390521168
 10
-4.8174304183
 20
-0.2327118833
 10
-4.8226490669
 20
-0.2265767794
 10
-4.8281104914
 20
-0.2206567555
 10
-4.8338058341
 20
-0.2149614128
 10
-4.839725858
 20
-0.2094999883
 10
-4.8458609619
 20
-0.2042813397
 10
-4.8522011954
 20
-0.1993139308
 10
-4.8587362758
 20
-0.1946058179
 10
-4.865455604
 20
-0.1901646369
 10
-4.8723482825
 20
-0.1859975907
 10
-4.8794031324
 20
-0.1821114376
 10
-4.8866087116
 20
-0.1785124804
 10
-4.893953334
 20
-0.175206556
 10
-4.9014250877
 20
-0.1721990261
 10
-4.9090118545
 20
-0.1694947684
 10
-4.91670133
 20
-0.1670981689
 10
-4.9244810431
 20
-0.1650131145
 10
-4.9323383761
 20
-0.1632429868
 10
-4.9402605857
 20
-0.1617906566
 10
-4.9482348234
 20
-0.1606584795
 10
-4.9562481561
 20
-0.1598482917
 10
-4.9642875874
 20
-0.1593614071
 10
-4.9723400786
 20
-0.1591986154
  0
LINE
  5
365
100
AcDbEntity
  8
0
100
AcDbLine
 62
250
  6
CONTINUOUS
 10
-4.7723431914
 20
-0.8092102883
 11
-4.772347694
 21
-0.359191
  0
LINE
  5
366
100
AcDbEntity
  8
0
100
AcDbLine
 62
250
  6
CONTINUOUS
 10
-4.772347694
 20
0.3368176624
 11
-4.7723431914
 21
0.786836887
  0
LINE
  5
367
100
AcDbEntity
  8
0
100
AcDbLine
 62
7
  6
CONTINUOUS
 10
-4.7605497276
 20
0.7750463499
 11
-4.7605497276
 21
0.3250196961
  0
LINE
  5
368
100
AcDbEntity
  8
0
100
AcDbLine
 62
7
  6
CONTINUOUS
 10
-4.7605497276
 20
-0.3473930336
 11
-4.7605497276
 21
-0.7974196875
  0
LINE
  5
369
100
AcDbEntity
  8
0
100
AcDbLine
 62
250
  6
CONTINUOUS
 10
-4.2723481991
 20
1.4873985632
 11
-4.2723481991
 21
1.2868067445
  0
LINE
  5
36A
100
AcDbEntity
  8
0
100
AcDbLine
 62
250
  6
CONTINUOUS
 10
-4.2723481991
 20
-1.5097719008
 11
-4.2723481991
 21
-1.3091800821
  0
LINE
  5
36B
100
AcDbEntity
  8
0
100
AcDbLine
 62
7
  6
CONTINUOUS
 10
-3.8200553825
 20
-14.7955867693
 11
-3.8200553825
 21
-10.1574045146
  0
LINE
  5
36C
100
AcDbEntity
  8
0
100
AcDbLine
 62
7
  6
CONTINUOUS
 10
-3.8198827925
 20
13.3914583103
 11
-3.8198827925
 21
8.7532760557
  0
LINE
  5
36D
100
AcDbEntity
  8
0
100
AcDbLine
 62
7
  6
CONTINUOUS
 10
-3.2187520047
 20
-14.4949350804
 11
-3.2187520047
 21
-10.2972023722
  0
LINE
  5
36E
100
AcDbEntity
  8
ASSI
100
AcDbLine
 62
7
  6
CONTINUOUS
 10
-3.2185794147
 20
13.2516604527
 11
-3.2185794147
 21
9.4888133312
  0
LINE
  5
36F
100
AcDbEntity
  8
0
100
AcDbLine
 62
7
  6
CONTINUOUS
 10
-3.2185794147
 20
13.2516604527
 11
-3.2185794147
 21
9.0539277446
  0
LWPOLYLINE
  5
370
100
AcDbEntity
  8
0
100
AcDbPolyline
 62
250
  6
CONTINUOUS
 90
55
 70
0
 10
-4.7723431914
 20
0.786836887
 10
-4.7721352411
 20
0.801264406
 10
-4.7715094898
 20
0.8157072391
 10
-4.7704640859
 20
0.8301532119
 10
-4.7689969961
 20
0.8445946455
 10
-4.7671073493
 20
0.8590144922
 10
-4.7647967813
 20
0.8733865208
 10
-4.7620661144
 20
0.8876982334
 10
-4.7589164906
 20
0.9019373903
 10
-4.7553529327
 20
0.9160785523
 10
-4.7513789615
 20
0.9301080661
 10
-4.74699757
 20
0.9440156528
 10
-4.7422153725
 20
0.9577815533
 10
-4.7370388777
 20
0.9713899209
 10
-4.73147168
 20
0.9848339714
 10
-4.7255167477
 20
0.9981078146
 10
-4.7191793792
 20
1.0112002311
 10
-4.7124651171
 20
1.0241003261
 10
-4.7053768442
 20
1.0368025076
 10
-4.6979188625
 20
1.0492982303
 10
-4.6900985504
 20
1.0615743373
 10
-4.6819235837
 20
1.0736184284
 10
-4.6734007154
 20
1.0854203789
 10
-4.6645371891
 20
1.0969699909
 10
-4.6553422181
 20
1.1082553087
 10
-4.6458246696
 20
1.1192657851
 10
-4.6359918268
 20
1.1299933185
 10
-4.6258510222
 20
1.140430032
 10
-4.6154108241
 20
1.1505671218
 10
-4.6046801124
 20
1.1603959804
 10
-4.5936668796
 20
1.1699092216
 10
-4.5823792514
 20
1.1790995922
 10
-4.5708277976
 20
1.1879582584
 10
-4.5590245975
 20
1.1964759748
 10
-4.5469799832
 20
1.2046454697
 10
-4.5347039963
 20
1.2124601132
 10
-4.5222088251
 20
1.2199124151
 10
-4.5095076634
 20
1.2269950079
 10
-4.4966090296
 20
1.2337036345
 10
-4.4835181793
 20
1.2400356
 10
-4.4702457742
 20
1.2459854548
 10
-4.4568032369
 20
1.2515477898
 10
-4.4431967726
 20
1.256719517
 10
-4.4294330343
 20
1.2614971083
 10
-4.4155279947
 20
1.2658740303
 10
-4.4015021421
 20
1.2698435024
 10
-4.3873659915
 20
1.2734025667
 10
-4.3731329811
 20
1.2765478579
 10
-4.3588286146
 20
1.2792744366
 10
-4.3444652399
 20
1.2815812394
 10
-4.330055235
 20
1.2834675609
 10
-4.3156245435
 20
1.2849318862
 10
-4.3011901004
 20
1.2859751609
 10
-4.2867596497
 20
1.2865994743
 10
-4.2723453365
 20
1.2868067444
  0
LWPOLYLINE
  5
371
100
AcDbEntity
  8
0
100
AcDbPolyline
 62
7
  6
CONTINUOUS
 90
9
 70
0
 10
-3.8198827925
 20
13.3914583102
 10
-3.8196753269
 20
13.4023832318
 10
-3.8190733433
 20
13.4132738197
 10
-3.8180768417
 20
13.4241300747
 10
-3.8166822681
 20
13.4349697423
 10
-3.8148931766
 20
13.445775078
 10
-3.8127202292
 20
13.4564928481
 10
-3.810164685
 20
13.4671185991
 10
-3.8072252851
 20
13.4776567883
  0
LWPOLYLINE
  5
372
100
AcDbEntity
  8
0
100
AcDbPolyline
 62
7
  6
CONTINUOUS
 90
9
 70
0
 10
-3.8200553825
 20
-10.1574045147
 10
-3.8198480877
 20
-10.1464837221
 10
-3.8192465477
 20
-10.13559715
 10
-3.8182507624
 20
-10.1247447989
 10
-3.8168572063
 20
-10.1139089959
 10
-3.8150694049
 20
-10.1031074147
 10
-3.8128979351
 20
-10.0923930759
 10
-3.8103440768
 20
-10.0817704205
 10
-3.80740655
 20
-10.0712350095
  0
LWPOLYLINE
  5
373
100
AcDbEntity
  8
0
100
AcDbPolyline
 62
7
  6
CONTINUOUS
 90
8
 70
0
 10
-3.8197270416
 20
13.4010652452
 10
-3.8192582901
 20
13.4106751633
 10
-3.8184765379
 20
13.4202880642
 10
-3.8173794607
 20
13.4299242539
 10
-3.8159693829
 20
13.4395634259
 10
-3.8142532772
 20
13.4491446627
 10
-3.8122321175
 20
13.4586566128
 10
-3.80990493
 20
13.46811063
  0
LWPOLYLINE
  5
374
100
AcDbEntity
  8
0
100
AcDbPolyline
 62
7
  6
CONTINUOUS
 90
8
 70
0
 10
-3.8198999182
 20
-10.1478041045
 10
-3.8194317555
 20
-10.1382002315
 10
-3.8186508946
 20
-10.1285928956
 10
-3.8175550381
 20
-10.1189617439
 10
-3.8161464833
 20
-10.1093271295
 10
-3.8144321216
 20
-10.0997501123
 10
-3.8124129489
 20
-10.0902421607
 10
-3.8100879692
 20
-10.0807918075
  0
LWPOLYLINE
  5
375
100
AcDbEntity
  8
0
100
AcDbPolyline
 62
250
  6
CONTINUOUS
 90
13
 70
0
 10
-10.5963060155
 20
-22.0681304407
 10
-10.5958378095
 20
-22.0663660945
 10
-10.595371278
 20
-22.0638835869
 10
-10.594906421
 20
-22.0606847196
 10
-10.5944429119
 20
-22.0567718216
 10
-10.5939810773
 20
-22.0521477176
 10
-10.5935218966
 20
-22.0468157074
 10
-10.593065365
 20
-22.0407795976
 10
-10.5926114874
 20
-22.0340437574
 10
-10.5921612579
 20
-22.0266130882
 10
-10.5917146913
 20
-22.0184929812
 10
-10.5912717728
 20
-22.0096892735
 10
-10.590399737
 20
-21.9900568395
  0
LWPOLYLINE
  5
376
100
AcDbEntity
  8
0
100
AcDbPolyline
 62
7
  6
CONTINUOUS
 90
6
 70
0
 10
-0.0168390767
 20
11.53536529
 10
-0.0139496858
 20
11.5454737814
 10
-0.0107072196
 20
11.5554717242
 10
-0.0071238441
 20
11.5653219494
 10
-0.0032018835
 20
11.5750122319
 10
0.0010609863
 20
11.5845548008
  0
LWPOLYLINE
  5
377
100
AcDbEntity
  8
0
100
AcDbPolyline
 62
7
  6
CONTINUOUS
 90
6
 70
0
 10
2.8300316875
 20
13.9204622576
 10
2.824642705
 20
13.9110934067
 10
2.818914089
 20
13.9019140978
 10
2.8128496863
 20
13.8929317993
 10
2.806476658
 20
13.8841897836
 10
2.7997986377
 20
13.8756964175
  0
LINE
  5
378
100
AcDbEntity
  8
0
100
AcDbLine
 62
250
  6
CONTINUOUS
 10
10.5484460579
 20
22.1970512718
 11
10.4476345207
 21
22.0457571031
  0
LWPOLYLINE
  5
379
100
AcDbEntity
  8
0
100
AcDbPolyline
 62
7
  6
CONTINUOUS
 90
6
 70
0
 10
1.9265376934
 20
9.8881139677
 10
1.9203806772
 20
9.8792184925
 10
1.9138899458
 20
9.8705320753
 10
1.9070733302
 20
9.8620626096
 10
1.8999679028
 20
9.8538557487
 10
1.8925785953
 20
9.8459195064
  0
LINE
  5
37A
100
AcDbEntity
  8
0
100
AcDbLine
 62
7
  6
CONTINUOUS
 10
2.8037146804
 20
8.5683764548
 11
2.7968648495
 21
8.5599263137
  0
LINE
  5
37B
100
AcDbEntity
  8
0
100
AcDbLine
 62
7
  6
CONTINUOUS
 10
3.6066504348
 20
11.2709696957
 11
3.5997547304
 21
11.2625454971
  0
LWPOLYLINE
  5
37C
100
AcDbEntity
  8
0
100
AcDbPolyline
 62
7
  6
CONTINUOUS
 90
3
 70
0
 10
2.7970798554
 20
8.5601791149
 10
2.7899744699
 20
8.552010379
 10
2.7828409959
 20
8.5443657863
  0
LWPOLYLINE
  5
37D
100
AcDbEntity
  8
0
100
AcDbPolyline
 62
7
  6
CONTINUOUS
 90
4
 70
0
 10
2.7901577837
 20
8.5522139297
 10
2.7829366797
 20
8.5444737248
 10
2.775428329
 20
8.5369656751
 10
2.7676875889
 20
8.5297447144
  0
LINE
  5
37E
100
AcDbEntity
  8
0
100
AcDbLine
 62
250
  6
CONTINUOUS
 10
-4.9723400786
 20
-0.1591986154
 11
-4.9575641645
 21
-0.1444227013
  0
LINE
  5
37F
100
AcDbEntity
  8
0
100
AcDbLine
 62
7
  6
CONTINUOUS
 10
2.7678039664
 20
8.5298494701
 11
2.7597214846
 21
8.5228225531
  0
LINE
  5
380
100
AcDbEntity
  8
RACCORDO
100
AcDbLine
 62
250
  6
CONTINUOUS
 10
-10.1220314827
 20
0.1149939346
 11
-10.1743966774
 21
0.0888133312
  0
LINE
  5
381
100
AcDbEntity
  8
RACCORDO
100
AcDbLine
 62
7
  6
CONTINUOUS
 10
-10.0748058713
 20
0.1149939346
 11
-10.0849289435
 21
0.109932784
  0
LWPOLYLINE
  5
382
100
AcDbEntity
  8
0
100
AcDbPolyline
 62
7
  6
CONTINUOUS
 90
2
 70
0
 43
0.3500000019
 10
18.3704614258
 20
-3.4040437927
 10
16.8704599609
 20
-3.4040437927
  0
LINE
  5
383
100
AcDbEntity
  8
DRAFT
100
AcDbLine
 62
7
  6
CONTINUOUS
 10
-9.9743357474
 20
-0.1111866688
 11
-9.9219705526
 21
-0.1373672722
  0
LINE
  5
384
100
AcDbEntity
  8
0
100
AcDbLine
 62
250
  6
CONTINUOUS
 10
-4.9575641645
 20
0.1220493637
 11
-4.9723400786
 21
0.1368252778
  0
LINE
  5
385
100
AcDbEntity
  8
0
100
AcDbLine
 62
7
  6
CONTINUOUS
 10
2.7757085811
 20
-9.2676151763
 11
2.7833327226
 21
-9.2752755329
  0
LINE
  5
386
100
AcDbEntity
  8
0
100
AcDbLine
 62
7
  6
CONTINUOUS
 10
2.7832109847
 20
-9.2751487929
 11
2.7906058984
 21
-9.2831225507
  0
LINE
  5
387
100
AcDbEntity
  8
0
100
AcDbLine
 62
7
  6
CONTINUOUS
 10
2.790473113
 20
-9.2829765656
 11
2.7976106554
 21
-9.2912368223
  0
LINE
  5
388
100
AcDbEntity
  8
0
100
AcDbLine
 62
7
  6
CONTINUOUS
 10
2.7974794413
 20
-9.2910811461
 11
2.8043133013
 21
-9.2995779845
  0
LINE
  5
389
100
AcDbEntity
  8
0
100
AcDbLine
 62
7
  6
CONTINUOUS
 10
3.6040877848
 20
-11.9016848907
 11
3.6106647976
 21
-11.9101010653
  0
LINE
  5
38A
100
AcDbEntity
  8
0
100
AcDbLine
 62
7
  6
CONTINUOUS
 10
2.8041833954
 20
-9.2994104902
 11
2.8107094084
 21
-9.3081392564
  0
LINE
  5
38B
100
AcDbEntity
  8
0
100
AcDbLine
 62
7
  6
CONTINUOUS
 10
3.6105458421
 20
-11.9099463618
 11
3.6168440699
 21
-11.9186043932
  0
LINE
  5
38C
100
AcDbEntity
  8
0
100
AcDbLine
 62
7
  6
CONTINUOUS
 10
3.6167410479
 20
-11.9184588024
 11
3.6227167416
 21
-11.9272996015
  0
LINE
  5
38D
100
AcDbEntity
  8
0
100
AcDbLine
 62
250
  6
CONTINUOUS
 10
10.4476345207
 20
-22.0681304407
 11
10.5484460579
 21
-22.2194246094
  0
LWPOLYLINE
  5
38E
100
AcDbEntity
  8
0
100
AcDbPolyline
 62
7
  6
CONTINUOUS
 90
10
 70
0
 10
3.6226322984
 20
-11.9271698791
 10
3.6282163407
 20
-11.9360789761
 10
3.6334964278
 20
-11.9451867036
 10
3.638441215
 20
-11.9544425692
 10
3.6430419888
 20
-11.9638298974
 10
3.6473074627
 20
-11.9733653593
 10
3.6512324335
 20
-11.9830484836
 10
3.6548191557
 20
-11.992891058
 10
3.6580653747
 20
-12.0028812898
 10
3.6609591241
 20
-12.0129833376
  0
LWPOLYLINE
  5
38F
100
AcDbEntity
  8
0
100
AcDbPolyline
 62
7
  6
CONTINUOUS
 90
10
 70
0
 10
2.8268825929
 20
-14.6452372451
 10
2.8319605802
 20
-14.6543723062
 10
2.836715948
 20
-14.6636803454
 10
2.8411369156
 20
-14.6731480718
 10
2.8452237098
 20
-14.682784537
 10
2.8489761037
 20
-14.6925806814
 10
2.8523816364
 20
-14.7024960489
 10
2.8554383205
 20
-14.7125289777
 10
2.8581481432
 20
-14.7226811234
 10
2.8605046052
 20
-14.7329170076
  0
LINE
  5
390
100
AcDbEntity
  8
0
100
AcDbLine
 62
7
  6
CONTINUOUS
 10
-3.8182210174
 20
8.7218341719
 11
-3.8191512927
 21
8.7324246103
  0
LINE
  5
391
100
AcDbEntity
  8
0
100
AcDbLine
 62
7
  6
CONTINUOUS
 10
-0.0248289715
 20
11.4939825763
 11
-0.0233220936
 21
11.5047597475
  0
LINE
  5
392
100
AcDbEntity
  8
0
100
AcDbLine
 62
7
  6
CONTINUOUS
 10
-0.0233766305
 20
11.504413681
 11
-0.021502246
 21
11.5151001029
  0
LINE
  5
393
100
AcDbEntity
  8
0
100
AcDbLine
 62
7
  6
CONTINUOUS
 10
-0.0215574547
 20
11.5148001026
 11
-0.0193248485
 21
11.5253634019
  0
LINE
  5
394
100
AcDbEntity
  8
0
100
AcDbLine
 62
7
  6
CONTINUOUS
 10
-0.0193748034
 20
11.5251379721
 11
-0.0167980763
 21
11.5355187981
  0
LWPOLYLINE
  5
395
100
AcDbEntity
  8
0
100
AcDbPolyline
 62
7
  6
CONTINUOUS
 90
7
 70
0
 10
1.9600954534
 20
9.9557407483
 10
1.9563713218
 20
9.9455979192
 10
1.9522851377
 20
9.9356038082
 10
1.9478314459
 20
9.9257496644
 10
1.9430157016
 20
9.9160442413
 10
1.9378604937
 20
9.9065337863
 10
1.9323688253
 20
9.8972263914
  0
LWPOLYLINE
  5
396
100
AcDbEntity
  8
0
100
AcDbPolyline
 62
7
  6
CONTINUOUS
 90
3
 70
0
 10
2.8481412426
 20
13.9598052047
 10
2.8441396608
 20
13.9496995882
 10
2.8397866718
 20
13.9397700862
  0
LWPOLYLINE
  5
397
100
AcDbEntity
  8
0
100
AcDbPolyline
 62
7
  6
CONTINUOUS
 90
29
 70
0
 10
3.6362686347
 20
11.3163949464
 10
3.631021457
 20
11.3069205637
 10
3.6254237856
 20
11.2976173503
 10
3.6194976535
 20
11.2885260226
 10
3.6132453643
 20
11.2796508054
 10
3.6066646144
 20
11.2709874792
 10
3.5997705255
 20
11.2625640943
 10
3.5925504252
 20
11.2543713159
 10
3.5850169858
 20
11.2464184842
 10
3.5772233465
 20
11.2387616629
 10
3.5691740018
 20
11.2314113652
 10
3.5608644571
 20
11.2243570839
 10
3.5523343674
 20
11.2176233529
 10
3.5435857442
 20
11.2112116723
 10
3.534616576
 20
11.2051205475
 10
3.5254604827
 20
11.1993700208
 10
3.5161237877
 20
11.1939620727
 10
3.5066001676
 20
11.1888947275
 10
3.4969042721
 20
11.1841820933
 10
3.4870278261
 20
11.1798241224
 10
3.4769791046
 20
11.1758208665
 10
3.4667975829
 20
11.1721865837
 10
3.4564860701
 20
11.16892393
 10
3.4460417571
 20
11.1660302524
 10
3.4354956909
 20
11.1635118447
 10
3.424842849
 20
11.1613662209
 10
3.4140882539
 20
11.1595958691
 10
3.4032780205
 20
11.1582145439
 10
3.3924275203
 20
11.1572268305
  0
LINE
  5
398
100
AcDbEntity
  8
0
100
AcDbLine
 62
7
  6
CONTINUOUS
 10
2.8322333901
 20
8.6122496288
 11
2.827093206
 21
8.6029922259
  0
LINE
  5
399
100
AcDbEntity
  8
0
100
AcDbLine
 62
7
  6
CONTINUOUS
 10
2.827167015
 20
8.603119854
 11
2.8216583877
 21
8.5939718868
  0
LINE
  5
39A
100
AcDbEntity
  8
0
100
AcDbLine
 62
7
  6
CONTINUOUS
 10
2.8217763346
 20
8.5941568366
 11
2.8158962383
 21
8.5851235793
  0
LINE
  5
39B
100
AcDbEntity
  8
0
100
AcDbLine
 62
250
  6
CONTINUOUS
 10
11.0493569433
 20
21.6995606389
 11
10.9473299342
 21
21.5464423357
  0
LINE
  5
39C
100
AcDbEntity
  8
0
100
AcDbLine
 62
7
  6
CONTINUOUS
 10
2.81606292
 20
8.5853653158
 11
2.8098431342
 21
8.5764981862
  0
LINE
  5
39D
100
AcDbEntity
  8
0
100
AcDbLine
 62
7
  6
CONTINUOUS
 10
2.8100427588
 20
8.5767725398
 11
2.8034994692
 21
8.5681007925
  0
LINE
  5
39E
100
AcDbEntity
  8
0
100
AcDbLine
 62
250
  6
CONTINUOUS
 10
-4.772347694
 20
-0.359191
 11
-4.7605497276
 21
-0.3473930336
  0
LINE
  5
39F
100
AcDbEntity
  8
0
100
AcDbLine
 62
250
  6
CONTINUOUS
 10
-4.2605687661
 20
-1.297400649
 11
-4.2723452731
 21
-1.3091800821
  0
LINE
  5
3A0
100
AcDbEntity
  8
0
100
AcDbLine
 62
250
  6
CONTINUOUS
 10
-4.7605497276
 20
-0.7974196875
 11
-4.7723431914
 21
-0.8092102883
  0
LINE
  5
3A1
100
AcDbEntity
  8
0
100
AcDbLine
 62
250
  6
CONTINUOUS
 10
11.0756642526
 20
-0.3111333718
 11
10.8934711651
 21
-0.3566642983
  0
LINE
  5
3A2
100
AcDbEntity
  8
0
100
AcDbLine
 62
250
  6
CONTINUOUS
 10
10.8756032912
 20
-0.1111866688
 11
10.6935928994
 21
-0.1566719387
  0
LWPOLYLINE
  5
3A3
100
AcDbEntity
  8
0
100
AcDbPolyline
 62
250
  6
CONTINUOUS
 90
8
 70
0
 10
10.6935928994
 20
-0.1566719387
 10
10.6931407125
 20
-0.1567507574
 10
10.6924186884
 20
-0.1568292909
 10
10.691426827
 20
-0.1569075393
 10
10.6901637293
 20
-0.1569855766
 10
10.6886307943
 20
-0.1570633287
 10
10.6868322191
 20
-0.1571405738
 10
10.6847672897
 20
-0.1572173073
  0
LWPOLYLINE
  5
3A4
100
AcDbEntity
  8
0
100
AcDbPolyline
 62
250
  6
CONTINUOUS
 90
6
 70
0
 10
10.893471165
 20
-0.3566643075
 10
10.8927190824
 20
-0.3567473416
 10
10.8915144387
 20
-0.3568300842
 10
10.8898583912
 20
-0.3569125257
 10
10.8877525517
 20
-0.3569947195
 10
10.885198866
 20
-0.3570765933
  0
LINE
  5
3A5
100
AcDbEntity
  8
0
100
AcDbLine
 62
250
  6
CONTINUOUS
 10
4.1236767044
 20
-1.5097719008
 11
-4.2723481991
 21
-1.5097719008
  0
LWPOLYLINE
  5
3A6
100
AcDbEntity
  8
0
100
AcDbPolyline
 62
250
  6
CONTINUOUS
 90
55
 70
0
 10
-4.2723481991
 20
-1.5097719008
 10
-4.2925502935
 20
-1.5094851614
 10
-4.3127437384
 20
-1.5086094243
 10
-4.3329285337
 20
-1.5071446893
 10
-4.3531297138
 20
-1.5050903695
 10
-4.3733222443
 20
-1.5024470517
 10
-4.3934310223
 20
-1.4992164973
 10
-4.413454195
 20
-1.4953950404
 10
-4.4333936151
 20
-1.4909863468
 10
-4.4531797382
 20
-1.4860031746
 10
-4.4728094694
 20
-1.4804429349
 10
-4.4922859037
 20
-1.4743082164
 10
-4.511548781
 20
-1.4676195435
 10
-4.5305912187
 20
-1.4603775891
 10
-4.5494200995
 20
-1.4525816802
 10
-4.5679958117
 20
-1.4442503215
 10
-4.5863179556
 20
-1.4353831012
 10
-4.6043869309
 20
-1.4259804311
 10
-4.6221643255
 20
-1.4160620516
 10
-4.6396529105
 20
-1.4056249898
 10
-4.6568499147
 20
-1.3946722183
 10
-4.6737086126
 20
-1.383232397
 10
-4.6902281374
 20
-1.3713038022
 10
-4.7064093559
 20
-1.3588881573
 10
-4.7222081424
 20
-1.3460192916
 10
-4.7376219279
 20
-1.3326972688
 10
-4.7526532815
 20
-1.3189220249
 10
-4.7672657852
 20
-1.3047271986
 10
-4.7814585886
 20
-1.2901118555
 10
-4.7952325422
 20
-1.2750769297
 10
-4.8085537791
 20
-1.2596588618
 10
-4.8214223629
 20
-1.2438550467
 10
-4.83383823
 20
-1.2276680895
 10
-4.8457673223
 20
-1.2111422456
 10
-4.8572078303
 20
-1.1942767749
 10
-4.8681615637
 20
-1.1770724175
 10
-4.8785998929
 20
-1.159575649
 10
-4.8885198633
 20
-1.1417892815
 10
-4.8979244295
 20
-1.1237105029
 10
-4.906793827
 20
-1.1053773531
 10
-4.9151277686
 20
-1.0867891346
 10
-4.9229265414
 20
-1.0679465448
 10
-4.9301712415
 20
-1.0488897154
 10
-4.936862513
 20
-1.0296115402
 10
-4.9429997118
 20
-1.0101191254
 10
-4.9485620018
 20
-0.9904739221
 10
-4.9535466371
 20
-0.9706731119
 10
-4.9579563637
 20
-0.9507195131
 10
-4.961778583
 20
-0.9306830314
 10
-4.9650095945
 20
-0.910562188
 10
-4.9676530988
 20
-0.8903584617
 10
-4.9697075988
 20
-0.8701461944
 10
-4.9711725955
 20
-0.849950167
 10
-4.9720485879
 20
-0.8297455987
 10
-4.972335576
 20
-0.8095324896
  0
LINE
  5
3A7
100
AcDbEntity
  8
0
100
AcDbLine
 62
250
  6
CONTINUOUS
 10
-11.0421426598
 20
-0.3566642983
 11
-11.2243357474
 21
-0.3111333718
  0
LINE
  5
3A8
100
AcDbEntity
  8
0
100
AcDbLine
 62
250
  6
CONTINUOUS
 10
-10.8422643941
 20
-0.1566719387
 11
-11.024274786
 21
-0.1111866688
  0
LINE
  5
3A9
100
AcDbEntity
  8
0
100
AcDbLine
 62
250
  6
CONTINUOUS
 10
-4.7605497276
 20
0.3250196961
 11
-4.772347694
 21
0.3368176624
  0
LINE
  5
3AA
100
AcDbEntity
  8
0
100
AcDbLine
 62
250
  6
CONTINUOUS
 10
-4.7605497276
 20
0.7750463499
 11
-4.7723431914
 21
0.786836887
  0
LINE
  5
3AB
100
AcDbEntity
  8
0
100
AcDbLine
 62
250
  6
CONTINUOUS
 10
-4.2605687661
 20
1.2750273114
 11
-4.2723453365
 21
1.2868067445
  0
LINE
  5
3AC
100
AcDbEntity
  8
0
100
AcDbLine
 62
7
  6
CONTINUOUS
 10
2.810575696
 20
-9.3079533291
 11
2.8168034044
 21
-9.3169274186
  0
LINE
  5
3AD
100
AcDbEntity
  8
0
100
AcDbLine
 62
250
  6
CONTINUOUS
 10
10.9473299342
 20
-21.5688156733
 11
11.0493569433
 21
-21.7219339765
  0
LINE
  5
3AE
100
AcDbEntity
  8
0
100
AcDbLine
 62
7
  6
CONTINUOUS
 10
2.8166656225
 20
-9.3167209313
 11
2.8225748803
 21
-9.3259224498
  0
LINE
  5
3AF
100
AcDbEntity
  8
0
100
AcDbLine
 62
7
  6
CONTINUOUS
 10
2.822434438
 20
-9.3256950582
 11
2.8280271059
 21
-9.3351326624
  0
LINE
  5
3B0
100
AcDbEntity
  8
0
100
AcDbLine
 62
7
  6
CONTINUOUS
 10
2.8278833562
 20
-9.3348770173
 11
2.8331568114
 21
-9.3445497437
  0
LINE
  5
3B1
100
AcDbEntity
  8
0
100
AcDbLine
 62
7
  6
CONTINUOUS
 10
2.8330111635
 20
-9.3442655008
 11
2.8379337792
 21
-9.3541287349
  0
LINE
  5
3B2
100
AcDbEntity
  8
0
100
AcDbLine
 62
7
  6
CONTINUOUS
 10
1.6879103399
 20
-13.6030399961
 11
1.6841790234
 21
-13.5929099374
  0
LWPOLYLINE
  5
3B3
100
AcDbEntity
  8
0
100
AcDbPolyline
 62
7
  6
CONTINUOUS
 90
30
 70
0
 10
1.6841787301
 20
-13.5929089658
 10
1.6808147466
 20
-13.5826464628
 10
1.6778149095
 20
-13.5722418688
 10
1.6751824985
 20
-13.561705381
 10
1.6729320726
 20
-13.5510826914
 10
1.6710651574
 20
-13.5403782473
 10
1.6695802273
 20
-13.5295875978
 10
1.6684872649
 20
-13.5187430889
 10
1.6677887946
 20
-13.507829481
 10
1.6674822921
 20
-13.4968620113
 10
1.6675701661
 20
-13.4859187443
 10
1.6680567559
 20
-13.4750102213
 10
1.6689377223
 20
-13.4641259026
 10
1.6702024568
 20
-13.4533122331
 10
1.6718506921
 20
-13.4425718282
 10
1.6738826954
 20
-13.4319020761
 10
1.6762886596
 20
-13.4213415831
 10
1.6790655835
 20
-13.4108962343
 10
1.6822164683
 20
-13.4005601497
 10
1.6857405107
 20
-13.3903542901
 10
1.6896435486
 20
-13.3802728432
 10
1.6939197441
 20
-13.3703216268
 10
1.6985507803
 20
-13.3605390472
 10
1.703536561
 20
-13.3509290383
 10
1.7088771823
 20
-13.3414876731
 10
1.7145546154
 20
-13.3322415682
 10
1.7205707622
 20
-13.3231853759
 10
1.7269237207
 20
-13.3143244513
 10
1.7335897559
 20
-13.3057014667
 10
1.7405609561
 20
-13.2973306492
  0
LINE
  5
3B4
100
AcDbEntity
  8
0
100
AcDbLine
 62
7
  6
CONTINUOUS
 10
-3.8109449383
 20
8.6804861469
 11
-3.8133246799
 21
8.6908519724
  0
LINE
  5
3B5
100
AcDbEntity
  8
0
100
AcDbLine
 62
7
  6
CONTINUOUS
 10
-3.8132941556
 20
8.6907076654
 11
-3.8153211919
 21
8.7011850153
  0
LINE
  5
3B6
100
AcDbEntity
  8
0
100
AcDbLine
 62
7
  6
CONTINUOUS
 10
-3.8152923224
 20
8.7010162511
 11
-3.8169624588
 21
8.711594665
  0
LINE
  5
3B7
100
AcDbEntity
  8
0
100
AcDbLine
 62
7
  6
CONTINUOUS
 10
-3.8169380636
 20
8.7114076905
 11
-3.8182400912
 21
8.7220151692
  0
LWPOLYLINE
  5
3B8
100
AcDbEntity
  8
0
100
AcDbPolyline
 62
7
  6
CONTINUOUS
 90
45
 70
0
 10
-0.0258235974
 20
-12.118358936
 10
-0.0266070546
 20
-12.1074822219
 10
-0.0269987905
 20
-12.0965970013
 10
-0.0270003509
 20
-12.0856932783
 10
-0.0266116468
 20
-12.0748074403
 10
-0.025831127
 20
-12.0639294839
 10
-0.0246603427
 20
-12.0530694134
 10
-0.0231038589
 20
-12.04229363
 10
-0.0211600685
 20
-12.0316154205
 10
-0.0188305785
 20
-12.0210215014
 10
-0.016124775
 20
-12.0105384203
 10
-0.0130403463
 20
-12.0001607909
 10
-0.0095796041
 20
-11.9898940033
 10
-0.0057588688
 20
-11.9797807706
 10
-0.0015806611
 20
-11.9698300777
 10
0.0029575397
 20
-11.9600329449
 10
0.007846975
 20
-11.9504051385
 10
0.0130920846
 20
-11.9409381191
 10
0.0186884287
 20
-11.9316404312
 10
0.0246139298
 20
-11.9225534691
 10
0.0308663528
 20
-11.9136814841
 10
0.0374479328
 20
-11.9050202308
 10
0.0443432971
 20
-11.8965983588
 10
0.0515650764
 20
-11.8884066507
 10
0.0591006401
 20
-11.8804543301
 10
0.0668967233
 20
-11.8727977088
 10
0.0749488345
 20
-11.8654473095
 10
0.0832614652
 20
-11.8583926164
 10
0.091794825
 20
-11.8516583851
 10
0.100546915
 20
-11.8452461483
 10
0.1095197341
 20
-11.8391543797
 10
0.1186794889
 20
-11.8334032467
 10
0.128019865
 20
-11.8279947573
 10
0.1375471769
 20
-11.8229269092
 10
0.1472465739
 20
-11.8182138535
 10
0.1571263128
 20
-11.8138555557
 10
0.1671781368
 20
-11.8098520551
 10
0.1773624251
 20
-11.8062176132
 10
0.1876763519
 20
-11.8029548971
 10
0.198122743
 20
-11.8000612436
 10
0.208670455
 20
-11.7975429184
 10
0.2193245356
 20
-11.7953974502
 10
0.230079937
 20
-11.793627313
 10
0.240890372
 20
-11.7922461904
 10
0.2517404115
 20
-11.7912586441
  0
LINE
  5
3B9
100
AcDbEntity
  8
0
100
AcDbLine
 62
7
  6
CONTINUOUS
 10
-0.0270014483
 20
11.4521110147
 11
-0.0269952717
 21
11.462718521
  0
LINE
  5
3BA
100
AcDbEntity
  8
0
100
AcDbLine
 62
7
  6
CONTINUOUS
 10
-0.0270040753
 20
11.4625671373
 11
-0.0266281614
 21
11.4733071803
  0
LINE
  5
3BB
100
AcDbEntity
  8
0
100
AcDbLine
 62
7
  6
CONTINUOUS
 10
-0.0266429043
 20
11.4730251001
 11
-0.025890299
 21
11.4838431962
  0
LINE
  5
3BC
100
AcDbEntity
  8
0
100
AcDbLine
 62
7
  6
CONTINUOUS
 10
-0.0259178369
 20
11.4835029183
 11
-0.0247849713
 21
11.4943400011
  0
LINE
  5
3BD
100
AcDbEntity
  8
0
100
AcDbLine
 62
7
  6
CONTINUOUS
 10
1.9723164232
 20
12.8088964898
 11
1.9702847395
 21
12.798225529
  0
LWPOLYLINE
  5
3BE
100
AcDbEntity
  8
0
100
AcDbPolyline
 62
7
  6
CONTINUOUS
 90
4
 70
0
 10
1.9713029977
 20
9.9975793356
 10
1.9690631129
 20
9.9869579842
 10
1.966441349
 20
9.976420782
 10
1.9634513092
 20
9.9660123046
  0
LWPOLYLINE
  5
3BF
100
AcDbEntity
  8
0
100
AcDbPolyline
 62
7
  6
CONTINUOUS
 90
3
 70
0
 10
2.8578852591
 20
13.9908285787
 10
2.8550140417
 20
13.9803697028
 10
2.8517679728
 20
13.9700318351
  0
LWPOLYLINE
  5
3C0
100
AcDbEntity
  8
0
100
AcDbPolyline
 62
7
  6
CONTINUOUS
 90
8
 70
0
 10
-3.8074610866
 20
-10.0714257103
 10
-3.8040920913
 20
-10.0608265442
 10
-3.8003985715
 20
-10.0505431265
 10
-3.7963281197
 20
-10.040386657
 10
-3.7918938604
 20
-10.0304025354
 10
-3.787091073
 20
-10.0205929776
 10
-3.7819244781
 20
-10.0109557707
 10
-3.7764213608
 20
-10.0015296721
  0
LWPOLYLINE
  5
3C1
100
AcDbEntity
  8
0
100
AcDbPolyline
 62
7
  6
CONTINUOUS
 90
8
 70
0
 10
-3.804533472
 20
-10.0621442438
 10
-3.8013039545
 20
-10.0529470348
 10
-3.7977729246
 20
-10.0438596194
 10
-3.7939319402
 20
-10.0348724922
 10
-3.7897894434
 20
-10.0259951604
 10
-3.7853711516
 20
-10.017281679
 10
-3.7806791666
 20
-10.0087448092
 10
-3.7757113865
 20
-10.0003717924
  0
LWPOLYLINE
  5
3C2
100
AcDbEntity
  8
0
100
AcDbPolyline
 62
7
  6
CONTINUOUS
 90
9
 70
0
 10
3.6537059227
 20
11.3559205021
 10
3.6498813567
 20
11.3457947977
 10
3.6456991916
 20
11.3358321941
 10
3.6411570199
 20
11.3260238695
 10
3.6362639145
 20
11.3163860512
 10
3.631015459
 20
11.3069103295
 10
3.6254160699
 20
11.2976051185
 10
3.6194880702
 20
11.2885118811
 10
3.6132335578
 20
11.279634799
  0
LWPOLYLINE
  5
3C3
100
AcDbEntity
  8
0
100
AcDbPolyline
 62
7
  6
CONTINUOUS
 90
4
 70
0
 10
2.8454625961
 20
8.6406380981
 10
2.8413866624
 20
8.6310106369
 10
2.8369770309
 20
8.6215509
 10
2.8322333901
 20
8.6122496288
  0
LWPOLYLINE
  5
3C4
100
AcDbEntity
  8
0
100
AcDbPolyline
 62
250
  6
CONTINUOUS
 90
17
 70
0
 10
10.9473299342
 20
21.5464423357
 10
10.946861908
 20
21.5455588115
 10
10.9463955038
 20
21.5443183429
 10
10.9459307216
 20
21.54272093
 10
10.9454672148
 20
21.5407648861
 10
10.94500533
 20
21.5384518978
 10
10.944546107
 20
21.5357870249
 10
10.9440895648
 20
21.5327695224
 10
10.9436356843
 20
21.5294001352
 10
10.9431854484
 20
21.5256861582
 10
10.9427388665
 20
21.5216268545
 10
10.9422959293
 20
21.517222961
 10
10.9418575913
 20
21.512483983
 10
10.9414238619
 20
21.5074091909
 10
10.9409947317
 20
21.5019993143
 10
10.9405711278
 20
21.4962660468
 10
10.9397405226
 20
21.4838279409
  0
LINE
  5
3C5
100
AcDbEntity
  8
0
100
AcDbLine
 62
250
  6
CONTINUOUS
 10
10.6847672897
 20
-0.1572173073
 11
10.6798468496
 21
-0.1573690456
  0
LINE
  5
3C6
100
AcDbEntity
  8
0
100
AcDbLine
 62
250
  6
CONTINUOUS
 10
10.6798468496
 20
-0.1573690456
 11
10.6738877957
 21
-0.1575179203
  0
LINE
  5
3C7
100
AcDbEntity
  8
0
100
AcDbLine
 62
250
  6
CONTINUOUS
 10
10.885198866
 20
-0.3570765933
 11
10.8787571417
 21
-0.3572387807
  0
LWPOLYLINE
  5
3C8
100
AcDbEntity
  8
0
100
AcDbPolyline
 62
250
  6
CONTINUOUS
 90
3
 70
0
 10
-4.7731241834
 20
-0.8092387059
 10
-4.7725734748
 20
-0.8092259388
 10
-4.7723431914
 20
-0.8092131513
  0
LWPOLYLINE
  5
3C9
100
AcDbEntity
  8
0
100
AcDbPolyline
 62
250
  6
CONTINUOUS
 90
40
 70
0
 10
4.8236685838
 20
-0.1591986154
 10
4.8156160926
 20
-0.1593614071
 10
4.8075766613
 20
-0.1598482917
 10
4.7995633286
 20
-0.1606584795
 10
4.791589091
 20
-0.1617906566
 10
4.7836668813
 20
-0.1632429868
 10
4.7758095483
 20
-0.1650131145
 10
4.7680298353
 20
-0.1670981689
 10
4.7603403598
 20
-0.1694947684
 10
4.7527535929
 20
-0.1721990261
 10
4.7452818393
 20
-0.175206556
 10
4.7379372169
 20
-0.1785124804
 10
4.7307316376
 20
-0.1821114376
 10
4.7236767878
 20
-0.1859975907
 10
4.7167841093
 20
-0.1901646369
 10
4.710064781
 20
-0.1946058179
 10
4.7035297006
 20
-0.1993139308
 10
4.6971894671
 20
-0.2042813397
 10
4.6910543632
 20
-0.2094999883
 10
4.6851343393
 20
-0.2149614128
 10
4.6794389966
 20
-0.2206567555
 10
4.6739775722
 20
-0.2265767794
 10
4.6687589236
 20
-0.2327118833
 10
4.6637915146
 20
-0.2390521168
 10
4.6590834017
 20
-0.2455871972
 10
4.6546422208
 20
-0.2523065255
 10
4.6504751746
 20
-0.2591992039
 10
4.6465890215
 20
-0.2662540538
 10
4.6429900642
 20
-0.273459633
 10
4.6396841398
 20
-0.2808042554
 10
4.6366766099
 20
-0.2882760091
 10
4.6339723522
 20
-0.2958627759
 10
4.6315757527
 20
-0.3035522515
 10
4.6294906983
 20
-0.3113319645
 10
4.6277205706
 20
-0.3191892975
 10
4.6262682404
 20
-0.3271115072
 10
4.6251360633
 20
-0.3350857448
 10
4.6243258755
 20
-0.3430990775
 10
4.6238389909
 20
-0.3511385088
 10
4.6236761992
 20
-0.359191
  0
LINE
  5
3CA
100
AcDbEntity
  8
0
100
AcDbLine
 62
250
  6
CONTINUOUS
 10
10.6738877957
 20
-0.1575179203
 11
10.6630538326
 21
-0.1577346585
  0
LINE
  5
3CB
100
AcDbEntity
  8
0
100
AcDbLine
 62
250
  6
CONTINUOUS
 10
10.8787571417
 20
-0.3572387807
 11
10.8658054561
 21
-0.3574774385
  0
LINE
  5
3CC
100
AcDbEntity
  8
0
100
AcDbLine
 62
7
  6
CONTINUOUS
 10
5.2756642526
 20
-0.1373672722
 11
4.8088926697
 21
-0.1444227013
  0
LINE
  5
3CD
100
AcDbEntity
  8
0
100
AcDbLine
 62
7
  6
CONTINUOUS
 10
-5.4243357474
 20
0.1149939346
 11
-4.9575641645
 21
0.1220493637
  0
LINE
  5
3CE
100
AcDbEntity
  8
0
100
AcDbLine
 62
250
  6
CONTINUOUS
 10
10.6630538326
 20
-0.1577346585
 11
10.6401702986
 21
-0.1580740923
  0
LINE
  5
3CF
100
AcDbEntity
  8
0
100
AcDbLine
 62
250
  6
CONTINUOUS
 10
-4.7739989389
 20
-0.3592076935
 11
-4.7725798812
 21
-0.3591896764
  0
LINE
  5
3D0
100
AcDbEntity
  8
0
100
AcDbLine
 62
250
  6
CONTINUOUS
 10
10.8658054561
 20
-0.3574774385
 11
10.8357297767
 21
-0.357857913
  0
LINE
  5
3D1
100
AcDbEntity
  8
0
100
AcDbLine
 62
250
  6
CONTINUOUS
 10
-4.7751828301
 20
-0.8092640965
 11
-4.7731241834
 21
-0.8092387059
  0
LINE
  5
3D2
100
AcDbEntity
  8
0
100
AcDbLine
 62
250
  6
CONTINUOUS
 10
10.6401702986
 20
-0.1580740923
 11
10.5922145063
 21
-0.1585440467
  0
LINE
  5
3D3
100
AcDbEntity
  8
0
100
AcDbLine
 62
250
  6
CONTINUOUS
 10
10.8357297767
 20
-0.357857913
 11
10.756991168
 21
-0.3584641511
  0
LINE
  5
3D4
100
AcDbEntity
  8
0
100
AcDbLine
 62
250
  6
CONTINUOUS
 10
-4.7858126153
 20
-0.809325793
 11
-4.7751828301
 21
-0.8092640965
  0
LINE
  5
3D5
100
AcDbEntity
  8
0
100
AcDbLine
 62
250
  6
CONTINUOUS
 10
10.5922145063
 20
-0.1585440467
 11
10.5165430352
 21
-0.1589693595
  0
LINE
  5
3D6
100
AcDbEntity
  8
0
100
AcDbLine
 62
250
  6
CONTINUOUS
 10
-10.7340227082
 20
0.1362219484
 11
-10.648511756
 21
0.1366561944
  0
LINE
  5
3D7
100
AcDbEntity
  8
0
100
AcDbLine
 62
250
  6
CONTINUOUS
 10
10.756991168
 20
-0.3584641511
 11
10.6387194637
 21
-0.3589742328
  0
LINE
  5
3D8
100
AcDbEntity
  8
0
100
AcDbLine
 62
250
  6
CONTINUOUS
 10
10.6387194637
 20
-0.3589742328
 11
10.4836314156
 21
-0.3592844791
  0
LINE
  5
3D9
100
AcDbEntity
  8
0
100
AcDbLine
 62
250
  6
CONTINUOUS
 10
10.5165430352
 20
-0.1589693595
 11
10.4208325312
 21
-0.159187946
  0
LINE
  5
3DA
100
AcDbEntity
  8
0
100
AcDbLine
 62
250
  6
CONTINUOUS
 10
-10.648511756
 20
0.1366561944
 11
-10.5514894563
 21
0.1368240846
  0
LINE
  5
3DB
100
AcDbEntity
  8
0
100
AcDbLine
 62
250
  6
CONTINUOUS
 10
4.1236738418
 20
-1.3091800821
 11
-4.2723452731
 21
-1.3091800821
  0
LINE
  5
3DC
100
AcDbEntity
  8
0
100
AcDbLine
 62
7
  6
CONTINUOUS
 10
-4.2605687661
 20
-1.297400649
 11
4.1118972713
 21
-1.297400649
  0
LWPOLYLINE
  5
3DD
100
AcDbEntity
  8
0
100
AcDbPolyline
 62
7
  6
CONTINUOUS
 90
2
 70
0
 43
0.3500000019
 10
18.3704614258
 20
-1.0469009476
 10
16.8704599609
 20
-1.0469009476
  0
LINE
  5
3DE
100
AcDbEntity
  8
0
100
AcDbLine
 62
250
  6
CONTINUOUS
 10
-4.972335576
 20
-0.8095324896
 11
-4.7858126153
 21
-0.809325793
  0
LINE
  5
3DF
100
AcDbEntity
  8
0
100
AcDbLine
 62
250
  6
CONTINUOUS
 10
10.4836314156
 20
-0.3592844791
 11
10.393772918
 21
-0.3593302584
  0
LINE
  5
3E0
100
AcDbEntity
  8
0
100
AcDbLine
 62
250
  6
CONTINUOUS
 10
10.393772918
 20
-0.3593302576
 11
4.815665478
 21
-0.3593463914
  0
LINE
  5
3E1
100
AcDbEntity
  8
0
100
AcDbLine
 62
250
  6
CONTINUOUS
 10
10.4208325312
 20
-0.159187946
 11
4.8236685838
 21
-0.1591986154
  0
LINE
  5
3E2
100
AcDbEntity
  8
RACCORDO
100
AcDbLine
 62
7
  6
CONTINUOUS
 10
9.9733599879
 20
-0.1373672722
 11
5.2756642526
 21
-0.1373672722
  0
LINE
  5
3E3
100
AcDbEntity
  8
DRAFT
100
AcDbLine
 62
7
  6
CONTINUOUS
 10
-5.4243357474
 20
-0.1373672722
 11
-9.9219705526
 21
-0.1373672722
  0
LINE
  5
3E4
100
AcDbEntity
  8
RACCORDO
100
AcDbLine
 62
7
  6
CONTINUOUS
 10
10.8756032912
 20
-0.1111866688
 11
10.0257251827
 21
-0.1111866688
  0
LINE
  5
3E5
100
AcDbEntity
  8
0
100
AcDbLine
 62
7
  6
CONTINUOUS
 10
-9.9743357474
 20
-0.1111866688
 11
-11.024274786
 21
-0.1111866688
  0
LINE
  5
3E6
100
AcDbEntity
  8
RACCORDO
100
AcDbLine
 62
7
  6
CONTINUOUS
 10
-11.024274786
 20
0.0888133312
 11
-10.1743966774
 21
0.0888133312
  0
LINE
  5
3E7
100
AcDbEntity
  8
0
100
AcDbLine
 62
7
  6
CONTINUOUS
 10
9.8256642526
 20
0.0888133312
 11
10.8756032912
 21
0.0888133312
  0
LINE
  5
3E8
100
AcDbEntity
  8
RACCORDO
100
AcDbLine
 62
7
  6
CONTINUOUS
 10
-10.1220314827
 20
0.1149939346
 11
-5.4243357474
 21
0.1149939346
  0
LINE
  5
3E9
100
AcDbEntity
  8
DRAFT
100
AcDbLine
 62
7
  6
CONTINUOUS
 10
5.2756642526
 20
0.1149939346
 11
9.7732990578
 21
0.1149939346
  0
LINE
  5
3EA
100
AcDbEntity
  8
0
100
AcDbLine
 62
250
  6
CONTINUOUS
 10
-10.5514894563
 20
0.1368240846
 11
-4.9723400786
 21
0.1368252778
  0
LINE
  5
3EB
100
AcDbEntity
  8
0
100
AcDbLine
 62
250
  6
CONTINUOUS
 10
-4.7997177609
 20
-0.3592635472
 11
-4.7739989389
 21
-0.3592076935
  0
LINE
  5
3EC
100
AcDbEntity
  8
0
100
AcDbLine
 62
250
  6
CONTINUOUS
 10
4.8236640812
 20
-0.8095324895
 11
4.7173009371
 21
-0.8094821041
  0
LINE
  5
3ED
100
AcDbEntity
  8
0
100
AcDbLine
 62
250
  6
CONTINUOUS
 10
4.7173009371
 20
-0.8094821041
 11
4.7040887796
 21
-0.809467463
  0
LINE
  5
3EE
100
AcDbEntity
  8
0
100
AcDbLine
 62
250
  6
CONTINUOUS
 10
4.7040887796
 20
-0.809467463
 11
4.685733637
 21
-0.8094424753
  0
LINE
  5
3EF
100
AcDbEntity
  8
0
100
AcDbLine
 62
250
  6
CONTINUOUS
 10
4.815665478
 20
-0.3593463914
 11
4.6800492657
 21
-0.3592918142
  0
LINE
  5
3F0
100
AcDbEntity
  8
0
100
AcDbLine
 62
250
  6
CONTINUOUS
 10
-4.7997177609
 20
-0.3592635472
 11
-10.7332348007
 21
-0.3591197197
  0
LINE
  5
3F1
100
AcDbEntity
  8
0
100
AcDbLine
 62
250
  6
CONTINUOUS
 10
-4.9723400786
 20
-0.1591986154
 11
-10.6314238457
 21
-0.1590808138
  0
LINE
  5
3F2
100
AcDbEntity
  8
0
100
AcDbLine
 62
250
  6
CONTINUOUS
 10
4.8236685838
 20
0.1368252778
 11
10.4827523511
 21
0.1367074762
  0
LINE
  5
3F3
100
AcDbEntity
  8
0
100
AcDbLine
 62
250
  6
CONTINUOUS
 10
-10.7332348007
 20
-0.3591197197
 11
-10.8617377847
 21
-0.3586915637
  0
LINE
  5
3F4
100
AcDbEntity
  8
0
100
AcDbLine
 62
250
  6
CONTINUOUS
 10
4.6800492657
 20
-0.3592918142
 11
4.6253274418
 21
-0.3592076935
  0
LINE
  5
3F5
100
AcDbEntity
  8
0
100
AcDbLine
 62
250
  6
CONTINUOUS
 10
4.685733637
 20
-0.8094424753
 11
4.6298343486
 21
-0.8092891605
  0
LINE
  5
3F6
100
AcDbEntity
  8
0
100
AcDbLine
 62
250
  6
CONTINUOUS
 10
-4.7725798812
 20
-0.3591896764
 11
-4.772347694
 21
-0.359191
  0
LINE
  5
3F7
100
AcDbEntity
  8
0
100
AcDbLine
 62
250
  6
CONTINUOUS
 10
-10.6314238457
 20
-0.1590808138
 11
-10.7197756294
 21
-0.158692291
  0
LINE
  5
3F8
100
AcDbEntity
  8
0
100
AcDbLine
 62
250
  6
CONTINUOUS
 10
10.4827523511
 20
0.1367074762
 11
10.5711041347
 21
0.1363189534
  0
LINE
  5
3F9
100
AcDbEntity
  8
0
100
AcDbLine
 62
250
  6
CONTINUOUS
 10
10.5711041347
 20
0.1363189534
 11
10.5853512135
 21
0.1362219484
  0
LINE
  5
3FA
100
AcDbEntity
  8
0
100
AcDbLine
 62
250
  6
CONTINUOUS
 10
-10.8617377847
 20
-0.3586915637
 11
-10.9530988205
 21
-0.3581417357
  0
LWPOLYLINE
  5
3FB
100
AcDbEntity
  8
0
100
AcDbPolyline
 62
250
  6
CONTINUOUS
 90
5
 70
0
 10
4.6298343486
 20
-0.8092891605
 10
4.6253228513
 20
-0.8092514319
 10
4.6244526003
 20
-0.8092387059
 10
4.6239018914
 20
-0.8092259388
 10
4.6236716078
 20
-0.8092131513
  0
LINE
  5
3FC
100
AcDbEntity
  8
0
100
AcDbLine
 62
250
  6
CONTINUOUS
 10
-10.7197756294
 20
-0.158692291
 11
-10.7780911181
 21
-0.1582008452
  0
LINE
  5
3FD
100
AcDbEntity
  8
0
100
AcDbLine
 62
250
  6
CONTINUOUS
 10
-10.9530988205
 20
-0.3581417357
 11
-10.9976750968
 21
-0.3577087266
  0
LWPOLYLINE
  5
3FE
100
AcDbEntity
  8
0
100
AcDbPolyline
 62
250
  6
CONTINUOUS
 90
3
 70
0
 10
4.6253274418
 20
-0.3592076935
 10
4.6239083862
 20
-0.3591896764
 10
4.6236761992
 20
-0.359191
  0
LWPOLYLINE
  5
3FF
100
AcDbEntity
  8
0
100
AcDbPolyline
 62
250
  6
CONTINUOUS
 90
55
 70
0
 10
-4.272345273
 20
-1.309180082
 10
-4.2867661672
 20
-1.3089726241
 10
-4.3012025123
 20
-1.3083477816
 10
-4.3156421507
 20
-1.3073036944
 10
-4.3300774002
 20
-1.3058383235
 10
-4.3444912489
 20
-1.3039507864
 10
-4.3588575403
 20
-1.3016426951
 10
-4.3731637929
 20
-1.2989148551
 10
-4.3873977773
 20
-1.2957683914
 10
-4.4015341163
 20
-1.2922082912
 10
-4.4155591724
 20
-1.2882380502
 10
-4.4294626686
 20
-1.2838606398
 10
-4.4432248826
 20
-1.279082635
 10
-4.4568299725
 20
-1.2739105166
 10
-4.4702711569
 20
-1.2683478534
 10
-4.4835425742
 20
-1.2623975718
 10
-4.4966329976
 20
-1.2560649449
 10
-4.5095315371
 20
-1.2493554834
 10
-4.5222326424
 20
-1.2422720126
 10
-4.5347277665
 20
-1.2348187999
 10
-4.5470037372
 20
-1.2270031946
 10
-4.5590481704
 20
-1.2188328166
 10
-4.5708509351
 20
-1.2103143802
 10
-4.5824018082
 20
-1.2014551028
 10
-4.5936888171
 20
-1.1922641591
 10
-4.6047013966
 20
-1.1827503837
 10
-4.6154314211
 20
-1.1729210336
 10
-4.6258709846
 20
-1.1627834131
 10
-4.6360112567
 20
-1.1523460668
 10
-4.6458436063
 20
-1.1416178482
 10
-4.6553606195
 20
-1.1306067201
 10
-4.6645550169
 20
-1.1193207839
 10
-4.6734179319
 20
-1.1077705917
 10
-4.6819400801
 20
-1.0959682061
 10
-4.6901141637
 20
-1.0839239339
 10
-4.6979335139
 20
-1.0716478107
 10
-4.7053905844
 20
-1.0591520416
 10
-4.7124779783
 20
-1.0464498056
 10
-4.7191914043
 20
-1.0335496191
 10
-4.72552811
 20
-1.0204567791
 10
-4.7314826141
 20
-1.0071819527
 10
-4.7370494823
 20
-0.9937365546
 10
-4.7422255853
 20
-0.9801268169
 10
-4.7470073693
 20
-0.9663593947
 10
-4.7513882729
 20
-0.9524502663
 10
-4.755361476
 20
-0.9384199563
 10
-4.7589239989
 20
-0.9242789815
 10
-4.7620724513
 20
-0.9100407961
 10
-4.7648018578
 20
-0.8957309667
 10
-4.767111138
 20
-0.8813618519
 10
-4.7689995697
 20
-0.8669458457
 10
-4.7704656144
 20
-0.8525089654
 10
-4.7715102064
 20
-0.8380681817
 10
-4.7721354288
 20
-0.8236312353
 10
-4.7723431914
 20
-0.8092102883
  0
LINE
  5
400
100
AcDbEntity
  8
0
100
AcDbLine
 62
250
  6
CONTINUOUS
 10
-10.7780911181
 20
-0.1582008452
 11
-10.8032787337
 21
-0.1578739856
  0
LINE
  5
401
100
AcDbEntity
  8
0
100
AcDbLine
 62
7
  6
CONTINUOUS
 10
-4.9575641645
 20
-0.1444227013
 11
-5.4243357474
 21
-0.1373672722
  0
LINE
  5
402
100
AcDbEntity
  8
0
100
AcDbLine
 62
7
  6
CONTINUOUS
 10
4.8088926697
 20
0.1220493637
 11
5.2756642526
 21
0.1149939346
  0
LINE
  5
403
100
AcDbEntity
  8
0
100
AcDbLine
 62
250
  6
CONTINUOUS
 10
-10.9976750968
 20
-0.3577087266
 11
-11.0192278444
 21
-0.3573986321
  0
LINE
  5
404
100
AcDbEntity
  8
0
100
AcDbLine
 62
250
  6
CONTINUOUS
 10
-10.8032787337
 20
-0.1578739856
 11
-10.8191992651
 21
-0.1575910842
  0
LINE
  5
405
100
AcDbEntity
  8
0
100
AcDbLine
 62
250
  6
CONTINUOUS
 10
-11.0192278444
 20
-0.3573986321
 11
-11.0274286365
 21
-0.3572387807
  0
LINE
  5
406
100
AcDbEntity
  8
0
100
AcDbLine
 62
250
  6
CONTINUOUS
 10
-10.8191992651
 20
-0.1575910842
 11
-10.8256684679
 21
-0.1574438404
  0
LWPOLYLINE
  5
407
100
AcDbEntity
  8
0
100
AcDbPolyline
 62
250
  6
CONTINUOUS
 90
7
 70
0
 10
-11.0274286365
 20
-0.3572387807
 10
-11.0338703608
 20
-0.3570765933
 10
-11.0364240465
 20
-0.3569947195
 10
-11.038529886
 20
-0.3569125257
 10
-11.0401859335
 20
-0.3568300842
 10
-11.0413905771
 20
-0.3567473416
 10
-11.0421426598
 20
-0.3566643075
  0
LWPOLYLINE
  5
408
100
AcDbEntity
  8
0
100
AcDbPolyline
 62
250
  6
CONTINUOUS
 90
10
 70
0
 10
-10.8256684679
 20
-0.1574438404
 10
-10.831108215
 20
-0.1572935339
 10
-10.8334387845
 20
-0.1572173073
 10
-10.8355037139
 20
-0.1571405738
 10
-10.837302289
 20
-0.1570633287
 10
-10.838835224
 20
-0.1569855766
 10
-10.8400983218
 20
-0.1569075393
 10
-10.8410901832
 20
-0.1568292909
 10
-10.8418122073
 20
-0.1567507574
 10
-10.8422643941
 20
-0.1566719387
  0
LINE
  5
409
100
AcDbEntity
  8
0
100
AcDbLine
 62
7
  6
CONTINUOUS
 10
2.8377954827
 20
-9.3538383468
 11
2.8423490093
 21
-9.3638627873
  0
LINE
  5
40A
100
AcDbEntity
  8
0
100
AcDbLine
 62
7
  6
CONTINUOUS
 10
-3.794025986
 20
8.6311092671
 11
-3.7980983049
 21
8.6407293668
  0
LINE
  5
40B
100
AcDbEntity
  8
0
100
AcDbLine
 62
7
  6
CONTINUOUS
 10
2.84223531
 20
-9.3636080232
 11
2.8464115018
 21
-9.3737587493
  0
LINE
  5
40C
100
AcDbEntity
  8
0
100
AcDbLine
 62
7
  6
CONTINUOUS
 10
3.6473459582
 20
-11.9734638371
 11
3.6512733672
 21
-11.9831549231
  0
LINE
  5
40D
100
AcDbEntity
  8
0
100
AcDbLine
 62
7
  6
CONTINUOUS
 10
2.8463316491
 20
-9.3735620617
 11
2.8501180392
 21
-9.3837922083
  0
LINE
  5
40E
100
AcDbEntity
  8
0
100
AcDbLine
 62
7
  6
CONTINUOUS
 10
2.850065134
 20
-9.3836408967
 11
2.8534719181
 21
-9.3939708485
  0
LINE
  5
40F
100
AcDbEntity
  8
0
100
AcDbLine
 62
7
  6
CONTINUOUS
 10
2.853431268
 20
-9.3938334814
 11
2.856469842
 21
-9.4042869854
  0
LINE
  5
410
100
AcDbEntity
  8
0
100
AcDbLine
 62
7
  6
CONTINUOUS
 10
1.6790778598
 20
-10.7717165322
 11
1.676298223
 21
-10.7612755648
  0
LINE
  5
411
100
AcDbEntity
  8
0
100
AcDbLine
 62
7
  6
CONTINUOUS
 10
2.8605046052
 20
-14.7329170076
 11
2.8625361197
 21
-14.7433990717
  0
LWPOLYLINE
  5
412
100
AcDbEntity
  8
0
100
AcDbPolyline
 62
7
  6
CONTINUOUS
 90
6
 70
0
 10
1.6729305783
 20
-13.5510749574
 10
1.671063506
 20
-13.5403671171
 10
1.6695786115
 20
-13.5295729621
 10
1.668485872
 20
-13.5187261868
 10
1.6677879007
 20
-13.5078123227
 10
1.6674820843
 20
-13.4968458358
  0
LWPOLYLINE
  5
413
100
AcDbEntity
  8
0
100
AcDbPolyline
 62
7
  6
CONTINUOUS
 90
4
 70
0
 10
1.6718537795
 20
-10.740055052
 10
1.6702015529
 20
-10.7293204461
 10
1.6689321923
 20
-10.7185138601
 10
1.6680460088
 20
-10.7076373164
  0
LINE
  5
414
100
AcDbEntity
  8
0
100
AcDbLine
 62
7
  6
CONTINUOUS
 10
-0.0247820546
 20
11.4204671933
 11
-0.0259044879
 21
11.4311748364
  0
LWPOLYLINE
  5
415
100
AcDbEntity
  8
0
100
AcDbPolyline
 62
7
  6
CONTINUOUS
 90
4
 70
0
 10
2.8654473267
 20
-14.7640915944
 10
2.8663670524
 20
-14.7745543666
 10
2.8669228539
 20
-14.7850527586
 10
2.8671147314
 20
-14.7955867693
  0
LINE
  5
416
100
AcDbEntity
  8
0
100
AcDbLine
 62
7
  6
CONTINUOUS
 10
-0.0258883081
 20
11.4309649851
 11
-0.0266349971
 21
11.4416530794
  0
LINE
  5
417
100
AcDbEntity
  8
0
100
AcDbLine
 62
7
  6
CONTINUOUS
 10
-0.0266270413
 20
11.4415017115
 11
-0.0269949167
 21
11.4520906498
  0
LWPOLYLINE
  5
418
100
AcDbEntity
  8
0
100
AcDbPolyline
 62
7
  6
CONTINUOUS
 90
4
 70
0
 10
1.9767063964
 20
10.0517744151
 10
1.9764076989
 20
10.0408121985
 10
1.9757177739
 20
10.0299037022
 10
1.9746342932
 20
10.0190650498
  0
LWPOLYLINE
  5
419
100
AcDbEntity
  8
0
100
AcDbPolyline
 62
7
  6
CONTINUOUS
 90
5
 70
0
 10
-0.02661091
 20
-12.0747937205
 10
-0.0258296943
 20
-12.0639133132
 10
-0.0246580481
 20
-12.0530514882
 10
-0.0231007705
 20
-12.0422747013
 10
-0.0211562503
 20
-12.0315962679
  0
LWPOLYLINE
  5
41A
100
AcDbEntity
  8
0
100
AcDbPolyline
 62
7
  6
CONTINUOUS
 90
3
 70
0
 10
1.9761087141
 20
12.8413255811
 10
1.9752284105
 20
12.8304465173
 10
1.9739642084
 20
12.8196361968
  0
LINE
  5
41B
100
AcDbEntity
  8
0
100
AcDbLine
 62
7
  6
CONTINUOUS
 10
2.8656415324
 20
8.7219858781
 11
2.8643420605
 21
8.7114041329
  0
LWPOLYLINE
  5
41C
100
AcDbEntity
  8
0
100
AcDbPolyline
 62
7
  6
CONTINUOUS
 90
8
 70
0
 10
2.8643615359
 20
8.7115561647
 10
2.8627173166
 20
8.7011377776
 10
2.8607177376
 20
8.6907976372
 10
2.8583612397
 20
8.6805395052
 10
2.8556493821
 20
8.6703596202
 10
2.8525957052
 20
8.6603136182
 10
2.8492058079
 20
8.6504188671
 10
2.8454740913
 20
8.6406579993
  0
LWPOLYLINE
  5
41D
100
AcDbEntity
  8
0
100
AcDbPolyline
 62
7
  6
CONTINUOUS
 90
3
 70
0
 10
3.6629683589
 20
11.3870904389
 10
3.6602587382
 20
11.3765920361
 10
3.657170482
 20
11.3662004812
  0
LINE
  5
41E
100
AcDbEntity
  8
0
100
AcDbLine
 62
7
  6
CONTINUOUS
 10
2.8583488553
 20
8.6804832836
 11
2.8556476501
 21
8.6703466176
  0
LWPOLYLINE
  5
41F
100
AcDbEntity
  8
0
100
AcDbPolyline
 62
250
  6
CONTINUOUS
 90
18
 70
0
 10
-11.096001429
 20
-21.5688156733
 10
-11.0955334028
 20
-21.5679321491
 10
-11.0950669986
 20
-21.5666916805
 10
-11.0946022164
 20
-21.5650942676
 10
-11.0941387096
 20
-21.5631382237
 10
-11.0936768248
 20
-21.5608252354
 10
-11.0932176018
 20
-21.5581603625
 10
-11.0927610595
 20
-21.55514286
 10
-11.092307179
 20
-21.5517734728
 10
-11.0918569432
 20
-21.5480594958
 10
-11.0914103613
 20
-21.5440001922
 10
-11.0909674241
 20
-21.5395962987
 10
-11.0905290861
 20
-21.5348573206
 10
-11.0900953566
 20
-21.5297825285
 10
-11.0896662265
 20
-21.5243726519
 10
-11.0892426225
 20
-21.5186393844
 10
-11.0888245568
 20
-21.5125820269
 10
-11.0880058948
 20
-21.4995109297
  0
LWPOLYLINE
  5
420
100
AcDbEntity
  8
0
100
AcDbPolyline
 62
250
  6
CONTINUOUS
 90
6
 70
0
 10
-11.0421426598
 20
0.33429097
 10
-11.0413905771
 20
0.334374004
 10
-11.0401859335
 20
0.3344567466
 10
-11.038529886
 20
0.3345391881
 10
-11.0364240465
 20
0.3346213819
 10
-11.0338703608
 20
0.3347032557
  0
LINE
  5
421
100
AcDbEntity
  8
0
100
AcDbLine
 62
250
  6
CONTINUOUS
 10
-10.8334387845
 20
0.1348439697
 11
-10.8285183443
 21
0.134995708
  0
LINE
  5
422
100
AcDbEntity
  8
0
100
AcDbLine
 62
250
  6
CONTINUOUS
 10
-10.8285183443
 20
0.134995708
 11
-10.8225592904
 21
0.1351445827
  0
LINE
  5
423
100
AcDbEntity
  8
0
100
AcDbLine
 62
250
  6
CONTINUOUS
 10
-11.0338703608
 20
0.3347032557
 11
-11.0274286365
 21
0.3348654431
  0
LWPOLYLINE
  5
424
100
AcDbEntity
  8
0
100
AcDbPolyline
 62
250
  6
CONTINUOUS
 90
3
 70
0
 10
4.6244526886
 20
0.7868653683
 10
4.62390198
 20
0.7868526012
 10
4.6236716966
 20
0.7868398137
  0
LWPOLYLINE
  5
425
100
AcDbEntity
  8
0
100
AcDbPolyline
 62
250
  6
CONTINUOUS
 90
40
 70
0
 10
-4.9723400786
 20
0.1368252778
 10
-4.9642875874
 20
0.1369880695
 10
-4.9562481561
 20
0.1374749541
 10
-4.9482348234
 20
0.1382851419
 10
-4.9402605857
 20
0.139417319
 10
-4.9323383761
 20
0.1408696492
 10
-4.9244810431
 20
0.1426397769
 10
-4.91670133
 20
0.1447248313
 10
-4.9090118545
 20
0.1471214308
 10
-4.9014250877
 20
0.1498256885
 10
-4.893953334
 20
0.1528332184
 10
-4.8866087116
 20
0.1561391428
 10
-4.8794031324
 20
0.1597381001
 10
-4.8723482825
 20
0.1636242531
 10
-4.865455604
 20
0.1677912993
 10
-4.8587362758
 20
0.1722324803
 10
-4.8522011954
 20
0.1769405932
 10
-4.8458609619
 20
0.1819080022
 10
-4.839725858
 20
0.1871266508
 10
-4.8338058341
 20
0.1925880752
 10
-4.8281104914
 20
0.1982834179
 10
-4.8226490669
 20
0.2042034418
 10
-4.8174304183
 20
0.2103385457
 10
-4.8124630094
 20
0.2166787792
 10
-4.8077548965
 20
0.2232138596
 10
-4.8033137155
 20
0.2299331879
 10
-4.7991466693
 20
0.2368258664
 10
-4.7952605162
 20
0.2438807162
 10
-4.791661559
 20
0.2510862955
 10
-4.7883556346
 20
0.2584309178
 10
-4.7853481047
 20
0.2659026715
 10
-4.782643847
 20
0.2734894383
 10
-4.7802472475
 20
0.2811789139
 10
-4.7781621931
 20
0.2889586269
 10
-4.7763920653
 20
0.2968159599
 10
-4.7749397352
 20
0.3047381696
 10
-4.7738075581
 20
0.3127124072
 10
-4.7729973703
 20
0.3207257399
 10
-4.7725104857
 20
0.3287651712
 10
-4.772347694
 20
0.3368176624
  0
LINE
  5
426
100
AcDbEntity
  8
0
100
AcDbLine
 62
250
  6
CONTINUOUS
 10
-10.8225592904
 20
0.1351445827
 11
-10.8117253273
 21
0.1353613209
  0
LINE
  5
427
100
AcDbEntity
  8
0
100
AcDbLine
 62
250
  6
CONTINUOUS
 10
-11.0274286365
 20
0.3348654431
 11
-11.0144769508
 21
0.3351041009
  0
LINE
  5
428
100
AcDbEntity
  8
0
100
AcDbLine
 62
250
  6
CONTINUOUS
 10
-10.8117253273
 20
0.1353613209
 11
-10.7888417934
 21
0.1357007547
  0
LINE
  5
429
100
AcDbEntity
  8
0
100
AcDbLine
 62
250
  6
CONTINUOUS
 10
4.6253274442
 20
0.3368343559
 11
4.6239083865
 21
0.3368163388
  0
LINE
  5
42A
100
AcDbEntity
  8
0
100
AcDbLine
 62
250
  6
CONTINUOUS
 10
-11.0144769508
 20
0.3351041009
 11
-10.9844012715
 21
0.3354845755
  0
LINE
  5
42B
100
AcDbEntity
  8
0
100
AcDbLine
 62
250
  6
CONTINUOUS
 10
4.6265113354
 20
0.786890759
 11
4.6244526886
 21
0.7868653683
  0
LWPOLYLINE
  5
42C
100
AcDbEntity
  8
0
100
AcDbPolyline
 62
250
  6
CONTINUOUS
 90
3
 70
0
 10
-10.7888417934
 20
0.1357007547
 10
-10.7408860011
 20
0.1361707091
 10
-10.7340227082
 20
0.1362219484
  0
LINE
  5
42D
100
AcDbEntity
  8
0
100
AcDbLine
 62
250
  6
CONTINUOUS
 10
-10.9844012715
 20
0.3354845755
 11
-10.9056626627
 21
0.3360908135
  0
LINE
  5
42E
100
AcDbEntity
  8
0
100
AcDbLine
 62
250
  6
CONTINUOUS
 10
4.6371411205
 20
0.7869524554
 11
4.6265113354
 21
0.786890759
  0
LINE
  5
42F
100
AcDbEntity
  8
0
100
AcDbLine
 62
250
  6
CONTINUOUS
 10
-10.9056626627
 20
0.3360908135
 11
-10.7873909585
 21
0.3366008952
  0
LINE
  5
430
100
AcDbEntity
  8
0
100
AcDbLine
 62
250
  6
CONTINUOUS
 10
4.6745867791
 20
0.7870506178
 11
4.6371411205
 21
0.7869524554
  0
LINE
  5
431
100
AcDbEntity
  8
0
100
AcDbLine
 62
250
  6
CONTINUOUS
 10
4.6916435757
 20
0.7870778532
 11
4.6745867791
 21
0.7870506178
  0
LINE
  5
432
100
AcDbEntity
  8
0
100
AcDbLine
 62
250
  6
CONTINUOUS
 10
-10.7873909585
 20
0.3366008952
 11
-10.6323029104
 21
0.3369111415
  0
LINE
  5
433
100
AcDbEntity
  8
0
100
AcDbLine
 62
250
  6
CONTINUOUS
 10
4.7106042231
 20
0.787101656
 11
4.6916435757
 21
0.7870778532
  0
LINE
  5
434
100
AcDbEntity
  8
0
100
AcDbLine
 62
250
  6
CONTINUOUS
 10
-10.5424444127
 20
0.33695692
 11
-4.9643369728
 21
0.3369730538
  0
LINE
  5
435
100
AcDbEntity
  8
0
100
AcDbLine
 62
250
  6
CONTINUOUS
 10
-10.6323029104
 20
0.3369111415
 11
-10.5424444127
 21
0.3369569208
  0
LINE
  5
436
100
AcDbEntity
  8
0
100
AcDbLine
 62
250
  6
CONTINUOUS
 10
4.8236640812
 20
0.787159152
 11
4.7106042231
 21
0.787101656
  0
LINE
  5
437
100
AcDbEntity
  8
0
100
AcDbLine
 62
7
  6
CONTINUOUS
 10
4.1118972713
 20
1.2750273114
 11
-4.2605687661
 21
1.2750273114
  0
LINE
  5
438
100
AcDbEntity
  8
0
100
AcDbLine
 62
250
  6
CONTINUOUS
 10
-4.2723453365
 20
1.2868067445
 11
4.1236737783
 21
1.2868067445
  0
LINE
  5
439
100
AcDbEntity
  8
0
100
AcDbLine
 62
250
  6
CONTINUOUS
 10
-4.2723481991
 20
1.4873985632
 11
4.1236767044
 21
1.4873985632
  0
LINE
  5
43A
100
AcDbEntity
  8
0
100
AcDbLine
 62
250
  6
CONTINUOUS
 10
4.6643994302
 20
0.3369051969
 11
4.6253274442
 21
0.3368343559
  0
LINE
  5
43B
100
AcDbEntity
  8
0
100
AcDbLine
 62
250
  6
CONTINUOUS
 10
-4.9643369728
 20
0.3369730538
 11
-4.8287207604
 21
0.3369184766
  0
LINE
  5
43C
100
AcDbEntity
  8
0
100
AcDbLine
 62
250
  6
CONTINUOUS
 10
10.5563976761
 20
0.3368053673
 11
4.6643994302
 21
0.3369051969
  0
LINE
  5
43D
100
AcDbEntity
  8
0
100
AcDbLine
 62
250
  6
CONTINUOUS
 10
10.5563976761
 20
0.3368053673
 11
10.6893258643
 21
0.3364206333
  0
LINE
  5
43E
100
AcDbEntity
  8
0
100
AcDbLine
 62
250
  6
CONTINUOUS
 10
-4.972335576
 20
0.7871591519
 11
-4.7806352162
 21
0.786928182
  0
LINE
  5
43F
100
AcDbEntity
  8
0
100
AcDbLine
 62
250
  6
CONTINUOUS
 10
-4.8287207604
 20
0.3369184766
 11
-4.7739989366
 21
0.3368343559
  0
LINE
  5
440
100
AcDbEntity
  8
0
100
AcDbLine
 62
250
  6
CONTINUOUS
 10
4.6239083865
 20
0.3368163388
 11
4.6236761992
 21
0.3368176624
  0
LINE
  5
441
100
AcDbEntity
  8
0
100
AcDbLine
 62
250
  6
CONTINUOUS
 10
10.6893258643
 20
0.3364206333
 11
10.7956520899
 21
0.3358359976
  0
LINE
  5
442
100
AcDbEntity
  8
0
100
AcDbLine
 62
250
  6
CONTINUOUS
 10
-4.7806352162
 20
0.786928182
 11
-4.7751827431
 21
0.786890759
  0
LINE
  5
443
100
AcDbEntity
  8
0
100
AcDbLine
 62
250
  6
CONTINUOUS
 10
10.5853512135
 20
0.1362219484
 11
10.6349017598
 21
0.1357648655
  0
LINE
  5
444
100
AcDbEntity
  8
0
100
AcDbLine
 62
250
  6
CONTINUOUS
 10
10.7956520899
 20
0.3358359976
 11
10.849003602
 21
0.335335389
  0
LWPOLYLINE
  5
445
100
AcDbEntity
  8
0
100
AcDbPolyline
 62
250
  6
CONTINUOUS
 90
3
 70
0
 10
-4.7739989366
 20
0.3368343559
 10
-4.7725798809
 20
0.3368163388
 10
-4.772347694
 20
0.3368176624
  0
LWPOLYLINE
  5
446
100
AcDbEntity
  8
0
100
AcDbPolyline
 62
250
  6
CONTINUOUS
 90
55
 70
0
 10
4.1236767044
 20
1.4873985632
 10
4.1438787985
 20
1.4871118239
 10
4.1640722432
 20
1.4862360867
 10
4.1842570383
 20
1.4847713518
 10
4.2044582182
 20
1.482717032
 10
4.2246507485
 20
1.4800737143
 10
4.2447595264
 20
1.4768431599
 10
4.2647826989
 20
1.4730217031
 10
4.284722119
 20
1.4686130096
 10
4.3045082421
 20
1.4636298374
 10
4.3241379734
 20
1.4580695977
 10
4.3436144078
 20
1.4519348792
 10
4.3628772852
 20
1.4452462063
 10
4.381919723
 20
1.4380042519
 10
4.4007486039
 20
1.4302083429
 10
4.4193243163
 20
1.4218769843
 10
4.4376464602
 20
1.413009764
 10
4.4557154356
 20
1.4036070939
 10
4.4734928302
 20
1.3936887144
 10
4.4909814152
 20
1.3832516525
 10
4.5081784195
 20
1.3722988811
 10
4.5250371174
 20
1.3608590597
 10
4.5415566422
 20
1.3489304649
 10
4.5577378608
 20
1.33651482
 10
4.5735366474
 20
1.3236459543
 10
4.5889504329
 20
1.3103239314
 10
4.6039817865
 20
1.2965486876
 10
4.6185942902
 20
1.2823538612
 10
4.6327870937
 20
1.2677385181
 10
4.6465610474
 20
1.2527035922
 10
4.6598822842
 20
1.2372855243
 10
4.6727508681
 20
1.2214817093
 10
4.6851667352
 20
1.205294752
 10
4.6970958275
 20
1.188768908
 10
4.7085363356
 20
1.1719034373
 10
4.7194900689
 20
1.1546990799
 10
4.7299283982
 20
1.1372023114
 10
4.7398483685
 20
1.1194159438
 10
4.7492529349
 20
1.1013371652
 10
4.7581223323
 20
1.0830040153
 10
4.766456274
 20
1.0644157967
 10
4.7742550468
 20
1.0455732068
 10
4.7814997469
 20
1.0265163774
 10
4.7881910184
 20
1.0072382021
 10
4.7943282172
 20
0.9877457873
 10
4.7998905072
 20
0.9681005839
 10
4.8048751425
 20
0.9482997737
 10
4.809284869
 20
0.928346175
 10
4.8131070883
 20
0.9083096933
 10
4.8163380998
 20
0.88818885
 10
4.8189816041
 20
0.8679851238
 10
4.8210361041
 20
0.8477728567
 10
4.8225011008
 20
0.8275768293
 10
4.8233770932
 20
0.8073722611
 10
4.8236640812
 20
0.787159152
  0
LWPOLYLINE
  5
447
100
AcDbEntity
  8
0
100
AcDbPolyline
 62
250
  6
CONTINUOUS
 90
55
 70
0
 10
4.1236737782
 20
1.2868067444
 10
4.1380946722
 20
1.2865992866
 10
4.1525310171
 20
1.285974444
 10
4.1669706553
 20
1.2849303569
 10
4.1814059046
 20
1.283464986
 10
4.1958197532
 20
1.2815774489
 10
4.2101860444
 20
1.2792693577
 10
4.224492297
 20
1.2765415177
 10
4.2387262814
 20
1.2733950541
 10
4.2528626204
 20
1.2698349539
 10
4.2668876765
 20
1.265864713
 10
4.2807911729
 20
1.2614873025
 10
4.294553387
 20
1.2567092977
 10
4.308158477
 20
1.2515371793
 10
4.3215996614
 20
1.2459745161
 10
4.3348710788
 20
1.2400242345
 10
4.3479615023
 20
1.2336916076
 10
4.3608600418
 20
1.2269821461
 10
4.3735611471
 20
1.2198986753
 10
4.3860562713
 20
1.2124454626
 10
4.398332242
 20
1.2046298573
 10
4.4103766753
 20
1.1964594793
 10
4.4221794399
 20
1.1879410429
 10
4.4337303131
 20
1.1790817655
 10
4.4450173221
 20
1.1698908218
 10
4.4560299016
 20
1.1603770463
 10
4.4667599261
 20
1.1505476962
 10
4.4771994897
 20
1.1404100756
 10
4.4873397619
 20
1.1299727293
 10
4.4971721115
 20
1.1192445107
 10
4.5066891247
 20
1.1082333826
 10
4.5158835221
 20
1.0969474464
 10
4.5247464371
 20
1.0853972541
 10
4.5332685854
 20
1.0735948685
 10
4.541442669
 20
1.0615505963
 10
4.5492620192
 20
1.0492744731
 10
4.5567190897
 20
1.0367787039
 10
4.5638064837
 20
1.0240764679
 10
4.5705199097
 20
1.0111762813
 10
4.5768566154
 20
0.9980834412
 10
4.5828111195
 20
0.9848086148
 10
4.5883779877
 20
0.9713632166
 10
4.5935540907
 20
0.9577534789
 10
4.5983358747
 20
0.9439860567
 10
4.6027167783
 20
0.9300769281
 10
4.6066899814
 20
0.9160466181
 10
4.6102525043
 20
0.9019056433
 10
4.6134009566
 20
0.8876674579
 10
4.6161303632
 20
0.8733576285
 10
4.6184396433
 20
0.8589885138
 10
4.620328075
 20
0.8445725077
 10
4.6217941197
 20
0.8301356275
 10
4.6228387116
 20
0.8156948439
 10
4.6234639341
 20
0.8012578976
 10
4.6236716966
 20
0.7868369507
  0
LWPOLYLINE
  5
448
100
AcDbEntity
  8
0
100
AcDbPolyline
 62
250
  6
CONTINUOUS
 90
4
 70
0
 10
-4.7751827431
 20
0.786890759
 10
-4.7731240951
 20
0.7868653683
 10
-4.7725733862
 20
0.7868526012
 10
-4.7723431026
 20
0.7868398137
  0
LINE
  5
449
100
AcDbEntity
  8
0
100
AcDbLine
 62
250
  6
CONTINUOUS
 10
10.6349017598
 20
0.1357648655
 11
10.6589510597
 21
0.1354315406
  0
LINE
  5
44A
100
AcDbEntity
  8
0
100
AcDbLine
 62
250
  6
CONTINUOUS
 10
10.849003602
 20
0.335335389
 11
10.8705563497
 21
0.3350252945
  0
LINE
  5
44B
100
AcDbEntity
  8
0
100
AcDbLine
 62
250
  6
CONTINUOUS
 10
10.6589510597
 20
0.1354315406
 11
10.6705277703
 21
0.1352177466
  0
LINE
  5
44C
100
AcDbEntity
  8
0
100
AcDbLine
 62
250
  6
CONTINUOUS
 10
10.8705563497
 20
0.3350252945
 11
10.8787571417
 21
0.3348654431
  0
LINE
  5
44D
100
AcDbEntity
  8
0
100
AcDbLine
 62
250
  6
CONTINUOUS
 10
10.6705277703
 20
0.1352177466
 11
10.6769969731
 21
0.1350705028
  0
LWPOLYLINE
  5
44E
100
AcDbEntity
  8
0
100
AcDbPolyline
 62
250
  6
CONTINUOUS
 90
7
 70
0
 10
10.8787571417
 20
0.3348654431
 10
10.885198866
 20
0.3347032557
 10
10.8877525517
 20
0.3346213819
 10
10.8898583912
 20
0.3345391881
 10
10.8915144387
 20
0.3344567466
 10
10.8927190824
 20
0.334374004
 10
10.893471165
 20
0.33429097
  0
LWPOLYLINE
  5
44F
100
AcDbEntity
  8
0
100
AcDbPolyline
 62
250
  6
CONTINUOUS
 90
10
 70
0
 10
10.6769969731
 20
0.1350705028
 10
10.6824367202
 20
0.1349201963
 10
10.6847672897
 20
0.1348439697
 10
10.6868322191
 20
0.1347672362
 10
10.6886307943
 20
0.1346899911
 10
10.6901637293
 20
0.134612239
 10
10.691426827
 20
0.1345342018
 10
10.6924186884
 20
0.1344559533
 10
10.6931407125
 20
0.1343774198
 10
10.6935928994
 20
0.1342986011
  0
LWPOLYLINE
  5
450
100
AcDbEntity
  8
0
100
AcDbPolyline
 62
7
  6
CONTINUOUS
 90
3
 70
0
 10
-3.7685500682
 20
8.5852098178
 10
-3.7743076792
 20
8.5940578744
 10
-3.7797376744
 20
8.6030769352
  0
LWPOLYLINE
  5
451
100
AcDbEntity
  8
0
100
AcDbPolyline
 62
7
  6
CONTINUOUS
 90
9
 70
0
 10
-3.779759605
 20
8.6031148703
 10
-3.7848266746
 20
8.6122455363
 10
-3.7895709302
 20
8.6215477147
 10
-3.7939810673
 20
8.6310082502
 10
-3.7980573414
 20
8.6406362014
 10
-3.801799497
 20
8.6504225094
 10
-3.8051954632
 20
8.660326843
 10
-3.8082432954
 20
8.6703474823
 10
-3.8109449383
 20
8.6804861469
  0
LWPOLYLINE
  5
452
100
AcDbEntity
  8
0
100
AcDbPolyline
 62
7
  6
CONTINUOUS
 90
3
 70
0
 10
3.6580724452
 20
-12.0029005726
 10
3.6609486893
 20
-12.0129443299
 10
3.6634777028
 20
-12.023100724
  0
LWPOLYLINE
  5
453
100
AcDbEntity
  8
0
100
AcDbPolyline
 62
7
  6
CONTINUOUS
 90
5
 70
0
 10
2.8564345478
 20
-9.4041508624
 10
2.8590690973
 20
-9.4145666132
 10
2.8613368531
 20
-9.4250838721
 10
2.8632358786
 20
-9.4356995007
 10
2.8647544886
 20
-9.4463776577
  0
LINE
  5
454
100
AcDbEntity
  8
0
100
AcDbLine
 62
7
  6
CONTINUOUS
 10
3.6634777028
 20
-12.023100724
 11
3.6656884098
 21
-12.0335401089
  0
LINE
  5
455
100
AcDbEntity
  8
0
100
AcDbLine
 62
7
  6
CONTINUOUS
 10
3.6656572989
 20
-12.0333652772
 11
3.6675135876
 21
-12.0439245191
  0
LINE
  5
456
100
AcDbEntity
  8
0
100
AcDbLine
 62
7
  6
CONTINUOUS
 10
2.862509061
 20
-14.7432408401
 11
2.8641832753
 21
-14.7538258137
  0
LINE
  5
457
100
AcDbEntity
  8
0
100
AcDbLine
 62
7
  6
CONTINUOUS
 10
-0.0233182378
 20
11.4100466483
 11
-0.0248101545
 21
11.4206947808
  0
LINE
  5
458
100
AcDbEntity
  8
0
100
AcDbLine
 62
7
  6
CONTINUOUS
 10
2.8641601559
 20
-14.7536484064
 11
2.8654655862
 21
-14.7642645471
  0
LWPOLYLINE
  5
459
100
AcDbEntity
  8
0
100
AcDbPolyline
 62
7
  6
CONTINUOUS
 90
4
 70
0
 10
2.864757808
 20
-9.4464043839
 10
2.8658914186
 20
-9.4571207115
 10
2.8666470815
 20
-9.4679024662
 10
2.8670153826
 20
-9.4787044582
  0
LINE
  5
45A
100
AcDbEntity
  8
0
100
AcDbLine
 62
7
  6
CONTINUOUS
 10
3.6689441548
 20
-12.0541289686
 11
3.6700675395
 21
-12.0648371536
  0
LINE
  5
45B
100
AcDbEntity
  8
0
100
AcDbLine
 62
7
  6
CONTINUOUS
 10
3.6700514147
 20
-12.0646281039
 11
3.670798979
 21
-12.0753167613
  0
LWPOLYLINE
  5
45C
100
AcDbEntity
  8
0
100
AcDbPolyline
 62
7
  6
CONTINUOUS
 90
3
 70
0
 10
2.8665422572
 20
8.7742723932
 10
2.8670961849
 20
8.7637917407
 10
2.8672873213
 20
8.7532760557
  0
LINE
  5
45D
100
AcDbEntity
  8
0
100
AcDbLine
 62
7
  6
CONTINUOUS
 10
3.6707910564
 20
-12.0751662413
 11
3.671159739
 21
-12.0857566643
  0
LWPOLYLINE
  5
45E
100
AcDbEntity
  8
0
100
AcDbPolyline
 62
7
  6
CONTINUOUS
 90
3
 70
0
 10
2.8670161403
 20
-9.478751457
 10
2.8669942261
 20
-9.4895563707
 10
2.866584413
 20
-9.5003681079
  0
LWPOLYLINE
  5
45F
100
AcDbEntity
  8
0
100
AcDbPolyline
 62
7
  6
CONTINUOUS
 90
3
 70
0
 10
2.8672873213
 20
8.7532760557
 10
2.8671029479
 20
8.7428346702
 10
2.8665543516
 20
8.732404611
  0
LWPOLYLINE
  5
460
100
AcDbEntity
  8
0
100
AcDbPolyline
 62
7
  6
CONTINUOUS
 90
3
 70
0
 10
2.8671147314
 20
-14.7955867693
 10
2.8669298167
 20
-14.806042382
 10
2.8663797596
 20
-14.816486345
  0
LWPOLYLINE
  5
461
100
AcDbEntity
  8
0
100
AcDbPolyline
 62
7
  6
CONTINUOUS
 90
4
 70
0
 10
1.6674588803
 20
-10.6857977525
 10
1.6677579352
 20
-10.6748347318
 10
1.6684482686
 20
-10.6639254756
 10
1.6695322112
 20
-10.653086108
  0
LWPOLYLINE
  5
462
100
AcDbEntity
  8
0
100
AcDbPolyline
 62
7
  6
CONTINUOUS
 90
3
 70
0
 10
2.8669931838
 20
-9.4895116244
 10
2.8665836233
 20
-9.500339028
 10
2.8657867009
 20
-9.5111866688
  0
LWPOLYLINE
  5
463
100
AcDbEntity
  8
0
100
AcDbPolyline
 62
7
  6
CONTINUOUS
 90
3
 70
0
 10
1.6675705599
 20
-13.4859038245
 10
1.6680574369
 20
-13.4749971922
 10
1.6689386058
 20
-13.464115037
  0
LWPOLYLINE
  5
464
100
AcDbEntity
  8
0
100
AcDbPolyline
 62
7
  6
CONTINUOUS
 90
10
 70
0
 10
3.6707702433
 20
11.4409535856
 10
3.6699860432
 20
11.4300691094
 10
3.6688119361
 20
11.419198661
 10
3.6672521858
 20
11.4084105542
 10
3.6653051964
 20
11.3977180588
 10
3.662972564
 20
11.3871079079
 10
3.6602633403
 20
11.3766086114
 10
3.6571749519
 20
11.3662149684
 10
3.6537099722
 20
11.3559321831
 10
3.6498851734
 20
11.3458043743
  0
LINE
  5
465
100
AcDbEntity
  8
0
100
AcDbLine
 62
7
  6
CONTINUOUS
 10
2.8665543516
 20
8.732404611
 11
2.8656252442
 21
8.7218314166
  0
LWPOLYLINE
  5
466
100
AcDbEntity
  8
0
100
AcDbPolyline
 62
7
  6
CONTINUOUS
 90
3
 70
0
 10
3.6699848083
 20
11.4300552744
 10
3.6688099012
 20
11.4191828334
 10
3.6672493927
 20
11.4083934432
  0
LWPOLYLINE
  5
467
100
AcDbEntity
  8
0
100
AcDbPolyline
 62
7
  6
CONTINUOUS
 90
5
 70
0
 10
-0.0188260986
 20
-12.021002876
 10
-0.0161199483
 20
-12.0105210413
 10
-0.0130357404
 20
-12.000145864
 10
-0.009575534
 20
-11.9898822477
 10
-0.0057551385
 20
-11.9797714141
  0
LINE
  5
468
100
AcDbEntity
  8
0
100
AcDbLine
 62
7
  6
CONTINUOUS
 10
-3.7764213608
 20
-10.0015296721
 11
-3.770487223
 21
-9.9921784034
  0
LINE
  5
469
100
AcDbEntity
  8
0
100
AcDbLine
 62
250
  6
CONTINUOUS
 10
-11.198028438
 20
-21.7219339765
 11
-11.096001429
 21
-21.5688156733
  0
LINE
  5
46A
100
AcDbEntity
  8
0
100
AcDbLine
 62
250
  6
CONTINUOUS
 10
-10.6971175526
 20
-22.2194246094
 11
-10.5963060155
 21
-22.0681304407
  0
LWPOLYLINE
  5
46B
100
AcDbEntity
  8
0
100
AcDbPolyline
 62
7
  6
CONTINUOUS
 90
9
 70
0
 10
-3.7705817945
 20
-9.9923174103
 10
-3.764405706
 20
-9.9833162602
 10
-3.7579201611
 20
-9.9745567993
 10
-3.7511225304
 20
-9.9660352232
 10
-3.7440154434
 20
-9.9577553397
 10
-3.7366338539
 20
-9.9497591448
 10
-3.7289894133
 20
-9.9420606384
 10
-3.7210704704
 20
-9.9346458243
 10
-3.7128770249
 20
-9.9275147043
  0
LWPOLYLINE
  5
46C
100
AcDbEntity
  8
0
100
AcDbPolyline
 62
7
  6
CONTINUOUS
 90
8
 70
0
 10
-3.7650069476
 20
-9.9841631233
 10
-3.7592702888
 20
-9.9763274736
 10
-3.7532958438
 20
-9.9686917897
 10
-3.7470755832
 20
-9.9612481474
 10
-3.7406175364
 20
-9.9540044735
 10
-3.7339643886
 20
-9.9470048797
 10
-3.7271303683
 20
-9.9402640711
 10
-3.720101247
 20
-9.9337673455
  0
LINE
  5
46D
100
AcDbEntity
  8
0
100
AcDbLine
 62
250
  6
CONTINUOUS
 10
4.1118972713
 20
1.2750273114
 11
4.1236737783
 21
1.2868067445
  0
LINE
  5
46E
100
AcDbEntity
  8
0
100
AcDbLine
 62
250
  6
CONTINUOUS
 10
4.6236761992
 20
0.3368176624
 11
4.6118782329
 21
0.3250196961
  0
LINE
  5
46F
100
AcDbEntity
  8
0
100
AcDbLine
 62
250
  6
CONTINUOUS
 10
4.8236685838
 20
0.1368252778
 11
4.8088926697
 21
0.1220493637
  0
LINE
  5
470
100
AcDbEntity
  8
0
100
AcDbLine
 62
250
  6
CONTINUOUS
 10
4.6118782329
 20
0.7750463499
 11
4.6236716967
 21
0.7868369507
  0
LINE
  5
471
100
AcDbEntity
  8
0
100
AcDbLine
 62
250
  6
CONTINUOUS
 10
-11.024274786
 20
0.0888133312
 11
-10.8422643941
 21
0.1342986011
  0
LINE
  5
472
100
AcDbEntity
  8
0
100
AcDbLine
 62
250
  6
CONTINUOUS
 10
-11.2243357474
 20
0.2887600342
 11
-11.0421426598
 21
0.3342909607
  0
LWPOLYLINE
  5
473
100
AcDbEntity
  8
0
100
AcDbPolyline
 62
250
  6
CONTINUOUS
 90
8
 70
0
 10
-10.8422643941
 20
0.1342986011
 10
-10.8418122073
 20
0.1343774198
 10
-10.8410901832
 20
0.1344559533
 10
-10.8400983217
 20
0.1345342018
 10
-10.838835224
 20
0.134612239
 10
-10.837302289
 20
0.1346899911
 10
-10.8355037138
 20
0.1347672362
 10
-10.8334387845
 20
0.1348439697
  0
LWPOLYLINE
  5
474
100
AcDbEntity
  8
0
100
AcDbPolyline
 62
7
  6
CONTINUOUS
 90
2
 70
0
 43
0.3500000019
 10
18.3704614258
 20
3.0245276794
 10
16.8704599609
 20
3.0245276794
  0
LINE
  5
475
100
AcDbEntity
  8
0
100
AcDbLine
 62
250
  6
CONTINUOUS
 10
10.6935928994
 20
0.1342986011
 11
10.8756032912
 21
0.0888133312
  0
LINE
  5
476
100
AcDbEntity
  8
0
100
AcDbLine
 62
250
  6
CONTINUOUS
 10
10.893471165
 20
0.3342909607
 11
11.0756642526
 21
0.2887600342
  0
LINE
  5
477
100
AcDbEntity
  8
0
100
AcDbLine
 62
250
  6
CONTINUOUS
 10
4.6118782329
 20
-0.7974196875
 11
4.6236716967
 21
-0.8092102246
  0
LINE
  5
478
100
AcDbEntity
  8
0
100
AcDbLine
 62
250
  6
CONTINUOUS
 10
4.6118782329
 20
-0.3473930336
 11
4.6236761992
 21
-0.359191
  0
LINE
  5
479
100
AcDbEntity
  8
0
100
AcDbLine
 62
250
  6
CONTINUOUS
 10
4.8088926697
 20
-0.1444227013
 11
4.8236685838
 21
-0.1591986154
  0
LWPOLYLINE
  5
47A
100
AcDbEntity
  8
0
100
AcDbPolyline
 62
7
  6
CONTINUOUS
 90
3
 70
0
 10
-3.7280140539
 20
8.5369563053
 10
-3.735522779
 20
8.544463978
 10
-3.7427445149
 20
8.5522041764
  0
LINE
  5
47B
100
AcDbEntity
  8
0
100
AcDbLine
 62
250
  6
CONTINUOUS
 10
4.1118972713
 20
-1.297400649
 11
4.1236738418
 21
-1.3091800821
  0
LINE
  5
47C
100
AcDbEntity
  8
0
100
AcDbLine
 62
7
  6
CONTINUOUS
 10
-3.742639253
 20
8.5520872578
 11
-3.7496675533
 21
8.5601698819
  0
LINE
  5
47D
100
AcDbEntity
  8
0
100
AcDbLine
 62
7
  6
CONTINUOUS
 10
-3.74952744
 20
8.5600063048
 11
-3.7563036024
 21
8.5683681127
  0
LINE
  5
47E
100
AcDbEntity
  8
0
100
AcDbLine
 62
7
  6
CONTINUOUS
 10
-3.7561599487
 20
8.5681840328
 11
-3.7626328166
 21
8.5767651036
  0
LINE
  5
47F
100
AcDbEntity
  8
0
100
AcDbLine
 62
7
  6
CONTINUOUS
 10
-3.7625008221
 20
8.5765836402
 11
-3.7686539073
 21
8.5853586817
  0
LINE
  5
480
100
AcDbEntity
  8
0
100
AcDbLine
 62
250
  6
CONTINUOUS
 10
-11.096001429
 20
21.5464423357
 11
-11.198028438
 21
21.6995606389
  0
LINE
  5
481
100
AcDbEntity
  8
0
100
AcDbLine
 62
250
  6
CONTINUOUS
 10
-10.5963060155
 20
22.0457571031
 11
-10.6971175526
 21
22.1970512718
  0
LINE
  5
482
100
AcDbEntity
  8
0
100
AcDbLine
 62
7
  6
CONTINUOUS
 10
-0.0167913645
 20
11.3792868194
 11
-0.0193190861
 21
11.389442322
  0
LINE
  5
483
100
AcDbEntity
  8
0
100
AcDbLine
 62
7
  6
CONTINUOUS
 10
-0.0193190861
 20
11.389442322
 11
-0.0215286869
 21
11.3998814545
  0
LINE
  5
484
100
AcDbEntity
  8
0
100
AcDbLine
 62
7
  6
CONTINUOUS
 10
-0.0214974436
 20
11.3997058605
 11
-0.0233526716
 21
11.4102647452
  0
LINE
  5
485
100
AcDbEntity
  8
0
100
AcDbLine
 62
7
  6
CONTINUOUS
 10
3.6674792545
 20
-12.043707187
 11
3.6689721786
 21
-12.054355778
  0
LINE
  5
486
100
AcDbEntity
  8
0
100
AcDbLine
 62
7
  6
CONTINUOUS
 10
2.8656255384
 20
8.7847180135
 11
2.8665558946
 21
8.7741265718
  0
LWPOLYLINE
  5
487
100
AcDbEntity
  8
0
100
AcDbPolyline
 62
7
  6
CONTINUOUS
 90
4
 70
0
 10
3.670779148
 20
11.4736226573
 10
3.6711663047
 20
11.4627395643
 10
3.6711630101
 20
11.4518336402
 10
3.6707696345
 20
11.4409423219
  0
LWPOLYLINE
  5
488
100
AcDbEntity
  8
0
100
AcDbPolyline
 62
250
  6
CONTINUOUS
 90
40
 70
0
 10
4.6236761992
 20
0.3368176624
 10
4.6238389909
 20
0.3287651712
 10
4.6243258755
 20
0.3207257399
 10
4.6251360633
 20
0.3127124072
 10
4.6262682404
 20
0.3047381696
 10
4.6277205706
 20
0.2968159599
 10
4.6294906983
 20
0.2889586269
 10
4.6315757527
 20
0.2811789139
 10
4.6339723522
 20
0.2734894383
 10
4.6366766099
 20
0.2659026715
 10
4.6396841398
 20
0.2584309178
 10
4.6429900642
 20
0.2510862955
 10
4.6465890215
 20
0.2438807162
 10
4.6504751746
 20
0.2368258664
 10
4.6546422208
 20
0.2299331879
 10
4.6590834017
 20
0.2232138596
 10
4.6637915146
 20
0.2166787792
 10
4.6687589236
 20
0.2103385457
 10
4.6739775722
 20
0.2042034418
 10
4.6794389966
 20
0.1982834179
 10
4.6851343393
 20
0.1925880752
 10
4.6910543632
 20
0.1871266508
 10
4.6971894671
 20
0.1819080022
 10
4.7035297006
 20
0.1769405932
 10
4.710064781
 20
0.1722324803
 10
4.7167841093
 20
0.1677912993
 10
4.7236767878
 20
0.1636242531
 10
4.7307316376
 20
0.1597381001
 10
4.7379372169
 20
0.1561391428
 10
4.7452818393
 20
0.1528332184
 10
4.7527535929
 20
0.1498256885
 10
4.7603403598
 20
0.1471214308
 10
4.7680298353
 20
0.1447248313
 10
4.7758095483
 20
0.1426397769
 10
4.7836668813
 20
0.1408696492
 10
4.791589091
 20
0.139417319
 10
4.7995633286
 20
0.1382851419
 10
4.8075766613
 20
0.1374749541
 10
4.8156160926
 20
0.1369880695
 10
4.8236685838
 20
0.1368252778
  0
LWPOLYLINE
  5
489
100
AcDbEntity
  8
0
100
AcDbPolyline
 62
7
  6
CONTINUOUS
 90
3
 70
0
 10
3.6711662584
 20
-12.0857761017
 10
3.6711608032
 20
-12.0963860876
 10
3.6707942936
 20
-12.1069763083
  0
LINE
  5
48A
100
AcDbEntity
  8
0
100
AcDbLine
 62
250
  6
CONTINUOUS
 10
4.1236767044
 20
1.4873985632
 11
4.1236767044
 21
1.2868067445
  0
LINE
  5
48B
100
AcDbEntity
  8
0
100
AcDbLine
 62
250
  6
CONTINUOUS
 10
4.1236767044
 20
-1.5097719008
 11
4.1236767044
 21
-1.3091800821
  0
LINE
  5
48C
100
AcDbEntity
  8
0
100
AcDbLine
 62
7
  6
CONTINUOUS
 10
4.6118782329
 20
-0.7974196875
 11
4.6118782329
 21
-0.3473930336
  0
LINE
  5
48D
100
AcDbEntity
  8
0
100
AcDbLine
 62
7
  6
CONTINUOUS
 10
4.6118782329
 20
0.3250196961
 11
4.6118782329
 21
0.7750463499
  0
LINE
  5
48E
100
AcDbEntity
  8
0
100
AcDbLine
 62
250
  6
CONTINUOUS
 10
4.6236716967
 20
0.7868369507
 11
4.6236761992
 21
0.3368176624
  0
LINE
  5
48F
100
AcDbEntity
  8
0
100
AcDbLine
 62
250
  6
CONTINUOUS
 10
4.6236761992
 20
-0.359191
 11
4.6236716967
 21
-0.8092102246
  0
LINE
  5
490
100
AcDbEntity
  8
0
100
AcDbLine
 62
250
  6
CONTINUOUS
 10
4.8236640812
 20
0.787159152
 11
4.8236685838
 21
0.1368252778
  0
LINE
  5
491
100
AcDbEntity
  8
0
100
AcDbLine
 62
250
  6
CONTINUOUS
 10
4.8236685838
 20
-0.1591986154
 11
4.8236640812
 21
-0.8095324896
  0
LWPOLYLINE
  5
492
100
AcDbEntity
  8
0
100
AcDbPolyline
 62
250
  6
CONTINUOUS
 90
55
 70
0
 10
4.8236640812
 20
-0.8095324896
 10
4.8233768651
 20
-0.8297520854
 10
4.8225003374
 20
-0.8499628038
 10
4.8210344982
 20
-0.8701646448
 10
4.8189787375
 20
-0.890382703
 10
4.8163336653
 20
-0.9105918837
 10
4.8131011111
 20
-0.9307169034
 10
4.8092773988
 20
-0.9507558978
 10
4.8048662045
 20
-0.9707107312
 10
4.799880386
 20
-0.9905117123
 10
4.7943173493
 20
-1.0101557291
 10
4.7881796884
 20
-1.0296458937
 10
4.7814880429
 20
-1.0489218519
 10
4.7742430818
 20
-1.0679767095
 10
4.7664441362
 20
-1.0868173607
 10
4.7581098384
 20
-1.1054041334
 10
4.749239767
 20
-1.123736628
 10
4.7398343435
 20
-1.1418152442
 10
4.7299134645
 20
-1.1596015085
 10
4.7194741575
 20
-1.1770981746
 10
4.708519395
 20
-1.1943024889
 10
4.6970779909
 20
-1.2111677168
 10
4.6851482319
 20
-1.2276929703
 10
4.6727318313
 20
-1.2438791376
 10
4.6598627439
 20
-1.2596821488
 10
4.6465410416
 20
-1.2750994236
 10
4.6327666523
 20
-1.2901335425
 10
4.6185733151
 20
-1.3047481766
 10
4.6039600992
 20
-1.3189424722
 10
4.5889279354
 20
-1.3327172832
 10
4.573513354
 20
-1.3460388426
 10
4.5577137618
 20
-1.3589072058
 10
4.5415317522
 20
-1.3713223175
 10
4.5250116359
 20
-1.3832502456
 10
4.5081526948
 20
-1.3946891707
 10
4.4909556471
 20
-1.4056409124
 10
4.4734669584
 20
-1.4160769965
 10
4.4556894575
 20
-1.4259944681
 10
4.4376203157
 20
-1.4353962823
 10
4.4192975118
 20
-1.44426283
 10
4.4007203477
 20
-1.452593834
 10
4.3818895215
 20
-1.4603895716
 10
4.3628451068
 20
-1.4676312657
 10
4.3435800094
 20
-1.4743195642
 10
4.3241013235
 20
-1.4804538192
 10
4.3044704055
 20
-1.4860133106
 10
4.2846844548
 20
-1.4909952977
 10
4.2647462721
 20
-1.4954025211
 10
4.244725615
 20
-1.4992224827
 10
4.2246210148
 20
-1.5024514925
 10
4.2044339403
 20
-1.5050932406
 10
4.1842385557
 20
-1.5071462983
 10
4.1640595821
 20
-1.5086101895
 10
4.1438722984
 20
-1.5094853903
 10
4.1236767044
 20
-1.5097719008
  0
LWPOLYLINE
  5
493
100
AcDbEntity
  8
0
100
AcDbPolyline
 62
250
  6
CONTINUOUS
 90
55
 70
0
 10
4.6236716966
 20
-0.8092102246
 10
4.6234637463
 20
-0.8236377438
 10
4.622837995
 20
-0.8380805772
 10
4.6217925911
 20
-0.8525265501
 10
4.6203255013
 20
-0.8669679839
 10
4.6184358544
 20
-0.8813878307
 10
4.6161252864
 20
-0.8957598594
 10
4.6133946194
 20
-0.9100715721
 10
4.6102449956
 20
-0.924310729
 10
4.6066814377
 20
-0.9384518911
 10
4.6027074664
 20
-0.9524814047
 10
4.5983260749
 20
-0.9663889913
 10
4.5935438774
 20
-0.9801548918
 10
4.5883673826
 20
-0.9937632593
 10
4.5828001849
 20
-1.0072073097
 10
4.5768452526
 20
-1.0204811528
 10
4.5705078842
 20
-1.0335735693
 10
4.563793622
 20
-1.0464736642
 10
4.5567053491
 20
-1.0591758457
 10
4.5492473674
 20
-1.0716715684
 10
4.5414270553
 20
-1.0839476753
 10
4.5332520887
 20
-1.0959917664
 10
4.5247292204
 20
-1.1077937168
 10
4.515865694
 20
-1.1193433288
 10
4.5066707231
 20
-1.1306286466
 10
4.4971531746
 20
-1.1416391229
 10
4.4873203319
 20
-1.1523666563
 10
4.4771795272
 20
-1.1628033698
 10
4.4667393292
 20
-1.1729404595
 10
4.4560086176
 20
-1.1827693181
 10
4.4449953848
 20
-1.1922825592
 10
4.4337077566
 20
-1.2014729299
 10
4.4221563028
 20
-1.210331596
 10
4.4103531028
 20
-1.2188493124
 10
4.3983084885
 20
-1.2270188073
 10
4.3860325016
 20
-1.2348334507
 10
4.3735373305
 20
-1.2422857526
 10
4.3608361688
 20
-1.2493683454
 10
4.3479375351
 20
-1.256076972
 10
4.3348466848
 20
-1.2624089374
 10
4.3215742798
 20
-1.2683587923
 10
4.3081317426
 20
-1.2739211273
 10
4.2945252783
 20
-1.2790928545
 10
4.2807615401
 20
-1.2838704458
 10
4.2668565005
 20
-1.2882473677
 10
4.2528306479
 20
-1.2922168398
 10
4.2386944973
 20
-1.2957759041
 10
4.2244614869
 20
-1.2989211954
 10
4.2101571204
 20
-1.3016477741
 10
4.1957937457
 20
-1.3039545769
 10
4.1813837406
 20
-1.3058408984
 10
4.1669530491
 20
-1.3073052237
 10
4.1525186059
 20
-1.3083484984
 10
4.138088155
 20
-1.3089728119
 10
4.1236738417
 20
-1.309180082
  0
LINE
  5
494
100
AcDbEntity
  8
0
100
AcDbLine
 62
7
  6
CONTINUOUS
 10
3.6711696164
 20
-12.0962336742
 11
3.6708090785
 21
-12.1066930929
  0
LINE
  5
495
100
AcDbEntity
  8
0
100
AcDbLine
 62
7
  6
CONTINUOUS
 10
3.6708090785
 20
-12.1066930929
 11
3.6700569156
 21
-12.1175138919
  0
LINE
  5
496
100
AcDbEntity
  8
0
100
AcDbLine
 62
7
  6
CONTINUOUS
 10
2.8663797596
 20
-14.816486345
 11
2.8654468252
 21
-14.8270865783
  0
LINE
  5
497
100
AcDbEntity
  8
0
100
AcDbLine
 62
7
  6
CONTINUOUS
 10
3.6700845444
 20
-12.1171723664
 11
3.6689519636
 21
-12.128012274
  0
LINE
  5
498
100
AcDbEntity
  8
0
100
AcDbLine
 62
7
  6
CONTINUOUS
 10
2.8657867009
 20
-9.5111866688
 11
2.8645761175
 21
-9.5221274453
  0
LINE
  5
499
100
AcDbEntity
  8
0
100
AcDbLine
 62
7
  6
CONTINUOUS
 10
2.86546456
 20
-14.8269186586
 11
2.8641591846
 21
-14.8375317017
  0
LWPOLYLINE
  5
49A
100
AcDbEntity
  8
0
100
AcDbPolyline
 62
7
  6
CONTINUOUS
 90
17
 70
0
 10
2.8646610523
 20
-9.521488339
 10
2.8629774928
 20
-9.532976194
 10
2.8609908266
 20
-9.5437329154
 10
2.8586122809
 20
-9.5544109474
 10
2.8558456939
 20
-9.564996953
 10
2.8527025797
 20
-9.5754509208
 10
2.8491817581
 20
-9.5857704411
 10
2.8452844094
 20
-9.5959579251
 10
2.8410255879
 20
-9.6059805927
 10
2.836404873
 20
-9.6158372061
 10
2.8314226853
 20
-9.6255290052
 10
2.8260953413
 20
-9.6350269269
 10
2.8204193509
 20
-9.64433558
 10
2.8143982042
 20
-9.653450358
 10
2.808058688
 20
-9.6623283753
 10
2.8014001968
 20
-9.6709669873
 10
2.7944233363
 20
-9.6793688413
  0
LINE
  5
49B
100
AcDbEntity
  8
0
100
AcDbLine
 62
7
  6
CONTINUOUS
 10
1.6702038755
 20
-13.453301753
 11
1.6718529326
 21
-13.4425591995
  0
LWPOLYLINE
  5
49C
100
AcDbEntity
  8
0
100
AcDbPolyline
 62
7
  6
CONTINUOUS
 90
17
 70
0
 10
2.8631851287
 20
-9.5317253146
 10
2.8613589301
 20
-9.5418975958
 10
2.8591797504
 20
-9.5520197376
 10
2.8566502957
 20
-9.5620771855
 10
2.8537786843
 20
-9.5720262764
 10
2.8505640209
 20
-9.5818621849
 10
2.8470072008
 20
-9.5915897376
 10
2.8431190286
 20
-9.60117975
 10
2.8388990415
 20
-9.6106319741
 10
2.8343477022
 20
-9.6199466595
 10
2.829477204
 20
-9.6290953679
 10
2.8242890308
 20
-9.6380748768
 10
2.8187816986
 20
-9.6468884106
 10
2.8129629485
 20
-9.655517202
 10
2.8068263632
 20
-9.6639719455
 10
2.8003783599
 20
-9.6722419485
 10
2.7936459311
 20
-9.6802763634
  0
LINE
  5
49D
100
AcDbEntity
  8
0
100
AcDbLine
 62
7
  6
CONTINUOUS
 10
1.6728645665
 20
-10.6315991235
 11
1.6751050327
 21
-10.6209772511
  0
LINE
  5
49E
100
AcDbEntity
  8
0
100
AcDbLine
 62
7
  6
CONTINUOUS
 10
1.6738860904
 20
-13.4318855206
 11
1.6762940974
 21
-13.4213195388
  0
LWPOLYLINE
  5
49F
100
AcDbEntity
  8
0
100
AcDbPolyline
 62
250
  6
CONTINUOUS
 90
13
 70
0
 10
10.4476345207
 20
22.0457571031
 10
10.4471663148
 20
22.0439927569
 10
10.4466997833
 20
22.0415102493
 10
10.4462349262
 20
22.038311382
 10
10.4457714172
 20
22.034398484
 10
10.4453095825
 20
22.02977438
 10
10.4448504018
 20
22.0244423698
 10
10.4443938703
 20
22.01840626
 10
10.4439399926
 20
22.0116704198
 10
10.4434897631
 20
22.0042397506
 10
10.4430431965
 20
21.9961196436
 10
10.4426002781
 20
21.9873159359
 10
10.4417282422
 20
21.9676835019
  0
LINE
  5
4A0
100
AcDbEntity
  8
0
100
AcDbLine
 62
7
  6
CONTINUOUS
 10
1.6777274119
 20
-10.6104395995
 11
1.680718082
 21
-10.6000307497
  0
LINE
  5
4A1
100
AcDbEntity
  8
RACCORDO
100
AcDbLine
 62
7
  6
CONTINUOUS
 10
9.9261343766
 20
-0.1373672722
 11
9.9362574487
 21
-0.1323061216
  0
LINE
  5
4A2
100
AcDbEntity
  8
RACCORDO
100
AcDbLine
 62
250
  6
CONTINUOUS
 10
9.9733599879
 20
-0.1373672722
 11
10.0257251827
 21
-0.1111866688
  0
LINE
  5
4A3
100
AcDbEntity
  8
DRAFT
100
AcDbLine
 62
7
  6
CONTINUOUS
 10
9.8256642526
 20
0.0888133312
 11
9.7732990578
 21
0.1149939346
  0
LINE
  5
4A4
100
AcDbEntity
  8
0
100
AcDbLine
 62
7
  6
CONTINUOUS
 10
-3.6783298777
 20
8.4981225713
 11
-3.6873626958
 21
8.5040013196
  0
LINE
  5
4A5
100
AcDbEntity
  8
0
100
AcDbLine
 62
7
  6
CONTINUOUS
 10
-3.687121202
 20
8.5038348316
 11
-3.6959880264
 21
8.5100532972
  0
LINE
  5
4A6
100
AcDbEntity
  8
0
100
AcDbLine
 62
7
  6
CONTINUOUS
 10
-3.6957139325
 20
8.5098538971
 11
-3.7043855264
 21
8.5163959091
  0
LINE
  5
4A7
100
AcDbEntity
  8
0
100
AcDbLine
 62
7
  6
CONTINUOUS
 10
-3.7041101271
 20
8.516180939
 11
-3.7125602681
 21
8.5230295385
  0
LINE
  5
4A8
100
AcDbEntity
  8
0
100
AcDbLine
 62
7
  6
CONTINUOUS
 10
-3.712307728
 20
8.5228147856
 11
-3.7204765789
 21
8.5299190061
  0
LINE
  5
4A9
100
AcDbEntity
  8
0
100
AcDbLine
 62
7
  6
CONTINUOUS
 10
-3.7202733097
 20
8.5297359786
 11
-3.7281216503
 21
8.5370516376
  0
LINE
  5
4AA
100
AcDbEntity
  8
0
100
AcDbLine
 62
7
  6
CONTINUOUS
 10
-0.0071202142
 20
11.3494993278
 11
-0.0106922093
 21
11.359308876
  0
LINE
  5
4AB
100
AcDbEntity
  8
0
100
AcDbLine
 62
7
  6
CONTINUOUS
 10
1.965086617
 20
10.1376869356
 11
1.9678661897
 21
10.1272466216
  0
LINE
  5
4AC
100
AcDbEntity
  8
0
100
AcDbLine
 62
7
  6
CONTINUOUS
 10
2.8583493927
 20
8.8260662631
 11
2.8607296487
 21
8.8156980559
  0
LWPOLYLINE
  5
4AD
100
AcDbEntity
  8
0
100
AcDbPolyline
 62
7
  6
CONTINUOUS
 90
27
 70
0
 10
1.9689837502
 20
12.9280138873
 10
1.9712334897
 20
12.917393863
 10
1.9730999016
 20
12.9066924015
 10
1.9745844705
 20
12.8959050467
 10
1.9756773028
 20
12.8850638285
 10
1.9763759088
 20
12.8741534403
 10
1.976682778
 20
12.8631891867
 10
1.976595485
 20
12.852249017
 10
1.9761096951
 20
12.8413434364
 10
1.9752297429
 20
12.8304619411
 10
1.973966207
 20
12.8196509695
 10
1.9723193568
 20
12.8089131538
 10
1.970288923
 20
12.798245865
 10
1.9678846758
 20
12.7876876513
 10
1.9651096176
 20
12.7772443829
 10
1.9619607461
 20
12.7669101942
 10
1.9584388251
 20
12.7567060313
 10
1.9545380354
 20
12.7466260943
 10
1.9502641962
 20
12.736676188
 10
1.9456355292
 20
12.7268946664
 10
1.9406521142
 20
12.7172854402
 10
1.9353138714
 20
12.7078446049
 10
1.9296387825
 20
12.6985987928
 10
1.9236249585
 20
12.6895426696
 10
1.9172742885
 20
12.6806815763
 10
1.9106104211
 20
12.6720581583
 10
1.9036412393
 20
12.6636866336
  0
LINE
  5
4AE
100
AcDbEntity
  8
0
100
AcDbLine
 62
7
  6
CONTINUOUS
 10
2.8606986348
 20
8.8158446803
 11
2.8627260519
 21
8.8053652169
  0
LINE
  5
4AF
100
AcDbEntity
  8
0
100
AcDbLine
 62
7
  6
CONTINUOUS
 10
2.8626968205
 20
8.8055360348
 11
2.8643672126
 21
8.7949558244
  0
LWPOLYLINE
  5
4B0
100
AcDbEntity
  8
0
100
AcDbPolyline
 62
7
  6
CONTINUOUS
 90
5
 70
0
 10
1.9723106181
 20
10.1060275701
 10
1.9739629078
 20
10.0952937521
 10
1.9752323863
 20
10.0844879956
 10
1.9761187401
 20
10.0736123135
 10
1.9766115024
 20
10.0627115579
  0
LINE
  5
4B1
100
AcDbEntity
  8
0
100
AcDbLine
 62
7
  6
CONTINUOUS
 10
2.8643425751
 20
8.7951445403
 11
2.8656447572
 21
8.7845356363
  0
LINE
  5
4B2
100
AcDbEntity
  8
0
100
AcDbLine
 62
7
  6
CONTINUOUS
 10
3.6689961143
 20
-12.1276534855
 11
3.6674893654
 21
-12.1384335589
  0
LINE
  5
4B3
100
AcDbEntity
  8
0
100
AcDbLine
 62
7
  6
CONTINUOUS
 10
2.8641812189
 20
-14.8373617319
 11
2.862507497
 21
-14.8479412879
  0
LINE
  5
4B4
100
AcDbEntity
  8
0
100
AcDbLine
 62
7
  6
CONTINUOUS
 10
3.6675441149
 20
-12.1380860385
 11
3.6656696976
 21
-12.1487754094
  0
LWPOLYLINE
  5
4B5
100
AcDbEntity
  8
0
100
AcDbPolyline
 62
7
  6
CONTINUOUS
 90
10
 70
0
 10
2.8625327353
 20
-14.8477931557
 10
2.8605281065
 20
-14.8581457039
 10
2.8581657309
 20
-14.8684156542
 10
2.8554472101
 20
-14.878606733
 10
2.8523863462
 20
-14.8886628898
 10
2.8489887638
 20
-14.8985665836
 10
2.8452488382
 20
-14.9083353625
 10
2.8411634978
 20
-14.9179658111
 10
2.8367256826
 20
-14.9274683924
 10
2.8319424526
 20
-14.9368326499
  0
LINE
  5
4B6
100
AcDbEntity
  8
0
100
AcDbLine
 62
7
  6
CONTINUOUS
 10
3.6657251842
 20
-12.1484739003
 11
3.6634923836
 21
-12.1590401649
  0
LINE
  5
4B7
100
AcDbEntity
  8
0
100
AcDbLine
 62
7
  6
CONTINUOUS
 10
3.6635426841
 20
-12.1588131972
 11
3.6609656209
 21
-12.1691969465
  0
LINE
  5
4B8
100
AcDbEntity
  8
0
100
AcDbLine
 62
7
  6
CONTINUOUS
 10
1.6790742078
 20
-13.4108666304
 11
1.6822291674
 21
-13.4005214242
  0
LINE
  5
4B9
100
AcDbEntity
  8
0
100
AcDbLine
 62
7
  6
CONTINUOUS
 10
1.6877993815
 20
-10.5796158476
 11
1.6918862164
 21
-10.5696216069
  0
LINE
  5
4BA
100
AcDbEntity
  8
0
100
AcDbLine
 62
7
  6
CONTINUOUS
 10
0.0078513727
 20
-11.950396854
 11
0.0130977507
 21
-11.940928476
  0
LWPOLYLINE
  5
4BB
100
AcDbEntity
  8
0
100
AcDbPolyline
 62
7
  6
CONTINUOUS
 90
3
 70
0
 10
0.0186958339
 20
-11.9316287067
 10
0.0246232304
 20
-11.9225397497
 10
0.0308779035
 20
-11.9136658336
  0
LINE
  5
4BC
100
AcDbEntity
  8
0
100
AcDbLine
 62
7
  6
CONTINUOUS
 10
-3.7128770248
 20
-9.9275147041
 11
-0.2691898012
 21
-7.0304198445
  0
LINE
  5
4BD
100
AcDbEntity
  8
0
100
AcDbLine
 62
7
  6
CONTINUOUS
 10
-3.2187520047
 20
-10.2972023722
 11
-0.075716467
 21
-7.6531243734
  0
LINE
  5
4BE
100
AcDbEntity
  8
0
100
AcDbLine
 62
7
  6
CONTINUOUS
 10
-0.2691897983
 20
-7.030419842
 11
-0.2611785909
 21
-7.0238757392
  0
LWPOLYLINE
  5
4BF
100
AcDbEntity
  8
0
100
AcDbPolyline
 62
7
  6
CONTINUOUS
 90
12
 70
0
 10
-0.2614331058
 20
-7.0241011863
 10
-0.2528389865
 20
-7.0175742992
 10
-0.2441709852
 20
-7.011515522
 10
-0.235141833
 20
-7.0056730349
 10
-0.2257842839
 20
-7.0000732109
 10
-0.2161965998
 20
-6.9947951688
 10
-0.2063820119
 20
-6.989850561
 10
-0.196337289
 20
-6.9852277354
 10
-0.1861509996
 20
-6.9809708539
 10
-0.1758171827
 20
-6.977085965
 10
-0.1653417994
 20
-6.9735670204
 10
-0.1548313007
 20
-6.9704400374
  0
LWPOLYLINE
  5
4C0
100
AcDbEntity
  8
0
100
AcDbPolyline
 62
7
  6
CONTINUOUS
 90
11
 70
0
 10
-0.2534698657
 20
-7.0180546462
 10
-0.245300081
 20
-7.0122802244
 10
-0.2369052982
 20
-7.0067705152
 10
-0.2283039708
 20
-7.0015329247
 10
-0.2195514592
 20
-6.9965896699
 10
-0.2106519922
 20
-6.9919446256
 10
-0.2016013408
 20
-6.9875939173
 10
-0.1924421786
 20
-6.9835481386
 10
-0.1831898152
 20
-6.9798110767
 10
-0.1738289408
 20
-6.9763789445
 10
-0.1643562995
 20
-6.9732509739
  0
LWPOLYLINE
  5
4C1
100
AcDbEntity
  8
0
100
AcDbPolyline
 62
7
  6
CONTINUOUS
 90
3
 70
0
 43
0.3500000019
 10
18.0847460938
 20
1.0245276566
 10
18.29903125
 20
0.9530990753
 10
18.584746582
 20
0.8102419128
  0
LWPOLYLINE
  5
4C2
100
AcDbEntity
  8
0
100
AcDbPolyline
 62
7
  6
CONTINUOUS
 90
5
 70
0
 10
-3.6220670331
 20
8.4707013322
 10
-3.6318518847
 20
8.4744421627
 10
-3.6414784074
 20
8.4785169678
 10
-3.650937342
 20
8.4829254325
 10
-3.6602379477
 20
8.4876678715
  0
LINE
  5
4C3
100
AcDbEntity
  8
0
100
AcDbLine
 62
7
  6
CONTINUOUS
 10
-3.65095001
 20
8.4829339918
 11
-3.6603082641
 21
8.4877066957
  0
LINE
  5
4C4
100
AcDbEntity
  8
0
100
AcDbLine
 62
7
  6
CONTINUOUS
 10
-3.6602379477
 20
8.4876678715
 11
-3.6694946502
 21
8.4928067467
  0
LINE
  5
4C5
100
AcDbEntity
  8
0
100
AcDbLine
 62
7
  6
CONTINUOUS
 10
-3.6693672109
 20
8.4927330602
 11
-3.678514607
 21
8.4982403598
  0
LINE
  5
4C6
100
AcDbEntity
  8
0
100
AcDbLine
 62
7
  6
CONTINUOUS
 10
0.0335962091
 20
11.2762900967
 11
0.0272995148
 21
11.2849483099
  0
LINE
  5
4C7
100
AcDbEntity
  8
0
100
AcDbLine
 62
7
  6
CONTINUOUS
 10
0.0274020684
 20
11.2848033524
 11
0.0214280372
 21
11.2936440581
  0
LWPOLYLINE
  5
4C8
100
AcDbEntity
  8
0
100
AcDbPolyline
 62
7
  6
CONTINUOUS
 90
10
 70
0
 10
0.0215119929
 20
11.2935150497
 10
0.0159292404
 20
11.3024245541
 10
0.0106505531
 20
11.3115324954
 10
0.0057072008
 20
11.3207884198
 10
0.0011078904
 20
11.3301756568
 10
-0.003156085
 20
11.3397108733
 10
-0.0070795768
 20
11.3493936224
 10
-0.0106648465
 20
11.3592357003
 10
-0.0139096326
 20
11.3692253067
 10
-0.0168020015
 20
11.3793265999
  0
LINE
  5
4C9
100
AcDbEntity
  8
0
100
AcDbLine
 62
7
  6
CONTINUOUS
 10
2.841431634
 20
8.875440326
 11
2.8455038374
 21
8.8658202545
  0
LINE
  5
4CA
100
AcDbEntity
  8
0
100
AcDbLine
 62
7
  6
CONTINUOUS
 10
1.9562587448
 20
12.9693430234
 11
1.9599896651
 21
12.9592125868
  0
LWPOLYLINE
  5
4CB
100
AcDbEntity
  8
0
100
AcDbPolyline
 62
7
  6
CONTINUOUS
 90
11
 70
0
 10
1.959991912
 20
12.9592062528
 10
1.9633551688
 20
12.948944123
 10
1.9663543646
 20
12.9385394816
 10
1.9689863119
 20
12.9280025425
 10
1.971236243
 20
12.9173796116
 10
1.9731025314
 20
12.9066750022
 10
1.9745868036
 20
12.8958843977
 10
1.9756791712
 20
12.8850411611
 10
1.9763770564
 20
12.8741307456
 10
1.976683037
 20
12.8631676959
 10
1.976594958
 20
12.852229015
  0
LINE
  5
4CC
100
AcDbEntity
  8
0
100
AcDbLine
 62
7
  6
CONTINUOUS
 10
2.8543931682
 20
14.1524422342
 11
2.857337377
 21
14.1419733575
  0
LINE
  5
4CD
100
AcDbEntity
  8
0
100
AcDbLine
 62
7
  6
CONTINUOUS
 10
3.6603024531
 20
11.537787406
 11
3.6630051773
 21
11.5273274186
  0
LWPOLYLINE
  5
4CE
100
AcDbEntity
  8
0
100
AcDbPolyline
 62
7
  6
CONTINUOUS
 90
6
 70
0
 10
3.6630072085
 20
11.5273190834
 10
3.6653340412
 20
11.516748547
 10
3.6672756199
 20
11.5060912613
 10
3.6688303842
 20
11.4953337375
 10
3.6699998944
 20
11.484489462
 10
3.6707791368
 20
11.4736228659
  0
LWPOLYLINE
  5
4CF
100
AcDbEntity
  8
0
100
AcDbPolyline
 62
7
  6
CONTINUOUS
 90
5
 70
0
 10
3.6610070274
 20
-12.1690418969
 10
3.6581176227
 20
-12.1791517236
 10
3.6548750615
 20
-12.1891509565
 10
3.6512915312
 20
-12.199002398
 10
3.6473693499
 20
-12.2086938251
  0
LINE
  5
4D0
100
AcDbEntity
  8
0
100
AcDbLine
 62
7
  6
CONTINUOUS
 10
2.8452185868
 20
-14.9084015845
 11
2.8411307412
 21
-14.9180393316
  0
LWPOLYLINE
  5
4D1
100
AcDbEntity
  8
0
100
AcDbPolyline
 62
7
  6
CONTINUOUS
 90
7
 70
0
 10
3.6473713124
 20
-12.2086810382
 10
3.6430979219
 20
-12.2182481855
 10
3.6384972692
 20
-12.2276524388
 10
3.6335694922
 20
-12.2368907225
 10
3.6283144529
 20
-12.245966117
 10
3.6227523401
 20
-12.2548502714
 10
3.6168808252
 20
-12.2635476318
  0
LINE
  5
4D2
100
AcDbEntity
  8
0
100
AcDbLine
 62
7
  6
CONTINUOUS
 10
1.7118049226
 20
-10.5312445876
 11
1.7176365601
 21
-10.5221324857
  0
LINE
  5
4D3
100
AcDbEntity
  8
0
100
AcDbLine
 62
7
  6
CONTINUOUS
 10
0.0374618899
 20
-11.9050027359
 11
0.0443589084
 21
-11.8965799845
  0
LWPOLYLINE
  5
4D4
100
AcDbEntity
  8
0
100
AcDbPolyline
 62
7
  6
CONTINUOUS
 90
10
 70
0
 43
0.3500000019
 10
17.8704609375
 20
0.9530990753
 10
18.013315918
 20
1.0245276566
 10
18.0847460938
 20
1.0245276566
 10
18.2276010742
 20
0.8816704941
 10
18.2276010742
 20
0.8102419128
 10
18.1561762695
 20
0.7388133316
 10
18.0847460938
 20
0.7388133316
 10
17.9418911133
 20
0.8102419128
 10
17.8704609375
 20
0.8816704941
 10
17.8704609375
 20
0.9530990753
  0
LINE
  5
4D5
100
AcDbEntity
  8
0
100
AcDbLine
 62
7
  6
CONTINUOUS
 10
2.6394134004
 20
8.4615592093
 11
2.6290474555
 21
8.4591798891
  0
LINE
  5
4D6
100
AcDbEntity
  8
0
100
AcDbLine
 62
7
  6
CONTINUOUS
 10
2.629193412
 20
8.4592107565
 11
2.6187161164
 21
8.4571841109
  0
LINE
  5
4D7
100
AcDbEntity
  8
0
100
AcDbLine
 62
7
  6
CONTINUOUS
 10
2.6188864427
 20
8.457213251
 11
2.608308322
 21
8.4555434855
  0
LINE
  5
4D8
100
AcDbEntity
  8
0
100
AcDbLine
 62
7
  6
CONTINUOUS
 10
2.6084967058
 20
8.4555680704
 11
2.5978898033
 21
8.4542663633
  0
LINE
  5
4D9
100
AcDbEntity
  8
0
100
AcDbLine
 62
7
  6
CONTINUOUS
 10
2.5980719786
 20
8.4542855574
 11
2.5874824707
 21
8.4533555278
  0
LWPOLYLINE
  5
4DA
100
AcDbEntity
  8
0
100
AcDbPolyline
 62
7
  6
CONTINUOUS
 90
3
 70
0
 10
2.5876281869
 20
8.4533691596
 10
2.5771494048
 20
8.4528154293
 10
2.5666356324
 20
8.4526243668
  0
LINE
  5
4DB
100
AcDbEntity
  8
0
100
AcDbLine
 62
7
  6
CONTINUOUS
 10
-3.5192311036
 20
8.4526243668
 11
2.5666356324
 21
8.4526243668
  0
LWPOLYLINE
  5
4DC
100
AcDbEntity
  8
0
100
AcDbPolyline
 62
7
  6
CONTINUOUS
 90
3
 70
0
 10
-3.5192311036
 20
8.4526243668
 10
-3.529670483
 20
8.4528086574
 10
-3.5400986174
 20
8.4533570515
  0
LINE
  5
4DD
100
AcDbEntity
  8
0
100
AcDbLine
 62
7
  6
CONTINUOUS
 10
-3.5400986174
 20
8.4533570515
 11
-3.5506702017
 21
8.454285859
  0
LINE
  5
4DE
100
AcDbEntity
  8
0
100
AcDbLine
 62
7
  6
CONTINUOUS
 10
-3.5505155067
 20
8.4542695492
 11
-3.5610957309
 21
8.4555686017
  0
LWPOLYLINE
  5
4DF
100
AcDbEntity
  8
0
100
AcDbPolyline
 62
7
  6
CONTINUOUS
 90
7
 70
0
 10
-3.5609434503
 20
8.4555490965
 10
-3.5713601488
 20
8.4571927473
 10
-3.5816987047
 20
8.459191663
 10
-3.5919553665
 20
8.4615474056
 10
-3.6021338856
 20
8.4642584131
 10
-3.612178619
 20
8.4673111606
 10
-3.6220721885
 20
8.470700043
  0
LWPOLYLINE
  5
4E0
100
AcDbEntity
  8
0
100
AcDbPolyline
 62
7
  6
CONTINUOUS
 90
3
 70
0
 10
-3.5817930388
 20
8.4592116207
 10
-3.5920117332
 20
8.4615598207
 10
-3.6021469573
 20
8.4642601612
  0
LWPOLYLINE
  5
4E1
100
AcDbEntity
  8
0
100
AcDbPolyline
 62
7
  6
CONTINUOUS
 90
3
 70
0
 10
1.4796501903
 20
9.827079249
 10
1.4715103495
 20
9.8343726812
 10
1.4636003885
 20
9.8419863355
  0
LINE
  5
4E2
100
AcDbEntity
  8
0
100
AcDbLine
 62
7
  6
CONTINUOUS
 10
1.4714925771
 20
9.8343882784
 11
1.4636003841
 21
9.8419863395
  0
LWPOLYLINE
  5
4E3
100
AcDbEntity
  8
0
100
AcDbPolyline
 62
7
  6
CONTINUOUS
 90
3
 70
0
 10
2.7754174445
 20
8.9695969041
 10
2.7829262441
 20
8.962089235
 10
2.7901480578
 20
8.9543490303
  0
LINE
  5
4E4
100
AcDbEntity
  8
0
100
AcDbLine
 62
7
  6
CONTINUOUS
 10
0.0609619495
 20
11.2447973641
 11
1.4636003841
 21
9.8419863395
  0
LINE
  5
4E5
100
AcDbEntity
  8
0
100
AcDbLine
 62
7
  6
CONTINUOUS
 10
0.0609619422
 20
11.2447973717
 11
0.0537293971
 21
11.2522899927
  0
LINE
  5
4E6
100
AcDbEntity
  8
0
100
AcDbLine
 62
7
  6
CONTINUOUS
 10
0.0537293971
 20
11.2522899927
 11
0.0466645949
 21
11.2601483429
  0
LINE
  5
4E7
100
AcDbEntity
  8
0
100
AcDbLine
 62
7
  6
CONTINUOUS
 10
2.7900453721
 20
8.9544630879
 11
2.7970711771
 21
8.9463833076
  0
LINE
  5
4E8
100
AcDbEntity
  8
0
100
AcDbLine
 62
7
  6
CONTINUOUS
 10
0.0467598734
 20
11.2600334141
 11
0.0399356865
 21
11.2681730557
  0
LINE
  5
4E9
100
AcDbEntity
  8
0
100
AcDbLine
 62
7
  6
CONTINUOUS
 10
1.9035664063
 20
10.251230808
 11
1.9105391879
 21
10.2428613846
  0
LINE
  5
4EA
100
AcDbEntity
  8
0
100
AcDbLine
 62
7
  6
CONTINUOUS
 10
2.7969335855
 20
8.9465438805
 11
2.8037073105
 21
8.9381850489
  0
LINE
  5
4EB
100
AcDbEntity
  8
0
100
AcDbLine
 62
7
  6
CONTINUOUS
 10
0.0400533712
 20
11.2680276331
 11
0.0334776777
 21
11.2764442779
  0
LINE
  5
4EC
100
AcDbEntity
  8
0
100
AcDbLine
 62
7
  6
CONTINUOUS
 10
2.8035661058
 20
8.9383659941
 11
2.8100366082
 21
8.9297880222
  0
LINE
  5
4ED
100
AcDbEntity
  8
0
100
AcDbLine
 62
7
  6
CONTINUOUS
 10
2.8099069679
 20
8.92996625
 11
2.8160577811
 21
8.9211943996
  0
LWPOLYLINE
  5
4EE
100
AcDbEntity
  8
0
100
AcDbPolyline
 62
7
  6
CONTINUOUS
 90
3
 70
0
 10
2.8159561745
 20
8.9213399616
 10
2.821713723
 20
8.9124918151
 10
2.8271436405
 20
8.9034726905
  0
LWPOLYLINE
  5
4EF
100
AcDbEntity
  8
0
100
AcDbPolyline
 62
7
  6
CONTINUOUS
 90
9
 70
0
 10
2.8271636373
 20
8.9034380999
 10
2.8322307798
 20
8.8943073705
 10
2.8369751043
 20
8.8850051231
 10
2.8413853043
 20
8.8755445172
 10
2.8454616346
 20
8.8659164942
 10
2.8492038403
 20
8.8561301125
 10
2.8525998504
 20
8.8462257068
 10
2.8556477194
 20
8.836204997
 10
2.8583493927
 20
8.8260662631
  0
LWPOLYLINE
  5
4F0
100
AcDbEntity
  8
0
100
AcDbPolyline
 62
7
  6
CONTINUOUS
 90
4
 70
0
 10
1.9428900877
 20
12.9988526204
 10
1.9477104945
 20
12.9891592712
 10
1.9521688582
 20
12.9793179797
 10
1.9562614066
 20
12.9693360901
  0
LWPOLYLINE
  5
4F1
100
AcDbEntity
  8
0
100
AcDbPolyline
 62
250
  6
CONTINUOUS
 90
16
 70
0
 10
10.9405711278
 20
-21.5186393844
 10
10.9409947317
 20
-21.5243726519
 10
10.9414238619
 20
-21.5297825285
 10
10.9418575913
 20
-21.5348573206
 10
10.9422959293
 20
-21.5395962987
 10
10.9427388665
 20
-21.5440001922
 10
10.9431854484
 20
-21.5480594958
 10
10.9436356843
 20
-21.5517734728
 10
10.9440895648
 20
-21.55514286
 10
10.944546107
 20
-21.5581603625
 10
10.94500533
 20
-21.5608252354
 10
10.9454672148
 20
-21.5631382237
 10
10.9459307216
 20
-21.5650942676
 10
10.9463955038
 20
-21.5666916805
 10
10.946861908
 20
-21.5679321491
 10
10.9473299342
 20
-21.5688156733
  0
LINE
  5
4F2
100
AcDbEntity
  8
0
100
AcDbLine
 62
250
  6
CONTINUOUS
 10
10.9397405226
 20
-21.5062012785
 11
10.9405711278
 21
-21.5186393844
  0
LINE
  5
4F3
100
AcDbEntity
  8
0
100
AcDbLine
 62
250
  6
CONTINUOUS
 10
10.9389347083
 20
-21.4925103107
 11
10.9397405226
 21
-21.5062012785
  0
LWPOLYLINE
  5
4F4
100
AcDbEntity
  8
0
100
AcDbPolyline
 62
250
  6
CONTINUOUS
 90
11
 70
0
 10
10.4430431965
 20
-22.0184929812
 10
10.4434897631
 20
-22.0266130882
 10
10.4439399926
 20
-22.0340437574
 10
10.4443938703
 20
-22.0407795976
 10
10.4448504018
 20
-22.0468157074
 10
10.4453095825
 20
-22.0521477176
 10
10.4457714172
 20
-22.0567718216
 10
10.4462349262
 20
-22.0606847196
 10
10.4466997833
 20
-22.0638835869
 10
10.4471663148
 20
-22.0663660945
 10
10.4476345207
 20
-22.0681304407
  0
LINE
  5
4F5
100
AcDbEntity
  8
0
100
AcDbLine
 62
250
  6
CONTINUOUS
 10
10.9381554245
 20
-21.4775960713
 11
10.9389347083
 21
-21.4925103107
  0
LINE
  5
4F6
100
AcDbEntity
  8
0
100
AcDbLine
 62
250
  6
CONTINUOUS
 10
10.4421619576
 20
-22.0002082871
 11
10.4430431965
 21
-22.0184929812
  0
LINE
  5
4F7
100
AcDbEntity
  8
0
100
AcDbLine
 62
250
  6
CONTINUOUS
 10
10.9374052364
 20
-21.4615053744
 11
10.9381554245
 21
-21.4775960713
  0
LINE
  5
4F8
100
AcDbEntity
  8
0
100
AcDbLine
 62
250
  6
CONTINUOUS
 10
10.9366865316
 20
-21.4442919136
 11
10.9374052364
 21
-21.4615053744
  0
LINE
  5
4F9
100
AcDbEntity
  8
0
100
AcDbLine
 62
250
  6
CONTINUOUS
 10
10.4412991248
 20
-21.9792422619
 11
10.4421619576
 21
-22.0002082871
  0
LINE
  5
4FA
100
AcDbEntity
  8
0
100
AcDbLine
 62
250
  6
CONTINUOUS
 10
10.4404574825
 20
-21.9556554298
 11
10.4412991248
 21
-21.9792422619
  0
LINE
  5
4FB
100
AcDbEntity
  8
0
100
AcDbLine
 62
250
  6
CONTINUOUS
 10
10.439239171
 20
-21.9155120239
 11
10.4404574825
 21
-21.9556554298
  0
LINE
  5
4FC
100
AcDbEntity
  8
0
100
AcDbLine
 62
250
  6
CONTINUOUS
 10
10.437709751
 20
-21.8535108573
 11
10.439239171
 21
-21.9155120239
  0
LWPOLYLINE
  5
4FD
100
AcDbEntity
  8
0
100
AcDbPolyline
 62
250
  6
CONTINUOUS
 90
3
 70
0
 10
10.4356550782
 20
-21.7438365831
 10
10.4359758421
 20
-21.7634097614
 10
10.437709751
 20
-21.8535108573
  0
LINE
  5
4FE
100
AcDbEntity
  8
0
100
AcDbLine
 62
250
  6
CONTINUOUS
 10
10.437346369
 20
21.814196609
 11
10.4356550782
 21
21.7214632455
  0
LINE
  5
4FF
100
AcDbEntity
  8
0
100
AcDbLine
 62
250
  6
CONTINUOUS
 10
10.4388459094
 20
21.8785255244
 11
10.437346369
 21
21.814196609
  0
LINE
  5
500
100
AcDbEntity
  8
0
100
AcDbLine
 62
250
  6
CONTINUOUS
 10
10.4400449576
 20
21.9205268433
 11
10.4388459094
 21
21.8785255244
  0
LINE
  5
501
100
AcDbEntity
  8
0
100
AcDbLine
 62
250
  6
CONTINUOUS
 10
10.440875534
 20
21.9453990303
 11
10.4400449576
 21
21.9205268433
  0
LINE
  5
502
100
AcDbEntity
  8
0
100
AcDbLine
 62
250
  6
CONTINUOUS
 10
10.4417282422
 20
21.9676835019
 11
10.440875534
 21
21.9453990303
  0
LINE
  5
503
100
AcDbEntity
  8
0
100
AcDbLine
 62
250
  6
CONTINUOUS
 10
10.9374052364
 20
21.4391320368
 11
10.9366865316
 21
21.421918576
  0
LINE
  5
504
100
AcDbEntity
  8
0
100
AcDbLine
 62
250
  6
CONTINUOUS
 10
10.9381554245
 20
21.4552227337
 11
10.9374052364
 21
21.4391320368
  0
LINE
  5
505
100
AcDbEntity
  8
0
100
AcDbLine
 62
250
  6
CONTINUOUS
 10
10.9389347083
 20
21.4701369731
 11
10.9381554245
 21
21.4552227337
  0
LINE
  5
506
100
AcDbEntity
  8
0
100
AcDbLine
 62
250
  6
CONTINUOUS
 10
10.9397405226
 20
21.4838279409
 11
10.9389347083
 21
21.4701369731
  0
LINE
  5
507
100
AcDbEntity
  8
0
100
AcDbLine
 62
7
  6
CONTINUOUS
 10
2.8319522767
 20
-14.9368168147
 11
2.8268731848
 21
-14.945952543
  0
LINE
  5
508
100
AcDbEntity
  8
0
100
AcDbLine
 62
7
  6
CONTINUOUS
 10
2.7944233363
 20
-9.6793688413
 11
2.7866225637
 21
-9.6880704313
  0
LINE
  5
509
100
AcDbEntity
  8
0
100
AcDbLine
 62
7
  6
CONTINUOUS
 10
2.7871567102
 20
-9.6874989903
 11
2.7793147708
 21
-9.6956289137
  0
LWPOLYLINE
  5
50A
100
AcDbEntity
  8
0
100
AcDbPolyline
 62
7
  6
CONTINUOUS
 90
16
 70
0
 10
1.751597039
 20
-10.4799407976
 10
1.7592751677
 20
-10.4722679175
 10
1.7672197221
 20
-10.4648792965
 10
1.7754391321
 20
-10.457768965
 10
1.7839249679
 20
-10.4509428967
 10
1.7926296467
 20
-10.4444405949
 10
1.8015453958
 20
-10.4382697267
 10
1.8106799878
 20
-10.4324226292
 10
1.8200091575
 20
-10.426915811
 10
1.8295411152
 20
-10.4217468773
 10
1.8392676506
 20
-10.4169182264
 10
1.8491398673
 20
-10.4124535573
 10
1.8591487117
 20
-10.4083587942
 10
1.8693032376
 20
-10.4046280158
 10
1.8795817102
 20
-10.4012671524
 10
1.8899912714
 20
-10.3982740714
  0
LINE
  5
50B
100
AcDbEntity
  8
0
100
AcDbLine
 62
7
  6
CONTINUOUS
 10
0.0591163886
 20
-11.8804382378
 11
0.0669118747
 21
-11.8727833651
  0
LINE
  5
50C
100
AcDbEntity
  8
0
100
AcDbLine
 62
7
  6
CONTINUOUS
 10
2.7795993946
 20
-9.6953534394
 11
2.7717523135
 21
-9.7029361865
  0
LINE
  5
50D
100
AcDbEntity
  8
0
100
AcDbLine
 62
7
  6
CONTINUOUS
 10
2.7717690839
 20
-9.7029152438
 11
2.7636468433
 21
-9.7102242739
  0
LINE
  5
50E
100
AcDbEntity
  8
0
100
AcDbLine
 62
7
  6
CONTINUOUS
 10
2.7639893756
 20
-9.7099266675
 11
2.7552852403
 21
-9.7172190344
  0
LWPOLYLINE
  5
50F
100
AcDbEntity
  8
0
100
AcDbPolyline
 62
7
  6
CONTINUOUS
 90
17
 70
0
 10
2.7559717732
 20
-9.7166659417
 10
2.7466652481
 20
-9.7239191381
 10
2.7378114743
 20
-9.7302976336
 10
2.7287179777
 20
-9.7363545233
 10
2.7193906995
 20
-9.7420898077
 10
2.7098720708
 20
-9.747476533
 10
2.7001622554
 20
-9.7525122827
 10
2.6902610894
 20
-9.757199476
 10
2.6802105126
 20
-9.7615184131
 10
2.6700125927
 20
-9.7654660336
 10
2.6596652619
 20
-9.7690454001
 10
2.6492042563
 20
-9.7722459982
 10
2.6386295032
 20
-9.7750686954
 10
2.6279410752
 20
-9.7775126259
 10
2.6171749267
 20
-9.7795646751
 10
2.6063207465
 20
-9.7812222934
 10
2.5953888457
 20
-9.7824880314
  0
LWPOLYLINE
  5
510
100
AcDbEntity
  8
0
100
AcDbPolyline
 62
7
  6
CONTINUOUS
 90
17
 70
0
 10
2.7477511902
 20
-9.7231047669
 10
2.7393351408
 20
-9.7292355803
 10
2.7307161109
 20
-9.7350659473
 10
2.7219064711
 20
-9.7405902611
 10
2.7128954631
 20
-9.745814444
 10
2.7036938453
 20
-9.750732576
 10
2.6943462636
 20
-9.7553212863
 10
2.6848609237
 20
-9.7595747709
 10
2.6752296199
 20
-9.763498836
 10
2.6654723818
 20
-9.7670875265
 10
2.6555824247
 20
-9.7703434797
 10
2.6455665332
 20
-9.7732640599
 10
2.6354650918
 20
-9.7758354022
 10
2.6252820603
 20
-9.7780556159
 10
2.6150134787
 20
-9.779926593
 10
2.604687851
 20
-9.7814401425
 10
2.5942901537
 20
-9.7825943351
  0
LINE
  5
511
100
AcDbEntity
  8
0
100
AcDbLine
 62
7
  6
CONTINUOUS
 10
0.109536982
 20
-11.839143038
 11
0.118701769
 21
-11.8333898052
  0
LINE
  5
512
100
AcDbEntity
  8
0
100
AcDbLine
 62
250
  6
CONTINUOUS
 10
-11.0144359381
 20
9.482303339
 11
-11.0023652956
 21
9.4828742762
  0
LINE
  5
513
100
AcDbEntity
  8
0
100
AcDbLine
 62
250
  6
CONTINUOUS
 10
-11.0023652956
 20
9.4828742762
 11
-10.9884246
 21
9.4834306347
  0
LINE
  5
514
100
AcDbEntity
  8
0
100
AcDbLine
 62
250
  6
CONTINUOUS
 10
-10.9884246
 20
9.4834306347
 11
-10.9726709253
 21
9.4839701367
  0
LINE
  5
515
100
AcDbEntity
  8
0
100
AcDbLine
 62
250
  6
CONTINUOUS
 10
-10.9726709253
 20
9.4839701367
 11
-10.9457841281
 21
9.4847429734
  0
LINE
  5
516
100
AcDbEntity
  8
0
100
AcDbLine
 62
250
  6
CONTINUOUS
 10
-10.9457841281
 20
9.4847429734
 11
-10.9042508109
 21
9.4856944885
  0
LINE
  5
517
100
AcDbEntity
  8
0
100
AcDbLine
 62
250
  6
CONTINUOUS
 10
-10.9042508109
 20
9.4856944885
 11
-10.8441719893
 21
9.486735416
  0
LINE
  5
518
100
AcDbEntity
  8
0
100
AcDbLine
 62
250
  6
CONTINUOUS
 10
-10.8441719893
 20
9.486735416
 11
-10.7764668353
 21
9.4875867687
  0
LINE
  5
519
100
AcDbEntity
  8
0
100
AcDbLine
 62
250
  6
CONTINUOUS
 10
-10.7764668353
 20
9.4875867687
 11
-10.7028646726
 21
9.4882268015
  0
LINE
  5
51A
100
AcDbEntity
  8
0
100
AcDbLine
 62
250
  6
CONTINUOUS
 10
-10.7028646726
 20
9.4882268015
 11
-10.6252454465
 21
9.4886391665
  0
LINE
  5
51B
100
AcDbEntity
  8
0
100
AcDbLine
 62
250
  6
CONTINUOUS
 10
-10.6252454465
 20
9.4886391665
 11
-10.5455917059
 21
9.4888133312
  0
LINE
  5
51C
100
AcDbEntity
  8
0
100
AcDbLine
 62
7
  6
CONTINUOUS
 10
-3.2185794147
 20
9.0539277446
 11
2.5666356324
 21
9.0539277446
  0
LINE
  5
51D
100
AcDbEntity
  8
0
100
AcDbLine
 62
250
  6
CONTINUOUS
 10
10.4923250746
 20
9.4885754988
 11
-10.5455917059
 21
9.4888133312
  0
LINE
  5
51E
100
AcDbEntity
  8
0
100
AcDbLine
 62
250
  6
CONTINUOUS
 10
10.5989597125
 20
9.4878691818
 11
10.4923250746
 21
9.4885754988
  0
LINE
  5
51F
100
AcDbEntity
  8
0
100
AcDbLine
 62
250
  6
CONTINUOUS
 10
10.6825167705
 20
9.486921622
 11
10.5989597125
 21
9.4878691818
  0
LWPOLYLINE
  5
520
100
AcDbEntity
  8
0
100
AcDbPolyline
 62
7
  6
CONTINUOUS
 90
3
 70
0
 10
2.5666356324
 20
9.0539277446
 10
2.5770749841
 20
9.0537434573
 10
2.5875031048
 20
9.0531950645
  0
LINE
  5
521
100
AcDbEntity
  8
0
100
AcDbLine
 62
250
  6
CONTINUOUS
 10
10.7442504536
 20
9.4859166284
 11
10.6825167705
 21
9.486921622
  0
LINE
  5
522
100
AcDbEntity
  8
0
100
AcDbLine
 62
250
  6
CONTINUOUS
 10
10.7873182873
 20
9.4849898146
 11
10.7442504536
 21
9.4859166284
  0
LINE
  5
523
100
AcDbEntity
  8
0
100
AcDbLine
 62
250
  6
CONTINUOUS
 10
10.8154625983
 20
9.4842328734
 11
10.7873182873
 21
9.4849898146
  0
LINE
  5
524
100
AcDbEntity
  8
0
100
AcDbLine
 62
250
  6
CONTINUOUS
 10
10.8320990304
 20
9.4837026325
 11
10.8154625983
 21
9.4842328734
  0
LINE
  5
525
100
AcDbEntity
  8
0
100
AcDbLine
 62
250
  6
CONTINUOUS
 10
10.8469538195
 20
9.4831544216
 11
10.8320990304
 21
9.4837026325
  0
LINE
  5
526
100
AcDbEntity
  8
0
100
AcDbLine
 62
7
  6
CONTINUOUS
 10
2.5875031048
 20
9.0531950645
 11
2.5980742964
 21
9.0522662981
  0
LINE
  5
527
100
AcDbEntity
  8
0
100
AcDbLine
 62
7
  6
CONTINUOUS
 10
2.5979199945
 20
9.0522825664
 11
2.6084996919
 21
9.0509835894
  0
LWPOLYLINE
  5
528
100
AcDbEntity
  8
0
100
AcDbPolyline
 62
7
  6
CONTINUOUS
 90
7
 70
0
 10
2.6083479532
 20
9.0510030179
 10
2.6187646808
 20
9.0493593638
 10
2.6291032778
 20
9.047360439
 10
2.6393599881
 20
9.0450046832
 10
2.6495385677
 20
9.0422936565
 10
2.6595833853
 20
9.0392408741
 10
2.6694770754
 20
9.035851936
  0
LINE
  5
529
100
AcDbEntity
  8
0
100
AcDbLine
 62
7
  6
CONTINUOUS
 10
1.6247128141
 20
9.7583587252
 11
1.6140649867
 21
9.7603918874
  0
LWPOLYLINE
  5
52A
100
AcDbEntity
  8
0
100
AcDbPolyline
 62
7
  6
CONTINUOUS
 90
3
 70
0
 10
1.6140917247
 20
9.7603863495
 10
1.6035549087
 20
9.7627913533
 10
1.5931318568
 20
9.7655664824
  0
LINE
  5
52B
100
AcDbEntity
  8
0
100
AcDbLine
 62
7
  6
CONTINUOUS
 10
1.59309369
 20
9.7655775654
 11
1.5827702207
 21
9.7687300797
  0
LWPOLYLINE
  5
52C
100
AcDbEntity
  8
0
100
AcDbPolyline
 62
7
  6
CONTINUOUS
 90
12
 70
0
 10
1.5828167197
 20
9.7687148369
 10
1.5726297154
 20
9.7722363162
 10
1.562564948
 20
9.7761367016
 10
1.5526283134
 20
9.7804102097
 10
1.5428577165
 20
9.7850393921
 10
1.5332569955
 20
9.790024191
 10
1.5238223123
 20
9.7953646616
 10
1.5145800573
 20
9.8010435261
 10
1.50552495
 20
9.8070625058
 10
1.496662271
 20
9.8134198764
 10
1.4880342521
 20
9.8200931908
 10
1.4796549707
 20
9.8270749657
  0
LWPOLYLINE
  5
52D
100
AcDbEntity
  8
0
100
AcDbPolyline
 62
7
  6
CONTINUOUS
 90
4
 70
0
 10
2.6694703676
 20
9.0358512118
 10
2.6792551534
 20
9.032110457
 10
2.6888816235
 20
9.0280357275
 10
2.6983405188
 20
9.023627338
  0
LINE
  5
52E
100
AcDbEntity
  8
0
100
AcDbLine
 62
7
  6
CONTINUOUS
 10
2.6983553192
 20
9.0236177379
 11
2.7077137069
 21
9.0188449275
  0
LINE
  5
52F
100
AcDbEntity
  8
0
100
AcDbLine
 62
7
  6
CONTINUOUS
 10
2.7076410983
 20
9.0188849735
 11
2.7169002113
 21
9.0137447674
  0
LINE
  5
530
100
AcDbEntity
  8
0
100
AcDbLine
 62
7
  6
CONTINUOUS
 10
2.7167703487
 20
9.013819855
 11
2.7259202659
 21
9.0083110445
  0
LINE
  5
531
100
AcDbEntity
  8
0
100
AcDbLine
 62
7
  6
CONTINUOUS
 10
2.7257330166
 20
9.0084304088
 11
2.7347684372
 21
9.0025499715
  0
LINE
  5
532
100
AcDbEntity
  8
0
100
AcDbLine
 62
7
  6
CONTINUOUS
 10
2.7345243553
 20
9.0027182083
 11
2.7433938387
 21
8.9964978793
  0
LINE
  5
533
100
AcDbEntity
  8
0
100
AcDbLine
 62
7
  6
CONTINUOUS
 10
2.7431171117
 20
8.9966991948
 11
2.7517913947
 21
8.9901551554
  0
LINE
  5
534
100
AcDbEntity
  8
0
100
AcDbLine
 62
7
  6
CONTINUOUS
 10
2.7515133443
 20
8.9903721963
 11
2.7599661809
 21
8.9835214119
  0
LINE
  5
535
100
AcDbEntity
  8
0
100
AcDbLine
 62
7
  6
CONTINUOUS
 10
2.7597109946
 20
8.9837383846
 11
2.7678825376
 21
8.9766318168
  0
LINE
  5
536
100
AcDbEntity
  8
0
100
AcDbLine
 62
7
  6
CONTINUOUS
 10
2.7676766339
 20
8.9768172166
 11
2.7755276664
 21
8.9694990347
  0
LINE
  5
537
100
AcDbEntity
  8
0
100
AcDbLine
 62
7
  6
CONTINUOUS
 10
0.9993463173
 20
11.1564184875
 11
1.8886820498
 21
10.2672553411
  0
LWPOLYLINE
  5
538
100
AcDbEntity
  8
0
100
AcDbPolyline
 62
7
  6
CONTINUOUS
 90
3
 70
0
 10
1.8886820498
 20
10.2672553411
 10
1.8962806936
 20
10.2593621263
 10
1.9035619854
 20
10.2512357421
  0
LWPOLYLINE
  5
539
100
AcDbEntity
  8
0
100
AcDbPolyline
 62
7
  6
CONTINUOUS
 90
40
 70
0
 10
1.8886820351
 20
10.2672553568
 10
1.8962663548
 20
10.2593784225
 10
1.9035404927
 20
10.2512615337
 10
1.9105044488
 20
10.2429046884
 10
1.9171664277
 20
10.2342937733
 10
1.9235182249
 20
10.2254428982
 10
1.9295352262
 20
10.2163943964
 10
1.9352155236
 20
10.2071535981
 10
1.9405610251
 20
10.19771517
 10
1.9455528413
 20
10.1881054512
 10
1.9501913547
 20
10.1783192883
 10
1.9544761827
 20
10.1683618319
 10
1.9583872883
 20
10.1582748785
 10
1.9619182117
 20
10.1480649643
 10
1.9650754127
 20
10.1377255509
 10
1.9678582336
 20
10.1272788235
 10
1.9702694605
 20
10.1167191546
 10
1.9723063073
 20
10.1060521698
 10
1.9739597574
 20
10.0953169347
 10
1.9752301586
 20
10.0845121183
 10
1.9761171632
 20
10.0736390505
 10
1.9766107119
 20
10.062740789
 10
1.9767067457
 20
10.0518057959
 10
1.9764093236
 20
10.0408456088
 10
1.9757205639
 20
10.0299379
 10
1.9746380836
 20
10.0190980569
 10
1.9731642656
 20
10.0083106934
 10
1.9713083777
 20
9.9976073227
 10
1.9690689131
 20
9.9869834046
 10
1.9664473785
 20
9.9764434809
 10
1.9634575621
 20
9.9660326882
 10
1.9601019302
 20
9.9557593975
 10
1.9563780163
 20
9.9456152404
 10
1.9522922094
 20
9.935620245
 10
1.9478392883
 20
9.9257660124
 10
1.943024474
 20
9.9160609441
 10
1.9378698182
 20
9.9065502701
 10
1.9323781356
 20
9.897241623
 10
1.9265466114
 20
9.8881273732
 10
1.920388853
 20
9.8792298576
  0
LWPOLYLINE
  5
53A
100
AcDbEntity
  8
0
100
AcDbPolyline
 62
7
  6
CONTINUOUS
 90
10
 70
0
 10
3.6196057474
 20
11.6256225362
 10
3.6255291078
 20
11.6165421942
 10
3.6311226363
 20
11.6072525829
 10
3.6363641099
 20
11.5977963102
 10
3.6412487335
 20
11.5881825772
 10
3.6457813023
 20
11.5784021787
 10
3.6499539788
 20
11.5684701139
 10
3.6537693727
 20
11.5583777285
 10
3.6572248742
 20
11.5481336727
 10
3.6603048164
 20
11.5377789036
  0
LINE
  5
53B
100
AcDbEntity
  8
0
100
AcDbLine
 62
250
  6
CONTINUOUS
 10
10.9356712702
 20
-21.4164578793
 11
10.9366865316
 21
-21.4442919136
  0
LINE
  5
53C
100
AcDbEntity
  8
0
100
AcDbLine
 62
250
  6
CONTINUOUS
 10
10.9347374923
 20
-21.386376068
 11
10.9356712702
 21
-21.4164578793
  0
LINE
  5
53D
100
AcDbEntity
  8
0
100
AcDbLine
 62
250
  6
CONTINUOUS
 10
10.9336294504
 20
-21.3431039263
 11
10.9347374923
 21
-21.386376068
  0
LWPOLYLINE
  5
53E
100
AcDbEntity
  8
0
100
AcDbPolyline
 62
250
  6
CONTINUOUS
 90
40
 70
0
 10
10.8934710648
 20
-0.3566643233
 10
10.8933065754
 20
-0.3486130009
 10
10.8928182751
 20
-0.3405747328
 10
10.8920069558
 20
-0.3325625519
 10
10.8908739329
 20
-0.324589449
 10
10.8894210433
 20
-0.3166683516
 10
10.8876506429
 20
-0.3088121027
 10
10.885565602
 20
-0.3010334402
 10
10.8831693013
 20
-0.2933449763
 10
10.8804656262
 20
-0.2857591769
 10
10.8774589604
 20
-0.2782883413
 10
10.8741541786
 20
-0.2709445827
 10
10.8705566393
 20
-0.263739808
 10
10.8666721755
 20
-0.2566856988
 10
10.8625070852
 20
-0.2497936926
 10
10.8580681218
 20
-0.2430749638
 10
10.8533624823
 20
-0.236540406
 10
10.8483977965
 20
-0.2302006142
 10
10.843182114
 20
-0.2240658676
 10
10.8377238913
 20
-0.2181461128
 10
10.8320319783
 20
-0.212450948
 10
10.8261156037
 20
-0.2069896073
 10
10.8199843603
 20
-0.2017709454
 10
10.8136481889
 20
-0.1968034238
 10
10.807117363
 20
-0.1920950967
 10
10.8004024715
 20
-0.187653598
 10
10.7935144018
 20
-0.1834861291
 10
10.7864643219
 20
-0.1795994469
 10
10.7792636627
 20
-0.1759998533
 10
10.7719240993
 20
-0.1726931846
 10
10.7644575317
 20
-0.1696848019
 10
10.756876066
 20
-0.1669795832
 10
10.7491919948
 20
-0.1645819144
 10
10.7414177767
 20
-0.1624956832
 10
10.7335660166
 20
-0.1607242721
 10
10.7256494452
 20
-0.1592705531
 10
10.7176808982
 20
-0.1581368834
 10
10.7096732957
 20
-0.157325101
 10
10.7016396209
 20
-0.156836522
 10
10.6935928994
 20
-0.1566719387
  0
LINE
  5
53F
100
AcDbEntity
  8
0
100
AcDbLine
 62
250
  6
CONTINUOUS
 10
10.932689882
 20
-21.2966904266
 11
10.9336294504
 21
-21.3431039263
  0
LWPOLYLINE
  5
540
100
AcDbEntity
  8
0
100
AcDbPolyline
 62
250
  6
CONTINUOUS
 90
49
 70
0
 10
10.9473299342
 20
21.5464423357
 10
10.947033185
 20
21.5627604934
 10
10.9462029101
 20
21.5790612179
 10
10.9448399965
 20
21.5953270944
 10
10.9429459002
 20
21.6115407456
 10
10.9405226447
 20
21.6276848499
 10
10.937572819
 20
21.6437421598
 10
10.9340995743
 20
21.6596955209
 10
10.9301066214
 20
21.6755278895
 10
10.9255982259
 20
21.6912223513
 10
10.9205792044
 20
21.7067621395
 10
10.915054919
 20
21.7221306522
 10
10.9090312713
 20
21.7373114707
 10
10.9025146966
 20
21.7522883769
 10
10.8955121569
 20
21.7670453702
 10
10.8880311332
 20
21.7815666854
 10
10.8800796178
 20
21.7958368087
 10
10.8716661055
 20
21.8098404949
 10
10.8627995847
 20
21.8235627832
 10
10.8534895281
 20
21.8369890138
 10
10.8437458817
 20
21.8501048427
 10
10.833579055
 20
21.862896258
 10
10.8229999098
 20
21.8753495941
 10
10.8120197479
 20
21.8874515466
 10
10.8006503001
 20
21.8991891866
 10
10.7889037126
 20
21.9105499743
 10
10.7767925347
 20
21.9215217725
 10
10.7643297053
 20
21.9320928598
 10
10.7515285388
 20
21.9422519426
 10
10.7384027113
 20
21.9519881675
 10
10.7249662454
 20
21.9612911331
 10
10.711233496
 20
21.9701509006
 10
10.697219134
 20
21.9785580048
 10
10.6829381317
 20
21.9865034641
 10
10.668405746
 20
21.99397879
 10
10.6536375022
 20
22.0009759964
 10
10.638649178
 20
22.0074876079
 10
10.6234567857
 20
22.013506668
 10
10.6080765561
 20
22.0190267461
 10
10.5925249204
 20
22.0240419451
 10
10.5768184929
 20
22.0285469071
 10
10.5609740535
 20
22.032536819
 10
10.5450085293
 20
22.0360074185
 10
10.5289389769
 20
22.0389549978
 10
10.5127825639
 20
22.0413764078
 10
10.4965565509
 20
22.0432690616
 10
10.4802782727
 20
22.0446309373
 10
10.46396512
 20
22.0454605799
 10
10.4476345207
 20
22.0457571031
  0
LINE
  5
541
100
AcDbEntity
  8
0
100
AcDbLine
 62
250
  6
CONTINUOUS
 10
10.9319294151
 20
-21.2476620214
 11
10.932689882
 21
-21.2966904266
  0
LINE
  5
542
100
AcDbEntity
  8
0
100
AcDbLine
 62
250
  6
CONTINUOUS
 10
10.4339340808
 20
-21.6167169193
 11
10.4356550782
 21
-21.7438365831
  0
LINE
  5
543
100
AcDbEntity
  8
0
100
AcDbLine
 62
250
  6
CONTINUOUS
 10
10.9312436858
 20
-21.1835551918
 11
10.9319294151
 21
-21.2476620214
  0
LINE
  5
544
100
AcDbEntity
  8
0
100
AcDbLine
 62
250
  6
CONTINUOUS
 10
10.4322340692
 20
-21.4258283958
 11
10.4339340808
 21
-21.6167169193
  0
LINE
  5
545
100
AcDbEntity
  8
0
100
AcDbLine
 62
250
  6
CONTINUOUS
 10
10.9281395385
 20
-20.5932016973
 11
10.9312436858
 21
-21.1835551918
  0
LINE
  5
546
100
AcDbEntity
  8
0
100
AcDbLine
 62
250
  6
CONTINUOUS
 10
10.4257250959
 20
-20.1103211246
 11
10.431283065
 21
-21.2185830884
  0
LINE
  5
547
100
AcDbEntity
  8
0
100
AcDbLine
 62
250
  6
CONTINUOUS
 10
10.9228213996
 20
-19.4901644258
 11
10.9281395385
 21
-20.5932016973
  0
LINE
  5
548
100
AcDbEntity
  8
0
100
AcDbLine
 62
250
  6
CONTINUOUS
 10
10.4206466928
 20
-19.0001547439
 11
10.4257250959
 21
-20.1103211246
  0
LINE
  5
549
100
AcDbEntity
  8
0
100
AcDbLine
 62
250
  6
CONTINUOUS
 10
10.9179827328
 20
-18.3852754245
 11
10.9228213996
 21
-19.4901644258
  0
LINE
  5
54A
100
AcDbEntity
  8
0
100
AcDbLine
 62
250
  6
CONTINUOUS
 10
10.4160481291
 20
-17.8882557684
 11
10.4206466928
 21
-19.0001547439
  0
LINE
  5
54B
100
AcDbEntity
  8
0
100
AcDbLine
 62
250
  6
CONTINUOUS
 10
10.9136245569
 20
-17.2787702737
 11
10.9179827328
 21
-18.3852754245
  0
LINE
  5
54C
100
AcDbEntity
  8
0
100
AcDbLine
 62
250
  6
CONTINUOUS
 10
10.4119303436
 20
-16.7747962007
 11
10.4160481291
 21
-17.8882557684
  0
LINE
  5
54D
100
AcDbEntity
  8
0
100
AcDbLine
 62
250
  6
CONTINUOUS
 10
10.9097473773
 20
-16.1707775007
 11
10.9136245569
 21
-17.2787702737
  0
LINE
  5
54E
100
AcDbEntity
  8
0
100
AcDbLine
 62
250
  6
CONTINUOUS
 10
10.4082940173
 20
-15.6599483571
 11
10.4119303436
 21
-16.7747962007
  0
LINE
  5
54F
100
AcDbEntity
  8
0
100
AcDbLine
 62
250
  6
CONTINUOUS
 10
10.9063519025
 20
-15.06148988
 11
10.9097473773
 21
-16.1707775007
  0
LINE
  5
550
100
AcDbEntity
  8
0
100
AcDbLine
 62
7
  6
CONTINUOUS
 10
11.0493569433
 20
21.6995606389
 11
11.0756642526
 21
13.0888133312
  0
LINE
  5
551
100
AcDbEntity
  8
0
100
AcDbLine
 62
250
  6
CONTINUOUS
 10
10.431283065
 20
-21.2185830884
 11
10.4322340692
 21
-21.4258283958
  0
LINE
  5
552
100
AcDbEntity
  8
0
100
AcDbLine
 62
250
  6
CONTINUOUS
 10
10.4051395713
 20
-14.5438847539
 11
10.4082940173
 21
-15.6599483571
  0
LINE
  5
553
100
AcDbEntity
  8
0
100
AcDbLine
 62
250
  6
CONTINUOUS
 10
10.9034386876
 20
-13.9511005436
 11
10.9063519025
 21
-15.06148988
  0
LINE
  5
554
100
AcDbEntity
  8
0
100
AcDbLine
 62
250
  6
CONTINUOUS
 10
10.4024675885
 20
-13.4267780153
 11
10.4051395713
 21
-14.5438847539
  0
LINE
  5
555
100
AcDbEntity
  8
0
100
AcDbLine
 62
250
  6
CONTINUOUS
 10
10.90100807
 20
-12.8397383386
 11
10.9034386876
 21
-13.9511005436
  0
LINE
  5
556
100
AcDbEntity
  8
0
100
AcDbLine
 62
250
  6
CONTINUOUS
 10
10.4002784982
 20
-12.3088010229
 11
10.4024675885
 21
-13.4267780153
  0
LINE
  5
557
100
AcDbEntity
  8
0
100
AcDbLine
 62
250
  6
CONTINUOUS
 10
10.8990605068
 20
-11.7275965835
 11
10.90100807
 21
-12.8397383386
  0
LINE
  5
558
100
AcDbEntity
  8
0
100
AcDbLine
 62
250
  6
CONTINUOUS
 10
10.3985725541
 20
-11.1901267817
 11
10.4002784982
 21
-12.3088010229
  0
LINE
  5
559
100
AcDbEntity
  8
0
100
AcDbLine
 62
250
  6
CONTINUOUS
 10
10.897596323
 20
-10.6148911242
 11
10.8990605068
 21
-11.7275965835
  0
LINE
  5
55A
100
AcDbEntity
  8
0
100
AcDbLine
 62
250
  6
CONTINUOUS
 10
10.3973501298
 20
-10.0709283288
 11
10.3985725541
 21
-11.1901267817
  0
LINE
  5
55B
100
AcDbEntity
  8
0
100
AcDbLine
 62
250
  6
CONTINUOUS
 10
10.8966156247
 20
-9.5016866688
 11
10.897596323
 21
-10.6148911242
  0
LWPOLYLINE
  5
55C
100
AcDbEntity
  8
0
100
AcDbPolyline
 62
250
  6
CONTINUOUS
 90
3
 70
0
 10
10.3957163751
 20
-7.4775921366
 10
10.3962822177
 20
-8.4944044268
 10
10.3973501298
 20
-10.0709283288
  0
LWPOLYLINE
  5
55D
100
AcDbEntity
  8
0
100
AcDbPolyline
 62
250
  6
CONTINUOUS
 90
3
 70
0
 10
10.8954115196
 20
-7.4696043456
 10
10.8959774784
 20
-8.48565632
 10
10.8966156247
 20
-9.5016866688
  0
LINE
  5
55E
100
AcDbEntity
  8
0
100
AcDbLine
 62
250
  6
CONTINUOUS
 10
10.3948012453
 20
-5.4438974917
 11
10.3957163751
 21
-7.4775921366
  0
LINE
  5
55F
100
AcDbEntity
  8
0
100
AcDbLine
 62
250
  6
CONTINUOUS
 10
10.8944961604
 20
-5.4374344347
 11
10.8954115196
 21
-7.4696043456
  0
LINE
  5
560
100
AcDbEntity
  8
0
100
AcDbLine
 62
250
  6
CONTINUOUS
 10
10.3941745127
 20
-3.4101266265
 11
10.3948012453
 21
-5.4438974917
  0
LINE
  5
561
100
AcDbEntity
  8
0
100
AcDbLine
 62
250
  6
CONTINUOUS
 10
10.3938349411
 20
-1.3762741466
 11
10.3941745127
 21
-3.4101266265
  0
LINE
  5
562
100
AcDbEntity
  8
0
100
AcDbLine
 62
250
  6
CONTINUOUS
 10
10.893869559
 20
-3.4051801911
 11
10.8944961604
 21
-5.4374344347
  0
LINE
  5
563
100
AcDbEntity
  8
0
100
AcDbLine
 62
250
  6
CONTINUOUS
 10
10.3938349411
 20
-1.3762741466
 11
10.3937757074
 21
-0.1591986154
  0
LWPOLYLINE
  5
564
100
AcDbEntity
  8
0
100
AcDbPolyline
 62
250
  6
CONTINUOUS
 90
3
 70
0
 10
10.8934711651
 20
-0.3566642983
 10
10.8935317635
 20
-1.3728546335
 10
10.893869559
 20
-3.4051801911
  0
LINE
  5
565
100
AcDbEntity
  8
0
100
AcDbLine
 62
7
  6
CONTINUOUS
 10
11.0756642526
 20
-0.3111333718
 11
11.0756642526
 21
-13.1111866688
  0
LINE
  5
566
100
AcDbEntity
  8
0
100
AcDbLine
 62
7
  6
CONTINUOUS
 10
11.0756642526
 20
0.2887600342
 11
11.0756642526
 21
13.0888133312
  0
LINE
  5
567
100
AcDbEntity
  8
0
100
AcDbLine
 62
250
  6
CONTINUOUS
 10
10.3938349411
 20
1.353900809
 11
10.3937757074
 21
0.1368252778
  0
LINE
  5
568
100
AcDbEntity
  8
0
100
AcDbLine
 62
250
  6
CONTINUOUS
 10
10.8935317635
 20
1.3504812959
 11
10.893471165
 21
0.3342909607
  0
LINE
  5
569
100
AcDbEntity
  8
0
100
AcDbLine
 62
250
  6
CONTINUOUS
 10
10.3944519582
 20
4.404650213
 11
10.3938349411
 21
1.353900809
  0
LINE
  5
56A
100
AcDbEntity
  8
0
100
AcDbLine
 62
250
  6
CONTINUOUS
 10
10.8941467599
 20
4.3989431608
 11
10.8935317635
 21
1.3504812959
  0
LINE
  5
56B
100
AcDbEntity
  8
0
100
AcDbLine
 62
250
  6
CONTINUOUS
 10
10.3952226833
 20
6.4383806671
 11
10.3944519582
 21
4.404650213
  0
LINE
  5
56C
100
AcDbEntity
  8
0
100
AcDbLine
 62
250
  6
CONTINUOUS
 10
10.8949177483
 20
6.4311574079
 11
10.8941467599
 21
4.3989431608
  0
LINE
  5
56D
100
AcDbEntity
  8
0
100
AcDbLine
 62
250
  6
CONTINUOUS
 10
10.3969202112
 20
9.4888133312
 11
10.3952226833
 21
6.4383806671
  0
LINE
  5
56E
100
AcDbEntity
  8
0
100
AcDbLine
 62
250
  6
CONTINUOUS
 10
10.8966156247
 20
9.4793133312
 11
10.8949177483
 21
6.4311574079
  0
LINE
  5
56F
100
AcDbEntity
  8
0
100
AcDbLine
 62
250
  6
CONTINUOUS
 10
10.3979009108
 20
10.6082089149
 11
10.3969202112
 21
9.4888133312
  0
LINE
  5
570
100
AcDbEntity
  8
0
100
AcDbLine
 62
250
  6
CONTINUOUS
 10
10.897596323
 20
10.5925177867
 11
10.8966156247
 21
9.4793133312
  0
LINE
  5
571
100
AcDbEntity
  8
0
100
AcDbLine
 62
250
  6
CONTINUOUS
 10
10.399365095
 20
11.7271669135
 11
10.3979009108
 21
10.6082089149
  0
LINE
  5
572
100
AcDbEntity
  8
0
100
AcDbLine
 62
250
  6
CONTINUOUS
 10
10.8990605068
 20
11.7052232459
 11
10.897596323
 21
10.5925177867
  0
LINE
  5
573
100
AcDbEntity
  8
0
100
AcDbLine
 62
250
  6
CONTINUOUS
 10
10.401312658
 20
12.8455141507
 11
10.399365095
 21
11.7271669135
  0
LINE
  5
574
100
AcDbEntity
  8
0
100
AcDbLine
 62
250
  6
CONTINUOUS
 10
10.90100807
 20
12.817365001
 11
10.8990605068
 21
11.7052232459
  0
LINE
  5
575
100
AcDbEntity
  8
0
100
AcDbLine
 62
250
  6
CONTINUOUS
 10
10.4037432755
 20
13.9630776329
 11
10.401312658
 21
12.8455141507
  0
LINE
  5
576
100
AcDbEntity
  8
0
100
AcDbLine
 62
250
  6
CONTINUOUS
 10
10.9034386876
 20
13.928727206
 11
10.90100807
 21
12.817365001
  0
LINE
  5
577
100
AcDbEntity
  8
0
100
AcDbLine
 62
250
  6
CONTINUOUS
 10
10.4066564899
 20
15.07968441
 11
10.4037432755
 21
13.9630776329
  0
LINE
  5
578
100
AcDbEntity
  8
0
100
AcDbLine
 62
250
  6
CONTINUOUS
 10
10.9063519025
 20
15.0391165424
 11
10.9034386876
 21
13.928727206
  0
LINE
  5
579
100
AcDbEntity
  8
0
100
AcDbLine
 62
250
  6
CONTINUOUS
 10
10.4100519639
 20
16.1951616946
 11
10.4066564899
 21
15.07968441
  0
LINE
  5
57A
100
AcDbEntity
  8
0
100
AcDbLine
 62
250
  6
CONTINUOUS
 10
10.9097473773
 20
16.1484041631
 11
10.9063519025
 21
15.0391165424
  0
LINE
  5
57B
100
AcDbEntity
  8
0
100
AcDbLine
 62
7
  6
CONTINUOUS
 10
11.0493569433
 20
-21.7219339765
 11
11.0756642526
 21
-13.1111866688
  0
LINE
  5
57C
100
AcDbEntity
  8
0
100
AcDbLine
 62
250
  6
CONTINUOUS
 10
10.4139291425
 20
17.3093369525
 11
10.4100519639
 21
16.1951616946
  0
LINE
  5
57D
100
AcDbEntity
  8
0
100
AcDbLine
 62
250
  6
CONTINUOUS
 10
10.9136245569
 20
17.2563969361
 11
10.9097473773
 21
16.1484041631
  0
LINE
  5
57E
100
AcDbEntity
  8
0
100
AcDbLine
 62
250
  6
CONTINUOUS
 10
10.4182873171
 20
18.4220377551
 11
10.4139291425
 21
17.3093369525
  0
LINE
  5
57F
100
AcDbEntity
  8
0
100
AcDbLine
 62
250
  6
CONTINUOUS
 10
10.9179827328
 20
18.3629020869
 11
10.9136245569
 21
17.2563969361
  0
LINE
  5
580
100
AcDbEntity
  8
0
100
AcDbLine
 62
250
  6
CONTINUOUS
 10
10.4231259827
 20
19.5330919102
 11
10.4182873171
 21
18.4220377551
  0
LINE
  5
581
100
AcDbEntity
  8
0
100
AcDbLine
 62
250
  6
CONTINUOUS
 10
10.9228213996
 20
19.4677910882
 11
10.9179827328
 21
18.3629020869
  0
LINE
  5
582
100
AcDbEntity
  8
0
100
AcDbLine
 62
250
  6
CONTINUOUS
 10
10.9281395385
 20
20.5708283597
 11
10.9228213996
 21
19.4677910882
  0
LWPOLYLINE
  5
583
100
AcDbEntity
  8
0
100
AcDbPolyline
 62
250
  6
CONTINUOUS
 90
3
 70
0
 10
10.431283065
 20
21.1962097508
 10
10.4284441233
 20
20.6423275522
 10
10.4231259827
 20
19.5330919102
  0
LINE
  5
584
100
AcDbEntity
  8
0
100
AcDbLine
 62
250
  6
CONTINUOUS
 10
10.4324068444
 20
21.4283994136
 11
10.431283065
 21
21.1962097508
  0
LINE
  5
585
100
AcDbEntity
  8
0
100
AcDbLine
 62
250
  6
CONTINUOUS
 10
10.9313566653
 20
21.1742002462
 11
10.9281395385
 21
20.5708283597
  0
LINE
  5
586
100
AcDbEntity
  8
0
100
AcDbLine
 62
250
  6
CONTINUOUS
 10
10.4341958656
 20
21.6166070564
 11
10.4324068444
 21
21.4283994136
  0
LINE
  5
587
100
AcDbEntity
  8
0
100
AcDbLine
 62
250
  6
CONTINUOUS
 10
10.9321021882
 20
21.2377584305
 11
10.9313566653
 21
21.1742002462
  0
LINE
  5
588
100
AcDbEntity
  8
0
100
AcDbLine
 62
250
  6
CONTINUOUS
 10
10.4356550782
 20
21.7214632455
 11
10.4341958656
 21
21.6166070564
  0
LWPOLYLINE
  5
589
100
AcDbEntity
  8
0
100
AcDbPolyline
 62
250
  6
CONTINUOUS
 90
49
 70
0
 10
10.9473299342
 20
-21.5688156733
 10
10.947033185
 20
-21.585133832
 10
10.94620291
 20
-21.6014345573
 10
10.9448399962
 20
-21.6177004348
 10
10.9429458997
 20
-21.6339140868
 10
10.940522644
 20
-21.6500581919
 10
10.9375728179
 20
-21.6661155026
 10
10.9340995729
 20
-21.6820688643
 10
10.9301066196
 20
-21.6979012335
 10
10.9255982238
 20
-21.713595696
 10
10.9205792019
 20
-21.7291354846
 10
10.915054916
 20
-21.7445039978
 10
10.9090312678
 20
-21.7596848167
 10
10.9025146927
 20
-21.7746617232
 10
10.8955121525
 20
-21.7894187168
 10
10.8880311283
 20
-21.8039400321
 10
10.8800796124
 20
-21.8182101556
 10
10.8716660996
 20
-21.8322138418
 10
10.8627995785
 20
-21.8459361302
 10
10.8534895214
 20
-21.8593623606
 10
10.8437458746
 20
-21.8724781895
 10
10.8335790476
 20
-21.8852696046
 10
10.822999902
 20
-21.8977229405
 10
10.8120197399
 20
-21.9098248928
 10
10.8006502918
 20
-21.9215625325
 10
10.7889037041
 20
-21.9329233198
 10
10.7767925261
 20
-21.9438951177
 10
10.7643296966
 20
-21.9544662046
 10
10.7515285301
 20
-21.9646252869
 10
10.7384027025
 20
-21.9743615114
 10
10.7249662367
 20
-21.9836644765
 10
10.7112334873
 20
-21.9925242435
 10
10.6972191256
 20
-22.0009313473
 10
10.6829381235
 20
-22.0088768061
 10
10.668405738
 20
-22.0163521315
 10
10.6536374946
 20
-22.0233493375
 10
10.6386491707
 20
-22.0298609485
 10
10.6234567789
 20
-22.0358800082
 10
10.6080765497
 20
-22.0414000859
 10
10.5925249145
 20
-22.0464152845
 10
10.5768184876
 20
-22.0509202461
 10
10.5609740488
 20
-22.0549101577
 10
10.5450085252
 20
-22.058380757
 10
10.5289389734
 20
-22.061328336
 10
10.5127825611
 20
-22.0637497457
 10
10.4965565488
 20
-22.0656423994
 10
10.4802782713
 20
-22.067004275
 10
10.4639651193
 20
-22.0678339175
 10
10.4476345207
 20
-22.0681304407
  0
LINE
  5
58A
100
AcDbEntity
  8
0
100
AcDbLine
 62
250
  6
CONTINUOUS
 10
10.932908342
 20
21.286184755
 11
10.9321021882
 21
21.2377584305
  0
LWPOLYLINE
  5
58B
100
AcDbEntity
  8
0
100
AcDbPolyline
 62
250
  6
CONTINUOUS
 90
40
 70
0
 10
10.8934710648
 20
0.3342909857
 10
10.8933065754
 20
0.3262396645
 10
10.8928182753
 20
0.3182013974
 10
10.8920069562
 20
0.3101892176
 10
10.8908739336
 20
0.3022161158
 10
10.8894210444
 20
0.2942950193
 10
10.8876506444
 20
0.2864387714
 10
10.8855656041
 20
0.2786601098
 10
10.883169304
 20
0.2709716467
 10
10.8804656295
 20
0.263385848
 10
10.8774589643
 20
0.2559150131
 10
10.8741541833
 20
0.248571255
 10
10.8705566448
 20
0.2413664808
 10
10.8666721816
 20
0.2343123719
 10
10.8625070921
 20
0.227420366
 10
10.8580681294
 20
0.2207016373
 10
10.8533624907
 20
0.2141670795
 10
10.8483978056
 20
0.2078272877
 10
10.8431821237
 20
0.2016925409
 10
10.8377239015
 20
0.1957727858
 10
10.8320319891
 20
0.1900776207
 10
10.8261156149
 20
0.1846162796
 10
10.8199843718
 20
0.1793976172
 10
10.8136482007
 20
0.174430095
 10
10.8071173749
 20
0.1697217673
 10
10.8004024834
 20
0.1652802679
 10
10.7935144136
 20
0.1611127983
 10
10.7864643335
 20
0.1572261155
 10
10.779263674
 20
0.1536265211
 10
10.7719241101
 20
0.1503198516
 10
10.7644575419
 20
0.1473114682
 10
10.7568760756
 20
0.1446062488
 10
10.7491920035
 20
0.1422085794
 10
10.7414177845
 20
0.1401223475
 10
10.7335660234
 20
0.1383509359
 10
10.7256494508
 20
0.1368972165
 10
10.7176809026
 20
0.1357635463
 10
10.7096732987
 20
0.1349517636
 10
10.7016396224
 20
0.1344631845
 10
10.6935928994
 20
0.1342986011
  0
LINE
  5
58C
100
AcDbEntity
  8
0
100
AcDbLine
 62
250
  6
CONTINUOUS
 10
10.9338912419
 20
21.3318680688
 11
10.932908342
 21
21.286184755
  0
LINE
  5
58D
100
AcDbEntity
  8
0
100
AcDbLine
 62
250
  6
CONTINUOUS
 10
10.9347374923
 20
21.3640027304
 11
10.9338912419
 21
21.3318680688
  0
LINE
  5
58E
100
AcDbEntity
  8
0
100
AcDbLine
 62
250
  6
CONTINUOUS
 10
10.9356712702
 20
21.3940845417
 11
10.9347374923
 21
21.3640027304
  0
LINE
  5
58F
100
AcDbEntity
  8
0
100
AcDbLine
 62
250
  6
CONTINUOUS
 10
10.9366865316
 20
21.421918576
 11
10.9356712702
 21
21.3940845417
  0
LINE
  5
590
100
AcDbEntity
  8
0
100
AcDbLine
 62
7
  6
CONTINUOUS
 10
2.8268731848
 20
-14.945952543
 11
2.821387855
 21
-14.9550472029
  0
LINE
  5
591
100
AcDbEntity
  8
0
100
AcDbLine
 62
7
  6
CONTINUOUS
 10
2.8214698976
 20
-14.9549198472
 11
2.8156164875
 21
-14.9638975066
  0
LINE
  5
592
100
AcDbEntity
  8
0
100
AcDbLine
 62
7
  6
CONTINUOUS
 10
2.8157439701
 20
-14.963714062
 11
2.8095545713
 21
-14.9725237439
  0
LINE
  5
593
100
AcDbEntity
  8
0
100
AcDbLine
 62
7
  6
CONTINUOUS
 10
3.6168808252
 20
-12.2635476318
 11
3.6106091342
 21
-12.27217421
  0
LINE
  5
594
100
AcDbEntity
  8
0
100
AcDbLine
 62
7
  6
CONTINUOUS
 10
2.8097118664
 20
-14.972307915
 11
2.8032024939
 21
-14.9809207999
  0
LINE
  5
595
100
AcDbEntity
  8
0
100
AcDbLine
 62
7
  6
CONTINUOUS
 10
3.6107022367
 20
-12.2720537575
 11
3.6041463225
 21
-12.2804473936
  0
LINE
  5
596
100
AcDbEntity
  8
0
100
AcDbLine
 62
7
  6
CONTINUOUS
 10
2.8033724181
 20
-14.9807034187
 11
2.7965598679
 21
-14.9890937998
  0
LWPOLYLINE
  5
597
100
AcDbEntity
  8
0
100
AcDbPolyline
 62
7
  6
CONTINUOUS
 90
4
 70
0
 10
3.6042437494
 20
-12.2803269678
 10
3.5975144215
 20
-12.2883533715
 10
3.5905051948
 20
-12.2961468662
 10
3.5832160692
 20
-12.3037074548
  0
LWPOLYLINE
  5
598
100
AcDbEntity
  8
0
100
AcDbPolyline
 62
7
  6
CONTINUOUS
 90
3
 70
0
 10
1.7405650156
 20
-13.2973261168
 10
1.7478452329
 20
-13.2891977803
 10
1.7554425864
 20
-13.2813028639
  0
LINE
  5
599
100
AcDbEntity
  8
0
100
AcDbLine
 62
7
  6
CONTINUOUS
 10
1.7554425864
 20
-13.2813028639
 11
2.6448188787
 21
-12.3917539776
  0
LINE
  5
59A
100
AcDbEntity
  8
0
100
AcDbLine
 62
7
  6
CONTINUOUS
 10
2.1807502232
 20
-13.7065184806
 11
3.5832160692
 21
-12.3037074548
  0
LWPOLYLINE
  5
59B
100
AcDbEntity
  8
0
100
AcDbPolyline
 62
7
  6
CONTINUOUS
 90
16
 70
0
 10
2.1807502232
 20
-13.7065184806
 10
2.1728735001
 20
-13.7141026097
 10
2.1647581979
 20
-13.7213758201
 10
2.1564043169
 20
-13.7283381167
 10
2.147797796
 20
-13.734997503
 10
2.1389526962
 20
-13.7413459848
 10
2.1299112
 20
-13.7473595703
 10
2.120678589
 20
-13.7530364156
 10
2.1112495815
 20
-13.7583783732
 10
2.1016505148
 20
-13.7633669967
 10
2.0918763443
 20
-13.768002698
 10
2.0819321146
 20
-13.7722850725
 10
2.0718592961
 20
-13.7761944491
 10
2.0616643011
 20
-13.7797244118
 10
2.0513407173
 20
-13.7828813827
 10
2.0409107792
 20
-13.7856649469
  0
LINE
  5
59C
100
AcDbEntity
  8
0
100
AcDbLine
 62
7
  6
CONTINUOUS
 10
2.1807501965
 20
-13.7065185058
 11
2.1728587129
 21
-13.714115609
  0
LWPOLYLINE
  5
59D
100
AcDbEntity
  8
0
100
AcDbPolyline
 62
7
  6
CONTINUOUS
 90
3
 70
0
 10
3.3924215159
 20
11.1572265009
 10
3.3815213817
 20
11.156628145
 10
3.3705596048
 20
11.1564184875
  0
LINE
  5
59E
100
AcDbEntity
  8
0
100
AcDbLine
 62
7
  6
CONTINUOUS
 10
0.9993463173
 20
11.1564184875
 11
3.3705596089
 21
11.1564184875
  0
LINE
  5
59F
100
AcDbEntity
  8
0
100
AcDbLine
 62
7
  6
CONTINUOUS
 10
0.9993463173
 20
11.7577218653
 11
3.3705596089
 21
11.7577218653
  0
LWPOLYLINE
  5
5A0
100
AcDbEntity
  8
0
100
AcDbPolyline
 62
7
  6
CONTINUOUS
 90
11
 70
0
 10
3.5436534353
 20
11.7029219975
 10
3.5524094283
 20
11.6965088499
 10
3.5609439415
 20
11.6897760283
 10
3.5692557392
 20
11.6827242728
 10
3.5773072746
 20
11.6753768983
 10
3.5851038061
 20
11.6677229408
 10
3.5926400753
 20
11.6597733579
 10
3.5998627599
 20
11.6515843484
 10
3.6067595258
 20
11.6431646675
 10
3.6133427071
 20
11.6345055545
 10
3.6195959833
 20
11.6256369344
  0
LWPOLYLINE
  5
5A1
100
AcDbEntity
  8
0
100
AcDbPolyline
 62
7
  6
CONTINUOUS
 90
12
 70
0
 10
1.8844564688
 20
13.0768580853
 10
1.8921705242
 20
13.069164006
 10
1.8996001742
 20
13.0612036904
 10
1.9067524237
 20
13.0529685542
 10
1.9136202677
 20
13.0444671732
 10
1.9201552131
 20
13.0357521651
 10
1.9263452356
 20
13.0268319797
 10
1.9322023595
 20
13.0176981601
 10
1.9377141643
 20
13.0083779652
 10
1.9428822637
 20
12.998867383
 10
1.9477050441
 20
12.9891704188
 10
1.9521652432
 20
12.9793263593
  0
LWPOLYLINE
  5
5A2
100
AcDbEntity
  8
0
100
AcDbPolyline
 62
7
  6
CONTINUOUS
 90
4
 70
0
 10
3.5926564547
 20
11.6597552624
 10
3.5998788967
 20
11.6515653621
 10
3.6067740666
 20
11.6431464386
 10
3.613354823
 20
11.6344891195
  0
LINE
  5
5A3
100
AcDbEntity
  8
0
100
AcDbLine
 62
7
  6
CONTINUOUS
 10
2.7967267935
 20
-14.9888985695
 11
2.7896622894
 21
-14.9970071488
  0
LINE
  5
5A4
100
AcDbEntity
  8
0
100
AcDbLine
 62
7
  6
CONTINUOUS
 10
2.7897949612
 20
-14.9968600717
 11
2.7825651495
 21
-15.0045950274
  0
LINE
  5
5A5
100
AcDbEntity
  8
0
100
AcDbLine
 62
7
  6
CONTINUOUS
 10
2.7825224724
 20
-15.0046479896
 11
2.7751277029
 21
-15.0120291905
  0
LINE
  5
5A6
100
AcDbEntity
  8
0
100
AcDbLine
 62
7
  6
CONTINUOUS
 10
2.7750491301
 20
-15.0120963441
 11
2.7673021866
 21
-15.0193094361
  0
LINE
  5
5A7
100
AcDbEntity
  8
0
100
AcDbLine
 62
7
  6
CONTINUOUS
 10
2.7674754354
 20
-15.0191537454
 11
2.7593314211
 21
-15.0262225722
  0
LINE
  5
5A8
100
AcDbEntity
  8
0
100
AcDbLine
 62
7
  6
CONTINUOUS
 10
2.7595525062
 20
-15.0260345153
 11
2.7511297316
 21
-15.0328474947
  0
LWPOLYLINE
  5
5A9
100
AcDbEntity
  8
0
100
AcDbPolyline
 62
250
  6
CONTINUOUS
 90
11
 70
0
 10
10.8966156247
 20
-9.5016866688
 10
10.8958016791
 20
-9.5019907815
 10
10.8944769916
 20
-9.5022945829
 10
10.8926429184
 20
-9.502597762
 10
10.8903013371
 20
-9.5029000083
 10
10.8874546451
 20
-9.5032010124
 10
10.8841057566
 20
-9.5035004661
 10
10.8802581003
 20
-9.5037980629
 10
10.8759156151
 20
-9.5040934982
 10
10.8710827469
 20
-9.5043864694
 10
10.8657644434
 20
-9.5046766766
  0
LINE
  5
5AA
100
AcDbEntity
  8
0
100
AcDbLine
 62
7
  6
CONTINUOUS
 10
2.6477430553
 20
13.7761523667
 11
2.6372201144
 21
13.773405839
  0
LWPOLYLINE
  5
5AB
100
AcDbEntity
  8
0
100
AcDbPolyline
 62
7
  6
CONTINUOUS
 90
3
 70
0
 10
1.645752907
 20
13.1590164416
 10
1.656669541
 20
13.159910995
 10
1.667613277
 20
13.1604132311
  0
LWPOLYLINE
  5
5AC
100
AcDbEntity
  8
0
100
AcDbPolyline
 62
7
  6
CONTINUOUS
 90
3
 70
0
 10
1.6676143751
 20
13.1604132617
 10
1.6785967202
 20
13.1605188838
 10
1.6896060753
 20
13.1602321952
  0
LWPOLYLINE
  5
5AD
100
AcDbEntity
  8
0
100
AcDbPolyline
 62
7
  6
CONTINUOUS
 90
15
 70
0
 10
3.3705596089
 20
11.7577218653
 10
3.3814970251
 20
11.7575139369
 10
3.3923836976
 20
11.7569174659
 10
3.4032196264
 20
11.7559324519
 10
3.4140204694
 20
11.7545546875
 10
3.4247705686
 20
11.7527883788
 10
3.4354229502
 20
11.7506461454
 10
3.4459725578
 20
11.7481304003
 10
3.4564244476
 20
11.7452387279
 10
3.4667468153
 20
11.7419765055
 10
3.4769435148
 20
11.7383404071
 10
3.487010692
 20
11.7343337548
 10
3.4969049801
 20
11.7299718975
 10
3.5066172523
 20
11.7252548819
 10
3.5161566354
 20
11.7201826566
  0
LWPOLYLINE
  5
5AE
100
AcDbEntity
  8
0
100
AcDbPolyline
 62
7
  6
CONTINUOUS
 90
4
 70
0
 10
1.689606082
 20
13.1602320978
 10
1.7005566621
 20
13.1595552133
 10
1.7114306462
 20
13.1584853263
 10
1.7222452571
 20
13.1570252786
  0
LWPOLYLINE
  5
5AF
100
AcDbEntity
  8
0
100
AcDbPolyline
 62
7
  6
CONTINUOUS
 90
4
 70
0
 10
1.7222505425
 20
13.1570243936
 10
1.7329737184
 20
13.1551842243
 10
1.7436059357
 20
13.1529625845
 10
1.7541437728
 20
13.1503613295
  0
LINE
  5
5B0
100
AcDbEntity
  8
0
100
AcDbLine
 62
7
  6
CONTINUOUS
 10
1.7541312455
 20
13.1503647223
 11
1.7645270837
 21
13.1474009837
  0
LWPOLYLINE
  5
5B1
100
AcDbEntity
  8
0
100
AcDbPolyline
 62
7
  6
CONTINUOUS
 90
19
 70
0
 10
1.7645410184
 20
13.147396739
 10
1.7747860133
 20
13.1440725682
 10
1.7848904168
 20
13.1403850574
 10
1.7948429953
 20
13.1363392136
 10
1.8046504898
 20
13.1319321461
 10
1.8143061592
 20
13.1271667396
 10
1.8237785469
 20
13.1220566635
 10
1.8330648036
 20
13.116604051
 10
1.8421677786
 20
13.1108067618
 10
1.8510645628
 20
13.1046720554
 10
1.8597643559
 20
13.0981877182
 10
1.8682579581
 20
13.0913659553
 10
1.8764948612
 20
13.0842506543
 10
1.8844676661
 20
13.0768471869
 10
1.8921837719
 20
13.0691501731
 10
1.899614867
 20
13.0611873734
 10
1.9067676413
 20
13.0529504106
 10
1.9136354049
 20
13.0444476534
 10
1.9201697767
 20
13.0357319821
  0
LWPOLYLINE
  5
5B2
100
AcDbEntity
  8
0
100
AcDbPolyline
 62
250
  6
CONTINUOUS
 90
13
 70
0
 10
10.8966156247
 20
9.4793133312
 10
10.8958016791
 20
9.479617444
 10
10.8944769916
 20
9.4799212454
 10
10.8926429184
 20
9.4802244244
 10
10.8903013372
 20
9.4805266707
 10
10.8874546452
 20
9.4808276748
 10
10.8841057567
 20
9.4811271285
 10
10.8802581003
 20
9.4814247254
 10
10.8759156152
 20
9.4817201606
 10
10.871082747
 20
9.4820131318
 10
10.8657644435
 20
9.482303339
 10
10.8599661494
 20
9.4825904851
 10
10.8469538195
 20
9.4831544216
  0
LWPOLYLINE
  5
5B3
100
AcDbEntity
  8
0
100
AcDbPolyline
 62
7
  6
CONTINUOUS
 90
4
 70
0
 10
3.5161855496
 20
11.7201667935
 10
3.5255292897
 20
11.7147570636
 10
3.5346921929
 20
11.7090047418
 10
3.5436677765
 20
11.7029119604
  0
LWPOLYLINE
  5
5B4
100
AcDbEntity
  8
0
100
AcDbPolyline
 62
7
  6
CONTINUOUS
 90
3
 70
0
 10
2.3902652238
 20
13.8222663744
 10
2.3816087354
 20
13.8288204874
 10
2.3731623011
 20
13.8357048357
  0
LWPOLYLINE
  5
5B5
100
AcDbEntity
  8
0
100
AcDbPolyline
 62
7
  6
CONTINUOUS
 90
3
 70
0
 10
2.390291387
 20
13.8222480092
 10
2.3816254482
 20
13.8288080521
 10
2.3731622974
 20
13.8357048388
  0
LINE
  5
5B6
100
AcDbEntity
  8
0
100
AcDbLine
 62
7
  6
CONTINUOUS
 10
0.1015528067
 20
16.5313070108
 11
0.1101636992
 21
16.524768254
  0
LINE
  5
5B7
100
AcDbEntity
  8
0
100
AcDbLine
 62
7
  6
CONTINUOUS
 10
0.1099046944
 20
16.5249972804
 11
0.1179294544
 21
16.5184429829
  0
LINE
  5
5B8
100
AcDbEntity
  8
0
100
AcDbLine
 62
7
  6
CONTINUOUS
 10
2.3731622974
 20
13.8357048388
 11
-0.075543877
 21
15.8957384516
  0
LINE
  5
5B9
100
AcDbEntity
  8
0
100
AcDbLine
 62
7
  6
CONTINUOUS
 10
0.1179294577
 20
16.5184429801
 11
2.7601089638
 21
14.2954844564
  0
LWPOLYLINE
  5
5BA
100
AcDbEntity
  8
0
100
AcDbPolyline
 62
7
  6
CONTINUOUS
 90
42
 70
0
 10
2.7601089638
 20
14.2954844564
 10
2.7683411828
 20
14.2883006621
 10
2.7762860327
 20
14.2808493676
 10
2.7839435136
 20
14.2731305682
 10
2.7913231642
 20
14.2651309861
 10
2.7984154457
 20
14.2568638888
 10
2.8051917423
 20
14.2483690908
 10
2.8116497769
 20
14.2396516084
 10
2.8177918265
 20
14.2307064161
 10
2.8235961065
 20
14.2215582665
 10
2.8290632999
 20
14.2122022631
 10
2.8341927237
 20
14.2026432934
 10
2.838960544
 20
14.1929207879
 10
2.8433598974
 20
14.1830403624
 10
2.8473976474
 20
14.1729963938
 10
2.8510705511
 20
14.1628114544
 10
2.8543817955
 20
14.1524802515
 10
2.8573281937
 20
14.1420080712
 10
2.8598969412
 20
14.1314333564
 10
2.8620884879
 20
14.1207544723
 10
2.863902384
 20
14.1099730487
 10
2.8653244759
 20
14.0991324268
 10
2.8663515632
 20
14.0882211227
 10
2.8669868462
 20
14.0772506175
 10
2.8672257727
 20
14.0662987026
 10
2.8670647212
 20
14.0553807161
 10
2.8665073132
 20
14.0444813216
 10
2.8655598605
 20
14.0336323022
 10
2.8642214224
 20
14.0228292453
 10
2.8624929397
 20
14.0120765664
 10
2.8603835465
 20
14.0014192925
 10
2.8578943058
 20
13.9908639403
 10
2.8550241546
 20
13.9804039981
 10
2.8517790381
 20
13.9700649515
 10
2.8481532764
 20
13.9598371626
 10
2.8441525494
 20
13.9497302752
 10
2.8397998419
 20
13.9397986987
 10
2.8350975609
 20
13.9300533809
 10
2.8300432994
 20
13.9204833824
 10
2.8246528216
 20
13.9111102837
 10
2.8189223167
 20
13.9019267975
 10
2.8128555955
 20
13.8929402196
  0
LINE
  5
5BB
100
AcDbEntity
  8
0
100
AcDbLine
 62
7
  6
CONTINUOUS
 10
2.7683605232
 20
14.2882821674
 11
2.7763153993
 21
14.2808197659
  0
LINE
  5
5BC
100
AcDbEntity
  8
0
100
AcDbLine
 62
7
  6
CONTINUOUS
 10
2.7513720789
 20
-15.0326586488
 11
2.7427310948
 21
-15.0391648283
  0
LINE
  5
5BD
100
AcDbEntity
  8
0
100
AcDbLine
 62
7
  6
CONTINUOUS
 10
2.7429710994
 20
-15.0389905713
 11
2.7341377385
 21
-15.0451732743
  0
LINE
  5
5BE
100
AcDbEntity
  8
0
100
AcDbLine
 62
7
  6
CONTINUOUS
 10
2.7343449294
 20
-15.0450302828
 11
2.7253474349
 21
-15.0508741417
  0
LWPOLYLINE
  5
5BF
100
AcDbEntity
  8
0
100
AcDbPolyline
 62
7
  6
CONTINUOUS
 90
3
 70
0
 10
2.7254982072
 20
-15.0507777931
 10
2.7164817944
 20
-15.0561975439
 10
2.7073015085
 20
-15.0612832325
  0
LINE
  5
5C0
100
AcDbEntity
  8
0
100
AcDbLine
 62
7
  6
CONTINUOUS
 10
2.7072626515
 20
-15.06130517
 11
2.6979681716
 21
-15.06603534
  0
LWPOLYLINE
  5
5C1
100
AcDbEntity
  8
0
100
AcDbPolyline
 62
7
  6
CONTINUOUS
 90
3
 70
0
 10
2.697951532
 20
-15.066041171
 10
2.6884652746
 20
-15.0704547234
 10
2.6788526258
 20
-15.0745172076
  0
LWPOLYLINE
  5
5C2
100
AcDbEntity
  8
0
100
AcDbPolyline
 62
7
  6
CONTINUOUS
 90
6
 70
0
 10
2.6789000311
 20
-15.0744947683
 10
2.6691263705
 20
-15.0782240342
 10
2.659236135
 20
-15.0816079805
 10
2.6492311207
 20
-15.0846447214
 10
2.6391095316
 20
-15.0873361486
 10
2.6289061107
 20
-15.0896763378
  0
LINE
  5
5C3
100
AcDbEntity
  8
0
100
AcDbLine
 62
7
  6
CONTINUOUS
 10
0.094017906
 20
16.5365974841
 11
0.102193182
 21
16.5308197535
  0
LWPOLYLINE
  5
5C4
100
AcDbEntity
  8
0
100
AcDbPolyline
 62
7
  6
CONTINUOUS
 90
10
 70
0
 43
0.3500000019
 10
0.9970947266
 20
31.4555258789
 10
1.0685195313
 20
31.3126682129
 10
1.0685195313
 20
31.2412407227
 10
0.9256645508
 20
31.0983830566
 10
0.854234375
 20
31.0983830566
 10
0.7828095703
 20
31.1698105469
 10
0.7828095703
 20
31.2412407227
 10
0.854234375
 20
31.3840957031
 10
0.9256645508
 20
31.4555258789
 10
0.9970947266
 20
31.4555258789
  0
LINE
  5
5C5
100
AcDbEntity
  8
0
100
AcDbLine
 62
7
  6
CONTINUOUS
 10
-0.1545203959
 20
16.5784603427
 11
-0.1440852455
 21
16.581160623
  0
LWPOLYLINE
  5
5C6
100
AcDbEntity
  8
0
100
AcDbPolyline
 62
7
  6
CONTINUOUS
 90
13
 70
0
 10
-0.1448125572
 20
16.5809838481
 10
-0.1335357583
 20
16.583490458
 10
-0.1229831771
 20
16.5854325477
 10
-0.1124338171
 20
16.5869887889
 10
-0.1018813631
 20
16.5881572894
 10
-0.0913376088
 20
16.5889365752
 10
-0.0808122318
 20
16.5893261463
 10
-0.0702955545
 20
16.5893265043
 10
-0.0597703377
 20
16.5889376768
 10
-0.0492271044
 20
16.5881592168
 10
-0.0386753316
 20
16.5869915698
 10
-0.0281262113
 20
16.5854361018
 10
-0.0175731951
 20
16.5834946992
  0
LWPOLYLINE
  5
5C7
100
AcDbEntity
  8
0
100
AcDbPolyline
 62
7
  6
CONTINUOUS
 90
13
 70
0
 10
-0.1350370142
 20
16.5831829745
 10
-0.1251912667
 20
16.585056516
 10
-0.1152778148
 20
16.5866056829
 10
-0.1053472002
 20
16.5878140055
 10
-0.09541057
 20
16.5886785114
 10
-0.0854567772
 20
16.5892021754
 10
-0.075502922
 20
16.589377448
 10
-0.065548751
 20
16.5891992517
 10
-0.0555945176
 20
16.588672664
 10
-0.0456580833
 20
16.5878053677
 10
-0.0357283284
 20
16.5865943032
 10
-0.0258163725
 20
16.5850425278
 10
-0.0159734362
 20
16.583166899
  0
LINE
  5
5C8
100
AcDbEntity
  8
0
100
AcDbLine
 62
7
  6
CONTINUOUS
 10
-0.0175731951
 20
16.5834946992
 11
-0.0062026755
 21
16.5809663846
  0
LINE
  5
5C9
100
AcDbEntity
  8
0
100
AcDbLine
 62
7
  6
CONTINUOUS
 10
-0.0070228315
 20
16.5811654711
 11
0.0034940422
 21
16.5784441157
  0
LWPOLYLINE
  5
5CA
100
AcDbEntity
  8
0
100
AcDbPolyline
 62
7
  6
CONTINUOUS
 90
11
 70
0
 10
0.0034990657
 20
16.5784420124
 10
0.0140025667
 20
16.575320757
 10
0.0244776011
 20
16.5718052635
 10
0.0348128855
 20
16.5679229499
 10
0.04500276
 20
16.5636675858
 10
0.0550528844
 20
16.5590453917
 10
0.0648739778
 20
16.5541003596
 10
0.0744689788
 20
16.5488210498
 10
0.0838349489
 20
16.5432188909
 10
0.0928737911
 20
16.5373721792
 10
0.1015528067
 20
16.5313070108
  0
LWPOLYLINE
  5
5CB
100
AcDbEntity
  8
0
100
AcDbPolyline
 62
7
  6
CONTINUOUS
 90
10
 70
0
 10
0.0130900352
 20
16.5756137304
 10
0.0225549311
 20
16.5724886875
 10
0.0319090552
 20
16.5690597288
 10
0.0411565614
 20
16.5653253463
 10
0.0503133906
 20
16.5612814951
 10
0.0593636018
 20
16.5569322123
 10
0.0682635259
 20
16.5522881125
 10
0.0770167636
 20
16.5473457069
 10
0.0856197142
 20
16.542108475
 10
0.094017906
 20
16.5365974841
  0
LWPOLYLINE
  5
5CC
100
AcDbEntity
  8
0
100
AcDbPolyline
 62
7
  6
CONTINUOUS
 90
3
 70
0
 43
0.3500000019
 10
17.727605957
 20
3.5245274963
 10
17.727605957
 20
2.0245275421
 10
15.3704584961
 20
2.6673846893
  0
LWPOLYLINE
  5
5CD
100
AcDbEntity
  8
0
100
AcDbPolyline
 62
7
  6
CONTINUOUS
 90
3
 70
0
 43
0.3500000019
 10
17.727605957
 20
-0.5469009628
 10
17.727605957
 20
-2.046901001
 10
15.3704584961
 20
-1.4040437698
  0
LWPOLYLINE
  5
5CE
100
AcDbEntity
  8
0
100
AcDbPolyline
 62
7
  6
CONTINUOUS
 90
3
 70
0
 43
0.3500000019
 10
17.727605957
 20
-2.9040439758
 10
17.727605957
 20
-4.4040437622
 10
15.3704584961
 20
-3.761186615
  0
LWPOLYLINE
  5
5CF
100
AcDbEntity
  8
0
100
AcDbPolyline
 62
250
  6
CONTINUOUS
 90
49
 70
0
 10
10.9309784785
 20
-21.1440419972
 10
10.9301704118
 20
-21.1464287612
 10
10.9288513418
 20
-21.1488130804
 10
10.9270226197
 20
-21.1511925127
 10
10.9246861185
 20
-21.1535646208
 10
10.9218442316
 20
-21.155926975
 10
10.9184998698
 20
-21.1582771556
 10
10.9146564587
 20
-21.1606127554
 10
10.9103179351
 20
-21.1629313819
 10
10.9054887429
 20
-21.1652306603
 10
10.9001738285
 20
-21.1675082354
 10
10.8943786359
 20
-21.1697617745
 10
10.888109101
 20
-21.1719889691
 10
10.8813716457
 20
-21.174187538
 10
10.8741731711
 20
-21.1763552292
 10
10.8665210504
 20
-21.1784898225
 10
10.8584231215
 20
-21.1805891314
 10
10.8498876792
 20
-21.1826510055
 10
10.840923466
 20
-21.1846733329
 10
10.831539664
 20
-21.1866540423
 10
10.8217458848
 20
-21.1885911047
 10
10.8115521601
 20
-21.1904825362
 10
10.8009689311
 20
-21.1923263992
 10
10.7900070381
 20
-21.1941208052
 10
10.7786777092
 20
-21.1958639162
 10
10.7669925489
 20
-21.1975539467
 10
10.7549635261
 20
-21.1991891657
 10
10.742602962
 20
-21.2007678982
 10
10.7299235174
 20
-21.2022885271
 10
10.7169381795
 20
-21.203749495
 10
10.7036602492
 20
-21.2051493053
 10
10.6901033267
 20
-21.2064865243
 10
10.6762812983
 20
-21.2077597822
 10
10.6622083217
 20
-21.2089677749
 10
10.6478988117
 20
-21.210109265
 10
10.6333674251
 20
-21.2111830834
 10
10.6186290464
 20
-21.2121881301
 10
10.6036987719
 20
-21.2131233756
 10
10.5885918944
 20
-21.2139878621
 10
10.5733238877
 20
-21.214780704
 10
10.5579103906
 20
-21.2155010893
 10
10.542367191
 20
-21.21614828
 10
10.5267102094
 20
-21.2167216133
 10
10.5109554831
 20
-21.2172205019
 10
10.4951191496
 20
-21.2176444347
 10
10.4792174296
 20
-21.2179929776
 10
10.4632666111
 20
-21.2182657736
 10
10.4472830323
 20
-21.2184625432
 10
10.431283065
 20
-21.2185830849
  0
LWPOLYLINE
  5
5D0
100
AcDbEntity
  8
0
100
AcDbPolyline
 62
250
  6
CONTINUOUS
 90
49
 70
0
 10
10.9309784785
 20
21.1216686596
 10
10.9301704124
 20
21.1240554236
 10
10.9288513429
 20
21.126439743
 10
10.9270226212
 20
21.1288191753
 10
10.9246861206
 20
21.1311912835
 10
10.9218442341
 20
21.1335536378
 10
10.9184998727
 20
21.1359038185
 10
10.9146564621
 20
21.1382394183
 10
10.9103179388
 20
21.140558045
 10
10.9054887469
 20
21.1428573235
 10
10.9001738328
 20
21.1451348987
 10
10.8943786405
 20
21.1473884378
 10
10.8881091059
 20
21.1496156325
 10
10.8813716509
 20
21.1518142015
 10
10.8741731765
 20
21.1539818929
 10
10.8665210559
 20
21.1561164862
 10
10.8584231272
 20
21.1582157952
 10
10.849887685
 20
21.1602776694
 10
10.840923472
 20
21.162299997
 10
10.83153967
 20
21.1642807064
 10
10.8217458909
 20
21.1662177689
 10
10.8115521662
 20
21.1681092005
 10
10.8009689372
 20
21.1699530636
 10
10.7900070442
 20
21.1717474697
 10
10.7786777153
 20
21.1734905807
 10
10.7669925549
 20
21.1751806113
 10
10.7549635321
 20
21.1768158304
 10
10.7426029678
 20
21.178394563
 10
10.7299235231
 20
21.179915192
 10
10.716938185
 20
21.18137616
 10
10.7036602545
 20
21.1827759704
 10
10.6901033319
 20
21.1841131894
 10
10.6762813033
 20
21.1853864474
 10
10.6622083265
 20
21.1865944402
 10
10.6478988162
 20
21.1877359304
 10
10.6333674294
 20
21.1888097488
 10
10.6186290504
 20
21.1898147955
 10
10.6036987756
 20
21.1907500411
 10
10.5885918978
 20
21.1916145277
 10
10.5733238908
 20
21.1924073697
 10
10.5579103934
 20
21.193127755
 10
10.5423671934
 20
21.1937749457
 10
10.5267102115
 20
21.194348279
 10
10.5109554849
 20
21.1948471676
 10
10.495119151
 20
21.1952711005
 10
10.4792174306
 20
21.1956196435
 10
10.4632666118
 20
21.1958924395
 10
10.4472830327
 20
21.1960892091
 10
10.431283065
 20
21.1962097508
  0
LINE
  5
5D1
100
AcDbEntity
  8
RACCORDO
100
AcDbLine
 62
7
  6
CONTINUOUS
 10
7.7316179535
 20
22.1970512718
 11
7.3833992795
 21
22.1654424402
  0
LINE
  5
5D2
100
AcDbEntity
  8
0
100
AcDbLine
 62
250
  6
CONTINUOUS
 10
10.431283065
 20
21.1962097508
 11
-10.5799545598
 21
21.1962097508
  0
LINE
  5
5D3
100
AcDbEntity
  8
RACCORDO
100
AcDbLine
 62
7
  6
CONTINUOUS
 10
-7.8802894483
 20
22.1970512718
 11
-7.5320707743
 21
22.1654424402
  0
LINE
  5
5D4
100
AcDbEntity
  8
RACCORDO
100
AcDbLine
 62
7
  6
CONTINUOUS
 10
-3.4683820465
 20
22.1970512718
 11
-3.8166007205
 21
22.1654424402
  0
LINE
  5
5D5
100
AcDbEntity
  8
0
100
AcDbLine
 62
250
  6
CONTINUOUS
 10
10.4476345207
 20
22.0457571031
 11
-10.5963060155
 21
22.0457571031
  0
LINE
  5
5D6
100
AcDbEntity
  8
RACCORDO
100
AcDbLine
 62
7
  6
CONTINUOUS
 10
7.2101941988
 20
22.1602016623
 11
3.8411343065
 21
22.1602016623
  0
LINE
  5
5D7
100
AcDbEntity
  8
RACCORDO
100
AcDbLine
 62
7
  6
CONTINUOUS
 10
-3.9898058012
 20
22.1602016623
 11
-7.3588656935
 21
22.1602016623
  0
LINE
  5
5D8
100
AcDbEntity
  8
0
100
AcDbLine
 62
7
  6
CONTINUOUS
 10
-10.6971175526
 20
22.1970512718
 11
-7.8802894483
 21
22.1970512718
  0
LINE
  5
5D9
100
AcDbEntity
  8
DRAFT
100
AcDbLine
 62
7
  6
CONTINUOUS
 10
-3.4683820465
 20
22.1970512718
 11
3.3197105517
 21
22.1970512718
  0
LINE
  5
5DA
100
AcDbEntity
  8
0
100
AcDbLine
 62
7
  6
CONTINUOUS
 10
7.7316179535
 20
22.1970512718
 11
10.5484460579
 21
22.1970512718
  0
LWPOLYLINE
  5
5DB
100
AcDbEntity
  8
0
100
AcDbPolyline
 62
7
  6
CONTINUOUS
 90
7
 70
0
 43
0.3500000019
 10
-0.5029067383
 20
30.9555253906
 10
-2.0029082031
 20
30.9555253906
 10
-0.5029067383
 20
33.0983823242
 10
-0.5029067383
 20
33.5269526367
 10
-0.9314770508
 20
33.9555256348
 10
-1.5743378906
 20
33.9555256348
 10
-2.0029082031
 20
33.3126674805
  0
LWPOLYLINE
  5
5DC
100
AcDbEntity
  8
0
100
AcDbPolyline
 62
7
  6
CONTINUOUS
 90
7
 70
0
 43
0.3500000019
 10
-2.8600488281
 20
30.9555253906
 10
-4.360050293
 20
30.9555253906
 10
-2.8600488281
 20
33.0983823242
 10
-2.8600488281
 20
33.5269526367
 10
-3.2886191406
 20
33.9555256348
 10
-3.9314799805
 20
33.9555256348
 10
-4.360050293
 20
33.3126674805
  0
LWPOLYLINE
  5
5DD
100
AcDbEntity
  8
0
100
AcDbPolyline
 62
7
  6
CONTINUOUS
 90
6
 70
0
 43
0.3500000019
 10
2.0685205078
 20
30.9555253906
 10
3.1399516602
 20
30.9555253906
 10
3.3542368164
 20
31.1698105469
 10
3.3542368164
 20
32.2412390137
 10
2.9256665039
 20
32.6698120117
 10
2.4970908203
 20
32.6698120117
  0
LINE
  5
5DE
100
AcDbEntity
  8
RACCORDO
100
AcDbLine
 62
7
  6
CONTINUOUS
 10
3.3197105517
 20
22.1970512718
 11
3.6679292257
 21
22.1654424402
  0
LINE
  5
5DF
100
AcDbEntity
  8
0
100
AcDbLine
 62
7
  6
CONTINUOUS
 10
-32.2204514712
 20
-22.0681304407
 11
-29.3335867592
 21
-22.2194246094
  0
LINE
  5
5E0
100
AcDbEntity
  8
0
100
AcDbLine
 62
250
  6
CONTINUOUS
 10
-32.2117332414
 20
-21.5688156733
 11
-29.2900619687
 21
-21.7219339765
  0
LWPOLYLINE
  5
5E1
100
AcDbEntity
  8
0
100
AcDbPolyline
 62
250
  6
CONTINUOUS
 90
7
 70
0
 10
-33.1479260145
 20
-21.2167216133
 10
-33.1506848504
 20
-21.2172205019
 10
-33.152943674
 20
-21.2176444347
 10
-33.1547001717
 20
-21.2179929776
 10
-33.1559525443
 20
-21.2182657736
 10
-33.156699509
 20
-21.2184625432
 10
-33.1569403007
 20
-21.2185830849
  0
LINE
  5
5E2
100
AcDbEntity
  8
0
100
AcDbLine
 62
250
  6
CONTINUOUS
 10
-33.1409201186
 20
-21.2155010893
 11
-33.1479260145
 21
-21.2167216133
  0
LINE
  5
5E3
100
AcDbEntity
  8
0
100
AcDbLine
 62
250
  6
CONTINUOUS
 10
-33.1267483043
 20
-21.2131233756
 11
-33.1409201186
 21
-21.2155010893
  0
LINE
  5
5E4
100
AcDbEntity
  8
0
100
AcDbLine
 62
250
  6
CONTINUOUS
 10
-33.0937075688
 20
-21.2077597822
 11
-33.1267483043
 21
-21.2131233756
  0
LINE
  5
5E5
100
AcDbEntity
  8
0
100
AcDbLine
 62
250
  6
CONTINUOUS
 10
-32.9838356819
 20
-21.1904825362
 11
-33.0937075688
 21
-21.2077597822
  0
LINE
  5
5E6
100
AcDbEntity
  8
0
100
AcDbLine
 62
250
  6
CONTINUOUS
 10
-32.6799776678
 20
-21.1440419972
 11
-32.9838356819
 21
-21.1904825362
  0
LINE
  5
5E7
100
AcDbEntity
  8
RACCORDO
100
AcDbLine
 62
250
  6
CONTINUOUS
 10
-28.9595949151
 20
-17.94467827
 11
-28.9367191947
 21
-17.94467827
  0
LWPOLYLINE
  5
5E8
100
AcDbEntity
  8
RACCORDO
100
AcDbPolyline
 62
250
  6
CONTINUOUS
 90
7
 70
0
 10
-28.9703800817
 20
18.0455799511
 10
-28.9689181839
 20
18.0463845696
 10
-28.9673991187
 20
18.0472510299
 10
-28.9662289045
 20
18.0479558148
 10
-28.9654093635
 20
18.0484978269
 10
-28.9649417722
 20
18.048876222
 10
-28.9648268586
 20
18.0490904109
  0
LWPOLYLINE
  5
5E9
100
AcDbEntity
  8
RACCORDO
100
AcDbPolyline
 62
250
  6
CONTINUOUS
 90
7
 70
0
 10
-28.9703800817
 20
-18.0679532885
 10
-28.9689181854
 20
-18.0687579062
 10
-28.9673991197
 20
-18.0696243668
 10
-28.966228905
 20
-18.070329152
 10
-28.9654093638
 20
-18.0708711643
 10
-28.9649417722
 20
-18.0712495596
 10
-28.9648268586
 20
-18.0714637485
  0
LWPOLYLINE
  5
5EA
100
AcDbEntity
  8
0
100
AcDbPolyline
 62
250
  6
CONTINUOUS
 90
3
 70
0
 10
-34.1454381237
 20
-9.51114601
 10
-34.1462053522
 20
-9.5111711944
 10
-34.1464610478
 20
-9.5111866688
  0
LINE
  5
5EB
100
AcDbEntity
  8
0
100
AcDbLine
 62
250
  6
CONTINUOUS
 10
-34.1400777089
 20
-9.5110125041
 11
-34.1454381237
 21
-9.51114601
  0
LINE
  5
5EC
100
AcDbEntity
  8
0
100
AcDbLine
 62
250
  6
CONTINUOUS
 10
-33.6640010547
 20
-9.5016866688
 11
-34.1400777089
 21
-9.5110125041
  0
LWPOLYLINE
  5
5ED
100
AcDbEntity
  8
0
100
AcDbPolyline
 62
250
  6
CONTINUOUS
 90
22
 70
0
 10
-32.6799776678
 20
21.1216686596
 10
-32.7612742736
 20
20.5708283597
 10
-32.8391370002
 20
20.0195358359
 10
-32.9135658476
 20
19.4677910882
 10
-32.9845634306
 20
18.9155726995
 10
-33.0521271343
 20
18.3629020869
 10
-33.1162491138
 20
17.8098435019
 10
-33.1769289644
 20
17.2563969361
 10
-33.2341670908
 20
16.7025623978
 10
-33.2879568616
 20
16.1484041631
 10
-33.3382978765
 20
15.593922201
 10
-33.3851905357
 20
15.0391165424
 10
-33.4286294087
 20
14.4840515563
 10
-33.4686140955
 20
13.928727206
 10
-33.5051449961
 20
13.3731435282
 10
-33.5382178789
 20
12.817365001
 10
-33.5678323442
 20
12.2613915481
 10
-33.5939887918
 20
11.7052232459
 10
-33.6166841899
 20
11.1489248023
 10
-33.6359175277
 20
10.5925177867
 10
-33.651689816
 20
10.0359806296
 10
-33.6640010547
 20
9.4793133312
  0
LWPOLYLINE
  5
5EE
100
AcDbEntity
  8
0
100
AcDbPolyline
 62
250
  6
CONTINUOUS
 90
52
 70
0
 10
-32.6799776678
 20
-21.1440419972
 10
-32.6777967415
 20
-21.1572941977
 10
-32.6752652271
 20
-21.1704652625
 10
-32.6723831245
 20
-21.1835551918
 10
-32.669147816
 20
-21.1965735836
 10
-32.6655619194
 20
-21.2095108399
 10
-32.6616332876
 20
-21.2223381659
 10
-32.6573612154
 20
-21.2350550587
 10
-32.6527464082
 20
-21.2476620214
 10
-32.6477988346
 20
-21.260131768
 10
-32.6425177897
 20
-21.2724639612
 10
-32.6369039785
 20
-21.2846589384
 10
-32.6309694845
 20
-21.2966904266
 10
-32.6247136085
 20
-21.3085580925
 10
-32.6181370498
 20
-21.3202622694
 10
-32.6112539894
 20
-21.3317776836
 10
-32.6040637653
 20
-21.3431039263
 10
-32.5965670395
 20
-21.3542414063
 10
-32.5887799795
 20
-21.3651660755
 10
-32.5807019552
 20
-21.3758774771
 10
-32.5723335966
 20
-21.386376068
 10
-32.5636929611
 20
-21.3966391705
 10
-32.5547794672
 20
-21.406666269
 10
-32.5455936963
 20
-21.4164578793
 10
-32.5361554495
 20
-21.4259928711
 10
-32.5264641695
 20
-21.4352707015
 10
-32.5165204135
 20
-21.4442919136
 10
-32.5063456539
 20
-21.4530370066
 10
-32.4959394032
 20
-21.4615053744
 10
-32.4853021488
 20
-21.4696976232
 10
-32.474456826
 20
-21.4775960713
 10
-32.4634029758
 20
-21.4852000914
 10
-32.4521410572
 20
-21.4925103107
 10
-32.4406953825
 20
-21.4995109297
 10
-32.429065554
 20
-21.5062012785
 10
-32.4172519694
 20
-21.5125820269
 10
-32.405280135
 20
-21.5186393844
 10
-32.3931497048
 20
-21.5243726519
 10
-32.3808610247
 20
-21.5297825285
 10
-32.3684406385
 20
-21.5348573206
 10
-32.3558882813
 20
-21.5395962987
 10
-32.343204218
 20
-21.5440001922
 10
-32.3304157866
 20
-21.5480594958
 10
-32.3175227181
 20
-21.5517734728
 10
-32.3045252814
 20
-21.55514286
 10
-32.2914516216
 20
-21.5581603625
 10
-32.2783011952
 20
-21.5608252354
 10
-32.2650745456
 20
-21.5631382237
 10
-32.2518014479
 20
-21.5650942676
 10
-32.2384918271
 20
-21.5666916805
 10
-32.2251357583
 20
-21.5679321491
 10
-32.2117332414
 20
-21.5688156733
  0
LWPOLYLINE
  5
5EF
100
AcDbEntity
  8
0
100
AcDbPolyline
 62
250
  6
CONTINUOUS
 90
22
 70
0
 10
-33.6640010547
 20
-9.5016866688
 10
-33.651689816
 20
-10.0583539672
 10
-33.6359175277
 20
-10.6148911242
 10
-33.6166841899
 20
-11.1712981399
 10
-33.5939887918
 20
-11.7275965835
 10
-33.5678323442
 20
-12.2837648857
 10
-33.5382178789
 20
-12.8397383386
 10
-33.5051449961
 20
-13.3955168657
 10
-33.4686140955
 20
-13.9511005436
 10
-33.4286294087
 20
-14.5064248938
 10
-33.3851905357
 20
-15.06148988
 10
-33.3382978765
 20
-15.6162955386
 10
-33.2879568616
 20
-16.1707775007
 10
-33.2341670908
 20
-16.7249357354
 10
-33.1769289644
 20
-17.2787702737
 10
-33.1162491138
 20
-17.8322168395
 10
-33.0521271343
 20
-18.3852754245
 10
-32.9845634306
 20
-18.9379460371
 10
-32.9135658476
 20
-19.4901644258
 10
-32.8391370002
 20
-20.0419091735
 10
-32.7612742736
 20
-20.5932016973
 10
-32.6799776678
 20
-21.1440419972
  0
LWPOLYLINE
  5
5F0
100
AcDbEntity
  8
0
100
AcDbPolyline
 62
250
  6
CONTINUOUS
 90
10
 70
0
 10
-33.6640010547
 20
9.4793133312
 10
-33.682275172
 20
8.4632829824
 10
-33.6984821113
 20
7.447231008
 10
-33.7126218724
 20
6.4311574079
 10
-33.7246945705
 20
5.4150610972
 10
-33.7347000905
 20
4.3989431608
 10
-33.7426380876
 20
3.3828068535
 10
-33.7485084469
 20
2.3666532602
 10
-33.7523112833
 20
1.3504812959
 10
-33.7540465969
 20
0.3342909607
  0
LWPOLYLINE
  5
5F1
100
AcDbEntity
  8
0
100
AcDbPolyline
 62
250
  6
CONTINUOUS
 90
15
 70
0
 10
-33.7522743762
 20
0.1652802679
 10
-33.7520702085
 20
0.1611127983
 10
-33.7518579328
 20
0.1572261155
 10
-33.7516378934
 20
0.1536265211
 10
-33.7514104471
 20
0.1503198516
 10
-33.7511759625
 20
0.1473114682
 10
-33.75093482
 20
0.1446062488
 10
-33.7506874104
 20
0.1422085794
 10
-33.750434135
 20
0.1401223475
 10
-33.7501754043
 20
0.1383509359
 10
-33.7499116379
 20
0.1368972165
 10
-33.7496432635
 20
0.1357635463
 10
-33.7493707161
 20
0.1349517636
 10
-33.7490944377
 20
0.1344631845
 10
-33.7488148762
 20
0.1342986011
  0
LINE
  5
5F2
100
AcDbEntity
  8
0
100
AcDbLine
 62
250
  6
CONTINUOUS
 10
-33.7526570775
 20
0.174430095
 11
-33.7522743762
 21
0.1652802679
  0
LINE
  5
5F3
100
AcDbEntity
  8
0
100
AcDbLine
 62
250
  6
CONTINUOUS
 10
-33.7530035557
 20
0.1846162796
 11
-33.7526570775
 21
0.174430095
  0
LINE
  5
5F4
100
AcDbEntity
  8
0
100
AcDbLine
 62
250
  6
CONTINUOUS
 10
-33.7533115647
 20
0.1957727858
 11
-33.7530035557
 21
0.1846162796
  0
LINE
  5
5F5
100
AcDbEntity
  8
0
100
AcDbLine
 62
250
  6
CONTINUOUS
 10
-33.7535791076
 20
0.2078272877
 11
-33.7533115647
 21
0.1957727858
  0
LINE
  5
5F6
100
AcDbEntity
  8
0
100
AcDbLine
 62
250
  6
CONTINUOUS
 10
-33.7539008285
 20
0.227420366
 11
-33.7535791076
 21
0.2078272877
  0
LINE
  5
5F7
100
AcDbEntity
  8
0
100
AcDbLine
 62
250
  6
CONTINUOUS
 10
-33.7541229729
 20
0.248571255
 11
-33.7539008285
 21
0.227420366
  0
LWPOLYLINE
  5
5F8
100
AcDbEntity
  8
0
100
AcDbPolyline
 62
250
  6
CONTINUOUS
 90
18
 70
0
 10
-32.225694197
 20
-21.9925242435
 10
-32.2256454024
 20
-22.0009313473
 10
-32.2255631026
 20
-22.0088768061
 10
-32.2254473857
 20
-22.0163521315
 10
-32.2252983753
 20
-22.0233493375
 10
-32.2251162306
 20
-22.0298609485
 10
-32.2249011462
 20
-22.0358800082
 10
-32.2246533517
 20
-22.0414000859
 10
-32.2243731121
 20
-22.0464152845
 10
-32.2240607266
 20
-22.0509202461
 10
-32.223716529
 20
-22.0549101577
 10
-32.223340887
 20
-22.058380757
 10
-32.222934202
 20
-22.061328336
 10
-32.2224969084
 20
-22.0637497457
 10
-32.2220294733
 20
-22.0656423994
 10
-32.2215323962
 20
-22.067004275
 10
-32.2210062081
 20
-22.0678339175
 10
-32.2204514712
 20
-22.0681304407
  0
LINE
  5
5F9
100
AcDbEntity
  8
0
100
AcDbLine
 62
250
  6
CONTINUOUS
 10
-33.7540494685
 20
-0.3566643233
 11
-33.7542386878
 21
-0.324589449
  0
LINE
  5
5FA
100
AcDbEntity
  8
0
100
AcDbLine
 62
250
  6
CONTINUOUS
 10
-33.7542423026
 20
0.2709716467
 11
-33.7541229729
 21
0.248571255
  0
LWPOLYLINE
  5
5FB
100
AcDbEntity
  8
0
100
AcDbPolyline
 62
250
  6
CONTINUOUS
 90
10
 70
0
 10
-33.7540465968
 20
-0.3566642983
 10
-33.7523112833
 20
-1.3728546335
 10
-33.7485084469
 20
-2.3890265977
 10
-33.7426380876
 20
-3.4051801911
 10
-33.7347000905
 20
-4.4213164984
 10
-33.7246945705
 20
-5.4374344347
 10
-33.7126218724
 20
-6.4535307454
 10
-33.6984821113
 20
-7.4696043456
 10
-33.682275172
 20
-8.48565632
 10
-33.6640010547
 20
-9.5016866688
  0
LINE
  5
5FC
100
AcDbEntity
  8
0
100
AcDbLine
 62
250
  6
CONTINUOUS
 10
-33.7542386878
 20
-0.324589449
 11
-33.754258887
 21
-0.3010334402
  0
LINE
  5
5FD
100
AcDbEntity
  8
0
100
AcDbLine
 62
250
  6
CONTINUOUS
 10
-33.7542570782
 20
0.2942950193
 11
-33.7542423026
 21
0.2709716467
  0
LINE
  5
5FE
100
AcDbEntity
  8
0
100
AcDbLine
 62
250
  6
CONTINUOUS
 10
-33.754258887
 20
-0.3010334402
 11
-33.7541742904
 21
-0.2782883413
  0
LWPOLYLINE
  5
5FF
100
AcDbEntity
  8
0
100
AcDbPolyline
 62
250
  6
CONTINUOUS
 90
3
 70
0
 10
-33.7540494685
 20
0.3342909857
 10
-33.7541139872
 20
0.3262396645
 10
-33.7542570782
 20
0.2942950193
  0
LINE
  5
600
100
AcDbEntity
  8
0
100
AcDbLine
 62
250
  6
CONTINUOUS
 10
-33.7541742904
 20
-0.2782883413
 11
-33.7539861309
 21
-0.2566856988
  0
LINE
  5
601
100
AcDbEntity
  8
0
100
AcDbLine
 62
250
  6
CONTINUOUS
 10
-33.7539861309
 20
-0.2566856988
 11
-33.7536971515
 21
-0.236540406
  0
LINE
  5
602
100
AcDbEntity
  8
0
100
AcDbLine
 62
250
  6
CONTINUOUS
 10
-33.7536971515
 20
-0.236540406
 11
-33.7534505089
 21
-0.2240658676
  0
LINE
  5
603
100
AcDbEntity
  8
0
100
AcDbLine
 62
250
  6
CONTINUOUS
 10
-33.7534505089
 20
-0.2240658676
 11
-33.7531624994
 21
-0.212450948
  0
LINE
  5
604
100
AcDbEntity
  8
0
100
AcDbLine
 62
250
  6
CONTINUOUS
 10
-33.7531624994
 20
-0.212450948
 11
-33.7528349903
 21
-0.2017709454
  0
LWPOLYLINE
  5
605
100
AcDbEntity
  8
0
100
AcDbPolyline
 62
250
  6
CONTINUOUS
 90
17
 70
0
 10
-33.7528349903
 20
-0.2017709454
 10
-33.7524701047
 20
-0.1920950967
 10
-33.7522743759
 20
-0.187653598
 10
-33.7520702082
 20
-0.1834861291
 10
-33.7518579325
 20
-0.1795994469
 10
-33.7516378931
 20
-0.1759998533
 10
-33.7514104468
 20
-0.1726931846
 10
-33.7511759622
 20
-0.1696848019
 10
-33.7509348197
 20
-0.1669795832
 10
-33.7506874102
 20
-0.1645819144
 10
-33.7504341347
 20
-0.1624956832
 10
-33.7501754041
 20
-0.1607242721
 10
-33.7499116378
 20
-0.1592705531
 10
-33.7496432633
 20
-0.1581368834
 10
-33.749370716
 20
-0.157325101
 10
-33.7490944377
 20
-0.156836522
 10
-33.7488148762
 20
-0.1566719387
  0
LINE
  5
606
100
AcDbEntity
  8
0
100
AcDbLine
 62
250
  6
CONTINUOUS
 10
-32.2117332414
 20
21.5464423357
 11
-32.2149918107
 21
21.6115407456
  0
LINE
  5
607
100
AcDbEntity
  8
0
100
AcDbLine
 62
250
  6
CONTINUOUS
 10
-32.2149918107
 20
21.6115407456
 11
-32.2178968773
 21
21.6755278895
  0
LINE
  5
608
100
AcDbEntity
  8
0
100
AcDbLine
 62
250
  6
CONTINUOUS
 10
-32.2178968773
 20
21.6755278895
 11
-32.2203988502
 21
21.7373114707
  0
LINE
  5
609
100
AcDbEntity
  8
0
100
AcDbLine
 62
250
  6
CONTINUOUS
 10
-32.2203988502
 20
21.7373114707
 11
-32.2224550192
 21
21.7958368087
  0
LINE
  5
60A
100
AcDbEntity
  8
0
100
AcDbLine
 62
250
  6
CONTINUOUS
 10
-32.2224550192
 20
21.7958368087
 11
-32.2236831685
 21
21.8369890138
  0
LINE
  5
60B
100
AcDbEntity
  8
0
100
AcDbLine
 62
250
  6
CONTINUOUS
 10
-32.2236831685
 20
21.8369890138
 11
-32.2246288404
 21
21.8753495941
  0
LINE
  5
60C
100
AcDbEntity
  8
0
100
AcDbLine
 62
250
  6
CONTINUOUS
 10
-32.2246288404
 20
21.8753495941
 11
-32.2250977549
 21
21.8991891866
  0
LINE
  5
60D
100
AcDbEntity
  8
0
100
AcDbLine
 62
250
  6
CONTINUOUS
 10
-32.2250977549
 20
21.8991891866
 11
-32.2254350246
 21
21.9215217725
  0
LINE
  5
60E
100
AcDbEntity
  8
0
100
AcDbLine
 62
250
  6
CONTINUOUS
 10
-32.2254350246
 20
21.9215217725
 11
-32.2256392086
 21
21.9422519426
  0
LWPOLYLINE
  5
60F
100
AcDbEntity
  8
0
100
AcDbPolyline
 62
250
  6
CONTINUOUS
 90
20
 70
0
 10
-32.2256392086
 20
21.9422519426
 10
-32.2257094346
 20
21.9612911331
 10
-32.2256941971
 20
21.9701509006
 10
-32.2256454025
 20
21.9785580048
 10
-32.2255631028
 20
21.9865034641
 10
-32.2254473859
 20
21.99397879
 10
-32.2252983755
 20
22.0009759964
 10
-32.2251162308
 20
22.0074876079
 10
-32.2249011463
 20
22.013506668
 10
-32.2246533519
 20
22.0190267461
 10
-32.2243731123
 20
22.0240419451
 10
-32.2240607268
 20
22.0285469071
 10
-32.2237165292
 20
22.032536819
 10
-32.2233408872
 20
22.0360074185
 10
-32.2229342021
 20
22.0389549978
 10
-32.2224969085
 20
22.0413764078
 10
-32.2220294734
 20
22.0432690616
 10
-32.2215323963
 20
22.0446309373
 10
-32.2210062081
 20
22.0454605799
 10
-32.2204514712
 20
22.0457571031
  0
LINE
  5
610
100
AcDbEntity
  8
0
100
AcDbLine
 62
250
  6
CONTINUOUS
 10
-32.2256910985
 20
-21.9743615114
 11
-32.225694197
 21
-21.9925242435
  0
LINE
  5
611
100
AcDbEntity
  8
0
100
AcDbLine
 62
250
  6
CONTINUOUS
 10
-32.2255538202
 20
-21.9544662046
 11
-32.2256910985
 21
-21.9743615114
  0
LINE
  5
612
100
AcDbEntity
  8
0
100
AcDbLine
 62
250
  6
CONTINUOUS
 10
-32.2252829487
 20
-21.9329233198
 11
-32.2255538202
 21
-21.9544662046
  0
LINE
  5
613
100
AcDbEntity
  8
0
100
AcDbLine
 62
250
  6
CONTINUOUS
 10
-32.2248796412
 20
-21.9098248928
 11
-32.2252829487
 21
-21.9329233198
  0
LINE
  5
614
100
AcDbEntity
  8
0
100
AcDbLine
 62
250
  6
CONTINUOUS
 10
-32.2240302844
 20
-21.8724781895
 11
-32.2248796412
 21
-21.9098248928
  0
LINE
  5
615
100
AcDbEntity
  8
0
100
AcDbLine
 62
250
  6
CONTINUOUS
 10
-32.2228951151
 20
-21.8322138418
 11
-32.2240302844
 21
-21.8724781895
  0
LINE
  5
616
100
AcDbEntity
  8
0
100
AcDbLine
 62
250
  6
CONTINUOUS
 10
-32.2214850402
 20
-21.7894187168
 11
-32.2228951151
 21
-21.8322138418
  0
LINE
  5
617
100
AcDbEntity
  8
0
100
AcDbLine
 62
250
  6
CONTINUOUS
 10
-32.2192010905
 20
-21.7291354846
 11
-32.2214850402
 21
-21.7894187168
  0
LINE
  5
618
100
AcDbEntity
  8
0
100
AcDbLine
 62
250
  6
CONTINUOUS
 10
-32.2164917834
 20
-21.6661155026
 11
-32.2192010905
 21
-21.7291354846
  0
LINE
  5
619
100
AcDbEntity
  8
0
100
AcDbLine
 62
250
  6
CONTINUOUS
 10
-32.2134033681
 20
-21.6014345573
 11
-32.2164917834
 21
-21.6661155026
  0
LINE
  5
61A
100
AcDbEntity
  8
0
100
AcDbLine
 62
250
  6
CONTINUOUS
 10
-32.2117332414
 20
-21.5688156733
 11
-32.2134033681
 21
-21.6014345573
  0
LWPOLYLINE
  5
61B
100
AcDbEntity
  8
0
100
AcDbPolyline
 62
7
  6
CONTINUOUS
 90
3
 70
0
 43
0.3500000019
 10
-20.1775561523
 20
31.2734082031
 10
-20.2489863281
 20
31.0591230469
 10
-20.3918413086
 20
30.7734077148
  0
LINE
  5
61C
100
AcDbEntity
  8
0
100
AcDbLine
 62
250
  6
CONTINUOUS
 10
-28.5367191947
 20
-0.3111333718
 11
-33.7540465968
 21
-0.3566642983
  0
LINE
  5
61D
100
AcDbEntity
  8
0
100
AcDbLine
 62
7
  6
CONTINUOUS
 10
-28.5367191947
 20
-0.1111866688
 11
-34.0383433464
 21
-0.1591986154
  0
LINE
  5
61E
100
AcDbEntity
  8
0
100
AcDbLine
 62
250
  6
CONTINUOUS
 10
-33.7540465968
 20
-0.3566643075
 11
-34.2365979904
 21
-0.3593302584
  0
LINE
  5
61F
100
AcDbEntity
  8
0
100
AcDbLine
 62
7
  6
CONTINUOUS
 10
-34.0383433464
 20
0.1368252778
 11
-28.5367191947
 21
0.0888133312
  0
LINE
  5
620
100
AcDbEntity
  8
RACCORDO
100
AcDbLine
 62
7
  6
CONTINUOUS
 10
-28.9367191947
 20
-17.94467827
 11
-28.9367191947
 21
-17.6832075899
  0
LINE
  5
621
100
AcDbEntity
  8
RACCORDO
100
AcDbLine
 62
7
  6
CONTINUOUS
 10
-28.9367191947
 20
17.6608342523
 11
-28.9367191947
 21
17.9223049324
  0
LINE
  5
622
100
AcDbEntity
  8
0
100
AcDbLine
 62
7
  6
CONTINUOUS
 10
-28.5367191947
 20
-0.1111866688
 11
-28.5367191947
 21
-13.1111866688
  0
LINE
  5
623
100
AcDbEntity
  8
0
100
AcDbLine
 62
7
  6
CONTINUOUS
 10
-28.5367191947
 20
0.0888133312
 11
-28.5367191947
 21
13.0888133312
  0
LINE
  5
624
100
AcDbEntity
  8
0
100
AcDbLine
 62
250
  6
CONTINUOUS
 10
-34.2365979904
 20
0.3369569208
 11
-33.7540465969
 21
0.33429097
  0
LINE
  5
625
100
AcDbEntity
  8
0
100
AcDbLine
 62
250
  6
CONTINUOUS
 10
-33.7540465969
 20
0.3342909607
 11
-28.5367191947
 21
0.2887600342
  0
LINE
  5
626
100
AcDbEntity
  8
0
100
AcDbLine
 62
7
  6
CONTINUOUS
 10
-29.3335867592
 20
22.1970512718
 11
-28.5367191947
 21
13.0888133312
  0
LINE
  5
627
100
AcDbEntity
  8
0
100
AcDbLine
 62
7
  6
CONTINUOUS
 10
-28.5367191947
 20
-13.1111866688
 11
-29.3335867592
 21
-22.2194246094
  0
LINE
  5
628
100
AcDbEntity
  8
RACCORDO
100
AcDbLine
 62
7
  6
CONTINUOUS
 10
-28.9720406611
 20
-18.0869337979
 11
-28.9648277135
 21
-18.0714655818
  0
LINE
  5
629
100
AcDbEntity
  8
RACCORDO
100
AcDbLine
 62
7
  6
CONTINUOUS
 10
-28.9648277135
 20
18.0490922442
 11
-28.9720406611
 21
18.0645604603
  0
LWPOLYLINE
  5
62A
100
AcDbEntity
  8
0
100
AcDbPolyline
 62
7
  6
CONTINUOUS
 90
4
 70
0
 43
0.3500000019
 10
-19.1775551758
 20
33.3448376465
 10
-19.1775551758
 20
33.9876958008
 10
-17.6775537109
 20
33.9876958008
 10
-18.534699707
 20
30.9876955566
  0
LINE
  5
62B
100
AcDbEntity
  8
0
100
AcDbLine
 62
250
  6
CONTINUOUS
 10
-33.6640010547
 20
9.4793133312
 11
-34.0276316049
 21
9.4863404068
  0
LINE
  5
62C
100
AcDbEntity
  8
0
100
AcDbLine
 62
250
  6
CONTINUOUS
 10
-34.0276316049
 20
9.4863404068
 11
-34.1423727333
 21
9.4886932866
  0
LWPOLYLINE
  5
62D
100
AcDbEntity
  8
0
100
AcDbPolyline
 62
250
  6
CONTINUOUS
 90
4
 70
0
 10
-34.1423727333
 20
9.4886932866
 10
-34.1454381241
 20
9.4887726724
 10
-34.1462053526
 20
9.4887978568
 10
-34.1464610482
 20
9.4888133312
  0
LINE
  5
62E
100
AcDbEntity
  8
RACCORDO
100
AcDbLine
 62
250
  6
CONTINUOUS
 10
-28.9595949151
 20
17.9223049325
 11
-28.9367191947
 21
17.9223049324
  0
LWPOLYLINE
  5
62F
100
AcDbEntity
  8
0
100
AcDbPolyline
 62
250
  6
CONTINUOUS
 90
52
 70
0
 10
-32.2117332414
 20
21.5464423357
 10
-32.2251357584
 20
21.5455588115
 10
-32.2384918272
 20
21.5443183429
 10
-32.251801448
 20
21.54272093
 10
-32.2650745457
 20
21.5407648861
 10
-32.2783011953
 20
21.5384518978
 10
-32.2914516217
 20
21.5357870249
 10
-32.3045252816
 20
21.5327695224
 10
-32.3175227182
 20
21.5294001352
 10
-32.3304157867
 20
21.5256861582
 10
-32.3432042181
 20
21.5216268545
 10
-32.3558882814
 20
21.517222961
 10
-32.3684406386
 20
21.512483983
 10
-32.3808610248
 20
21.5074091909
 10
-32.3931497049
 20
21.5019993143
 10
-32.405280135
 20
21.4962660468
 10
-32.4172519695
 20
21.4902086893
 10
-32.429065554
 20
21.4838279409
 10
-32.4406953826
 20
21.4771375921
 10
-32.4521410572
 20
21.4701369731
 10
-32.4634029758
 20
21.4628267538
 10
-32.4744568261
 20
21.4552227337
 10
-32.4853021488
 20
21.4473242856
 10
-32.4959394032
 20
21.4391320368
 10
-32.506345654
 20
21.430663669
 10
-32.5165204135
 20
21.421918576
 10
-32.5264641695
 20
21.4128973639
 10
-32.5361554495
 20
21.4036195335
 10
-32.5455936963
 20
21.3940845417
 10
-32.5547794672
 20
21.3842929314
 10
-32.5636929611
 20
21.374265833
 10
-32.5723335966
 20
21.3640027304
 10
-32.5807019552
 20
21.3535041396
 10
-32.5887799795
 20
21.342792738
 10
-32.5965670395
 20
21.3318680688
 10
-32.6040637653
 20
21.3207305888
 10
-32.6112539894
 20
21.309404346
 10
-32.6181370498
 20
21.2978889319
 10
-32.6247136085
 20
21.286184755
 10
-32.6309694844
 20
21.274317089
 10
-32.6369039784
 20
21.2622856009
 10
-32.6425177897
 20
21.2500906237
 10
-32.6477988345
 20
21.2377584305
 10
-32.6527464081
 20
21.2252886839
 10
-32.6573612154
 20
21.2126817212
 10
-32.6616332875
 20
21.1999648284
 10
-32.6655619193
 20
21.1871375024
 10
-32.669147816
 20
21.1742002462
 10
-32.6723831245
 20
21.1611818543
 10
-32.6752652271
 20
21.148091925
 10
-32.6777967415
 20
21.1349208601
 10
-32.6799776678
 20
21.1216686596
  0
LINE
  5
630
100
AcDbEntity
  8
0
100
AcDbLine
 62
250
  6
CONTINUOUS
 10
-29.2900619687
 20
21.6995606389
 11
-32.2117332414
 21
21.5464423357
  0
LINE
  5
631
100
AcDbEntity
  8
0
100
AcDbLine
 62
7
  6
CONTINUOUS
 10
-29.3335867592
 20
22.1970512718
 11
-32.2204514712
 21
22.0457571031
  0
LWPOLYLINE
  5
632
100
AcDbEntity
  8
0
100
AcDbPolyline
 62
7
  6
CONTINUOUS
 90
8
 70
0
 43
0.3500000019
 10
-23.0346987305
 20
30.9876955566
 10
-22.1775581055
 20
30.9876955566
 10
-21.7489824219
 20
31.4162658691
 10
-21.7489824219
 20
32.2734091797
 10
-22.1775581055
 20
32.7019794922
 10
-23.0346987305
 20
32.7019794922
 10
-23.0346987305
 20
33.9876958008
 10
-21.7489824219
 20
33.9876958008
  0
LINE
  5
633
100
AcDbEntity
  8
0
100
AcDbLine
 62
250
  6
CONTINUOUS
 10
-32.6799776678
 20
21.1216686596
 11
-32.8345476375
 21
21.1451348987
  0
LINE
  5
634
100
AcDbEntity
  8
0
100
AcDbLine
 62
250
  6
CONTINUOUS
 10
-32.8345476375
 20
21.1451348987
 11
-32.9716462759
 21
21.1662177689
  0
LINE
  5
635
100
AcDbEntity
  8
0
100
AcDbLine
 62
250
  6
CONTINUOUS
 10
-32.9716462759
 20
21.1662177689
 11
-33.0685281246
 21
21.18137616
  0
LINE
  5
636
100
AcDbEntity
  8
0
100
AcDbLine
 62
250
  6
CONTINUOUS
 10
-33.0685281246
 20
21.18137616
 11
-33.1149149037
 21
21.1888097488
  0
LINE
  5
637
100
AcDbEntity
  8
0
100
AcDbLine
 62
250
  6
CONTINUOUS
 10
-33.1149149037
 20
21.1888097488
 11
-33.1366802562
 21
21.1924073697
  0
LWPOLYLINE
  5
638
100
AcDbEntity
  8
0
100
AcDbPolyline
 62
250
  6
CONTINUOUS
 90
9
 70
0
 10
-33.1366802562
 20
21.1924073697
 10
-33.1446700143
 20
21.1937749457
 10
-33.1479260368
 20
21.194348279
 10
-33.1506848729
 20
21.1948471676
 10
-33.1529436966
 20
21.1952711005
 10
-33.1547001944
 20
21.1956196435
 10
-33.1559525671
 20
21.1958924395
 10
-33.1566995319
 20
21.1960892091
 10
-33.1569403236
 20
21.1962097508
  0
LWPOLYLINE
  5
639
100
AcDbEntity
  8
0
100
AcDbPolyline
 62
7
  6
CONTINUOUS
 90
10
 70
0
 43
0.3500000019
 10
-20.2489863281
 20
31.4876933594
 10
-20.1775561523
 20
31.3448383789
 10
-20.1775561523
 20
31.2734082031
 10
-20.3204111328
 20
31.1305505371
 10
-20.3918413086
 20
31.1305505371
 10
-20.4632714844
 20
31.2019807129
 10
-20.4632714844
 20
31.2734082031
 10
-20.3918413086
 20
31.4162658691
 10
-20.3204111328
 20
31.4876933594
 10
-20.2489863281
 20
31.4876933594
  0
ARC
  5
63A
100
AcDbEntity
  8
0
100
AcDbCircle
 62
7
  6
CONTINUOUS
 10
55.8372924854
 20
-7.8011866688
 40
90.0
100
AcDbArc
 50
181.08868532
 51
188.5737414447
  0
ARC
  5
63B
100
AcDbEntity
  8
0
100
AcDbCircle
 62
7
  6
CONTINUOUS
 10
-32.1681155149
 20
-21.069500906
 40
1.0
100
AcDbArc
 50
188.5737414447
 51
267.0
  0
ARC
  5
63C
100
AcDbEntity
  8
RACCORDO
100
AcDbCircle
 62
7
  6
CONTINUOUS
 10
-29.2367191947
 20
-17.94467827
 40
0.3
100
AcDbArc
 50
334.9996136756
 51
360.0
  0
ARC
  5
63D
100
AcDbEntity
  8
0
100
AcDbCircle
 62
7
  6
CONTINUOUS
 10
-34.0365980393
 20
-0.359191
 40
0.2
100
AcDbArc
 50
90.5
 51
180.0398943198
  0
ARC
  5
63E
100
AcDbEntity
  8
0
100
AcDbCircle
 62
7
  6
CONTINUOUS
 10
-34.0365980027
 20
0.3368176621
 40
0.2
100
AcDbArc
 50
179.9601055486
 51
269.4999895875
  0
ARC
  5
63F
100
AcDbEntity
  8
0
100
AcDbCircle
 62
7
  6
CONTINUOUS
 10
-32.1681155149
 20
21.0471275684
 40
1.0
100
AcDbArc
 50
93.0
 51
171.4262585553
  0
ARC
  5
640
100
AcDbEntity
  8
RACCORDO
100
AcDbCircle
 62
7
  6
CONTINUOUS
 10
-29.2367191947
 20
17.9223049324
 40
0.3
100
AcDbArc
 50
0.0
 51
25.0003863213
  0
ARC
  5
641
100
AcDbEntity
  8
0
100
AcDbCircle
 62
7
  6
CONTINUOUS
 10
55.8372924854
 20
7.7788133312
 40
90.0
100
AcDbArc
 50
171.4262585553
 51
178.91131468
  0
ARC
  5
642
100
AcDbEntity
  8
0
100
AcDbCircle
 62
7
  6
CONTINUOUS
 10
465.7632808052
 20
-0.0111866688
 40
500.0
100
AcDbArc
 50
178.91131468
 51
179.9601056802
  0
ARC
  5
643
100
AcDbEntity
  8
0
100
AcDbCircle
 62
7
  6
CONTINUOUS
 10
465.7632808052
 20
-0.0111866688
 40
500.0
100
AcDbArc
 50
180.0398943198
 51
181.08868532
  0
ELLIPSE
  5
644
100
AcDbEntity
  8
RACCORDO
100
AcDbEllipse
 62
7
  6
CONTINUOUS
 10
-10.174366213
 20
0.2888209469
 30
0.0
 11
0.1789222233
 21
0.0894542984
 31
0.0
 40
0.9998096356
 41
-2.0344896259
 42
-1.5707963266
  0
ELLIPSE
  5
645
100
AcDbEntity
  8
RACCORDO
100
AcDbEllipse
 62
7
  6
CONTINUOUS
 10
7.2101941988
 20
22.1706832181
 30
0.0
 11
0.2
 21
0.0
 31
0.0
 40
0.0524077793
 41
-1.5707963268
 42
-0.5235987756
  0
ELLIPSE
  5
646
100
AcDbEntity
  8
RACCORDO
100
AcDbEllipse
 62
7
  6
CONTINUOUS
 10
-3.9898058012
 20
22.1706832181
 30
0.0
 11
0.2
 21
0.0
 31
0.0
 40
0.0524077793
 41
-1.5707963268
 42
-0.5235987756
  0
ELLIPSE
  5
647
100
AcDbEntity
  8
RACCORDO
100
AcDbEllipse
 62
7
  6
CONTINUOUS
 10
3.8411343065
 20
22.1706832181
 30
0.0
 11
0.2
 21
-0.0
 31
0.0
 40
0.0524077793
 41
-2.617993878
 42
-1.5707963268
  0
ELLIPSE
  5
648
100
AcDbEntity
  8
RACCORDO
100
AcDbEllipse
 62
7
  6
CONTINUOUS
 10
-7.3588656935
 20
22.1706832181
 30
0.0
 11
0.2
 21
0.0
 31
0.0
 40
0.0524077793
 41
-2.617993878
 42
-1.5707963268
  0
ELLIPSE
  5
649
100
AcDbEntity
  8
0
100
AcDbEllipse
 62
7
  6
CONTINUOUS
 10
10.8755423438
 20
0.2888209469
 30
0.0
 11
0.1941585013
 21
-0.0485211407
 31
0.0
 40
0.9993528196
 41
-1.3257549497
 42
0.2447368254
  0
ELLIPSE
  5
64A
100
AcDbEntity
  8
0
100
AcDbEllipse
 62
7
  6
CONTINUOUS
 10
-11.0242138385
 20
0.2888209469
 30
0.0
 11
0.1941585013
 21
0.0485211407
 31
0.0
 40
0.9993528196
 41
2.8968558282
 42
4.4673476033
  0
ELLIPSE
  5
64B
100
AcDbEntity
  8
0
100
AcDbEllipse
 62
7
  6
CONTINUOUS
 10
4.1193046301
 20
0.7824537087
 30
0.0
 11
0.4643386945
 21
-0.1896138901
 31
0.0
 40
0.9790602997
 41
1.1805847873
 42
1.9659448745
  0
ELLIPSE
  5
64C
100
AcDbEntity
  8
0
100
AcDbEllipse
 62
7
  6
CONTINUOUS
 10
4.1193046301
 20
0.7824537087
 30
0.0
 11
-0.1896138901
 21
0.4643386945
 31
0.0
 40
0.9790602997
 41
-1.9659448745
 42
-1.1805847873
  0
ELLIPSE
  5
64D
100
AcDbEntity
  8
0
100
AcDbEllipse
 62
7
  6
CONTINUOUS
 10
-4.2679761248
 20
0.7824537087
 30
0.0
 11
0.1896138901
 21
0.4643386945
 31
0.0
 40
0.9790602997
 41
1.1805847873
 42
1.9659448745
  0
ELLIPSE
  5
64E
100
AcDbEntity
  8
0
100
AcDbEllipse
 62
7
  6
CONTINUOUS
 10
-4.2679761248
 20
0.7824537087
 30
0.0
 11
0.4643386945
 21
0.1896138901
 31
0.0
 40
0.9790602997
 41
1.1756477791
 42
1.9610078663
  0
ELLIPSE
  5
64F
100
AcDbEntity
  8
0
100
AcDbEllipse
 62
7
  6
CONTINUOUS
 10
-10.6977264471
 20
21.6986503103
 30
0.0
 11
0.4943891341
 21
0.0770133648
 31
0.0
 40
0.9960067742
 41
1.4156538168
 42
2.984623644
  0
ELLIPSE
  5
650
100
AcDbEntity
  8
0
100
AcDbEllipse
 62
7
  6
CONTINUOUS
 10
10.5490549523
 20
21.6986503103
 30
0.0
 11
0.4943891341
 21
-0.0770133648
 31
0.0
 40
0.9960067742
 41
0.1569690096
 42
1.7259388368
  0
ELLIPSE
  5
651
100
AcDbEntity
  8
0
100
AcDbEllipse
 62
7
  6
CONTINUOUS
 10
4.808907674
 20
0.3220567526
 30
0.0
 11
-0.075845556
 21
0.1857354778
 31
0.0
 40
0.9790602997
 41
1.1756477791
 42
2.7463679535
  0
ELLIPSE
  5
652
100
AcDbEntity
  8
0
100
AcDbEllipse
 62
7
  6
CONTINUOUS
 10
-4.9575791687
 20
0.3220567526
 30
0.0
 11
0.075845556
 21
0.1857354778
 31
0.0
 40
0.9790602997
 41
-2.7463679535
 42
-1.1756477791
  0
ELLIPSE
  5
653
100
AcDbEntity
  8
RACCORDO
100
AcDbEllipse
 62
7
  6
CONTINUOUS
 10
10.0256947182
 20
-0.3111942845
 30
0.0
 11
0.1789222233
 21
0.0894542984
 31
0.0
 40
0.9998096356
 41
1.1071030277
 42
1.570796327
  0
ELLIPSE
  5
654
100
AcDbEntity
  8
RACCORDO
100
AcDbEllipse
 62
7
  6
CONTINUOUS
 10
-7.3588656935
 20
-22.1930565557
 30
0.0
 11
0.2
 21
-0.0
 31
0.0
 40
0.0524077793
 41
1.5707963268
 42
2.617993878
  0
ELLIPSE
  5
655
100
AcDbEntity
  8
RACCORDO
100
AcDbEllipse
 62
7
  6
CONTINUOUS
 10
3.8411343065
 20
-22.1930565557
 30
0.0
 11
0.2
 21
0.0
 31
0.0
 40
0.0524077793
 41
1.5707963268
 42
2.617993878
  0
ELLIPSE
  5
656
100
AcDbEntity
  8
RACCORDO
100
AcDbEllipse
 62
7
  6
CONTINUOUS
 10
-3.9898058012
 20
-22.1930565557
 30
0.0
 11
0.2
 21
0.0
 31
0.0
 40
0.0524077793
 41
0.5235987756
 42
1.5707963268
  0
ELLIPSE
  5
657
100
AcDbEntity
  8
RACCORDO
100
AcDbEllipse
 62
7
  6
CONTINUOUS
 10
7.2101941988
 20
-22.1930565557
 30
0.0
 11
0.2
 21
0.0
 31
0.0
 40
0.0524077793
 41
0.5235987756
 42
1.5707963268
  0
ELLIPSE
  5
658
100
AcDbEntity
  8
0
100
AcDbEllipse
 62
7
  6
CONTINUOUS
 10
-11.0242138385
 20
-0.3111942845
 30
0.0
 11
0.1941585013
 21
-0.0485211407
 31
0.0
 40
0.9993528196
 41
1.8158377039
 42
3.386329479
  0
ELLIPSE
  5
659
100
AcDbEntity
  8
0
100
AcDbEllipse
 62
7
  6
CONTINUOUS
 10
10.8755423438
 20
-0.3111942845
 30
0.0
 11
0.1941585013
 21
0.0485211407
 31
0.0
 40
0.9993528196
 41
-0.2447368254
 42
1.3257549497
  0
ELLIPSE
  5
65A
100
AcDbEntity
  8
0
100
AcDbEllipse
 62
7
  6
CONTINUOUS
 10
-4.2679761248
 20
-0.8048270462
 30
0.0
 11
0.4643386945
 21
-0.1896138901
 31
0.0
 40
0.9790602997
 41
-1.9610078663
 42
-1.1756477791
  0
ELLIPSE
  5
65B
100
AcDbEntity
  8
0
100
AcDbEllipse
 62
7
  6
CONTINUOUS
 10
-4.2679761248
 20
-0.8048270462
 30
0.0
 11
-0.1896138901
 21
0.4643386945
 31
0.0
 40
0.9790602997
 41
1.1756477791
 42
1.9610078663
  0
ELLIPSE
  5
65C
100
AcDbEntity
  8
0
100
AcDbEllipse
 62
7
  6
CONTINUOUS
 10
4.1193046301
 20
-0.8048270462
 30
0.0
 11
0.1896138901
 21
0.4643386945
 31
0.0
 40
0.9790602997
 41
-1.9610078663
 42
-1.1756477791
  0
ELLIPSE
  5
65D
100
AcDbEntity
  8
0
100
AcDbEllipse
 62
7
  6
CONTINUOUS
 10
4.1193046301
 20
-0.8048270462
 30
0.0
 11
0.4643386945
 21
0.1896138901
 31
0.0
 40
0.9790602997
 41
-1.9659448745
 42
-1.1805847873
  0
ELLIPSE
  5
65E
100
AcDbEntity
  8
0
100
AcDbEllipse
 62
7
  6
CONTINUOUS
 10
10.5490549523
 20
-21.7210236479
 30
0.0
 11
0.4943891341
 21
0.0770133648
 31
0.0
 40
0.9960067742
 41
-1.7259388368
 42
-0.1569690096
  0
ELLIPSE
  5
65F
100
AcDbEntity
  8
0
100
AcDbEllipse
 62
7
  6
CONTINUOUS
 10
-10.6977264471
 20
-21.7210236479
 30
0.0
 11
0.4943891341
 21
-0.0770133648
 31
0.0
 40
0.9960067742
 41
-2.984623644
 42
-1.4156538168
  0
ELLIPSE
  5
660
100
AcDbEntity
  8
0
100
AcDbEllipse
 62
7
  6
CONTINUOUS
 10
-4.9575791687
 20
-0.3444300902
 30
0.0
 11
-0.075845556
 21
0.1857354778
 31
0.0
 40
0.9790602997
 41
-1.9659448745
 42
-0.3952247001
  0
ELLIPSE
  5
661
100
AcDbEntity
  8
0
100
AcDbEllipse
 62
7
  6
CONTINUOUS
 10
4.808907674
 20
-0.3444300902
 30
0.0
 11
0.075845556
 21
0.1857354778
 31
0.0
 40
0.9790602997
 41
0.3952247001
 42
1.9659448745
  0
ENDSEC
  0
SECTION
  2
OBJECTS
  0
DICTIONARY
  5
C
100
AcDbDictionary
280
0
281
1
  3
ACAD_GROUP
350
D
  3
ACAD_MLINESTYLE
350
17
  3
ACAD_LAYOUT
350
1A
  3
ACAD_PLOTSETTINGS
350
19
  3
ACAD_PLOTSTYLENAME
350
E
  0
DICTIONARY
  5
D
102
{ACAD_REACTORS
330
C
102
}
100
AcDbDictionary
280
0
281
1
  0
ACDBDICTIONARYWDFLT
  5
E
102
{ACAD_REACTORS
330
C
102
}
100
AcDbDictionary
281
1
  3
Normal
350
F
100
AcDbDictionaryWithDefault
340
F
  0
DICTIONARY
  5
17
102
{ACAD_REACTORS
330
C
102
}
100
AcDbDictionary
280
0
281
1
  3
Standard
350
18
  0
DICTIONARY
  5
19
102
{ACAD_REACTORS
330
C
102
}
100
AcDbDictionary
281
1
  0
DICTIONARY
  5
1A
102
{ACAD_REACTORS
330
C
102
}
100
AcDbDictionary
281
1
  3
Model
350
662
  3
Layout1
350
663
  0
ACDBPLACEHOLDER
  5
F
102
{ACAD_REACTORS
330
E
102
}
  0
MLINESTYLE
  5
18
102
{ACAD_REACTORS
330
17
102
}
100
AcDbMlineStyle
  2
STANDARD
 70
0
  3

 62
256
 51
90.0
 52
90.0
 71
2
 49
0.5
 62
256
  6
BYLAYER
 49
-0.5
 62
256
  6
BYLAYER
  0
LAYOUT
  5
662
102
{ACAD_REACTORS
330
1A
102
}
100
AcDbPlotSettings
  1

  2
none_device
  4

  6

 40
0.0
 41
0.0
 42
0.0
 43
0.0
 44
210.0
 45
297.0
 46
0.0
 47
0.0
 48
0.0
 49
0.0
140
0.0
141
0.0
142
1.0
143
1.0
 70
1024
 72
1
 73
0
 74
0
  7

 75
0
147
1.0
148
0.0
149
0.0
100
AcDbLayout
  1
Model
 70
0
 71
0
 10
0.0
 20
0.0
 11
210.0
 21
297.0
 12
0.0
 22
0.0
 32
0.0
 14
0.0
 24
0.0
 34
0.0
 15
0.0
 25
0.0
 35
0.0
146
0.0
 13
0.0
 23
0.0
 33
0.0
 16
1.0
 26
0.0
 36
0.0
 17
0.0
 27
1.0
 37
0.0
 76
0
330
223
345
0
346
0
  0
LAYOUT
  5
663
102
{ACAD_REACTORS
330
1A
102
}
100
AcDbPlotSettings
  1

  2
none_device
  4

  6

 40
0.0
 41
0.0
 42
0.0
 43
0.0
 44
210.0
 45
297.0
 46
0.0
 47
0.0
 48
0.0
 49
0.0
140
0.0
141
0.0
142
1.0
143
1.0
 70
0
 72
1
 73
0
 74
0
  7

 75
0
147
1.0
148
0.0
149
0.0
100
AcDbLayout
  1
Layout1
 70
0
 71
1
 10
0.0
 20
0.0
 11
210.0
 21
297.0
 12
0.0
 22
0.0
 32
0.0
 14
0.0
 24
0.0
 34
0.0
 15
0.0
 25
0.0
 35
0.0
146
0.0
 13
0.0
 23
0.0
 33
0.0
 16
1.0
 26
0.0
 36
0.0
 17
0.0
 27
1.0
 37
0.0
 76
0
330
224
345
0
346
0
  0
ENDSEC
  0
EOF
