  0
SECTION
  2
HEADER
  9
$ACADVER
  1
AC1015
  9
$DWGCODEPAGE
  3
ANSI_1252
  9
$EXTMAX
 10
297.0
 20
210.0
 30
0.0
  9
$EXTMIN
 10
0.0
 20
0.0
 30
0.0
  9
$LIMMIN
 10
0.0
 20
0.0
  9
$LIMMAX
 10
297.0
 20
210.0
  9
$VIEWCTR
 10
148.5
 20
105.0
  9
$VIEWSIZE
 40
210.0
  9
$CLAYER
  8
0
  9
$LTSCALE
 40
16.335
  9
$CELTYPE
  6
BYLAYER
  9
$DIMSCALE
 40
1.0
  9
$DIMASZ
 40
3.0
  9
$DIMEXO
 40
1.85625
  9
$DIMDLI
 40
11.286
  9
$DIMEXE
 40
5.346
  9
$DIMCEN
 40
2.673
  9
$DIMLFAC
 40
1.0
  9
$DIMBLK
  1
_FILLED
  9
$DIMTXT
 40
3.0
  9
$DIMTOL
 70
1
  9
$DIMLIM
 70
0
  9
$DIMTFAC
 40
1.0
  9
$DIMTP
 40
0.01
  9
$DIMTM
 40
0.01
  9
$PDMODE
 70
3
  9
$PDSIZE
 40
3.0
  9
$HANDSEED
  5
333
  9
$TILEMODE
 70
1
  9
$MEASUREMENT
 70
1
  9
$INSUNITS
 70
4
  0
ENDSEC
  0
SECTION
  2
CLASSES
  0
CLASS
  1
ACDBDICTIONARYWDFLT
  2
AcDbDictionaryWithDefault
  3
AutoCAD 2000
 90
0
280
0
281
0
  0
CLASS
  1
ACDBPLACEHOLDER
  2
AcDbPlaceHolder
  3
AutoCAD 2000
 90
0
280
0
281
0
  0
CLASS
  1
LAYOUT
  2
AcDbLayout
  3
AutoCAD 2000
 90
0
280
0
281
0
  0
ENDSEC
  0
SECTION
  2
TABLES
  0
TABLE
  2
VPORT
  5
8
100
AcDbSymbolTable
 70
2
  0
VPORT
  5
1F4
100
AcDbSymbolTableRecord
100
AcDbViewportTableRecord
  2
*ACTIVE
 70
0
 10
0.0
 20
0.0
 11
1.0
 21
1.0
 12
148.5
 22
105.0
 13
0.0
 23
0.0
 14
1.0
 24
1.0
 15
0.0
 25
0.0
 16
0.0
 26
0.0
 36
1.0
 17
0.0
 27
0.0
 37
0.0
 40
210.0
 41
1.4142857143
 42
50.0
 43
0.0
 44
0.0
 50
0.0
 51
0.0
 71
0
 72
100
 73
1
 74
1
 75
0
 76
0
 77
0
 78
0
  0
ENDTAB
  0
TABLE
  2
LTYPE
  5
5
100
AcDbSymbolTable
 70
6
  0
LTYPE
  5
14
100
AcDbSymbolTableRecord
100
AcDbLinetypeTableRecord
  2
BYBLOCK
 70
0
  3

 72
65
 73
0
 40
0.0
  0
LTYPE
  5
15
100
AcDbSymbolTableRecord
100
AcDbLinetypeTableRecord
  2
BYLAYER
 70
0
  3

 72
65
 73
0
 40
0.0
  0
LTYPE
  5
16
100
AcDbSymbolTableRecord
100
AcDbLinetypeTableRecord
  2
CONTINUOUS
 70
64
  3
Solid line
 72
65
 73
0
 40
0.0
  0
LTYPE
  5
1F5
100
AcDbSymbolTableRecord
100
AcDbLinetypeTableRecord
  2
CENTER
 70
64
  3
____ _ ____ _ ____ _ ____ _ ____ _ ____ _ ____
 72
65
 73
4
 40
0.6
 49
0.375
 74
0
 49
-0.075
 74
0
 49
0.075
 74
0
 49
-0.075
 74
0
  0
LTYPE
  5
1F6
100
AcDbSymbolTableRecord
100
AcDbLinetypeTableRecord
  2
HIDDEN
 70
64
  3
- - - - - - - - - - - - - - - - - - - -
 72
65
 73
2
 40
0.2
 49
0.1
 74
0
 49
-0.1
 74
0
  0
LTYPE
  5
1F7
100
AcDbSymbolTableRecord
100
AcDbLinetypeTableRecord
  2
PHANTOM
 70
64
  3
_____ _ _ _____ _ _ _____ _ _ _____
 72
65
 73
6
 40
0.8
 49
0.45
 74
0
 49
-0.05
 74
0
 49
0.1
 74
0
 49
-0.05
 74
0
 49
0.1
 74
0
 49
-0.05
 74
0
  0
LTYPE
  5
1F8
100
AcDbSymbolTableRecord
100
AcDbLinetypeTableRecord
  2
DOT
 70
64
  3
. . . . . . . . . . . . . . . . . . . .
 72
65
 73
2
 40
0.2
 49
0.1
 74
0
 49
-0.1
 74
0
  0
LTYPE
  5
1F9
100
AcDbSymbolTableRecord
100
AcDbLinetypeTableRecord
  2
DASHED
 70
64
  3
- - - - - - - - - - - - - - - - - - - -
 72
65
 73
2
 40
0.2
 49
0.1
 74
0
 49
-0.1
 74
0
  0
ENDTAB
  0
TABLE
  2
LAYER
  5
2
100
AcDbSymbolTable
 70
36
  0
LAYER
  5
10
100
AcDbSymbolTableRecord
100
AcDbLayerTableRecord
  2
0
 70
0
 62
7
  6
CONTINUOUS
370
-3
390
F
  0
LAYER
  5
1FA
100
AcDbSymbolTableRecord
100
AcDbLayerTableRecord
  2
DEFAULT_1
 70
0
 62
7
  6
CENTER
370
-3
390
F
  0
LAYER
  5
1FB
100
AcDbSymbolTableRecord
100
AcDbLayerTableRecord
  2
DEFAULT_2
 70
0
 62
7
  6
HIDDEN
370
-3
390
F
  0
LAYER
  5
1FC
100
AcDbSymbolTableRecord
100
AcDbLayerTableRecord
  2
DEFAULT_3
 70
0
 62
7
  6
PHANTOM
370
-3
390
F
  0
LAYER
  5
1FD
100
AcDbSymbolTableRecord
100
AcDbLayerTableRecord
  2
ASSI
 70
0
 62
7
  6
CONTINUOUS
370
-3
390
F
  0
LAYER
  5
1FE
100
AcDbSymbolTableRecord
100
AcDbLayerTableRecord
  2
COLOR9
 70
0
 62
7
  6
CONTINUOUS
370
-3
390
F
  0
LAYER
  5
1FF
100
AcDbSymbolTableRecord
100
AcDbLayerTableRecord
  2
COORDINATE
 70
0
 62
7
  6
CONTINUOUS
370
-3
390
F
  0
LAYER
  5
200
100
AcDbSymbolTableRecord
100
AcDbLayerTableRecord
  2
COORD_ORIGINE
 70
0
 62
7
  6
CONTINUOUS
370
-3
390
F
  0
LAYER
  5
201
100
AcDbSymbolTableRecord
100
AcDbLayerTableRecord
  2
COPY_PUBLISH
 70
0
 62
7
  6
CONTINUOUS
370
-3
390
F
  0
LAYER
  5
202
100
AcDbSymbolTableRecord
100
AcDbLayerTableRecord
  2
COSMETIC
 70
0
 62
7
  6
CONTINUOUS
370
-3
390
F
  0
LAYER
  5
203
100
AcDbSymbolTableRecord
100
AcDbLayerTableRecord
  2
CURVE
 70
0
 62
7
  6
CONTINUOUS
370
-3
390
F
  0
LAYER
  5
204
100
AcDbSymbolTableRecord
100
AcDbLayerTableRecord
  2
DRAFT
 70
0
 62
7
  6
CONTINUOUS
370
-3
390
F
  0
LAYER
  5
205
100
AcDbSymbolTableRecord
100
AcDbLayerTableRecord
  2
IGES
 70
0
 62
7
  6
CONTINUOUS
370
-3
390
F
  0
LAYER
  5
206
100
AcDbSymbolTableRecord
100
AcDbLayerTableRecord
  2
IGS_SCRITTE
 70
0
 62
7
  6
CONTINUOUS
370
-3
390
F
  0
LAYER
  5
207
100
AcDbSymbolTableRecord
100
AcDbLayerTableRecord
  2
IMPORT_IGES
 70
0
 62
7
  6
CONTINUOUS
370
-3
390
F
  0
LAYER
  5
208
100
AcDbSymbolTableRecord
100
AcDbLayerTableRecord
  2
INTF_12
 70
0
 62
7
  6
CONTINUOUS
370
-3
390
F
  0
LAYER
  5
209
100
AcDbSymbolTableRecord
100
AcDbLayerTableRecord
  2
INTF_15
 70
0
 62
7
  6
CONTINUOUS
370
-3
390
F
  0
LAYER
  5
20A
100
AcDbSymbolTableRecord
100
AcDbLayerTableRecord
  2
INTF_3
 70
0
 62
7
  6
CONTINUOUS
370
-3
390
F
  0
LAYER
  5
20B
100
AcDbSymbolTableRecord
100
AcDbLayerTableRecord
  2
INTF_4
 70
0
 62
7
  6
CONTINUOUS
370
-3
390
F
  0
LAYER
  5
20C
100
AcDbSymbolTableRecord
100
AcDbLayerTableRecord
  2
INTF_YELLOW
 70
0
 62
7
  6
CONTINUOUS
370
-3
390
F
  0
LAYER
  5
20D
100
AcDbSymbolTableRecord
100
AcDbLayerTableRecord
  2
PIANI
 70
0
 62
7
  6
CONTINUOUS
370
-3
390
F
  0
LAYER
  5
20E
100
AcDbSymbolTableRecord
100
AcDbLayerTableRecord
  2
PIANI_ORIGINE
 70
0
 62
7
  6
CONTINUOUS
370
-3
390
F
  0
LAYER
  5
20F
100
AcDbSymbolTableRecord
100
AcDbLayerTableRecord
  2
PIANI_RIFERIMENTO
 70
0
 62
7
  6
CONTINUOUS
370
-3
390
F
  0
LAYER
  5
210
100
AcDbSymbolTableRecord
100
AcDbLayerTableRecord
  2
RACCORDO
 70
0
 62
7
  6
CONTINUOUS
370
-3
390
F
  0
LAYER
  5
211
100
AcDbSymbolTableRecord
100
AcDbLayerTableRecord
  2
SMUSSO
 70
0
 62
7
  6
CONTINUOUS
370
-3
390
F
  0
LAYER
  5
212
100
AcDbSymbolTableRecord
100
AcDbLayerTableRecord
  2
SNAPLINE
 70
0
 62
7
  6
CONTINUOUS
370
-3
390
F
  0
LAYER
  5
213
100
AcDbSymbolTableRecord
100
AcDbLayerTableRecord
  2
SOLIDO
 70
0
 62
7
  6
CONTINUOUS
370
-3
390
F
  0
LAYER
  5
214
100
AcDbSymbolTableRecord
100
AcDbLayerTableRecord
  2
SUPERFICI
 70
0
 62
7
  6
CONTINUOUS
370
-3
390
F
  0
LAYER
  5
215
100
AcDbSymbolTableRecord
100
AcDbLayerTableRecord
  2
TRASH
 70
0
 62
7
  6
CONTINUOUS
370
-3
390
F
  0
LAYER
  5
216
100
AcDbSymbolTableRecord
100
AcDbLayerTableRecord
  2
WHITE
 70
0
 62
7
  6
CONTINUOUS
370
-3
390
F
  0
LAYER
  5
217
100
AcDbSymbolTableRecord
100
AcDbLayerTableRecord
  2
XSEC_DATUMS
 70
0
 62
7
  6
CONTINUOUS
370
-3
390
F
  0
ENDTAB
  0
TABLE
  2
STYLE
  5
3
100
AcDbSymbolTable
 70
1
  0
STYLE
  5
11
100
AcDbSymbolTableRecord
100
AcDbTextStyleTableRecord
  2
STANDARD
 70
0
 40
0.0
 41
0.8
 50
0.0
 71
0
 42
0.2
  3
txt
  4

  0
STYLE
  5
218
100
AcDbSymbolTableRecord
100
AcDbTextStyleTableRecord
  2
TEXTSTYLE_1
 70
0
 40
0.0
 41
0.8
 50
0.0
 71
0
 42
0.2
  3
gdt
  4

  0
ENDTAB
  0
TABLE
  2
VIEW
  5
6
100
AcDbSymbolTable
 70
0
  0
ENDTAB
  0
TABLE
  2
UCS
  5
7
100
AcDbSymbolTable
 70
0
  0
ENDTAB
  0
TABLE
  2
APPID
  5
9
100
AcDbSymbolTable
 70
1
  0
APPID
  5
219
100
AcDbSymbolTableRecord
100
AcDbRegAppTableRecord
  2
ACAD
 70
0
  0
ENDTAB
  0
TABLE
  2
BLOCK_RECORD
  5
1
100
AcDbSymbolTable
 70
0
  0
BLOCK_RECORD
  5
21A
100
AcDbSymbolTableRecord
100
AcDbBlockTableRecord
  2
*Model_Space
  0
BLOCK_RECORD
  5
21B
100
AcDbSymbolTableRecord
100
AcDbBlockTableRecord
  2
*Paper_Space
  0
BLOCK_RECORD
  5
21C
100
AcDbSymbolTableRecord
100
AcDbBlockTableRecord
  2
_FILLED
  0
BLOCK_RECORD
  5
21D
100
AcDbSymbolTableRecord
100
AcDbBlockTableRecord
  2
*D0
  0
BLOCK_RECORD
  5
21E
100
AcDbSymbolTableRecord
100
AcDbBlockTableRecord
  2
*D1
  0
BLOCK_RECORD
  5
21F
100
AcDbSymbolTableRecord
100
AcDbBlockTableRecord
  2
*D2
  0
ENDTAB
  0
TABLE
  2
DIMSTYLE
  5
A
100
AcDbSymbolTable
 70
1
100
AcDbDimStyleTable
 71
0
  0
DIMSTYLE
105
220
100
AcDbSymbolTableRecord
100
AcDbDimStyleTableRecord
  2
STANDARD
 70
0
  3

  4

 40
1.0
 41
3.0
 42
0.0625
 43
0.38
 44
0.18
 45
0.0
 46
0.0
 47
0.01
 48
0.01
140
3.0
141
0.09
142
0.0
143
25.4
144
1.0
145
0.0
146
1.0
147
0.09
 71
1.0
 72
0.0
 73
0
 74
0
 75
0
 76
0
 77
1
 78
8
170
0
171
2
172
0
173
0
174
0
175
0
176
0
177
0
178
0
270
2
271
2
272
2
273
2
274
2
275
0
280
0
281
0
282
0
283
1
284
8
285
0
286
0
287
3
288
0
340
11
341
21C
342
21C
343
21C
344
21C
  0
DIMSTYLE
105
221
100
AcDbSymbolTableRecord
100
AcDbDimStyleTableRecord
  2
DIMSTYLE_1
 70
0
  3

  4

 40
1.0
 41
3.0
 42
0.0625
 43
0.38
 44
0.18
 45
0.0
 46
0.0
 47
0.0
 48
0.0
140
3.0
141
0.09
142
0.0
143
25.4
144
1.0
145
0.0
146
1.0
147
0.09
 71
0.0
 72
0.0
 73
0
 74
0
 75
0
 76
0
 77
1
 78
8
170
0
171
2
172
0
173
0
174
0
175
0
176
0
177
0
178
0
270
2
271
2
272
2
273
2
274
2
275
0
280
0
281
0
282
0
283
1
284
8
285
0
286
0
287
3
288
0
340
11
341
21C
342
21C
343
21C
344
21C
  0
DIMSTYLE
105
222
100
AcDbSymbolTableRecord
100
AcDbDimStyleTableRecord
  2
DIMSTYLE_2
 70
0
  3

  4

 40
1.0
 41
3.0
 42
0.0625
 43
0.38
 44
0.18
 45
0.0
 46
0.0
 47
0.0
 48
0.0
140
3.0
141
0.09
142
0.0
143
25.4
144
1.0
145
0.0
146
1.0
147
0.09
 71
0.0
 72
0.0
 73
0
 74
0
 75
0
 76
0
 77
1
 78
8
170
0
171
2
172
0
173
0
174
0
175
0
176
0
177
0
178
0
270
2
271
1
272
1
273
2
274
2
275
0
280
0
281
0
282
0
283
1
284
8
285
0
286
0
287
3
288
0
340
11
341
21C
342
21C
343
21C
344
21C
  0
ENDTAB
  0
ENDSEC
  0
SECTION
  2
BLOCKS
  0
BLOCK
  5
20
100
AcDbEntity
  8
0
100
AcDbBlockBegin
  2
*Model_Space
 70
0
 10
0.0
 20
0.0
 30
0.0
  3
*Model_Space
  1

  0
ENDBLK
  5
21
100
AcDbEntity
  8
0
100
AcDbBlockEnd
  0
BLOCK
  5
1C
100
AcDbEntity
  8
0
100
AcDbBlockBegin
  2
*Paper_Space
 70
0
 10
0.0
 20
0.0
 30
0.0
  3
*Paper_Space
  1

  0
ENDBLK
  5
1D
100
AcDbEntity
  8
0
100
AcDbBlockEnd
  0
BLOCK
  5
223
100
AcDbEntity
  8
0
100
AcDbBlockBegin
  2
_FILLED
 70
64
 10
0.0
 20
0.0
  3
_FILLED
  1

  0
SOLID
  5
224
100
AcDbEntity
  8
0
  6
BYBLOCK
 62
0
100
AcDbTrace
 10
0.0
 20
0.0
 11
-1.0
 21
0.3166666667
 12
-1.0
 22
-0.3166666667
 13
-1.0
 23
-0.3166666667
  0
ENDBLK
  5
225
100
AcDbEntity
  8
0
  6
BYBLOCK
 62
0
100
AcDbBlockEnd
  0
BLOCK
  5
226
100
AcDbEntity
  8
0
100
AcDbBlockBegin
 62
7
  6
CONTINUOUS
  2
*D0
 70
65
 10
0.0
 20
0.0
  3
*D0
  1

  0
MTEXT
  5
227
100
AcDbEntity
  8
0
100
AcDbMText
 62
7
  6
CONTINUOUS
  7
STANDARD
 71
2
 72
1
 10
-11.1834597393
 20
22.7823325462
 30
0.0
 11
1.0
 21
0.0
 31
0.0
 44
0.9
  1
5,7
 40
3.0
 41
6.2142857143
  0
LINE
  5
228
100
AcDbEntity
  8
0
100
AcDbLine
 62
7
  6
CONTINUOUS
 10
-8.3335388492
 20
11.2821591675
 11
-8.3335388492
 21
20.5323325462
  0
LINE
  5
229
100
AcDbEntity
  8
0
100
AcDbLine
 62
7
  6
CONTINUOUS
 10
-14.0333806294
 20
11.234324093
 11
-14.0333806294
 21
20.5323325462
  0
LINE
  5
22A
100
AcDbEntity
  8
0
100
AcDbLine
 62
7
  6
CONTINUOUS
 10
-8.3335388492
 20
19.0323325462
 11
-4.3335388492
 21
19.0323325462
  0
LINE
  5
22B
100
AcDbEntity
  8
0
100
AcDbLine
 62
7
  6
CONTINUOUS
 10
-4.3335388492
 20
19.0323325462
 11
-11.1834597393
 21
19.0323325462
  0
LINE
  5
22C
100
AcDbEntity
  8
0
100
AcDbLine
 62
7
  6
CONTINUOUS
 10
-14.0333806294
 20
19.0323325462
 11
-18.0333806294
 21
19.0323325462
  0
LINE
  5
22D
100
AcDbEntity
  8
0
100
AcDbLine
 62
7
  6
CONTINUOUS
 10
-18.0333806294
 20
19.0323325462
 11
-11.1834597393
 21
19.0323325462
  0
INSERT
  5
22E
100
AcDbEntity
  8
0
100
AcDbBlockReference
 62
7
  6
CONTINUOUS
  2
_FILLED
 10
-8.3335388492
 20
19.0323325462
 41
3.0
 42
3.0
 43
3.0
 50
180.0
  0
INSERT
  5
22F
100
AcDbEntity
  8
0
100
AcDbBlockReference
 62
7
  6
CONTINUOUS
  2
_FILLED
 10
-14.0333806294
 20
19.0323325462
 41
3.0
 42
3.0
 43
3.0
  0
ENDBLK
  5
230
100
AcDbEntity
  8
0
  6
BYBLOCK
 62
0
100
AcDbBlockEnd
  0
BLOCK
  5
231
100
AcDbEntity
  8
0
100
AcDbBlockBegin
 62
7
  6
CONTINUOUS
  2
*D1
 70
65
 10
0.0
 20
0.0
  3
*D1
  1

  0
MTEXT
  5
232
100
AcDbEntity
  8
0
100
AcDbMText
 62
7
  6
CONTINUOUS
  7
STANDARD
 71
2
 72
1
 10
11.6275855784
 20
22.7823325462
 30
0.0
 11
1.0
 21
0.0
 31
0.0
 44
0.9
  1
22,3
 40
3.0
 41
8.5714285714
  0
LINE
  5
233
100
AcDbEntity
  8
0
100
AcDbLine
 62
7
  6
CONTINUOUS
 10
0.4775855784
 20
11.2821591675
 11
0.4775855784
 21
20.5323325462
  0
LINE
  5
234
100
AcDbEntity
  8
0
100
AcDbLine
 62
7
  6
CONTINUOUS
 10
22.7775855784
 20
11.2821591675
 11
22.7775855784
 21
20.5323325462
  0
LINE
  5
235
100
AcDbEntity
  8
0
100
AcDbLine
 62
7
  6
CONTINUOUS
 10
0.4775855784
 20
19.0323325462
 11
11.6275855784
 21
19.0323325462
  0
LINE
  5
236
100
AcDbEntity
  8
0
100
AcDbLine
 62
7
  6
CONTINUOUS
 10
22.7775855784
 20
19.0323325462
 11
11.6275855784
 21
19.0323325462
  0
INSERT
  5
237
100
AcDbEntity
  8
0
100
AcDbBlockReference
 62
7
  6
CONTINUOUS
  2
_FILLED
 10
0.4775855784
 20
19.0323325462
 41
3.0
 42
3.0
 43
3.0
 50
180.0
  0
INSERT
  5
238
100
AcDbEntity
  8
0
100
AcDbBlockReference
 62
7
  6
CONTINUOUS
  2
_FILLED
 10
22.7775855784
 20
19.0323325462
 41
3.0
 42
3.0
 43
3.0
 50
0.0
  0
ENDBLK
  5
239
100
AcDbEntity
  8
0
  6
BYBLOCK
 62
0
100
AcDbBlockEnd
  0
BLOCK
  5
23A
100
AcDbEntity
  8
0
100
AcDbBlockBegin
 62
7
  6
CONTINUOUS
  2
*D2
 70
65
 10
0.0
 20
0.0
  3
*D2
  1

  0
MTEXT
  5
23B
100
AcDbEntity
  8
0
100
AcDbMText
 62
7
  6
CONTINUOUS
  7
STANDARD
 71
2
 72
1
 10
27.0275855784
 20
-0.022026424
 30
0.0
 11
0.0
 21
1.0
 31
0.0
 44
0.9
  1
22,1
 40
3.0
 41
8.1428571429
  0
LINE
  5
23C
100
AcDbEntity
  8
0
100
AcDbLine
 62
7
  6
CONTINUOUS
 10
23.0275093767
 20
11.0320925462
 11
32.2775855784
 21
11.0320925462
  0
LINE
  5
23D
100
AcDbEntity
  8
0
100
AcDbLine
 62
7
  6
CONTINUOUS
 10
22.7503673837
 20
-11.0761453943
 11
32.2775855784
 21
-11.0761453943
  0
LINE
  5
23E
100
AcDbEntity
  8
0
100
AcDbLine
 62
7
  6
CONTINUOUS
 10
30.7775855784
 20
11.0320925462
 11
30.7775855784
 21
-0.022026424
  0
LINE
  5
23F
100
AcDbEntity
  8
0
100
AcDbLine
 62
7
  6
CONTINUOUS
 10
30.7775855784
 20
-11.0761453943
 11
30.7775855784
 21
-0.022026424
  0
INSERT
  5
240
100
AcDbEntity
  8
0
100
AcDbBlockReference
 62
7
  6
CONTINUOUS
  2
_FILLED
 10
30.7775855784
 20
11.0320925462
 41
3.0
 42
3.0
 43
3.0
 50
90.0
  0
INSERT
  5
241
100
AcDbEntity
  8
0
100
AcDbBlockReference
 62
7
  6
CONTINUOUS
  2
_FILLED
 10
30.7775855784
 20
-11.0761453943
 41
3.0
 42
3.0
 43
3.0
 50
270.0
  0
ENDBLK
  5
242
100
AcDbEntity
  8
0
  6
BYBLOCK
 62
0
100
AcDbBlockEnd
  0
ENDSEC
  0
SECTION
  2
ENTITIES
  0
DIMENSION
  5
243
100
AcDbEntity
  8
0
100
AcDbDimension
 62
7
  6
CONTINUOUS
  2
*D0
 10
-14.0333806294
 20
19.0323325462
 11
-14.2906025964
 21
21.2823325462
 70
160
 71
2
 42
5.6998417802
  3
DIMSTYLE_1
100
AcDbAlignedDimension
 13
-8.3335388492
 23
11.2821591675
 14
-14.0333806294
 24
11.234324093
 50
180.0
100
AcDbRotatedDimension
  0
DIMENSION
  5
244
100
AcDbEntity
  8
0
100
AcDbDimension
 62
7
  6
CONTINUOUS
  2
*D1
 10
22.7775855784
 20
19.0323325462
 11
7.3418712927
 21
21.2823325462
 70
160
 71
2
 42
22.3
  3
DIMSTYLE_1
100
AcDbAlignedDimension
 13
0.4775855784
 23
11.2821591675
 14
22.7775855784
 24
11.2821591675
100
AcDbRotatedDimension
  0
DIMENSION
  5
245
100
AcDbEntity
  8
0
100
AcDbDimension
 62
7
  6
CONTINUOUS
  2
*D2
 10
30.7775855784
 20
-11.0761453943
 11
30.3518853013
 21
-3.661869983
 70
160
 71
2
 42
22.1082379406
  3
DIMSTYLE_2
100
AcDbAlignedDimension
 13
23.0275093767
 23
11.0320925462
 14
22.7503673837
 24
-11.0761453943
 50
270.0
100
AcDbRotatedDimension
  0
LINE
  5
246
100
AcDbEntity
  8
0
100
AcDbLine
 62
7
  6
CONTINUOUS
 10
0.5038928878
 20
-10.5786547615
 11
0.4775855784
 21
-1.9679074538
  0
LINE
  5
247
100
AcDbEntity
  8
ASSI
100
AcDbLine
 62
7
  6
CONTINUOUS
 10
0.5038928878
 20
-10.5786547615
 11
0.4775855784
 21
-1.9679074538
  0
LINE
  5
248
100
AcDbEntity
  8
RACCORDO
100
AcDbLine
 62
7
  6
CONTINUOUS
 10
0.4775855784
 20
10.7821591675
 11
0.4775855784
 21
-1.9679074538
  0
LINE
  5
249
100
AcDbEntity
  8
ASSI
100
AcDbLine
 62
7
  6
CONTINUOUS
 10
0.4775855784
 20
10.7821591675
 11
0.4775855784
 21
-1.9679074538
  0
LINE
  5
24A
100
AcDbEntity
  8
RACCORDO
100
AcDbLine
 62
253
  6
CONTINUOUS
 10
1.1594728323
 20
10.7343240928
 11
1.1594728323
 21
10.984513458
  0
LINE
  5
24B
100
AcDbEntity
  8
ASSI
100
AcDbLine
 62
253
  6
CONTINUOUS
 10
1.1563296199
 20
1.6320925462
 11
1.1594728323
 21
10.984513458
  0
LINE
  5
24C
100
AcDbEntity
  8
RACCORDO
100
AcDbLine
 62
7
  6
CONTINUOUS
 10
15.0216318775
 20
-11.0761453943
 11
15.3698505515
 21
-11.0445365628
  0
LINE
  5
24D
100
AcDbEntity
  8
ASSI
100
AcDbLine
 62
7
  6
CONTINUOUS
 10
15.0216318775
 20
-11.0761453943
 11
15.3698505515
 21
-11.0445365628
  0
LINE
  5
24E
100
AcDbEntity
  8
0
100
AcDbLine
 62
7
  6
CONTINUOUS
 10
22.2503673837
 20
-11.0761453943
 11
19.4335392794
 21
-11.0761453943
  0
LINE
  5
24F
100
AcDbEntity
  8
ASSI
100
AcDbLine
 62
7
  6
CONTINUOUS
 10
22.2503673837
 20
-11.0761453943
 11
19.4335392794
 21
-11.0761453943
  0
LINE
  5
250
100
AcDbEntity
  8
DRAFT
100
AcDbLine
 62
7
  6
CONTINUOUS
 10
15.0216318775
 20
-11.0761453943
 11
8.2335392794
 21
-11.0761453943
  0
LINE
  5
251
100
AcDbEntity
  8
ASSI
100
AcDbLine
 62
7
  6
CONTINUOUS
 10
15.0216318775
 20
-11.0761453943
 11
8.2335392794
 21
-11.0761453943
  0
LINE
  5
252
100
AcDbEntity
  8
0
100
AcDbLine
 62
7
  6
CONTINUOUS
 10
3.8216318775
 20
-11.0761453943
 11
1.0048037732
 21
-11.0761453943
  0
LINE
  5
253
100
AcDbEntity
  8
ASSI
100
AcDbLine
 62
7
  6
CONTINUOUS
 10
3.8216318775
 20
-11.0761453943
 11
1.0048037732
 21
-11.0761453943
  0
LINE
  5
254
100
AcDbEntity
  8
RACCORDO
100
AcDbLine
 62
7
  6
CONTINUOUS
 10
4.3430556323
 20
-11.0392957848
 11
7.7121155246
 21
-11.0392957848
  0
LINE
  5
255
100
AcDbEntity
  8
ASSI
100
AcDbLine
 62
7
  6
CONTINUOUS
 10
4.3430556323
 20
-11.0392957848
 11
7.7121155246
 21
-11.0392957848
  0
LINE
  5
256
100
AcDbEntity
  8
RACCORDO
100
AcDbLine
 62
7
  6
CONTINUOUS
 10
15.5430556323
 20
-11.0392957848
 11
18.9121155246
 21
-11.0392957848
  0
LINE
  5
257
100
AcDbEntity
  8
ASSI
100
AcDbLine
 62
7
  6
CONTINUOUS
 10
15.5430556323
 20
-11.0392957848
 11
18.9121155246
 21
-11.0392957848
  0
LINE
  5
258
100
AcDbEntity
  8
0
100
AcDbLine
 62
253
  6
CONTINUOUS
 10
1.1056153104
 20
-10.9248512257
 11
22.1495558465
 21
-10.9248512257
  0
LINE
  5
259
100
AcDbEntity
  8
ASSI
100
AcDbLine
 62
253
  6
CONTINUOUS
 10
1.1056153104
 20
-10.9248512257
 11
22.1495558465
 21
-10.9248512257
  0
LINE
  5
25A
100
AcDbEntity
  8
RACCORDO
100
AcDbLine
 62
7
  6
CONTINUOUS
 10
8.2335392794
 20
-11.0761453943
 11
7.8853206054
 21
-11.0445365628
  0
LINE
  5
25B
100
AcDbEntity
  8
ASSI
100
AcDbLine
 62
7
  6
CONTINUOUS
 10
8.2335392794
 20
-11.0761453943
 11
7.8853206054
 21
-11.0445365628
  0
LINE
  5
25C
100
AcDbEntity
  8
RACCORDO
100
AcDbLine
 62
7
  6
CONTINUOUS
 10
3.8216318775
 20
-11.0761453943
 11
4.1698505515
 21
-11.0445365628
  0
LINE
  5
25D
100
AcDbEntity
  8
ASSI
100
AcDbLine
 62
7
  6
CONTINUOUS
 10
3.8216318775
 20
-11.0761453943
 11
4.1698505515
 21
-11.0445365628
  0
LINE
  5
25E
100
AcDbEntity
  8
0
100
AcDbLine
 62
253
  6
CONTINUOUS
 10
1.121966766
 20
-10.0753038734
 11
22.1332043909
 21
-10.0753038734
  0
LINE
  5
25F
100
AcDbEntity
  8
ASSI
100
AcDbLine
 62
253
  6
CONTINUOUS
 10
1.121966766
 20
-10.0753038734
 11
22.1332043909
 21
-10.0753038734
  0
LINE
  5
260
100
AcDbEntity
  8
RACCORDO
100
AcDbLine
 62
7
  6
CONTINUOUS
 10
19.4335392794
 20
-11.0761453943
 11
19.0853206054
 21
-11.0445365628
  0
LINE
  5
261
100
AcDbEntity
  8
ASSI
100
AcDbLine
 62
7
  6
CONTINUOUS
 10
19.4335392794
 20
-11.0761453943
 11
19.0853206054
 21
-11.0445365628
  0
LINE
  5
262
100
AcDbEntity
  8
0
100
AcDbLine
 62
253
  6
CONTINUOUS
 10
0.5038928878
 20
-10.5786547615
 11
0.6059198968
 21
-10.4255364583
  0
LINE
  5
263
100
AcDbEntity
  8
ASSI
100
AcDbLine
 62
253
  6
CONTINUOUS
 10
0.5038928878
 20
-10.5786547615
 11
0.6059198968
 21
-10.4255364583
  0
LINE
  5
264
100
AcDbEntity
  8
0
100
AcDbLine
 62
253
  6
CONTINUOUS
 10
1.0048037732
 20
-11.0761453943
 11
1.1056153104
 21
-10.9248512257
  0
LINE
  5
265
100
AcDbEntity
  8
ASSI
100
AcDbLine
 62
253
  6
CONTINUOUS
 10
1.0048037732
 20
-11.0761453943
 11
1.1056153104
 21
-10.9248512257
  0
LINE
  5
266
100
AcDbEntity
  8
CURVE
100
AcDbLine
 62
253
  6
CONTINUOUS
 10
11.4275855784
 20
-3.5679074538
 11
11.4275855784
 21
0.8320925846
  0
LINE
  5
267
100
AcDbEntity
  8
CURVE
100
AcDbLine
 62
253
  6
CONTINUOUS
 10
11.8275855784
 20
0.8320925462
 11
11.8275855784
 21
-3.5679074921
  0
LINE
  5
268
100
AcDbEntity
  8
0
100
AcDbLine
 62
253
  6
CONTINUOUS
 10
22.098841537
 20
1.6320925462
 11
1.1563296199
 21
1.6320925462
  0
LINE
  5
269
100
AcDbEntity
  8
ASSI
100
AcDbLine
 62
253
  6
CONTINUOUS
 10
22.098841537
 20
1.6320925462
 11
1.1563296199
 21
1.6320925462
  0
LINE
  5
26A
100
AcDbEntity
  8
0
100
AcDbLine
 62
253
  6
CONTINUOUS
 10
22.1495558465
 20
-10.9248512257
 11
22.2503673837
 21
-11.0761453943
  0
LINE
  5
26B
100
AcDbEntity
  8
ASSI
100
AcDbLine
 62
253
  6
CONTINUOUS
 10
22.1495558465
 20
-10.9248512257
 11
22.2503673837
 21
-11.0761453943
  0
LINE
  5
26C
100
AcDbEntity
  8
0
100
AcDbLine
 62
253
  6
CONTINUOUS
 10
22.64925126
 20
-10.4255364583
 11
22.7512782691
 21
-10.5786547615
  0
LINE
  5
26D
100
AcDbEntity
  8
ASSI
100
AcDbLine
 62
253
  6
CONTINUOUS
 10
22.64925126
 20
-10.4255364583
 11
22.7512782691
 21
-10.5786547615
  0
LINE
  5
26E
100
AcDbEntity
  8
0
100
AcDbLine
 62
7
  6
CONTINUOUS
 10
15.779484122
 20
5.5320925462
 11
7.4756870349
 21
5.5320925462
  0
LINE
  5
26F
100
AcDbEntity
  8
RACCORDO
100
AcDbLine
 62
7
  6
CONTINUOUS
 10
15.779484122
 20
5.5320925462
 11
7.4756870349
 21
5.5320925462
  0
LINE
  5
270
100
AcDbEntity
  8
ASSI
100
AcDbLine
 62
7
  6
CONTINUOUS
 10
15.779484122
 20
5.5320925462
 11
7.4756870349
 21
5.5320925462
  0
LINE
  5
271
100
AcDbEntity
  8
RACCORDO
100
AcDbLine
 62
253
  6
CONTINUOUS
 10
22.7775855784
 20
10.7821591675
 11
22.5953937522
 21
10.7366285562
  0
LINE
  5
272
100
AcDbEntity
  8
ASSI
100
AcDbLine
 62
253
  6
CONTINUOUS
 10
22.7775855784
 20
10.7821591675
 11
22.5953937522
 21
10.7366285562
  0
LINE
  5
273
100
AcDbEntity
  8
RACCORDO
100
AcDbLine
 62
253
  6
CONTINUOUS
 10
22.5275093767
 20
11.0320925462
 11
22.3455459785
 21
10.9866190203
  0
LINE
  5
274
100
AcDbEntity
  8
ASSI
100
AcDbLine
 62
253
  6
CONTINUOUS
 10
22.5275093767
 20
11.0320925462
 11
22.3455459785
 21
10.9866190203
  0
LINE
  5
275
100
AcDbEntity
  8
0
100
AcDbLine
 62
7
  6
CONTINUOUS
 10
15.7788566492
 20
7.7320925462
 11
7.4763145077
 21
7.7320925462
  0
LINE
  5
276
100
AcDbEntity
  8
RACCORDO
100
AcDbLine
 62
7
  6
CONTINUOUS
 10
15.7788566492
 20
7.7320925462
 11
7.4763145077
 21
7.7320925462
  0
LINE
  5
277
100
AcDbEntity
  8
ASSI
100
AcDbLine
 62
7
  6
CONTINUOUS
 10
15.7788566492
 20
7.7320925462
 11
7.4763145077
 21
7.7320925462
  0
LINE
  5
278
100
AcDbEntity
  8
RACCORDO
100
AcDbLine
 62
253
  6
CONTINUOUS
 10
0.6597774047
 20
10.7366285562
 11
0.4775855784
 21
10.7821591675
  0
LINE
  5
279
100
AcDbEntity
  8
ASSI
100
AcDbLine
 62
253
  6
CONTINUOUS
 10
0.6597774047
 20
10.7366285562
 11
0.4775855784
 21
10.7821591675
  0
LINE
  5
27A
100
AcDbEntity
  8
RACCORDO
100
AcDbLine
 62
253
  6
CONTINUOUS
 10
0.9096251784
 20
10.9866190203
 11
0.7276617802
 21
11.0320925462
  0
LINE
  5
27B
100
AcDbEntity
  8
ASSI
100
AcDbLine
 62
253
  6
CONTINUOUS
 10
0.9096251784
 20
10.9866190203
 11
0.7276617802
 21
11.0320925462
  0
LINE
  5
27C
100
AcDbEntity
  8
RACCORDO
100
AcDbLine
 62
253
  6
CONTINUOUS
 10
22.0956983246
 20
10.7343240928
 11
22.0956983246
 21
10.984513458
  0
LINE
  5
27D
100
AcDbEntity
  8
ASSI
100
AcDbLine
 62
253
  6
CONTINUOUS
 10
22.098841537
 20
1.6320925462
 11
22.0956983246
 21
10.984513458
  0
LINE
  5
27E
100
AcDbEntity
  8
DRAFT
100
AcDbLine
 62
7
  6
CONTINUOUS
 10
20.140051569
 20
11.0320925462
 11
19.8775855784
 21
11.0059119429
  0
LINE
  5
27F
100
AcDbEntity
  8
ASSI
100
AcDbLine
 62
7
  6
CONTINUOUS
 10
20.140051569
 20
11.0320925462
 11
19.8775855784
 21
11.0059119429
  0
LINE
  5
280
100
AcDbEntity
  8
DRAFT
100
AcDbLine
 62
7
  6
CONTINUOUS
 10
3.1151195879
 20
11.0320925462
 11
3.3775855784
 21
11.0059119429
  0
LINE
  5
281
100
AcDbEntity
  8
ASSI
100
AcDbLine
 62
7
  6
CONTINUOUS
 10
3.1151195879
 20
11.0320925462
 11
3.3775855784
 21
11.0059119429
  0
LINE
  5
282
100
AcDbEntity
  8
RACCORDO
100
AcDbLine
 62
7
  6
CONTINUOUS
 10
22.7775855784
 20
10.7821591675
 11
22.7775855784
 21
-1.9679074538
  0
LINE
  5
283
100
AcDbEntity
  8
ASSI
100
AcDbLine
 62
7
  6
CONTINUOUS
 10
22.7775855784
 20
10.7821591675
 11
22.7775855784
 21
-1.9679074538
  0
LINE
  5
284
100
AcDbEntity
  8
0
100
AcDbLine
 62
7
  6
CONTINUOUS
 10
22.7512782691
 20
-10.5786547615
 11
22.7775855784
 21
-1.9679074538
  0
LINE
  5
285
100
AcDbEntity
  8
ASSI
100
AcDbLine
 62
7
  6
CONTINUOUS
 10
22.7512782691
 20
-10.5786547615
 11
22.7775855784
 21
-1.9679074538
  0
LINE
  5
286
100
AcDbEntity
  8
RACCORDO
100
AcDbLine
 62
253
  6
CONTINUOUS
 10
22.0956964942
 20
10.7343240928
 11
1.1594746627
 21
10.7343240928
  0
LINE
  5
287
100
AcDbEntity
  8
ASSI
100
AcDbLine
 62
253
  6
CONTINUOUS
 10
22.0956964942
 20
10.7343240928
 11
1.1594746627
 21
10.7343240928
  0
LINE
  5
288
100
AcDbEntity
  8
RACCORDO
100
AcDbLine
 62
253
  6
CONTINUOUS
 10
22.0956983246
 20
10.984513458
 11
1.1594728323
 21
10.984513458
  0
LINE
  5
289
100
AcDbEntity
  8
ASSI
100
AcDbLine
 62
7
  6
CONTINUOUS
 10
22.0956983246
 20
10.984513458
 11
1.1594728323
 21
10.984513458
  0
LINE
  5
28A
100
AcDbEntity
  8
DRAFT
100
AcDbLine
 62
7
  6
CONTINUOUS
 10
19.8775855784
 20
11.0059119429
 11
3.3775855784
 21
11.0059119429
  0
LINE
  5
28B
100
AcDbEntity
  8
ASSI
100
AcDbLine
 62
7
  6
CONTINUOUS
 10
19.8775855784
 20
11.0059119429
 11
3.3775855784
 21
11.0059119429
  0
LINE
  5
28C
100
AcDbEntity
  8
RACCORDO
100
AcDbLine
 62
7
  6
CONTINUOUS
 10
22.5275093767
 20
11.0320925462
 11
20.140051569
 21
11.0320925462
  0
LINE
  5
28D
100
AcDbEntity
  8
ASSI
100
AcDbLine
 62
7
  6
CONTINUOUS
 10
22.5275093767
 20
11.0320925462
 11
20.140051569
 21
11.0320925462
  0
LINE
  5
28E
100
AcDbEntity
  8
RACCORDO
100
AcDbLine
 62
7
  6
CONTINUOUS
 10
3.1151195879
 20
11.0320925462
 11
0.7276617802
 21
11.0320925462
  0
LINE
  5
28F
100
AcDbEntity
  8
ASSI
100
AcDbLine
 62
7
  6
CONTINUOUS
 10
3.1151195879
 20
11.0320925462
 11
0.7276617802
 21
11.0320925462
  0
LINE
  5
290
100
AcDbEntity
  8
0
100
AcDbLine
 62
7
  6
CONTINUOUS
 10
-12.0172711256
 20
-10.9248512257
 11
-9.1304064137
 21
-11.0761453943
  0
LINE
  5
291
100
AcDbEntity
  8
ASSI
100
AcDbLine
 62
7
  6
CONTINUOUS
 10
-12.0172711256
 20
-10.9248512257
 11
-9.1304064137
 21
-11.0761453943
  0
LINE
  5
292
100
AcDbEntity
  8
0
100
AcDbLine
 62
253
  6
CONTINUOUS
 10
-12.0085528958
 20
-10.4255364583
 11
-9.0868816231
 21
-10.5786547615
  0
LINE
  5
293
100
AcDbEntity
  8
ASSI
100
AcDbLine
 62
253
  6
CONTINUOUS
 10
-12.0085528958
 20
-10.4255364583
 11
-9.0868816231
 21
-10.5786547615
  0
LINE
  5
294
100
AcDbEntity
  8
RACCORDO
100
AcDbLine
 62
253
  6
CONTINUOUS
 10
-8.7564145695
 20
-6.801399055
 11
-8.7335388492
 21
-6.801399055
  0
LINE
  5
295
100
AcDbEntity
  8
ASSI
100
AcDbLine
 62
253
  6
CONTINUOUS
 10
-8.7564145695
 20
-6.801399055
 11
-8.7335388492
 21
-6.801399055
  0
LINE
  5
296
100
AcDbEntity
  8
CURVE
100
AcDbLine
 62
253
  6
CONTINUOUS
 10
-13.6924199803
 20
-3.58668429
 11
-13.6782426034
 21
-3.7679075106
  0
LINE
  5
297
100
AcDbEntity
  8
RACCORDO
100
AcDbLine
 62
7
  6
CONTINUOUS
 10
-8.7335388492
 20
-6.8013972626
 11
-8.7335388492
 21
-6.5399283749
  0
LINE
  5
298
100
AcDbEntity
  8
ASSI
100
AcDbLine
 62
7
  6
CONTINUOUS
 10
-8.7335388492
 20
-6.8013972626
 11
-8.7335388492
 21
-6.5399283749
  0
LINE
  5
299
100
AcDbEntity
  8
RACCORDO
100
AcDbLine
 62
7
  6
CONTINUOUS
 10
-8.3335388492
 20
11.0320925462
 11
-8.3335388492
 21
-1.9679074538
  0
LINE
  5
29A
100
AcDbEntity
  8
ASSI
100
AcDbLine
 62
7
  6
CONTINUOUS
 10
-8.3335388492
 20
11.0320925462
 11
-8.3335388492
 21
-1.9679074538
  0
LINE
  5
29B
100
AcDbEntity
  8
0
100
AcDbLine
 62
253
  6
CONTINUOUS
 10
-13.4608207091
 20
1.6415925462
 11
-13.9432807025
 21
1.6320925462
  0
LINE
  5
29C
100
AcDbEntity
  8
ASSI
100
AcDbLine
 62
253
  6
CONTINUOUS
 10
-13.4608207091
 20
1.6415925462
 11
-13.9432807025
 21
1.6320925462
  0
LINE
  5
29D
100
AcDbEntity
  8
0
100
AcDbLine
 62
7
  6
CONTINUOUS
 10
-9.1304064137
 20
-11.0761453943
 11
-8.3335388492
 21
-1.9679074538
  0
LINE
  5
29E
100
AcDbEntity
  8
ASSI
100
AcDbLine
 62
7
  6
CONTINUOUS
 10
-9.1304064137
 20
-11.0761453943
 11
-8.3335388492
 21
-1.9679074538
  0
LINE
  5
29F
100
AcDbEntity
  8
RACCORDO
100
AcDbLine
 62
253
  6
CONTINUOUS
 10
-8.3335388492
 20
10.7821591675
 11
-13.5508301321
 21
10.7366285562
  0
LINE
  5
2A0
100
AcDbEntity
  8
ASSI
100
AcDbLine
 62
253
  6
CONTINUOUS
 10
-8.3335388492
 20
10.7821591675
 11
-13.5508301321
 21
10.7366285562
  0
LINE
  5
2A1
100
AcDbEntity
  8
RACCORDO
100
AcDbLine
 62
7
  6
CONTINUOUS
 10
-8.3335388492
 20
11.0320925462
 11
-13.7855623422
 21
10.984513458
  0
LINE
  5
2A2
100
AcDbEntity
  8
ASSI
100
AcDbLine
 62
7
  6
CONTINUOUS
 10
-8.3335388492
 20
11.0320925462
 11
-13.7855623422
 21
10.984513458
  0
ARC
  5
2A3
100
AcDbEntity
  8
0
100
AcDbCircle
 62
253
  6
CONTINUOUS
 10
-2561.79896235
 20
3.2965113273
 40
2562.9558253751
100
AcDbArc
 50
359.7010670072
 51
359.9627913298
  0
ARC
  5
2A4
100
AcDbEntity
  8
ASSI
100
AcDbCircle
 62
253
  6
CONTINUOUS
 10
-2561.79896235
 20
3.2965113273
 40
2562.9558253751
100
AcDbArc
 50
359.7010670072
 51
359.9627913298
  0
ARC
  5
2A5
100
AcDbEntity
  8
0
100
AcDbCircle
 62
253
  6
CONTINUOUS
 10
2581.9121314336
 20
3.287292374
 40
2559.8138131214
100
AcDbArc
 50
180.0370479955
 51
180.2990935685
  0
ARC
  5
2A6
100
AcDbEntity
  8
ASSI
100
AcDbCircle
 62
253
  6
CONTINUOUS
 10
2581.9121314336
 20
3.287292374
 40
2559.8138131214
100
AcDbArc
 50
180.0370479955
 51
180.2990935685
  0
ARC
  5
2A7
100
AcDbEntity
  8
0
100
AcDbCircle
 62
253
  6
CONTINUOUS
 10
-2533.9008585307
 20
3.2967651713
 40
2534.5580261428
100
AcDbArc
 50
359.6993970068
 51
359.9625834519
  0
ARC
  5
2A8
100
AcDbEntity
  8
ASSI
100
AcDbCircle
 62
253
  6
CONTINUOUS
 10
-2533.9008585307
 20
3.2967651713
 40
2534.5580261428
100
AcDbArc
 50
359.6993970068
 51
359.9625834519
  0
ARC
  5
2A9
100
AcDbEntity
  8
0
100
AcDbCircle
 62
253
  6
CONTINUOUS
 10
2554.0488835882
 20
3.2875975578
 40
2531.450869863
100
AcDbArc
 50
180.037254978
 51
180.3007644637
  0
ARC
  5
2AA
100
AcDbEntity
  8
ASSI
100
AcDbCircle
 62
253
  6
CONTINUOUS
 10
2554.0488835882
 20
3.2875975578
 40
2531.450869863
100
AcDbArc
 50
180.037254978
 51
180.3007644637
  0
ARC
  5
2AB
100
AcDbEntity
  8
0
100
AcDbCircle
 62
7
  6
CONTINUOUS
 10
15.7755251139
 20
5.9305863448
 40
0.4020604646
100
AcDbArc
 50
356.679291676
 51
359.9997135529
  0
ARC
  5
2AC
100
AcDbEntity
  8
0
100
AcDbCircle
 62
7
  6
CONTINUOUS
 10
7.4796460424
 20
5.9305863449
 40
0.4020604639
100
AcDbArc
 50
180.0002864503
 51
183.320685082
  0
ARC
  5
2AD
100
AcDbEntity
  8
0
100
AcDbCircle
 62
7
  6
CONTINUOUS
 10
15.7788541433
 20
7.3304927451
 40
0.4015998011
100
AcDbArc
 50
86.677796853
 51
89.9996424861
  0
ARC
  5
2AE
100
AcDbEntity
  8
0
100
AcDbCircle
 62
7
  6
CONTINUOUS
 10
7.4763170136
 20
7.3304927461
 40
0.4015998001
100
AcDbArc
 50
90.0003575169
 51
93.3221812303
  0
ARC
  5
2AF
100
AcDbEntity
  8
0
100
AcDbCircle
 62
7
  6
CONTINUOUS
 10
7.4756890639
 20
5.9329991686
 40
0.4009066223
100
AcDbArc
 50
266.6769864153
 51
269.9997100212
  0
ARC
  5
2B0
100
AcDbEntity
  8
0
100
AcDbCircle
 62
7
  6
CONTINUOUS
 10
15.7794820929
 20
5.9329991679
 40
0.4009066216
100
AcDbArc
 50
270.0002899832
 51
273.3229921321
  0
ARC
  5
2B1
100
AcDbEntity
  8
0
100
AcDbCircle
 62
7
  6
CONTINUOUS
 10
7.4784482408
 20
7.3335981929
 40
0.4008626624
100
AcDbArc
 50
176.6760851759
 51
179.9996299877
  0
ARC
  5
2B2
100
AcDbEntity
  8
0
100
AcDbCircle
 62
7
  6
CONTINUOUS
 10
15.7767229172
 20
7.3335981929
 40
0.4008626613
100
AcDbArc
 50
0.0003700158
 51
3.3238937694
  0
ARC
  5
2B3
100
AcDbEntity
  8
RACCORDO
100
AcDbCircle
 62
253
  6
CONTINUOUS
 10
22.3453721278
 20
10.7366172896
 40
0.2500126443
100
AcDbArc
 50
0.002578066
 51
89.9601566421
  0
ARC
  5
2B4
100
AcDbEntity
  8
ASSI
100
AcDbCircle
 62
253
  6
CONTINUOUS
 10
22.3453721278
 20
10.7366172896
 40
0.2500126443
100
AcDbArc
 50
0.002578066
 51
89.9601566421
  0
ARC
  5
2B5
100
AcDbEntity
  8
RACCORDO
100
AcDbCircle
 62
253
  6
CONTINUOUS
 10
0.9097990121
 20
10.7366172727
 40
0.2500126345
100
AcDbArc
 50
90.0398394697
 51
179.9974180643
  0
ARC
  5
2B6
100
AcDbEntity
  8
ASSI
100
AcDbCircle
 62
253
  6
CONTINUOUS
 10
0.9097990121
 20
10.7366172727
 40
0.2500126345
100
AcDbArc
 50
90.0398394697
 51
179.9974180643
  0
ARC
  5
2B7
100
AcDbEntity
  8
CURVE
100
AcDbCircle
 62
253
  6
CONTINUOUS
 10
11.6275855784
 20
0.8320925462
 40
0.2
100
AcDbArc
 50
0.0
 51
180.0
  0
ARC
  5
2B8
100
AcDbEntity
  8
CURVE
100
AcDbCircle
 62
253
  6
CONTINUOUS
 10
11.6275855784
 20
-3.5679074538
 40
0.2
100
AcDbArc
 50
180.0
 51
360.0
  0
ARC
  5
2B9
100
AcDbEntity
  8
0
100
AcDbCircle
 62
7
  6
CONTINUOUS
 10
-11.9649351693
 20
-9.9262216909
 40
1.0
100
AcDbArc
 50
188.5737414447
 51
267.0
  0
ARC
  5
2BA
100
AcDbEntity
  8
ASSI
100
AcDbCircle
 62
7
  6
CONTINUOUS
 10
-11.9649351693
 20
-9.9262216909
 40
1.0
100
AcDbArc
 50
188.5737414447
 51
267.0
  0
ARC
  5
2BB
100
AcDbEntity
  8
0
100
AcDbCircle
 62
253
  6
CONTINUOUS
 10
-11.9823849173
 20
-9.9262216905
 40
0.5000000005
100
AcDbArc
 50
188.5737414877
 51
266.999999957
  0
ARC
  5
2BC
100
AcDbEntity
  8
ASSI
100
AcDbCircle
 62
253
  6
CONTINUOUS
 10
-11.9823849173
 20
-9.9262216905
 40
0.5000000005
100
AcDbArc
 50
188.5737414877
 51
266.999999957
  0
ARC
  5
2BD
100
AcDbEntity
  8
RACCORDO
100
AcDbCircle
 62
7
  6
CONTINUOUS
 10
-9.0335388492
 20
-6.801399055
 40
0.3
100
AcDbArc
 50
334.9997013218
 51
0.0003423163
  0
ARC
  5
2BE
100
AcDbEntity
  8
ASSI
100
AcDbCircle
 62
7
  6
CONTINUOUS
 10
-9.0335388492
 20
-6.801399055
 40
0.3
100
AcDbArc
 50
334.9997013218
 51
0.0003423163
  0
ARC
  5
2BF
100
AcDbEntity
  8
0
100
AcDbCircle
 62
7
  6
CONTINUOUS
 10
76.040472831
 20
3.3420925462
 40
90.0
100
AcDbArc
 50
181.08868532
 51
188.5737414447
  0
ARC
  5
2C0
100
AcDbEntity
  8
ASSI
100
AcDbCircle
 62
7
  6
CONTINUOUS
 10
76.040472831
 20
3.3420925462
 40
90.0
100
AcDbArc
 50
181.08868532
 51
188.5737414447
  0
ARC
  5
2C1
100
AcDbEntity
  8
CURVE
100
AcDbCircle
 62
253
  6
CONTINUOUS
 10
76.040472831
 20
3.3420925462
 40
90.0
100
AcDbArc
 50
182.2573246672
 51
184.4033760648
  0
ARC
  5
2C2
100
AcDbEntity
  8
0
100
AcDbCircle
 62
253
  6
CONTINUOUS
 10
76.0230230823
 20
3.3420925462
 40
89.4999999996
100
AcDbArc
 50
181.08868532
 51
188.5737414447
  0
ARC
  5
2C3
100
AcDbEntity
  8
ASSI
100
AcDbCircle
 62
253
  6
CONTINUOUS
 10
76.0230230823
 20
3.3420925462
 40
89.4999999996
100
AcDbArc
 50
181.08868532
 51
188.5737414447
  0
ARC
  5
2C4
100
AcDbEntity
  8
RACCORDO
100
AcDbCircle
 62
7
  6
CONTINUOUS
 10
-13.7833806942
 20
10.7345229774
 40
0.25
100
AcDbArc
 50
90.5000032275
 51
180.045580992
  0
ARC
  5
2C5
100
AcDbEntity
  8
ASSI
100
AcDbCircle
 62
7
  6
CONTINUOUS
 10
-13.7833806942
 20
10.7345229774
 40
0.25
100
AcDbArc
 50
90.5000032275
 51
180.045580992
  0
ARC
  5
2C6
100
AcDbEntity
  8
RACCORDO
100
AcDbCircle
 62
7
  6
CONTINUOUS
 10
485.9664611508
 20
11.1320925462
 40
500.0
100
AcDbArc
 50
180.045580912
 51
181.08868532
  0
ARC
  5
2C7
100
AcDbEntity
  8
ASSI
100
AcDbCircle
 62
7
  6
CONTINUOUS
 10
485.9664611508
 20
11.1320925462
 40
500.0
100
AcDbArc
 50
180.045580912
 51
181.08868532
  0
ARC
  5
2C8
100
AcDbEntity
  8
RACCORDO
100
AcDbCircle
 62
253
  6
CONTINUOUS
 10
485.9316762944
 20
11.1318264718
 40
499.4826630211
100
AcDbArc
 50
180.0453332552
 51
181.0886925858
  0
ARC
  5
2C9
100
AcDbEntity
  8
ASSI
100
AcDbCircle
 62
253
  6
CONTINUOUS
 10
485.9316762944
 20
11.1318264718
 40
499.4826630211
100
AcDbArc
 50
180.0453332552
 51
181.0886925858
  0
LINE
  5
2CA
100
AcDbEntity
  8
0
100
AcDbLine
 62
7
  6
CONTINUOUS
 10
16.1775855784
 20
7.3336007816
 11
16.1775855784
 21
7.1257443587
  0
LINE
  5
2CB
100
AcDbEntity
  8
0
100
AcDbLine
 62
7
  6
CONTINUOUS
 10
16.1775855784
 20
7.1257443587
 11
16.1775855784
 21
7.0737803581
  0
LINE
  5
2CC
100
AcDbEntity
  8
0
100
AcDbLine
 62
7
  6
CONTINUOUS
 10
16.1775855784
 20
7.0737803581
 11
16.1775855784
 21
6.8659247521
  0
LINE
  5
2CD
100
AcDbEntity
  8
0
100
AcDbLine
 62
7
  6
CONTINUOUS
 10
16.1775855784
 20
6.8659247521
 11
16.1775855784
 21
6.6580699368
  0
LINE
  5
2CE
100
AcDbEntity
  8
0
100
AcDbLine
 62
7
  6
CONTINUOUS
 10
16.1775855784
 20
6.6580699368
 11
16.1775855784
 21
6.6061063324
  0
LINE
  5
2CF
100
AcDbEntity
  8
0
100
AcDbLine
 62
7
  6
CONTINUOUS
 10
16.1775855784
 20
6.6061063324
 11
16.1775855784
 21
6.398252425
  0
LINE
  5
2D0
100
AcDbEntity
  8
0
100
AcDbLine
 62
7
  6
CONTINUOUS
 10
16.1775855784
 20
6.398252425
 11
16.1775855784
 21
6.1903994498
  0
LINE
  5
2D1
100
AcDbEntity
  8
0
100
AcDbLine
 62
7
  6
CONTINUOUS
 10
16.1775855784
 20
6.1903994498
 11
16.1775855784
 21
6.1384363321
  0
LINE
  5
2D2
100
AcDbEntity
  8
0
100
AcDbLine
 62
7
  6
CONTINUOUS
 10
16.1775855784
 20
6.1384363321
 11
16.1775855784
 21
5.9305843348
  0
SPLINE
  5
2D3
100
AcDbEntity
  8
0
100
AcDbSpline
 62
7
  6
CONTINUOUS
 70
0
 71
3
 72
25
 73
21
 74
19
 42
0.0000001
 43
0.0000001
 44
0.0000000001
 12
-0.578414833
 22
0.033585452
 32
0.0
 13
-0.0335619525
 23
0.5784158551
 33
0.0
 40
0.0
 40
0.0
 40
0.0
 40
0.0
 40
0.0200514387
 40
0.0803270942
 40
0.1404453416
 40
0.2002856332
 40
0.2602499788
 40
0.3202499278
 40
0.3800671828
 40
0.4397602389
 40
0.4996674647
 40
0.5595882874
 40
0.6193181535
 40
0.6791887486
 40
0.7392639398
 40
0.7993237723
 40
0.8592712226
 40
0.9195041017
 40
0.9799050173
 40
1.0
 40
1.0
 40
1.0
 40
1.0
 10
7.4524505039
 20
5.5327666247
 30
0.0
 10
7.4485844874
 20
5.5329911036
 30
0.0
 10
7.4331096298
 20
5.5341149034
 30
0.0
 10
7.406195382
 20
5.537651587
 30
0.0
 10
7.3721809394
 20
5.5451852331
 30
0.0
 10
7.3390099401
 20
5.5556333373
 30
0.0
 10
7.3068955316
 20
5.5689221283
 30
0.0
 10
7.2760681976
 20
5.5849627404
 30
0.0
 10
7.2468036006
 20
5.6036055311
 30
0.0
 10
7.2192895049
 20
5.6247168804
 30
0.0
 10
7.1937071857
 20
5.6481620343
 30
0.0
 10
7.1702672538
 20
5.6737587826
 30
0.0
 10
7.1491542433
 20
5.7012968595
 30
0.0
 10
7.1305047968
 20
5.7305950782
 30
0.0
 10
7.1144541151
 20
5.7614659476
 30
0.0
 10
7.1011537062
 20
5.7936336288
 30
0.0
 10
7.0906946728
 20
5.8268654229
 30
0.0
 10
7.0831520754
 20
5.8609465205
 30
0.0
 10
7.0796108328
 20
5.8879153733
 30
0.0
 10
7.0784854591
 20
5.9034227958
 30
0.0
 10
7.0782606502
 20
5.9072972147
 30
0.0
 11
7.4524505039
 21
5.5327666247
 31
0.0
 11
7.4408638169
 21
5.533608172
 31
0.0
 11
7.4062530766
 21
5.5381570145
 31
0.0
 11
7.3722598822
 21
5.5456870676
 31
0.0
 11
7.3392048241
 21
5.5560994867
 31
0.0
 11
7.3071157864
 21
5.5693785659
 31
0.0
 11
7.2762906496
 21
5.5854186346
 31
0.0
 11
7.2470729398
 21
5.6040319691
 31
0.0
 11
7.2196455792
 21
5.6250769725
 31
0.0
 11
7.1940673479
 21
5.6485183421
 31
0.0
 11
7.1706304876
 21
5.6741113837
 31
0.0
 11
7.1495828096
 21
5.7015635599
 31
0.0
 11
7.1309631614
 21
5.7308138727
 31
0.0
 11
7.1149126905
 21
5.7616827175
 31
0.0
 11
7.1016211947
 21
5.7938264644
 31
0.0
 11
7.0911974473
 21
5.82694302
 31
0.0
 11
7.0836584762
 21
5.8610022362
 31
0.0
 11
7.0791034354
 21
5.8956853294
 31
0.0
 11
7.0782606502
 21
5.9072972147
 31
0.0
  0
SPLINE
  5
2D4
100
AcDbEntity
  8
0
100
AcDbSpline
 62
7
  6
CONTINUOUS
 70
0
 71
3
 72
25
 73
21
 74
19
 42
0.0000001
 43
0.0000001
 44
0.0000000001
 12
0.0336205787
 22
0.5788763995
 32
0.0
 13
0.5788771578
 23
0.0336031692
 33
0.0
 40
0.0
 40
0.0
 40
0.0
 40
0.0
 40
0.0200416777
 40
0.0803005781
 40
0.1404186932
 40
0.2002719698
 40
0.2602592616
 40
0.3202893722
 40
0.380140933
 40
0.4398699628
 40
0.4998109175
 40
0.5597596722
 40
0.6195089209
 40
0.6793889892
 40
0.7394602604
 40
0.7995013133
 40
0.8594154143
 40
0.9195988866
 40
0.9799318234
 40
1.0
 40
1.0
 40
1.0
 40
1.0
 10
7.0782599486
 20
7.3568404996
 30
0.0
 10
7.0784845528
 20
7.3607077177
 30
0.0
 10
7.0796091633
 20
7.3761898059
 30
0.0
 10
7.0831489517
 20
7.4031203192
 30
0.0
 10
7.0906899042
 20
7.4371608698
 30
0.0
 10
7.1011498016
 20
7.4703645269
 30
0.0
 10
7.1144551031
 20
7.5025159629
 30
0.0
 10
7.1305167809
 20
7.5333826593
 30
0.0
 10
7.1491846963
 20
7.5626871155
 30
0.0
 10
7.1703243182
 20
7.5902397572
 30
0.0
 10
7.1937995785
 20
7.6158576611
 30
0.0
 10
7.2194265397
 20
7.6393288228
 30
0.0
 10
7.2469932981
 20
7.6604679933
 30
0.0
 10
7.2763169263
 20
7.6791381336
 30
0.0
 10
7.307208286
 20
7.6952040815
 30
0.0
 10
7.3393900656
 20
7.7085147741
 30
0.0
 10
7.3726285296
 20
7.7189799075
 30
0.0
 10
7.406707717
 20
7.7265253075
 30
0.0
 10
7.4336702569
 20
7.7300674148
 30
0.0
 10
7.4491717616
 20
7.7311928556
 30
0.0
 10
7.4530440979
 20
7.7314176404
 30
0.0
 11
7.0782599486
 21
7.3568404996
 31
0.0
 11
7.0791019628
 21
7.3684307824
 31
0.0
 11
7.083654195
 21
7.4030593987
 31
0.0
 11
7.0911915244
 21
7.4370793807
 31
0.0
 11
7.1016157473
 21
7.4701676273
 31
0.0
 11
7.1149114262
 21
7.5022942028
 31
0.0
 11
7.130972766
 21
7.5331592595
 31
0.0
 11
7.1496114272
 21
7.5624172122
 31
0.0
 11
7.1706851132
 21
7.5898836438
 31
0.0
 11
7.1941570788
 21
7.6154979342
 31
0.0
 11
7.2197807751
 21
7.6389663254
 31
0.0
 11
7.2472618473
 21
7.6600401796
 31
0.0
 11
7.2765381794
 21
7.6786807412
 31
0.0
 11
7.3074278455
 21
7.694746469
 31
0.0
 11
7.3395856989
 21
7.7080480556
 31
0.0
 11
7.3727091774
 21
7.7184777705
 31
0.0
 11
7.4067669948
 21
7.7260194532
 31
0.0
 11
7.4414384639
 21
7.7305749441
 31
0.0
 11
7.4530440979
 21
7.7314176404
 31
0.0
  0
SPLINE
  5
2D5
100
AcDbEntity
  8
0
100
AcDbSpline
 62
7
  6
CONTINUOUS
 70
0
 71
3
 72
25
 73
21
 74
19
 42
0.0000001
 43
0.0000001
 44
0.0000000001
 12
-0.0335621863
 22
-0.578415825
 32
0.0
 13
-0.5784148365
 23
-0.0335852348
 33
0.0
 40
0.0
 40
0.0
 40
0.0
 40
0.0
 40
0.0200941342
 40
0.080494816
 40
0.1407296603
 40
0.2006766753
 40
0.2607351258
 40
0.320810864
 40
0.3806828279
 40
0.4404119795
 40
0.5003317803
 40
0.5602400374
 40
0.6199337955
 40
0.6797496649
 40
0.7397490773
 40
0.7997148019
 40
0.8595555079
 40
0.9196717812
 40
0.9799476896
 40
1.0
 40
1.0
 40
1.0
 40
1.0
 10
16.1769104973
 20
5.9072970518
 30
0.0
 10
16.1766856962
 20
5.9034227967
 30
0.0
 10
16.1755603409
 20
5.8879155832
 30
0.0
 10
16.172019103
 20
5.8609465587
 30
0.0
 10
16.1644764421
 20
5.8268652158
 30
0.0
 10
16.154017355
 20
5.7936334103
 30
0.0
 10
16.1407170395
 20
5.7614659596
 30
0.0
 10
16.1246663276
 20
5.7305949895
 30
0.0
 10
16.1060167312
 20
5.7012965891
 30
0.0
 10
16.084903729
 20
5.6737585979
 30
0.0
 10
16.0614638898
 20
5.6481619529
 30
0.0
 10
16.0358814676
 20
5.6247167065
 30
0.0
 10
16.0083672905
 20
5.6036053522
 30
0.0
 10
15.97910288
 20
5.5849627134
 30
0.0
 10
15.9482756503
 20
5.5689221321
 30
0.0
 10
15.9161610157
 20
5.5556332481
 30
0.0
 10
15.8829900358
 20
5.5451851982
 30
0.0
 10
15.8489758428
 20
5.5376516137
 30
0.0
 10
15.8220617616
 20
5.5341149227
 30
0.0
 10
15.8065866877
 20
5.5329911032
 30
0.0
 10
15.8027205031
 20
5.532766616
 30
0.0
 11
16.1769104973
 21
5.9072970518
 31
0.0
 11
16.1760677501
 21
5.8956856569
 31
0.0
 11
16.1715127613
 21
5.8610026943
 31
0.0
 11
16.1639735356
 21
5.8269423695
 31
0.0
 11
16.1535498187
 21
5.7938260695
 31
0.0
 11
16.1402586275
 21
5.7616830636
 31
0.0
 11
16.1242080281
 21
5.7308139294
 31
0.0
 11
16.1055879304
 21
5.701562964
 31
0.0
 11
16.0845404686
 21
5.6741111443
 31
0.0
 11
16.0611040075
 21
5.6485185407
 31
0.0
 11
16.0355253355
 21
5.6250767693
 31
0.0
 11
16.0080976254
 21
5.6040315548
 31
0.0
 11
15.978880578
 21
5.5854186754
 31
0.0
 11
15.9480557272
 21
5.5693787321
 31
0.0
 11
15.915965952
 21
5.5560993483
 31
0.0
 11
15.8829106519
 21
5.5456869008
 31
0.0
 11
15.8489185732
 21
5.5381571013
 31
0.0
 11
15.8143076934
 21
5.5336082028
 31
0.0
 11
15.8027205031
 21
5.532766616
 31
0.0
  0
SPLINE
  5
2D6
100
AcDbEntity
  8
0
100
AcDbSpline
 62
7
  6
CONTINUOUS
 70
0
 71
3
 72
25
 73
21
 74
19
 42
0.0000001
 43
0.0000001
 44
0.0000000001
 12
0.5788771349
 22
-0.0336033902
 32
0.0
 13
0.0336203657
 23
-0.5788764096
 33
0.0
 40
0.0
 40
0.0
 40
0.0
 40
0.0
 40
0.0200673121
 40
0.0803999929
 40
0.1405854283
 40
0.2004991081
 40
0.2605387869
 40
0.3206106022
 40
0.3804920415
 40
0.4402405814
 40
0.5001883132
 40
0.5601302958
 40
0.6198600277
 40
0.6797102083
 40
0.7397397796
 40
0.7997284436
 40
0.8595821308
 40
0.9196982792
 40
0.9799574461
 40
1.0
 40
1.0
 40
1.0
 40
1.0
 10
15.8021272124
 20
7.7314176315
 30
0.0
 10
15.8059993818
 20
7.7311928549
 30
0.0
 10
15.8215006702
 20
7.7300674336
 30
0.0
 10
15.8484633746
 20
7.7265253336
 30
0.0
 10
15.8825428066
 20
7.718979873
 30
0.0
 10
15.9157812868
 20
7.7085146869
 30
0.0
 10
15.9479628403
 20
7.695204088
 30
0.0
 10
15.9788543032
 20
7.6791381105
 30
0.0
 10
16.0081781152
 20
7.6604678207
 30
0.0
 10
16.0357447901
 20
7.6393286587
 30
0.0
 10
16.0613716493
 20
7.6158575903
 30
0.0
 10
16.0848470027
 20
7.5902395844
 30
0.0
 10
16.1059866313
 20
7.5626868616
 30
0.0
 10
16.1246543962
 20
7.5333825919
 30
0.0
 10
16.140716044
 20
7.5025160006
 30
0.0
 10
16.1540214389
 20
7.4703643409
 30
0.0
 10
16.1644812834
 20
7.437160704
 30
0.0
 10
16.1720221764
 20
7.4031203997
 30
0.0
 10
16.1755619736
 20
7.376190048
 30
0.0
 10
16.1766866042
 20
7.3607077396
 30
0.0
 10
16.1769112169
 20
7.3568403524
 30
0.0
 11
15.8021272124
 21
7.7314176315
 31
0.0
 11
15.8137323465
 21
7.7305749743
 31
0.0
 11
15.8484036729
 21
7.7260195394
 31
0.0
 11
15.8824625995
 21
7.7184776046
 31
0.0
 11
15.9155858312
 21
7.70804792
 31
0.0
 11
15.9477429483
 21
7.694746638
 31
0.0
 11
15.9786329037
 21
7.6786807837
 31
0.0
 11
16.0079098912
 21
7.6600397725
 31
0.0
 11
16.0353906103
 21
7.6389661337
 31
0.0
 11
16.061013869
 21
7.6154981432
 31
0.0
 11
16.0844862367
 21
7.5898834137
 31
0.0
 11
16.1055601354
 21
7.5624166328
 31
0.0
 11
16.124198344
 21
7.5331593407
 31
0.0
 11
16.1402595587
 21
7.5022945718
 31
0.0
 11
16.1535555424
 21
7.4701672621
 31
0.0
 11
16.1639797946
 21
7.4370787755
 31
0.0
 11
16.1715168726
 21
7.4030599058
 31
0.0
 11
16.1760691627
 21
7.3684311417
 31
0.0
 11
16.1769112169
 21
7.3568403524
 31
0.0
  0
LINE
  5
2D7
100
AcDbEntity
  8
0
100
AcDbLine
 62
7
  6
CONTINUOUS
 10
7.0775855785
 20
5.9305843348
 11
7.0775855785
 21
6.1384363367
  0
LINE
  5
2D8
100
AcDbEntity
  8
0
100
AcDbLine
 62
7
  6
CONTINUOUS
 10
7.0775855785
 20
6.1384363367
 11
7.0775855785
 21
6.1903994537
  0
LINE
  5
2D9
100
AcDbEntity
  8
0
100
AcDbLine
 62
7
  6
CONTINUOUS
 10
7.0775855785
 20
6.1903994537
 11
7.0775855785
 21
6.3982524111
  0
LINE
  5
2DA
100
AcDbEntity
  8
0
100
AcDbLine
 62
7
  6
CONTINUOUS
 10
7.0775855785
 20
6.3982524111
 11
7.0775855785
 21
6.6061063397
  0
LINE
  5
2DB
100
AcDbEntity
  8
0
100
AcDbLine
 62
7
  6
CONTINUOUS
 10
7.0775855785
 20
6.6061063397
 11
7.0775855785
 21
6.6580699444
  0
LINE
  5
2DC
100
AcDbEntity
  8
0
100
AcDbLine
 62
7
  6
CONTINUOUS
 10
7.0775855785
 20
6.6580699444
 11
7.0775855785
 21
6.8659246797
  0
LINE
  5
2DD
100
AcDbEntity
  8
0
100
AcDbLine
 62
7
  6
CONTINUOUS
 10
7.0775855785
 20
6.8659246797
 11
7.0775855785
 21
7.0737803621
  0
LINE
  5
2DE
100
AcDbEntity
  8
0
100
AcDbLine
 62
7
  6
CONTINUOUS
 10
7.0775855785
 20
7.0737803621
 11
7.0775855785
 21
7.1257443631
  0
LINE
  5
2DF
100
AcDbEntity
  8
0
100
AcDbLine
 62
7
  6
CONTINUOUS
 10
7.0775855785
 20
7.1257443631
 11
7.0775855785
 21
7.3336007816
  0
LINE
  5
2E0
100
AcDbEntity
  8
RACCORDO
100
AcDbLine
 62
7
  6
CONTINUOUS
 10
16.1775855784
 20
7.3336007817
 11
16.1775855784
 21
7.0997623041
  0
LINE
  5
2E1
100
AcDbEntity
  8
RACCORDO
100
AcDbLine
 62
7
  6
CONTINUOUS
 10
16.1775855784
 20
7.0997623041
 11
16.1775855784
 21
6.8659247195
  0
LINE
  5
2E2
100
AcDbEntity
  8
RACCORDO
100
AcDbLine
 62
7
  6
CONTINUOUS
 10
16.1775855784
 20
6.8659247195
 11
16.1775855784
 21
6.6320880792
  0
LINE
  5
2E3
100
AcDbEntity
  8
RACCORDO
100
AcDbLine
 62
7
  6
CONTINUOUS
 10
16.1775855784
 20
6.6320880792
 11
16.1775855784
 21
6.3982524342
  0
LINE
  5
2E4
100
AcDbEntity
  8
RACCORDO
100
AcDbLine
 62
7
  6
CONTINUOUS
 10
16.1775855784
 20
6.3982524342
 11
16.1775855784
 21
6.1644178356
  0
LINE
  5
2E5
100
AcDbEntity
  8
RACCORDO
100
AcDbLine
 62
7
  6
CONTINUOUS
 10
16.1775855784
 20
6.1644178356
 11
16.1775855784
 21
5.9305843348
  0
LINE
  5
2E6
100
AcDbEntity
  8
RACCORDO
100
AcDbLine
 62
7
  6
CONTINUOUS
 10
7.0775855785
 20
5.9305843348
 11
7.0775855785
 21
7.3336007817
  0
SPLINE
  5
2E7
100
AcDbEntity
  8
RACCORDO
100
AcDbSpline
 62
7
  6
CONTINUOUS
 70
0
 71
3
 72
25
 73
21
 74
19
 42
0.0000001
 43
0.0000001
 44
0.0000000001
 12
-0.6256832202
 22
0.0
 32
0.0
 13
0.0
 23
0.6256832202
 33
0.0
 40
0.0
 40
0.0
 40
0.0
 40
0.0
 40
0.0556733582
 40
0.1114505503
 40
0.1670993388
 40
0.2225000448
 40
0.278013467
 40
0.3335579392
 40
0.3889329739
 40
0.4441938583
 40
0.4996537624
 40
0.5551262503
 40
0.6104212299
 40
0.6658457278
 40
0.721459882
 40
0.7770616371
 40
0.8325613724
 40
0.8883154579
 40
0.9442070521
 40
1.0
 40
1.0
 40
1.0
 40
1.0
 10
7.4756870349
 20
5.5320925462
 30
0.0
 10
7.4640757396
 20
5.5320925462
 30
0.0
 10
7.4408187941
 20
5.5331031395
 30
0.0
 10
7.4062232675
 20
5.537646801
 30
0.0
 10
7.3722086219
 20
5.5451777002
 30
0.0
 10
7.3390324179
 20
5.5556249672
 30
0.0
 10
7.3069119687
 20
5.5689143043
 30
0.0
 10
7.2760796792
 20
5.5849559644
 30
0.0
 10
7.2468106977
 20
5.6036003993
 30
0.0
 10
7.2192924119
 20
5.6247142474
 30
0.0
 10
7.1937061913
 20
5.6481628091
 30
0.0
 10
7.1702630113
 20
5.6737636114
 30
0.0
 10
7.1491476631
 20
5.7013060311
 30
0.0
 10
7.1304967443
 20
5.7306087806
 30
0.0
 10
7.1144452088
 20
5.7614847235
 30
0.0
 10
7.1011444765
 20
5.7936584972
 30
0.0
 10
7.0906865528
 20
5.8268953578
 30
0.0
 10
7.0831470017
 20
5.8609761864
 30
0.0
 10
7.0785975498
 20
5.8956423423
 30
0.0
 10
7.0775855785
 20
5.9189480977
 30
0.0
 10
7.0775855785
 20
5.9305843348
 30
0.0
 11
7.4756870349
 21
5.5320925462
 31
0.0
 11
7.4408860526
 21
5.5336062327
 31
0.0
 11
7.4062844543
 21
5.5381514884
 31
0.0
 11
7.3722894105
 21
5.5456791613
 31
0.0
 11
7.3392269242
 21
5.5560914529
 31
0.0
 11
7.307131906
 21
5.5693710551
 31
0.0
 11
7.2763021206
 21
5.5854120126
 31
0.0
 11
7.2470802424
 21
5.6040268557
 31
0.0
 11
7.2196487023
 21
5.6250743523
 31
0.0
 11
7.1940664644
 21
5.648519226
 31
0.0
 11
7.1706262634
 21
5.6741164224
 31
0.0
 11
7.1495762582
 21
5.7015729233
 31
0.0
 11
7.1309552594
 21
5.7308275716
 31
0.0
 11
7.1149040905
 21
5.7617011893
 31
0.0
 11
7.1016122926
 21
5.7938509724
 31
0.0
 11
7.0911889109
 21
5.8269749263
 31
0.0
 11
7.0836526155
 21
5.8610355387
 31
0.0
 11
7.0791014116
 21
5.8957085498
 31
0.0
 11
7.0775855785
 21
5.9305843348
 31
0.0
  0
SPLINE
  5
2E8
100
AcDbEntity
  8
RACCORDO
100
AcDbSpline
 62
7
  6
CONTINUOUS
 70
0
 71
3
 72
25
 73
21
 74
19
 42
0.0000001
 43
0.0000001
 44
0.0000000001
 12
-0.0
 22
0.6261321933
 32
0.0
 13
0.6261321933
 23
0.0
 33
0.0
 40
0.0
 40
0.0
 40
0.0
 40
0.0
 40
0.0556462765
 40
0.1114123659
 40
0.1670645122
 40
0.2224808987
 40
0.2780198863
 40
0.3335969858
 40
0.3890085547
 40
0.4443073417
 40
0.499802936
 40
0.5553057357
 40
0.6106232273
 40
0.6660612395
 40
0.7216764573
 40
0.7772651809
 40
0.8327377847
 40
0.8884496229
 40
0.9442824486
 40
1.0
 40
1.0
 40
1.0
 40
1.0
 10
7.0775855785
 20
7.3336007817
 30
0.0
 10
7.0775855785
 20
7.3452147567
 30
0.0
 10
7.0785970406
 20
7.3684804145
 30
0.0
 10
7.0831443427
 20
7.4030933866
 30
0.0
 10
7.0906825308
 20
7.437133724
 30
0.0
 10
7.1011414873
 20
7.4703421792
 30
0.0
 10
7.1144472709
 20
7.5024995105
 30
0.0
 10
7.1305100294
 20
7.5333712298
 30
0.0
 10
7.1491796727
 20
7.5626801796
 30
0.0
 10
7.1703218661
 20
7.5902370671
 30
0.0
 10
7.1938005669
 20
7.6158588686
 30
0.0
 10
7.2194316082
 20
7.6393332679
 30
0.0
 10
7.247002782
 20
7.6604747975
 30
0.0
 10
7.2763310603
 20
7.6791464422
 30
0.0
 10
7.3072275767
 20
7.695213231
 30
0.0
 10
7.3394153359
 20
7.7085241447
 30
0.0
 10
7.3726584937
 20
7.7189880221
 30
0.0
 10
7.4067369689
 20
7.7265302979
 30
0.0
 10
7.4413911916
 20
7.7310804181
 30
0.0
 10
7.4646856568
 20
7.7320925462
 30
0.0
 10
7.4763145077
 20
7.7320925462
 30
0.0
 11
7.0775855785
 21
7.3336007817
 31
0.0
 11
7.07910013
 21
7.368409773
 31
0.0
 11
7.0836488684
 21
7.40302916
 31
0.0
 11
7.0911837503
 21
7.4370503507
 31
0.0
 11
7.1016077145
 21
7.4701455322
 31
0.0
 11
7.1149038745
 21
7.5022779961
 31
0.0
 11
7.1309661638
 21
7.5331478229
 31
0.0
 11
7.1496064449
 21
7.5624100967
 31
0.0
 11
7.1706826944
 21
7.5898807606
 31
0.0
 11
7.1941581777
 21
7.6154990328
 31
0.0
 11
7.2197860332
 21
7.6389707342
 31
0.0
 11
7.2472714964
 21
7.6600469322
 31
0.0
 11
7.276552324
 21
7.6786889023
 31
0.0
 11
7.3074468955
 21
7.6947553408
 31
0.0
 11
7.3396107237
 21
7.7080571486
 31
0.0
 11
7.3727411651
 21
7.7184863319
 31
0.0
 11
7.4067997491
 21
7.7260252197
 31
0.0
 11
7.4414608942
 21
7.7305768999
 31
0.0
 11
7.4763145077
 21
7.7320925462
 31
0.0
  0
SPLINE
  5
2E9
100
AcDbEntity
  8
RACCORDO
100
AcDbSpline
 62
7
  6
CONTINUOUS
 70
0
 71
3
 72
25
 73
21
 74
19
 42
0.0000001
 43
0.0000001
 44
0.0000000001
 12
0.0
 22
-0.6256832202
 32
0.0
 13
-0.6256832202
 23
0.0
 33
0.0
 40
0.0
 40
0.0
 40
0.0
 40
0.0
 40
0.0557950913
 40
0.1116884983
 40
0.1674453284
 40
0.2229447961
 40
0.2785453267
 40
0.3341599831
 40
0.3895856968
 40
0.4448800349
 40
0.5003515979
 40
0.5558124452
 40
0.6110739736
 40
0.6664477952
 40
0.7219917909
 40
0.7775064418
 40
0.8329073853
 40
0.8885533946
 40
0.9443287616
 40
1.0
 40
1.0
 40
1.0
 40
1.0
 10
16.1775855784
 20
5.9305843348
 30
0.0
 10
16.1775855784
 20
5.9189476506
 30
0.0
 10
16.1765735322
 20
5.8956410686
 30
0.0
 10
16.1720237328
 20
5.8609735447
 30
0.0
 10
16.164483703
 20
5.8268918994
 30
0.0
 10
16.1540253584
 20
5.7936548978
 30
0.0
 10
16.1407244117
 20
5.7614814388
 30
0.0
 10
16.1246725629
 20
5.7306055415
 30
0.0
 10
16.1060212304
 20
5.7013027863
 30
0.0
 10
16.0849056403
 20
5.6737606457
 30
0.0
 10
16.061462314
 20
5.6481601562
 30
0.0
 10
16.0358757742
 20
5.6247117355
 30
0.0
 10
16.0083572045
 20
5.6035981271
 30
0.0
 10
15.9790882225
 20
5.5849541036
 30
0.0
 10
15.9482558801
 20
5.5689127555
 30
0.0
 10
15.916135115
 20
5.5556236356
 30
0.0
 10
15.8829590634
 20
5.5451767954
 30
0.0
 10
15.84894525
 20
5.5376463792
 30
0.0
 10
15.8143510964
 20
5.5331030651
 30
0.0
 10
15.7910949752
 20
5.5320925462
 30
0.0
 10
15.779484122
 20
5.5320925462
 30
0.0
 11
16.1775855784
 21
5.9305843348
 31
0.0
 11
16.1760696287
 21
5.8957072125
 31
0.0
 11
16.171518112
 21
5.8610330985
 31
0.0
 11
16.1639811615
 21
5.8269708722
 31
0.0
 11
16.1535574889
 21
5.7938471855
 31
0.0
 11
16.1402656896
 21
5.7616982319
 31
0.0
 11
16.1242141104
 21
5.7308244735
 31
0.0
 11
16.1055924117
 21
5.7015693688
 31
0.0
 11
16.0845423646
 21
5.6741134058
 31
0.0
 11
16.0611023191
 21
5.6485168517
 31
0.0
 11
16.0355194303
 21
5.6250718149
 31
0.0
 11
16.0080873503
 21
5.60402436
 31
0.0
 11
15.978865926
 21
5.5854102171
 31
0.0
 11
15.948036266
 21
5.5693696645
 31
0.0
 11
15.9159404147
 21
5.5560900652
 31
0.0
 11
15.8828776784
 21
5.5456780723
 31
0.0
 11
15.8488842694
 21
5.53815106
 31
0.0
 11
15.8142837818
 21
5.5336061174
 31
0.0
 11
15.779484122
 21
5.5320925462
 31
0.0
  0
SPLINE
  5
2EA
100
AcDbEntity
  8
RACCORDO
100
AcDbSpline
 62
7
  6
CONTINUOUS
 70
0
 71
3
 72
25
 73
21
 74
19
 42
0.0000001
 43
0.0000001
 44
0.0000000001
 12
0.6261321933
 22
0.0
 32
0.0
 13
-0.0
 23
-0.6261321933
 33
0.0
 40
0.0
 40
0.0
 40
0.0
 40
0.0
 40
0.0557196865
 40
0.1115543222
 40
0.16726891
 40
0.2227412555
 40
0.2783287553
 40
0.3339444681
 40
0.3893836966
 40
0.4447005512
 40
0.5002024237
 40
0.5556989543
 40
0.6109983787
 40
0.6664087318
 40
0.7219853485
 40
0.7775255617
 40
0.8329421921
 40
0.8885915724
 40
0.9443558468
 40
1.0
 40
1.0
 40
1.0
 40
1.0
 10
15.7788566492
 20
7.7320925462
 30
0.0
 10
15.7904859457
 20
7.7320925462
 30
0.0
 10
15.8137812358
 20
7.7310803434
 30
0.0
 10
15.8484368263
 20
7.726529876
 30
0.0
 10
15.8825161212
 20
7.7189871209
 30
0.0
 10
15.9157594231
 20
7.7085228214
 30
0.0
 10
15.9479468678
 20
7.6952116926
 30
0.0
 10
15.9788433373
 20
7.679144591
 30
0.0
 10
16.0081716211
 20
7.6604725326
 30
0.0
 10
16.035742516
 20
7.6393307607
 30
0.0
 10
16.0613732437
 20
7.6158562158
 30
0.0
 10
16.0848518013
 20
7.5902340975
 30
0.0
 10
16.1059937533
 20
7.5626769291
 30
0.0
 10
16.1246629839
 20
7.533367982
 30
0.0
 10
16.1407254301
 20
7.5024962125
 30
0.0
 10
16.1540309974
 20
7.4703385663
 30
0.0
 10
16.164489529
 20
7.4371302607
 30
0.0
 10
16.1720272358
 20
7.4030907501
 30
0.0
 10
16.1765741908
 20
7.3684791479
 30
0.0
 10
16.1775855784
 20
7.3452143136
 30
0.0
 10
16.1775855784
 20
7.3336007817
 30
0.0
 11
15.7788566492
 21
7.7320925462
 31
0.0
 11
15.8137115957
 21
7.7305767837
 31
0.0
 11
15.8483738429
 21
7.7260247911
 31
0.0
 11
15.882434045
 21
7.7184852472
 31
0.0
 11
15.9155642245
 21
7.7080557711
 31
0.0
 11
15.947727223
 21
7.6947539617
 31
0.0
 11
15.9786219314
 21
7.6786871147
 31
0.0
 11
16.0079032158
 21
7.6600444442
 31
0.0
 11
16.035388143
 21
7.6389682026
 31
0.0
 11
16.0610153547
 21
7.6154966579
 31
0.0
 11
16.0844909985
 21
7.5898777376
 31
0.0
 11
16.1055672043
 21
7.5624065371
 31
0.0
 11
16.1242067846
 21
7.5331447195
 31
0.0
 11
16.1402686679
 21
7.5022750223
 31
0.0
 11
16.1535648257
 21
7.4701417269
 31
0.0
 11
16.1639884933
 21
7.4370462919
 31
0.0
 11
16.1715227165
 21
7.4030267291
 31
0.0
 11
16.1760711425
 21
7.3684084474
 31
0.0
 11
16.1775855784
 21
7.3336007817
 31
0.0
  0
SPLINE
  5
2EB
100
AcDbEntity
  8
RACCORDO
100
AcDbSpline
 62
253
  6
CONTINUOUS
 70
0
 71
3
 72
10
 73
6
 74
4
 42
0.0000001
 43
0.0000001
 44
0.0000000001
 12
0.0060355961
 22
9.0950346867
 32
0.0
 13
0.0002514557
 23
9.0950366859
 33
0.0
 40
0.0
 40
0.0
 40
0.0
 40
0.0
 40
0.33331324
 40
0.66664763
 40
1.0
 40
1.0
 40
1.0
 40
1.0
 10
0.6566342064
 20
1.6415925462
 30
0.0
 10
0.6573047878
 20
2.6520910393
 30
0.0
 10
0.6584317021
 20
4.6731522945
 30
0.0
 10
0.6594794774
 20
7.7048310303
 30
0.0
 10
0.6597494636
 20
9.7260112113
 30
0.0
 10
0.6597774047
 20
10.7366285562
 30
0.0
 11
0.6566342064
 21
1.6415925462
 31
0.0
 11
0.6583245688
 21
4.6730882217
 31
0.0
 11
0.6593723264
 21
7.7047765475
 31
0.0
 11
0.6597774047
 21
10.7366285562
 31
0.0
  0
SPLINE
  5
2EC
100
AcDbEntity
  8
0
100
AcDbSpline
 62
253
  6
CONTINUOUS
 70
0
 71
3
 72
25
 73
21
 74
19
 42
0.0000001
 43
0.0000001
 44
0.0000000001
 12
0.4390248502
 22
-0.23920298
 32
0.0
 13
0.4999607732
 23
-0.0003316614
 33
0.0
 40
0.0
 40
0.0
 40
0.0
 40
0.0
 40
0.0068059321
 40
0.0207337758
 40
0.0417520194
 40
0.0697246347
 40
0.10445486
 40
0.1456934389
 40
0.1931423402
 40
0.246457634
 40
0.3052523085
 40
0.3690992429
 40
0.4375344016
 40
0.5100602612
 40
0.5861494626
 40
0.6652486693
 40
0.7467826077
 40
0.8301582634
 40
0.9147692045
 40
1.0
 40
1.0
 40
1.0
 40
1.0
 10
0.6566342064
 20
1.6415925462
 30
0.0
 10
0.6576301975
 20
1.6410498798
 30
0.0
 10
0.6611724943
 20
1.6406478275
 30
0.0
 10
0.6679940038
 20
1.6397726964
 30
0.0
 10
0.6785036032
 20
1.6390986783
 30
0.0
 10
0.6924158101
 20
1.638318238
 30
0.0
 10
0.7097302859
 20
1.6375951665
 30
0.0
 10
0.7302835225
 20
1.6368803472
 30
0.0
 10
0.7539400044
 20
1.6362017304
 30
0.0
 10
0.7805230862
 20
1.6355582385
 30
0.0
 10
0.8098409268
 20
1.6349574836
 30
0.0
 10
0.8416797621
 20
1.634403511
 30
0.0
 10
0.8758080918
 20
1.633900839
 30
0.0
 10
0.9119775565
 20
1.6334532396
 30
0.0
 10
0.9499249969
 20
1.6330641167
 30
0.0
 10
0.9893742963
 20
1.6327363866
 30
0.0
 10
1.0300384131
 20
1.6324724997
 30
0.0
 10
1.0716214638
 20
1.6322744207
 30
0.0
 10
1.1138208762
 20
1.6321436203
 30
0.0
 10
1.1421256018
 20
1.6321019688
 30
0.0
 10
1.1563296199
 20
1.6320925462
 30
0.0
 11
0.6566342064
 21
1.6415925462
 31
0.0
 11
0.6599390617
 21
1.6407824244
 31
0.0
 11
0.6668558412
 21
1.6399781973
 31
0.0
 11
0.6773342159
 21
1.6391857168
 31
0.0
 11
0.6912979411
 21
1.6384107494
 31
0.0
 11
0.7086454115
 21
1.6376589338
 31
0.0
 11
0.7292504004
 21
1.6369357407
 31
0.0
 11
0.7529629783
 21
1.6362464323
 31
0.0
 11
0.7796106033
 21
1.6355960242
 31
0.0
 11
0.8089993775
 21
1.6349892491
 31
0.0
 11
0.840915457
 21
1.634430522
 31
0.0
 11
0.8751266085
 21
1.6339239085
 31
0.0
 11
0.9113838988
 21
1.6334730949
 31
0.0
 11
0.9494235062
 21
1.6330813615
 31
0.0
 11
0.9889686402
 21
1.6327515587
 31
0.0
 11
1.0297315555
 21
1.6324860862
 31
0.0
 11
1.071415646
 21
1.6322868757
 31
0.0
 11
1.1137176024
 21
1.6321553768
 31
0.0
 11
1.1563296199
 21
1.6320925462
 31
0.0
  0
SPLINE
  5
2ED
100
AcDbEntity
  8
RACCORDO
100
AcDbSpline
 62
253
  6
CONTINUOUS
 70
0
 71
3
 72
10
 73
6
 74
4
 42
0.0000001
 43
0.0000001
 44
0.0000000001
 12
0.0060343306
 22
9.1022302253
 32
0.0
 13
0.0002526151
 23
9.102232222
 33
0.0
 40
0.0
 40
0.0
 40
0.0
 40
0.0
 40
0.3333130829
 40
0.6666473215
 40
1.0
 40
1.0
 40
1.0
 40
1.0
 10
1.1563296199
 20
1.6320925462
 30
0.0
 10
1.1570000604
 20
2.6433900189
 30
0.0
 10
1.1581270359
 20
4.6660493006
 30
0.0
 10
1.1591736557
 20
7.7001265488
 30
0.0
 10
1.1594465927
 20
9.7229062621
 30
0.0
 10
1.1594746627
 20
10.7343240928
 30
0.0
 11
1.1563296199
 21
1.6320925462
 31
0.0
 11
1.1580196946
 21
4.6659851601
 31
0.0
 11
1.1590674346
 21
7.700070627
 31
0.0
 11
1.1594746627
 21
10.7343240928
 31
0.0
  0
SPLINE
  5
2EE
100
AcDbEntity
  8
RACCORDO
100
AcDbSpline
 62
253
  6
CONTINUOUS
 70
0
 71
3
 72
25
 73
21
 74
19
 42
0.0000001
 43
0.0000001
 44
0.0000000001
 12
-0.4997136625
 22
0.0000069763
 32
0.0
 13
-0.4951377735
 23
0.0674709552
 33
0.0
 40
0.0
 40
0.0
 40
0.0
 40
0.0
 40
0.085271627
 40
0.1699228858
 40
0.2533392761
 40
0.334911862
 40
0.4140477186
 40
0.4901712172
 40
0.5627281194
 40
0.6311904874
 40
0.6950603256
 40
0.7538728639
 40
0.8072001514
 40
0.8546543022
 40
0.8958900524
 40
0.9306072984
 40
0.958553747
 40
0.9795266151
 40
0.9933739673
 40
1.0
 40
1.0
 40
1.0
 40
1.0
 10
1.1594746627
 20
10.7343240922
 30
0.0
 10
1.1452708637
 20
10.7343242905
 30
0.0
 10
1.1169666009
 20
10.7343304158
 30
0.0
 10
1.0747675755
 20
10.7343567721
 30
0.0
 10
1.033184718
 20
10.7344000895
 30
0.0
 10
0.9925205895
 20
10.7344600413
 30
0.0
 10
0.9530712759
 20
10.7345361821
 30
0.0
 10
0.9151237531
 20
10.7346279379
 30
0.0
 10
0.8789541726
 20
10.7347346202
 30
0.0
 10
0.8448257546
 20
10.734855411
 30
0.0
 10
0.8129868225
 20
10.7349894094
 30
0.0
 10
0.7836690313
 20
10.7351354885
 30
0.0
 10
0.7570857511
 20
10.7352927543
 30
0.0
 10
0.7334302819
 20
10.7354590415
 30
0.0
 10
0.7128751626
 20
10.7356355162
 30
0.0
 10
0.6955687935
 20
10.7358126123
 30
0.0
 10
0.6816403029
 20
10.7360098156
 30
0.0
 10
0.6711825439
 20
10.7361676448
 30
0.0
 10
0.6642895164
 20
10.7364035883
 30
0.0
 10
0.6608710044
 20
10.736479527
 30
0.0
 10
0.6597774047
 20
10.7366285486
 30
0.0
 11
1.1594746627
 21
10.7343240922
 31
0.0
 11
1.1168632667
 21
10.7343333475
 31
0.0
 11
1.0745618844
 21
10.7343598631
 31
0.0
 11
1.0328775973
 21
10.7344034485
 31
0.0
 11
0.9921147063
 21
10.7344637831
 31
0.0
 11
0.9525695118
 21
10.7345404284
 31
0.0
 11
0.9145296717
 21
10.7346328252
 31
0.0
 11
0.8782721557
 21
10.7347402994
 31
0.0
 11
0.8440607917
 21
10.7348620673
 31
0.0
 11
0.8121444472
 21
10.7349972414
 31
0.0
 11
0.7827553889
 21
10.7351448361
 31
0.0
 11
0.7561074887
 21
10.7353037756
 31
0.0
 11
0.7323946043
 21
10.7354729019
 31
0.0
 11
0.711789306
 21
10.7356509826
 31
0.0
 11
0.6944416182
 21
10.73583672
 31
0.0
 11
0.6804777165
 21
10.7360287597
 31
0.0
 11
0.6699991384
 21
10.7362257106
 31
0.0
 11
0.6630823301
 21
10.7364261194
 31
0.0
 11
0.6597774047
 21
10.7366285486
 31
0.0
  0
SPLINE
  5
2EF
100
AcDbEntity
  8
0
100
AcDbSpline
 62
253
  6
CONTINUOUS
 70
0
 71
3
 72
25
 73
21
 74
19
 42
0.0000001
 43
0.0000001
 44
0.0000000001
 12
0.1156726251
 22
-0.5000143338
 32
0.0
 13
0.5132129288
 23
-0.0026419615
 33
0.0
 40
0.0
 40
0.0
 40
0.0
 40
0.0
 40
0.0139486785
 40
0.0321748852
 40
0.0558987827
 40
0.0855593295
 40
0.1212490579
 40
0.1628831388
 40
0.2102678154
 40
0.263131883
 40
0.3211434014
 40
0.3839199748
 40
0.4510360341
 40
0.5220286665
 40
0.5964027304
 40
0.6736356257
 40
0.7531819132
 40
0.8344778801
 40
0.9169460991
 40
1.0
 40
1.0
 40
1.0
 40
1.0
 10
0.6222713525
 20
-10.0007627821
 30
0.0
 10
0.6228091793
 20
-10.0030876285
 30
0.0
 10
0.6256885265
 20
-10.0080371718
 30
0.0
 10
0.633051676
 20
-10.0142485188
 30
0.0
 10
0.6437252253
 20
-10.0203518762
 30
0.0
 10
0.6577749665
 20
-10.0263068648
 30
0.0
 10
0.6751461758
 20
-10.0321114436
 30
0.0
 10
0.6957421516
 20
-10.0377080631
 30
0.0
 10
0.7194242989
 20
-10.043054802
 30
0.0
 10
0.7460271368
 20
-10.0481073872
 30
0.0
 10
0.7753604719
 20
-10.052826498
 30
0.0
 10
0.8072129198
 20
-10.0571755311
 30
0.0
 10
0.8413538955
 20
-10.0611213406
 30
0.0
 10
0.8775357084
 20
-10.0646340817
 30
0.0
 10
0.9154955297
 20
-10.0676873753
 30
0.0
 10
0.9549574198
 20
-10.0702583991
 30
0.0
 10
0.9956343887
 20
-10.0723280051
 30
0.0
 10
1.0372305612
 20
-10.0738808218
 30
0.0
 10
1.0794432138
 20
-10.0749053414
 30
0.0
 10
1.1077586541
 20
-10.0752307316
 30
0.0
 10
1.121966766
 20
-10.0753038734
 30
0.0
 11
0.6222713525
 21
-10.0007627821
 31
0.0
 11
0.6255611128
 21
-10.0071208473
 31
0.0
 11
0.6324647121
 21
-10.0134326257
 31
0.0
 11
0.6429318922
 21
-10.0196521675
 31
0.0
 11
0.6568864518
 21
-10.0257341944
 31
0.0
 11
0.6742268017
 21
-10.031634429
 31
0.0
 11
0.6948267038
 21
-10.0373099177
 31
0.0
 11
0.7185361906
 21
-10.0427193429
 31
0.0
 11
0.7451826568
 21
-10.0478233237
 31
0.0
 11
0.7745721157
 21
-10.0525847033
 31
0.0
 11
0.8064906118
 21
-10.0569688187
 31
0.0
 11
0.8407057781
 21
-10.0609437534
 31
0.0
 11
0.8769685277
 21
-10.06448057
 31
0.0
 11
0.9150148674
 21
-10.0675535203
 31
0.0
 11
0.9545678193
 21
-10.0701402333
 31
0.0
 11
0.9953394376
 21
-10.0722218775
 31
0.0
 11
1.0370329043
 21
-10.0737832988
 31
0.0
 11
1.0793446906
 21
-10.0748131298
 31
0.0
 11
1.121966766
 21
-10.0753038734
 31
0.0
  0
SPLINE
  5
2F0
100
AcDbEntity
  8
0
100
AcDbSpline
 62
253
  6
CONTINUOUS
 70
0
 71
3
 72
25
 73
21
 74
19
 42
0.0000001
 43
0.0000001
 44
0.0000000001
 12
0.0014329144
 22
-0.7839168072
 32
0.0
 13
0.7839168112
 23
-0.0014307322
 33
0.0
 40
0.0
 40
0.0
 40
0.0
 40
0.0
 40
0.0555066409
 40
0.1110226213
 40
0.1665481587
 40
0.2220831809
 40
0.2776273283
 40
0.3331799649
 40
0.3887401978
 40
0.444306904
 40
0.4998787649
 40
0.555454306
 40
0.6110319415
 40
0.6666100223
 40
0.7221868858
 40
0.7777609063
 40
0.833330544
 40
0.8888943916
 40
0.9444512168
 40
1.0
 40
1.0
 40
1.0
 40
1.0
 10
0.6059198968
 20
-10.4255364583
 30
0.0
 10
0.6059464089
 20
-10.4400406545
 30
0.0
 10
0.6072660988
 20
-10.4690650742
 30
0.0
 10
0.6130293935
 20
-10.5122547706
 30
0.0
 10
0.6225328477
 20
-10.5547893334
 30
0.0
 10
0.6357042658
 20
-10.5963414656
 30
0.0
 10
0.6524436148
 20
-10.636596844
 30
0.0
 10
0.6726237725
 20
-10.6752495214
 30
0.0
 10
0.696091498
 20
-10.7120061202
 30
0.0
 10
0.7226685948
 20
-10.7465875566
 30
0.0
 10
0.7521532652
 20
-10.7787312917
 30
0.0
 10
0.7843216421
 20
-10.8081932876
 30
0.0
 10
0.8189294866
 20
-10.8347498675
 30
0.0
 10
0.8557140509
 20
-10.8581994101
 30
0.0
 10
0.8943960356
 20
-10.8783638796
 30
0.0
 10
0.9346818432
 20
-10.8950901766
 30
0.0
 10
0.9762653049
 20
-10.908251299
 30
0.0
 10
1.0188318704
 20
-10.9177473102
 30
0.0
 10
1.0620540277
 20
-10.9235060851
 30
0.0
 10
1.091100102
 20
-10.9248247339
 30
0.0
 10
1.1056153104
 20
-10.9248512257
 30
0.0
 11
0.6059198968
 21
-10.4255364583
 31
0.0
 11
0.6078964263
 21
-10.4690042054
 31
0.0
 11
0.6136520984
 21
-10.5121419051
 31
0.0
 11
0.6231432108
 21
-10.5546220162
 31
0.0
 11
0.6362976983
 21
-10.5961219904
 31
0.0
 11
0.6530156797
 21
-10.6363267212
 31
0.0
 11
0.6731702168
 21
-10.6749309373
 31
0.0
 11
0.6966082776
 21
-10.7116415196
 31
0.0
 11
0.7231518987
 21
-10.7461797274
 31
0.0
 11
0.7525995364
 21
-10.7782833146
 31
0.0
 11
0.7847275969
 21
-10.8077085209
 31
0.0
 11
0.8192921343
 21
-10.834231923
 31
0.0
 11
0.8560307026
 21
-10.8576521306
 31
0.0
 11
0.8946643485
 21
-10.8777913156
 31
0.0
 11
0.9348997296
 21
-10.8944965629
 31
0.0
 11
0.9764313416
 21
-10.9076410306
 31
0.0
 11
1.0189438381
 21
-10.9171249136
 31
0.0
 11
1.0621144247
 21
-10.9228762017
 31
0.0
 11
1.1056153104
 21
-10.9248512257
 31
0.0
  0
SPLINE
  5
2F1
100
AcDbEntity
  8
0
100
AcDbSpline
 62
253
  6
CONTINUOUS
 70
0
 71
3
 72
26
 73
22
 74
20
 42
0.0000001
 43
0.0000001
 44
0.0000000001
 12
0.2685929374
 22
0.8063832935
 32
0.0
 13
0.0022369592
 23
0.8499359847
 33
0.0
 40
0.0
 40
0.0
 40
0.0
 40
0.0
 40
0.0076246917
 40
0.0212415454
 40
0.0408201379
 40
0.0662705183
 40
0.097465855
 40
0.134246857
 40
0.176424113
 40
0.2237795972
 40
0.2760683609
 40
0.3330193498
 40
0.3943374779
 40
0.4597046572
 40
0.5287822035
 40
0.6012118306
 40
0.6766179093
 40
0.7546093822
 40
0.8347824281
 40
0.9167204116
 40
1.0
 40
1.0
 40
1.0
 40
1.0
 10
1.1056153104
 20
-10.9248512257
 30
0.0
 10
1.1062979565
 20
-10.922801751
 30
0.0
 10
1.1071270691
 20
-10.9167926649
 30
0.0
 10
1.1083467998
 20
-10.9053217232
 30
0.0
 10
1.1094795987
 20
-10.8887281742
 30
0.0
 10
1.1106596803
 20
-10.8671710578
 30
0.0
 10
1.1118006793
 20
-10.8407238859
 30
0.0
 10
1.1129186689
 20
-10.8095366097
 30
0.0
 10
1.1139960717
 20
-10.7737660816
 30
0.0
 10
1.1150290966
 20
-10.7335994779
 30
0.0
 10
1.116010535
 20
-10.6892447656
 30
0.0
 10
1.1169350865
 20
-10.6409322984
 30
0.0
 10
1.1177974978
 20
-10.5889128494
 30
0.0
 10
1.1185930779
 20
-10.5334563593
 30
0.0
 10
1.1193175156
 20
-10.4748506132
 30
0.0
 10
1.1199669242
 20
-10.4133996756
 30
0.0
 10
1.1205378482
 20
-10.3494224261
 30
0.0
 10
1.1210272377
 20
-10.2832506306
 30
0.0
 10
1.1214325414
 20
-10.2152276611
 30
0.0
 10
1.1217515493
 20
-10.1457060268
 30
0.0
 10
1.1219046684
 20
-10.0988979797
 30
0.0
 10
1.121966766
 20
-10.0753038734
 30
0.0
 11
1.1056153104
 21
-10.9248512257
 31
0.0
 11
1.1068681314
 21
-10.9184929548
 31
0.0
 11
1.1081096486
 21
-10.9069862437
 31
0.0
 11
1.1093335396
 21
-10.8903907045
 31
0.0
 11
1.1105333597
 21
-10.8687927363
 31
0.0
 11
1.1117029232
 21
-10.8423044131
 31
0.0
 11
1.1128361473
 21
-10.8110633539
 31
0.0
 11
1.1139271549
 21
-10.7752318679
 31
0.0
 11
1.1149702832
 21
-10.7349961179
 31
0.0
 11
1.1159601258
 21
-10.6905648866
 31
0.0
 11
1.116891546
 21
-10.6421689863
 31
0.0
 11
1.117759716
 21
-10.5900595538
 31
0.0
 11
1.1185601321
 21
-10.5345072095
 31
0.0
 11
1.1192886485
 21
-10.4758000339
 31
0.0
 11
1.1199414868
 21
-10.4142427359
 31
0.0
 11
1.1205152657
 21
-10.3501547427
 31
0.0
 11
1.1210070064
 21
-10.2838685777
 31
0.0
 11
1.1214141761
 21
-10.2157276014
 31
0.0
 11
1.1217346386
 21
-10.1460860569
 31
0.0
 11
1.121966766
 21
-10.0753038734
 31
0.0
  0
SPLINE
  5
2F2
100
AcDbEntity
  8
0
100
AcDbSpline
 62
253
  6
CONTINUOUS
 70
0
 71
3
 72
26
 73
22
 74
20
 42
0.0000001
 43
0.0000001
 44
0.0000000001
 12
0.2359522709
 22
0.3541440557
 32
0.0
 13
0.0022405098
 23
0.4255425554
 33
0.0
 40
0.0
 40
0.0
 40
0.0
 40
0.0
 40
0.0080280304
 40
0.0218584245
 40
0.0415678431
 40
0.0671002974
 40
0.0983438593
 40
0.135147229
 40
0.1773258644
 40
0.2246650247
 40
0.2769221631
 40
0.333828105
 40
0.3950893218
 40
0.4603890646
 40
0.5293898417
 40
0.6017344933
 40
0.6770484607
 40
0.7549417191
 40
0.8350114612
 40
0.9168420376
 40
1.0
 40
1.0
 40
1.0
 40
1.0
 10
0.6059198968
 20
-10.4255364583
 30
0.0
 10
0.6065513075
 20
-10.4245887652
 30
0.0
 10
0.6074469169
 20
-10.4215475107
 30
0.0
 10
0.6086330809
 20
-10.4158097636
 30
0.0
 10
0.6097879879
 20
-10.4074874496
 30
0.0
 10
0.6109611311
 20
-10.3967088237
 30
0.0
 10
0.6121053942
 20
-10.3834802939
 30
0.0
 10
0.6132226234
 20
-10.3678854609
 30
0.0
 10
0.6143004774
 20
-10.3499986725
 30
0.0
 10
0.6153334835
 20
-10.3299144251
 30
0.0
 10
0.6163150121
 20
-10.3077361804
 30
0.0
 10
0.6172395966
 20
-10.2835791583
 30
0.0
 10
0.618102043
 20
-10.2575686661
 30
0.0
 10
0.6188976472
 20
-10.2298396657
 30
0.0
 10
0.619622103
 20
-10.2005360391
 30
0.0
 10
0.620271527
 20
-10.1698098178
 30
0.0
 10
0.6208424556
 20
-10.1378204412
 30
0.0
 10
0.6213318596
 20
-10.1047337948
 30
0.0
 10
0.6217371466
 20
-10.0707215691
 30
0.0
 10
0.6220561676
 20
-10.0359616024
 30
0.0
 10
0.6222092471
 20
-10.0125585328
 30
0.0
 10
0.6222713525
 20
-10.0007627821
 30
0.0
 11
0.6059198968
 21
-10.4255364583
 31
0.0
 11
0.6071725035
 21
-10.4223580639
 31
0.0
 11
0.608414078
 21
-10.4166050094
 31
0.0
 11
0.6096379723
 21
-10.4083074739
 31
0.0
 11
0.6108378196
 21
-10.3975086298
 31
0.0
 11
0.6120074016
 21
-10.3842645227
 31
0.0
 11
0.6131406468
 21
-10.3686439592
 31
0.0
 11
0.6142316739
 21
-10.3507280957
 31
0.0
 11
0.6152748211
 21
-10.3306100153
 31
0.0
 11
0.6162646813
 21
-10.3083941122
 31
0.0
 11
0.6171961178
 21
-10.2841957963
 31
0.0
 11
0.6180643022
 21
-10.2581406407
 31
0.0
 11
0.6188647306
 21
-10.2303639665
 31
0.0
 11
0.6195932566
 21
-10.2010098316
 31
0.0
 11
0.6202461025
 21
-10.1702305998
 31
0.0
 11
0.6208198847
 21
-10.138185994
 31
0.0
 11
0.6213116297
 21
-10.1050422861
 31
0.0
 11
0.6217187927
 21
-10.070971164
 31
0.0
 11
0.6220392605
 21
-10.0361497633
 31
0.0
 11
0.6222713525
 21
-10.0007627821
 31
0.0
  0
SPLINE
  5
2F3
100
AcDbEntity
  8
RACCORDO
100
AcDbSpline
 62
253
  6
CONTINUOUS
 70
0
 71
3
 72
10
 73
6
 74
4
 42
0.0000001
 43
0.0000001
 44
0.0000000001
 12
0.0002526151
 22
-9.102232222
 32
0.0
 13
0.0060343306
 23
-9.1022302253
 33
0.0
 40
0.0
 40
0.0
 40
0.0
 40
0.0
 40
0.3333526785
 40
0.6666869171
 40
1.0
 40
1.0
 40
1.0
 40
1.0
 10
22.0956964942
 20
10.7343240928
 30
0.0
 10
22.0957245642
 20
9.7229062621
 30
0.0
 10
22.0959975012
 20
7.7001265488
 30
0.0
 10
22.097044121
 20
4.6660493006
 30
0.0
 10
22.0981710965
 20
2.6433900189
 30
0.0
 10
22.098841537
 20
1.6320925462
 30
0.0
 11
22.0956964942
 21
10.7343240928
 31
0.0
 11
22.0961037223
 21
7.700070627
 31
0.0
 11
22.0971514623
 21
4.6659851601
 31
0.0
 11
22.098841537
 21
1.6320925462
 31
0.0
  0
SPLINE
  5
2F4
100
AcDbEntity
  8
RACCORDO
100
AcDbSpline
 62
253
  6
CONTINUOUS
 70
0
 71
3
 72
25
 73
21
 74
19
 42
0.0000001
 43
0.0000001
 44
0.0000000001
 12
-0.2498751414
 22
0.0000000203
 32
0.0
 13
-0.2424238368
 23
0.0605662416
 33
0.0
 40
0.0
 40
0.0
 40
0.0
 40
0.0
 40
0.0852547325
 40
0.169900986
 40
0.2533120723
 40
0.3348797757
 40
0.4140110861
 40
0.4901304632
 40
0.5626837212
 40
0.6311429841
 40
0.6950103138
 40
0.7538209474
 40
0.8071470326
 40
0.8546008355
 40
0.8958373009
 40
0.9305566248
 40
0.958507049
 40
0.9794866968
 40
0.9933463674
 40
1.0
 40
1.0
 40
1.0
 40
1.0
 10
1.1594728323
 20
10.984513458
 30
0.0
 10
1.1523718195
 20
10.9845134586
 30
0.0
 10
1.1382204747
 20
10.9845187098
 30
0.0
 10
1.1171216893
 20
10.9845423168
 30
0.0
 10
1.0963300264
 20
10.984581469
 30
0.0
 10
1.0759977484
 20
10.9846358748
 30
0.0
 10
1.0562728579
 20
10.9847051278
 30
0.0
 10
1.0372988581
 20
10.9847887089
 30
0.0
 10
1.019213829
 20
10.984885991
 30
0.0
 10
1.0021493865
 20
10.9849962306
 30
0.0
 10
0.9862297086
 20
10.9851186053
 30
0.0
 10
0.9715706203
 20
10.9852520919
 30
0.0
 10
0.9582788585
 20
10.9853958602
 30
0.0
 10
0.9464509272
 20
10.985547979
 30
0.0
 10
0.9361735203
 20
10.9857093698
 30
0.0
 10
0.9275195279
 20
10.9858717161
 30
0.0
 10
0.9205570391
 20
10.9860516348
 30
0.0
 10
0.9153230898
 20
10.9861978214
 30
0.0
 10
0.9118843937
 20
10.9864108999
 30
0.0
 10
0.9101628448
 20
10.9864846917
 30
0.0
 10
0.9096251784
 20
10.9866190203
 30
0.0
 11
1.1594728323
 21
10.984513458
 31
0.0
 11
1.1381697954
 21
10.9845213932
 31
0.0
 11
1.1170188142
 21
10.9845451456
 31
0.0
 11
1.0961764945
 21
10.9845845427
 31
0.0
 11
1.0757948266
 21
10.9846392976
 31
0.0
 11
1.0560220021
 21
10.9847090121
 31
0.0
 11
1.0370018483
 21
10.9847931792
 31
0.0
 11
1.0188728576
 21
10.9848911863
 31
0.0
 11
1.0017669506
 21
10.9850023202
 31
0.0
 11
0.98580857
 21
10.9851257724
 31
0.0
 11
0.9711138736
 21
10.9852606445
 31
0.0
 11
0.9577898028
 21
10.985405955
 31
0.0
 11
0.9459332862
 21
10.9855606467
 31
0.0
 11
0.9356306071
 21
10.985723594
 31
0.0
 11
0.9269567772
 21
10.9858936104
 31
0.0
 11
0.9199748752
 21
10.9860694592
 31
0.0
 11
0.9147356877
 21
10.9862498619
 31
0.0
 11
0.9112773729
 21
10.9864335027
 31
0.0
 11
0.9096251784
 21
10.9866190203
 31
0.0
  0
SPLINE
  5
2F5
100
AcDbEntity
  8
RACCORDO
100
AcDbSpline
 62
253
  6
CONTINUOUS
 70
0
 71
3
 72
25
 73
21
 74
19
 42
0.0000001
 43
0.0000001
 44
0.0000000001
 12
-0.2424238368
 22
-0.0605662415
 32
0.0
 13
-0.2498751414
 23
-0.0000000203
 33
0.0
 40
0.0
 40
0.0
 40
0.0
 40
0.0
 40
0.0066536326
 40
0.0205133032
 40
0.041492951
 40
0.0694433752
 40
0.1041626991
 40
0.1453991645
 40
0.1928529674
 40
0.2461790526
 40
0.3049896861
 40
0.3688570158
 40
0.4373162788
 40
0.5098695368
 40
0.5859889138
 40
0.6651202243
 40
0.7466879277
 40
0.830099014
 40
0.9147452674
 40
1.0
 40
1.0
 40
1.0
 40
1.0
 10
22.3455459785
 20
10.9866190203
 30
0.0
 10
22.3450083121
 20
10.9864846917
 30
0.0
 10
22.3432867632
 20
10.9864108999
 30
0.0
 10
22.3398480671
 20
10.9861978214
 30
0.0
 10
22.3346141178
 20
10.9860516348
 30
0.0
 10
22.327651629
 20
10.9858717161
 30
0.0
 10
22.3189976366
 20
10.9857093698
 30
0.0
 10
22.3087202297
 20
10.985547979
 30
0.0
 10
22.2968922984
 20
10.9853958602
 30
0.0
 10
22.2836005366
 20
10.9852520919
 30
0.0
 10
22.2689414483
 20
10.9851186053
 30
0.0
 10
22.2530217704
 20
10.9849962306
 30
0.0
 10
22.2359573279
 20
10.984885991
 30
0.0
 10
22.2178722988
 20
10.9847887089
 30
0.0
 10
22.198898299
 20
10.9847051278
 30
0.0
 10
22.1791734085
 20
10.9846358748
 30
0.0
 10
22.1588411305
 20
10.984581469
 30
0.0
 10
22.1380494676
 20
10.9845423168
 30
0.0
 10
22.1169506822
 20
10.9845187098
 30
0.0
 10
22.1027993374
 20
10.9845134586
 30
0.0
 10
22.0956983246
 20
10.984513458
 30
0.0
 11
22.3455459785
 21
10.9866190203
 31
0.0
 11
22.343893784
 21
10.9864335027
 31
0.0
 11
22.3404354692
 21
10.9862498619
 31
0.0
 11
22.3351962817
 21
10.9860694592
 31
0.0
 11
22.3282143796
 21
10.9858936104
 31
0.0
 11
22.3195405498
 21
10.985723594
 31
0.0
 11
22.3092378707
 21
10.9855606467
 31
0.0
 11
22.297381354
 21
10.985405955
 31
0.0
 11
22.2840572833
 21
10.9852606445
 31
0.0
 11
22.2693625869
 21
10.9851257724
 31
0.0
 11
22.2534042063
 21
10.9850023202
 31
0.0
 11
22.2362982993
 21
10.9848911863
 31
0.0
 11
22.2181693086
 21
10.9847931792
 31
0.0
 11
22.1991491548
 21
10.9847090121
 31
0.0
 11
22.1793763303
 21
10.9846392976
 31
0.0
 11
22.1589946624
 21
10.9845845427
 31
0.0
 11
22.1381523427
 21
10.9845451456
 31
0.0
 11
22.1170013615
 21
10.9845213932
 31
0.0
 11
22.0956983246
 21
10.984513458
 31
0.0
  0
SPLINE
  5
2F6
100
AcDbEntity
  8
RACCORDO
100
AcDbSpline
 62
253
  6
CONTINUOUS
 70
0
 71
3
 72
10
 73
6
 74
4
 42
0.0000001
 43
0.0000001
 44
0.0000000001
 12
0.0002514557
 22
-9.0950366859
 32
0.0
 13
0.0060355961
 23
-9.0950346867
 33
0.0
 40
0.0
 40
0.0
 40
0.0
 40
0.0
 40
0.33335237
 40
0.66668676
 40
1.0
 40
1.0
 40
1.0
 40
1.0
 10
22.5953937522
 20
10.7366285562
 30
0.0
 10
22.5954216933
 20
9.7260112113
 30
0.0
 10
22.5956916795
 20
7.7048310303
 30
0.0
 10
22.5967394548
 20
4.6731522945
 30
0.0
 10
22.5978663691
 20
2.6520910393
 30
0.0
 10
22.5985369505
 20
1.6415925462
 30
0.0
 11
22.5953937522
 21
10.7366285562
 31
0.0
 11
22.5957988305
 21
7.7047765475
 31
0.0
 11
22.5968465881
 21
4.6730882217
 31
0.0
 11
22.5985369505
 21
1.6415925462
 31
0.0
  0
SPLINE
  5
2F7
100
AcDbEntity
  8
RACCORDO
100
AcDbSpline
 62
253
  6
CONTINUOUS
 70
0
 71
3
 72
25
 73
21
 74
19
 42
0.0000001
 43
0.0000001
 44
0.0000000001
 12
-0.4951377735
 22
-0.0674709553
 32
0.0
 13
-0.4997136625
 23
-0.0000069763
 33
0.0
 40
0.0
 40
0.0
 40
0.0
 40
0.0
 40
0.0066260327
 40
0.0204733849
 40
0.041446253
 40
0.0693927016
 40
0.1041099476
 40
0.1453456978
 40
0.1927998486
 40
0.2461271361
 40
0.3049396744
 40
0.3688095125
 40
0.4372718806
 40
0.5098287828
 40
0.5859522814
 40
0.665088138
 40
0.7466607239
 40
0.8300771141
 40
0.914728373
 40
1.0
 40
1.0
 40
1.0
 40
1.0
 10
22.5953937522
 20
10.7366285486
 30
0.0
 10
22.5943001525
 20
10.736479527
 30
0.0
 10
22.5908816405
 20
10.7364035883
 30
0.0
 10
22.583988613
 20
10.7361676448
 30
0.0
 10
22.573530854
 20
10.7360098156
 30
0.0
 10
22.5596023634
 20
10.7358126123
 30
0.0
 10
22.5422959943
 20
10.7356355162
 30
0.0
 10
22.521740875
 20
10.7354590415
 30
0.0
 10
22.4980854058
 20
10.7352927543
 30
0.0
 10
22.4715021257
 20
10.7351354885
 30
0.0
 10
22.4421843344
 20
10.7349894094
 30
0.0
 10
22.4103454024
 20
10.734855411
 30
0.0
 10
22.3762169843
 20
10.7347346202
 30
0.0
 10
22.3400474038
 20
10.7346279379
 30
0.0
 10
22.302099881
 20
10.7345361821
 30
0.0
 10
22.2626505674
 20
10.7344600413
 30
0.0
 10
22.2219864389
 20
10.7344000895
 30
0.0
 10
22.1804035815
 20
10.7343567721
 30
0.0
 10
22.138204556
 20
10.7343304158
 30
0.0
 10
22.1099002932
 20
10.7343242905
 30
0.0
 10
22.0956964942
 20
10.7343240922
 30
0.0
 11
22.5953937522
 21
10.7366285486
 31
0.0
 11
22.5920888268
 21
10.7364261194
 31
0.0
 11
22.5851720184
 21
10.7362257106
 31
0.0
 11
22.5746934404
 21
10.7360287597
 31
0.0
 11
22.5607295387
 21
10.73583672
 31
0.0
 11
22.5433818509
 21
10.7356509826
 31
0.0
 11
22.5227765526
 21
10.7354729019
 31
0.0
 11
22.4990636682
 21
10.7353037756
 31
0.0
 11
22.4724157681
 21
10.7351448361
 31
0.0
 11
22.4430267097
 21
10.7349972414
 31
0.0
 11
22.4111103652
 21
10.7348620673
 31
0.0
 11
22.3768990013
 21
10.7347402994
 31
0.0
 11
22.3406414852
 21
10.7346328252
 31
0.0
 11
22.3026016451
 21
10.7345404284
 31
0.0
 11
22.2630564507
 21
10.7344637831
 31
0.0
 11
22.2222935597
 21
10.7344034485
 31
0.0
 11
22.1806092725
 21
10.7343598631
 31
0.0
 11
22.1383078903
 21
10.7343333475
 31
0.0
 11
22.0956964942
 21
10.7343240922
 31
0.0
  0
SPLINE
  5
2F8
100
AcDbEntity
  8
0
100
AcDbSpline
 62
253
  6
CONTINUOUS
 70
0
 71
3
 72
25
 73
21
 74
19
 42
0.0000001
 43
0.0000001
 44
0.0000000001
 12
-0.4390248508
 22
-0.2392029787
 32
0.0
 13
-0.4999607732
 23
-0.0003316614
 33
0.0
 40
0.0
 40
0.0
 40
0.0
 40
0.0
 40
0.0068059321
 40
0.0207337759
 40
0.0417520194
 40
0.0697246348
 40
0.1044548601
 40
0.145693439
 40
0.1931423402
 40
0.246457634
 40
0.3052523086
 40
0.369099243
 40
0.4375344017
 40
0.5100602612
 40
0.5861494627
 40
0.6652486694
 40
0.7467826077
 40
0.8301582634
 40
0.9147692045
 40
1.0
 40
1.0
 40
1.0
 40
1.0
 10
22.5985369505
 20
1.6415925462
 30
0.0
 10
22.5975409594
 20
1.6410498798
 30
0.0
 10
22.5939986625
 20
1.6406478275
 30
0.0
 10
22.5871771531
 20
1.6397726964
 30
0.0
 10
22.5766675537
 20
1.6390986783
 30
0.0
 10
22.5627553468
 20
1.638318238
 30
0.0
 10
22.545440871
 20
1.6375951665
 30
0.0
 10
22.5248876344
 20
1.6368803472
 30
0.0
 10
22.5012311525
 20
1.6362017304
 30
0.0
 10
22.4746480707
 20
1.6355582385
 30
0.0
 10
22.44533023
 20
1.6349574836
 30
0.0
 10
22.4134913947
 20
1.634403511
 30
0.0
 10
22.3793630651
 20
1.633900839
 30
0.0
 10
22.3431936004
 20
1.6334532396
 30
0.0
 10
22.30524616
 20
1.6330641167
 30
0.0
 10
22.2657968605
 20
1.6327363866
 30
0.0
 10
22.2251327437
 20
1.6324724997
 30
0.0
 10
22.1835496931
 20
1.6322744207
 30
0.0
 10
22.1413502807
 20
1.6321436203
 30
0.0
 10
22.1130455551
 20
1.6321019688
 30
0.0
 10
22.098841537
 20
1.6320925462
 30
0.0
 11
22.5985369505
 21
1.6415925462
 31
0.0
 11
22.5952320952
 21
1.6407824244
 31
0.0
 11
22.5883153156
 21
1.6399781973
 31
0.0
 11
22.577836941
 21
1.6391857168
 31
0.0
 11
22.5638732158
 21
1.6384107494
 31
0.0
 11
22.5465257454
 21
1.6376589338
 31
0.0
 11
22.5259207564
 21
1.6369357407
 31
0.0
 11
22.5022081786
 21
1.6362464323
 31
0.0
 11
22.4755605535
 21
1.6355960242
 31
0.0
 11
22.4461717794
 21
1.6349892491
 31
0.0
 11
22.4142556998
 21
1.634430522
 31
0.0
 11
22.3800445483
 21
1.6339239085
 31
0.0
 11
22.3437872581
 21
1.6334730949
 31
0.0
 11
22.3057476507
 21
1.6330813615
 31
0.0
 11
22.2662025167
 21
1.6327515587
 31
0.0
 11
22.2254396013
 21
1.6324860862
 31
0.0
 11
22.1837555109
 21
1.6322868757
 31
0.0
 11
22.1414535545
 21
1.6321553768
 31
0.0
 11
22.098841537
 21
1.6320925462
 31
0.0
  0
SPLINE
  5
2F9
100
AcDbEntity
  8
0
100
AcDbSpline
 62
253
  6
CONTINUOUS
 70
0
 71
3
 72
25
 73
21
 74
19
 42
0.0000001
 43
0.0000001
 44
0.0000000001
 12
-0.1156726714
 22
-0.5000143222
 32
0.0
 13
-0.5132129279
 23
-0.0026419614
 33
0.0
 40
0.0
 40
0.0
 40
0.0
 40
0.0
 40
0.013948679
 40
0.0321748863
 40
0.0558987844
 40
0.0855593318
 40
0.1212490608
 40
0.1628831421
 40
0.210267819
 40
0.2631318866
 40
0.3211434051
 40
0.3839199784
 40
0.4510360375
 40
0.5220286697
 40
0.5964027332
 40
0.673635628
 40
0.753181915
 40
0.8344778813
 40
0.9169460997
 40
1.0
 40
1.0
 40
1.0
 40
1.0
 10
22.6328998044
 20
-10.0007627821
 30
0.0
 10
22.6323619774
 20
-10.0030876286
 30
0.0
 10
22.6294826297
 20
-10.0080371717
 30
0.0
 10
22.6221194798
 20
-10.0142485186
 30
0.0
 10
22.6114459301
 20
-10.0203518759
 30
0.0
 10
22.5973961886
 20
-10.0263068645
 30
0.0
 10
22.580024979
 20
-10.0321114431
 30
0.0
 10
22.559429003
 20
-10.0377080626
 30
0.0
 10
22.5357468555
 20
-10.0430548014
 30
0.0
 10
22.5091440176
 20
-10.0481073865
 30
0.0
 10
22.4798106825
 20
-10.0528264972
 30
0.0
 10
22.4479582347
 20
-10.0571755303
 30
0.0
 10
22.4138172592
 20
-10.0611213396
 30
0.0
 10
22.3776354465
 20
-10.0646340807
 30
0.0
 10
22.3396756255
 20
-10.0676873742
 30
0.0
 10
22.3002137356
 20
-10.0702583979
 30
0.0
 10
22.259536767
 20
-10.0723280039
 30
0.0
 10
22.2179405949
 20
-10.0738808206
 30
0.0
 10
22.1757279427
 20
-10.0749053402
 30
0.0
 10
22.1474125026
 20
-10.0752307303
 30
0.0
 10
22.1332043909
 20
-10.0753038721
 30
0.0
 11
22.6328998044
 21
-10.0007627821
 31
0.0
 11
22.6296100435
 21
-10.0071208473
 31
0.0
 11
22.6227064437
 21
-10.0134326256
 31
0.0
 11
22.6122392632
 21
-10.0196521673
 31
0.0
 11
22.5982847032
 21
-10.025734194
 31
0.0
 11
22.5809443531
 21
-10.0316344286
 31
0.0
 11
22.5603444508
 21
-10.0373099172
 31
0.0
 11
22.5366349639
 21
-10.0427193423
 31
0.0
 11
22.5099884977
 21
-10.047823323
 31
0.0
 11
22.4805990387
 21
-10.0525847025
 31
0.0
 11
22.4486805427
 21
-10.0569688178
 31
0.0
 11
22.4144653766
 21
-10.0609437525
 31
0.0
 11
22.3782026272
 21
-10.064480569
 31
0.0
 11
22.3401562877
 21
-10.0675535192
 31
0.0
 11
22.3006033361
 21
-10.0701402321
 31
0.0
 11
22.2598317181
 21
-10.0722218764
 31
0.0
 11
22.2181382518
 21
-10.0737832975
 31
0.0
 11
22.1758264659
 21
-10.0748131285
 31
0.0
 11
22.1332043909
 21
-10.0753038721
 31
0.0
  0
SPLINE
  5
2FA
100
AcDbEntity
  8
0
100
AcDbSpline
 62
253
  6
CONTINUOUS
 70
0
 71
3
 72
26
 73
22
 74
20
 42
0.0000001
 43
0.0000001
 44
0.0000000001
 12
0.0022369592
 22
-0.8499359847
 32
0.0
 13
0.2685929371
 23
-0.8063832936
 33
0.0
 40
0.0
 40
0.0
 40
0.0
 40
0.0
 40
0.0832795884
 40
0.1652175719
 40
0.2453906178
 40
0.3233820907
 40
0.3987881694
 40
0.4712177965
 40
0.5402953428
 40
0.6056625221
 40
0.6669806502
 40
0.7239316391
 40
0.7762204028
 40
0.823575887
 40
0.865753143
 40
0.902534145
 40
0.9337294817
 40
0.9591798621
 40
0.9787584546
 40
0.9923753083
 40
1.0
 40
1.0
 40
1.0
 40
1.0
 10
22.1332043909
 20
-10.0753038734
 30
0.0
 10
22.1332664885
 20
-10.0988979797
 30
0.0
 10
22.1334196076
 20
-10.1457060268
 30
0.0
 10
22.1337386155
 20
-10.2152276611
 30
0.0
 10
22.1341439192
 20
-10.2832506306
 30
0.0
 10
22.1346333087
 20
-10.3494224261
 30
0.0
 10
22.1352042327
 20
-10.4133996756
 30
0.0
 10
22.1358536413
 20
-10.4748506132
 30
0.0
 10
22.136578079
 20
-10.5334563593
 30
0.0
 10
22.1373736591
 20
-10.5889128494
 30
0.0
 10
22.1382360704
 20
-10.6409322984
 30
0.0
 10
22.1391606219
 20
-10.6892447656
 30
0.0
 10
22.1401420603
 20
-10.7335994779
 30
0.0
 10
22.1411750852
 20
-10.7737660816
 30
0.0
 10
22.142252488
 20
-10.8095366097
 30
0.0
 10
22.1433704776
 20
-10.8407238859
 30
0.0
 10
22.1445114765
 20
-10.8671710578
 30
0.0
 10
22.1456915582
 20
-10.8887281742
 30
0.0
 10
22.1468243571
 20
-10.9053217232
 30
0.0
 10
22.1480440878
 20
-10.9167926649
 30
0.0
 10
22.1488732004
 20
-10.922801751
 30
0.0
 10
22.1495558465
 20
-10.9248512257
 30
0.0
 11
22.1332043909
 21
-10.0753038734
 31
0.0
 11
22.1334365183
 21
-10.1460860569
 31
0.0
 11
22.1337569807
 21
-10.2157276014
 31
0.0
 11
22.1341641505
 21
-10.2838685777
 31
0.0
 11
22.1346558912
 21
-10.3501547427
 31
0.0
 11
22.1352296701
 21
-10.4142427359
 31
0.0
 11
22.1358825084
 21
-10.4758000339
 31
0.0
 11
22.1366110247
 21
-10.5345072095
 31
0.0
 11
22.1374114409
 21
-10.5900595538
 31
0.0
 11
22.1382796109
 21
-10.6421689863
 31
0.0
 11
22.1392110311
 21
-10.6905648866
 31
0.0
 11
22.1402008737
 21
-10.7349961179
 31
0.0
 11
22.141244002
 21
-10.7752318679
 31
0.0
 11
22.1423350095
 21
-10.8110633539
 31
0.0
 11
22.1434682337
 21
-10.8423044131
 31
0.0
 11
22.1446377971
 21
-10.8687927363
 31
0.0
 11
22.1458376173
 21
-10.8903907045
 31
0.0
 11
22.1470615083
 21
-10.9069862437
 31
0.0
 11
22.1483030255
 21
-10.9184929548
 31
0.0
 11
22.1495558465
 21
-10.9248512257
 31
0.0
  0
SPLINE
  5
2FB
100
AcDbEntity
  8
0
100
AcDbSpline
 62
253
  6
CONTINUOUS
 70
0
 71
3
 72
26
 73
22
 74
20
 42
0.0000001
 43
0.0000001
 44
0.0000000001
 12
0.0022405098
 22
-0.4255425554
 32
0.0
 13
0.2359522711
 23
-0.3541440557
 33
0.0
 40
0.0
 40
0.0
 40
0.0
 40
0.0
 40
0.0831579624
 40
0.1649885388
 40
0.2450582809
 40
0.3229515393
 40
0.3982655067
 40
0.4706101583
 40
0.5396109354
 40
0.6049106782
 40
0.666171895
 40
0.7230778369
 40
0.7753349753
 40
0.8226741356
 40
0.864852771
 40
0.9016561407
 40
0.9328997026
 40
0.9584321569
 40
0.9781415755
 40
0.9919719696
 40
1.0
 40
1.0
 40
1.0
 40
1.0
 10
22.6328998044
 20
-10.0007627821
 30
0.0
 10
22.6329619098
 20
-10.0125585328
 30
0.0
 10
22.6331149893
 20
-10.0359616024
 30
0.0
 10
22.6334340103
 20
-10.0707215691
 30
0.0
 10
22.6338392973
 20
-10.1047337948
 30
0.0
 10
22.6343287013
 20
-10.1378204412
 30
0.0
 10
22.6348996299
 20
-10.1698098178
 30
0.0
 10
22.6355490539
 20
-10.2005360391
 30
0.0
 10
22.6362735097
 20
-10.2298396657
 30
0.0
 10
22.6370691139
 20
-10.2575686661
 30
0.0
 10
22.6379315603
 20
-10.2835791583
 30
0.0
 10
22.6388561448
 20
-10.3077361804
 30
0.0
 10
22.6398376733
 20
-10.3299144251
 30
0.0
 10
22.6408706795
 20
-10.3499986725
 30
0.0
 10
22.6419485335
 20
-10.3678854609
 30
0.0
 10
22.6430657627
 20
-10.3834802939
 30
0.0
 10
22.6442100257
 20
-10.3967088237
 30
0.0
 10
22.645383169
 20
-10.4074874496
 30
0.0
 10
22.646538076
 20
-10.4158097636
 30
0.0
 10
22.64772424
 20
-10.4215475107
 30
0.0
 10
22.6486198494
 20
-10.4245887652
 30
0.0
 10
22.64925126
 20
-10.4255364583
 30
0.0
 11
22.6328998044
 21
-10.0007627821
 31
0.0
 11
22.6331318964
 21
-10.0361497633
 31
0.0
 11
22.6334523642
 21
-10.070971164
 31
0.0
 11
22.6338595272
 21
-10.1050422861
 31
0.0
 11
22.6343512722
 21
-10.138185994
 31
0.0
 11
22.6349250543
 21
-10.1702305998
 31
0.0
 11
22.6355779003
 21
-10.2010098316
 31
0.0
 11
22.6363064263
 21
-10.2303639665
 31
0.0
 11
22.6371068547
 21
-10.2581406407
 31
0.0
 11
22.6379750391
 21
-10.2841957963
 31
0.0
 11
22.6389064756
 21
-10.3083941122
 31
0.0
 11
22.6398963358
 21
-10.3306100153
 31
0.0
 11
22.640939483
 21
-10.3507280957
 31
0.0
 11
22.6420305101
 21
-10.3686439592
 31
0.0
 11
22.6431637553
 21
-10.3842645227
 31
0.0
 11
22.6443333373
 21
-10.3975086298
 31
0.0
 11
22.6455331846
 21
-10.4083074739
 31
0.0
 11
22.6467570789
 21
-10.4166050094
 31
0.0
 11
22.6479986534
 21
-10.4223580639
 31
0.0
 11
22.64925126
 21
-10.4255364583
 31
0.0
  0
SPLINE
  5
2FC
100
AcDbEntity
  8
0
100
AcDbSpline
 62
253
  6
CONTINUOUS
 70
0
 71
3
 72
25
 73
21
 74
19
 42
0.0000001
 43
0.0000001
 44
0.0000000001
 12
-0.0014329144
 22
-0.7839168072
 32
0.0
 13
-0.7839168112
 23
-0.0014307322
 33
0.0
 40
0.0
 40
0.0
 40
0.0
 40
0.0
 40
0.055506642
 40
0.1110226234
 40
0.1665481617
 40
0.2220831846
 40
0.2776273326
 40
0.3331799697
 40
0.3887402028
 40
0.4443069091
 40
0.49987877
 40
0.555454311
 40
0.6110319462
 40
0.6666100265
 40
0.7221868895
 40
0.7777609094
 40
0.8333305464
 40
0.8888943932
 40
0.9444512176
 40
1.0
 40
1.0
 40
1.0
 40
1.0
 10
22.64925126
 20
-10.4255364583
 30
0.0
 10
22.649224748
 20
-10.4400406548
 30
0.0
 10
22.6479050581
 20
-10.469065075
 30
0.0
 10
22.6421417631
 20
-10.5122547722
 30
0.0
 10
22.6326383086
 20
-10.5547893356
 30
0.0
 10
22.6194668901
 20
-10.5963414683
 30
0.0
 10
22.6027275407
 20
-10.636596847
 30
0.0
 10
22.5825473826
 20
-10.6752495245
 30
0.0
 10
22.5590796567
 20
-10.7120061234
 30
0.0
 10
22.5325025595
 20
-10.7465875596
 30
0.0
 10
22.5030178889
 20
-10.7787312945
 30
0.0
 10
22.4708495119
 20
-10.8081932901
 30
0.0
 10
22.4362416673
 20
-10.8347498696
 30
0.0
 10
22.3994571031
 20
-10.8581994118
 30
0.0
 10
22.3607751187
 20
-10.8783638808
 30
0.0
 10
22.3204893114
 20
-10.8950901774
 30
0.0
 10
22.2789058502
 20
-10.9082512995
 30
0.0
 10
22.2363392852
 20
-10.9177473104
 30
0.0
 10
22.1931171285
 20
-10.9235060852
 30
0.0
 10
22.1640710546
 20
-10.9248247339
 30
0.0
 10
22.1495558465
 20
-10.9248512257
 30
0.0
 11
22.64925126
 21
-10.4255364583
 31
0.0
 11
22.6472747305
 21
-10.4690042062
 31
0.0
 11
22.6415190582
 21
-10.5121419068
 31
0.0
 11
22.6320279454
 21
-10.5546220185
 31
0.0
 11
22.6188734576
 21
-10.5961219931
 31
0.0
 11
22.6021554757
 21
-10.6363267243
 31
0.0
 11
22.5820009382
 21
-10.6749309405
 31
0.0
 11
22.558562877
 21
-10.7116415229
 31
0.0
 11
22.5320192556
 21
-10.7461797305
 31
0.0
 11
22.5025716176
 21
-10.7782833174
 31
0.0
 11
22.470443557
 21
-10.8077085234
 31
0.0
 11
22.4358790196
 21
-10.8342319251
 31
0.0
 11
22.3991404514
 21
-10.8576521322
 31
0.0
 11
22.3605068057
 21
-10.8777913169
 31
0.0
 11
22.320271425
 21
-10.8944965637
 31
0.0
 11
22.2787398134
 21
-10.907641031
 31
0.0
 11
22.2362273175
 21
-10.9171249139
 31
0.0
 11
22.1930567315
 21
-10.9228762018
 31
0.0
 11
22.1495558465
 21
-10.9248512257
 31
0.0
  0
LINE
  5
2FD
100
AcDbEntity
  8
ASSI
100
AcDbLine
 62
7
  6
CONTINUOUS
 10
16.1775855784
 20
7.3336007817
 11
16.1775855784
 21
7.0997623041
  0
LINE
  5
2FE
100
AcDbEntity
  8
ASSI
100
AcDbLine
 62
7
  6
CONTINUOUS
 10
16.1775855784
 20
7.0997623041
 11
16.1775855784
 21
6.8659247195
  0
LINE
  5
2FF
100
AcDbEntity
  8
ASSI
100
AcDbLine
 62
7
  6
CONTINUOUS
 10
16.1775855784
 20
6.8659247195
 11
16.1775855784
 21
6.6320880792
  0
LINE
  5
300
100
AcDbEntity
  8
ASSI
100
AcDbLine
 62
7
  6
CONTINUOUS
 10
16.1775855784
 20
6.6320880792
 11
16.1775855784
 21
6.3982524342
  0
LINE
  5
301
100
AcDbEntity
  8
ASSI
100
AcDbLine
 62
7
  6
CONTINUOUS
 10
16.1775855784
 20
6.3982524342
 11
16.1775855784
 21
6.1644178356
  0
LINE
  5
302
100
AcDbEntity
  8
ASSI
100
AcDbLine
 62
7
  6
CONTINUOUS
 10
16.1775855784
 20
6.1644178356
 11
16.1775855784
 21
5.9305843348
  0
LINE
  5
303
100
AcDbEntity
  8
ASSI
100
AcDbLine
 62
7
  6
CONTINUOUS
 10
7.0775855785
 20
5.9305843348
 11
7.0775855785
 21
7.3336007817
  0
SPLINE
  5
304
100
AcDbEntity
  8
ASSI
100
AcDbSpline
 62
7
  6
CONTINUOUS
 70
0
 71
3
 72
25
 73
21
 74
19
 42
0.0000001
 43
0.0000001
 44
0.0000000001
 12
-0.6256832202
 22
0.0
 32
0.0
 13
0.0
 23
0.6256832202
 33
0.0
 40
0.0
 40
0.0
 40
0.0
 40
0.0
 40
0.0556733582
 40
0.1114505503
 40
0.1670993388
 40
0.2225000448
 40
0.278013467
 40
0.3335579392
 40
0.3889329739
 40
0.4441938583
 40
0.4996537624
 40
0.5551262503
 40
0.6104212299
 40
0.6658457278
 40
0.721459882
 40
0.7770616371
 40
0.8325613724
 40
0.8883154579
 40
0.9442070521
 40
1.0
 40
1.0
 40
1.0
 40
1.0
 10
7.4756870349
 20
5.5320925462
 30
0.0
 10
7.4640757396
 20
5.5320925462
 30
0.0
 10
7.4408187941
 20
5.5331031395
 30
0.0
 10
7.4062232675
 20
5.537646801
 30
0.0
 10
7.3722086219
 20
5.5451777002
 30
0.0
 10
7.3390324179
 20
5.5556249672
 30
0.0
 10
7.3069119687
 20
5.5689143043
 30
0.0
 10
7.2760796792
 20
5.5849559644
 30
0.0
 10
7.2468106977
 20
5.6036003993
 30
0.0
 10
7.2192924119
 20
5.6247142474
 30
0.0
 10
7.1937061913
 20
5.6481628091
 30
0.0
 10
7.1702630113
 20
5.6737636114
 30
0.0
 10
7.1491476631
 20
5.7013060311
 30
0.0
 10
7.1304967443
 20
5.7306087806
 30
0.0
 10
7.1144452088
 20
5.7614847235
 30
0.0
 10
7.1011444765
 20
5.7936584972
 30
0.0
 10
7.0906865528
 20
5.8268953578
 30
0.0
 10
7.0831470017
 20
5.8609761864
 30
0.0
 10
7.0785975498
 20
5.8956423423
 30
0.0
 10
7.0775855785
 20
5.9189480977
 30
0.0
 10
7.0775855785
 20
5.9305843348
 30
0.0
 11
7.4756870349
 21
5.5320925462
 31
0.0
 11
7.4408860526
 21
5.5336062327
 31
0.0
 11
7.4062844543
 21
5.5381514884
 31
0.0
 11
7.3722894105
 21
5.5456791613
 31
0.0
 11
7.3392269242
 21
5.5560914529
 31
0.0
 11
7.307131906
 21
5.5693710551
 31
0.0
 11
7.2763021206
 21
5.5854120126
 31
0.0
 11
7.2470802424
 21
5.6040268557
 31
0.0
 11
7.2196487023
 21
5.6250743523
 31
0.0
 11
7.1940664644
 21
5.648519226
 31
0.0
 11
7.1706262634
 21
5.6741164224
 31
0.0
 11
7.1495762582
 21
5.7015729233
 31
0.0
 11
7.1309552594
 21
5.7308275716
 31
0.0
 11
7.1149040905
 21
5.7617011893
 31
0.0
 11
7.1016122926
 21
5.7938509724
 31
0.0
 11
7.0911889109
 21
5.8269749263
 31
0.0
 11
7.0836526155
 21
5.8610355387
 31
0.0
 11
7.0791014116
 21
5.8957085498
 31
0.0
 11
7.0775855785
 21
5.9305843348
 31
0.0
  0
SPLINE
  5
305
100
AcDbEntity
  8
ASSI
100
AcDbSpline
 62
7
  6
CONTINUOUS
 70
0
 71
3
 72
25
 73
21
 74
19
 42
0.0000001
 43
0.0000001
 44
0.0000000001
 12
-0.0
 22
0.6261321933
 32
0.0
 13
0.6261321933
 23
0.0
 33
0.0
 40
0.0
 40
0.0
 40
0.0
 40
0.0
 40
0.0556462765
 40
0.1114123659
 40
0.1670645122
 40
0.2224808987
 40
0.2780198863
 40
0.3335969858
 40
0.3890085547
 40
0.4443073417
 40
0.499802936
 40
0.5553057357
 40
0.6106232273
 40
0.6660612395
 40
0.7216764573
 40
0.7772651809
 40
0.8327377847
 40
0.8884496229
 40
0.9442824486
 40
1.0
 40
1.0
 40
1.0
 40
1.0
 10
7.0775855785
 20
7.3336007817
 30
0.0
 10
7.0775855785
 20
7.3452147567
 30
0.0
 10
7.0785970406
 20
7.3684804145
 30
0.0
 10
7.0831443427
 20
7.4030933866
 30
0.0
 10
7.0906825308
 20
7.437133724
 30
0.0
 10
7.1011414873
 20
7.4703421792
 30
0.0
 10
7.1144472709
 20
7.5024995105
 30
0.0
 10
7.1305100294
 20
7.5333712298
 30
0.0
 10
7.1491796727
 20
7.5626801796
 30
0.0
 10
7.1703218661
 20
7.5902370671
 30
0.0
 10
7.1938005669
 20
7.6158588686
 30
0.0
 10
7.2194316082
 20
7.6393332679
 30
0.0
 10
7.247002782
 20
7.6604747975
 30
0.0
 10
7.2763310603
 20
7.6791464422
 30
0.0
 10
7.3072275767
 20
7.695213231
 30
0.0
 10
7.3394153359
 20
7.7085241447
 30
0.0
 10
7.3726584937
 20
7.7189880221
 30
0.0
 10
7.4067369689
 20
7.7265302979
 30
0.0
 10
7.4413911916
 20
7.7310804181
 30
0.0
 10
7.4646856568
 20
7.7320925462
 30
0.0
 10
7.4763145077
 20
7.7320925462
 30
0.0
 11
7.0775855785
 21
7.3336007817
 31
0.0
 11
7.07910013
 21
7.368409773
 31
0.0
 11
7.0836488684
 21
7.40302916
 31
0.0
 11
7.0911837503
 21
7.4370503507
 31
0.0
 11
7.1016077145
 21
7.4701455322
 31
0.0
 11
7.1149038745
 21
7.5022779961
 31
0.0
 11
7.1309661638
 21
7.5331478229
 31
0.0
 11
7.1496064449
 21
7.5624100967
 31
0.0
 11
7.1706826944
 21
7.5898807606
 31
0.0
 11
7.1941581777
 21
7.6154990328
 31
0.0
 11
7.2197860332
 21
7.6389707342
 31
0.0
 11
7.2472714964
 21
7.6600469322
 31
0.0
 11
7.276552324
 21
7.6786889023
 31
0.0
 11
7.3074468955
 21
7.6947553408
 31
0.0
 11
7.3396107237
 21
7.7080571486
 31
0.0
 11
7.3727411651
 21
7.7184863319
 31
0.0
 11
7.4067997491
 21
7.7260252197
 31
0.0
 11
7.4414608942
 21
7.7305768999
 31
0.0
 11
7.4763145077
 21
7.7320925462
 31
0.0
  0
SPLINE
  5
306
100
AcDbEntity
  8
ASSI
100
AcDbSpline
 62
7
  6
CONTINUOUS
 70
0
 71
3
 72
25
 73
21
 74
19
 42
0.0000001
 43
0.0000001
 44
0.0000000001
 12
0.0
 22
-0.6256832202
 32
0.0
 13
-0.6256832202
 23
0.0
 33
0.0
 40
0.0
 40
0.0
 40
0.0
 40
0.0
 40
0.0557950913
 40
0.1116884983
 40
0.1674453284
 40
0.2229447961
 40
0.2785453267
 40
0.3341599831
 40
0.3895856968
 40
0.4448800349
 40
0.5003515979
 40
0.5558124452
 40
0.6110739736
 40
0.6664477952
 40
0.7219917909
 40
0.7775064418
 40
0.8329073853
 40
0.8885533946
 40
0.9443287616
 40
1.0
 40
1.0
 40
1.0
 40
1.0
 10
16.1775855784
 20
5.9305843348
 30
0.0
 10
16.1775855784
 20
5.9189476506
 30
0.0
 10
16.1765735322
 20
5.8956410686
 30
0.0
 10
16.1720237328
 20
5.8609735447
 30
0.0
 10
16.164483703
 20
5.8268918994
 30
0.0
 10
16.1540253584
 20
5.7936548978
 30
0.0
 10
16.1407244117
 20
5.7614814388
 30
0.0
 10
16.1246725629
 20
5.7306055415
 30
0.0
 10
16.1060212304
 20
5.7013027863
 30
0.0
 10
16.0849056403
 20
5.6737606457
 30
0.0
 10
16.061462314
 20
5.6481601562
 30
0.0
 10
16.0358757742
 20
5.6247117355
 30
0.0
 10
16.0083572045
 20
5.6035981271
 30
0.0
 10
15.9790882225
 20
5.5849541036
 30
0.0
 10
15.9482558801
 20
5.5689127555
 30
0.0
 10
15.916135115
 20
5.5556236356
 30
0.0
 10
15.8829590634
 20
5.5451767954
 30
0.0
 10
15.84894525
 20
5.5376463792
 30
0.0
 10
15.8143510964
 20
5.5331030651
 30
0.0
 10
15.7910949752
 20
5.5320925462
 30
0.0
 10
15.779484122
 20
5.5320925462
 30
0.0
 11
16.1775855784
 21
5.9305843348
 31
0.0
 11
16.1760696287
 21
5.8957072125
 31
0.0
 11
16.171518112
 21
5.8610330985
 31
0.0
 11
16.1639811615
 21
5.8269708722
 31
0.0
 11
16.1535574889
 21
5.7938471855
 31
0.0
 11
16.1402656896
 21
5.7616982319
 31
0.0
 11
16.1242141104
 21
5.7308244735
 31
0.0
 11
16.1055924117
 21
5.7015693688
 31
0.0
 11
16.0845423646
 21
5.6741134058
 31
0.0
 11
16.0611023191
 21
5.6485168517
 31
0.0
 11
16.0355194303
 21
5.6250718149
 31
0.0
 11
16.0080873503
 21
5.60402436
 31
0.0
 11
15.978865926
 21
5.5854102171
 31
0.0
 11
15.948036266
 21
5.5693696645
 31
0.0
 11
15.9159404147
 21
5.5560900652
 31
0.0
 11
15.8828776784
 21
5.5456780723
 31
0.0
 11
15.8488842694
 21
5.53815106
 31
0.0
 11
15.8142837818
 21
5.5336061174
 31
0.0
 11
15.779484122
 21
5.5320925462
 31
0.0
  0
SPLINE
  5
307
100
AcDbEntity
  8
ASSI
100
AcDbSpline
 62
7
  6
CONTINUOUS
 70
0
 71
3
 72
25
 73
21
 74
19
 42
0.0000001
 43
0.0000001
 44
0.0000000001
 12
0.6261321933
 22
0.0
 32
0.0
 13
-0.0
 23
-0.6261321933
 33
0.0
 40
0.0
 40
0.0
 40
0.0
 40
0.0
 40
0.0557196865
 40
0.1115543222
 40
0.16726891
 40
0.2227412555
 40
0.2783287553
 40
0.3339444681
 40
0.3893836966
 40
0.4447005512
 40
0.5002024237
 40
0.5556989543
 40
0.6109983787
 40
0.6664087318
 40
0.7219853485
 40
0.7775255617
 40
0.8329421921
 40
0.8885915724
 40
0.9443558468
 40
1.0
 40
1.0
 40
1.0
 40
1.0
 10
15.7788566492
 20
7.7320925462
 30
0.0
 10
15.7904859457
 20
7.7320925462
 30
0.0
 10
15.8137812358
 20
7.7310803434
 30
0.0
 10
15.8484368263
 20
7.726529876
 30
0.0
 10
15.8825161212
 20
7.7189871209
 30
0.0
 10
15.9157594231
 20
7.7085228214
 30
0.0
 10
15.9479468678
 20
7.6952116926
 30
0.0
 10
15.9788433373
 20
7.679144591
 30
0.0
 10
16.0081716211
 20
7.6604725326
 30
0.0
 10
16.035742516
 20
7.6393307607
 30
0.0
 10
16.0613732437
 20
7.6158562158
 30
0.0
 10
16.0848518013
 20
7.5902340975
 30
0.0
 10
16.1059937533
 20
7.5626769291
 30
0.0
 10
16.1246629839
 20
7.533367982
 30
0.0
 10
16.1407254301
 20
7.5024962125
 30
0.0
 10
16.1540309974
 20
7.4703385663
 30
0.0
 10
16.164489529
 20
7.4371302607
 30
0.0
 10
16.1720272358
 20
7.4030907501
 30
0.0
 10
16.1765741908
 20
7.3684791479
 30
0.0
 10
16.1775855784
 20
7.3452143136
 30
0.0
 10
16.1775855784
 20
7.3336007817
 30
0.0
 11
15.7788566492
 21
7.7320925462
 31
0.0
 11
15.8137115957
 21
7.7305767837
 31
0.0
 11
15.8483738429
 21
7.7260247911
 31
0.0
 11
15.882434045
 21
7.7184852472
 31
0.0
 11
15.9155642245
 21
7.7080557711
 31
0.0
 11
15.947727223
 21
7.6947539617
 31
0.0
 11
15.9786219314
 21
7.6786871147
 31
0.0
 11
16.0079032158
 21
7.6600444442
 31
0.0
 11
16.035388143
 21
7.6389682026
 31
0.0
 11
16.0610153547
 21
7.6154966579
 31
0.0
 11
16.0844909985
 21
7.5898777376
 31
0.0
 11
16.1055672043
 21
7.5624065371
 31
0.0
 11
16.1242067846
 21
7.5331447195
 31
0.0
 11
16.1402686679
 21
7.5022750223
 31
0.0
 11
16.1535648257
 21
7.4701417269
 31
0.0
 11
16.1639884933
 21
7.4370462919
 31
0.0
 11
16.1715227165
 21
7.4030267291
 31
0.0
 11
16.1760711425
 21
7.3684084474
 31
0.0
 11
16.1775855784
 21
7.3336007817
 31
0.0
  0
SPLINE
  5
308
100
AcDbEntity
  8
ASSI
100
AcDbSpline
 62
253
  6
CONTINUOUS
 70
0
 71
3
 72
25
 73
21
 74
19
 42
0.0000001
 43
0.0000001
 44
0.0000000001
 12
0.4390248502
 22
-0.23920298
 32
0.0
 13
0.4999607732
 23
-0.0003316614
 33
0.0
 40
0.0
 40
0.0
 40
0.0
 40
0.0
 40
0.0068059321
 40
0.0207337758
 40
0.0417520194
 40
0.0697246347
 40
0.10445486
 40
0.1456934389
 40
0.1931423402
 40
0.246457634
 40
0.3052523085
 40
0.3690992429
 40
0.4375344016
 40
0.5100602612
 40
0.5861494626
 40
0.6652486693
 40
0.7467826077
 40
0.8301582634
 40
0.9147692045
 40
1.0
 40
1.0
 40
1.0
 40
1.0
 10
0.6566342064
 20
1.6415925462
 30
0.0
 10
0.6576301975
 20
1.6410498798
 30
0.0
 10
0.6611724943
 20
1.6406478275
 30
0.0
 10
0.6679940038
 20
1.6397726964
 30
0.0
 10
0.6785036032
 20
1.6390986783
 30
0.0
 10
0.6924158101
 20
1.638318238
 30
0.0
 10
0.7097302859
 20
1.6375951665
 30
0.0
 10
0.7302835225
 20
1.6368803472
 30
0.0
 10
0.7539400044
 20
1.6362017304
 30
0.0
 10
0.7805230862
 20
1.6355582385
 30
0.0
 10
0.8098409268
 20
1.6349574836
 30
0.0
 10
0.8416797621
 20
1.634403511
 30
0.0
 10
0.8758080918
 20
1.633900839
 30
0.0
 10
0.9119775565
 20
1.6334532396
 30
0.0
 10
0.9499249969
 20
1.6330641167
 30
0.0
 10
0.9893742963
 20
1.6327363866
 30
0.0
 10
1.0300384131
 20
1.6324724997
 30
0.0
 10
1.0716214638
 20
1.6322744207
 30
0.0
 10
1.1138208762
 20
1.6321436203
 30
0.0
 10
1.1421256018
 20
1.6321019688
 30
0.0
 10
1.1563296199
 20
1.6320925462
 30
0.0
 11
0.6566342064
 21
1.6415925462
 31
0.0
 11
0.6599390617
 21
1.6407824244
 31
0.0
 11
0.6668558412
 21
1.6399781973
 31
0.0
 11
0.6773342159
 21
1.6391857168
 31
0.0
 11
0.6912979411
 21
1.6384107494
 31
0.0
 11
0.7086454115
 21
1.6376589338
 31
0.0
 11
0.7292504004
 21
1.6369357407
 31
0.0
 11
0.7529629783
 21
1.6362464323
 31
0.0
 11
0.7796106033
 21
1.6355960242
 31
0.0
 11
0.8089993775
 21
1.6349892491
 31
0.0
 11
0.840915457
 21
1.634430522
 31
0.0
 11
0.8751266085
 21
1.6339239085
 31
0.0
 11
0.9113838988
 21
1.6334730949
 31
0.0
 11
0.9494235062
 21
1.6330813615
 31
0.0
 11
0.9889686402
 21
1.6327515587
 31
0.0
 11
1.0297315555
 21
1.6324860862
 31
0.0
 11
1.071415646
 21
1.6322868757
 31
0.0
 11
1.1137176024
 21
1.6321553768
 31
0.0
 11
1.1563296199
 21
1.6320925462
 31
0.0
  0
SPLINE
  5
309
100
AcDbEntity
  8
ASSI
100
AcDbSpline
 62
253
  6
CONTINUOUS
 70
0
 71
3
 72
25
 73
21
 74
19
 42
0.0000001
 43
0.0000001
 44
0.0000000001
 12
-0.4997136625
 22
0.0000069763
 32
0.0
 13
-0.4951377735
 23
0.0674709552
 33
0.0
 40
0.0
 40
0.0
 40
0.0
 40
0.0
 40
0.085271627
 40
0.1699228858
 40
0.2533392761
 40
0.334911862
 40
0.4140477186
 40
0.4901712172
 40
0.5627281194
 40
0.6311904874
 40
0.6950603256
 40
0.7538728639
 40
0.8072001514
 40
0.8546543022
 40
0.8958900524
 40
0.9306072984
 40
0.958553747
 40
0.9795266151
 40
0.9933739673
 40
1.0
 40
1.0
 40
1.0
 40
1.0
 10
1.1594746627
 20
10.7343240922
 30
0.0
 10
1.1452708637
 20
10.7343242905
 30
0.0
 10
1.1169666009
 20
10.7343304158
 30
0.0
 10
1.0747675755
 20
10.7343567721
 30
0.0
 10
1.033184718
 20
10.7344000895
 30
0.0
 10
0.9925205895
 20
10.7344600413
 30
0.0
 10
0.9530712759
 20
10.7345361821
 30
0.0
 10
0.9151237531
 20
10.7346279379
 30
0.0
 10
0.8789541726
 20
10.7347346202
 30
0.0
 10
0.8448257546
 20
10.734855411
 30
0.0
 10
0.8129868225
 20
10.7349894094
 30
0.0
 10
0.7836690313
 20
10.7351354885
 30
0.0
 10
0.7570857511
 20
10.7352927543
 30
0.0
 10
0.7334302819
 20
10.7354590415
 30
0.0
 10
0.7128751626
 20
10.7356355162
 30
0.0
 10
0.6955687935
 20
10.7358126123
 30
0.0
 10
0.6816403029
 20
10.7360098156
 30
0.0
 10
0.6711825439
 20
10.7361676448
 30
0.0
 10
0.6642895164
 20
10.7364035883
 30
0.0
 10
0.6608710044
 20
10.736479527
 30
0.0
 10
0.6597774047
 20
10.7366285486
 30
0.0
 11
1.1594746627
 21
10.7343240922
 31
0.0
 11
1.1168632667
 21
10.7343333475
 31
0.0
 11
1.0745618844
 21
10.7343598631
 31
0.0
 11
1.0328775973
 21
10.7344034485
 31
0.0
 11
0.9921147063
 21
10.7344637831
 31
0.0
 11
0.9525695118
 21
10.7345404284
 31
0.0
 11
0.9145296717
 21
10.7346328252
 31
0.0
 11
0.8782721557
 21
10.7347402994
 31
0.0
 11
0.8440607917
 21
10.7348620673
 31
0.0
 11
0.8121444472
 21
10.7349972414
 31
0.0
 11
0.7827553889
 21
10.7351448361
 31
0.0
 11
0.7561074887
 21
10.7353037756
 31
0.0
 11
0.7323946043
 21
10.7354729019
 31
0.0
 11
0.711789306
 21
10.7356509826
 31
0.0
 11
0.6944416182
 21
10.73583672
 31
0.0
 11
0.6804777165
 21
10.7360287597
 31
0.0
 11
0.6699991384
 21
10.7362257106
 31
0.0
 11
0.6630823301
 21
10.7364261194
 31
0.0
 11
0.6597774047
 21
10.7366285486
 31
0.0
  0
SPLINE
  5
30A
100
AcDbEntity
  8
ASSI
100
AcDbSpline
 62
253
  6
CONTINUOUS
 70
0
 71
3
 72
25
 73
21
 74
19
 42
0.0000001
 43
0.0000001
 44
0.0000000001
 12
0.1156726251
 22
-0.5000143338
 32
0.0
 13
0.5132129288
 23
-0.0026419615
 33
0.0
 40
0.0
 40
0.0
 40
0.0
 40
0.0
 40
0.0139486785
 40
0.0321748852
 40
0.0558987827
 40
0.0855593295
 40
0.1212490579
 40
0.1628831388
 40
0.2102678154
 40
0.263131883
 40
0.3211434014
 40
0.3839199748
 40
0.4510360341
 40
0.5220286665
 40
0.5964027304
 40
0.6736356257
 40
0.7531819132
 40
0.8344778801
 40
0.9169460991
 40
1.0
 40
1.0
 40
1.0
 40
1.0
 10
0.6222713525
 20
-10.0007627821
 30
0.0
 10
0.6228091793
 20
-10.0030876285
 30
0.0
 10
0.6256885265
 20
-10.0080371718
 30
0.0
 10
0.633051676
 20
-10.0142485188
 30
0.0
 10
0.6437252253
 20
-10.0203518762
 30
0.0
 10
0.6577749665
 20
-10.0263068648
 30
0.0
 10
0.6751461758
 20
-10.0321114436
 30
0.0
 10
0.6957421516
 20
-10.0377080631
 30
0.0
 10
0.7194242989
 20
-10.043054802
 30
0.0
 10
0.7460271368
 20
-10.0481073872
 30
0.0
 10
0.7753604719
 20
-10.052826498
 30
0.0
 10
0.8072129198
 20
-10.0571755311
 30
0.0
 10
0.8413538955
 20
-10.0611213406
 30
0.0
 10
0.8775357084
 20
-10.0646340817
 30
0.0
 10
0.9154955297
 20
-10.0676873753
 30
0.0
 10
0.9549574198
 20
-10.0702583991
 30
0.0
 10
0.9956343887
 20
-10.0723280051
 30
0.0
 10
1.0372305612
 20
-10.0738808218
 30
0.0
 10
1.0794432138
 20
-10.0749053414
 30
0.0
 10
1.1077586541
 20
-10.0752307316
 30
0.0
 10
1.121966766
 20
-10.0753038734
 30
0.0
 11
0.6222713525
 21
-10.0007627821
 31
0.0
 11
0.6255611128
 21
-10.0071208473
 31
0.0
 11
0.6324647121
 21
-10.0134326257
 31
0.0
 11
0.6429318922
 21
-10.0196521675
 31
0.0
 11
0.6568864518
 21
-10.0257341944
 31
0.0
 11
0.6742268017
 21
-10.031634429
 31
0.0
 11
0.6948267038
 21
-10.0373099177
 31
0.0
 11
0.7185361906
 21
-10.0427193429
 31
0.0
 11
0.7451826568
 21
-10.0478233237
 31
0.0
 11
0.7745721157
 21
-10.0525847033
 31
0.0
 11
0.8064906118
 21
-10.0569688187
 31
0.0
 11
0.8407057781
 21
-10.0609437534
 31
0.0
 11
0.8769685277
 21
-10.06448057
 31
0.0
 11
0.9150148674
 21
-10.0675535203
 31
0.0
 11
0.9545678193
 21
-10.0701402333
 31
0.0
 11
0.9953394376
 21
-10.0722218775
 31
0.0
 11
1.0370329043
 21
-10.0737832988
 31
0.0
 11
1.0793446906
 21
-10.0748131298
 31
0.0
 11
1.121966766
 21
-10.0753038734
 31
0.0
  0
SPLINE
  5
30B
100
AcDbEntity
  8
ASSI
100
AcDbSpline
 62
253
  6
CONTINUOUS
 70
0
 71
3
 72
25
 73
21
 74
19
 42
0.0000001
 43
0.0000001
 44
0.0000000001
 12
0.0014329144
 22
-0.7839168072
 32
0.0
 13
0.7839168112
 23
-0.0014307322
 33
0.0
 40
0.0
 40
0.0
 40
0.0
 40
0.0
 40
0.0555066409
 40
0.1110226213
 40
0.1665481587
 40
0.2220831809
 40
0.2776273283
 40
0.3331799649
 40
0.3887401978
 40
0.444306904
 40
0.4998787649
 40
0.555454306
 40
0.6110319415
 40
0.6666100223
 40
0.7221868858
 40
0.7777609063
 40
0.833330544
 40
0.8888943916
 40
0.9444512168
 40
1.0
 40
1.0
 40
1.0
 40
1.0
 10
0.6059198968
 20
-10.4255364583
 30
0.0
 10
0.6059464089
 20
-10.4400406545
 30
0.0
 10
0.6072660988
 20
-10.4690650742
 30
0.0
 10
0.6130293935
 20
-10.5122547706
 30
0.0
 10
0.6225328477
 20
-10.5547893334
 30
0.0
 10
0.6357042658
 20
-10.5963414656
 30
0.0
 10
0.6524436148
 20
-10.636596844
 30
0.0
 10
0.6726237725
 20
-10.6752495214
 30
0.0
 10
0.696091498
 20
-10.7120061202
 30
0.0
 10
0.7226685948
 20
-10.7465875566
 30
0.0
 10
0.7521532652
 20
-10.7787312917
 30
0.0
 10
0.7843216421
 20
-10.8081932876
 30
0.0
 10
0.8189294866
 20
-10.8347498675
 30
0.0
 10
0.8557140509
 20
-10.8581994101
 30
0.0
 10
0.8943960356
 20
-10.8783638796
 30
0.0
 10
0.9346818432
 20
-10.8950901766
 30
0.0
 10
0.9762653049
 20
-10.908251299
 30
0.0
 10
1.0188318704
 20
-10.9177473102
 30
0.0
 10
1.0620540277
 20
-10.9235060851
 30
0.0
 10
1.091100102
 20
-10.9248247339
 30
0.0
 10
1.1056153104
 20
-10.9248512257
 30
0.0
 11
0.6059198968
 21
-10.4255364583
 31
0.0
 11
0.6078964263
 21
-10.4690042054
 31
0.0
 11
0.6136520984
 21
-10.5121419051
 31
0.0
 11
0.6231432108
 21
-10.5546220162
 31
0.0
 11
0.6362976983
 21
-10.5961219904
 31
0.0
 11
0.6530156797
 21
-10.6363267212
 31
0.0
 11
0.6731702168
 21
-10.6749309373
 31
0.0
 11
0.6966082776
 21
-10.7116415196
 31
0.0
 11
0.7231518987
 21
-10.7461797274
 31
0.0
 11
0.7525995364
 21
-10.7782833146
 31
0.0
 11
0.7847275969
 21
-10.8077085209
 31
0.0
 11
0.8192921343
 21
-10.834231923
 31
0.0
 11
0.8560307026
 21
-10.8576521306
 31
0.0
 11
0.8946643485
 21
-10.8777913156
 31
0.0
 11
0.9348997296
 21
-10.8944965629
 31
0.0
 11
0.9764313416
 21
-10.9076410306
 31
0.0
 11
1.0189438381
 21
-10.9171249136
 31
0.0
 11
1.0621144247
 21
-10.9228762017
 31
0.0
 11
1.1056153104
 21
-10.9248512257
 31
0.0
  0
SPLINE
  5
30C
100
AcDbEntity
  8
ASSI
100
AcDbSpline
 62
253
  6
CONTINUOUS
 70
0
 71
3
 72
26
 73
22
 74
20
 42
0.0000001
 43
0.0000001
 44
0.0000000001
 12
0.2685929374
 22
0.8063832935
 32
0.0
 13
0.0022369592
 23
0.8499359847
 33
0.0
 40
0.0
 40
0.0
 40
0.0
 40
0.0
 40
0.0076246917
 40
0.0212415454
 40
0.0408201379
 40
0.0662705183
 40
0.097465855
 40
0.134246857
 40
0.176424113
 40
0.2237795972
 40
0.2760683609
 40
0.3330193498
 40
0.3943374779
 40
0.4597046572
 40
0.5287822035
 40
0.6012118306
 40
0.6766179093
 40
0.7546093822
 40
0.8347824281
 40
0.9167204116
 40
1.0
 40
1.0
 40
1.0
 40
1.0
 10
1.1056153104
 20
-10.9248512257
 30
0.0
 10
1.1062979565
 20
-10.922801751
 30
0.0
 10
1.1071270691
 20
-10.9167926649
 30
0.0
 10
1.1083467998
 20
-10.9053217232
 30
0.0
 10
1.1094795987
 20
-10.8887281742
 30
0.0
 10
1.1106596803
 20
-10.8671710578
 30
0.0
 10
1.1118006793
 20
-10.8407238859
 30
0.0
 10
1.1129186689
 20
-10.8095366097
 30
0.0
 10
1.1139960717
 20
-10.7737660816
 30
0.0
 10
1.1150290966
 20
-10.7335994779
 30
0.0
 10
1.116010535
 20
-10.6892447656
 30
0.0
 10
1.1169350865
 20
-10.6409322984
 30
0.0
 10
1.1177974978
 20
-10.5889128494
 30
0.0
 10
1.1185930779
 20
-10.5334563593
 30
0.0
 10
1.1193175156
 20
-10.4748506132
 30
0.0
 10
1.1199669242
 20
-10.4133996756
 30
0.0
 10
1.1205378482
 20
-10.3494224261
 30
0.0
 10
1.1210272377
 20
-10.2832506306
 30
0.0
 10
1.1214325414
 20
-10.2152276611
 30
0.0
 10
1.1217515493
 20
-10.1457060268
 30
0.0
 10
1.1219046684
 20
-10.0988979797
 30
0.0
 10
1.121966766
 20
-10.0753038734
 30
0.0
 11
1.1056153104
 21
-10.9248512257
 31
0.0
 11
1.1068681314
 21
-10.9184929548
 31
0.0
 11
1.1081096486
 21
-10.9069862437
 31
0.0
 11
1.1093335396
 21
-10.8903907045
 31
0.0
 11
1.1105333597
 21
-10.8687927363
 31
0.0
 11
1.1117029232
 21
-10.8423044131
 31
0.0
 11
1.1128361473
 21
-10.8110633539
 31
0.0
 11
1.1139271549
 21
-10.7752318679
 31
0.0
 11
1.1149702832
 21
-10.7349961179
 31
0.0
 11
1.1159601258
 21
-10.6905648866
 31
0.0
 11
1.116891546
 21
-10.6421689863
 31
0.0
 11
1.117759716
 21
-10.5900595538
 31
0.0
 11
1.1185601321
 21
-10.5345072095
 31
0.0
 11
1.1192886485
 21
-10.4758000339
 31
0.0
 11
1.1199414868
 21
-10.4142427359
 31
0.0
 11
1.1205152657
 21
-10.3501547427
 31
0.0
 11
1.1210070064
 21
-10.2838685777
 31
0.0
 11
1.1214141761
 21
-10.2157276014
 31
0.0
 11
1.1217346386
 21
-10.1460860569
 31
0.0
 11
1.121966766
 21
-10.0753038734
 31
0.0
  0
SPLINE
  5
30D
100
AcDbEntity
  8
ASSI
100
AcDbSpline
 62
253
  6
CONTINUOUS
 70
0
 71
3
 72
26
 73
22
 74
20
 42
0.0000001
 43
0.0000001
 44
0.0000000001
 12
0.2359522709
 22
0.3541440557
 32
0.0
 13
0.0022405098
 23
0.4255425554
 33
0.0
 40
0.0
 40
0.0
 40
0.0
 40
0.0
 40
0.0080280304
 40
0.0218584245
 40
0.0415678431
 40
0.0671002974
 40
0.0983438593
 40
0.135147229
 40
0.1773258644
 40
0.2246650247
 40
0.2769221631
 40
0.333828105
 40
0.3950893218
 40
0.4603890646
 40
0.5293898417
 40
0.6017344933
 40
0.6770484607
 40
0.7549417191
 40
0.8350114612
 40
0.9168420376
 40
1.0
 40
1.0
 40
1.0
 40
1.0
 10
0.6059198968
 20
-10.4255364583
 30
0.0
 10
0.6065513075
 20
-10.4245887652
 30
0.0
 10
0.6074469169
 20
-10.4215475107
 30
0.0
 10
0.6086330809
 20
-10.4158097636
 30
0.0
 10
0.6097879879
 20
-10.4074874496
 30
0.0
 10
0.6109611311
 20
-10.3967088237
 30
0.0
 10
0.6121053942
 20
-10.3834802939
 30
0.0
 10
0.6132226234
 20
-10.3678854609
 30
0.0
 10
0.6143004774
 20
-10.3499986725
 30
0.0
 10
0.6153334835
 20
-10.3299144251
 30
0.0
 10
0.6163150121
 20
-10.3077361804
 30
0.0
 10
0.6172395966
 20
-10.2835791583
 30
0.0
 10
0.618102043
 20
-10.2575686661
 30
0.0
 10
0.6188976472
 20
-10.2298396657
 30
0.0
 10
0.619622103
 20
-10.2005360391
 30
0.0
 10
0.620271527
 20
-10.1698098178
 30
0.0
 10
0.6208424556
 20
-10.1378204412
 30
0.0
 10
0.6213318596
 20
-10.1047337948
 30
0.0
 10
0.6217371466
 20
-10.0707215691
 30
0.0
 10
0.6220561676
 20
-10.0359616024
 30
0.0
 10
0.6222092471
 20
-10.0125585328
 30
0.0
 10
0.6222713525
 20
-10.0007627821
 30
0.0
 11
0.6059198968
 21
-10.4255364583
 31
0.0
 11
0.6071725035
 21
-10.4223580639
 31
0.0
 11
0.608414078
 21
-10.4166050094
 31
0.0
 11
0.6096379723
 21
-10.4083074739
 31
0.0
 11
0.6108378196
 21
-10.3975086298
 31
0.0
 11
0.6120074016
 21
-10.3842645227
 31
0.0
 11
0.6131406468
 21
-10.3686439592
 31
0.0
 11
0.6142316739
 21
-10.3507280957
 31
0.0
 11
0.6152748211
 21
-10.3306100153
 31
0.0
 11
0.6162646813
 21
-10.3083941122
 31
0.0
 11
0.6171961178
 21
-10.2841957963
 31
0.0
 11
0.6180643022
 21
-10.2581406407
 31
0.0
 11
0.6188647306
 21
-10.2303639665
 31
0.0
 11
0.6195932566
 21
-10.2010098316
 31
0.0
 11
0.6202461025
 21
-10.1702305998
 31
0.0
 11
0.6208198847
 21
-10.138185994
 31
0.0
 11
0.6213116297
 21
-10.1050422861
 31
0.0
 11
0.6217187927
 21
-10.070971164
 31
0.0
 11
0.6220392605
 21
-10.0361497633
 31
0.0
 11
0.6222713525
 21
-10.0007627821
 31
0.0
  0
SPLINE
  5
30E
100
AcDbEntity
  8
ASSI
100
AcDbSpline
 62
253
  6
CONTINUOUS
 70
0
 71
3
 72
25
 73
21
 74
19
 42
0.0000001
 43
0.0000001
 44
0.0000000001
 12
-0.2498751414
 22
0.0000000203
 32
0.0
 13
-0.2424238368
 23
0.0605662416
 33
0.0
 40
0.0
 40
0.0
 40
0.0
 40
0.0
 40
0.0852547325
 40
0.169900986
 40
0.2533120723
 40
0.3348797757
 40
0.4140110861
 40
0.4901304632
 40
0.5626837212
 40
0.6311429841
 40
0.6950103138
 40
0.7538209474
 40
0.8071470326
 40
0.8546008355
 40
0.8958373009
 40
0.9305566248
 40
0.958507049
 40
0.9794866968
 40
0.9933463674
 40
1.0
 40
1.0
 40
1.0
 40
1.0
 10
1.1594728323
 20
10.984513458
 30
0.0
 10
1.1523718195
 20
10.9845134586
 30
0.0
 10
1.1382204747
 20
10.9845187098
 30
0.0
 10
1.1171216893
 20
10.9845423168
 30
0.0
 10
1.0963300264
 20
10.984581469
 30
0.0
 10
1.0759977484
 20
10.9846358748
 30
0.0
 10
1.0562728579
 20
10.9847051278
 30
0.0
 10
1.0372988581
 20
10.9847887089
 30
0.0
 10
1.019213829
 20
10.984885991
 30
0.0
 10
1.0021493865
 20
10.9849962306
 30
0.0
 10
0.9862297086
 20
10.9851186053
 30
0.0
 10
0.9715706203
 20
10.9852520919
 30
0.0
 10
0.9582788585
 20
10.9853958602
 30
0.0
 10
0.9464509272
 20
10.985547979
 30
0.0
 10
0.9361735203
 20
10.9857093698
 30
0.0
 10
0.9275195279
 20
10.9858717161
 30
0.0
 10
0.9205570391
 20
10.9860516348
 30
0.0
 10
0.9153230898
 20
10.9861978214
 30
0.0
 10
0.9118843937
 20
10.9864108999
 30
0.0
 10
0.9101628448
 20
10.9864846917
 30
0.0
 10
0.9096251784
 20
10.9866190203
 30
0.0
 11
1.1594728323
 21
10.984513458
 31
0.0
 11
1.1381697954
 21
10.9845213932
 31
0.0
 11
1.1170188142
 21
10.9845451456
 31
0.0
 11
1.0961764945
 21
10.9845845427
 31
0.0
 11
1.0757948266
 21
10.9846392976
 31
0.0
 11
1.0560220021
 21
10.9847090121
 31
0.0
 11
1.0370018483
 21
10.9847931792
 31
0.0
 11
1.0188728576
 21
10.9848911863
 31
0.0
 11
1.0017669506
 21
10.9850023202
 31
0.0
 11
0.98580857
 21
10.9851257724
 31
0.0
 11
0.9711138736
 21
10.9852606445
 31
0.0
 11
0.9577898028
 21
10.985405955
 31
0.0
 11
0.9459332862
 21
10.9855606467
 31
0.0
 11
0.9356306071
 21
10.985723594
 31
0.0
 11
0.9269567772
 21
10.9858936104
 31
0.0
 11
0.9199748752
 21
10.9860694592
 31
0.0
 11
0.9147356877
 21
10.9862498619
 31
0.0
 11
0.9112773729
 21
10.9864335027
 31
0.0
 11
0.9096251784
 21
10.9866190203
 31
0.0
  0
SPLINE
  5
30F
100
AcDbEntity
  8
ASSI
100
AcDbSpline
 62
253
  6
CONTINUOUS
 70
0
 71
3
 72
25
 73
21
 74
19
 42
0.0000001
 43
0.0000001
 44
0.0000000001
 12
-0.2424238368
 22
-0.0605662415
 32
0.0
 13
-0.2498751414
 23
-0.0000000203
 33
0.0
 40
0.0
 40
0.0
 40
0.0
 40
0.0
 40
0.0066536326
 40
0.0205133032
 40
0.041492951
 40
0.0694433752
 40
0.1041626991
 40
0.1453991645
 40
0.1928529674
 40
0.2461790526
 40
0.3049896861
 40
0.3688570158
 40
0.4373162788
 40
0.5098695368
 40
0.5859889138
 40
0.6651202243
 40
0.7466879277
 40
0.830099014
 40
0.9147452674
 40
1.0
 40
1.0
 40
1.0
 40
1.0
 10
22.3455459785
 20
10.9866190203
 30
0.0
 10
22.3450083121
 20
10.9864846917
 30
0.0
 10
22.3432867632
 20
10.9864108999
 30
0.0
 10
22.3398480671
 20
10.9861978214
 30
0.0
 10
22.3346141178
 20
10.9860516348
 30
0.0
 10
22.327651629
 20
10.9858717161
 30
0.0
 10
22.3189976366
 20
10.9857093698
 30
0.0
 10
22.3087202297
 20
10.985547979
 30
0.0
 10
22.2968922984
 20
10.9853958602
 30
0.0
 10
22.2836005366
 20
10.9852520919
 30
0.0
 10
22.2689414483
 20
10.9851186053
 30
0.0
 10
22.2530217704
 20
10.9849962306
 30
0.0
 10
22.2359573279
 20
10.984885991
 30
0.0
 10
22.2178722988
 20
10.9847887089
 30
0.0
 10
22.198898299
 20
10.9847051278
 30
0.0
 10
22.1791734085
 20
10.9846358748
 30
0.0
 10
22.1588411305
 20
10.984581469
 30
0.0
 10
22.1380494676
 20
10.9845423168
 30
0.0
 10
22.1169506822
 20
10.9845187098
 30
0.0
 10
22.1027993374
 20
10.9845134586
 30
0.0
 10
22.0956983246
 20
10.984513458
 30
0.0
 11
22.3455459785
 21
10.9866190203
 31
0.0
 11
22.343893784
 21
10.9864335027
 31
0.0
 11
22.3404354692
 21
10.9862498619
 31
0.0
 11
22.3351962817
 21
10.9860694592
 31
0.0
 11
22.3282143796
 21
10.9858936104
 31
0.0
 11
22.3195405498
 21
10.985723594
 31
0.0
 11
22.3092378707
 21
10.9855606467
 31
0.0
 11
22.297381354
 21
10.985405955
 31
0.0
 11
22.2840572833
 21
10.9852606445
 31
0.0
 11
22.2693625869
 21
10.9851257724
 31
0.0
 11
22.2534042063
 21
10.9850023202
 31
0.0
 11
22.2362982993
 21
10.9848911863
 31
0.0
 11
22.2181693086
 21
10.9847931792
 31
0.0
 11
22.1991491548
 21
10.9847090121
 31
0.0
 11
22.1793763303
 21
10.9846392976
 31
0.0
 11
22.1589946624
 21
10.9845845427
 31
0.0
 11
22.1381523427
 21
10.9845451456
 31
0.0
 11
22.1170013615
 21
10.9845213932
 31
0.0
 11
22.0956983246
 21
10.984513458
 31
0.0
  0
SPLINE
  5
310
100
AcDbEntity
  8
ASSI
100
AcDbSpline
 62
253
  6
CONTINUOUS
 70
0
 71
3
 72
10
 73
6
 74
4
 42
0.0000001
 43
0.0000001
 44
0.0000000001
 12
0.0060355961
 22
9.0950346867
 32
0.0
 13
0.0002514557
 23
9.0950366859
 33
0.0
 40
0.0
 40
0.0
 40
0.0
 40
0.0
 40
0.33331324
 40
0.66664763
 40
1.0
 40
1.0
 40
1.0
 40
1.0
 10
0.6566342064
 20
1.6415925462
 30
0.0
 10
0.6573047878
 20
2.6520910393
 30
0.0
 10
0.6584317021
 20
4.6731522945
 30
0.0
 10
0.6594794774
 20
7.7048310303
 30
0.0
 10
0.6597494636
 20
9.7260112113
 30
0.0
 10
0.6597774047
 20
10.7366285562
 30
0.0
 11
0.6566342064
 21
1.6415925462
 31
0.0
 11
0.6583245688
 21
4.6730882217
 31
0.0
 11
0.6593723264
 21
7.7047765475
 31
0.0
 11
0.6597774047
 21
10.7366285562
 31
0.0
  0
SPLINE
  5
311
100
AcDbEntity
  8
ASSI
100
AcDbSpline
 62
253
  6
CONTINUOUS
 70
0
 71
3
 72
10
 73
6
 74
4
 42
0.0000001
 43
0.0000001
 44
0.0000000001
 12
0.0002514557
 22
-9.0950366859
 32
0.0
 13
0.0060355961
 23
-9.0950346867
 33
0.0
 40
0.0
 40
0.0
 40
0.0
 40
0.0
 40
0.33335237
 40
0.66668676
 40
1.0
 40
1.0
 40
1.0
 40
1.0
 10
22.5953937522
 20
10.7366285562
 30
0.0
 10
22.5954216933
 20
9.7260112113
 30
0.0
 10
22.5956916795
 20
7.7048310303
 30
0.0
 10
22.5967394548
 20
4.6731522945
 30
0.0
 10
22.5978663691
 20
2.6520910393
 30
0.0
 10
22.5985369505
 20
1.6415925462
 30
0.0
 11
22.5953937522
 21
10.7366285562
 31
0.0
 11
22.5957988305
 21
7.7047765475
 31
0.0
 11
22.5968465881
 21
4.6730882217
 31
0.0
 11
22.5985369505
 21
1.6415925462
 31
0.0
  0
SPLINE
  5
312
100
AcDbEntity
  8
ASSI
100
AcDbSpline
 62
253
  6
CONTINUOUS
 70
0
 71
3
 72
25
 73
21
 74
19
 42
0.0000001
 43
0.0000001
 44
0.0000000001
 12
-0.4951377735
 22
-0.0674709553
 32
0.0
 13
-0.4997136625
 23
-0.0000069763
 33
0.0
 40
0.0
 40
0.0
 40
0.0
 40
0.0
 40
0.0066260327
 40
0.0204733849
 40
0.041446253
 40
0.0693927016
 40
0.1041099476
 40
0.1453456978
 40
0.1927998486
 40
0.2461271361
 40
0.3049396744
 40
0.3688095125
 40
0.4372718806
 40
0.5098287828
 40
0.5859522814
 40
0.665088138
 40
0.7466607239
 40
0.8300771141
 40
0.914728373
 40
1.0
 40
1.0
 40
1.0
 40
1.0
 10
22.5953937522
 20
10.7366285486
 30
0.0
 10
22.5943001525
 20
10.736479527
 30
0.0
 10
22.5908816405
 20
10.7364035883
 30
0.0
 10
22.583988613
 20
10.7361676448
 30
0.0
 10
22.573530854
 20
10.7360098156
 30
0.0
 10
22.5596023634
 20
10.7358126123
 30
0.0
 10
22.5422959943
 20
10.7356355162
 30
0.0
 10
22.521740875
 20
10.7354590415
 30
0.0
 10
22.4980854058
 20
10.7352927543
 30
0.0
 10
22.4715021257
 20
10.7351354885
 30
0.0
 10
22.4421843344
 20
10.7349894094
 30
0.0
 10
22.4103454024
 20
10.734855411
 30
0.0
 10
22.3762169843
 20
10.7347346202
 30
0.0
 10
22.3400474038
 20
10.7346279379
 30
0.0
 10
22.302099881
 20
10.7345361821
 30
0.0
 10
22.2626505674
 20
10.7344600413
 30
0.0
 10
22.2219864389
 20
10.7344000895
 30
0.0
 10
22.1804035815
 20
10.7343567721
 30
0.0
 10
22.138204556
 20
10.7343304158
 30
0.0
 10
22.1099002932
 20
10.7343242905
 30
0.0
 10
22.0956964942
 20
10.7343240922
 30
0.0
 11
22.5953937522
 21
10.7366285486
 31
0.0
 11
22.5920888268
 21
10.7364261194
 31
0.0
 11
22.5851720184
 21
10.7362257106
 31
0.0
 11
22.5746934404
 21
10.7360287597
 31
0.0
 11
22.5607295387
 21
10.73583672
 31
0.0
 11
22.5433818509
 21
10.7356509826
 31
0.0
 11
22.5227765526
 21
10.7354729019
 31
0.0
 11
22.4990636682
 21
10.7353037756
 31
0.0
 11
22.4724157681
 21
10.7351448361
 31
0.0
 11
22.4430267097
 21
10.7349972414
 31
0.0
 11
22.4111103652
 21
10.7348620673
 31
0.0
 11
22.3768990013
 21
10.7347402994
 31
0.0
 11
22.3406414852
 21
10.7346328252
 31
0.0
 11
22.3026016451
 21
10.7345404284
 31
0.0
 11
22.2630564507
 21
10.7344637831
 31
0.0
 11
22.2222935597
 21
10.7344034485
 31
0.0
 11
22.1806092725
 21
10.7343598631
 31
0.0
 11
22.1383078903
 21
10.7343333475
 31
0.0
 11
22.0956964942
 21
10.7343240922
 31
0.0
  0
SPLINE
  5
313
100
AcDbEntity
  8
ASSI
100
AcDbSpline
 62
253
  6
CONTINUOUS
 70
0
 71
3
 72
25
 73
21
 74
19
 42
0.0000001
 43
0.0000001
 44
0.0000000001
 12
-0.4390248508
 22
-0.2392029787
 32
0.0
 13
-0.4999607732
 23
-0.0003316614
 33
0.0
 40
0.0
 40
0.0
 40
0.0
 40
0.0
 40
0.0068059321
 40
0.0207337759
 40
0.0417520194
 40
0.0697246348
 40
0.1044548601
 40
0.145693439
 40
0.1931423402
 40
0.246457634
 40
0.3052523086
 40
0.369099243
 40
0.4375344017
 40
0.5100602612
 40
0.5861494627
 40
0.6652486694
 40
0.7467826077
 40
0.8301582634
 40
0.9147692045
 40
1.0
 40
1.0
 40
1.0
 40
1.0
 10
22.5985369505
 20
1.6415925462
 30
0.0
 10
22.5975409594
 20
1.6410498798
 30
0.0
 10
22.5939986625
 20
1.6406478275
 30
0.0
 10
22.5871771531
 20
1.6397726964
 30
0.0
 10
22.5766675537
 20
1.6390986783
 30
0.0
 10
22.5627553468
 20
1.638318238
 30
0.0
 10
22.545440871
 20
1.6375951665
 30
0.0
 10
22.5248876344
 20
1.6368803472
 30
0.0
 10
22.5012311525
 20
1.6362017304
 30
0.0
 10
22.4746480707
 20
1.6355582385
 30
0.0
 10
22.44533023
 20
1.6349574836
 30
0.0
 10
22.4134913947
 20
1.634403511
 30
0.0
 10
22.3793630651
 20
1.633900839
 30
0.0
 10
22.3431936004
 20
1.6334532396
 30
0.0
 10
22.30524616
 20
1.6330641167
 30
0.0
 10
22.2657968605
 20
1.6327363866
 30
0.0
 10
22.2251327437
 20
1.6324724997
 30
0.0
 10
22.1835496931
 20
1.6322744207
 30
0.0
 10
22.1413502807
 20
1.6321436203
 30
0.0
 10
22.1130455551
 20
1.6321019688
 30
0.0
 10
22.098841537
 20
1.6320925462
 30
0.0
 11
22.5985369505
 21
1.6415925462
 31
0.0
 11
22.5952320952
 21
1.6407824244
 31
0.0
 11
22.5883153156
 21
1.6399781973
 31
0.0
 11
22.577836941
 21
1.6391857168
 31
0.0
 11
22.5638732158
 21
1.6384107494
 31
0.0
 11
22.5465257454
 21
1.6376589338
 31
0.0
 11
22.5259207564
 21
1.6369357407
 31
0.0
 11
22.5022081786
 21
1.6362464323
 31
0.0
 11
22.4755605535
 21
1.6355960242
 31
0.0
 11
22.4461717794
 21
1.6349892491
 31
0.0
 11
22.4142556998
 21
1.634430522
 31
0.0
 11
22.3800445483
 21
1.6339239085
 31
0.0
 11
22.3437872581
 21
1.6334730949
 31
0.0
 11
22.3057476507
 21
1.6330813615
 31
0.0
 11
22.2662025167
 21
1.6327515587
 31
0.0
 11
22.2254396013
 21
1.6324860862
 31
0.0
 11
22.1837555109
 21
1.6322868757
 31
0.0
 11
22.1414535545
 21
1.6321553768
 31
0.0
 11
22.098841537
 21
1.6320925462
 31
0.0
  0
SPLINE
  5
314
100
AcDbEntity
  8
ASSI
100
AcDbSpline
 62
253
  6
CONTINUOUS
 70
0
 71
3
 72
25
 73
21
 74
19
 42
0.0000001
 43
0.0000001
 44
0.0000000001
 12
-0.1156726714
 22
-0.5000143222
 32
0.0
 13
-0.5132129279
 23
-0.0026419614
 33
0.0
 40
0.0
 40
0.0
 40
0.0
 40
0.0
 40
0.013948679
 40
0.0321748863
 40
0.0558987844
 40
0.0855593318
 40
0.1212490608
 40
0.1628831421
 40
0.210267819
 40
0.2631318866
 40
0.3211434051
 40
0.3839199784
 40
0.4510360375
 40
0.5220286697
 40
0.5964027332
 40
0.673635628
 40
0.753181915
 40
0.8344778813
 40
0.9169460997
 40
1.0
 40
1.0
 40
1.0
 40
1.0
 10
22.6328998044
 20
-10.0007627821
 30
0.0
 10
22.6323619774
 20
-10.0030876286
 30
0.0
 10
22.6294826297
 20
-10.0080371717
 30
0.0
 10
22.6221194798
 20
-10.0142485186
 30
0.0
 10
22.6114459301
 20
-10.0203518759
 30
0.0
 10
22.5973961886
 20
-10.0263068645
 30
0.0
 10
22.580024979
 20
-10.0321114431
 30
0.0
 10
22.559429003
 20
-10.0377080626
 30
0.0
 10
22.5357468555
 20
-10.0430548014
 30
0.0
 10
22.5091440176
 20
-10.0481073865
 30
0.0
 10
22.4798106825
 20
-10.0528264972
 30
0.0
 10
22.4479582347
 20
-10.0571755303
 30
0.0
 10
22.4138172592
 20
-10.0611213396
 30
0.0
 10
22.3776354465
 20
-10.0646340807
 30
0.0
 10
22.3396756255
 20
-10.0676873742
 30
0.0
 10
22.3002137356
 20
-10.0702583979
 30
0.0
 10
22.259536767
 20
-10.0723280039
 30
0.0
 10
22.2179405949
 20
-10.0738808206
 30
0.0
 10
22.1757279427
 20
-10.0749053402
 30
0.0
 10
22.1474125026
 20
-10.0752307303
 30
0.0
 10
22.1332043909
 20
-10.0753038721
 30
0.0
 11
22.6328998044
 21
-10.0007627821
 31
0.0
 11
22.6296100435
 21
-10.0071208473
 31
0.0
 11
22.6227064437
 21
-10.0134326256
 31
0.0
 11
22.6122392632
 21
-10.0196521673
 31
0.0
 11
22.5982847032
 21
-10.025734194
 31
0.0
 11
22.5809443531
 21
-10.0316344286
 31
0.0
 11
22.5603444508
 21
-10.0373099172
 31
0.0
 11
22.5366349639
 21
-10.0427193423
 31
0.0
 11
22.5099884977
 21
-10.047823323
 31
0.0
 11
22.4805990387
 21
-10.0525847025
 31
0.0
 11
22.4486805427
 21
-10.0569688178
 31
0.0
 11
22.4144653766
 21
-10.0609437525
 31
0.0
 11
22.3782026272
 21
-10.064480569
 31
0.0
 11
22.3401562877
 21
-10.0675535192
 31
0.0
 11
22.3006033361
 21
-10.0701402321
 31
0.0
 11
22.2598317181
 21
-10.0722218764
 31
0.0
 11
22.2181382518
 21
-10.0737832975
 31
0.0
 11
22.1758264659
 21
-10.0748131285
 31
0.0
 11
22.1332043909
 21
-10.0753038721
 31
0.0
  0
SPLINE
  5
315
100
AcDbEntity
  8
ASSI
100
AcDbSpline
 62
253
  6
CONTINUOUS
 70
0
 71
3
 72
26
 73
22
 74
20
 42
0.0000001
 43
0.0000001
 44
0.0000000001
 12
0.0022369592
 22
-0.8499359847
 32
0.0
 13
0.2685929371
 23
-0.8063832936
 33
0.0
 40
0.0
 40
0.0
 40
0.0
 40
0.0
 40
0.0832795884
 40
0.1652175719
 40
0.2453906178
 40
0.3233820907
 40
0.3987881694
 40
0.4712177965
 40
0.5402953428
 40
0.6056625221
 40
0.6669806502
 40
0.7239316391
 40
0.7762204028
 40
0.823575887
 40
0.865753143
 40
0.902534145
 40
0.9337294817
 40
0.9591798621
 40
0.9787584546
 40
0.9923753083
 40
1.0
 40
1.0
 40
1.0
 40
1.0
 10
22.1332043909
 20
-10.0753038734
 30
0.0
 10
22.1332664885
 20
-10.0988979797
 30
0.0
 10
22.1334196076
 20
-10.1457060268
 30
0.0
 10
22.1337386155
 20
-10.2152276611
 30
0.0
 10
22.1341439192
 20
-10.2832506306
 30
0.0
 10
22.1346333087
 20
-10.3494224261
 30
0.0
 10
22.1352042327
 20
-10.4133996756
 30
0.0
 10
22.1358536413
 20
-10.4748506132
 30
0.0
 10
22.136578079
 20
-10.5334563593
 30
0.0
 10
22.1373736591
 20
-10.5889128494
 30
0.0
 10
22.1382360704
 20
-10.6409322984
 30
0.0
 10
22.1391606219
 20
-10.6892447656
 30
0.0
 10
22.1401420603
 20
-10.7335994779
 30
0.0
 10
22.1411750852
 20
-10.7737660816
 30
0.0
 10
22.142252488
 20
-10.8095366097
 30
0.0
 10
22.1433704776
 20
-10.8407238859
 30
0.0
 10
22.1445114765
 20
-10.8671710578
 30
0.0
 10
22.1456915582
 20
-10.8887281742
 30
0.0
 10
22.1468243571
 20
-10.9053217232
 30
0.0
 10
22.1480440878
 20
-10.9167926649
 30
0.0
 10
22.1488732004
 20
-10.922801751
 30
0.0
 10
22.1495558465
 20
-10.9248512257
 30
0.0
 11
22.1332043909
 21
-10.0753038734
 31
0.0
 11
22.1334365183
 21
-10.1460860569
 31
0.0
 11
22.1337569807
 21
-10.2157276014
 31
0.0
 11
22.1341641505
 21
-10.2838685777
 31
0.0
 11
22.1346558912
 21
-10.3501547427
 31
0.0
 11
22.1352296701
 21
-10.4142427359
 31
0.0
 11
22.1358825084
 21
-10.4758000339
 31
0.0
 11
22.1366110247
 21
-10.5345072095
 31
0.0
 11
22.1374114409
 21
-10.5900595538
 31
0.0
 11
22.1382796109
 21
-10.6421689863
 31
0.0
 11
22.1392110311
 21
-10.6905648866
 31
0.0
 11
22.1402008737
 21
-10.7349961179
 31
0.0
 11
22.141244002
 21
-10.7752318679
 31
0.0
 11
22.1423350095
 21
-10.8110633539
 31
0.0
 11
22.1434682337
 21
-10.8423044131
 31
0.0
 11
22.1446377971
 21
-10.8687927363
 31
0.0
 11
22.1458376173
 21
-10.8903907045
 31
0.0
 11
22.1470615083
 21
-10.9069862437
 31
0.0
 11
22.1483030255
 21
-10.9184929548
 31
0.0
 11
22.1495558465
 21
-10.9248512257
 31
0.0
  0
SPLINE
  5
316
100
AcDbEntity
  8
ASSI
100
AcDbSpline
 62
253
  6
CONTINUOUS
 70
0
 71
3
 72
26
 73
22
 74
20
 42
0.0000001
 43
0.0000001
 44
0.0000000001
 12
0.0022405098
 22
-0.4255425554
 32
0.0
 13
0.2359522711
 23
-0.3541440557
 33
0.0
 40
0.0
 40
0.0
 40
0.0
 40
0.0
 40
0.0831579624
 40
0.1649885388
 40
0.2450582809
 40
0.3229515393
 40
0.3982655067
 40
0.4706101583
 40
0.5396109354
 40
0.6049106782
 40
0.666171895
 40
0.7230778369
 40
0.7753349753
 40
0.8226741356
 40
0.864852771
 40
0.9016561407
 40
0.9328997026
 40
0.9584321569
 40
0.9781415755
 40
0.9919719696
 40
1.0
 40
1.0
 40
1.0
 40
1.0
 10
22.6328998044
 20
-10.0007627821
 30
0.0
 10
22.6329619098
 20
-10.0125585328
 30
0.0
 10
22.6331149893
 20
-10.0359616024
 30
0.0
 10
22.6334340103
 20
-10.0707215691
 30
0.0
 10
22.6338392973
 20
-10.1047337948
 30
0.0
 10
22.6343287013
 20
-10.1378204412
 30
0.0
 10
22.6348996299
 20
-10.1698098178
 30
0.0
 10
22.6355490539
 20
-10.2005360391
 30
0.0
 10
22.6362735097
 20
-10.2298396657
 30
0.0
 10
22.6370691139
 20
-10.2575686661
 30
0.0
 10
22.6379315603
 20
-10.2835791583
 30
0.0
 10
22.6388561448
 20
-10.3077361804
 30
0.0
 10
22.6398376733
 20
-10.3299144251
 30
0.0
 10
22.6408706795
 20
-10.3499986725
 30
0.0
 10
22.6419485335
 20
-10.3678854609
 30
0.0
 10
22.6430657627
 20
-10.3834802939
 30
0.0
 10
22.6442100257
 20
-10.3967088237
 30
0.0
 10
22.645383169
 20
-10.4074874496
 30
0.0
 10
22.646538076
 20
-10.4158097636
 30
0.0
 10
22.64772424
 20
-10.4215475107
 30
0.0
 10
22.6486198494
 20
-10.4245887652
 30
0.0
 10
22.64925126
 20
-10.4255364583
 30
0.0
 11
22.6328998044
 21
-10.0007627821
 31
0.0
 11
22.6331318964
 21
-10.0361497633
 31
0.0
 11
22.6334523642
 21
-10.070971164
 31
0.0
 11
22.6338595272
 21
-10.1050422861
 31
0.0
 11
22.6343512722
 21
-10.138185994
 31
0.0
 11
22.6349250543
 21
-10.1702305998
 31
0.0
 11
22.6355779003
 21
-10.2010098316
 31
0.0
 11
22.6363064263
 21
-10.2303639665
 31
0.0
 11
22.6371068547
 21
-10.2581406407
 31
0.0
 11
22.6379750391
 21
-10.2841957963
 31
0.0
 11
22.6389064756
 21
-10.3083941122
 31
0.0
 11
22.6398963358
 21
-10.3306100153
 31
0.0
 11
22.640939483
 21
-10.3507280957
 31
0.0
 11
22.6420305101
 21
-10.3686439592
 31
0.0
 11
22.6431637553
 21
-10.3842645227
 31
0.0
 11
22.6443333373
 21
-10.3975086298
 31
0.0
 11
22.6455331846
 21
-10.4083074739
 31
0.0
 11
22.6467570789
 21
-10.4166050094
 31
0.0
 11
22.6479986534
 21
-10.4223580639
 31
0.0
 11
22.64925126
 21
-10.4255364583
 31
0.0
  0
SPLINE
  5
317
100
AcDbEntity
  8
ASSI
100
AcDbSpline
 62
253
  6
CONTINUOUS
 70
0
 71
3
 72
25
 73
21
 74
19
 42
0.0000001
 43
0.0000001
 44
0.0000000001
 12
-0.0014329144
 22
-0.7839168072
 32
0.0
 13
-0.7839168112
 23
-0.0014307322
 33
0.0
 40
0.0
 40
0.0
 40
0.0
 40
0.0
 40
0.055506642
 40
0.1110226234
 40
0.1665481617
 40
0.2220831846
 40
0.2776273326
 40
0.3331799697
 40
0.3887402028
 40
0.4443069091
 40
0.49987877
 40
0.555454311
 40
0.6110319462
 40
0.6666100265
 40
0.7221868895
 40
0.7777609094
 40
0.8333305464
 40
0.8888943932
 40
0.9444512176
 40
1.0
 40
1.0
 40
1.0
 40
1.0
 10
22.64925126
 20
-10.4255364583
 30
0.0
 10
22.649224748
 20
-10.4400406548
 30
0.0
 10
22.6479050581
 20
-10.469065075
 30
0.0
 10
22.6421417631
 20
-10.5122547722
 30
0.0
 10
22.6326383086
 20
-10.5547893356
 30
0.0
 10
22.6194668901
 20
-10.5963414683
 30
0.0
 10
22.6027275407
 20
-10.636596847
 30
0.0
 10
22.5825473826
 20
-10.6752495245
 30
0.0
 10
22.5590796567
 20
-10.7120061234
 30
0.0
 10
22.5325025595
 20
-10.7465875596
 30
0.0
 10
22.5030178889
 20
-10.7787312945
 30
0.0
 10
22.4708495119
 20
-10.8081932901
 30
0.0
 10
22.4362416673
 20
-10.8347498696
 30
0.0
 10
22.3994571031
 20
-10.8581994118
 30
0.0
 10
22.3607751187
 20
-10.8783638808
 30
0.0
 10
22.3204893114
 20
-10.8950901774
 30
0.0
 10
22.2789058502
 20
-10.9082512995
 30
0.0
 10
22.2363392852
 20
-10.9177473104
 30
0.0
 10
22.1931171285
 20
-10.9235060852
 30
0.0
 10
22.1640710546
 20
-10.9248247339
 30
0.0
 10
22.1495558465
 20
-10.9248512257
 30
0.0
 11
22.64925126
 21
-10.4255364583
 31
0.0
 11
22.6472747305
 21
-10.4690042062
 31
0.0
 11
22.6415190582
 21
-10.5121419068
 31
0.0
 11
22.6320279454
 21
-10.5546220185
 31
0.0
 11
22.6188734576
 21
-10.5961219931
 31
0.0
 11
22.6021554757
 21
-10.6363267243
 31
0.0
 11
22.5820009382
 21
-10.6749309405
 31
0.0
 11
22.558562877
 21
-10.7116415229
 31
0.0
 11
22.5320192556
 21
-10.7461797305
 31
0.0
 11
22.5025716176
 21
-10.7782833174
 31
0.0
 11
22.470443557
 21
-10.8077085234
 31
0.0
 11
22.4358790196
 21
-10.8342319251
 31
0.0
 11
22.3991404514
 21
-10.8576521322
 31
0.0
 11
22.3605068057
 21
-10.8777913169
 31
0.0
 11
22.320271425
 21
-10.8944965637
 31
0.0
 11
22.2787398134
 21
-10.907641031
 31
0.0
 11
22.2362273175
 21
-10.9171249139
 31
0.0
 11
22.1930567315
 21
-10.9228762018
 31
0.0
 11
22.1495558465
 21
-10.9248512257
 31
0.0
  0
SPLINE
  5
318
100
AcDbEntity
  8
RACCORDO
100
AcDbSpline
 62
253
  6
CONTINUOUS
 70
0
 71
3
 72
22
 73
18
 74
16
 42
0.0000001
 43
0.0000001
 44
0.0000000001
 12
-0.0021832472
 22
0.2504804114
 32
0.0
 13
0.2504803882
 23
0.0021859092
 33
0.0
 40
0.0
 40
0.0
 40
0.0
 40
0.0
 40
0.104302378
 40
0.2074605176
 40
0.3083460848
 40
0.4058557355
 40
0.4989232668
 40
0.5865313867
 40
0.6677229924
 40
0.7416118719
 40
0.8073927865
 40
0.8643509935
 40
0.9118715322
 40
0.9494494424
 40
0.9767055422
 40
0.9934335021
 40
1.0
 40
1.0
 40
1.0
 40
1.0
 10
-13.5508320487
 20
10.7366285395
 30
0.0
 10
-13.5509079547
 20
10.745337107
 30
0.0
 10
-13.5510274332
 20
10.7626589975
 30
0.0
 10
-13.5511103454
 20
10.7884047821
 30
0.0
 10
-13.5510957657
 20
10.8135835397
 30
0.0
 10
-13.55098395
 20
10.8379194971
 30
0.0
 10
-13.5507762724
 20
10.8611462458
 30
0.0
 10
-13.550475244
 20
10.8830091086
 30
0.0
 10
-13.5500844882
 20
10.9032698004
 30
0.0
 10
-13.5496089007
 20
10.9217028835
 30
0.0
 10
-13.5490543309
 20
10.9381181648
 30
0.0
 10
-13.548429076
 20
10.9523008493
 30
0.0
 10
-13.5477406674
 20
10.964199481
 30
0.0
 10
-13.5470081712
 20
10.973403789
 30
0.0
 10
-13.5462390776
 20
10.9805177538
 30
0.0
 10
-13.5455076207
 20
10.9840480698
 30
0.0
 10
-13.5448370681
 20
10.9866142357
 30
0.0
 10
-13.5442888084
 20
10.9866190203
 30
0.0
 11
-13.5508320487
 21
10.7366285395
 31
0.0
 11
-13.5510119926
 21
10.7627546148
 31
0.0
 11
-13.5510944112
 21
10.7885945581
 31
0.0
 11
-13.5510784019
 21
10.8138653713
 31
0.0
 11
-13.55096414
 21
10.8382902892
 31
0.0
 11
-13.5507528769
 21
10.861601811
 31
0.0
 11
-13.5504469264
 21
10.8835446297
 31
0.0
 11
-13.5500496392
 21
10.9038784282
 31
0.0
 11
-13.5495653664
 21
10.9223805116
 31
0.0
 11
-13.5489994118
 21
10.9388482457
 31
0.0
 11
-13.5483579736
 21
10.9531012765
 31
0.0
 11
-13.5476480769
 21
10.9649835054
 31
0.0
 11
-13.5468774964
 21
10.9743647988
 31
0.0
 11
-13.5460546716
 21
10.9811424131
 31
0.0
 11
-13.5451886139
 21
10.9852421202
 31
0.0
 11
-13.5442888084
 21
10.9866190203
 31
0.0
  0
LINE
  5
319
100
AcDbEntity
  8
RACCORDO
100
AcDbLine
 62
253
  6
CONTINUOUS
 10
-13.5508301321
 20
10.7366285486
 11
-14.0333806289
 21
10.7343240922
  0
SPLINE
  5
31A
100
AcDbEntity
  8
0
100
AcDbSpline
 62
253
  6
CONTINUOUS
 70
0
 71
3
 72
25
 73
21
 74
19
 42
0.0000001
 43
0.0000001
 44
0.0000000001
 12
-0.4773650572
 22
-0.072058679
 32
0.0
 13
0.0719729274
 23
-0.4773779936
 33
0.0
 40
0.0
 40
0.0
 40
0.0
 40
0.0
 40
0.0881044587
 40
0.1753073463
 40
0.2609738429
 40
0.3444803147
 40
0.4252188542
 40
0.5026017069
 40
0.5760655508
 40
0.6450755988
 40
0.7091294936
 40
0.7677609685
 40
0.8205432458
 40
0.8670921532
 40
0.9070689357
 40
0.9401827563
 40
0.9661928933
 40
0.9849107349
 40
0.9962021919
 40
1.0
 40
1.0
 40
1.0
 40
1.0
 10
-12.4767973222
 20
-10.0007627821
 30
0.0
 10
-12.4908166522
 20
-10.0028790124
 30
0.0
 10
-12.5187109206
 20
-10.0070959944
 30
0.0
 10
-12.5602333058
 20
-10.0133923248
 30
0.0
 10
-12.6010212637
 20
-10.0195965675
 30
0.0
 10
-12.6407778608
 20
-10.0256635448
 30
0.0
 10
-12.6792136645
 20
-10.0315490787
 30
0.0
 10
-12.7160488884
 20
-10.0372102895
 30
0.0
 10
-12.7510152962
 20
-10.0426059801
 30
0.0
 10
-12.7838586133
 20
-10.0476966771
 30
0.0
 10
-12.8143388277
 20
-10.0524457769
 30
0.0
 10
-12.8422370983
 20
-10.0568169272
 30
0.0
 10
-12.8673405537
 20
-10.0607836355
 30
0.0
 10
-12.8894971726
 20
-10.0642997073
 30
0.0
 10
-12.90845286
 20
-10.0673909426
 30
0.0
 10
-12.92433799
 20
-10.0698846559
 30
0.0
 10
-12.9363112961
 20
-10.0721658629
 30
0.0
 10
-12.9460643366
 20
-10.0732235101
 30
0.0
 10
-12.9498741434
 20
-10.0750767548
 30
0.0
 10
-12.9538510829
 20
-10.0746995421
 30
0.0
 10
-12.9537599698
 20
-10.0753038721
 30
0.0
 11
-12.4767973222
 21
-10.0007627821
 31
0.0
 11
-12.518853896
 21
-10.0071208473
 31
0.0
 11
-12.5604772631
 21
-10.0134326256
 31
0.0
 11
-12.6013644048
 21
-10.0196521673
 31
0.0
 11
-12.6412176622
 21
-10.025734194
 31
0.0
 11
-12.6797469032
 21
-10.0316344286
 31
0.0
 11
-12.7166716345
 21
-10.0373099172
 31
0.0
 11
-12.7517230435
 21
-10.0427193423
 31
0.0
 11
-12.7846459556
 21
-10.047823323
 31
0.0
 11
-12.8152006916
 21
-10.0525847025
 31
0.0
 11
-12.8431648128
 21
-10.0569688178
 31
0.0
 11
-12.8683347398
 21
-10.0609437525
 31
0.0
 11
-12.8905272355
 21
-10.064480569
 31
0.0
 11
-12.9095807381
 21
-10.0675535192
 31
0.0
 11
-12.9253565379
 21
-10.0701402321
 31
0.0
 11
-12.937739787
 21
-10.0722218764
 31
0.0
 11
-12.9466403351
 21
-10.0737832975
 31
0.0
 11
-12.9519933861
 21
-10.0748131285
 31
0.0
 11
-12.9537599698
 21
-10.0753038721
 31
0.0
  0
SPLINE
  5
31B
100
AcDbEntity
  8
0
100
AcDbSpline
 62
253
  6
CONTINUOUS
 70
0
 71
3
 72
25
 73
21
 74
19
 42
0.0000001
 43
0.0000001
 44
0.0000000001
 12
-0.026149326
 22
-0.4995673242
 32
0.0
 13
0.4995656586
 23
-0.0261811268
 33
0.0
 40
0.0
 40
0.0
 40
0.0
 40
0.0
 40
0.087003969
 40
0.1733342858
 40
0.2583362773
 40
0.3413653954
 40
0.4217921358
 40
0.4990068475
 40
0.572424402
 40
0.641488693
 40
0.7056769416
 40
0.7645037943
 40
0.8175252187
 40
0.8643422405
 40
0.9046046611
 40
0.9380151502
 40
0.9643349325
 40
0.9833956743
 40
0.9951425725
 40
1.0
 40
1.0
 40
1.0
 40
1.0
 10
-12.0085528958
 20
-10.4255364583
 30
0.0
 10
-12.0093112609
 20
-10.4400245716
 30
0.0
 10
-12.0107784193
 20
-10.468890927
 30
0.0
 10
-12.0128337425
 20
-10.5119196129
 30
0.0
 10
-12.0147251143
 20
-10.5542923666
 30
0.0
 10
-12.0164382355
 20
-10.5956874589
 30
0.0
 10
-12.0179601942
 20
-10.6357905883
 30
0.0
 10
-12.0192795691
 20
-10.6742972769
 30
0.0
 10
-12.0203865415
 20
-10.710915129
 30
0.0
 10
-12.0212729601
 20
-10.7453662524
 30
0.0
 10
-12.0219325571
 20
-10.777388704
 30
0.0
 10
-12.0223606807
 20
-10.8067407273
 30
0.0
 10
-12.0225557023
 20
-10.8331953239
 30
0.0
 10
-12.0225152852
 20
-10.8565652228
 30
0.0
 10
-12.0222491364
 20
-10.8766329996
 30
0.0
 10
-12.0217437336
 20
-10.8933647214
 30
0.0
 10
-12.0210669389
 20
-10.9063184059
 30
0.0
 10
-12.0201114065
 20
-10.9161939851
 30
0.0
 10
-12.0192238297
 20
-10.9213510552
 30
0.0
 10
-12.0180799936
 20
-10.9248088347
 30
0.0
 10
-12.0172711256
 20
-10.9248512257
 30
0.0
 11
-12.0085528958
 21
-10.4255364583
 31
0.0
 11
-12.010761922
 21
-10.4690042062
 31
0.0
 11
-12.0128216806
 21
-10.5121419068
 31
0.0
 11
-12.014716532
 21
-10.5546220185
 31
0.0
 11
-12.0164320886
 21
-10.5961219931
 31
0.0
 11
-12.0179553245
 21
-10.6363267243
 31
0.0
 11
-12.0192746738
 21
-10.6749309405
 31
0.0
 11
-12.0203801188
 21
-10.7116415229
 31
0.0
 11
-12.0212632658
 21
-10.7461797305
 31
0.0
 11
-12.0219174094
 21
-10.7782833174
 31
0.0
 11
-12.0223375825
 21
-10.8077085234
 31
0.0
 11
-12.0225205948
 21
-10.8342319251
 31
0.0
 11
-12.0224650568
 21
-10.8576521322
 31
0.0
 11
-12.0221713901
 21
-10.8777913169
 31
0.0
 11
-12.0216418245
 21
-10.8944965637
 31
0.0
 11
-12.020880381
 21
-10.907641031
 31
0.0
 11
-12.0198928412
 21
-10.9171249139
 31
0.0
 11
-12.0186867033
 21
-10.9228762018
 31
0.0
 11
-12.0172711256
 21
-10.9248512257
 31
0.0
  0
SPLINE
  5
31C
100
AcDbEntity
  8
ASSI
100
AcDbSpline
 62
253
  6
CONTINUOUS
 70
0
 71
3
 72
22
 73
18
 74
16
 42
0.0000001
 43
0.0000001
 44
0.0000000001
 12
-0.0021832472
 22
0.2504804114
 32
0.0
 13
0.2504803882
 23
0.0021859092
 33
0.0
 40
0.0
 40
0.0
 40
0.0
 40
0.0
 40
0.104302378
 40
0.2074605176
 40
0.3083460848
 40
0.4058557355
 40
0.4989232668
 40
0.5865313867
 40
0.6677229924
 40
0.7416118719
 40
0.8073927865
 40
0.8643509935
 40
0.9118715322
 40
0.9494494424
 40
0.9767055422
 40
0.9934335021
 40
1.0
 40
1.0
 40
1.0
 40
1.0
 10
-13.5508320487
 20
10.7366285395
 30
0.0
 10
-13.5509079547
 20
10.745337107
 30
0.0
 10
-13.5510274332
 20
10.7626589975
 30
0.0
 10
-13.5511103454
 20
10.7884047821
 30
0.0
 10
-13.5510957657
 20
10.8135835397
 30
0.0
 10
-13.55098395
 20
10.8379194971
 30
0.0
 10
-13.5507762724
 20
10.8611462458
 30
0.0
 10
-13.550475244
 20
10.8830091086
 30
0.0
 10
-13.5500844882
 20
10.9032698004
 30
0.0
 10
-13.5496089007
 20
10.9217028835
 30
0.0
 10
-13.5490543309
 20
10.9381181648
 30
0.0
 10
-13.548429076
 20
10.9523008493
 30
0.0
 10
-13.5477406674
 20
10.964199481
 30
0.0
 10
-13.5470081712
 20
10.973403789
 30
0.0
 10
-13.5462390776
 20
10.9805177538
 30
0.0
 10
-13.5455076207
 20
10.9840480698
 30
0.0
 10
-13.5448370681
 20
10.9866142357
 30
0.0
 10
-13.5442888084
 20
10.9866190203
 30
0.0
 11
-13.5508320487
 21
10.7366285395
 31
0.0
 11
-13.5510119926
 21
10.7627546148
 31
0.0
 11
-13.5510944112
 21
10.7885945581
 31
0.0
 11
-13.5510784019
 21
10.8138653713
 31
0.0
 11
-13.55096414
 21
10.8382902892
 31
0.0
 11
-13.5507528769
 21
10.861601811
 31
0.0
 11
-13.5504469264
 21
10.8835446297
 31
0.0
 11
-13.5500496392
 21
10.9038784282
 31
0.0
 11
-13.5495653664
 21
10.9223805116
 31
0.0
 11
-13.5489994118
 21
10.9388482457
 31
0.0
 11
-13.5483579736
 21
10.9531012765
 31
0.0
 11
-13.5476480769
 21
10.9649835054
 31
0.0
 11
-13.5468774964
 21
10.9743647988
 31
0.0
 11
-13.5460546716
 21
10.9811424131
 31
0.0
 11
-13.5451886139
 21
10.9852421202
 31
0.0
 11
-13.5442888084
 21
10.9866190203
 31
0.0
  0
LINE
  5
31D
100
AcDbEntity
  8
ASSI
100
AcDbLine
 62
253
  6
CONTINUOUS
 10
-13.5508301321
 20
10.7366285486
 11
-14.0333806289
 21
10.7343240922
  0
SPLINE
  5
31E
100
AcDbEntity
  8
ASSI
100
AcDbSpline
 62
253
  6
CONTINUOUS
 70
0
 71
3
 72
25
 73
21
 74
19
 42
0.0000001
 43
0.0000001
 44
0.0000000001
 12
-0.4773650572
 22
-0.072058679
 32
0.0
 13
0.0719729274
 23
-0.4773779936
 33
0.0
 40
0.0
 40
0.0
 40
0.0
 40
0.0
 40
0.0881044587
 40
0.1753073463
 40
0.2609738429
 40
0.3444803147
 40
0.4252188542
 40
0.5026017069
 40
0.5760655508
 40
0.6450755988
 40
0.7091294936
 40
0.7677609685
 40
0.8205432458
 40
0.8670921532
 40
0.9070689357
 40
0.9401827563
 40
0.9661928933
 40
0.9849107349
 40
0.9962021919
 40
1.0
 40
1.0
 40
1.0
 40
1.0
 10
-12.4767973222
 20
-10.0007627821
 30
0.0
 10
-12.4908166522
 20
-10.0028790124
 30
0.0
 10
-12.5187109206
 20
-10.0070959944
 30
0.0
 10
-12.5602333058
 20
-10.0133923248
 30
0.0
 10
-12.6010212637
 20
-10.0195965675
 30
0.0
 10
-12.6407778608
 20
-10.0256635448
 30
0.0
 10
-12.6792136645
 20
-10.0315490787
 30
0.0
 10
-12.7160488884
 20
-10.0372102895
 30
0.0
 10
-12.7510152962
 20
-10.0426059801
 30
0.0
 10
-12.7838586133
 20
-10.0476966771
 30
0.0
 10
-12.8143388277
 20
-10.0524457769
 30
0.0
 10
-12.8422370983
 20
-10.0568169272
 30
0.0
 10
-12.8673405537
 20
-10.0607836355
 30
0.0
 10
-12.8894971726
 20
-10.0642997073
 30
0.0
 10
-12.90845286
 20
-10.0673909426
 30
0.0
 10
-12.92433799
 20
-10.0698846559
 30
0.0
 10
-12.9363112961
 20
-10.0721658629
 30
0.0
 10
-12.9460643366
 20
-10.0732235101
 30
0.0
 10
-12.9498741434
 20
-10.0750767548
 30
0.0
 10
-12.9538510829
 20
-10.0746995421
 30
0.0
 10
-12.9537599698
 20
-10.0753038721
 30
0.0
 11
-12.4767973222
 21
-10.0007627821
 31
0.0
 11
-12.518853896
 21
-10.0071208473
 31
0.0
 11
-12.5604772631
 21
-10.0134326256
 31
0.0
 11
-12.6013644048
 21
-10.0196521673
 31
0.0
 11
-12.6412176622
 21
-10.025734194
 31
0.0
 11
-12.6797469032
 21
-10.0316344286
 31
0.0
 11
-12.7166716345
 21
-10.0373099172
 31
0.0
 11
-12.7517230435
 21
-10.0427193423
 31
0.0
 11
-12.7846459556
 21
-10.047823323
 31
0.0
 11
-12.8152006916
 21
-10.0525847025
 31
0.0
 11
-12.8431648128
 21
-10.0569688178
 31
0.0
 11
-12.8683347398
 21
-10.0609437525
 31
0.0
 11
-12.8905272355
 21
-10.064480569
 31
0.0
 11
-12.9095807381
 21
-10.0675535192
 31
0.0
 11
-12.9253565379
 21
-10.0701402321
 31
0.0
 11
-12.937739787
 21
-10.0722218764
 31
0.0
 11
-12.9466403351
 21
-10.0737832975
 31
0.0
 11
-12.9519933861
 21
-10.0748131285
 31
0.0
 11
-12.9537599698
 21
-10.0753038721
 31
0.0
  0
SPLINE
  5
31F
100
AcDbEntity
  8
ASSI
100
AcDbSpline
 62
253
  6
CONTINUOUS
 70
0
 71
3
 72
25
 73
21
 74
19
 42
0.0000001
 43
0.0000001
 44
0.0000000001
 12
-0.026149326
 22
-0.4995673242
 32
0.0
 13
0.4995656586
 23
-0.0261811268
 33
0.0
 40
0.0
 40
0.0
 40
0.0
 40
0.0
 40
0.087003969
 40
0.1733342858
 40
0.2583362773
 40
0.3413653954
 40
0.4217921358
 40
0.4990068475
 40
0.572424402
 40
0.641488693
 40
0.7056769416
 40
0.7645037943
 40
0.8175252187
 40
0.8643422405
 40
0.9046046611
 40
0.9380151502
 40
0.9643349325
 40
0.9833956743
 40
0.9951425725
 40
1.0
 40
1.0
 40
1.0
 40
1.0
 10
-12.0085528958
 20
-10.4255364583
 30
0.0
 10
-12.0093112609
 20
-10.4400245716
 30
0.0
 10
-12.0107784193
 20
-10.468890927
 30
0.0
 10
-12.0128337425
 20
-10.5119196129
 30
0.0
 10
-12.0147251143
 20
-10.5542923666
 30
0.0
 10
-12.0164382355
 20
-10.5956874589
 30
0.0
 10
-12.0179601942
 20
-10.6357905883
 30
0.0
 10
-12.0192795691
 20
-10.6742972769
 30
0.0
 10
-12.0203865415
 20
-10.710915129
 30
0.0
 10
-12.0212729601
 20
-10.7453662524
 30
0.0
 10
-12.0219325571
 20
-10.777388704
 30
0.0
 10
-12.0223606807
 20
-10.8067407273
 30
0.0
 10
-12.0225557023
 20
-10.8331953239
 30
0.0
 10
-12.0225152852
 20
-10.8565652228
 30
0.0
 10
-12.0222491364
 20
-10.8766329996
 30
0.0
 10
-12.0217437336
 20
-10.8933647214
 30
0.0
 10
-12.0210669389
 20
-10.9063184059
 30
0.0
 10
-12.0201114065
 20
-10.9161939851
 30
0.0
 10
-12.0192238297
 20
-10.9213510552
 30
0.0
 10
-12.0180799936
 20
-10.9248088347
 30
0.0
 10
-12.0172711256
 20
-10.9248512257
 30
0.0
 11
-12.0085528958
 21
-10.4255364583
 31
0.0
 11
-12.010761922
 21
-10.4690042062
 31
0.0
 11
-12.0128216806
 21
-10.5121419068
 31
0.0
 11
-12.014716532
 21
-10.5546220185
 31
0.0
 11
-12.0164320886
 21
-10.5961219931
 31
0.0
 11
-12.0179553245
 21
-10.6363267243
 31
0.0
 11
-12.0192746738
 21
-10.6749309405
 31
0.0
 11
-12.0203801188
 21
-10.7116415229
 31
0.0
 11
-12.0212632658
 21
-10.7461797305
 31
0.0
 11
-12.0219174094
 21
-10.7782833174
 31
0.0
 11
-12.0223375825
 21
-10.8077085234
 31
0.0
 11
-12.0225205948
 21
-10.8342319251
 31
0.0
 11
-12.0224650568
 21
-10.8576521322
 31
0.0
 11
-12.0221713901
 21
-10.8777913169
 31
0.0
 11
-12.0216418245
 21
-10.8944965637
 31
0.0
 11
-12.020880381
 21
-10.907641031
 31
0.0
 11
-12.0198928412
 21
-10.9171249139
 31
0.0
 11
-12.0186867033
 21
-10.9228762018
 31
0.0
 11
-12.0172711256
 21
-10.9248512257
 31
0.0
  0
LINE
  5
320
100
AcDbEntity
  8
CURVE
100
AcDbLine
 62
253
  6
CONTINUOUS
 10
-13.6924199334
 20
-3.5866848966
 11
-13.6938678642
 21
-3.5679074538
  0
ELLIPSE
  5
321
100
AcDbEntity
  8
RACCORDO
100
AcDbEllipse
 62
7
  6
CONTINUOUS
 10
4.3430556323
 20
-11.0497773407
 30
0.0
 11
0.2
 21
-0.0
 31
0.0
 40
0.0524077793
 41
1.5707963268
 42
2.617993878
  0
ELLIPSE
  5
322
100
AcDbEntity
  8
RACCORDO
100
AcDbEllipse
 62
7
  6
CONTINUOUS
 10
15.5430556323
 20
-11.0497773407
 30
0.0
 11
0.2
 21
0.0
 31
0.0
 40
0.0524077793
 41
1.5707963268
 42
2.617993878
  0
ELLIPSE
  5
323
100
AcDbEntity
  8
RACCORDO
100
AcDbEllipse
 62
7
  6
CONTINUOUS
 10
7.7121155246
 20
-11.0497773407
 30
0.0
 11
0.2
 21
0.0
 31
0.0
 40
0.0524077793
 41
0.5235987756
 42
1.5707963268
  0
ELLIPSE
  5
324
100
AcDbEntity
  8
RACCORDO
100
AcDbEllipse
 62
7
  6
CONTINUOUS
 10
18.9121155246
 20
-11.0497773407
 30
0.0
 11
0.2
 21
0.0
 31
0.0
 40
0.0524077793
 41
0.5235987756
 42
1.5707963268
  0
ELLIPSE
  5
325
100
AcDbEntity
  8
0
100
AcDbEllipse
 62
7
  6
CONTINUOUS
 10
22.2509762782
 20
-10.5777444329
 30
0.0
 11
0.4943891341
 21
0.0770133648
 31
0.0
 40
0.9960067742
 41
-1.7259388368
 42
-0.1569690096
  0
ELLIPSE
  5
326
100
AcDbEntity
  8
0
100
AcDbEllipse
 62
7
  6
CONTINUOUS
 10
1.0041948787
 20
-10.5777444329
 30
0.0
 11
0.4943891341
 21
-0.0770133648
 31
0.0
 40
0.9960067742
 41
-2.984623644
 42
-1.4156538168
  0
ELLIPSE
  5
327
100
AcDbEntity
  8
RACCORDO
100
AcDbEllipse
 62
7
  6
CONTINUOUS
 10
22.5274331924
 20
10.7820830266
 30
0.0
 11
0.2426981267
 21
0.0606514259
 31
0.0
 40
0.9993528196
 41
-0.2447368254
 42
1.3257549497
  0
ELLIPSE
  5
328
100
AcDbEntity
  8
RACCORDO
100
AcDbEllipse
 62
7
  6
CONTINUOUS
 10
0.7277379645
 20
10.7820830266
 30
0.0
 11
0.2426981267
 21
-0.0606514259
 31
0.0
 40
0.9993528196
 41
1.8158377039
 42
3.386329479
  0
ELLIPSE
  5
329
100
AcDbEntity
  8
ASSI
100
AcDbEllipse
 62
7
  6
CONTINUOUS
 10
4.3430556323
 20
-11.0497773407
 30
0.0
 11
0.2
 21
-0.0
 31
0.0
 40
0.0524077793
 41
1.5707963268
 42
2.617993878
  0
ELLIPSE
  5
32A
100
AcDbEntity
  8
ASSI
100
AcDbEllipse
 62
7
  6
CONTINUOUS
 10
15.5430556323
 20
-11.0497773407
 30
0.0
 11
0.2
 21
0.0
 31
0.0
 40
0.0524077793
 41
1.5707963268
 42
2.617993878
  0
ELLIPSE
  5
32B
100
AcDbEntity
  8
ASSI
100
AcDbEllipse
 62
7
  6
CONTINUOUS
 10
7.7121155246
 20
-11.0497773407
 30
0.0
 11
0.2
 21
0.0
 31
0.0
 40
0.0524077793
 41
0.5235987756
 42
1.5707963268
  0
ELLIPSE
  5
32C
100
AcDbEntity
  8
ASSI
100
AcDbEllipse
 62
7
  6
CONTINUOUS
 10
18.9121155246
 20
-11.0497773407
 30
0.0
 11
0.2
 21
0.0
 31
0.0
 40
0.0524077793
 41
0.5235987756
 42
1.5707963268
  0
ELLIPSE
  5
32D
100
AcDbEntity
  8
ASSI
100
AcDbEllipse
 62
7
  6
CONTINUOUS
 10
22.2509762782
 20
-10.5777444329
 30
0.0
 11
0.4943891341
 21
0.0770133648
 31
0.0
 40
0.9960067742
 41
-1.7259388368
 42
-0.1569690096
  0
ELLIPSE
  5
32E
100
AcDbEntity
  8
ASSI
100
AcDbEllipse
 62
7
  6
CONTINUOUS
 10
1.0041948787
 20
-10.5777444329
 30
0.0
 11
0.4943891341
 21
-0.0770133648
 31
0.0
 40
0.9960067742
 41
-2.984623644
 42
-1.4156538168
  0
ELLIPSE
  5
32F
100
AcDbEntity
  8
ASSI
100
AcDbEllipse
 62
7
  6
CONTINUOUS
 10
22.5274331924
 20
10.7820830266
 30
0.0
 11
0.2426981267
 21
0.0606514259
 31
0.0
 40
0.9993528196
 41
-0.2447368254
 42
1.3257549497
  0
ELLIPSE
  5
330
100
AcDbEntity
  8
ASSI
100
AcDbEllipse
 62
7
  6
CONTINUOUS
 10
0.7277379645
 20
10.7820830266
 30
0.0
 11
0.2426981267
 21
-0.0606514259
 31
0.0
 40
0.9993528196
 41
1.8158377039
 42
3.386329479
  0
ENDSEC
  0
SECTION
  2
OBJECTS
  0
DICTIONARY
  5
C
100
AcDbDictionary
280
0
281
1
  3
ACAD_GROUP
350
D
  3
ACAD_MLINESTYLE
350
17
  3
ACAD_LAYOUT
350
1A
  3
ACAD_PLOTSETTINGS
350
19
  3
ACAD_PLOTSTYLENAME
350
E
  0
DICTIONARY
  5
D
102
{ACAD_REACTORS
330
C
102
}
100
AcDbDictionary
280
0
281
1
  0
ACDBDICTIONARYWDFLT
  5
E
102
{ACAD_REACTORS
330
C
102
}
100
AcDbDictionary
281
1
  3
Normal
350
F
100
AcDbDictionaryWithDefault
340
F
  0
DICTIONARY
  5
17
102
{ACAD_REACTORS
330
C
102
}
100
AcDbDictionary
280
0
281
1
  3
Standard
350
18
  0
DICTIONARY
  5
19
102
{ACAD_REACTORS
330
C
102
}
100
AcDbDictionary
281
1
  0
DICTIONARY
  5
1A
102
{ACAD_REACTORS
330
C
102
}
100
AcDbDictionary
281
1
  3
Model
350
331
  3
Layout1
350
332
  0
ACDBPLACEHOLDER
  5
F
102
{ACAD_REACTORS
330
E
102
}
  0
MLINESTYLE
  5
18
102
{ACAD_REACTORS
330
17
102
}
100
AcDbMlineStyle
  2
STANDARD
 70
0
  3

 62
256
 51
90.0
 52
90.0
 71
2
 49
0.5
 62
256
  6
BYLAYER
 49
-0.5
 62
256
  6
BYLAYER
  0
LAYOUT
  5
331
102
{ACAD_REACTORS
330
1A
102
}
100
AcDbPlotSettings
  1

  2
none_device
  4
ISO_A4_(297.00_x_210.00_MM)
  6

 40
0.0
 41
0.0
 42
0.0
 43
0.0
 44
297.0
 45
210.0
 46
0.0
 47
0.0
 48
0.0
 49
0.0
140
0.0
141
0.0
142
1.0
143
1.0
 70
1024
 72
1
 73
0
 74
0
  7

 75
0
147
1.0
148
0.0
149
0.0
100
AcDbLayout
  1
Model
 70
0
 71
0
 10
0.0
 20
0.0
 11
297.0
 21
210.0
 12
0.0
 22
0.0
 32
0.0
 14
0.0
 24
0.0
 34
0.0
 15
0.0
 25
0.0
 35
0.0
146
0.0
 13
0.0
 23
0.0
 33
0.0
 16
1.0
 26
0.0
 36
0.0
 17
0.0
 27
1.0
 37
0.0
 76
0
330
21A
345
0
346
0
  0
LAYOUT
  5
332
102
{ACAD_REACTORS
330
1A
102
}
100
AcDbPlotSettings
  1

  2
none_device
  4
ISO_A4_(297.00_x_210.00_MM)
  6

 40
0.0
 41
0.0
 42
0.0
 43
0.0
 44
297.0
 45
210.0
 46
0.0
 47
0.0
 48
0.0
 49
0.0
140
0.0
141
0.0
142
1.0
143
1.0
 70
0
 72
1
 73
0
 74
0
  7

 75
0
147
1.0
148
0.0
149
0.0
100
AcDbLayout
  1
Layout1
 70
0
 71
1
 10
0.0
 20
0.0
 11
297.0
 21
210.0
 12
0.0
 22
0.0
 32
0.0
 14
0.0
 24
0.0
 34
0.0
 15
0.0
 25
0.0
 35
0.0
146
0.0
 13
0.0
 23
0.0
 33
0.0
 16
1.0
 26
0.0
 36
0.0
 17
0.0
 27
1.0
 37
0.0
 76
0
330
21B
345
0
346
0
  0
ENDSEC
  0
EOF
