  0
SECTION
  2
HEADER
  9
$ACADVER
  1
AC1015
  9
$DWGCODEPAGE
  3
ANSI_1252
  9
$EXTMAX
 10
297.0
 20
210.0
 30
0.0
  9
$EXTMIN
 10
0.0
 20
0.0
 30
0.0
  9
$LIMMIN
 10
0.0
 20
0.0
  9
$LIMMAX
 10
297.0
 20
210.0
  9
$VIEWCTR
 10
148.5
 20
105.0
  9
$VIEWSIZE
 40
210.0
  9
$CLAYER
  8
0
  9
$LTSCALE
 40
16.335
  9
$CELTYPE
  6
BYLAYER
  9
$DIMSCALE
 40
1.0
  9
$DIMASZ
 40
3.0
  9
$DIMEXO
 40
1.85625
  9
$DIMDLI
 40
11.286
  9
$DIMEXE
 40
5.346
  9
$DIMCEN
 40
2.673
  9
$DIMLFAC
 40
1.0
  9
$DIMBLK
  1
_FILLED
  9
$DIMTXT
 40
3.0
  9
$DIMTOL
 70
1
  9
$DIMLIM
 70
0
  9
$DIMTFAC
 40
1.0
  9
$DIMTP
 40
0.01
  9
$DIMTM
 40
0.01
  9
$PDMODE
 70
3
  9
$PDSIZE
 40
3.0
  9
$HANDSEED
  5
36B
  9
$TILEMODE
 70
1
  9
$MEASUREMENT
 70
1
  9
$INSUNITS
 70
4
  0
ENDSEC
  0
SECTION
  2
CLASSES
  0
CLASS
  1
ACDBDICTIONARYWDFLT
  2
AcDbDictionaryWithDefault
  3
AutoCAD 2000
 90
0
280
0
281
0
  0
CLASS
  1
ACDBPLACEHOLDER
  2
AcDbPlaceHolder
  3
AutoCAD 2000
 90
0
280
0
281
0
  0
CLASS
  1
LAYOUT
  2
AcDbLayout
  3
AutoCAD 2000
 90
0
280
0
281
0
  0
ENDSEC
  0
SECTION
  2
TABLES
  0
TABLE
  2
VPORT
  5
8
100
AcDbSymbolTable
 70
2
  0
VPORT
  5
1F4
100
AcDbSymbolTableRecord
100
AcDbViewportTableRecord
  2
*ACTIVE
 70
0
 10
0.0
 20
0.0
 11
1.0
 21
1.0
 12
148.5
 22
105.0
 13
0.0
 23
0.0
 14
1.0
 24
1.0
 15
0.0
 25
0.0
 16
0.0
 26
0.0
 36
1.0
 17
0.0
 27
0.0
 37
0.0
 40
210.0
 41
1.4142857143
 42
50.0
 43
0.0
 44
0.0
 50
0.0
 51
0.0
 71
0
 72
100
 73
1
 74
1
 75
0
 76
0
 77
0
 78
0
  0
ENDTAB
  0
TABLE
  2
LTYPE
  5
5
100
AcDbSymbolTable
 70
6
  0
LTYPE
  5
14
100
AcDbSymbolTableRecord
100
AcDbLinetypeTableRecord
  2
BYBLOCK
 70
0
  3

 72
65
 73
0
 40
0.0
  0
LTYPE
  5
15
100
AcDbSymbolTableRecord
100
AcDbLinetypeTableRecord
  2
BYLAYER
 70
0
  3

 72
65
 73
0
 40
0.0
  0
LTYPE
  5
16
100
AcDbSymbolTableRecord
100
AcDbLinetypeTableRecord
  2
CONTINUOUS
 70
64
  3
Solid line
 72
65
 73
0
 40
0.0
  0
LTYPE
  5
1F5
100
AcDbSymbolTableRecord
100
AcDbLinetypeTableRecord
  2
CENTER
 70
64
  3
____ _ ____ _ ____ _ ____ _ ____ _ ____ _ ____
 72
65
 73
4
 40
0.6
 49
0.375
 74
0
 49
-0.075
 74
0
 49
0.075
 74
0
 49
-0.075
 74
0
  0
LTYPE
  5
1F6
100
AcDbSymbolTableRecord
100
AcDbLinetypeTableRecord
  2
HIDDEN
 70
64
  3
- - - - - - - - - - - - - - - - - - - -
 72
65
 73
2
 40
0.2
 49
0.1
 74
0
 49
-0.1
 74
0
  0
LTYPE
  5
1F7
100
AcDbSymbolTableRecord
100
AcDbLinetypeTableRecord
  2
PHANTOM
 70
64
  3
_____ _ _ _____ _ _ _____ _ _ _____
 72
65
 73
6
 40
0.8
 49
0.45
 74
0
 49
-0.05
 74
0
 49
0.1
 74
0
 49
-0.05
 74
0
 49
0.1
 74
0
 49
-0.05
 74
0
  0
LTYPE
  5
1F8
100
AcDbSymbolTableRecord
100
AcDbLinetypeTableRecord
  2
DOT
 70
64
  3
. . . . . . . . . . . . . . . . . . . .
 72
65
 73
2
 40
0.2
 49
0.1
 74
0
 49
-0.1
 74
0
  0
LTYPE
  5
1F9
100
AcDbSymbolTableRecord
100
AcDbLinetypeTableRecord
  2
DASHED
 70
64
  3
- - - - - - - - - - - - - - - - - - - -
 72
65
 73
2
 40
0.2
 49
0.1
 74
0
 49
-0.1
 74
0
  0
ENDTAB
  0
TABLE
  2
LAYER
  5
2
100
AcDbSymbolTable
 70
36
  0
LAYER
  5
10
100
AcDbSymbolTableRecord
100
AcDbLayerTableRecord
  2
0
 70
0
 62
7
  6
CONTINUOUS
370
-3
390
F
  0
LAYER
  5
1FA
100
AcDbSymbolTableRecord
100
AcDbLayerTableRecord
  2
DEFAULT_1
 70
0
 62
7
  6
CENTER
370
-3
390
F
  0
LAYER
  5
1FB
100
AcDbSymbolTableRecord
100
AcDbLayerTableRecord
  2
DEFAULT_2
 70
0
 62
7
  6
HIDDEN
370
-3
390
F
  0
LAYER
  5
1FC
100
AcDbSymbolTableRecord
100
AcDbLayerTableRecord
  2
DEFAULT_3
 70
0
 62
7
  6
PHANTOM
370
-3
390
F
  0
LAYER
  5
1FD
100
AcDbSymbolTableRecord
100
AcDbLayerTableRecord
  2
ASSI
 70
0
 62
7
  6
CONTINUOUS
370
-3
390
F
  0
LAYER
  5
1FE
100
AcDbSymbolTableRecord
100
AcDbLayerTableRecord
  2
COLOR9
 70
0
 62
7
  6
CONTINUOUS
370
-3
390
F
  0
LAYER
  5
1FF
100
AcDbSymbolTableRecord
100
AcDbLayerTableRecord
  2
COORDINATE
 70
0
 62
7
  6
CONTINUOUS
370
-3
390
F
  0
LAYER
  5
200
100
AcDbSymbolTableRecord
100
AcDbLayerTableRecord
  2
COORD_ORIGINE
 70
0
 62
7
  6
CONTINUOUS
370
-3
390
F
  0
LAYER
  5
201
100
AcDbSymbolTableRecord
100
AcDbLayerTableRecord
  2
COPY_PUBLISH
 70
0
 62
7
  6
CONTINUOUS
370
-3
390
F
  0
LAYER
  5
202
100
AcDbSymbolTableRecord
100
AcDbLayerTableRecord
  2
COSMETIC
 70
0
 62
7
  6
CONTINUOUS
370
-3
390
F
  0
LAYER
  5
203
100
AcDbSymbolTableRecord
100
AcDbLayerTableRecord
  2
CURVE
 70
0
 62
7
  6
CONTINUOUS
370
-3
390
F
  0
LAYER
  5
204
100
AcDbSymbolTableRecord
100
AcDbLayerTableRecord
  2
DRAFT
 70
0
 62
7
  6
CONTINUOUS
370
-3
390
F
  0
LAYER
  5
205
100
AcDbSymbolTableRecord
100
AcDbLayerTableRecord
  2
IGES
 70
0
 62
7
  6
CONTINUOUS
370
-3
390
F
  0
LAYER
  5
206
100
AcDbSymbolTableRecord
100
AcDbLayerTableRecord
  2
IGS_SCRITTE
 70
0
 62
7
  6
CONTINUOUS
370
-3
390
F
  0
LAYER
  5
207
100
AcDbSymbolTableRecord
100
AcDbLayerTableRecord
  2
IMPORT_IGES
 70
0
 62
7
  6
CONTINUOUS
370
-3
390
F
  0
LAYER
  5
208
100
AcDbSymbolTableRecord
100
AcDbLayerTableRecord
  2
INTF_12
 70
0
 62
7
  6
CONTINUOUS
370
-3
390
F
  0
LAYER
  5
209
100
AcDbSymbolTableRecord
100
AcDbLayerTableRecord
  2
INTF_15
 70
0
 62
7
  6
CONTINUOUS
370
-3
390
F
  0
LAYER
  5
20A
100
AcDbSymbolTableRecord
100
AcDbLayerTableRecord
  2
INTF_3
 70
0
 62
7
  6
CONTINUOUS
370
-3
390
F
  0
LAYER
  5
20B
100
AcDbSymbolTableRecord
100
AcDbLayerTableRecord
  2
INTF_4
 70
0
 62
7
  6
CONTINUOUS
370
-3
390
F
  0
LAYER
  5
20C
100
AcDbSymbolTableRecord
100
AcDbLayerTableRecord
  2
INTF_YELLOW
 70
0
 62
7
  6
CONTINUOUS
370
-3
390
F
  0
LAYER
  5
20D
100
AcDbSymbolTableRecord
100
AcDbLayerTableRecord
  2
PIANI
 70
0
 62
7
  6
CONTINUOUS
370
-3
390
F
  0
LAYER
  5
20E
100
AcDbSymbolTableRecord
100
AcDbLayerTableRecord
  2
PIANI_ORIGINE
 70
0
 62
7
  6
CONTINUOUS
370
-3
390
F
  0
LAYER
  5
20F
100
AcDbSymbolTableRecord
100
AcDbLayerTableRecord
  2
PIANI_RIFERIMENTO
 70
0
 62
7
  6
CONTINUOUS
370
-3
390
F
  0
LAYER
  5
210
100
AcDbSymbolTableRecord
100
AcDbLayerTableRecord
  2
RACCORDO
 70
0
 62
7
  6
CONTINUOUS
370
-3
390
F
  0
LAYER
  5
211
100
AcDbSymbolTableRecord
100
AcDbLayerTableRecord
  2
SMUSSO
 70
0
 62
7
  6
CONTINUOUS
370
-3
390
F
  0
LAYER
  5
212
100
AcDbSymbolTableRecord
100
AcDbLayerTableRecord
  2
SNAPLINE
 70
0
 62
7
  6
CONTINUOUS
370
-3
390
F
  0
LAYER
  5
213
100
AcDbSymbolTableRecord
100
AcDbLayerTableRecord
  2
SOLIDO
 70
0
 62
7
  6
CONTINUOUS
370
-3
390
F
  0
LAYER
  5
214
100
AcDbSymbolTableRecord
100
AcDbLayerTableRecord
  2
SUPERFICI
 70
0
 62
7
  6
CONTINUOUS
370
-3
390
F
  0
LAYER
  5
215
100
AcDbSymbolTableRecord
100
AcDbLayerTableRecord
  2
TRASH
 70
0
 62
7
  6
CONTINUOUS
370
-3
390
F
  0
LAYER
  5
216
100
AcDbSymbolTableRecord
100
AcDbLayerTableRecord
  2
WHITE
 70
0
 62
7
  6
CONTINUOUS
370
-3
390
F
  0
LAYER
  5
217
100
AcDbSymbolTableRecord
100
AcDbLayerTableRecord
  2
XSEC_DATUMS
 70
0
 62
7
  6
CONTINUOUS
370
-3
390
F
  0
ENDTAB
  0
TABLE
  2
STYLE
  5
3
100
AcDbSymbolTable
 70
1
  0
STYLE
  5
11
100
AcDbSymbolTableRecord
100
AcDbTextStyleTableRecord
  2
STANDARD
 70
0
 40
0.0
 41
0.8
 50
0.0
 71
0
 42
0.2
  3
txt
  4

  0
STYLE
  5
218
100
AcDbSymbolTableRecord
100
AcDbTextStyleTableRecord
  2
TEXTSTYLE_1
 70
0
 40
0.0
 41
0.8
 50
0.0
 71
0
 42
0.2
  3
gdt
  4

  0
ENDTAB
  0
TABLE
  2
VIEW
  5
6
100
AcDbSymbolTable
 70
0
  0
ENDTAB
  0
TABLE
  2
UCS
  5
7
100
AcDbSymbolTable
 70
0
  0
ENDTAB
  0
TABLE
  2
APPID
  5
9
100
AcDbSymbolTable
 70
1
  0
APPID
  5
219
100
AcDbSymbolTableRecord
100
AcDbRegAppTableRecord
  2
ACAD
 70
0
  0
ENDTAB
  0
TABLE
  2
BLOCK_RECORD
  5
1
100
AcDbSymbolTable
 70
0
  0
BLOCK_RECORD
  5
21A
100
AcDbSymbolTableRecord
100
AcDbBlockTableRecord
  2
*Model_Space
  0
BLOCK_RECORD
  5
21B
100
AcDbSymbolTableRecord
100
AcDbBlockTableRecord
  2
*Paper_Space
  0
BLOCK_RECORD
  5
21C
100
AcDbSymbolTableRecord
100
AcDbBlockTableRecord
  2
_FILLED
  0
BLOCK_RECORD
  5
21D
100
AcDbSymbolTableRecord
100
AcDbBlockTableRecord
  2
*D0
  0
BLOCK_RECORD
  5
21E
100
AcDbSymbolTableRecord
100
AcDbBlockTableRecord
  2
*D1
  0
BLOCK_RECORD
  5
21F
100
AcDbSymbolTableRecord
100
AcDbBlockTableRecord
  2
*D2
  0
ENDTAB
  0
TABLE
  2
DIMSTYLE
  5
A
100
AcDbSymbolTable
 70
1
100
AcDbDimStyleTable
 71
0
  0
DIMSTYLE
105
220
100
AcDbSymbolTableRecord
100
AcDbDimStyleTableRecord
  2
STANDARD
 70
0
  3

  4

 40
1.0
 41
3.0
 42
0.0625
 43
0.38
 44
0.18
 45
0.0
 46
0.0
 47
0.01
 48
0.01
140
3.0
141
0.09
142
0.0
143
25.4
144
1.0
145
0.0
146
1.0
147
0.09
 71
1.0
 72
0.0
 73
0
 74
0
 75
0
 76
0
 77
1
 78
8
170
0
171
2
172
0
173
0
174
0
175
0
176
0
177
0
178
0
270
2
271
2
272
2
273
2
274
2
275
0
280
0
281
0
282
0
283
1
284
8
285
0
286
0
287
3
288
0
340
11
341
21C
342
21C
343
21C
344
21C
  0
DIMSTYLE
105
221
100
AcDbSymbolTableRecord
100
AcDbDimStyleTableRecord
  2
DIMSTYLE_1
 70
0
  3

  4

 40
1.0
 41
3.0
 42
0.0625
 43
0.38
 44
0.18
 45
0.0
 46
0.0
 47
0.0
 48
0.0
140
3.0
141
0.09
142
0.0
143
25.4
144
1.0
145
0.0
146
1.0
147
0.09
 71
0.0
 72
0.0
 73
0
 74
0
 75
0
 76
0
 77
1
 78
8
170
0
171
2
172
0
173
0
174
0
175
0
176
0
177
0
178
0
270
2
271
2
272
2
273
2
274
2
275
0
280
0
281
0
282
0
283
1
284
8
285
0
286
0
287
3
288
0
340
11
341
21C
342
21C
343
21C
344
21C
  0
DIMSTYLE
105
222
100
AcDbSymbolTableRecord
100
AcDbDimStyleTableRecord
  2
DIMSTYLE_2
 70
0
  3

  4

 40
1.0
 41
3.0
 42
0.0625
 43
0.38
 44
0.18
 45
0.0
 46
0.0
 47
0.0
 48
0.0
140
3.0
141
0.09
142
0.0
143
25.4
144
1.0
145
0.0
146
1.0
147
0.09
 71
0.0
 72
0.0
 73
0
 74
0
 75
0
 76
0
 77
1
 78
8
170
0
171
2
172
0
173
0
174
0
175
0
176
0
177
0
178
0
270
2
271
1
272
1
273
2
274
2
275
0
280
0
281
0
282
0
283
1
284
8
285
0
286
0
287
3
288
0
340
11
341
21C
342
21C
343
21C
344
21C
  0
ENDTAB
  0
ENDSEC
  0
SECTION
  2
BLOCKS
  0
BLOCK
  5
20
100
AcDbEntity
  8
0
100
AcDbBlockBegin
  2
*Model_Space
 70
0
 10
0.0
 20
0.0
 30
0.0
  3
*Model_Space
  1

  0
ENDBLK
  5
21
100
AcDbEntity
  8
0
100
AcDbBlockEnd
  0
BLOCK
  5
1C
100
AcDbEntity
  8
0
100
AcDbBlockBegin
  2
*Paper_Space
 70
0
 10
0.0
 20
0.0
 30
0.0
  3
*Paper_Space
  1

  0
ENDBLK
  5
1D
100
AcDbEntity
  8
0
100
AcDbBlockEnd
  0
BLOCK
  5
223
100
AcDbEntity
  8
0
100
AcDbBlockBegin
  2
_FILLED
 70
64
 10
0.0
 20
0.0
  3
_FILLED
  1

  0
SOLID
  5
224
100
AcDbEntity
  8
0
  6
BYBLOCK
 62
0
100
AcDbTrace
 10
0.0
 20
0.0
 11
-1.0
 21
0.3166666667
 12
-1.0
 22
-0.3166666667
 13
-1.0
 23
-0.3166666667
  0
ENDBLK
  5
225
100
AcDbEntity
  8
0
  6
BYBLOCK
 62
0
100
AcDbBlockEnd
  0
BLOCK
  5
226
100
AcDbEntity
  8
0
100
AcDbBlockBegin
 62
7
  6
CONTINUOUS
  2
*D0
 70
65
 10
0.0
 20
0.0
  3
*D0
  1

  0
MTEXT
  5
227
100
AcDbEntity
  8
0
100
AcDbMText
 62
7
  6
CONTINUOUS
  7
STANDARD
 71
2
 72
1
 10
14.3421958632
 20
22.8695408563
 30
0.0
 11
1.0
 21
0.0
 31
0.0
 44
0.9
  1
22,3
 40
3.0
 41
8.5714285714
  0
LINE
  5
228
100
AcDbEntity
  8
0
100
AcDbLine
 62
7
  6
CONTINUOUS
 10
25.4921958632
 20
11.3693674775
 11
25.4921958632
 21
20.6195408563
  0
LINE
  5
229
100
AcDbEntity
  8
0
100
AcDbLine
 62
7
  6
CONTINUOUS
 10
3.1921958632
 20
11.3693674775
 11
3.1921958632
 21
20.6195408563
  0
LINE
  5
22A
100
AcDbEntity
  8
0
100
AcDbLine
 62
7
  6
CONTINUOUS
 10
25.4921958632
 20
19.1195408563
 11
14.3421958632
 21
19.1195408563
  0
LINE
  5
22B
100
AcDbEntity
  8
0
100
AcDbLine
 62
7
  6
CONTINUOUS
 10
3.1921958632
 20
19.1195408563
 11
14.3421958632
 21
19.1195408563
  0
INSERT
  5
22C
100
AcDbEntity
  8
0
100
AcDbBlockReference
 62
7
  6
CONTINUOUS
  2
_FILLED
 10
25.4921958632
 20
19.1195408563
 41
3.0
 42
3.0
 43
3.0
  0
INSERT
  5
22D
100
AcDbEntity
  8
0
100
AcDbBlockReference
 62
7
  6
CONTINUOUS
  2
_FILLED
 10
3.1921958632
 20
19.1195408563
 41
3.0
 42
3.0
 43
3.0
 50
180.0
  0
ENDBLK
  5
22E
100
AcDbEntity
  8
0
  6
BYBLOCK
 62
0
100
AcDbBlockEnd
  0
BLOCK
  5
22F
100
AcDbEntity
  8
0
100
AcDbBlockBegin
 62
7
  6
CONTINUOUS
  2
*D1
 70
65
 10
0.0
 20
0.0
  3
*D1
  1

  0
MTEXT
  5
230
100
AcDbEntity
  8
0
100
AcDbMText
 62
7
  6
CONTINUOUS
  7
STANDARD
 71
2
 72
1
 10
29.7421958632
 20
0.065181886
 30
0.0
 11
0.0
 21
1.0
 31
0.0
 44
0.9
  1
22,1
 40
3.0
 41
8.1428571429
  0
LINE
  5
231
100
AcDbEntity
  8
0
100
AcDbLine
 62
7
  6
CONTINUOUS
 10
25.7421196615
 20
11.1193008563
 11
34.9921958632
 21
11.1193008563
  0
LINE
  5
232
100
AcDbEntity
  8
0
100
AcDbLine
 62
7
  6
CONTINUOUS
 10
25.4649776685
 20
-10.9889370843
 11
34.9921958632
 21
-10.9889370843
  0
LINE
  5
233
100
AcDbEntity
  8
0
100
AcDbLine
 62
7
  6
CONTINUOUS
 10
33.4921958632
 20
11.1193008563
 11
33.4921958632
 21
0.065181886
  0
LINE
  5
234
100
AcDbEntity
  8
0
100
AcDbLine
 62
7
  6
CONTINUOUS
 10
33.4921958632
 20
-10.9889370843
 11
33.4921958632
 21
0.065181886
  0
INSERT
  5
235
100
AcDbEntity
  8
0
100
AcDbBlockReference
 62
7
  6
CONTINUOUS
  2
_FILLED
 10
33.4921958632
 20
11.1193008563
 41
3.0
 42
3.0
 43
3.0
 50
90.0
  0
INSERT
  5
236
100
AcDbEntity
  8
0
100
AcDbBlockReference
 62
7
  6
CONTINUOUS
  2
_FILLED
 10
33.4921958632
 20
-10.9889370843
 41
3.0
 42
3.0
 43
3.0
 50
270.0
  0
ENDBLK
  5
237
100
AcDbEntity
  8
0
  6
BYBLOCK
 62
0
100
AcDbBlockEnd
  0
BLOCK
  5
238
100
AcDbEntity
  8
0
100
AcDbBlockBegin
 62
7
  6
CONTINUOUS
  2
*D2
 70
65
 10
0.0
 20
0.0
  3
*D2
  1

  0
MTEXT
  5
239
100
AcDbEntity
  8
0
100
AcDbMText
 62
7
  6
CONTINUOUS
  7
STANDARD
 71
2
 72
1
 10
-9.236928658
 20
22.9337878241
 30
0.0
 11
1.0
 21
0.0
 31
0.0
 44
0.9
  1
5,7
 40
3.0
 41
6.2142857143
  0
LINE
  5
23A
100
AcDbEntity
  8
0
100
AcDbLine
 62
7
  6
CONTINUOUS
 10
-6.3870077679
 20
11.3693674775
 11
-6.3870077679
 21
20.6837878241
  0
LINE
  5
23B
100
AcDbEntity
  8
0
100
AcDbLine
 62
7
  6
CONTINUOUS
 10
-12.0868495481
 20
11.3215324031
 11
-12.0868495481
 21
20.6837878241
  0
LINE
  5
23C
100
AcDbEntity
  8
0
100
AcDbLine
 62
7
  6
CONTINUOUS
 10
-6.3870077679
 20
19.1837878241
 11
-2.3870077679
 21
19.1837878241
  0
LINE
  5
23D
100
AcDbEntity
  8
0
100
AcDbLine
 62
7
  6
CONTINUOUS
 10
-2.3870077679
 20
19.1837878241
 11
-9.236928658
 21
19.1837878241
  0
LINE
  5
23E
100
AcDbEntity
  8
0
100
AcDbLine
 62
7
  6
CONTINUOUS
 10
-12.0868495481
 20
19.1837878241
 11
-16.0868495481
 21
19.1837878241
  0
LINE
  5
23F
100
AcDbEntity
  8
0
100
AcDbLine
 62
7
  6
CONTINUOUS
 10
-16.0868495481
 20
19.1837878241
 11
-9.236928658
 21
19.1837878241
  0
INSERT
  5
240
100
AcDbEntity
  8
0
100
AcDbBlockReference
 62
7
  6
CONTINUOUS
  2
_FILLED
 10
-6.3870077679
 20
19.1837878241
 41
3.0
 42
3.0
 43
3.0
 50
180.0
  0
INSERT
  5
241
100
AcDbEntity
  8
0
100
AcDbBlockReference
 62
7
  6
CONTINUOUS
  2
_FILLED
 10
-12.0868495481
 20
19.1837878241
 41
3.0
 42
3.0
 43
3.0
  0
ENDBLK
  5
242
100
AcDbEntity
  8
0
  6
BYBLOCK
 62
0
100
AcDbBlockEnd
  0
ENDSEC
  0
SECTION
  2
ENTITIES
  0
DIMENSION
  5
243
100
AcDbEntity
  8
0
100
AcDbDimension
 62
7
  6
CONTINUOUS
  2
*D0
 10
3.1921958632
 20
19.1195408563
 11
10.0564815775
 21
21.3695408563
 70
160
 71
2
 42
22.3
  3
DIMSTYLE_1
100
AcDbAlignedDimension
 13
25.4921958632
 23
11.3693674775
 14
3.1921958632
 24
11.3693674775
 50
180.0
100
AcDbRotatedDimension
  0
DIMENSION
  5
244
100
AcDbEntity
  8
0
100
AcDbDimension
 62
7
  6
CONTINUOUS
  2
*D1
 10
33.4921958632
 20
-10.9889370843
 11
33.066495586
 21
-3.5746616729
 70
160
 71
2
 42
22.1082379406
  3
DIMSTYLE_2
100
AcDbAlignedDimension
 13
25.7421196615
 23
11.1193008563
 14
25.4649776685
 24
-10.9889370843
 50
270.0
100
AcDbRotatedDimension
  0
DIMENSION
  5
245
100
AcDbEntity
  8
0
100
AcDbDimension
 62
7
  6
CONTINUOUS
  2
*D2
 10
-12.0868495481
 20
19.1837878241
 11
-12.3440715151
 21
21.4337878241
 70
160
 71
2
 42
5.6998417802
  3
DIMSTYLE_1
100
AcDbAlignedDimension
 13
-6.3870077679
 23
11.3693674775
 14
-12.0868495481
 24
11.3215324031
 50
180.0
100
AcDbRotatedDimension
  0
LINE
  5
246
100
AcDbEntity
  8
0
100
AcDbLine
 62
7
  6
CONTINUOUS
 10
3.2185031726
 20
-10.4914464514
 11
3.1921958632
 21
-1.8806991437
  0
LINE
  5
247
100
AcDbEntity
  8
ASSI
100
AcDbLine
 62
7
  6
CONTINUOUS
 10
3.2185031726
 20
-10.4914464514
 11
3.1921958632
 21
-1.8806991437
  0
LINE
  5
248
100
AcDbEntity
  8
RACCORDO
100
AcDbLine
 62
7
  6
CONTINUOUS
 10
3.1921958632
 20
10.8693674775
 11
3.1921958632
 21
-1.8806991437
  0
LINE
  5
249
100
AcDbEntity
  8
ASSI
100
AcDbLine
 62
7
  6
CONTINUOUS
 10
3.1921958632
 20
10.8693674775
 11
3.1921958632
 21
-1.8806991437
  0
LINE
  5
24A
100
AcDbEntity
  8
RACCORDO
100
AcDbLine
 62
253
  6
CONTINUOUS
 10
3.8740831171
 20
10.8215324028
 11
3.8740831171
 21
11.0717217681
  0
LINE
  5
24B
100
AcDbEntity
  8
ASSI
100
AcDbLine
 62
253
  6
CONTINUOUS
 10
3.8709399047
 20
1.7193008563
 11
3.8740831171
 21
11.0717217681
  0
LINE
  5
24C
100
AcDbEntity
  8
RACCORDO
100
AcDbLine
 62
7
  6
CONTINUOUS
 10
17.7362421623
 20
-10.9889370843
 11
18.0844608363
 21
-10.9573282527
  0
LINE
  5
24D
100
AcDbEntity
  8
ASSI
100
AcDbLine
 62
7
  6
CONTINUOUS
 10
17.7362421623
 20
-10.9889370843
 11
18.0844608363
 21
-10.9573282527
  0
LINE
  5
24E
100
AcDbEntity
  8
0
100
AcDbLine
 62
7
  6
CONTINUOUS
 10
24.9649776685
 20
-10.9889370843
 11
22.1481495641
 21
-10.9889370843
  0
LINE
  5
24F
100
AcDbEntity
  8
ASSI
100
AcDbLine
 62
7
  6
CONTINUOUS
 10
24.9649776685
 20
-10.9889370843
 11
22.1481495641
 21
-10.9889370843
  0
LINE
  5
250
100
AcDbEntity
  8
DRAFT
100
AcDbLine
 62
7
  6
CONTINUOUS
 10
17.7362421623
 20
-10.9889370843
 11
10.9481495641
 21
-10.9889370843
  0
LINE
  5
251
100
AcDbEntity
  8
ASSI
100
AcDbLine
 62
7
  6
CONTINUOUS
 10
17.7362421623
 20
-10.9889370843
 11
10.9481495641
 21
-10.9889370843
  0
LINE
  5
252
100
AcDbEntity
  8
0
100
AcDbLine
 62
7
  6
CONTINUOUS
 10
6.5362421623
 20
-10.9889370843
 11
3.719414058
 21
-10.9889370843
  0
LINE
  5
253
100
AcDbEntity
  8
ASSI
100
AcDbLine
 62
7
  6
CONTINUOUS
 10
6.5362421623
 20
-10.9889370843
 11
3.719414058
 21
-10.9889370843
  0
LINE
  5
254
100
AcDbEntity
  8
RACCORDO
100
AcDbLine
 62
7
  6
CONTINUOUS
 10
7.0576659171
 20
-10.9520874748
 11
10.4267258094
 21
-10.9520874748
  0
LINE
  5
255
100
AcDbEntity
  8
ASSI
100
AcDbLine
 62
7
  6
CONTINUOUS
 10
7.0576659171
 20
-10.9520874748
 11
10.4267258094
 21
-10.9520874748
  0
LINE
  5
256
100
AcDbEntity
  8
RACCORDO
100
AcDbLine
 62
7
  6
CONTINUOUS
 10
18.2576659171
 20
-10.9520874748
 11
21.6267258094
 21
-10.9520874748
  0
LINE
  5
257
100
AcDbEntity
  8
ASSI
100
AcDbLine
 62
7
  6
CONTINUOUS
 10
18.2576659171
 20
-10.9520874748
 11
21.6267258094
 21
-10.9520874748
  0
LINE
  5
258
100
AcDbEntity
  8
0
100
AcDbLine
 62
253
  6
CONTINUOUS
 10
3.8202255951
 20
-10.8376429156
 11
24.8641661313
 21
-10.8376429156
  0
LINE
  5
259
100
AcDbEntity
  8
ASSI
100
AcDbLine
 62
253
  6
CONTINUOUS
 10
3.8202255951
 20
-10.8376429156
 11
24.8641661313
 21
-10.8376429156
  0
LINE
  5
25A
100
AcDbEntity
  8
RACCORDO
100
AcDbLine
 62
7
  6
CONTINUOUS
 10
10.9481495641
 20
-10.9889370843
 11
10.5999308901
 21
-10.9573282527
  0
LINE
  5
25B
100
AcDbEntity
  8
ASSI
100
AcDbLine
 62
7
  6
CONTINUOUS
 10
10.9481495641
 20
-10.9889370843
 11
10.5999308901
 21
-10.9573282527
  0
LINE
  5
25C
100
AcDbEntity
  8
RACCORDO
100
AcDbLine
 62
7
  6
CONTINUOUS
 10
6.5362421623
 20
-10.9889370843
 11
6.8844608363
 21
-10.9573282527
  0
LINE
  5
25D
100
AcDbEntity
  8
ASSI
100
AcDbLine
 62
7
  6
CONTINUOUS
 10
6.5362421623
 20
-10.9889370843
 11
6.8844608363
 21
-10.9573282527
  0
LINE
  5
25E
100
AcDbEntity
  8
0
100
AcDbLine
 62
253
  6
CONTINUOUS
 10
3.8365770508
 20
-9.9880955633
 11
24.8478146756
 21
-9.9880955633
  0
LINE
  5
25F
100
AcDbEntity
  8
ASSI
100
AcDbLine
 62
253
  6
CONTINUOUS
 10
3.8365770508
 20
-9.9880955633
 11
24.8478146756
 21
-9.9880955633
  0
LINE
  5
260
100
AcDbEntity
  8
RACCORDO
100
AcDbLine
 62
7
  6
CONTINUOUS
 10
22.1481495641
 20
-10.9889370843
 11
21.7999308901
 21
-10.9573282527
  0
LINE
  5
261
100
AcDbEntity
  8
ASSI
100
AcDbLine
 62
7
  6
CONTINUOUS
 10
22.1481495641
 20
-10.9889370843
 11
21.7999308901
 21
-10.9573282527
  0
LINE
  5
262
100
AcDbEntity
  8
0
100
AcDbLine
 62
253
  6
CONTINUOUS
 10
3.2185031726
 20
-10.4914464514
 11
3.3205301816
 21
-10.3383281483
  0
LINE
  5
263
100
AcDbEntity
  8
ASSI
100
AcDbLine
 62
253
  6
CONTINUOUS
 10
3.2185031726
 20
-10.4914464514
 11
3.3205301816
 21
-10.3383281483
  0
LINE
  5
264
100
AcDbEntity
  8
0
100
AcDbLine
 62
253
  6
CONTINUOUS
 10
3.719414058
 20
-10.9889370843
 11
3.8202255951
 21
-10.8376429156
  0
LINE
  5
265
100
AcDbEntity
  8
ASSI
100
AcDbLine
 62
253
  6
CONTINUOUS
 10
3.719414058
 20
-10.9889370843
 11
3.8202255951
 21
-10.8376429156
  0
LINE
  5
266
100
AcDbEntity
  8
CURVE
100
AcDbLine
 62
253
  6
CONTINUOUS
 10
14.1717469168
 20
-0.1061061664
 11
14.1717469168
 21
-2.5314549234
  0
LINE
  5
267
100
AcDbEntity
  8
CURVE
100
AcDbLine
 62
253
  6
CONTINUOUS
 10
14.5717227665
 20
-2.531454988
 11
14.5717227665
 21
-0.1061062311
  0
LINE
  5
268
100
AcDbEntity
  8
0
100
AcDbLine
 62
253
  6
CONTINUOUS
 10
24.8134518218
 20
1.7193008563
 11
3.8709399047
 21
1.7193008563
  0
LINE
  5
269
100
AcDbEntity
  8
ASSI
100
AcDbLine
 62
253
  6
CONTINUOUS
 10
24.8134518218
 20
1.7193008563
 11
3.8709399047
 21
1.7193008563
  0
LINE
  5
26A
100
AcDbEntity
  8
0
100
AcDbLine
 62
253
  6
CONTINUOUS
 10
24.8641661313
 20
-10.8376429156
 11
24.9649776685
 21
-10.9889370843
  0
LINE
  5
26B
100
AcDbEntity
  8
ASSI
100
AcDbLine
 62
253
  6
CONTINUOUS
 10
24.8641661313
 20
-10.8376429156
 11
24.9649776685
 21
-10.9889370843
  0
LINE
  5
26C
100
AcDbEntity
  8
0
100
AcDbLine
 62
253
  6
CONTINUOUS
 10
25.3638615448
 20
-10.3383281483
 11
25.4658885539
 21
-10.4914464514
  0
LINE
  5
26D
100
AcDbEntity
  8
ASSI
100
AcDbLine
 62
253
  6
CONTINUOUS
 10
25.3638615448
 20
-10.3383281483
 11
25.4658885539
 21
-10.4914464514
  0
LINE
  5
26E
100
AcDbEntity
  8
0
100
AcDbLine
 62
7
  6
CONTINUOUS
 10
18.4940944068
 20
5.6193008563
 11
10.1902973197
 21
5.6193008563
  0
LINE
  5
26F
100
AcDbEntity
  8
RACCORDO
100
AcDbLine
 62
7
  6
CONTINUOUS
 10
18.4940944068
 20
5.6193008563
 11
10.1902973197
 21
5.6193008563
  0
LINE
  5
270
100
AcDbEntity
  8
ASSI
100
AcDbLine
 62
7
  6
CONTINUOUS
 10
18.4940944068
 20
5.6193008563
 11
10.1902973197
 21
5.6193008563
  0
LINE
  5
271
100
AcDbEntity
  8
RACCORDO
100
AcDbLine
 62
253
  6
CONTINUOUS
 10
25.4921958632
 20
10.8693674775
 11
25.310004037
 21
10.8238368663
  0
LINE
  5
272
100
AcDbEntity
  8
ASSI
100
AcDbLine
 62
253
  6
CONTINUOUS
 10
25.4921958632
 20
10.8693674775
 11
25.310004037
 21
10.8238368663
  0
LINE
  5
273
100
AcDbEntity
  8
RACCORDO
100
AcDbLine
 62
253
  6
CONTINUOUS
 10
25.2421196615
 20
11.1193008563
 11
25.0601562633
 21
11.0738273303
  0
LINE
  5
274
100
AcDbEntity
  8
ASSI
100
AcDbLine
 62
253
  6
CONTINUOUS
 10
25.2421196615
 20
11.1193008563
 11
25.0601562633
 21
11.0738273303
  0
LINE
  5
275
100
AcDbEntity
  8
0
100
AcDbLine
 62
7
  6
CONTINUOUS
 10
18.4934669339
 20
7.8193008563
 11
10.1909247925
 21
7.8193008563
  0
LINE
  5
276
100
AcDbEntity
  8
RACCORDO
100
AcDbLine
 62
7
  6
CONTINUOUS
 10
18.4934669339
 20
7.8193008563
 11
10.1909247925
 21
7.8193008563
  0
LINE
  5
277
100
AcDbEntity
  8
ASSI
100
AcDbLine
 62
7
  6
CONTINUOUS
 10
18.4934669339
 20
7.8193008563
 11
10.1909247925
 21
7.8193008563
  0
LINE
  5
278
100
AcDbEntity
  8
RACCORDO
100
AcDbLine
 62
253
  6
CONTINUOUS
 10
3.3743876895
 20
10.8238368663
 11
3.1921958632
 21
10.8693674775
  0
LINE
  5
279
100
AcDbEntity
  8
ASSI
100
AcDbLine
 62
253
  6
CONTINUOUS
 10
3.3743876895
 20
10.8238368663
 11
3.1921958632
 21
10.8693674775
  0
LINE
  5
27A
100
AcDbEntity
  8
RACCORDO
100
AcDbLine
 62
253
  6
CONTINUOUS
 10
3.6242354632
 20
11.0738273303
 11
3.442272065
 21
11.1193008563
  0
LINE
  5
27B
100
AcDbEntity
  8
ASSI
100
AcDbLine
 62
253
  6
CONTINUOUS
 10
3.6242354632
 20
11.0738273303
 11
3.442272065
 21
11.1193008563
  0
LINE
  5
27C
100
AcDbEntity
  8
RACCORDO
100
AcDbLine
 62
253
  6
CONTINUOUS
 10
24.8103086094
 20
10.8215324028
 11
24.8103086094
 21
11.0717217681
  0
LINE
  5
27D
100
AcDbEntity
  8
ASSI
100
AcDbLine
 62
253
  6
CONTINUOUS
 10
24.8134518218
 20
1.7193008563
 11
24.8103086094
 21
11.0717217681
  0
LINE
  5
27E
100
AcDbEntity
  8
DRAFT
100
AcDbLine
 62
7
  6
CONTINUOUS
 10
22.8546618538
 20
11.1193008563
 11
22.5921958632
 21
11.0931202529
  0
LINE
  5
27F
100
AcDbEntity
  8
ASSI
100
AcDbLine
 62
7
  6
CONTINUOUS
 10
22.8546618538
 20
11.1193008563
 11
22.5921958632
 21
11.0931202529
  0
LINE
  5
280
100
AcDbEntity
  8
DRAFT
100
AcDbLine
 62
7
  6
CONTINUOUS
 10
5.8297298726
 20
11.1193008563
 11
6.0921958632
 21
11.0931202529
  0
LINE
  5
281
100
AcDbEntity
  8
ASSI
100
AcDbLine
 62
7
  6
CONTINUOUS
 10
5.8297298726
 20
11.1193008563
 11
6.0921958632
 21
11.0931202529
  0
LINE
  5
282
100
AcDbEntity
  8
RACCORDO
100
AcDbLine
 62
7
  6
CONTINUOUS
 10
25.4921958632
 20
10.8693674775
 11
25.4921958632
 21
-1.8806991437
  0
LINE
  5
283
100
AcDbEntity
  8
ASSI
100
AcDbLine
 62
7
  6
CONTINUOUS
 10
25.4921958632
 20
10.8693674775
 11
25.4921958632
 21
-1.8806991437
  0
LINE
  5
284
100
AcDbEntity
  8
0
100
AcDbLine
 62
7
  6
CONTINUOUS
 10
25.4658885539
 20
-10.4914464514
 11
25.4921958632
 21
-1.8806991437
  0
LINE
  5
285
100
AcDbEntity
  8
ASSI
100
AcDbLine
 62
7
  6
CONTINUOUS
 10
25.4658885539
 20
-10.4914464514
 11
25.4921958632
 21
-1.8806991437
  0
LINE
  5
286
100
AcDbEntity
  8
RACCORDO
100
AcDbLine
 62
253
  6
CONTINUOUS
 10
24.810306779
 20
10.8215324028
 11
3.8740849475
 21
10.8215324028
  0
LINE
  5
287
100
AcDbEntity
  8
ASSI
100
AcDbLine
 62
253
  6
CONTINUOUS
 10
24.810306779
 20
10.8215324028
 11
3.8740849475
 21
10.8215324028
  0
LINE
  5
288
100
AcDbEntity
  8
RACCORDO
100
AcDbLine
 62
253
  6
CONTINUOUS
 10
24.8103086094
 20
11.0717217681
 11
3.8740831171
 21
11.0717217681
  0
LINE
  5
289
100
AcDbEntity
  8
ASSI
100
AcDbLine
 62
7
  6
CONTINUOUS
 10
24.8103086094
 20
11.0717217681
 11
3.8740831171
 21
11.0717217681
  0
LINE
  5
28A
100
AcDbEntity
  8
DRAFT
100
AcDbLine
 62
7
  6
CONTINUOUS
 10
22.5921958632
 20
11.0931202529
 11
6.0921958632
 21
11.0931202529
  0
LINE
  5
28B
100
AcDbEntity
  8
ASSI
100
AcDbLine
 62
7
  6
CONTINUOUS
 10
22.5921958632
 20
11.0931202529
 11
6.0921958632
 21
11.0931202529
  0
LINE
  5
28C
100
AcDbEntity
  8
RACCORDO
100
AcDbLine
 62
7
  6
CONTINUOUS
 10
25.2421196615
 20
11.1193008563
 11
22.8546618538
 21
11.1193008563
  0
LINE
  5
28D
100
AcDbEntity
  8
ASSI
100
AcDbLine
 62
7
  6
CONTINUOUS
 10
25.2421196615
 20
11.1193008563
 11
22.8546618538
 21
11.1193008563
  0
LINE
  5
28E
100
AcDbEntity
  8
RACCORDO
100
AcDbLine
 62
7
  6
CONTINUOUS
 10
5.8297298726
 20
11.1193008563
 11
3.442272065
 21
11.1193008563
  0
LINE
  5
28F
100
AcDbEntity
  8
ASSI
100
AcDbLine
 62
7
  6
CONTINUOUS
 10
5.8297298726
 20
11.1193008563
 11
3.442272065
 21
11.1193008563
  0
LINE
  5
290
100
AcDbEntity
  8
0
100
AcDbLine
 62
7
  6
CONTINUOUS
 10
-10.0707400443
 20
-10.8376429156
 11
-7.1838753324
 21
-10.9889370843
  0
LINE
  5
291
100
AcDbEntity
  8
ASSI
100
AcDbLine
 62
7
  6
CONTINUOUS
 10
-10.0707400443
 20
-10.8376429156
 11
-7.1838753324
 21
-10.9889370843
  0
LINE
  5
292
100
AcDbEntity
  8
0
100
AcDbLine
 62
253
  6
CONTINUOUS
 10
-10.0620218145
 20
-10.3383281483
 11
-7.1403505418
 21
-10.4914464514
  0
LINE
  5
293
100
AcDbEntity
  8
ASSI
100
AcDbLine
 62
253
  6
CONTINUOUS
 10
-10.0620218145
 20
-10.3383281483
 11
-7.1403505418
 21
-10.4914464514
  0
LINE
  5
294
100
AcDbEntity
  8
RACCORDO
100
AcDbLine
 62
253
  6
CONTINUOUS
 10
-6.8098834882
 20
-6.7141907449
 11
-6.7870077679
 21
-6.7141907449
  0
LINE
  5
295
100
AcDbEntity
  8
ASSI
100
AcDbLine
 62
253
  6
CONTINUOUS
 10
-6.8098834882
 20
-6.7141907449
 11
-6.7870077679
 21
-6.7141907449
  0
LINE
  5
296
100
AcDbEntity
  8
CURVE
100
AcDbLine
 62
253
  6
CONTINUOUS
 10
-11.7458755198
 20
-3.499663947
 11
-11.7326494388
 21
-3.6688540145
  0
LINE
  5
297
100
AcDbEntity
  8
CURVE
100
AcDbLine
 62
253
  6
CONTINUOUS
 10
-11.8087349714
 20
-2.6308376493
 11
-11.8018889441
 21
-2.7314393229
  0
LINE
  5
298
100
AcDbEntity
  8
CURVE
100
AcDbLine
 62
253
  6
CONTINUOUS
 10
-11.8876628337
 20
-1.3187805772
 11
-11.8873103771
 21
-1.3254474664
  0
LINE
  5
299
100
AcDbEntity
  8
CURVE
100
AcDbLine
 62
253
  6
CONTINUOUS
 10
-11.9292016675
 20
-0.4534792748
 11
-11.928960227
 21
-0.4590661215
  0
LINE
  5
29A
100
AcDbEntity
  8
RACCORDO
100
AcDbLine
 62
7
  6
CONTINUOUS
 10
-6.7870077679
 20
-6.7141889526
 11
-6.7870077679
 21
-6.4527200648
  0
LINE
  5
29B
100
AcDbEntity
  8
ASSI
100
AcDbLine
 62
7
  6
CONTINUOUS
 10
-6.7870077679
 20
-6.7141889526
 11
-6.7870077679
 21
-6.4527200648
  0
LINE
  5
29C
100
AcDbEntity
  8
RACCORDO
100
AcDbLine
 62
7
  6
CONTINUOUS
 10
-6.3870077679
 20
11.1193008563
 11
-6.3870077679
 21
-1.8806991437
  0
LINE
  5
29D
100
AcDbEntity
  8
ASSI
100
AcDbLine
 62
7
  6
CONTINUOUS
 10
-6.3870077679
 20
11.1193008563
 11
-6.3870077679
 21
-1.8806991437
  0
LINE
  5
29E
100
AcDbEntity
  8
0
100
AcDbLine
 62
253
  6
CONTINUOUS
 10
-11.5142896278
 20
1.7288008563
 11
-11.9967496212
 21
1.7193008563
  0
LINE
  5
29F
100
AcDbEntity
  8
ASSI
100
AcDbLine
 62
253
  6
CONTINUOUS
 10
-11.5142896278
 20
1.7288008563
 11
-11.9967496212
 21
1.7193008563
  0
LINE
  5
2A0
100
AcDbEntity
  8
0
100
AcDbLine
 62
7
  6
CONTINUOUS
 10
-7.1838753324
 20
-10.9889370843
 11
-6.3870077679
 21
-1.8806991437
  0
LINE
  5
2A1
100
AcDbEntity
  8
ASSI
100
AcDbLine
 62
7
  6
CONTINUOUS
 10
-7.1838753324
 20
-10.9889370843
 11
-6.3870077679
 21
-1.8806991437
  0
LINE
  5
2A2
100
AcDbEntity
  8
RACCORDO
100
AcDbLine
 62
253
  6
CONTINUOUS
 10
-6.3870077679
 20
10.8693674775
 11
-11.6042990508
 21
10.8238368663
  0
LINE
  5
2A3
100
AcDbEntity
  8
ASSI
100
AcDbLine
 62
253
  6
CONTINUOUS
 10
-6.3870077679
 20
10.8693674775
 11
-11.6042990508
 21
10.8238368663
  0
LINE
  5
2A4
100
AcDbEntity
  8
RACCORDO
100
AcDbLine
 62
7
  6
CONTINUOUS
 10
-6.3870077679
 20
11.1193008563
 11
-11.8390312609
 21
11.0717217681
  0
LINE
  5
2A5
100
AcDbEntity
  8
ASSI
100
AcDbLine
 62
7
  6
CONTINUOUS
 10
-6.3870077679
 20
11.1193008563
 11
-11.8390312609
 21
11.0717217681
  0
ARC
  5
2A6
100
AcDbEntity
  8
0
100
AcDbCircle
 62
253
  6
CONTINUOUS
 10
-2559.0843520649
 20
3.3837196373
 40
2562.9558253747
100
AcDbArc
 50
359.7010670072
 51
359.9627913298
  0
ARC
  5
2A7
100
AcDbEntity
  8
ASSI
100
AcDbCircle
 62
253
  6
CONTINUOUS
 10
-2559.0843520649
 20
3.3837196373
 40
2562.9558253747
100
AcDbArc
 50
359.7010670072
 51
359.9627913298
  0
ARC
  5
2A8
100
AcDbEntity
  8
0
100
AcDbCircle
 62
253
  6
CONTINUOUS
 10
2584.6267417184
 20
3.374500684
 40
2559.8138131214
100
AcDbArc
 50
180.0370479955
 51
180.2990935685
  0
ARC
  5
2A9
100
AcDbEntity
  8
ASSI
100
AcDbCircle
 62
253
  6
CONTINUOUS
 10
2584.6267417184
 20
3.374500684
 40
2559.8138131214
100
AcDbArc
 50
180.0370479955
 51
180.2990935685
  0
ARC
  5
2AA
100
AcDbEntity
  8
0
100
AcDbCircle
 62
253
  6
CONTINUOUS
 10
-2531.1862482456
 20
3.3839734813
 40
2534.5580261424
100
AcDbArc
 50
359.6993970068
 51
359.9625834519
  0
ARC
  5
2AB
100
AcDbEntity
  8
ASSI
100
AcDbCircle
 62
253
  6
CONTINUOUS
 10
-2531.1862482456
 20
3.3839734813
 40
2534.5580261424
100
AcDbArc
 50
359.6993970068
 51
359.9625834519
  0
ARC
  5
2AC
100
AcDbEntity
  8
0
100
AcDbCircle
 62
253
  6
CONTINUOUS
 10
2556.7634938739
 20
3.3748058678
 40
2531.4508698639
100
AcDbArc
 50
180.037254978
 51
180.3007644637
  0
ARC
  5
2AD
100
AcDbEntity
  8
ASSI
100
AcDbCircle
 62
253
  6
CONTINUOUS
 10
2556.7634938739
 20
3.3748058678
 40
2531.4508698639
100
AcDbArc
 50
180.037254978
 51
180.3007644637
  0
ARC
  5
2AE
100
AcDbEntity
  8
0
100
AcDbCircle
 62
7
  6
CONTINUOUS
 10
18.4901353986
 20
6.0177946549
 40
0.4020604646
100
AcDbArc
 50
356.6792916761
 51
359.9997135529
  0
ARC
  5
2AF
100
AcDbEntity
  8
0
100
AcDbCircle
 62
7
  6
CONTINUOUS
 10
10.1942563272
 20
6.0177946549
 40
0.4020604639
100
AcDbArc
 50
180.0002864503
 51
183.320685082
  0
ARC
  5
2B0
100
AcDbEntity
  8
0
100
AcDbCircle
 62
7
  6
CONTINUOUS
 10
18.493464428
 20
7.4177010552
 40
0.4015998011
100
AcDbArc
 50
86.677796853
 51
89.9996424861
  0
ARC
  5
2B1
100
AcDbEntity
  8
0
100
AcDbCircle
 62
7
  6
CONTINUOUS
 10
10.1909272984
 20
7.4177010562
 40
0.4015998001
100
AcDbArc
 50
90.0003575169
 51
93.3221812304
  0
ARC
  5
2B2
100
AcDbEntity
  8
0
100
AcDbCircle
 62
7
  6
CONTINUOUS
 10
10.1902993487
 20
6.0202074786
 40
0.4009066223
100
AcDbArc
 50
266.6769864153
 51
269.9997100212
  0
ARC
  5
2B3
100
AcDbEntity
  8
0
100
AcDbCircle
 62
7
  6
CONTINUOUS
 10
18.4940923777
 20
6.0202074779
 40
0.4009066216
100
AcDbArc
 50
270.0002899832
 51
273.322992132
  0
ARC
  5
2B4
100
AcDbEntity
  8
0
100
AcDbCircle
 62
7
  6
CONTINUOUS
 10
10.1930585256
 20
7.420806503
 40
0.4008626624
100
AcDbArc
 50
176.676085176
 51
179.9996299877
  0
ARC
  5
2B5
100
AcDbEntity
  8
0
100
AcDbCircle
 62
7
  6
CONTINUOUS
 10
18.4913332019
 20
7.4208065029
 40
0.4008626613
100
AcDbArc
 50
0.0003700158
 51
3.3238937694
  0
ARC
  5
2B6
100
AcDbEntity
  8
RACCORDO
100
AcDbCircle
 62
253
  6
CONTINUOUS
 10
25.0599824126
 20
10.8238255996
 40
0.2500126443
100
AcDbArc
 50
0.0025780661
 51
89.9601566426
  0
ARC
  5
2B7
100
AcDbEntity
  8
ASSI
100
AcDbCircle
 62
253
  6
CONTINUOUS
 10
25.0599824126
 20
10.8238255996
 40
0.2500126443
100
AcDbArc
 50
0.0025780661
 51
89.9601566426
  0
ARC
  5
2B8
100
AcDbEntity
  8
RACCORDO
100
AcDbCircle
 62
253
  6
CONTINUOUS
 10
3.6244092969
 20
10.8238255827
 40
0.2500126346
100
AcDbArc
 50
90.0398394759
 51
179.9974180571
  0
ARC
  5
2B9
100
AcDbEntity
  8
ASSI
100
AcDbCircle
 62
253
  6
CONTINUOUS
 10
3.6244092969
 20
10.8238255827
 40
0.2500126346
100
AcDbArc
 50
90.0398394759
 51
179.9974180571
  0
ARC
  5
2BA
100
AcDbEntity
  8
0
100
AcDbCircle
 62
7
  6
CONTINUOUS
 10
-10.018404088
 20
-9.8390133809
 40
1.0
100
AcDbArc
 50
188.5737414447
 51
267.0
  0
ARC
  5
2BB
100
AcDbEntity
  8
ASSI
100
AcDbCircle
 62
7
  6
CONTINUOUS
 10
-10.018404088
 20
-9.8390133809
 40
1.0
100
AcDbArc
 50
188.5737414447
 51
267.0
  0
ARC
  5
2BC
100
AcDbEntity
  8
0
100
AcDbCircle
 62
253
  6
CONTINUOUS
 10
-10.035853836
 20
-9.8390133804
 40
0.5000000005
100
AcDbArc
 50
188.5737414877
 51
266.999999957
  0
ARC
  5
2BD
100
AcDbEntity
  8
ASSI
100
AcDbCircle
 62
253
  6
CONTINUOUS
 10
-10.035853836
 20
-9.8390133804
 40
0.5000000005
100
AcDbArc
 50
188.5737414877
 51
266.999999957
  0
ARC
  5
2BE
100
AcDbEntity
  8
RACCORDO
100
AcDbCircle
 62
7
  6
CONTINUOUS
 10
-7.0870077679
 20
-6.7141907449
 40
0.3
100
AcDbArc
 50
334.9997013218
 51
0.0003423163
  0
ARC
  5
2BF
100
AcDbEntity
  8
ASSI
100
AcDbCircle
 62
7
  6
CONTINUOUS
 10
-7.0870077679
 20
-6.7141907449
 40
0.3
100
AcDbArc
 50
334.9997013218
 51
0.0003423163
  0
ARC
  5
2C0
100
AcDbEntity
  8
RACCORDO
100
AcDbCircle
 62
7
  6
CONTINUOUS
 10
-11.8368496129
 20
10.8217312874
 40
0.25
100
AcDbArc
 50
90.5000032275
 51
180.045580992
  0
ARC
  5
2C1
100
AcDbEntity
  8
ASSI
100
AcDbCircle
 62
7
  6
CONTINUOUS
 10
-11.8368496129
 20
10.8217312874
 40
0.25
100
AcDbArc
 50
90.5000032275
 51
180.045580992
  0
ARC
  5
2C2
100
AcDbEntity
  8
CURVE
100
AcDbCircle
 62
253
  6
CONTINUOUS
 10
77.7661272036
 20
3.4137732697
 40
89.7785786281
100
AcDbArc
 50
183.8601999837
 51
184.1383803767
  0
ARC
  5
2C3
100
AcDbEntity
  8
CURVE
100
AcDbCircle
 62
253
  6
CONTINUOUS
 10
77.6329908186
 20
3.4116551915
 40
89.6455489854
100
AcDbArc
 50
182.7543309138
 51
183.0248009791
  0
ARC
  5
2C4
100
AcDbEntity
  8
CURVE
100
AcDbCircle
 62
253
  6
CONTINUOUS
 10
77.6191300087
 20
3.41096254
 40
89.631670938
100
AcDbArc
 50
182.75433154
 51
183.0248997698
  0
ARC
  5
2C5
100
AcDbEntity
  8
CURVE
100
AcDbCircle
 62
253
  6
CONTINUOUS
 10
77.5893128447
 20
3.4071297872
 40
89.6016930117
100
AcDbArc
 50
183.027664689
 51
183.3037969823
  0
ARC
  5
2C6
100
AcDbEntity
  8
CURVE
100
AcDbCircle
 62
253
  6
CONTINUOUS
 10
77.5739691224
 20
3.4062766749
 40
89.5863256476
100
AcDbArc
 50
183.0276276053
 51
183.3038228807
  0
ARC
  5
2C7
100
AcDbEntity
  8
CURVE
100
AcDbCircle
 62
253
  6
CONTINUOUS
 10
77.3893146952
 20
3.390262719
 40
89.4010382376
100
AcDbArc
 50
183.5820405499
 51
183.861424491
  0
ARC
  5
2C8
100
AcDbEntity
  8
CURVE
100
AcDbCircle
 62
253
  6
CONTINUOUS
 10
77.3718436106
 20
3.4106901735
 40
89.3845595797
100
AcDbArc
 50
181.6413056057
 51
181.9191842835
  0
ARC
  5
2C9
100
AcDbEntity
  8
CURVE
100
AcDbCircle
 62
253
  6
CONTINUOUS
 10
77.3594692566
 20
3.3882878696
 40
89.3711276523
100
AcDbArc
 50
183.5820610132
 51
183.8615925347
  0
ARC
  5
2CA
100
AcDbEntity
  8
CURVE
100
AcDbCircle
 62
253
  6
CONTINUOUS
 10
77.3532845893
 20
3.4036353711
 40
89.3657620709
100
AcDbArc
 50
182.1981485558
 51
182.4741466273
  0
ARC
  5
2CB
100
AcDbEntity
  8
CURVE
100
AcDbCircle
 62
253
  6
CONTINUOUS
 10
77.3491398051
 20
3.4100114451
 40
89.3618456945
100
AcDbArc
 50
181.6413170104
 51
181.919191074
  0
ARC
  5
2CC
100
AcDbEntity
  8
CURVE
100
AcDbCircle
 62
253
  6
CONTINUOUS
 10
77.3486548185
 20
3.3811085571
 40
89.359835733
100
AcDbArc
 50
184.1380735538
 51
184.4148805583
  0
ARC
  5
2CD
100
AcDbEntity
  8
CURVE
100
AcDbCircle
 62
253
  6
CONTINUOUS
 10
77.332188171
 20
3.402831403
 40
89.3446505244
100
AcDbArc
 50
182.1954074362
 51
182.4742440481
  0
ARC
  5
2CE
100
AcDbEntity
  8
CURVE
100
AcDbCircle
 62
253
  6
CONTINUOUS
 10
77.3248100878
 20
3.3793016561
 40
89.3359227016
100
AcDbArc
 50
184.1380693981
 51
184.414916855
  0
ARC
  5
2CF
100
AcDbEntity
  8
CURVE
100
AcDbCircle
 62
253
  6
CONTINUOUS
 10
77.775797687
 20
3.4218257929
 40
89.7886619791
100
AcDbArc
 50
181.9190077086
 51
182.1965996453
  0
ARC
  5
2D0
100
AcDbEntity
  8
0
100
AcDbCircle
 62
7
  6
CONTINUOUS
 10
77.9870039123
 20
3.4293008563
 40
90.0
100
AcDbArc
 50
181.08868532
 51
188.5737414447
  0
ARC
  5
2D1
100
AcDbEntity
  8
ASSI
100
AcDbCircle
 62
7
  6
CONTINUOUS
 10
77.9870039123
 20
3.4293008563
 40
90.0
100
AcDbArc
 50
181.08868532
 51
188.5737414447
  0
ARC
  5
2D2
100
AcDbEntity
  8
CURVE
100
AcDbCircle
 62
253
  6
CONTINUOUS
 10
77.9870039123
 20
3.4293008563
 40
90.0
100
AcDbArc
 50
182.2512892611
 51
183.7975147837
  0
ARC
  5
2D3
100
AcDbEntity
  8
CURVE
100
AcDbCircle
 62
253
  6
CONTINUOUS
 10
77.9688917763
 20
3.4283458137
 40
89.9818627143
100
AcDbArc
 50
182.75526628
 51
183.0284707747
  0
ARC
  5
2D4
100
AcDbEntity
  8
CURVE
100
AcDbCircle
 62
253
  6
CONTINUOUS
 10
77.9348563623
 20
3.4272865195
 40
89.9478141409
100
AcDbArc
 50
182.1997402574
 51
182.4727731777
  0
ARC
  5
2D5
100
AcDbEntity
  8
CURVE
100
AcDbCircle
 62
253
  6
CONTINUOUS
 10
77.9337657816
 20
3.4257432685
 40
89.9466436607
100
AcDbArc
 50
183.5873117274
 51
183.8579133901
  0
ARC
  5
2D6
100
AcDbEntity
  8
CURVE
100
AcDbCircle
 62
253
  6
CONTINUOUS
 10
77.9292252461
 20
3.4267136982
 40
89.9421635179
100
AcDbArc
 50
182.4761256875
 51
182.7487280378
  0
ARC
  5
2D7
100
AcDbEntity
  8
CURVE
100
AcDbCircle
 62
253
  6
CONTINUOUS
 10
77.9290300559
 20
3.4261429336
 40
89.94194027
100
AcDbArc
 50
183.0284110071
 51
183.3032900903
  0
ARC
  5
2D8
100
AcDbEntity
  8
CURVE
100
AcDbCircle
 62
253
  6
CONTINUOUS
 10
77.9278832841
 20
3.4260807488
 40
89.9407918149
100
AcDbArc
 50
183.0283576457
 51
183.303300988
  0
ARC
  5
2D9
100
AcDbEntity
  8
CURVE
100
AcDbCircle
 62
253
  6
CONTINUOUS
 10
77.9247471231
 20
3.4261097152
 40
89.9376615602
100
AcDbArc
 50
182.7551828177
 51
183.0284816242
  0
ARC
  5
2DA
100
AcDbEntity
  8
CURVE
100
AcDbCircle
 62
253
  6
CONTINUOUS
 10
77.9243567457
 20
3.4254781025
 40
89.9372364021
100
AcDbArc
 50
183.3093372174
 51
183.581050817
  0
ARC
  5
2DB
100
AcDbEntity
  8
CURVE
100
AcDbCircle
 62
253
  6
CONTINUOUS
 10
77.9203994877
 20
3.4267052574
 40
89.9333456521
100
AcDbArc
 50
182.1996890571
 51
182.4728627395
  0
ARC
  5
2DC
100
AcDbEntity
  8
CURVE
100
AcDbCircle
 62
253
  6
CONTINUOUS
 10
77.9172404268
 20
3.4246614216
 40
89.9300830024
100
AcDbArc
 50
183.587245567
 51
183.8579589566
  0
ARC
  5
2DD
100
AcDbEntity
  8
CURVE
100
AcDbCircle
 62
253
  6
CONTINUOUS
 10
77.8179990092
 20
3.423318002
 40
89.8308895868
100
AcDbArc
 50
181.9191045674
 51
182.1965945815
  0
ARC
  5
2DE
100
AcDbEntity
  8
CURVE
100
AcDbCircle
 62
253
  6
CONTINUOUS
 10
77.8096599237
 20
3.4168359466
 40
89.8222188596
100
AcDbArc
 50
183.8604217071
 51
184.1382575756
  0
ARC
  5
2DF
100
AcDbEntity
  8
0
100
AcDbCircle
 62
253
  6
CONTINUOUS
 10
77.9695541635
 20
3.4293008563
 40
89.4999999996
100
AcDbArc
 50
181.08868532
 51
188.5737414447
  0
ARC
  5
2E0
100
AcDbEntity
  8
ASSI
100
AcDbCircle
 62
253
  6
CONTINUOUS
 10
77.9695541635
 20
3.4293008563
 40
89.4999999996
100
AcDbArc
 50
181.08868532
 51
188.5737414447
  0
ARC
  5
2E1
100
AcDbEntity
  8
CURVE
100
AcDbCircle
 62
253
  6
CONTINUOUS
 10
78.0783782765
 20
3.4334959645
 40
90.0914703578
100
AcDbArc
 50
182.4762927327
 51
182.7484850987
  0
ARC
  5
2E2
100
AcDbEntity
  8
CURVE
100
AcDbCircle
 62
253
  6
CONTINUOUS
 10
78.0665808917
 20
3.4340575032
 40
90.07971879
100
AcDbArc
 50
183.3095843385
 51
183.5808835041
  0
ARC
  5
2E3
100
AcDbEntity
  8
CURVE
100
AcDbCircle
 62
253
  6
CONTINUOUS
 10
78.2856848121
 20
3.4513926419
 40
90.2994964
100
AcDbArc
 50
184.1383975788
 51
184.4148842645
  0
ARC
  5
2E4
100
AcDbEntity
  8
CURVE
100
AcDbCircle
 62
253
  6
CONTINUOUS
 10
78.2742203059
 20
3.4505420041
 40
90.2880003945
100
AcDbArc
 50
184.1383171663
 51
184.4148923518
  0
ARC
  5
2E5
100
AcDbEntity
  8
RACCORDO
100
AcDbCircle
 62
7
  6
CONTINUOUS
 10
487.9129922321
 20
11.2193008563
 40
500.0
100
AcDbArc
 50
180.045580912
 51
181.08868532
  0
ARC
  5
2E6
100
AcDbEntity
  8
ASSI
100
AcDbCircle
 62
7
  6
CONTINUOUS
 10
487.9129922321
 20
11.2193008563
 40
500.0
100
AcDbArc
 50
180.045580912
 51
181.08868532
  0
ARC
  5
2E7
100
AcDbEntity
  8
RACCORDO
100
AcDbCircle
 62
253
  6
CONTINUOUS
 10
487.8782073756
 20
11.2190347819
 40
499.482663021
100
AcDbArc
 50
180.0453332552
 51
181.0886925858
  0
ARC
  5
2E8
100
AcDbEntity
  8
ASSI
100
AcDbCircle
 62
253
  6
CONTINUOUS
 10
487.8782073756
 20
11.2190347819
 40
499.482663021
100
AcDbArc
 50
180.0453332552
 51
181.0886925858
  0
LINE
  5
2E9
100
AcDbEntity
  8
0
100
AcDbLine
 62
7
  6
CONTINUOUS
 10
18.8921958632
 20
7.4208090917
 11
18.8921958632
 21
7.2129526687
  0
LINE
  5
2EA
100
AcDbEntity
  8
0
100
AcDbLine
 62
7
  6
CONTINUOUS
 10
18.8921958632
 20
7.2129526687
 11
18.8921958632
 21
7.1609886682
  0
LINE
  5
2EB
100
AcDbEntity
  8
0
100
AcDbLine
 62
7
  6
CONTINUOUS
 10
18.8921958632
 20
7.1609886682
 11
18.8921958632
 21
6.9531330621
  0
LINE
  5
2EC
100
AcDbEntity
  8
0
100
AcDbLine
 62
7
  6
CONTINUOUS
 10
18.8921958632
 20
6.9531330621
 11
18.8921958632
 21
6.7452782469
  0
LINE
  5
2ED
100
AcDbEntity
  8
0
100
AcDbLine
 62
7
  6
CONTINUOUS
 10
18.8921958632
 20
6.7452782469
 11
18.8921958632
 21
6.6933146424
  0
LINE
  5
2EE
100
AcDbEntity
  8
0
100
AcDbLine
 62
7
  6
CONTINUOUS
 10
18.8921958632
 20
6.6933146424
 11
18.8921958632
 21
6.485460735
  0
LINE
  5
2EF
100
AcDbEntity
  8
0
100
AcDbLine
 62
7
  6
CONTINUOUS
 10
18.8921958632
 20
6.485460735
 11
18.8921958632
 21
6.2776077599
  0
LINE
  5
2F0
100
AcDbEntity
  8
0
100
AcDbLine
 62
7
  6
CONTINUOUS
 10
18.8921958632
 20
6.2776077599
 11
18.8921958632
 21
6.2256446422
  0
LINE
  5
2F1
100
AcDbEntity
  8
0
100
AcDbLine
 62
7
  6
CONTINUOUS
 10
18.8921958632
 20
6.2256446422
 11
18.8921958632
 21
6.0177926448
  0
SPLINE
  5
2F2
100
AcDbEntity
  8
0
100
AcDbSpline
 62
7
  6
CONTINUOUS
 70
0
 71
3
 72
25
 73
21
 74
19
 42
0.0000001
 43
0.0000001
 44
0.0000000001
 12
-0.578414833
 22
0.033585452
 32
0.0
 13
-0.0335619525
 23
0.5784158551
 33
0.0
 40
0.0
 40
0.0
 40
0.0
 40
0.0
 40
0.0200514387
 40
0.0803270942
 40
0.1404453416
 40
0.2002856332
 40
0.2602499788
 40
0.3202499278
 40
0.3800671828
 40
0.4397602389
 40
0.4996674647
 40
0.5595882874
 40
0.6193181535
 40
0.6791887486
 40
0.7392639398
 40
0.7993237723
 40
0.8592712226
 40
0.9195041017
 40
0.9799050173
 40
1.0
 40
1.0
 40
1.0
 40
1.0
 10
10.1670607887
 20
5.6199749348
 30
0.0
 10
10.1631947722
 20
5.6201994136
 30
0.0
 10
10.1477199145
 20
5.6213232135
 30
0.0
 10
10.1208056667
 20
5.6248598971
 30
0.0
 10
10.0867912242
 20
5.6323935432
 30
0.0
 10
10.0536202249
 20
5.6428416473
 30
0.0
 10
10.0215058163
 20
5.6561304384
 30
0.0
 10
9.9906784824
 20
5.6721710504
 30
0.0
 10
9.9614138854
 20
5.6908138412
 30
0.0
 10
9.9338997896
 20
5.7119251904
 30
0.0
 10
9.9083174705
 20
5.7353703444
 30
0.0
 10
9.8848775386
 20
5.7609670926
 30
0.0
 10
9.863764528
 20
5.7885051696
 30
0.0
 10
9.8451150816
 20
5.8178033883
 30
0.0
 10
9.8290643999
 20
5.8486742577
 30
0.0
 10
9.815763991
 20
5.8808419388
 30
0.0
 10
9.8053049576
 20
5.9140737329
 30
0.0
 10
9.7977623601
 20
5.9481548305
 30
0.0
 10
9.7942211176
 20
5.9751236834
 30
0.0
 10
9.7930957439
 20
5.9906311059
 30
0.0
 10
9.792870935
 20
5.9945055247
 30
0.0
 11
10.1670607887
 21
5.6199749348
 31
0.0
 11
10.1554741017
 21
5.6208164821
 31
0.0
 11
10.1208633614
 21
5.6253653245
 31
0.0
 11
10.086870167
 21
5.6328953776
 31
0.0
 11
10.0538151088
 21
5.6433077968
 31
0.0
 11
10.0217260712
 21
5.6565868759
 31
0.0
 11
9.9909009343
 21
5.6726269447
 31
0.0
 11
9.9616832246
 21
5.6912402792
 31
0.0
 11
9.9342558639
 21
5.7122852826
 31
0.0
 11
9.9086776327
 21
5.7357266522
 31
0.0
 11
9.8852407723
 21
5.7613196937
 31
0.0
 11
9.8641930943
 21
5.78877187
 31
0.0
 11
9.8455734462
 21
5.8180221828
 31
0.0
 11
9.8295229753
 21
5.8488910276
 31
0.0
 11
9.8162314795
 21
5.8810347745
 31
0.0
 11
9.805807732
 21
5.91415133
 31
0.0
 11
9.798268761
 21
5.9482105462
 31
0.0
 11
9.7937137202
 21
5.9828936394
 31
0.0
 11
9.792870935
 21
5.9945055247
 31
0.0
  0
SPLINE
  5
2F3
100
AcDbEntity
  8
0
100
AcDbSpline
 62
7
  6
CONTINUOUS
 70
0
 71
3
 72
25
 73
21
 74
19
 42
0.0000001
 43
0.0000001
 44
0.0000000001
 12
0.0336205787
 22
0.5788763995
 32
0.0
 13
0.5788771578
 23
0.0336031692
 33
0.0
 40
0.0
 40
0.0
 40
0.0
 40
0.0
 40
0.0200416777
 40
0.0803005781
 40
0.1404186932
 40
0.2002719698
 40
0.2602592616
 40
0.3202893722
 40
0.380140933
 40
0.4398699628
 40
0.4998109175
 40
0.5597596722
 40
0.6195089209
 40
0.6793889892
 40
0.7394602604
 40
0.7995013133
 40
0.8594154143
 40
0.9195988866
 40
0.9799318234
 40
1.0
 40
1.0
 40
1.0
 40
1.0
 10
9.7928702333
 20
7.4440488096
 30
0.0
 10
9.7930948376
 20
7.4479160277
 30
0.0
 10
9.7942194481
 20
7.4633981159
 30
0.0
 10
9.7977592365
 20
7.4903286293
 30
0.0
 10
9.805300189
 20
7.5243691799
 30
0.0
 10
9.8157600864
 20
7.5575728369
 30
0.0
 10
9.8290653879
 20
7.5897242729
 30
0.0
 10
9.8451270656
 20
7.6205909694
 30
0.0
 10
9.8637949811
 20
7.6498954256
 30
0.0
 10
9.884934603
 20
7.6774480673
 30
0.0
 10
9.9084098632
 20
7.7030659711
 30
0.0
 10
9.9340368245
 20
7.7265371329
 30
0.0
 10
9.9616035828
 20
7.7476763033
 30
0.0
 10
9.990927211
 20
7.7663464437
 30
0.0
 10
10.0218185708
 20
7.7824123915
 30
0.0
 10
10.0540003503
 20
7.7957230842
 30
0.0
 10
10.0872388144
 20
7.8061882176
 30
0.0
 10
10.1213180018
 20
7.8137336176
 30
0.0
 10
10.1482805417
 20
7.8172757249
 30
0.0
 10
10.1637820464
 20
7.8184011657
 30
0.0
 10
10.1676543827
 20
7.8186259505
 30
0.0
 11
9.7928702333
 21
7.4440488096
 31
0.0
 11
9.7937122476
 21
7.4556390925
 31
0.0
 11
9.7982644797
 21
7.4902677087
 31
0.0
 11
9.8058018091
 21
7.5242876907
 31
0.0
 11
9.816226032
 21
7.5573759374
 31
0.0
 11
9.829521711
 21
7.5895025128
 31
0.0
 11
9.8455830507
 21
7.6203675695
 31
0.0
 11
9.864221712
 21
7.6496255223
 31
0.0
 11
9.885295398
 21
7.6770919538
 31
0.0
 11
9.9087673636
 21
7.7027062443
 31
0.0
 11
9.9343910599
 21
7.7261746354
 31
0.0
 11
9.961872132
 21
7.7472484896
 31
0.0
 11
9.9911484641
 21
7.7658890512
 31
0.0
 11
10.0220381303
 21
7.781954779
 31
0.0
 11
10.0541959836
 21
7.7952563657
 31
0.0
 11
10.0873194622
 21
7.8056860806
 31
0.0
 11
10.1213772795
 21
7.8132277633
 31
0.0
 11
10.1560487486
 21
7.8177832542
 31
0.0
 11
10.1676543827
 21
7.8186259505
 31
0.0
  0
SPLINE
  5
2F4
100
AcDbEntity
  8
0
100
AcDbSpline
 62
7
  6
CONTINUOUS
 70
0
 71
3
 72
25
 73
21
 74
19
 42
0.0000001
 43
0.0000001
 44
0.0000000001
 12
-0.0335621863
 22
-0.578415825
 32
0.0
 13
-0.5784148365
 23
-0.0335852348
 33
0.0
 40
0.0
 40
0.0
 40
0.0
 40
0.0
 40
0.0200941342
 40
0.080494816
 40
0.1407296603
 40
0.2006766753
 40
0.2607351258
 40
0.320810864
 40
0.3806828279
 40
0.4404119795
 40
0.5003317803
 40
0.5602400374
 40
0.6199337955
 40
0.6797496649
 40
0.7397490773
 40
0.7997148019
 40
0.8595555079
 40
0.9196717812
 40
0.9799476896
 40
1.0
 40
1.0
 40
1.0
 40
1.0
 10
18.891520782
 20
5.9945053619
 30
0.0
 10
18.891295981
 20
5.9906311068
 30
0.0
 10
18.8901706257
 20
5.9751238932
 30
0.0
 10
18.8866293878
 20
5.9481548688
 30
0.0
 10
18.8790867269
 20
5.9140735259
 30
0.0
 10
18.8686276397
 20
5.8808417204
 30
0.0
 10
18.8553273243
 20
5.8486742696
 30
0.0
 10
18.8392766123
 20
5.8178032995
 30
0.0
 10
18.820627016
 20
5.7885048992
 30
0.0
 10
18.7995140138
 20
5.7609669079
 30
0.0
 10
18.7760741746
 20
5.7353702629
 30
0.0
 10
18.7504917524
 20
5.7119250165
 30
0.0
 10
18.7229775752
 20
5.6908136622
 30
0.0
 10
18.6937131648
 20
5.6721710235
 30
0.0
 10
18.662885935
 20
5.6561304421
 30
0.0
 10
18.6307713004
 20
5.6428415581
 30
0.0
 10
18.5976003206
 20
5.6323935083
 30
0.0
 10
18.5635861275
 20
5.6248599238
 30
0.0
 10
18.5366720464
 20
5.6213232327
 30
0.0
 10
18.5211969724
 20
5.6201994132
 30
0.0
 10
18.5173307878
 20
5.6199749261
 30
0.0
 11
18.891520782
 21
5.9945053619
 31
0.0
 11
18.8906780348
 21
5.982893967
 31
0.0
 11
18.8861230461
 21
5.9482110044
 31
0.0
 11
18.8785838203
 21
5.9141506796
 31
0.0
 11
18.8681601035
 21
5.8810343796
 31
0.0
 11
18.8548689122
 21
5.8488913736
 31
0.0
 11
18.8388183129
 21
5.8180222394
 31
0.0
 11
18.8201982151
 21
5.788771274
 31
0.0
 11
18.7991507534
 21
5.7613194544
 31
0.0
 11
18.7757142923
 21
5.7357268508
 31
0.0
 11
18.7501356203
 21
5.7122850793
 31
0.0
 11
18.7227079101
 21
5.6912398648
 31
0.0
 11
18.6934908628
 21
5.6726269855
 31
0.0
 11
18.6626660119
 21
5.6565870421
 31
0.0
 11
18.6305762368
 21
5.6433076583
 31
0.0
 11
18.5975209367
 21
5.6328952109
 31
0.0
 11
18.563528858
 21
5.6253654114
 31
0.0
 11
18.5289179781
 21
5.6208165129
 31
0.0
 11
18.5173307878
 21
5.6199749261
 31
0.0
  0
SPLINE
  5
2F5
100
AcDbEntity
  8
0
100
AcDbSpline
 62
7
  6
CONTINUOUS
 70
0
 71
3
 72
25
 73
21
 74
19
 42
0.0000001
 43
0.0000001
 44
0.0000000001
 12
0.5788771349
 22
-0.0336033902
 32
0.0
 13
0.0336203657
 23
-0.5788764096
 33
0.0
 40
0.0
 40
0.0
 40
0.0
 40
0.0
 40
0.0200673121
 40
0.0803999929
 40
0.1405854283
 40
0.2004991081
 40
0.2605387869
 40
0.3206106022
 40
0.3804920415
 40
0.4402405814
 40
0.5001883132
 40
0.5601302958
 40
0.6198600277
 40
0.6797102083
 40
0.7397397796
 40
0.7997284436
 40
0.8595821308
 40
0.9196982792
 40
0.9799574461
 40
1.0
 40
1.0
 40
1.0
 40
1.0
 10
18.5167374972
 20
7.8186259416
 30
0.0
 10
18.5206096665
 20
7.818401165
 30
0.0
 10
18.5361109549
 20
7.8172757436
 30
0.0
 10
18.5630736594
 20
7.8137336437
 30
0.0
 10
18.5971530913
 20
7.8061881831
 30
0.0
 10
18.6303915715
 20
7.795722997
 30
0.0
 10
18.6625731251
 20
7.782412398
 30
0.0
 10
18.693464588
 20
7.7663464205
 30
0.0
 10
18.7227884
 20
7.7476761307
 30
0.0
 10
18.7503550749
 20
7.7265369687
 30
0.0
 10
18.775981934
 20
7.7030659003
 30
0.0
 10
18.7994572875
 20
7.6774478945
 30
0.0
 10
18.8205969161
 20
7.6498951716
 30
0.0
 10
18.8392646809
 20
7.6205909019
 30
0.0
 10
18.8553263288
 20
7.5897243106
 30
0.0
 10
18.8686317237
 20
7.5575726509
 30
0.0
 10
18.8790915682
 20
7.5243690141
 30
0.0
 10
18.8866324611
 20
7.4903287098
 30
0.0
 10
18.8901722584
 20
7.4633983581
 30
0.0
 10
18.891296889
 20
7.4479160497
 30
0.0
 10
18.8915215016
 20
7.4440486625
 30
0.0
 11
18.5167374972
 21
7.8186259416
 31
0.0
 11
18.5283426313
 21
7.8177832844
 31
0.0
 11
18.5630139577
 21
7.8132278494
 31
0.0
 11
18.5970728842
 21
7.8056859146
 31
0.0
 11
18.630196116
 21
7.79525623
 31
0.0
 11
18.6623532331
 21
7.7819549481
 31
0.0
 11
18.6932431885
 21
7.7658890938
 31
0.0
 11
18.722520176
 21
7.7472480826
 31
0.0
 11
18.7500008951
 21
7.7261744438
 31
0.0
 11
18.7756241538
 21
7.7027064532
 31
0.0
 11
18.7990965215
 21
7.6770917238
 31
0.0
 11
18.8201704201
 21
7.6496249429
 31
0.0
 11
18.8388086288
 21
7.6203676507
 31
0.0
 11
18.8548698435
 21
7.5895028818
 31
0.0
 11
18.8681658272
 21
7.5573755721
 31
0.0
 11
18.8785900794
 21
7.5242870855
 31
0.0
 11
18.8861271574
 21
7.4902682158
 31
0.0
 11
18.8906794475
 21
7.4556394517
 31
0.0
 11
18.8915215016
 21
7.4440486625
 31
0.0
  0
LINE
  5
2F6
100
AcDbEntity
  8
0
100
AcDbLine
 62
7
  6
CONTINUOUS
 10
9.7921958632
 20
6.0177926448
 11
9.7921958632
 21
6.2256446467
  0
LINE
  5
2F7
100
AcDbEntity
  8
0
100
AcDbLine
 62
7
  6
CONTINUOUS
 10
9.7921958632
 20
6.2256446467
 11
9.7921958632
 21
6.2776077638
  0
LINE
  5
2F8
100
AcDbEntity
  8
0
100
AcDbLine
 62
7
  6
CONTINUOUS
 10
9.7921958632
 20
6.2776077638
 11
9.7921958633
 21
6.4854607212
  0
LINE
  5
2F9
100
AcDbEntity
  8
0
100
AcDbLine
 62
7
  6
CONTINUOUS
 10
9.7921958633
 20
6.4854607212
 11
9.7921958633
 21
6.6933146497
  0
LINE
  5
2FA
100
AcDbEntity
  8
0
100
AcDbLine
 62
7
  6
CONTINUOUS
 10
9.7921958633
 20
6.6933146497
 11
9.7921958633
 21
6.7452782544
  0
LINE
  5
2FB
100
AcDbEntity
  8
0
100
AcDbLine
 62
7
  6
CONTINUOUS
 10
9.7921958633
 20
6.7452782544
 11
9.7921958633
 21
6.9531329897
  0
LINE
  5
2FC
100
AcDbEntity
  8
0
100
AcDbLine
 62
7
  6
CONTINUOUS
 10
9.7921958633
 20
6.9531329897
 11
9.7921958632
 21
7.1609886722
  0
LINE
  5
2FD
100
AcDbEntity
  8
0
100
AcDbLine
 62
7
  6
CONTINUOUS
 10
9.7921958632
 20
7.1609886722
 11
9.7921958632
 21
7.2129526732
  0
LINE
  5
2FE
100
AcDbEntity
  8
0
100
AcDbLine
 62
7
  6
CONTINUOUS
 10
9.7921958632
 20
7.2129526732
 11
9.7921958632
 21
7.4208090917
  0
LINE
  5
2FF
100
AcDbEntity
  8
RACCORDO
100
AcDbLine
 62
7
  6
CONTINUOUS
 10
18.8921958632
 20
7.4208090917
 11
18.8921958632
 21
7.1869706141
  0
LINE
  5
300
100
AcDbEntity
  8
RACCORDO
100
AcDbLine
 62
7
  6
CONTINUOUS
 10
18.8921958632
 20
7.1869706141
 11
18.8921958632
 21
6.9531330296
  0
LINE
  5
301
100
AcDbEntity
  8
RACCORDO
100
AcDbLine
 62
7
  6
CONTINUOUS
 10
18.8921958632
 20
6.9531330296
 11
18.8921958632
 21
6.7192963892
  0
LINE
  5
302
100
AcDbEntity
  8
RACCORDO
100
AcDbLine
 62
7
  6
CONTINUOUS
 10
18.8921958632
 20
6.7192963892
 11
18.8921958632
 21
6.4854607442
  0
LINE
  5
303
100
AcDbEntity
  8
RACCORDO
100
AcDbLine
 62
7
  6
CONTINUOUS
 10
18.8921958632
 20
6.4854607442
 11
18.8921958632
 21
6.2516261457
  0
LINE
  5
304
100
AcDbEntity
  8
RACCORDO
100
AcDbLine
 62
7
  6
CONTINUOUS
 10
18.8921958632
 20
6.2516261457
 11
18.8921958632
 21
6.0177926448
  0
LINE
  5
305
100
AcDbEntity
  8
RACCORDO
100
AcDbLine
 62
7
  6
CONTINUOUS
 10
9.7921958632
 20
6.0177926448
 11
9.7921958632
 21
7.4208090917
  0
SPLINE
  5
306
100
AcDbEntity
  8
RACCORDO
100
AcDbSpline
 62
7
  6
CONTINUOUS
 70
0
 71
3
 72
25
 73
21
 74
19
 42
0.0000001
 43
0.0000001
 44
0.0000000001
 12
-0.6256832202
 22
0.0
 32
0.0
 13
0.0
 23
0.6256832202
 33
0.0
 40
0.0
 40
0.0
 40
0.0
 40
0.0
 40
0.0556733582
 40
0.1114505503
 40
0.1670993388
 40
0.2225000448
 40
0.278013467
 40
0.3335579392
 40
0.3889329739
 40
0.4441938583
 40
0.4996537624
 40
0.5551262503
 40
0.6104212299
 40
0.6658457278
 40
0.721459882
 40
0.7770616371
 40
0.8325613724
 40
0.8883154579
 40
0.9442070521
 40
1.0
 40
1.0
 40
1.0
 40
1.0
 10
10.1902973197
 20
5.6193008563
 30
0.0
 10
10.1786860243
 20
5.6193008563
 30
0.0
 10
10.1554290789
 20
5.6203114496
 30
0.0
 10
10.1208335523
 20
5.624855111
 30
0.0
 10
10.0868189066
 20
5.6323860102
 30
0.0
 10
10.0536427027
 20
5.6428332773
 30
0.0
 10
10.0215222535
 20
5.6561226144
 30
0.0
 10
9.9906899639
 20
5.6721642744
 30
0.0
 10
9.9614209825
 20
5.6908087093
 30
0.0
 10
9.9339026966
 20
5.7119225575
 30
0.0
 10
9.9083164761
 20
5.7353711191
 30
0.0
 10
9.884873296
 20
5.7609719214
 30
0.0
 10
9.8637579478
 20
5.7885143412
 30
0.0
 10
9.8451070291
 20
5.8178170906
 30
0.0
 10
9.8290554935
 20
5.8486930336
 30
0.0
 10
9.8157547613
 20
5.8808668073
 30
0.0
 10
9.8052968376
 20
5.9141036678
 30
0.0
 10
9.7977572865
 20
5.9481844965
 30
0.0
 10
9.7932078346
 20
5.9828506524
 30
0.0
 10
9.7921958632
 20
6.0061564077
 30
0.0
 10
9.7921958632
 20
6.0177926448
 30
0.0
 11
10.1902973197
 21
5.6193008563
 31
0.0
 11
10.1554963374
 21
5.6208145428
 31
0.0
 11
10.1208947391
 21
5.6253597985
 31
0.0
 11
10.0868996953
 21
5.6328874714
 31
0.0
 11
10.053837209
 21
5.643299763
 31
0.0
 11
10.0217421907
 21
5.6565793652
 31
0.0
 11
9.9909124053
 21
5.6726203226
 31
0.0
 11
9.9616905271
 21
5.6912351657
 31
0.0
 11
9.934258987
 21
5.7122826623
 31
0.0
 11
9.9086767492
 21
5.735727536
 31
0.0
 11
9.8852365482
 21
5.7613247324
 31
0.0
 11
9.864186543
 21
5.7887812333
 31
0.0
 11
9.8455655442
 21
5.8180358817
 31
0.0
 11
9.8295143752
 21
5.8489094993
 31
0.0
 11
9.8162225773
 21
5.8810592825
 31
0.0
 11
9.8057991957
 21
5.9141832363
 31
0.0
 11
9.7982629003
 21
5.9482438488
 31
0.0
 11
9.7937116964
 21
5.9829168599
 31
0.0
 11
9.7921958632
 21
6.0177926448
 31
0.0
  0
SPLINE
  5
307
100
AcDbEntity
  8
RACCORDO
100
AcDbSpline
 62
7
  6
CONTINUOUS
 70
0
 71
3
 72
25
 73
21
 74
19
 42
0.0000001
 43
0.0000001
 44
0.0000000001
 12
-0.0
 22
0.6261321933
 32
0.0
 13
0.6261321933
 23
0.0
 33
0.0
 40
0.0
 40
0.0
 40
0.0
 40
0.0
 40
0.0556462765
 40
0.1114123659
 40
0.1670645122
 40
0.2224808987
 40
0.2780198863
 40
0.3335969858
 40
0.3890085547
 40
0.4443073417
 40
0.499802936
 40
0.5553057357
 40
0.6106232273
 40
0.6660612395
 40
0.7216764573
 40
0.7772651809
 40
0.8327377847
 40
0.8884496229
 40
0.9442824486
 40
1.0
 40
1.0
 40
1.0
 40
1.0
 10
9.7921958632
 20
7.4208090917
 30
0.0
 10
9.7921958632
 20
7.4324230668
 30
0.0
 10
9.7932073254
 20
7.4556887246
 30
0.0
 10
9.7977546274
 20
7.4903016967
 30
0.0
 10
9.8052928155
 20
7.5243420341
 30
0.0
 10
9.8157517721
 20
7.5575504893
 30
0.0
 10
9.8290575557
 20
7.5897078205
 30
0.0
 10
9.8451203142
 20
7.6205795399
 30
0.0
 10
9.8637899575
 20
7.6498884897
 30
0.0
 10
9.8849321508
 20
7.6774453771
 30
0.0
 10
9.9084108516
 20
7.7030671787
 30
0.0
 10
9.9340418929
 20
7.726541578
 30
0.0
 10
9.9616130667
 20
7.7476831076
 30
0.0
 10
9.9909413451
 20
7.7663547523
 30
0.0
 10
10.0218378615
 20
7.782421541
 30
0.0
 10
10.0540256207
 20
7.7957324548
 30
0.0
 10
10.0872687784
 20
7.8061963322
 30
0.0
 10
10.1213472537
 20
7.813738608
 30
0.0
 10
10.1560014763
 20
7.8182887281
 30
0.0
 10
10.1792959416
 20
7.8193008563
 30
0.0
 10
10.1909247925
 20
7.8193008563
 30
0.0
 11
9.7921958632
 21
7.4208090917
 31
0.0
 11
9.7937104148
 21
7.4556180831
 31
0.0
 11
9.7982591532
 21
7.49023747
 31
0.0
 11
9.8057940351
 21
7.5242586607
 31
0.0
 11
9.8162179993
 21
7.5573538423
 31
0.0
 11
9.8295141593
 21
7.5894863062
 31
0.0
 11
9.8455764486
 21
7.620356133
 31
0.0
 11
9.8642167297
 21
7.6496184067
 31
0.0
 11
9.8852929792
 21
7.6770890706
 31
0.0
 11
9.9087684625
 21
7.7027073429
 31
0.0
 11
9.9343963179
 21
7.7261790442
 31
0.0
 11
9.9618817811
 21
7.7472552423
 31
0.0
 11
9.9911626087
 21
7.7658972124
 31
0.0
 11
10.0220571802
 21
7.7819636509
 31
0.0
 11
10.0542210085
 21
7.7952654586
 31
0.0
 11
10.0873514498
 21
7.8056946419
 31
0.0
 11
10.1214100338
 21
7.8132335298
 31
0.0
 11
10.156071179
 21
7.8177852099
 31
0.0
 11
10.1909247925
 21
7.8193008563
 31
0.0
  0
SPLINE
  5
308
100
AcDbEntity
  8
RACCORDO
100
AcDbSpline
 62
7
  6
CONTINUOUS
 70
0
 71
3
 72
25
 73
21
 74
19
 42
0.0000001
 43
0.0000001
 44
0.0000000001
 12
0.0
 22
-0.6256832202
 32
0.0
 13
-0.6256832202
 23
0.0
 33
0.0
 40
0.0
 40
0.0
 40
0.0
 40
0.0
 40
0.0557950913
 40
0.1116884983
 40
0.1674453284
 40
0.2229447961
 40
0.2785453267
 40
0.3341599831
 40
0.3895856968
 40
0.4448800349
 40
0.5003515979
 40
0.5558124452
 40
0.6110739736
 40
0.6664477952
 40
0.7219917909
 40
0.7775064418
 40
0.8329073853
 40
0.8885533946
 40
0.9443287616
 40
1.0
 40
1.0
 40
1.0
 40
1.0
 10
18.8921958632
 20
6.0177926448
 30
0.0
 10
18.8921958632
 20
6.0061559607
 30
0.0
 10
18.891183817
 20
5.9828493787
 30
0.0
 10
18.8866340176
 20
5.9481818547
 30
0.0
 10
18.8790939877
 20
5.9141002094
 30
0.0
 10
18.8686356432
 20
5.8808632078
 30
0.0
 10
18.8553346964
 20
5.8486897488
 30
0.0
 10
18.8392828476
 20
5.8178138515
 30
0.0
 10
18.8206315151
 20
5.7885110964
 30
0.0
 10
18.799515925
 20
5.7609689558
 30
0.0
 10
18.7760725987
 20
5.7353684662
 30
0.0
 10
18.750486059
 20
5.7119200456
 30
0.0
 10
18.7229674893
 20
5.6908064371
 30
0.0
 10
18.6936985072
 20
5.6721624136
 30
0.0
 10
18.6628661649
 20
5.6561210655
 30
0.0
 10
18.6307453998
 20
5.6428319456
 30
0.0
 10
18.5975693482
 20
5.6323851055
 30
0.0
 10
18.5635555347
 20
5.6248546892
 30
0.0
 10
18.5289613812
 20
5.6203113752
 30
0.0
 10
18.50570526
 20
5.6193008563
 30
0.0
 10
18.4940944068
 20
5.6193008563
 30
0.0
 11
18.8921958632
 21
6.0177926448
 31
0.0
 11
18.8906799135
 21
5.9829155226
 31
0.0
 11
18.8861283968
 21
5.9482414085
 31
0.0
 11
18.8785914463
 21
5.9141791823
 31
0.0
 11
18.8681677737
 21
5.8810554955
 31
0.0
 11
18.8548759744
 21
5.848906542
 31
0.0
 11
18.8388243952
 21
5.8180327836
 31
0.0
 11
18.8202026965
 21
5.7887776789
 31
0.0
 11
18.7991526494
 21
5.7613217159
 31
0.0
 11
18.7757126039
 21
5.7357251618
 31
0.0
 11
18.7501297151
 21
5.712280125
 31
0.0
 11
18.7226976351
 21
5.6912326701
 31
0.0
 11
18.6934762108
 21
5.6726185272
 31
0.0
 11
18.6626465508
 21
5.6565779745
 31
0.0
 11
18.6305506995
 21
5.6432983752
 31
0.0
 11
18.5974879632
 21
5.6328863823
 31
0.0
 11
18.5634945541
 21
5.6253593701
 31
0.0
 11
18.5288940665
 21
5.6208144275
 31
0.0
 11
18.4940944068
 21
5.6193008563
 31
0.0
  0
SPLINE
  5
309
100
AcDbEntity
  8
RACCORDO
100
AcDbSpline
 62
7
  6
CONTINUOUS
 70
0
 71
3
 72
25
 73
21
 74
19
 42
0.0000001
 43
0.0000001
 44
0.0000000001
 12
0.6261321933
 22
0.0
 32
0.0
 13
-0.0
 23
-0.6261321933
 33
0.0
 40
0.0
 40
0.0
 40
0.0
 40
0.0
 40
0.0557196865
 40
0.1115543222
 40
0.16726891
 40
0.2227412555
 40
0.2783287553
 40
0.3339444681
 40
0.3893836966
 40
0.4447005512
 40
0.5002024237
 40
0.5556989543
 40
0.6109983787
 40
0.6664087318
 40
0.7219853485
 40
0.7775255617
 40
0.8329421921
 40
0.8885915724
 40
0.9443558468
 40
1.0
 40
1.0
 40
1.0
 40
1.0
 10
18.4934669339
 20
7.8193008563
 30
0.0
 10
18.5050962304
 20
7.8193008563
 30
0.0
 10
18.5283915206
 20
7.8182886534
 30
0.0
 10
18.5630471111
 20
7.8137381861
 30
0.0
 10
18.597126406
 20
7.8061954309
 30
0.0
 10
18.6303697079
 20
7.7957311315
 30
0.0
 10
18.6625571526
 20
7.7824200027
 30
0.0
 10
18.6934536221
 20
7.766352901
 30
0.0
 10
18.7227819059
 20
7.7476808427
 30
0.0
 10
18.7503528008
 20
7.7265390708
 30
0.0
 10
18.7759835284
 20
7.7030645258
 30
0.0
 10
18.7994620861
 20
7.6774424076
 30
0.0
 10
18.8206040381
 20
7.6498852392
 30
0.0
 10
18.8392732687
 20
7.620576292
 30
0.0
 10
18.8553357148
 20
7.5897045226
 30
0.0
 10
18.8686412821
 20
7.5575468764
 30
0.0
 10
18.8790998138
 20
7.5243385707
 30
0.0
 10
18.8866375206
 20
7.4902990602
 30
0.0
 10
18.8911844755
 20
7.4556874579
 30
0.0
 10
18.8921958632
 20
7.4324226236
 30
0.0
 10
18.8921958632
 20
7.4208090917
 30
0.0
 11
18.4934669339
 21
7.8193008563
 31
0.0
 11
18.5283218805
 21
7.8177850937
 31
0.0
 11
18.5629841276
 21
7.8132331012
 31
0.0
 11
18.5970443297
 21
7.8056935573
 31
0.0
 11
18.6301745093
 21
7.7952640811
 31
0.0
 11
18.6623375077
 21
7.7819622717
 31
0.0
 11
18.6932322161
 21
7.7658954247
 31
0.0
 11
18.7225135006
 21
7.7472527543
 31
0.0
 11
18.7499984278
 21
7.7261765126
 31
0.0
 11
18.7756256395
 21
7.7027049679
 31
0.0
 11
18.7991012833
 21
7.6770860476
 31
0.0
 11
18.8201774891
 21
7.6496148471
 31
0.0
 11
18.8388170693
 21
7.6203530295
 31
0.0
 11
18.8548789527
 21
7.5894833323
 31
0.0
 11
18.8681751104
 21
7.557350037
 31
0.0
 11
18.878598778
 21
7.524254602
 31
0.0
 11
18.8861330013
 21
7.4902350391
 31
0.0
 11
18.8906814273
 21
7.4556167574
 31
0.0
 11
18.8921958632
 21
7.4208090917
 31
0.0
  0
SPLINE
  5
30A
100
AcDbEntity
  8
RACCORDO
100
AcDbSpline
 62
253
  6
CONTINUOUS
 70
0
 71
3
 72
10
 73
6
 74
4
 42
0.0000001
 43
0.0000001
 44
0.0000000001
 12
0.0060355961
 22
9.0950346867
 32
0.0
 13
0.0002514557
 23
9.0950366859
 33
0.0
 40
0.0
 40
0.0
 40
0.0
 40
0.0
 40
0.33331324
 40
0.66664763
 40
1.0
 40
1.0
 40
1.0
 40
1.0
 10
3.3712444912
 20
1.7288008563
 30
0.0
 10
3.3719150725
 20
2.7392993494
 30
0.0
 10
3.3730419868
 20
4.7603606046
 30
0.0
 10
3.3740897621
 20
7.7920393404
 30
0.0
 10
3.3743597484
 20
9.8132195214
 30
0.0
 10
3.3743876895
 20
10.8238368663
 30
0.0
 11
3.3712444912
 21
1.7288008563
 31
0.0
 11
3.3729348535
 21
4.7602965318
 31
0.0
 11
3.3739826111
 21
7.7919848575
 31
0.0
 11
3.3743876895
 21
10.8238368663
 31
0.0
  0
SPLINE
  5
30B
100
AcDbEntity
  8
0
100
AcDbSpline
 62
253
  6
CONTINUOUS
 70
0
 71
3
 72
25
 73
21
 74
19
 42
0.0000001
 43
0.0000001
 44
0.0000000001
 12
0.4390248502
 22
-0.23920298
 32
0.0
 13
0.4999607732
 23
-0.0003316614
 33
0.0
 40
0.0
 40
0.0
 40
0.0
 40
0.0
 40
0.0068059321
 40
0.0207337758
 40
0.0417520194
 40
0.0697246347
 40
0.10445486
 40
0.1456934389
 40
0.1931423402
 40
0.246457634
 40
0.3052523085
 40
0.3690992429
 40
0.4375344016
 40
0.5100602612
 40
0.5861494626
 40
0.6652486693
 40
0.7467826077
 40
0.8301582634
 40
0.9147692045
 40
1.0
 40
1.0
 40
1.0
 40
1.0
 10
3.3712444912
 20
1.7288008563
 30
0.0
 10
3.3722404823
 20
1.7282581899
 30
0.0
 10
3.3757827791
 20
1.7278561375
 30
0.0
 10
3.3826042885
 20
1.7269810065
 30
0.0
 10
3.393113888
 20
1.7263069884
 30
0.0
 10
3.4070260948
 20
1.7255265481
 30
0.0
 10
3.4243405707
 20
1.7248034765
 30
0.0
 10
3.4448938073
 20
1.7240886573
 30
0.0
 10
3.4685502892
 20
1.7234100404
 30
0.0
 10
3.495133371
 20
1.7227665486
 30
0.0
 10
3.5244512116
 20
1.7221657936
 30
0.0
 10
3.5562900469
 20
1.721611821
 30
0.0
 10
3.5904183765
 20
1.721109149
 30
0.0
 10
3.6265878412
 20
1.7206615496
 30
0.0
 10
3.6645352816
 20
1.7202724268
 30
0.0
 10
3.7039845811
 20
1.7199446966
 30
0.0
 10
3.7446486979
 20
1.7196808098
 30
0.0
 10
3.7862317486
 20
1.7194827307
 30
0.0
 10
3.828431161
 20
1.7193519303
 30
0.0
 10
3.8567358865
 20
1.7193102789
 30
0.0
 10
3.8709399047
 20
1.7193008563
 30
0.0
 11
3.3712444912
 21
1.7288008563
 31
0.0
 11
3.3745493465
 21
1.7279907345
 31
0.0
 11
3.381466126
 21
1.7271865074
 31
0.0
 11
3.3919445006
 21
1.7263940269
 31
0.0
 11
3.4059082258
 21
1.7256190594
 31
0.0
 11
3.4232556963
 21
1.7248672439
 31
0.0
 11
3.4438606852
 21
1.7241440508
 31
0.0
 11
3.467573263
 21
1.7234547424
 31
0.0
 11
3.4942208881
 21
1.7228043343
 31
0.0
 11
3.5236096623
 21
1.7221975591
 31
0.0
 11
3.5555257418
 21
1.7216388321
 31
0.0
 11
3.5897368933
 21
1.7211322186
 31
0.0
 11
3.6259941835
 21
1.720681405
 31
0.0
 11
3.6640337909
 21
1.7202896715
 31
0.0
 11
3.7035789249
 21
1.7199598687
 31
0.0
 11
3.7443418403
 21
1.7196943962
 31
0.0
 11
3.7860259307
 21
1.7194951857
 31
0.0
 11
3.8283278872
 21
1.7193636868
 31
0.0
 11
3.8709399047
 21
1.7193008563
 31
0.0
  0
SPLINE
  5
30C
100
AcDbEntity
  8
RACCORDO
100
AcDbSpline
 62
253
  6
CONTINUOUS
 70
0
 71
3
 72
10
 73
6
 74
4
 42
0.0000001
 43
0.0000001
 44
0.0000000001
 12
0.0060343306
 22
9.1022302253
 32
0.0
 13
0.0002526151
 23
9.102232222
 33
0.0
 40
0.0
 40
0.0
 40
0.0
 40
0.0
 40
0.3333130829
 40
0.6666473215
 40
1.0
 40
1.0
 40
1.0
 40
1.0
 10
3.8709399047
 20
1.7193008563
 30
0.0
 10
3.8716103451
 20
2.7305983289
 30
0.0
 10
3.8727373206
 20
4.7532576107
 30
0.0
 10
3.8737839404
 20
7.7873348588
 30
0.0
 10
3.8740568775
 20
9.8101145722
 30
0.0
 10
3.8740849475
 20
10.8215324028
 30
0.0
 11
3.8709399047
 21
1.7193008563
 31
0.0
 11
3.8726299794
 21
4.7531934702
 31
0.0
 11
3.8736777194
 21
7.787278937
 31
0.0
 11
3.8740849475
 21
10.8215324028
 31
0.0
  0
SPLINE
  5
30D
100
AcDbEntity
  8
RACCORDO
100
AcDbSpline
 62
253
  6
CONTINUOUS
 70
0
 71
3
 72
25
 73
21
 74
19
 42
0.0000001
 43
0.0000001
 44
0.0000000001
 12
-0.4997136625
 22
0.0000069763
 32
0.0
 13
-0.4951377735
 23
0.0674709552
 33
0.0
 40
0.0
 40
0.0
 40
0.0
 40
0.0
 40
0.085271627
 40
0.1699228858
 40
0.2533392761
 40
0.334911862
 40
0.4140477186
 40
0.4901712172
 40
0.5627281194
 40
0.6311904874
 40
0.6950603256
 40
0.7538728639
 40
0.8072001514
 40
0.8546543022
 40
0.8958900524
 40
0.9306072984
 40
0.958553747
 40
0.9795266151
 40
0.9933739673
 40
1.0
 40
1.0
 40
1.0
 40
1.0
 10
3.8740849475
 20
10.8215324023
 30
0.0
 10
3.8598811484
 20
10.8215326006
 30
0.0
 10
3.8315768856
 20
10.8215387259
 30
0.0
 10
3.7893778602
 20
10.8215650822
 30
0.0
 10
3.7477950028
 20
10.8216083996
 30
0.0
 10
3.7071308742
 20
10.8216683513
 30
0.0
 10
3.6676815607
 20
10.8217444921
 30
0.0
 10
3.6297340378
 20
10.821836248
 30
0.0
 10
3.5935644574
 20
10.8219429303
 30
0.0
 10
3.5594360393
 20
10.822063721
 30
0.0
 10
3.5275971073
 20
10.8221977194
 30
0.0
 10
3.498279316
 20
10.8223437985
 30
0.0
 10
3.4716960359
 20
10.8225010644
 30
0.0
 10
3.4480405666
 20
10.8226673515
 30
0.0
 10
3.4274854473
 20
10.8228438263
 30
0.0
 10
3.4101790782
 20
10.8230209223
 30
0.0
 10
3.3962505877
 20
10.8232181257
 30
0.0
 10
3.3857928286
 20
10.8233759549
 30
0.0
 10
3.3788998011
 20
10.8236118984
 30
0.0
 10
3.3754812892
 20
10.8236878371
 30
0.0
 10
3.3743876895
 20
10.8238368586
 30
0.0
 11
3.8740849475
 21
10.8215324023
 31
0.0
 11
3.8314735514
 21
10.8215416575
 31
0.0
 11
3.7891721691
 21
10.8215681732
 31
0.0
 11
3.747487882
 21
10.8216117586
 31
0.0
 11
3.706724991
 21
10.8216720932
 31
0.0
 11
3.6671797966
 21
10.8217487385
 31
0.0
 11
3.6291399565
 21
10.8218411352
 31
0.0
 11
3.5928824404
 21
10.8219486095
 31
0.0
 11
3.5586710764
 21
10.8220703774
 31
0.0
 11
3.5267547319
 21
10.8222055515
 31
0.0
 11
3.4973656736
 21
10.8223531462
 31
0.0
 11
3.4707177734
 21
10.8225120857
 31
0.0
 11
3.4470048891
 21
10.822681212
 31
0.0
 11
3.4263995908
 21
10.8228592926
 31
0.0
 11
3.409051903
 21
10.8230450301
 31
0.0
 11
3.3950880012
 21
10.8232370698
 31
0.0
 11
3.3846094232
 21
10.8234340207
 31
0.0
 11
3.3776926149
 21
10.8236344295
 31
0.0
 11
3.3743876895
 21
10.8238368586
 31
0.0
  0
SPLINE
  5
30E
100
AcDbEntity
  8
0
100
AcDbSpline
 62
253
  6
CONTINUOUS
 70
0
 71
3
 72
25
 73
21
 74
19
 42
0.0000001
 43
0.0000001
 44
0.0000000001
 12
0.1156726251
 22
-0.5000143338
 32
0.0
 13
0.5132129288
 23
-0.0026419615
 33
0.0
 40
0.0
 40
0.0
 40
0.0
 40
0.0
 40
0.0139486785
 40
0.0321748852
 40
0.0558987827
 40
0.0855593295
 40
0.1212490579
 40
0.1628831388
 40
0.2102678154
 40
0.263131883
 40
0.3211434014
 40
0.3839199748
 40
0.4510360341
 40
0.5220286665
 40
0.5964027304
 40
0.6736356257
 40
0.7531819132
 40
0.8344778801
 40
0.9169460991
 40
1.0
 40
1.0
 40
1.0
 40
1.0
 10
3.3368816373
 20
-9.9135544721
 30
0.0
 10
3.337419464
 20
-9.9158793185
 30
0.0
 10
3.3402988112
 20
-9.9208288617
 30
0.0
 10
3.3476619607
 20
-9.9270402087
 30
0.0
 10
3.3583355101
 20
-9.9331435662
 30
0.0
 10
3.3723852513
 20
-9.9390985548
 30
0.0
 10
3.3897564606
 20
-9.9449031335
 30
0.0
 10
3.4103524364
 20
-9.9504997531
 30
0.0
 10
3.4340345837
 20
-9.9558464919
 30
0.0
 10
3.4606374216
 20
-9.9608990772
 30
0.0
 10
3.4899707567
 20
-9.965618188
 30
0.0
 10
3.5218232046
 20
-9.9699672211
 30
0.0
 10
3.5559641803
 20
-9.9739130305
 30
0.0
 10
3.5921459932
 20
-9.9774257716
 30
0.0
 10
3.6301058144
 20
-9.9804790653
 30
0.0
 10
3.6695677046
 20
-9.983050089
 30
0.0
 10
3.7102446735
 20
-9.985119695
 30
0.0
 10
3.751840846
 20
-9.9866725118
 30
0.0
 10
3.7940534986
 20
-9.9876970314
 30
0.0
 10
3.8223689389
 20
-9.9880224216
 30
0.0
 10
3.8365770508
 20
-9.9880955633
 30
0.0
 11
3.3368816373
 21
-9.9135544721
 31
0.0
 11
3.3401713976
 21
-9.9199125373
 31
0.0
 11
3.3470749969
 21
-9.9262243157
 31
0.0
 11
3.357542177
 21
-9.9324438575
 31
0.0
 11
3.3714967366
 21
-9.9385258843
 31
0.0
 11
3.3888370865
 21
-9.944426119
 31
0.0
 11
3.4094369885
 21
-9.9501016077
 31
0.0
 11
3.4331464753
 21
-9.9555110328
 31
0.0
 11
3.4597929415
 21
-9.9606150137
 31
0.0
 11
3.4891824005
 21
-9.9653763932
 31
0.0
 11
3.5211008966
 21
-9.9697605086
 31
0.0
 11
3.5553160629
 21
-9.9737354434
 31
0.0
 11
3.5915788125
 21
-9.9772722599
 31
0.0
 11
3.6296251522
 21
-9.9803452103
 31
0.0
 11
3.6691781041
 21
-9.9829319232
 31
0.0
 11
3.7099497224
 21
-9.9850135675
 31
0.0
 11
3.7516431891
 21
-9.9865749887
 31
0.0
 11
3.7939549753
 21
-9.9876048197
 31
0.0
 11
3.8365770508
 21
-9.9880955633
 31
0.0
  0
SPLINE
  5
30F
100
AcDbEntity
  8
0
100
AcDbSpline
 62
253
  6
CONTINUOUS
 70
0
 71
3
 72
25
 73
21
 74
19
 42
0.0000001
 43
0.0000001
 44
0.0000000001
 12
0.0014329144
 22
-0.7839168072
 32
0.0
 13
0.7839168112
 23
-0.0014307322
 33
0.0
 40
0.0
 40
0.0
 40
0.0
 40
0.0
 40
0.0555066409
 40
0.1110226213
 40
0.1665481587
 40
0.2220831809
 40
0.2776273283
 40
0.3331799649
 40
0.3887401978
 40
0.444306904
 40
0.4998787649
 40
0.555454306
 40
0.6110319415
 40
0.6666100223
 40
0.7221868858
 40
0.7777609063
 40
0.833330544
 40
0.8888943916
 40
0.9444512168
 40
1.0
 40
1.0
 40
1.0
 40
1.0
 10
3.3205301816
 20
-10.3383281483
 30
0.0
 10
3.3205566937
 20
-10.3528323445
 30
0.0
 10
3.3218763835
 20
-10.3818567641
 30
0.0
 10
3.3276396783
 20
-10.4250464606
 30
0.0
 10
3.3371431325
 20
-10.4675810233
 30
0.0
 10
3.3503145506
 20
-10.5091331556
 30
0.0
 10
3.3670538996
 20
-10.5493885339
 30
0.0
 10
3.3872340573
 20
-10.5880412113
 30
0.0
 10
3.4107017827
 20
-10.6247978102
 30
0.0
 10
3.4372788796
 20
-10.6593792465
 30
0.0
 10
3.4667635499
 20
-10.6915229817
 30
0.0
 10
3.4989319268
 20
-10.7209849776
 30
0.0
 10
3.5335397714
 20
-10.7475415575
 30
0.0
 10
3.5703243357
 20
-10.7709911001
 30
0.0
 10
3.6090063204
 20
-10.7911555696
 30
0.0
 10
3.649292128
 20
-10.8078818665
 30
0.0
 10
3.6908755897
 20
-10.821042989
 30
0.0
 10
3.7334421552
 20
-10.8305390001
 30
0.0
 10
3.7766643125
 20
-10.8362977751
 30
0.0
 10
3.8057103868
 20
-10.8376164238
 30
0.0
 10
3.8202255951
 20
-10.8376429156
 30
0.0
 11
3.3205301816
 21
-10.3383281483
 31
0.0
 11
3.3225067111
 21
-10.3817958953
 31
0.0
 11
3.3282623832
 21
-10.4249335951
 31
0.0
 11
3.3377534956
 21
-10.4674137062
 31
0.0
 11
3.3509079831
 21
-10.5089136803
 31
0.0
 11
3.3676259645
 21
-10.5491184112
 31
0.0
 11
3.3877805016
 21
-10.5877226273
 31
0.0
 11
3.4112185624
 21
-10.6244332096
 31
0.0
 11
3.4377621835
 21
-10.6589714174
 31
0.0
 11
3.4672098212
 21
-10.6910750045
 31
0.0
 11
3.4993378817
 21
-10.7205002109
 31
0.0
 11
3.5339024191
 21
-10.747023613
 31
0.0
 11
3.5706409874
 21
-10.7704438205
 31
0.0
 11
3.6092746333
 21
-10.7905830056
 31
0.0
 11
3.6495100144
 21
-10.8072882528
 31
0.0
 11
3.6910416264
 21
-10.8204327205
 31
0.0
 11
3.7335541229
 21
-10.8299166036
 31
0.0
 11
3.7767247095
 21
-10.8356678917
 31
0.0
 11
3.8202255951
 21
-10.8376429156
 31
0.0
  0
SPLINE
  5
310
100
AcDbEntity
  8
0
100
AcDbSpline
 62
253
  6
CONTINUOUS
 70
0
 71
3
 72
26
 73
22
 74
20
 42
0.0000001
 43
0.0000001
 44
0.0000000001
 12
0.2685929374
 22
0.8063832935
 32
0.0
 13
0.0022369592
 23
0.8499359847
 33
0.0
 40
0.0
 40
0.0
 40
0.0
 40
0.0
 40
0.0076246917
 40
0.0212415454
 40
0.0408201379
 40
0.0662705183
 40
0.097465855
 40
0.134246857
 40
0.176424113
 40
0.2237795972
 40
0.2760683609
 40
0.3330193498
 40
0.3943374779
 40
0.4597046572
 40
0.5287822035
 40
0.6012118306
 40
0.6766179093
 40
0.7546093822
 40
0.8347824281
 40
0.9167204116
 40
1.0
 40
1.0
 40
1.0
 40
1.0
 10
3.8202255951
 20
-10.8376429156
 30
0.0
 10
3.8209082412
 20
-10.835593441
 30
0.0
 10
3.8217373539
 20
-10.8295843548
 30
0.0
 10
3.8229570845
 20
-10.8181134131
 30
0.0
 10
3.8240898834
 20
-10.8015198642
 30
0.0
 10
3.8252699651
 20
-10.7799627478
 30
0.0
 10
3.826410964
 20
-10.7535155758
 30
0.0
 10
3.8275289536
 20
-10.7223282997
 30
0.0
 10
3.8286063565
 20
-10.6865577716
 30
0.0
 10
3.8296393814
 20
-10.6463911679
 30
0.0
 10
3.8306208198
 20
-10.6020364555
 30
0.0
 10
3.8315453712
 20
-10.5537239884
 30
0.0
 10
3.8324077825
 20
-10.5017045394
 30
0.0
 10
3.8332033626
 20
-10.4462480492
 30
0.0
 10
3.8339278004
 20
-10.3876423032
 30
0.0
 10
3.834577209
 20
-10.3261913655
 30
0.0
 10
3.835148133
 20
-10.2622141161
 30
0.0
 10
3.8356375224
 20
-10.1960423206
 30
0.0
 10
3.8360428262
 20
-10.128019351
 30
0.0
 10
3.8363618341
 20
-10.0584977168
 30
0.0
 10
3.8365149531
 20
-10.0116896696
 30
0.0
 10
3.8365770508
 20
-9.9880955633
 30
0.0
 11
3.8202255951
 21
-10.8376429156
 31
0.0
 11
3.8214784162
 21
-10.8312846448
 31
0.0
 11
3.8227199334
 21
-10.8197779337
 31
0.0
 11
3.8239438244
 21
-10.8031823945
 31
0.0
 11
3.8251436445
 21
-10.7815844262
 31
0.0
 11
3.826313208
 21
-10.755096103
 31
0.0
 11
3.8274464321
 21
-10.7238550439
 31
0.0
 11
3.8285374397
 21
-10.6880235578
 31
0.0
 11
3.8295805679
 21
-10.6477878079
 31
0.0
 11
3.8305704105
 21
-10.6033565766
 31
0.0
 11
3.8315018308
 21
-10.5549606763
 31
0.0
 11
3.8323700008
 21
-10.5028512438
 31
0.0
 11
3.8331704169
 21
-10.4472988995
 31
0.0
 11
3.8338989332
 21
-10.3885917238
 31
0.0
 11
3.8345517716
 21
-10.3270344258
 31
0.0
 11
3.8351255504
 21
-10.2629464326
 31
0.0
 11
3.8356172911
 21
-10.1966602677
 31
0.0
 11
3.8360244609
 21
-10.1285192914
 31
0.0
 11
3.8363449234
 21
-10.0588777468
 31
0.0
 11
3.8365770508
 21
-9.9880955633
 31
0.0
  0
SPLINE
  5
311
100
AcDbEntity
  8
0
100
AcDbSpline
 62
253
  6
CONTINUOUS
 70
0
 71
3
 72
26
 73
22
 74
20
 42
0.0000001
 43
0.0000001
 44
0.0000000001
 12
0.2359522709
 22
0.3541440557
 32
0.0
 13
0.0022405098
 23
0.4255425554
 33
0.0
 40
0.0
 40
0.0
 40
0.0
 40
0.0
 40
0.0080280304
 40
0.0218584245
 40
0.0415678431
 40
0.0671002974
 40
0.0983438593
 40
0.135147229
 40
0.1773258644
 40
0.2246650247
 40
0.2769221631
 40
0.333828105
 40
0.3950893218
 40
0.4603890646
 40
0.5293898417
 40
0.6017344933
 40
0.6770484607
 40
0.7549417191
 40
0.8350114612
 40
0.9168420376
 40
1.0
 40
1.0
 40
1.0
 40
1.0
 10
3.3205301816
 20
-10.3383281483
 30
0.0
 10
3.3211615923
 20
-10.3373804552
 30
0.0
 10
3.3220572017
 20
-10.3343392006
 30
0.0
 10
3.3232433656
 20
-10.3286014535
 30
0.0
 10
3.3243982727
 20
-10.3202791396
 30
0.0
 10
3.3255714159
 20
-10.3095005136
 30
0.0
 10
3.326715679
 20
-10.2962719838
 30
0.0
 10
3.3278329082
 20
-10.2806771508
 30
0.0
 10
3.3289107622
 20
-10.2627903624
 30
0.0
 10
3.3299437683
 20
-10.2427061151
 30
0.0
 10
3.3309252969
 20
-10.2205278704
 30
0.0
 10
3.3318498814
 20
-10.1963708483
 30
0.0
 10
3.3327123278
 20
-10.170360356
 30
0.0
 10
3.3335079319
 20
-10.1426313557
 30
0.0
 10
3.3342323878
 20
-10.1133277291
 30
0.0
 10
3.3348818117
 20
-10.0826015077
 30
0.0
 10
3.3354527403
 20
-10.0506121312
 30
0.0
 10
3.3359421444
 20
-10.0175254847
 30
0.0
 10
3.3363474313
 20
-9.9835132591
 30
0.0
 10
3.3366664524
 20
-9.9487532923
 30
0.0
 10
3.3368195319
 20
-9.9253502227
 30
0.0
 10
3.3368816373
 20
-9.9135544721
 30
0.0
 11
3.3205301816
 21
-10.3383281483
 31
0.0
 11
3.3217827883
 21
-10.3351497539
 31
0.0
 11
3.3230243628
 21
-10.3293966993
 31
0.0
 11
3.3242482571
 21
-10.3210991638
 31
0.0
 11
3.3254481044
 21
-10.3103003198
 31
0.0
 11
3.3266176863
 21
-10.2970562127
 31
0.0
 11
3.3277509316
 21
-10.2814356492
 31
0.0
 11
3.3288419587
 21
-10.2635197856
 31
0.0
 11
3.3298851059
 21
-10.2434017052
 31
0.0
 11
3.3308749661
 21
-10.2211858022
 31
0.0
 11
3.3318064025
 21
-10.1969874863
 31
0.0
 11
3.3326745869
 21
-10.1709323306
 31
0.0
 11
3.3334750154
 21
-10.1431556565
 31
0.0
 11
3.3342035413
 21
-10.1138015215
 31
0.0
 11
3.3348563873
 21
-10.0830222898
 31
0.0
 11
3.3354301695
 21
-10.0509776839
 31
0.0
 11
3.3359219145
 21
-10.0178339761
 31
0.0
 11
3.3363290775
 21
-9.9837628539
 31
0.0
 11
3.3366495452
 21
-9.9489414533
 31
0.0
 11
3.3368816373
 21
-9.9135544721
 31
0.0
  0
SPLINE
  5
312
100
AcDbEntity
  8
RACCORDO
100
AcDbSpline
 62
253
  6
CONTINUOUS
 70
0
 71
3
 72
10
 73
6
 74
4
 42
0.0000001
 43
0.0000001
 44
0.0000000001
 12
0.0002526151
 22
-9.102232222
 32
0.0
 13
0.0060343306
 23
-9.1022302253
 33
0.0
 40
0.0
 40
0.0
 40
0.0
 40
0.0
 40
0.3333526785
 40
0.6666869171
 40
1.0
 40
1.0
 40
1.0
 40
1.0
 10
24.810306779
 20
10.8215324028
 30
0.0
 10
24.8103348489
 20
9.8101145722
 30
0.0
 10
24.810607786
 20
7.7873348588
 30
0.0
 10
24.8116544058
 20
4.7532576107
 30
0.0
 10
24.8127813813
 20
2.7305983289
 30
0.0
 10
24.8134518218
 20
1.7193008563
 30
0.0
 11
24.810306779
 21
10.8215324028
 31
0.0
 11
24.8107140071
 21
7.787278937
 31
0.0
 11
24.811761747
 21
4.7531934702
 31
0.0
 11
24.8134518218
 21
1.7193008563
 31
0.0
  0
SPLINE
  5
313
100
AcDbEntity
  8
RACCORDO
100
AcDbSpline
 62
253
  6
CONTINUOUS
 70
0
 71
3
 72
25
 73
21
 74
19
 42
0.0000001
 43
0.0000001
 44
0.0000000001
 12
-0.2498751414
 22
0.0000000203
 32
0.0
 13
-0.2424238368
 23
0.0605662416
 33
0.0
 40
0.0
 40
0.0
 40
0.0
 40
0.0
 40
0.0852547325
 40
0.169900986
 40
0.2533120723
 40
0.3348797757
 40
0.4140110861
 40
0.4901304632
 40
0.5626837212
 40
0.6311429841
 40
0.6950103138
 40
0.7538209474
 40
0.8071470326
 40
0.8546008355
 40
0.8958373009
 40
0.9305566248
 40
0.958507049
 40
0.9794866968
 40
0.9933463674
 40
1.0
 40
1.0
 40
1.0
 40
1.0
 10
3.8740831171
 20
11.0717217681
 30
0.0
 10
3.8669821043
 20
11.0717217687
 30
0.0
 10
3.8528307594
 20
11.0717270198
 30
0.0
 10
3.8317319741
 20
11.0717506269
 30
0.0
 10
3.8109403112
 20
11.0717897791
 30
0.0
 10
3.7906080332
 20
11.0718441849
 30
0.0
 10
3.7708831427
 20
11.0719134378
 30
0.0
 10
3.7519091429
 20
11.0719970189
 30
0.0
 10
3.7338241138
 20
11.0720943011
 30
0.0
 10
3.7167596712
 20
11.0722045407
 30
0.0
 10
3.7008399933
 20
11.0723269153
 30
0.0
 10
3.6861809051
 20
11.072460402
 30
0.0
 10
3.6728891432
 20
11.0726041703
 30
0.0
 10
3.661061212
 20
11.072756289
 30
0.0
 10
3.6507838051
 20
11.0729176799
 30
0.0
 10
3.6421298127
 20
11.0730800262
 30
0.0
 10
3.6351673239
 20
11.0732599449
 30
0.0
 10
3.6299333746
 20
11.0734061315
 30
0.0
 10
3.6264946784
 20
11.07361921
 30
0.0
 10
3.6247731295
 20
11.0736930018
 30
0.0
 10
3.6242354632
 20
11.0738273303
 30
0.0
 11
3.8740831171
 21
11.0717217681
 31
0.0
 11
3.8527800802
 21
11.0717297032
 31
0.0
 11
3.831629099
 21
11.0717534557
 31
0.0
 11
3.8107867792
 21
11.0717928528
 31
0.0
 11
3.7904051114
 21
11.0718476077
 31
0.0
 11
3.7706322869
 21
11.0719173222
 31
0.0
 11
3.751612133
 21
11.0720014893
 31
0.0
 11
3.7334831423
 21
11.0720994964
 31
0.0
 11
3.7163772353
 21
11.0722106302
 31
0.0
 11
3.7004188548
 21
11.0723340825
 31
0.0
 11
3.6857241583
 21
11.0724689546
 31
0.0
 11
3.6724000876
 21
11.072614265
 31
0.0
 11
3.660543571
 21
11.0727689567
 31
0.0
 11
3.6502408919
 21
11.072931904
 31
0.0
 11
3.641567062
 21
11.0731019205
 31
0.0
 11
3.6345851599
 21
11.0732777693
 31
0.0
 11
3.6293459725
 21
11.0734581719
 31
0.0
 11
3.6258876577
 21
11.0736418127
 31
0.0
 11
3.6242354632
 21
11.0738273303
 31
0.0
  0
SPLINE
  5
314
100
AcDbEntity
  8
RACCORDO
100
AcDbSpline
 62
253
  6
CONTINUOUS
 70
0
 71
3
 72
25
 73
21
 74
19
 42
0.0000001
 43
0.0000001
 44
0.0000000001
 12
-0.2424238368
 22
-0.0605662415
 32
0.0
 13
-0.2498751414
 23
-0.0000000203
 33
0.0
 40
0.0
 40
0.0
 40
0.0
 40
0.0
 40
0.0066536326
 40
0.0205133032
 40
0.041492951
 40
0.0694433752
 40
0.1041626991
 40
0.1453991645
 40
0.1928529674
 40
0.2461790526
 40
0.3049896861
 40
0.3688570158
 40
0.4373162788
 40
0.5098695368
 40
0.5859889138
 40
0.6651202243
 40
0.7466879277
 40
0.830099014
 40
0.9147452674
 40
1.0
 40
1.0
 40
1.0
 40
1.0
 10
25.0601562633
 20
11.0738273303
 30
0.0
 10
25.0596185969
 20
11.0736930018
 30
0.0
 10
25.057897048
 20
11.07361921
 30
0.0
 10
25.0544583518
 20
11.0734061315
 30
0.0
 10
25.0492244025
 20
11.0732599449
 30
0.0
 10
25.0422619137
 20
11.0730800262
 30
0.0
 10
25.0336079214
 20
11.0729176799
 30
0.0
 10
25.0233305144
 20
11.072756289
 30
0.0
 10
25.0115025832
 20
11.0726041703
 30
0.0
 10
24.9982108214
 20
11.072460402
 30
0.0
 10
24.9835517331
 20
11.0723269153
 30
0.0
 10
24.9676320552
 20
11.0722045407
 30
0.0
 10
24.9505676126
 20
11.0720943011
 30
0.0
 10
24.9324825835
 20
11.0719970189
 30
0.0
 10
24.9135085838
 20
11.0719134378
 30
0.0
 10
24.8937836933
 20
11.0718441849
 30
0.0
 10
24.8734514152
 20
11.0717897791
 30
0.0
 10
24.8526597523
 20
11.0717506269
 30
0.0
 10
24.831560967
 20
11.0717270198
 30
0.0
 10
24.8174096221
 20
11.0717217687
 30
0.0
 10
24.8103086094
 20
11.0717217681
 30
0.0
 11
25.0601562633
 21
11.0738273303
 31
0.0
 11
25.0585040687
 21
11.0736418127
 31
0.0
 11
25.0550457539
 21
11.0734581719
 31
0.0
 11
25.0498065665
 21
11.0732777693
 31
0.0
 11
25.0428246644
 21
11.0731019205
 31
0.0
 11
25.0341508345
 21
11.072931904
 31
0.0
 11
25.0238481554
 21
11.0727689567
 31
0.0
 11
25.0119916388
 21
11.072614265
 31
0.0
 11
24.9986675681
 21
11.0724689546
 31
0.0
 11
24.9839728716
 21
11.0723340825
 31
0.0
 11
24.9680144911
 21
11.0722106302
 31
0.0
 11
24.9509085841
 21
11.0720994964
 31
0.0
 11
24.9327795934
 21
11.0720014893
 31
0.0
 11
24.9137594395
 21
11.0719173222
 31
0.0
 11
24.8939866151
 21
11.0718476077
 31
0.0
 11
24.8736049472
 21
11.0717928528
 31
0.0
 11
24.8527626274
 21
11.0717534557
 31
0.0
 11
24.8316116462
 21
11.0717297032
 31
0.0
 11
24.8103086094
 21
11.0717217681
 31
0.0
  0
SPLINE
  5
315
100
AcDbEntity
  8
RACCORDO
100
AcDbSpline
 62
253
  6
CONTINUOUS
 70
0
 71
3
 72
10
 73
6
 74
4
 42
0.0000001
 43
0.0000001
 44
0.0000000001
 12
0.0002514557
 22
-9.0950366859
 32
0.0
 13
0.0060355961
 23
-9.0950346867
 33
0.0
 40
0.0
 40
0.0
 40
0.0
 40
0.0
 40
0.33335237
 40
0.66668676
 40
1.0
 40
1.0
 40
1.0
 40
1.0
 10
25.310004037
 20
10.8238368663
 30
0.0
 10
25.3100319781
 20
9.8132195214
 30
0.0
 10
25.3103019643
 20
7.7920393404
 30
0.0
 10
25.3113497396
 20
4.7603606046
 30
0.0
 10
25.3124766539
 20
2.7392993494
 30
0.0
 10
25.3131472353
 20
1.7288008563
 30
0.0
 11
25.310004037
 21
10.8238368663
 31
0.0
 11
25.3104091153
 21
7.7919848575
 31
0.0
 11
25.3114568729
 21
4.7602965318
 31
0.0
 11
25.3131472353
 21
1.7288008563
 31
0.0
  0
SPLINE
  5
316
100
AcDbEntity
  8
RACCORDO
100
AcDbSpline
 62
253
  6
CONTINUOUS
 70
0
 71
3
 72
25
 73
21
 74
19
 42
0.0000001
 43
0.0000001
 44
0.0000000001
 12
-0.4951377735
 22
-0.0674709553
 32
0.0
 13
-0.4997136625
 23
-0.0000069763
 33
0.0
 40
0.0
 40
0.0
 40
0.0
 40
0.0
 40
0.0066260327
 40
0.0204733849
 40
0.041446253
 40
0.0693927016
 40
0.1041099476
 40
0.1453456978
 40
0.1927998486
 40
0.2461271361
 40
0.3049396744
 40
0.3688095125
 40
0.4372718806
 40
0.5098287828
 40
0.5859522814
 40
0.665088138
 40
0.7466607239
 40
0.8300771141
 40
0.914728373
 40
1.0
 40
1.0
 40
1.0
 40
1.0
 10
25.3100040369
 20
10.8238368586
 30
0.0
 10
25.3089104373
 20
10.8236878371
 30
0.0
 10
25.3054919253
 20
10.8236118984
 30
0.0
 10
25.2985988978
 20
10.8233759549
 30
0.0
 10
25.2881411387
 20
10.8232181257
 30
0.0
 10
25.2742126482
 20
10.8230209223
 30
0.0
 10
25.2569062791
 20
10.8228438263
 30
0.0
 10
25.2363511598
 20
10.8226673515
 30
0.0
 10
25.2126956905
 20
10.8225010644
 30
0.0
 10
25.1861124104
 20
10.8223437985
 30
0.0
 10
25.1567946191
 20
10.8221977194
 30
0.0
 10
25.1249556871
 20
10.822063721
 30
0.0
 10
25.0908272691
 20
10.8219429303
 30
0.0
 10
25.0546576886
 20
10.821836248
 30
0.0
 10
25.0167101657
 20
10.8217444921
 30
0.0
 10
24.9772608522
 20
10.8216683513
 30
0.0
 10
24.9365967236
 20
10.8216083996
 30
0.0
 10
24.8950138662
 20
10.8215650822
 30
0.0
 10
24.8528148408
 20
10.8215387259
 30
0.0
 10
24.824510578
 20
10.8215326006
 30
0.0
 10
24.810306779
 20
10.8215324023
 30
0.0
 11
25.3100040369
 21
10.8238368586
 31
0.0
 11
25.3066991116
 21
10.8236344295
 31
0.0
 11
25.2997823032
 21
10.8234340207
 31
0.0
 11
25.2893037252
 21
10.8232370698
 31
0.0
 11
25.2753398235
 21
10.8230450301
 31
0.0
 11
25.2579921356
 21
10.8228592926
 31
0.0
 11
25.2373868374
 21
10.822681212
 31
0.0
 11
25.213673953
 21
10.8225120857
 31
0.0
 11
25.1870260528
 21
10.8223531462
 31
0.0
 11
25.1576369945
 21
10.8222055515
 31
0.0
 11
25.12572065
 21
10.8220703774
 31
0.0
 11
25.091509286
 21
10.8219486095
 31
0.0
 11
25.05525177
 21
10.8218411352
 31
0.0
 11
25.0172119299
 21
10.8217487385
 31
0.0
 11
24.9776667354
 21
10.8216720932
 31
0.0
 11
24.9369038444
 21
10.8216117586
 31
0.0
 11
24.8952195573
 21
10.8215681732
 31
0.0
 11
24.852918175
 21
10.8215416575
 31
0.0
 11
24.810306779
 21
10.8215324023
 31
0.0
  0
SPLINE
  5
317
100
AcDbEntity
  8
0
100
AcDbSpline
 62
253
  6
CONTINUOUS
 70
0
 71
3
 72
25
 73
21
 74
19
 42
0.0000001
 43
0.0000001
 44
0.0000000001
 12
-0.4390248508
 22
-0.2392029787
 32
0.0
 13
-0.4999607732
 23
-0.0003316614
 33
0.0
 40
0.0
 40
0.0
 40
0.0
 40
0.0
 40
0.0068059321
 40
0.0207337759
 40
0.0417520194
 40
0.0697246348
 40
0.1044548601
 40
0.145693439
 40
0.1931423402
 40
0.246457634
 40
0.3052523086
 40
0.369099243
 40
0.4375344017
 40
0.5100602612
 40
0.5861494627
 40
0.6652486694
 40
0.7467826077
 40
0.8301582634
 40
0.9147692045
 40
1.0
 40
1.0
 40
1.0
 40
1.0
 10
25.3131472353
 20
1.7288008563
 30
0.0
 10
25.3121512442
 20
1.7282581899
 30
0.0
 10
25.3086089473
 20
1.7278561375
 30
0.0
 10
25.3017874379
 20
1.7269810065
 30
0.0
 10
25.2912778384
 20
1.7263069884
 30
0.0
 10
25.2773656316
 20
1.7255265481
 30
0.0
 10
25.2600511557
 20
1.7248034765
 30
0.0
 10
25.2394979191
 20
1.7240886573
 30
0.0
 10
25.2158414372
 20
1.7234100404
 30
0.0
 10
25.1892583554
 20
1.7227665486
 30
0.0
 10
25.1599405148
 20
1.7221657936
 30
0.0
 10
25.1281016795
 20
1.721611821
 30
0.0
 10
25.0939733499
 20
1.721109149
 30
0.0
 10
25.0578038851
 20
1.7206615496
 30
0.0
 10
25.0198564448
 20
1.7202724268
 30
0.0
 10
24.9804071453
 20
1.7199446966
 30
0.0
 10
24.9397430285
 20
1.7196808098
 30
0.0
 10
24.8981599779
 20
1.7194827307
 30
0.0
 10
24.8559605655
 20
1.7193519303
 30
0.0
 10
24.8276558399
 20
1.7193102789
 30
0.0
 10
24.8134518218
 20
1.7193008563
 30
0.0
 11
25.3131472353
 21
1.7288008563
 31
0.0
 11
25.3098423799
 21
1.7279907345
 31
0.0
 11
25.3029256004
 21
1.7271865074
 31
0.0
 11
25.2924472258
 21
1.7263940269
 31
0.0
 11
25.2784835006
 21
1.7256190594
 31
0.0
 11
25.2611360301
 21
1.7248672439
 31
0.0
 11
25.2405310412
 21
1.7241440508
 31
0.0
 11
25.2168184634
 21
1.7234547424
 31
0.0
 11
25.1901708383
 21
1.7228043343
 31
0.0
 11
25.1607820641
 21
1.7221975591
 31
0.0
 11
25.1288659846
 21
1.7216388321
 31
0.0
 11
25.0946548331
 21
1.7211322186
 31
0.0
 11
25.0583975428
 21
1.720681405
 31
0.0
 11
25.0203579355
 21
1.7202896715
 31
0.0
 11
24.9808128015
 21
1.7199598687
 31
0.0
 11
24.9400498861
 21
1.7196943962
 31
0.0
 11
24.8983657957
 21
1.7194951857
 31
0.0
 11
24.8560638392
 21
1.7193636868
 31
0.0
 11
24.8134518218
 21
1.7193008563
 31
0.0
  0
SPLINE
  5
318
100
AcDbEntity
  8
0
100
AcDbSpline
 62
253
  6
CONTINUOUS
 70
0
 71
3
 72
25
 73
21
 74
19
 42
0.0000001
 43
0.0000001
 44
0.0000000001
 12
-0.1156726714
 22
-0.5000143222
 32
0.0
 13
-0.5132129279
 23
-0.0026419614
 33
0.0
 40
0.0
 40
0.0
 40
0.0
 40
0.0
 40
0.013948679
 40
0.0321748863
 40
0.0558987844
 40
0.0855593318
 40
0.1212490608
 40
0.1628831421
 40
0.210267819
 40
0.2631318866
 40
0.3211434051
 40
0.3839199784
 40
0.4510360375
 40
0.5220286697
 40
0.5964027332
 40
0.673635628
 40
0.753181915
 40
0.8344778813
 40
0.9169460997
 40
1.0
 40
1.0
 40
1.0
 40
1.0
 10
25.3475100891
 20
-9.9135544721
 30
0.0
 10
25.3469722621
 20
-9.9158793185
 30
0.0
 10
25.3440929145
 20
-9.9208288617
 30
0.0
 10
25.3367297646
 20
-9.9270402086
 30
0.0
 10
25.3260562148
 20
-9.9331435659
 30
0.0
 10
25.3120064733
 20
-9.9390985544
 30
0.0
 10
25.2946352637
 20
-9.9449031331
 30
0.0
 10
25.2740392877
 20
-9.9504997525
 30
0.0
 10
25.2503571403
 20
-9.9558464913
 30
0.0
 10
25.2237543024
 20
-9.9608990765
 30
0.0
 10
25.1944209673
 20
-9.9656181872
 30
0.0
 10
25.1625685195
 20
-9.9699672202
 30
0.0
 10
25.1284275439
 20
-9.9739130296
 30
0.0
 10
25.0922457313
 20
-9.9774257706
 30
0.0
 10
25.0542859102
 20
-9.9804790642
 30
0.0
 10
25.0148240204
 20
-9.9830500879
 30
0.0
 10
24.9741470518
 20
-9.9851196939
 30
0.0
 10
24.9325508797
 20
-9.9866725105
 30
0.0
 10
24.8903382275
 20
-9.9876970301
 30
0.0
 10
24.8620227874
 20
-9.9880224203
 30
0.0
 10
24.8478146756
 20
-9.988095562
 30
0.0
 11
25.3475100891
 21
-9.9135544721
 31
0.0
 11
25.3442203283
 21
-9.9199125372
 31
0.0
 11
25.3373167285
 21
-9.9262243155
 31
0.0
 11
25.3268495479
 21
-9.9324438572
 31
0.0
 11
25.312894988
 21
-9.938525884
 31
0.0
 11
25.2955546378
 21
-9.9444261186
 31
0.0
 11
25.2749547356
 21
-9.9501016072
 31
0.0
 11
25.2512452486
 21
-9.9555110322
 31
0.0
 11
25.2245987824
 21
-9.960615013
 31
0.0
 11
25.1952093235
 21
-9.9653763925
 31
0.0
 11
25.1632908274
 21
-9.9697605077
 31
0.0
 11
25.1290756613
 21
-9.9737354424
 31
0.0
 11
25.0928129119
 21
-9.9772722589
 31
0.0
 11
25.0547665725
 21
-9.9803452092
 31
0.0
 11
25.0152136209
 21
-9.9829319221
 31
0.0
 11
24.9744420029
 21
-9.9850135663
 31
0.0
 11
24.9327485366
 21
-9.9865749875
 31
0.0
 11
24.8904367507
 21
-9.9876048185
 31
0.0
 11
24.8478146756
 21
-9.988095562
 31
0.0
  0
SPLINE
  5
319
100
AcDbEntity
  8
0
100
AcDbSpline
 62
253
  6
CONTINUOUS
 70
0
 71
3
 72
26
 73
22
 74
20
 42
0.0000001
 43
0.0000001
 44
0.0000000001
 12
0.0022369592
 22
-0.8499359847
 32
0.0
 13
0.2685929371
 23
-0.8063832936
 33
0.0
 40
0.0
 40
0.0
 40
0.0
 40
0.0
 40
0.0832795884
 40
0.1652175719
 40
0.2453906178
 40
0.3233820907
 40
0.3987881694
 40
0.4712177965
 40
0.5402953428
 40
0.6056625221
 40
0.6669806502
 40
0.7239316391
 40
0.7762204028
 40
0.823575887
 40
0.865753143
 40
0.902534145
 40
0.9337294817
 40
0.9591798621
 40
0.9787584546
 40
0.9923753083
 40
1.0
 40
1.0
 40
1.0
 40
1.0
 10
24.8478146756
 20
-9.9880955633
 30
0.0
 10
24.8478767733
 20
-10.0116896696
 30
0.0
 10
24.8480298924
 20
-10.0584977168
 30
0.0
 10
24.8483489002
 20
-10.128019351
 30
0.0
 10
24.848754204
 20
-10.1960423206
 30
0.0
 10
24.8492435935
 20
-10.2622141161
 30
0.0
 10
24.8498145174
 20
-10.3261913655
 30
0.0
 10
24.850463926
 20
-10.3876423032
 30
0.0
 10
24.8511883638
 20
-10.4462480492
 30
0.0
 10
24.8519839439
 20
-10.5017045394
 30
0.0
 10
24.8528463552
 20
-10.5537239884
 30
0.0
 10
24.8537709067
 20
-10.6020364555
 30
0.0
 10
24.854752345
 20
-10.6463911679
 30
0.0
 10
24.8557853699
 20
-10.6865577716
 30
0.0
 10
24.8568627728
 20
-10.7223282997
 30
0.0
 10
24.8579807624
 20
-10.7535155758
 30
0.0
 10
24.8591217613
 20
-10.7799627478
 30
0.0
 10
24.860301843
 20
-10.8015198642
 30
0.0
 10
24.8614346419
 20
-10.8181134131
 30
0.0
 10
24.8626543726
 20
-10.8295843548
 30
0.0
 10
24.8634834852
 20
-10.835593441
 30
0.0
 10
24.8641661313
 20
-10.8376429156
 30
0.0
 11
24.8478146756
 21
-9.9880955633
 31
0.0
 11
24.8480468031
 21
-10.0588777468
 31
0.0
 11
24.8483672655
 21
-10.1285192914
 31
0.0
 11
24.8487744353
 21
-10.1966602677
 31
0.0
 11
24.849266176
 21
-10.2629464326
 31
0.0
 11
24.8498399548
 21
-10.3270344258
 31
0.0
 11
24.8504927932
 21
-10.3885917238
 31
0.0
 11
24.8512213095
 21
-10.4472988995
 31
0.0
 11
24.8520217256
 21
-10.5028512438
 31
0.0
 11
24.8528898956
 21
-10.5549606763
 31
0.0
 11
24.8538213159
 21
-10.6033565766
 31
0.0
 11
24.8548111585
 21
-10.6477878079
 31
0.0
 11
24.8558542868
 21
-10.6880235578
 31
0.0
 11
24.8569452943
 21
-10.7238550439
 31
0.0
 11
24.8580785184
 21
-10.755096103
 31
0.0
 11
24.8592480819
 21
-10.7815844262
 31
0.0
 11
24.860447902
 21
-10.8031823945
 31
0.0
 11
24.8616717931
 21
-10.8197779337
 31
0.0
 11
24.8629133102
 21
-10.8312846448
 31
0.0
 11
24.8641661313
 21
-10.8376429156
 31
0.0
  0
SPLINE
  5
31A
100
AcDbEntity
  8
0
100
AcDbSpline
 62
253
  6
CONTINUOUS
 70
0
 71
3
 72
26
 73
22
 74
20
 42
0.0000001
 43
0.0000001
 44
0.0000000001
 12
0.0022405098
 22
-0.4255425554
 32
0.0
 13
0.2359522711
 23
-0.3541440557
 33
0.0
 40
0.0
 40
0.0
 40
0.0
 40
0.0
 40
0.0831579624
 40
0.1649885388
 40
0.2450582809
 40
0.3229515393
 40
0.3982655067
 40
0.4706101583
 40
0.5396109354
 40
0.6049106782
 40
0.666171895
 40
0.7230778369
 40
0.7753349753
 40
0.8226741356
 40
0.864852771
 40
0.9016561407
 40
0.9328997026
 40
0.9584321569
 40
0.9781415755
 40
0.9919719696
 40
1.0
 40
1.0
 40
1.0
 40
1.0
 10
25.3475100891
 20
-9.9135544721
 30
0.0
 10
25.3475721945
 20
-9.9253502227
 30
0.0
 10
25.3477252741
 20
-9.9487532923
 30
0.0
 10
25.3480442951
 20
-9.9835132591
 30
0.0
 10
25.348449582
 20
-10.0175254847
 30
0.0
 10
25.3489389861
 20
-10.0506121312
 30
0.0
 10
25.3495099147
 20
-10.0826015077
 30
0.0
 10
25.3501593386
 20
-10.1133277291
 30
0.0
 10
25.3508837945
 20
-10.1426313557
 30
0.0
 10
25.3516793987
 20
-10.170360356
 30
0.0
 10
25.352541845
 20
-10.1963708483
 30
0.0
 10
25.3534664295
 20
-10.2205278704
 30
0.0
 10
25.3544479581
 20
-10.2427061151
 30
0.0
 10
25.3554809642
 20
-10.2627903624
 30
0.0
 10
25.3565588183
 20
-10.2806771508
 30
0.0
 10
25.3576760474
 20
-10.2962719838
 30
0.0
 10
25.3588203105
 20
-10.3095005136
 30
0.0
 10
25.3599934537
 20
-10.3202791396
 30
0.0
 10
25.3611483608
 20
-10.3286014535
 30
0.0
 10
25.3623345247
 20
-10.3343392006
 30
0.0
 10
25.3632301341
 20
-10.3373804552
 30
0.0
 10
25.3638615448
 20
-10.3383281483
 30
0.0
 11
25.3475100891
 21
-9.9135544721
 31
0.0
 11
25.3477421812
 21
-9.9489414533
 31
0.0
 11
25.3480626489
 21
-9.9837628539
 31
0.0
 11
25.3484698119
 21
-10.0178339761
 31
0.0
 11
25.348961557
 21
-10.0509776839
 31
0.0
 11
25.3495353391
 21
-10.0830222898
 31
0.0
 11
25.3501881851
 21
-10.1138015215
 31
0.0
 11
25.350916711
 21
-10.1431556565
 31
0.0
 11
25.3517171395
 21
-10.1709323306
 31
0.0
 11
25.3525853239
 21
-10.1969874863
 31
0.0
 11
25.3535167603
 21
-10.2211858022
 31
0.0
 11
25.3545066206
 21
-10.2434017052
 31
0.0
 11
25.3555497678
 21
-10.2635197856
 31
0.0
 11
25.3566407949
 21
-10.2814356492
 31
0.0
 11
25.3577740401
 21
-10.2970562127
 31
0.0
 11
25.358943622
 21
-10.3103003198
 31
0.0
 11
25.3601434694
 21
-10.3210991638
 31
0.0
 11
25.3613673637
 21
-10.3293966993
 31
0.0
 11
25.3626089381
 21
-10.3351497539
 31
0.0
 11
25.3638615448
 21
-10.3383281483
 31
0.0
  0
SPLINE
  5
31B
100
AcDbEntity
  8
0
100
AcDbSpline
 62
253
  6
CONTINUOUS
 70
0
 71
3
 72
25
 73
21
 74
19
 42
0.0000001
 43
0.0000001
 44
0.0000000001
 12
-0.0014329144
 22
-0.7839168072
 32
0.0
 13
-0.7839168112
 23
-0.0014307322
 33
0.0
 40
0.0
 40
0.0
 40
0.0
 40
0.0
 40
0.055506642
 40
0.1110226234
 40
0.1665481617
 40
0.2220831846
 40
0.2776273326
 40
0.3331799697
 40
0.3887402028
 40
0.4443069091
 40
0.49987877
 40
0.555454311
 40
0.6110319462
 40
0.6666100265
 40
0.7221868895
 40
0.7777609094
 40
0.8333305464
 40
0.8888943932
 40
0.9444512176
 40
1.0
 40
1.0
 40
1.0
 40
1.0
 10
25.3638615448
 20
-10.3383281483
 30
0.0
 10
25.3638350327
 20
-10.3528323448
 30
0.0
 10
25.3625153428
 20
-10.381856765
 30
0.0
 10
25.3567520478
 20
-10.4250464622
 30
0.0
 10
25.3472485934
 20
-10.4675810256
 30
0.0
 10
25.3340771749
 20
-10.5091331583
 30
0.0
 10
25.3173378255
 20
-10.5493885369
 30
0.0
 10
25.2971576673
 20
-10.5880412145
 30
0.0
 10
25.2736899415
 20
-10.6247978134
 30
0.0
 10
25.2471128442
 20
-10.6593792496
 30
0.0
 10
25.2176281737
 20
-10.6915229845
 30
0.0
 10
25.1854597966
 20
-10.72098498
 30
0.0
 10
25.1508519521
 20
-10.7475415596
 30
0.0
 10
25.1140673879
 20
-10.7709911017
 30
0.0
 10
25.0753854034
 20
-10.7911555708
 30
0.0
 10
25.0350995962
 20
-10.8078818673
 30
0.0
 10
24.9935161349
 20
-10.8210429895
 30
0.0
 10
24.95094957
 20
-10.8305390003
 30
0.0
 10
24.9077274133
 20
-10.8362977751
 30
0.0
 10
24.8786813394
 20
-10.8376164238
 30
0.0
 10
24.8641661313
 20
-10.8376429156
 30
0.0
 11
25.3638615448
 21
-10.3383281483
 31
0.0
 11
25.3618850153
 21
-10.3817958962
 31
0.0
 11
25.3561293429
 21
-10.4249335967
 31
0.0
 11
25.3466382302
 21
-10.4674137084
 31
0.0
 11
25.3334837424
 21
-10.508913683
 31
0.0
 11
25.3167657605
 21
-10.5491184142
 31
0.0
 11
25.296611223
 21
-10.5877226305
 31
0.0
 11
25.2731731618
 21
-10.6244332128
 31
0.0
 11
25.2466295403
 21
-10.6589714205
 31
0.0
 11
25.2171819024
 21
-10.6910750074
 31
0.0
 11
25.1850538417
 21
-10.7205002134
 31
0.0
 11
25.1504893043
 21
-10.7470236151
 31
0.0
 11
25.1137507362
 21
-10.7704438222
 31
0.0
 11
25.0751170905
 21
-10.7905830068
 31
0.0
 11
25.0348817098
 21
-10.8072882537
 31
0.0
 11
24.9933500982
 21
-10.820432721
 31
0.0
 11
24.9508376023
 21
-10.8299166038
 31
0.0
 11
24.9076670163
 21
-10.8356678917
 31
0.0
 11
24.8641661313
 21
-10.8376429156
 31
0.0
  0
LINE
  5
31C
100
AcDbEntity
  8
ASSI
100
AcDbLine
 62
7
  6
CONTINUOUS
 10
18.8921958632
 20
7.4208090917
 11
18.8921958632
 21
7.1869706141
  0
LINE
  5
31D
100
AcDbEntity
  8
ASSI
100
AcDbLine
 62
7
  6
CONTINUOUS
 10
18.8921958632
 20
7.1869706141
 11
18.8921958632
 21
6.9531330296
  0
LINE
  5
31E
100
AcDbEntity
  8
ASSI
100
AcDbLine
 62
7
  6
CONTINUOUS
 10
18.8921958632
 20
6.9531330296
 11
18.8921958632
 21
6.7192963892
  0
LINE
  5
31F
100
AcDbEntity
  8
ASSI
100
AcDbLine
 62
7
  6
CONTINUOUS
 10
18.8921958632
 20
6.7192963892
 11
18.8921958632
 21
6.4854607442
  0
LINE
  5
320
100
AcDbEntity
  8
ASSI
100
AcDbLine
 62
7
  6
CONTINUOUS
 10
18.8921958632
 20
6.4854607442
 11
18.8921958632
 21
6.2516261457
  0
LINE
  5
321
100
AcDbEntity
  8
ASSI
100
AcDbLine
 62
7
  6
CONTINUOUS
 10
18.8921958632
 20
6.2516261457
 11
18.8921958632
 21
6.0177926448
  0
LINE
  5
322
100
AcDbEntity
  8
ASSI
100
AcDbLine
 62
7
  6
CONTINUOUS
 10
9.7921958632
 20
6.0177926448
 11
9.7921958632
 21
7.4208090917
  0
SPLINE
  5
323
100
AcDbEntity
  8
ASSI
100
AcDbSpline
 62
7
  6
CONTINUOUS
 70
0
 71
3
 72
25
 73
21
 74
19
 42
0.0000001
 43
0.0000001
 44
0.0000000001
 12
-0.6256832202
 22
0.0
 32
0.0
 13
0.0
 23
0.6256832202
 33
0.0
 40
0.0
 40
0.0
 40
0.0
 40
0.0
 40
0.0556733582
 40
0.1114505503
 40
0.1670993388
 40
0.2225000448
 40
0.278013467
 40
0.3335579392
 40
0.3889329739
 40
0.4441938583
 40
0.4996537624
 40
0.5551262503
 40
0.6104212299
 40
0.6658457278
 40
0.721459882
 40
0.7770616371
 40
0.8325613724
 40
0.8883154579
 40
0.9442070521
 40
1.0
 40
1.0
 40
1.0
 40
1.0
 10
10.1902973197
 20
5.6193008563
 30
0.0
 10
10.1786860243
 20
5.6193008563
 30
0.0
 10
10.1554290789
 20
5.6203114496
 30
0.0
 10
10.1208335523
 20
5.624855111
 30
0.0
 10
10.0868189066
 20
5.6323860102
 30
0.0
 10
10.0536427027
 20
5.6428332773
 30
0.0
 10
10.0215222535
 20
5.6561226144
 30
0.0
 10
9.9906899639
 20
5.6721642744
 30
0.0
 10
9.9614209825
 20
5.6908087093
 30
0.0
 10
9.9339026966
 20
5.7119225575
 30
0.0
 10
9.9083164761
 20
5.7353711191
 30
0.0
 10
9.884873296
 20
5.7609719214
 30
0.0
 10
9.8637579478
 20
5.7885143412
 30
0.0
 10
9.8451070291
 20
5.8178170906
 30
0.0
 10
9.8290554935
 20
5.8486930336
 30
0.0
 10
9.8157547613
 20
5.8808668073
 30
0.0
 10
9.8052968376
 20
5.9141036678
 30
0.0
 10
9.7977572865
 20
5.9481844965
 30
0.0
 10
9.7932078346
 20
5.9828506524
 30
0.0
 10
9.7921958632
 20
6.0061564077
 30
0.0
 10
9.7921958632
 20
6.0177926448
 30
0.0
 11
10.1902973197
 21
5.6193008563
 31
0.0
 11
10.1554963374
 21
5.6208145428
 31
0.0
 11
10.1208947391
 21
5.6253597985
 31
0.0
 11
10.0868996953
 21
5.6328874714
 31
0.0
 11
10.053837209
 21
5.643299763
 31
0.0
 11
10.0217421907
 21
5.6565793652
 31
0.0
 11
9.9909124053
 21
5.6726203226
 31
0.0
 11
9.9616905271
 21
5.6912351657
 31
0.0
 11
9.934258987
 21
5.7122826623
 31
0.0
 11
9.9086767492
 21
5.735727536
 31
0.0
 11
9.8852365482
 21
5.7613247324
 31
0.0
 11
9.864186543
 21
5.7887812333
 31
0.0
 11
9.8455655442
 21
5.8180358817
 31
0.0
 11
9.8295143752
 21
5.8489094993
 31
0.0
 11
9.8162225773
 21
5.8810592825
 31
0.0
 11
9.8057991957
 21
5.9141832363
 31
0.0
 11
9.7982629003
 21
5.9482438488
 31
0.0
 11
9.7937116964
 21
5.9829168599
 31
0.0
 11
9.7921958632
 21
6.0177926448
 31
0.0
  0
SPLINE
  5
324
100
AcDbEntity
  8
ASSI
100
AcDbSpline
 62
7
  6
CONTINUOUS
 70
0
 71
3
 72
25
 73
21
 74
19
 42
0.0000001
 43
0.0000001
 44
0.0000000001
 12
-0.0
 22
0.6261321933
 32
0.0
 13
0.6261321933
 23
0.0
 33
0.0
 40
0.0
 40
0.0
 40
0.0
 40
0.0
 40
0.0556462765
 40
0.1114123659
 40
0.1670645122
 40
0.2224808987
 40
0.2780198863
 40
0.3335969858
 40
0.3890085547
 40
0.4443073417
 40
0.499802936
 40
0.5553057357
 40
0.6106232273
 40
0.6660612395
 40
0.7216764573
 40
0.7772651809
 40
0.8327377847
 40
0.8884496229
 40
0.9442824486
 40
1.0
 40
1.0
 40
1.0
 40
1.0
 10
9.7921958632
 20
7.4208090917
 30
0.0
 10
9.7921958632
 20
7.4324230668
 30
0.0
 10
9.7932073254
 20
7.4556887246
 30
0.0
 10
9.7977546274
 20
7.4903016967
 30
0.0
 10
9.8052928155
 20
7.5243420341
 30
0.0
 10
9.8157517721
 20
7.5575504893
 30
0.0
 10
9.8290575557
 20
7.5897078205
 30
0.0
 10
9.8451203142
 20
7.6205795399
 30
0.0
 10
9.8637899575
 20
7.6498884897
 30
0.0
 10
9.8849321508
 20
7.6774453771
 30
0.0
 10
9.9084108516
 20
7.7030671787
 30
0.0
 10
9.9340418929
 20
7.726541578
 30
0.0
 10
9.9616130667
 20
7.7476831076
 30
0.0
 10
9.9909413451
 20
7.7663547523
 30
0.0
 10
10.0218378615
 20
7.782421541
 30
0.0
 10
10.0540256207
 20
7.7957324548
 30
0.0
 10
10.0872687784
 20
7.8061963322
 30
0.0
 10
10.1213472537
 20
7.813738608
 30
0.0
 10
10.1560014763
 20
7.8182887281
 30
0.0
 10
10.1792959416
 20
7.8193008563
 30
0.0
 10
10.1909247925
 20
7.8193008563
 30
0.0
 11
9.7921958632
 21
7.4208090917
 31
0.0
 11
9.7937104148
 21
7.4556180831
 31
0.0
 11
9.7982591532
 21
7.49023747
 31
0.0
 11
9.8057940351
 21
7.5242586607
 31
0.0
 11
9.8162179993
 21
7.5573538423
 31
0.0
 11
9.8295141593
 21
7.5894863062
 31
0.0
 11
9.8455764486
 21
7.620356133
 31
0.0
 11
9.8642167297
 21
7.6496184067
 31
0.0
 11
9.8852929792
 21
7.6770890706
 31
0.0
 11
9.9087684625
 21
7.7027073429
 31
0.0
 11
9.9343963179
 21
7.7261790442
 31
0.0
 11
9.9618817811
 21
7.7472552423
 31
0.0
 11
9.9911626087
 21
7.7658972124
 31
0.0
 11
10.0220571802
 21
7.7819636509
 31
0.0
 11
10.0542210085
 21
7.7952654586
 31
0.0
 11
10.0873514498
 21
7.8056946419
 31
0.0
 11
10.1214100338
 21
7.8132335298
 31
0.0
 11
10.156071179
 21
7.8177852099
 31
0.0
 11
10.1909247925
 21
7.8193008563
 31
0.0
  0
SPLINE
  5
325
100
AcDbEntity
  8
ASSI
100
AcDbSpline
 62
7
  6
CONTINUOUS
 70
0
 71
3
 72
25
 73
21
 74
19
 42
0.0000001
 43
0.0000001
 44
0.0000000001
 12
0.0
 22
-0.6256832202
 32
0.0
 13
-0.6256832202
 23
0.0
 33
0.0
 40
0.0
 40
0.0
 40
0.0
 40
0.0
 40
0.0557950913
 40
0.1116884983
 40
0.1674453284
 40
0.2229447961
 40
0.2785453267
 40
0.3341599831
 40
0.3895856968
 40
0.4448800349
 40
0.5003515979
 40
0.5558124452
 40
0.6110739736
 40
0.6664477952
 40
0.7219917909
 40
0.7775064418
 40
0.8329073853
 40
0.8885533946
 40
0.9443287616
 40
1.0
 40
1.0
 40
1.0
 40
1.0
 10
18.8921958632
 20
6.0177926448
 30
0.0
 10
18.8921958632
 20
6.0061559607
 30
0.0
 10
18.891183817
 20
5.9828493787
 30
0.0
 10
18.8866340176
 20
5.9481818547
 30
0.0
 10
18.8790939877
 20
5.9141002094
 30
0.0
 10
18.8686356432
 20
5.8808632078
 30
0.0
 10
18.8553346964
 20
5.8486897488
 30
0.0
 10
18.8392828476
 20
5.8178138515
 30
0.0
 10
18.8206315151
 20
5.7885110964
 30
0.0
 10
18.799515925
 20
5.7609689558
 30
0.0
 10
18.7760725987
 20
5.7353684662
 30
0.0
 10
18.750486059
 20
5.7119200456
 30
0.0
 10
18.7229674893
 20
5.6908064371
 30
0.0
 10
18.6936985072
 20
5.6721624136
 30
0.0
 10
18.6628661649
 20
5.6561210655
 30
0.0
 10
18.6307453998
 20
5.6428319456
 30
0.0
 10
18.5975693482
 20
5.6323851055
 30
0.0
 10
18.5635555347
 20
5.6248546892
 30
0.0
 10
18.5289613812
 20
5.6203113752
 30
0.0
 10
18.50570526
 20
5.6193008563
 30
0.0
 10
18.4940944068
 20
5.6193008563
 30
0.0
 11
18.8921958632
 21
6.0177926448
 31
0.0
 11
18.8906799135
 21
5.9829155226
 31
0.0
 11
18.8861283968
 21
5.9482414085
 31
0.0
 11
18.8785914463
 21
5.9141791823
 31
0.0
 11
18.8681677737
 21
5.8810554955
 31
0.0
 11
18.8548759744
 21
5.848906542
 31
0.0
 11
18.8388243952
 21
5.8180327836
 31
0.0
 11
18.8202026965
 21
5.7887776789
 31
0.0
 11
18.7991526494
 21
5.7613217159
 31
0.0
 11
18.7757126039
 21
5.7357251618
 31
0.0
 11
18.7501297151
 21
5.712280125
 31
0.0
 11
18.7226976351
 21
5.6912326701
 31
0.0
 11
18.6934762108
 21
5.6726185272
 31
0.0
 11
18.6626465508
 21
5.6565779745
 31
0.0
 11
18.6305506995
 21
5.6432983752
 31
0.0
 11
18.5974879632
 21
5.6328863823
 31
0.0
 11
18.5634945541
 21
5.6253593701
 31
0.0
 11
18.5288940665
 21
5.6208144275
 31
0.0
 11
18.4940944068
 21
5.6193008563
 31
0.0
  0
SPLINE
  5
326
100
AcDbEntity
  8
ASSI
100
AcDbSpline
 62
7
  6
CONTINUOUS
 70
0
 71
3
 72
25
 73
21
 74
19
 42
0.0000001
 43
0.0000001
 44
0.0000000001
 12
0.6261321933
 22
0.0
 32
0.0
 13
-0.0
 23
-0.6261321933
 33
0.0
 40
0.0
 40
0.0
 40
0.0
 40
0.0
 40
0.0557196865
 40
0.1115543222
 40
0.16726891
 40
0.2227412555
 40
0.2783287553
 40
0.3339444681
 40
0.3893836966
 40
0.4447005512
 40
0.5002024237
 40
0.5556989543
 40
0.6109983787
 40
0.6664087318
 40
0.7219853485
 40
0.7775255617
 40
0.8329421921
 40
0.8885915724
 40
0.9443558468
 40
1.0
 40
1.0
 40
1.0
 40
1.0
 10
18.4934669339
 20
7.8193008563
 30
0.0
 10
18.5050962304
 20
7.8193008563
 30
0.0
 10
18.5283915206
 20
7.8182886534
 30
0.0
 10
18.5630471111
 20
7.8137381861
 30
0.0
 10
18.597126406
 20
7.8061954309
 30
0.0
 10
18.6303697079
 20
7.7957311315
 30
0.0
 10
18.6625571526
 20
7.7824200027
 30
0.0
 10
18.6934536221
 20
7.766352901
 30
0.0
 10
18.7227819059
 20
7.7476808427
 30
0.0
 10
18.7503528008
 20
7.7265390708
 30
0.0
 10
18.7759835284
 20
7.7030645258
 30
0.0
 10
18.7994620861
 20
7.6774424076
 30
0.0
 10
18.8206040381
 20
7.6498852392
 30
0.0
 10
18.8392732687
 20
7.620576292
 30
0.0
 10
18.8553357148
 20
7.5897045226
 30
0.0
 10
18.8686412821
 20
7.5575468764
 30
0.0
 10
18.8790998138
 20
7.5243385707
 30
0.0
 10
18.8866375206
 20
7.4902990602
 30
0.0
 10
18.8911844755
 20
7.4556874579
 30
0.0
 10
18.8921958632
 20
7.4324226236
 30
0.0
 10
18.8921958632
 20
7.4208090917
 30
0.0
 11
18.4934669339
 21
7.8193008563
 31
0.0
 11
18.5283218805
 21
7.8177850937
 31
0.0
 11
18.5629841276
 21
7.8132331012
 31
0.0
 11
18.5970443297
 21
7.8056935573
 31
0.0
 11
18.6301745093
 21
7.7952640811
 31
0.0
 11
18.6623375077
 21
7.7819622717
 31
0.0
 11
18.6932322161
 21
7.7658954247
 31
0.0
 11
18.7225135006
 21
7.7472527543
 31
0.0
 11
18.7499984278
 21
7.7261765126
 31
0.0
 11
18.7756256395
 21
7.7027049679
 31
0.0
 11
18.7991012833
 21
7.6770860476
 31
0.0
 11
18.8201774891
 21
7.6496148471
 31
0.0
 11
18.8388170693
 21
7.6203530295
 31
0.0
 11
18.8548789527
 21
7.5894833323
 31
0.0
 11
18.8681751104
 21
7.557350037
 31
0.0
 11
18.878598778
 21
7.524254602
 31
0.0
 11
18.8861330013
 21
7.4902350391
 31
0.0
 11
18.8906814273
 21
7.4556167574
 31
0.0
 11
18.8921958632
 21
7.4208090917
 31
0.0
  0
SPLINE
  5
327
100
AcDbEntity
  8
ASSI
100
AcDbSpline
 62
253
  6
CONTINUOUS
 70
0
 71
3
 72
25
 73
21
 74
19
 42
0.0000001
 43
0.0000001
 44
0.0000000001
 12
0.4390248502
 22
-0.23920298
 32
0.0
 13
0.4999607732
 23
-0.0003316614
 33
0.0
 40
0.0
 40
0.0
 40
0.0
 40
0.0
 40
0.0068059321
 40
0.0207337758
 40
0.0417520194
 40
0.0697246347
 40
0.10445486
 40
0.1456934389
 40
0.1931423402
 40
0.246457634
 40
0.3052523085
 40
0.3690992429
 40
0.4375344016
 40
0.5100602612
 40
0.5861494626
 40
0.6652486693
 40
0.7467826077
 40
0.8301582634
 40
0.9147692045
 40
1.0
 40
1.0
 40
1.0
 40
1.0
 10
3.3712444912
 20
1.7288008563
 30
0.0
 10
3.3722404823
 20
1.7282581899
 30
0.0
 10
3.3757827791
 20
1.7278561375
 30
0.0
 10
3.3826042885
 20
1.7269810065
 30
0.0
 10
3.393113888
 20
1.7263069884
 30
0.0
 10
3.4070260948
 20
1.7255265481
 30
0.0
 10
3.4243405707
 20
1.7248034765
 30
0.0
 10
3.4448938073
 20
1.7240886573
 30
0.0
 10
3.4685502892
 20
1.7234100404
 30
0.0
 10
3.495133371
 20
1.7227665486
 30
0.0
 10
3.5244512116
 20
1.7221657936
 30
0.0
 10
3.5562900469
 20
1.721611821
 30
0.0
 10
3.5904183765
 20
1.721109149
 30
0.0
 10
3.6265878412
 20
1.7206615496
 30
0.0
 10
3.6645352816
 20
1.7202724268
 30
0.0
 10
3.7039845811
 20
1.7199446966
 30
0.0
 10
3.7446486979
 20
1.7196808098
 30
0.0
 10
3.7862317486
 20
1.7194827307
 30
0.0
 10
3.828431161
 20
1.7193519303
 30
0.0
 10
3.8567358865
 20
1.7193102789
 30
0.0
 10
3.8709399047
 20
1.7193008563
 30
0.0
 11
3.3712444912
 21
1.7288008563
 31
0.0
 11
3.3745493465
 21
1.7279907345
 31
0.0
 11
3.381466126
 21
1.7271865074
 31
0.0
 11
3.3919445006
 21
1.7263940269
 31
0.0
 11
3.4059082258
 21
1.7256190594
 31
0.0
 11
3.4232556963
 21
1.7248672439
 31
0.0
 11
3.4438606852
 21
1.7241440508
 31
0.0
 11
3.467573263
 21
1.7234547424
 31
0.0
 11
3.4942208881
 21
1.7228043343
 31
0.0
 11
3.5236096623
 21
1.7221975591
 31
0.0
 11
3.5555257418
 21
1.7216388321
 31
0.0
 11
3.5897368933
 21
1.7211322186
 31
0.0
 11
3.6259941835
 21
1.720681405
 31
0.0
 11
3.6640337909
 21
1.7202896715
 31
0.0
 11
3.7035789249
 21
1.7199598687
 31
0.0
 11
3.7443418403
 21
1.7196943962
 31
0.0
 11
3.7860259307
 21
1.7194951857
 31
0.0
 11
3.8283278872
 21
1.7193636868
 31
0.0
 11
3.8709399047
 21
1.7193008563
 31
0.0
  0
SPLINE
  5
328
100
AcDbEntity
  8
ASSI
100
AcDbSpline
 62
253
  6
CONTINUOUS
 70
0
 71
3
 72
25
 73
21
 74
19
 42
0.0000001
 43
0.0000001
 44
0.0000000001
 12
-0.4997136625
 22
0.0000069763
 32
0.0
 13
-0.4951377735
 23
0.0674709552
 33
0.0
 40
0.0
 40
0.0
 40
0.0
 40
0.0
 40
0.085271627
 40
0.1699228858
 40
0.2533392761
 40
0.334911862
 40
0.4140477186
 40
0.4901712172
 40
0.5627281194
 40
0.6311904874
 40
0.6950603256
 40
0.7538728639
 40
0.8072001514
 40
0.8546543022
 40
0.8958900524
 40
0.9306072984
 40
0.958553747
 40
0.9795266151
 40
0.9933739673
 40
1.0
 40
1.0
 40
1.0
 40
1.0
 10
3.8740849475
 20
10.8215324023
 30
0.0
 10
3.8598811484
 20
10.8215326006
 30
0.0
 10
3.8315768856
 20
10.8215387259
 30
0.0
 10
3.7893778602
 20
10.8215650822
 30
0.0
 10
3.7477950028
 20
10.8216083996
 30
0.0
 10
3.7071308742
 20
10.8216683513
 30
0.0
 10
3.6676815607
 20
10.8217444921
 30
0.0
 10
3.6297340378
 20
10.821836248
 30
0.0
 10
3.5935644574
 20
10.8219429303
 30
0.0
 10
3.5594360393
 20
10.822063721
 30
0.0
 10
3.5275971073
 20
10.8221977194
 30
0.0
 10
3.498279316
 20
10.8223437985
 30
0.0
 10
3.4716960359
 20
10.8225010644
 30
0.0
 10
3.4480405666
 20
10.8226673515
 30
0.0
 10
3.4274854473
 20
10.8228438263
 30
0.0
 10
3.4101790782
 20
10.8230209223
 30
0.0
 10
3.3962505877
 20
10.8232181257
 30
0.0
 10
3.3857928286
 20
10.8233759549
 30
0.0
 10
3.3788998011
 20
10.8236118984
 30
0.0
 10
3.3754812892
 20
10.8236878371
 30
0.0
 10
3.3743876895
 20
10.8238368586
 30
0.0
 11
3.8740849475
 21
10.8215324023
 31
0.0
 11
3.8314735514
 21
10.8215416575
 31
0.0
 11
3.7891721691
 21
10.8215681732
 31
0.0
 11
3.747487882
 21
10.8216117586
 31
0.0
 11
3.706724991
 21
10.8216720932
 31
0.0
 11
3.6671797966
 21
10.8217487385
 31
0.0
 11
3.6291399565
 21
10.8218411352
 31
0.0
 11
3.5928824404
 21
10.8219486095
 31
0.0
 11
3.5586710764
 21
10.8220703774
 31
0.0
 11
3.5267547319
 21
10.8222055515
 31
0.0
 11
3.4973656736
 21
10.8223531462
 31
0.0
 11
3.4707177734
 21
10.8225120857
 31
0.0
 11
3.4470048891
 21
10.822681212
 31
0.0
 11
3.4263995908
 21
10.8228592926
 31
0.0
 11
3.409051903
 21
10.8230450301
 31
0.0
 11
3.3950880012
 21
10.8232370698
 31
0.0
 11
3.3846094232
 21
10.8234340207
 31
0.0
 11
3.3776926149
 21
10.8236344295
 31
0.0
 11
3.3743876895
 21
10.8238368586
 31
0.0
  0
SPLINE
  5
329
100
AcDbEntity
  8
ASSI
100
AcDbSpline
 62
253
  6
CONTINUOUS
 70
0
 71
3
 72
25
 73
21
 74
19
 42
0.0000001
 43
0.0000001
 44
0.0000000001
 12
0.1156726251
 22
-0.5000143338
 32
0.0
 13
0.5132129288
 23
-0.0026419615
 33
0.0
 40
0.0
 40
0.0
 40
0.0
 40
0.0
 40
0.0139486785
 40
0.0321748852
 40
0.0558987827
 40
0.0855593295
 40
0.1212490579
 40
0.1628831388
 40
0.2102678154
 40
0.263131883
 40
0.3211434014
 40
0.3839199748
 40
0.4510360341
 40
0.5220286665
 40
0.5964027304
 40
0.6736356257
 40
0.7531819132
 40
0.8344778801
 40
0.9169460991
 40
1.0
 40
1.0
 40
1.0
 40
1.0
 10
3.3368816373
 20
-9.9135544721
 30
0.0
 10
3.337419464
 20
-9.9158793185
 30
0.0
 10
3.3402988112
 20
-9.9208288617
 30
0.0
 10
3.3476619607
 20
-9.9270402087
 30
0.0
 10
3.3583355101
 20
-9.9331435662
 30
0.0
 10
3.3723852513
 20
-9.9390985548
 30
0.0
 10
3.3897564606
 20
-9.9449031335
 30
0.0
 10
3.4103524364
 20
-9.9504997531
 30
0.0
 10
3.4340345837
 20
-9.9558464919
 30
0.0
 10
3.4606374216
 20
-9.9608990772
 30
0.0
 10
3.4899707567
 20
-9.965618188
 30
0.0
 10
3.5218232046
 20
-9.9699672211
 30
0.0
 10
3.5559641803
 20
-9.9739130305
 30
0.0
 10
3.5921459932
 20
-9.9774257716
 30
0.0
 10
3.6301058144
 20
-9.9804790653
 30
0.0
 10
3.6695677046
 20
-9.983050089
 30
0.0
 10
3.7102446735
 20
-9.985119695
 30
0.0
 10
3.751840846
 20
-9.9866725118
 30
0.0
 10
3.7940534986
 20
-9.9876970314
 30
0.0
 10
3.8223689389
 20
-9.9880224216
 30
0.0
 10
3.8365770508
 20
-9.9880955633
 30
0.0
 11
3.3368816373
 21
-9.9135544721
 31
0.0
 11
3.3401713976
 21
-9.9199125373
 31
0.0
 11
3.3470749969
 21
-9.9262243157
 31
0.0
 11
3.357542177
 21
-9.9324438575
 31
0.0
 11
3.3714967366
 21
-9.9385258843
 31
0.0
 11
3.3888370865
 21
-9.944426119
 31
0.0
 11
3.4094369885
 21
-9.9501016077
 31
0.0
 11
3.4331464753
 21
-9.9555110328
 31
0.0
 11
3.4597929415
 21
-9.9606150137
 31
0.0
 11
3.4891824005
 21
-9.9653763932
 31
0.0
 11
3.5211008966
 21
-9.9697605086
 31
0.0
 11
3.5553160629
 21
-9.9737354434
 31
0.0
 11
3.5915788125
 21
-9.9772722599
 31
0.0
 11
3.6296251522
 21
-9.9803452103
 31
0.0
 11
3.6691781041
 21
-9.9829319232
 31
0.0
 11
3.7099497224
 21
-9.9850135675
 31
0.0
 11
3.7516431891
 21
-9.9865749887
 31
0.0
 11
3.7939549753
 21
-9.9876048197
 31
0.0
 11
3.8365770508
 21
-9.9880955633
 31
0.0
  0
SPLINE
  5
32A
100
AcDbEntity
  8
ASSI
100
AcDbSpline
 62
253
  6
CONTINUOUS
 70
0
 71
3
 72
25
 73
21
 74
19
 42
0.0000001
 43
0.0000001
 44
0.0000000001
 12
0.0014329144
 22
-0.7839168072
 32
0.0
 13
0.7839168112
 23
-0.0014307322
 33
0.0
 40
0.0
 40
0.0
 40
0.0
 40
0.0
 40
0.0555066409
 40
0.1110226213
 40
0.1665481587
 40
0.2220831809
 40
0.2776273283
 40
0.3331799649
 40
0.3887401978
 40
0.444306904
 40
0.4998787649
 40
0.555454306
 40
0.6110319415
 40
0.6666100223
 40
0.7221868858
 40
0.7777609063
 40
0.833330544
 40
0.8888943916
 40
0.9444512168
 40
1.0
 40
1.0
 40
1.0
 40
1.0
 10
3.3205301816
 20
-10.3383281483
 30
0.0
 10
3.3205566937
 20
-10.3528323445
 30
0.0
 10
3.3218763835
 20
-10.3818567641
 30
0.0
 10
3.3276396783
 20
-10.4250464606
 30
0.0
 10
3.3371431325
 20
-10.4675810233
 30
0.0
 10
3.3503145506
 20
-10.5091331556
 30
0.0
 10
3.3670538996
 20
-10.5493885339
 30
0.0
 10
3.3872340573
 20
-10.5880412113
 30
0.0
 10
3.4107017827
 20
-10.6247978102
 30
0.0
 10
3.4372788796
 20
-10.6593792465
 30
0.0
 10
3.4667635499
 20
-10.6915229817
 30
0.0
 10
3.4989319268
 20
-10.7209849776
 30
0.0
 10
3.5335397714
 20
-10.7475415575
 30
0.0
 10
3.5703243357
 20
-10.7709911001
 30
0.0
 10
3.6090063204
 20
-10.7911555696
 30
0.0
 10
3.649292128
 20
-10.8078818665
 30
0.0
 10
3.6908755897
 20
-10.821042989
 30
0.0
 10
3.7334421552
 20
-10.8305390001
 30
0.0
 10
3.7766643125
 20
-10.8362977751
 30
0.0
 10
3.8057103868
 20
-10.8376164238
 30
0.0
 10
3.8202255951
 20
-10.8376429156
 30
0.0
 11
3.3205301816
 21
-10.3383281483
 31
0.0
 11
3.3225067111
 21
-10.3817958953
 31
0.0
 11
3.3282623832
 21
-10.4249335951
 31
0.0
 11
3.3377534956
 21
-10.4674137062
 31
0.0
 11
3.3509079831
 21
-10.5089136803
 31
0.0
 11
3.3676259645
 21
-10.5491184112
 31
0.0
 11
3.3877805016
 21
-10.5877226273
 31
0.0
 11
3.4112185624
 21
-10.6244332096
 31
0.0
 11
3.4377621835
 21
-10.6589714174
 31
0.0
 11
3.4672098212
 21
-10.6910750045
 31
0.0
 11
3.4993378817
 21
-10.7205002109
 31
0.0
 11
3.5339024191
 21
-10.747023613
 31
0.0
 11
3.5706409874
 21
-10.7704438205
 31
0.0
 11
3.6092746333
 21
-10.7905830056
 31
0.0
 11
3.6495100144
 21
-10.8072882528
 31
0.0
 11
3.6910416264
 21
-10.8204327205
 31
0.0
 11
3.7335541229
 21
-10.8299166036
 31
0.0
 11
3.7767247095
 21
-10.8356678917
 31
0.0
 11
3.8202255951
 21
-10.8376429156
 31
0.0
  0
SPLINE
  5
32B
100
AcDbEntity
  8
ASSI
100
AcDbSpline
 62
253
  6
CONTINUOUS
 70
0
 71
3
 72
26
 73
22
 74
20
 42
0.0000001
 43
0.0000001
 44
0.0000000001
 12
0.2685929374
 22
0.8063832935
 32
0.0
 13
0.0022369592
 23
0.8499359847
 33
0.0
 40
0.0
 40
0.0
 40
0.0
 40
0.0
 40
0.0076246917
 40
0.0212415454
 40
0.0408201379
 40
0.0662705183
 40
0.097465855
 40
0.134246857
 40
0.176424113
 40
0.2237795972
 40
0.2760683609
 40
0.3330193498
 40
0.3943374779
 40
0.4597046572
 40
0.5287822035
 40
0.6012118306
 40
0.6766179093
 40
0.7546093822
 40
0.8347824281
 40
0.9167204116
 40
1.0
 40
1.0
 40
1.0
 40
1.0
 10
3.8202255951
 20
-10.8376429156
 30
0.0
 10
3.8209082412
 20
-10.835593441
 30
0.0
 10
3.8217373539
 20
-10.8295843548
 30
0.0
 10
3.8229570845
 20
-10.8181134131
 30
0.0
 10
3.8240898834
 20
-10.8015198642
 30
0.0
 10
3.8252699651
 20
-10.7799627478
 30
0.0
 10
3.826410964
 20
-10.7535155758
 30
0.0
 10
3.8275289536
 20
-10.7223282997
 30
0.0
 10
3.8286063565
 20
-10.6865577716
 30
0.0
 10
3.8296393814
 20
-10.6463911679
 30
0.0
 10
3.8306208198
 20
-10.6020364555
 30
0.0
 10
3.8315453712
 20
-10.5537239884
 30
0.0
 10
3.8324077825
 20
-10.5017045394
 30
0.0
 10
3.8332033626
 20
-10.4462480492
 30
0.0
 10
3.8339278004
 20
-10.3876423032
 30
0.0
 10
3.834577209
 20
-10.3261913655
 30
0.0
 10
3.835148133
 20
-10.2622141161
 30
0.0
 10
3.8356375224
 20
-10.1960423206
 30
0.0
 10
3.8360428262
 20
-10.128019351
 30
0.0
 10
3.8363618341
 20
-10.0584977168
 30
0.0
 10
3.8365149531
 20
-10.0116896696
 30
0.0
 10
3.8365770508
 20
-9.9880955633
 30
0.0
 11
3.8202255951
 21
-10.8376429156
 31
0.0
 11
3.8214784162
 21
-10.8312846448
 31
0.0
 11
3.8227199334
 21
-10.8197779337
 31
0.0
 11
3.8239438244
 21
-10.8031823945
 31
0.0
 11
3.8251436445
 21
-10.7815844262
 31
0.0
 11
3.826313208
 21
-10.755096103
 31
0.0
 11
3.8274464321
 21
-10.7238550439
 31
0.0
 11
3.8285374397
 21
-10.6880235578
 31
0.0
 11
3.8295805679
 21
-10.6477878079
 31
0.0
 11
3.8305704105
 21
-10.6033565766
 31
0.0
 11
3.8315018308
 21
-10.5549606763
 31
0.0
 11
3.8323700008
 21
-10.5028512438
 31
0.0
 11
3.8331704169
 21
-10.4472988995
 31
0.0
 11
3.8338989332
 21
-10.3885917238
 31
0.0
 11
3.8345517716
 21
-10.3270344258
 31
0.0
 11
3.8351255504
 21
-10.2629464326
 31
0.0
 11
3.8356172911
 21
-10.1966602677
 31
0.0
 11
3.8360244609
 21
-10.1285192914
 31
0.0
 11
3.8363449234
 21
-10.0588777468
 31
0.0
 11
3.8365770508
 21
-9.9880955633
 31
0.0
  0
SPLINE
  5
32C
100
AcDbEntity
  8
ASSI
100
AcDbSpline
 62
253
  6
CONTINUOUS
 70
0
 71
3
 72
26
 73
22
 74
20
 42
0.0000001
 43
0.0000001
 44
0.0000000001
 12
0.2359522709
 22
0.3541440557
 32
0.0
 13
0.0022405098
 23
0.4255425554
 33
0.0
 40
0.0
 40
0.0
 40
0.0
 40
0.0
 40
0.0080280304
 40
0.0218584245
 40
0.0415678431
 40
0.0671002974
 40
0.0983438593
 40
0.135147229
 40
0.1773258644
 40
0.2246650247
 40
0.2769221631
 40
0.333828105
 40
0.3950893218
 40
0.4603890646
 40
0.5293898417
 40
0.6017344933
 40
0.6770484607
 40
0.7549417191
 40
0.8350114612
 40
0.9168420376
 40
1.0
 40
1.0
 40
1.0
 40
1.0
 10
3.3205301816
 20
-10.3383281483
 30
0.0
 10
3.3211615923
 20
-10.3373804552
 30
0.0
 10
3.3220572017
 20
-10.3343392006
 30
0.0
 10
3.3232433656
 20
-10.3286014535
 30
0.0
 10
3.3243982727
 20
-10.3202791396
 30
0.0
 10
3.3255714159
 20
-10.3095005136
 30
0.0
 10
3.326715679
 20
-10.2962719838
 30
0.0
 10
3.3278329082
 20
-10.2806771508
 30
0.0
 10
3.3289107622
 20
-10.2627903624
 30
0.0
 10
3.3299437683
 20
-10.2427061151
 30
0.0
 10
3.3309252969
 20
-10.2205278704
 30
0.0
 10
3.3318498814
 20
-10.1963708483
 30
0.0
 10
3.3327123278
 20
-10.170360356
 30
0.0
 10
3.3335079319
 20
-10.1426313557
 30
0.0
 10
3.3342323878
 20
-10.1133277291
 30
0.0
 10
3.3348818117
 20
-10.0826015077
 30
0.0
 10
3.3354527403
 20
-10.0506121312
 30
0.0
 10
3.3359421444
 20
-10.0175254847
 30
0.0
 10
3.3363474313
 20
-9.9835132591
 30
0.0
 10
3.3366664524
 20
-9.9487532923
 30
0.0
 10
3.3368195319
 20
-9.9253502227
 30
0.0
 10
3.3368816373
 20
-9.9135544721
 30
0.0
 11
3.3205301816
 21
-10.3383281483
 31
0.0
 11
3.3217827883
 21
-10.3351497539
 31
0.0
 11
3.3230243628
 21
-10.3293966993
 31
0.0
 11
3.3242482571
 21
-10.3210991638
 31
0.0
 11
3.3254481044
 21
-10.3103003198
 31
0.0
 11
3.3266176863
 21
-10.2970562127
 31
0.0
 11
3.3277509316
 21
-10.2814356492
 31
0.0
 11
3.3288419587
 21
-10.2635197856
 31
0.0
 11
3.3298851059
 21
-10.2434017052
 31
0.0
 11
3.3308749661
 21
-10.2211858022
 31
0.0
 11
3.3318064025
 21
-10.1969874863
 31
0.0
 11
3.3326745869
 21
-10.1709323306
 31
0.0
 11
3.3334750154
 21
-10.1431556565
 31
0.0
 11
3.3342035413
 21
-10.1138015215
 31
0.0
 11
3.3348563873
 21
-10.0830222898
 31
0.0
 11
3.3354301695
 21
-10.0509776839
 31
0.0
 11
3.3359219145
 21
-10.0178339761
 31
0.0
 11
3.3363290775
 21
-9.9837628539
 31
0.0
 11
3.3366495452
 21
-9.9489414533
 31
0.0
 11
3.3368816373
 21
-9.9135544721
 31
0.0
  0
SPLINE
  5
32D
100
AcDbEntity
  8
ASSI
100
AcDbSpline
 62
253
  6
CONTINUOUS
 70
0
 71
3
 72
25
 73
21
 74
19
 42
0.0000001
 43
0.0000001
 44
0.0000000001
 12
-0.1156726714
 22
-0.5000143222
 32
0.0
 13
-0.5132129279
 23
-0.0026419614
 33
0.0
 40
0.0
 40
0.0
 40
0.0
 40
0.0
 40
0.013948679
 40
0.0321748863
 40
0.0558987844
 40
0.0855593318
 40
0.1212490608
 40
0.1628831421
 40
0.210267819
 40
0.2631318866
 40
0.3211434051
 40
0.3839199784
 40
0.4510360375
 40
0.5220286697
 40
0.5964027332
 40
0.673635628
 40
0.753181915
 40
0.8344778813
 40
0.9169460997
 40
1.0
 40
1.0
 40
1.0
 40
1.0
 10
25.3475100891
 20
-9.9135544721
 30
0.0
 10
25.3469722621
 20
-9.9158793185
 30
0.0
 10
25.3440929145
 20
-9.9208288617
 30
0.0
 10
25.3367297646
 20
-9.9270402086
 30
0.0
 10
25.3260562148
 20
-9.9331435659
 30
0.0
 10
25.3120064733
 20
-9.9390985544
 30
0.0
 10
25.2946352637
 20
-9.9449031331
 30
0.0
 10
25.2740392877
 20
-9.9504997525
 30
0.0
 10
25.2503571403
 20
-9.9558464913
 30
0.0
 10
25.2237543024
 20
-9.9608990765
 30
0.0
 10
25.1944209673
 20
-9.9656181872
 30
0.0
 10
25.1625685195
 20
-9.9699672202
 30
0.0
 10
25.1284275439
 20
-9.9739130296
 30
0.0
 10
25.0922457313
 20
-9.9774257706
 30
0.0
 10
25.0542859102
 20
-9.9804790642
 30
0.0
 10
25.0148240204
 20
-9.9830500879
 30
0.0
 10
24.9741470518
 20
-9.9851196939
 30
0.0
 10
24.9325508797
 20
-9.9866725105
 30
0.0
 10
24.8903382275
 20
-9.9876970301
 30
0.0
 10
24.8620227874
 20
-9.9880224203
 30
0.0
 10
24.8478146756
 20
-9.988095562
 30
0.0
 11
25.3475100891
 21
-9.9135544721
 31
0.0
 11
25.3442203283
 21
-9.9199125372
 31
0.0
 11
25.3373167285
 21
-9.9262243155
 31
0.0
 11
25.3268495479
 21
-9.9324438572
 31
0.0
 11
25.312894988
 21
-9.938525884
 31
0.0
 11
25.2955546378
 21
-9.9444261186
 31
0.0
 11
25.2749547356
 21
-9.9501016072
 31
0.0
 11
25.2512452486
 21
-9.9555110322
 31
0.0
 11
25.2245987824
 21
-9.960615013
 31
0.0
 11
25.1952093235
 21
-9.9653763925
 31
0.0
 11
25.1632908274
 21
-9.9697605077
 31
0.0
 11
25.1290756613
 21
-9.9737354424
 31
0.0
 11
25.0928129119
 21
-9.9772722589
 31
0.0
 11
25.0547665725
 21
-9.9803452092
 31
0.0
 11
25.0152136209
 21
-9.9829319221
 31
0.0
 11
24.9744420029
 21
-9.9850135663
 31
0.0
 11
24.9327485366
 21
-9.9865749875
 31
0.0
 11
24.8904367507
 21
-9.9876048185
 31
0.0
 11
24.8478146756
 21
-9.988095562
 31
0.0
  0
SPLINE
  5
32E
100
AcDbEntity
  8
ASSI
100
AcDbSpline
 62
253
  6
CONTINUOUS
 70
0
 71
3
 72
26
 73
22
 74
20
 42
0.0000001
 43
0.0000001
 44
0.0000000001
 12
0.0022369592
 22
-0.8499359847
 32
0.0
 13
0.2685929371
 23
-0.8063832936
 33
0.0
 40
0.0
 40
0.0
 40
0.0
 40
0.0
 40
0.0832795884
 40
0.1652175719
 40
0.2453906178
 40
0.3233820907
 40
0.3987881694
 40
0.4712177965
 40
0.5402953428
 40
0.6056625221
 40
0.6669806502
 40
0.7239316391
 40
0.7762204028
 40
0.823575887
 40
0.865753143
 40
0.902534145
 40
0.9337294817
 40
0.9591798621
 40
0.9787584546
 40
0.9923753083
 40
1.0
 40
1.0
 40
1.0
 40
1.0
 10
24.8478146756
 20
-9.9880955633
 30
0.0
 10
24.8478767733
 20
-10.0116896696
 30
0.0
 10
24.8480298924
 20
-10.0584977168
 30
0.0
 10
24.8483489002
 20
-10.128019351
 30
0.0
 10
24.848754204
 20
-10.1960423206
 30
0.0
 10
24.8492435935
 20
-10.2622141161
 30
0.0
 10
24.8498145174
 20
-10.3261913655
 30
0.0
 10
24.850463926
 20
-10.3876423032
 30
0.0
 10
24.8511883638
 20
-10.4462480492
 30
0.0
 10
24.8519839439
 20
-10.5017045394
 30
0.0
 10
24.8528463552
 20
-10.5537239884
 30
0.0
 10
24.8537709067
 20
-10.6020364555
 30
0.0
 10
24.854752345
 20
-10.6463911679
 30
0.0
 10
24.8557853699
 20
-10.6865577716
 30
0.0
 10
24.8568627728
 20
-10.7223282997
 30
0.0
 10
24.8579807624
 20
-10.7535155758
 30
0.0
 10
24.8591217613
 20
-10.7799627478
 30
0.0
 10
24.860301843
 20
-10.8015198642
 30
0.0
 10
24.8614346419
 20
-10.8181134131
 30
0.0
 10
24.8626543726
 20
-10.8295843548
 30
0.0
 10
24.8634834852
 20
-10.835593441
 30
0.0
 10
24.8641661313
 20
-10.8376429156
 30
0.0
 11
24.8478146756
 21
-9.9880955633
 31
0.0
 11
24.8480468031
 21
-10.0588777468
 31
0.0
 11
24.8483672655
 21
-10.1285192914
 31
0.0
 11
24.8487744353
 21
-10.1966602677
 31
0.0
 11
24.849266176
 21
-10.2629464326
 31
0.0
 11
24.8498399548
 21
-10.3270344258
 31
0.0
 11
24.8504927932
 21
-10.3885917238
 31
0.0
 11
24.8512213095
 21
-10.4472988995
 31
0.0
 11
24.8520217256
 21
-10.5028512438
 31
0.0
 11
24.8528898956
 21
-10.5549606763
 31
0.0
 11
24.8538213159
 21
-10.6033565766
 31
0.0
 11
24.8548111585
 21
-10.6477878079
 31
0.0
 11
24.8558542868
 21
-10.6880235578
 31
0.0
 11
24.8569452943
 21
-10.7238550439
 31
0.0
 11
24.8580785184
 21
-10.755096103
 31
0.0
 11
24.8592480819
 21
-10.7815844262
 31
0.0
 11
24.860447902
 21
-10.8031823945
 31
0.0
 11
24.8616717931
 21
-10.8197779337
 31
0.0
 11
24.8629133102
 21
-10.8312846448
 31
0.0
 11
24.8641661313
 21
-10.8376429156
 31
0.0
  0
SPLINE
  5
32F
100
AcDbEntity
  8
ASSI
100
AcDbSpline
 62
253
  6
CONTINUOUS
 70
0
 71
3
 72
26
 73
22
 74
20
 42
0.0000001
 43
0.0000001
 44
0.0000000001
 12
0.0022405098
 22
-0.4255425554
 32
0.0
 13
0.2359522711
 23
-0.3541440557
 33
0.0
 40
0.0
 40
0.0
 40
0.0
 40
0.0
 40
0.0831579624
 40
0.1649885388
 40
0.2450582809
 40
0.3229515393
 40
0.3982655067
 40
0.4706101583
 40
0.5396109354
 40
0.6049106782
 40
0.666171895
 40
0.7230778369
 40
0.7753349753
 40
0.8226741356
 40
0.864852771
 40
0.9016561407
 40
0.9328997026
 40
0.9584321569
 40
0.9781415755
 40
0.9919719696
 40
1.0
 40
1.0
 40
1.0
 40
1.0
 10
25.3475100891
 20
-9.9135544721
 30
0.0
 10
25.3475721945
 20
-9.9253502227
 30
0.0
 10
25.3477252741
 20
-9.9487532923
 30
0.0
 10
25.3480442951
 20
-9.9835132591
 30
0.0
 10
25.348449582
 20
-10.0175254847
 30
0.0
 10
25.3489389861
 20
-10.0506121312
 30
0.0
 10
25.3495099147
 20
-10.0826015077
 30
0.0
 10
25.3501593386
 20
-10.1133277291
 30
0.0
 10
25.3508837945
 20
-10.1426313557
 30
0.0
 10
25.3516793987
 20
-10.170360356
 30
0.0
 10
25.352541845
 20
-10.1963708483
 30
0.0
 10
25.3534664295
 20
-10.2205278704
 30
0.0
 10
25.3544479581
 20
-10.2427061151
 30
0.0
 10
25.3554809642
 20
-10.2627903624
 30
0.0
 10
25.3565588183
 20
-10.2806771508
 30
0.0
 10
25.3576760474
 20
-10.2962719838
 30
0.0
 10
25.3588203105
 20
-10.3095005136
 30
0.0
 10
25.3599934537
 20
-10.3202791396
 30
0.0
 10
25.3611483608
 20
-10.3286014535
 30
0.0
 10
25.3623345247
 20
-10.3343392006
 30
0.0
 10
25.3632301341
 20
-10.3373804552
 30
0.0
 10
25.3638615448
 20
-10.3383281483
 30
0.0
 11
25.3475100891
 21
-9.9135544721
 31
0.0
 11
25.3477421812
 21
-9.9489414533
 31
0.0
 11
25.3480626489
 21
-9.9837628539
 31
0.0
 11
25.3484698119
 21
-10.0178339761
 31
0.0
 11
25.348961557
 21
-10.0509776839
 31
0.0
 11
25.3495353391
 21
-10.0830222898
 31
0.0
 11
25.3501881851
 21
-10.1138015215
 31
0.0
 11
25.350916711
 21
-10.1431556565
 31
0.0
 11
25.3517171395
 21
-10.1709323306
 31
0.0
 11
25.3525853239
 21
-10.1969874863
 31
0.0
 11
25.3535167603
 21
-10.2211858022
 31
0.0
 11
25.3545066206
 21
-10.2434017052
 31
0.0
 11
25.3555497678
 21
-10.2635197856
 31
0.0
 11
25.3566407949
 21
-10.2814356492
 31
0.0
 11
25.3577740401
 21
-10.2970562127
 31
0.0
 11
25.358943622
 21
-10.3103003198
 31
0.0
 11
25.3601434694
 21
-10.3210991638
 31
0.0
 11
25.3613673637
 21
-10.3293966993
 31
0.0
 11
25.3626089381
 21
-10.3351497539
 31
0.0
 11
25.3638615448
 21
-10.3383281483
 31
0.0
  0
SPLINE
  5
330
100
AcDbEntity
  8
ASSI
100
AcDbSpline
 62
253
  6
CONTINUOUS
 70
0
 71
3
 72
25
 73
21
 74
19
 42
0.0000001
 43
0.0000001
 44
0.0000000001
 12
-0.0014329144
 22
-0.7839168072
 32
0.0
 13
-0.7839168112
 23
-0.0014307322
 33
0.0
 40
0.0
 40
0.0
 40
0.0
 40
0.0
 40
0.055506642
 40
0.1110226234
 40
0.1665481617
 40
0.2220831846
 40
0.2776273326
 40
0.3331799697
 40
0.3887402028
 40
0.4443069091
 40
0.49987877
 40
0.555454311
 40
0.6110319462
 40
0.6666100265
 40
0.7221868895
 40
0.7777609094
 40
0.8333305464
 40
0.8888943932
 40
0.9444512176
 40
1.0
 40
1.0
 40
1.0
 40
1.0
 10
25.3638615448
 20
-10.3383281483
 30
0.0
 10
25.3638350327
 20
-10.3528323448
 30
0.0
 10
25.3625153428
 20
-10.381856765
 30
0.0
 10
25.3567520478
 20
-10.4250464622
 30
0.0
 10
25.3472485934
 20
-10.4675810256
 30
0.0
 10
25.3340771749
 20
-10.5091331583
 30
0.0
 10
25.3173378255
 20
-10.5493885369
 30
0.0
 10
25.2971576673
 20
-10.5880412145
 30
0.0
 10
25.2736899415
 20
-10.6247978134
 30
0.0
 10
25.2471128442
 20
-10.6593792496
 30
0.0
 10
25.2176281737
 20
-10.6915229845
 30
0.0
 10
25.1854597966
 20
-10.72098498
 30
0.0
 10
25.1508519521
 20
-10.7475415596
 30
0.0
 10
25.1140673879
 20
-10.7709911017
 30
0.0
 10
25.0753854034
 20
-10.7911555708
 30
0.0
 10
25.0350995962
 20
-10.8078818673
 30
0.0
 10
24.9935161349
 20
-10.8210429895
 30
0.0
 10
24.95094957
 20
-10.8305390003
 30
0.0
 10
24.9077274133
 20
-10.8362977751
 30
0.0
 10
24.8786813394
 20
-10.8376164238
 30
0.0
 10
24.8641661313
 20
-10.8376429156
 30
0.0
 11
25.3638615448
 21
-10.3383281483
 31
0.0
 11
25.3618850153
 21
-10.3817958962
 31
0.0
 11
25.3561293429
 21
-10.4249335967
 31
0.0
 11
25.3466382302
 21
-10.4674137084
 31
0.0
 11
25.3334837424
 21
-10.508913683
 31
0.0
 11
25.3167657605
 21
-10.5491184142
 31
0.0
 11
25.296611223
 21
-10.5877226305
 31
0.0
 11
25.2731731618
 21
-10.6244332128
 31
0.0
 11
25.2466295403
 21
-10.6589714205
 31
0.0
 11
25.2171819024
 21
-10.6910750074
 31
0.0
 11
25.1850538417
 21
-10.7205002134
 31
0.0
 11
25.1504893043
 21
-10.7470236151
 31
0.0
 11
25.1137507362
 21
-10.7704438222
 31
0.0
 11
25.0751170905
 21
-10.7905830068
 31
0.0
 11
25.0348817098
 21
-10.8072882537
 31
0.0
 11
24.9933500982
 21
-10.820432721
 31
0.0
 11
24.9508376023
 21
-10.8299166038
 31
0.0
 11
24.9076670163
 21
-10.8356678917
 31
0.0
 11
24.8641661313
 21
-10.8376429156
 31
0.0
  0
SPLINE
  5
331
100
AcDbEntity
  8
ASSI
100
AcDbSpline
 62
253
  6
CONTINUOUS
 70
0
 71
3
 72
25
 73
21
 74
19
 42
0.0000001
 43
0.0000001
 44
0.0000000001
 12
-0.2498751414
 22
0.0000000203
 32
0.0
 13
-0.2424238368
 23
0.0605662416
 33
0.0
 40
0.0
 40
0.0
 40
0.0
 40
0.0
 40
0.0852547325
 40
0.169900986
 40
0.2533120723
 40
0.3348797757
 40
0.4140110861
 40
0.4901304632
 40
0.5626837212
 40
0.6311429841
 40
0.6950103138
 40
0.7538209474
 40
0.8071470326
 40
0.8546008355
 40
0.8958373009
 40
0.9305566248
 40
0.958507049
 40
0.9794866968
 40
0.9933463674
 40
1.0
 40
1.0
 40
1.0
 40
1.0
 10
3.8740831171
 20
11.0717217681
 30
0.0
 10
3.8669821043
 20
11.0717217687
 30
0.0
 10
3.8528307594
 20
11.0717270198
 30
0.0
 10
3.8317319741
 20
11.0717506269
 30
0.0
 10
3.8109403112
 20
11.0717897791
 30
0.0
 10
3.7906080332
 20
11.0718441849
 30
0.0
 10
3.7708831427
 20
11.0719134378
 30
0.0
 10
3.7519091429
 20
11.0719970189
 30
0.0
 10
3.7338241138
 20
11.0720943011
 30
0.0
 10
3.7167596712
 20
11.0722045407
 30
0.0
 10
3.7008399933
 20
11.0723269153
 30
0.0
 10
3.6861809051
 20
11.072460402
 30
0.0
 10
3.6728891432
 20
11.0726041703
 30
0.0
 10
3.661061212
 20
11.072756289
 30
0.0
 10
3.6507838051
 20
11.0729176799
 30
0.0
 10
3.6421298127
 20
11.0730800262
 30
0.0
 10
3.6351673239
 20
11.0732599449
 30
0.0
 10
3.6299333746
 20
11.0734061315
 30
0.0
 10
3.6264946784
 20
11.07361921
 30
0.0
 10
3.6247731295
 20
11.0736930018
 30
0.0
 10
3.6242354632
 20
11.0738273303
 30
0.0
 11
3.8740831171
 21
11.0717217681
 31
0.0
 11
3.8527800802
 21
11.0717297032
 31
0.0
 11
3.831629099
 21
11.0717534557
 31
0.0
 11
3.8107867792
 21
11.0717928528
 31
0.0
 11
3.7904051114
 21
11.0718476077
 31
0.0
 11
3.7706322869
 21
11.0719173222
 31
0.0
 11
3.751612133
 21
11.0720014893
 31
0.0
 11
3.7334831423
 21
11.0720994964
 31
0.0
 11
3.7163772353
 21
11.0722106302
 31
0.0
 11
3.7004188548
 21
11.0723340825
 31
0.0
 11
3.6857241583
 21
11.0724689546
 31
0.0
 11
3.6724000876
 21
11.072614265
 31
0.0
 11
3.660543571
 21
11.0727689567
 31
0.0
 11
3.6502408919
 21
11.072931904
 31
0.0
 11
3.641567062
 21
11.0731019205
 31
0.0
 11
3.6345851599
 21
11.0732777693
 31
0.0
 11
3.6293459725
 21
11.0734581719
 31
0.0
 11
3.6258876577
 21
11.0736418127
 31
0.0
 11
3.6242354632
 21
11.0738273303
 31
0.0
  0
SPLINE
  5
332
100
AcDbEntity
  8
ASSI
100
AcDbSpline
 62
253
  6
CONTINUOUS
 70
0
 71
3
 72
25
 73
21
 74
19
 42
0.0000001
 43
0.0000001
 44
0.0000000001
 12
-0.2424238368
 22
-0.0605662415
 32
0.0
 13
-0.2498751414
 23
-0.0000000203
 33
0.0
 40
0.0
 40
0.0
 40
0.0
 40
0.0
 40
0.0066536326
 40
0.0205133032
 40
0.041492951
 40
0.0694433752
 40
0.1041626991
 40
0.1453991645
 40
0.1928529674
 40
0.2461790526
 40
0.3049896861
 40
0.3688570158
 40
0.4373162788
 40
0.5098695368
 40
0.5859889138
 40
0.6651202243
 40
0.7466879277
 40
0.830099014
 40
0.9147452674
 40
1.0
 40
1.0
 40
1.0
 40
1.0
 10
25.0601562633
 20
11.0738273303
 30
0.0
 10
25.0596185969
 20
11.0736930018
 30
0.0
 10
25.057897048
 20
11.07361921
 30
0.0
 10
25.0544583518
 20
11.0734061315
 30
0.0
 10
25.0492244025
 20
11.0732599449
 30
0.0
 10
25.0422619137
 20
11.0730800262
 30
0.0
 10
25.0336079214
 20
11.0729176799
 30
0.0
 10
25.0233305144
 20
11.072756289
 30
0.0
 10
25.0115025832
 20
11.0726041703
 30
0.0
 10
24.9982108214
 20
11.072460402
 30
0.0
 10
24.9835517331
 20
11.0723269153
 30
0.0
 10
24.9676320552
 20
11.0722045407
 30
0.0
 10
24.9505676126
 20
11.0720943011
 30
0.0
 10
24.9324825835
 20
11.0719970189
 30
0.0
 10
24.9135085838
 20
11.0719134378
 30
0.0
 10
24.8937836933
 20
11.0718441849
 30
0.0
 10
24.8734514152
 20
11.0717897791
 30
0.0
 10
24.8526597523
 20
11.0717506269
 30
0.0
 10
24.831560967
 20
11.0717270198
 30
0.0
 10
24.8174096221
 20
11.0717217687
 30
0.0
 10
24.8103086094
 20
11.0717217681
 30
0.0
 11
25.0601562633
 21
11.0738273303
 31
0.0
 11
25.0585040687
 21
11.0736418127
 31
0.0
 11
25.0550457539
 21
11.0734581719
 31
0.0
 11
25.0498065665
 21
11.0732777693
 31
0.0
 11
25.0428246644
 21
11.0731019205
 31
0.0
 11
25.0341508345
 21
11.072931904
 31
0.0
 11
25.0238481554
 21
11.0727689567
 31
0.0
 11
25.0119916388
 21
11.072614265
 31
0.0
 11
24.9986675681
 21
11.0724689546
 31
0.0
 11
24.9839728716
 21
11.0723340825
 31
0.0
 11
24.9680144911
 21
11.0722106302
 31
0.0
 11
24.9509085841
 21
11.0720994964
 31
0.0
 11
24.9327795934
 21
11.0720014893
 31
0.0
 11
24.9137594395
 21
11.0719173222
 31
0.0
 11
24.8939866151
 21
11.0718476077
 31
0.0
 11
24.8736049472
 21
11.0717928528
 31
0.0
 11
24.8527626274
 21
11.0717534557
 31
0.0
 11
24.8316116462
 21
11.0717297032
 31
0.0
 11
24.8103086094
 21
11.0717217681
 31
0.0
  0
SPLINE
  5
333
100
AcDbEntity
  8
ASSI
100
AcDbSpline
 62
253
  6
CONTINUOUS
 70
0
 71
3
 72
10
 73
6
 74
4
 42
0.0000001
 43
0.0000001
 44
0.0000000001
 12
0.0060355961
 22
9.0950346867
 32
0.0
 13
0.0002514557
 23
9.0950366859
 33
0.0
 40
0.0
 40
0.0
 40
0.0
 40
0.0
 40
0.33331324
 40
0.66664763
 40
1.0
 40
1.0
 40
1.0
 40
1.0
 10
3.3712444912
 20
1.7288008563
 30
0.0
 10
3.3719150725
 20
2.7392993494
 30
0.0
 10
3.3730419868
 20
4.7603606046
 30
0.0
 10
3.3740897621
 20
7.7920393404
 30
0.0
 10
3.3743597484
 20
9.8132195214
 30
0.0
 10
3.3743876895
 20
10.8238368663
 30
0.0
 11
3.3712444912
 21
1.7288008563
 31
0.0
 11
3.3729348535
 21
4.7602965318
 31
0.0
 11
3.3739826111
 21
7.7919848575
 31
0.0
 11
3.3743876895
 21
10.8238368663
 31
0.0
  0
SPLINE
  5
334
100
AcDbEntity
  8
ASSI
100
AcDbSpline
 62
253
  6
CONTINUOUS
 70
0
 71
3
 72
10
 73
6
 74
4
 42
0.0000001
 43
0.0000001
 44
0.0000000001
 12
0.0002514557
 22
-9.0950366859
 32
0.0
 13
0.0060355961
 23
-9.0950346867
 33
0.0
 40
0.0
 40
0.0
 40
0.0
 40
0.0
 40
0.33335237
 40
0.66668676
 40
1.0
 40
1.0
 40
1.0
 40
1.0
 10
25.310004037
 20
10.8238368663
 30
0.0
 10
25.3100319781
 20
9.8132195214
 30
0.0
 10
25.3103019643
 20
7.7920393404
 30
0.0
 10
25.3113497396
 20
4.7603606046
 30
0.0
 10
25.3124766539
 20
2.7392993494
 30
0.0
 10
25.3131472353
 20
1.7288008563
 30
0.0
 11
25.310004037
 21
10.8238368663
 31
0.0
 11
25.3104091153
 21
7.7919848575
 31
0.0
 11
25.3114568729
 21
4.7602965318
 31
0.0
 11
25.3131472353
 21
1.7288008563
 31
0.0
  0
SPLINE
  5
335
100
AcDbEntity
  8
ASSI
100
AcDbSpline
 62
253
  6
CONTINUOUS
 70
0
 71
3
 72
25
 73
21
 74
19
 42
0.0000001
 43
0.0000001
 44
0.0000000001
 12
-0.4951377735
 22
-0.0674709553
 32
0.0
 13
-0.4997136625
 23
-0.0000069763
 33
0.0
 40
0.0
 40
0.0
 40
0.0
 40
0.0
 40
0.0066260327
 40
0.0204733849
 40
0.041446253
 40
0.0693927016
 40
0.1041099476
 40
0.1453456978
 40
0.1927998486
 40
0.2461271361
 40
0.3049396744
 40
0.3688095125
 40
0.4372718806
 40
0.5098287828
 40
0.5859522814
 40
0.665088138
 40
0.7466607239
 40
0.8300771141
 40
0.914728373
 40
1.0
 40
1.0
 40
1.0
 40
1.0
 10
25.3100040369
 20
10.8238368586
 30
0.0
 10
25.3089104373
 20
10.8236878371
 30
0.0
 10
25.3054919253
 20
10.8236118984
 30
0.0
 10
25.2985988978
 20
10.8233759549
 30
0.0
 10
25.2881411387
 20
10.8232181257
 30
0.0
 10
25.2742126482
 20
10.8230209223
 30
0.0
 10
25.2569062791
 20
10.8228438263
 30
0.0
 10
25.2363511598
 20
10.8226673515
 30
0.0
 10
25.2126956905
 20
10.8225010644
 30
0.0
 10
25.1861124104
 20
10.8223437985
 30
0.0
 10
25.1567946191
 20
10.8221977194
 30
0.0
 10
25.1249556871
 20
10.822063721
 30
0.0
 10
25.0908272691
 20
10.8219429303
 30
0.0
 10
25.0546576886
 20
10.821836248
 30
0.0
 10
25.0167101657
 20
10.8217444921
 30
0.0
 10
24.9772608522
 20
10.8216683513
 30
0.0
 10
24.9365967236
 20
10.8216083996
 30
0.0
 10
24.8950138662
 20
10.8215650822
 30
0.0
 10
24.8528148408
 20
10.8215387259
 30
0.0
 10
24.824510578
 20
10.8215326006
 30
0.0
 10
24.810306779
 20
10.8215324023
 30
0.0
 11
25.3100040369
 21
10.8238368586
 31
0.0
 11
25.3066991116
 21
10.8236344295
 31
0.0
 11
25.2997823032
 21
10.8234340207
 31
0.0
 11
25.2893037252
 21
10.8232370698
 31
0.0
 11
25.2753398235
 21
10.8230450301
 31
0.0
 11
25.2579921356
 21
10.8228592926
 31
0.0
 11
25.2373868374
 21
10.822681212
 31
0.0
 11
25.213673953
 21
10.8225120857
 31
0.0
 11
25.1870260528
 21
10.8223531462
 31
0.0
 11
25.1576369945
 21
10.8222055515
 31
0.0
 11
25.12572065
 21
10.8220703774
 31
0.0
 11
25.091509286
 21
10.8219486095
 31
0.0
 11
25.05525177
 21
10.8218411352
 31
0.0
 11
25.0172119299
 21
10.8217487385
 31
0.0
 11
24.9776667354
 21
10.8216720932
 31
0.0
 11
24.9369038444
 21
10.8216117586
 31
0.0
 11
24.8952195573
 21
10.8215681732
 31
0.0
 11
24.852918175
 21
10.8215416575
 31
0.0
 11
24.810306779
 21
10.8215324023
 31
0.0
  0
SPLINE
  5
336
100
AcDbEntity
  8
ASSI
100
AcDbSpline
 62
253
  6
CONTINUOUS
 70
0
 71
3
 72
25
 73
21
 74
19
 42
0.0000001
 43
0.0000001
 44
0.0000000001
 12
-0.4390248508
 22
-0.2392029787
 32
0.0
 13
-0.4999607732
 23
-0.0003316614
 33
0.0
 40
0.0
 40
0.0
 40
0.0
 40
0.0
 40
0.0068059321
 40
0.0207337759
 40
0.0417520194
 40
0.0697246348
 40
0.1044548601
 40
0.145693439
 40
0.1931423402
 40
0.246457634
 40
0.3052523086
 40
0.369099243
 40
0.4375344017
 40
0.5100602612
 40
0.5861494627
 40
0.6652486694
 40
0.7467826077
 40
0.8301582634
 40
0.9147692045
 40
1.0
 40
1.0
 40
1.0
 40
1.0
 10
25.3131472353
 20
1.7288008563
 30
0.0
 10
25.3121512442
 20
1.7282581899
 30
0.0
 10
25.3086089473
 20
1.7278561375
 30
0.0
 10
25.3017874379
 20
1.7269810065
 30
0.0
 10
25.2912778384
 20
1.7263069884
 30
0.0
 10
25.2773656316
 20
1.7255265481
 30
0.0
 10
25.2600511557
 20
1.7248034765
 30
0.0
 10
25.2394979191
 20
1.7240886573
 30
0.0
 10
25.2158414372
 20
1.7234100404
 30
0.0
 10
25.1892583554
 20
1.7227665486
 30
0.0
 10
25.1599405148
 20
1.7221657936
 30
0.0
 10
25.1281016795
 20
1.721611821
 30
0.0
 10
25.0939733499
 20
1.721109149
 30
0.0
 10
25.0578038851
 20
1.7206615496
 30
0.0
 10
25.0198564448
 20
1.7202724268
 30
0.0
 10
24.9804071453
 20
1.7199446966
 30
0.0
 10
24.9397430285
 20
1.7196808098
 30
0.0
 10
24.8981599779
 20
1.7194827307
 30
0.0
 10
24.8559605655
 20
1.7193519303
 30
0.0
 10
24.8276558399
 20
1.7193102789
 30
0.0
 10
24.8134518218
 20
1.7193008563
 30
0.0
 11
25.3131472353
 21
1.7288008563
 31
0.0
 11
25.3098423799
 21
1.7279907345
 31
0.0
 11
25.3029256004
 21
1.7271865074
 31
0.0
 11
25.2924472258
 21
1.7263940269
 31
0.0
 11
25.2784835006
 21
1.7256190594
 31
0.0
 11
25.2611360301
 21
1.7248672439
 31
0.0
 11
25.2405310412
 21
1.7241440508
 31
0.0
 11
25.2168184634
 21
1.7234547424
 31
0.0
 11
25.1901708383
 21
1.7228043343
 31
0.0
 11
25.1607820641
 21
1.7221975591
 31
0.0
 11
25.1288659846
 21
1.7216388321
 31
0.0
 11
25.0946548331
 21
1.7211322186
 31
0.0
 11
25.0583975428
 21
1.720681405
 31
0.0
 11
25.0203579355
 21
1.7202896715
 31
0.0
 11
24.9808128015
 21
1.7199598687
 31
0.0
 11
24.9400498861
 21
1.7196943962
 31
0.0
 11
24.8983657957
 21
1.7194951857
 31
0.0
 11
24.8560638392
 21
1.7193636868
 31
0.0
 11
24.8134518218
 21
1.7193008563
 31
0.0
  0
SPLINE
  5
337
100
AcDbEntity
  8
CURVE
100
AcDbSpline
 62
253
  6
CONTINUOUS
 70
0
 71
3
 72
25
 73
21
 74
19
 42
0.0000001
 43
0.0000001
 44
0.0000000001
 12
-8.7412006986
 22
-0.0
 32
0.0
 13
8.7498880942
 23
-0.0
 33
0.0
 40
0.0
 40
0.0
 40
0.0
 40
0.0
 40
0.0666666667
 40
0.1333333333
 40
0.2
 40
0.2666666667
 40
0.3333333333
 40
0.4
 40
0.4333333333
 40
0.4666666667
 40
0.5
 40
0.5333333333
 40
0.5666666667
 40
0.6
 40
0.6666666667
 40
0.7333333333
 40
0.8
 40
0.8666666667
 40
0.9333333333
 40
1.0
 40
1.0
 40
1.0
 40
1.0
 10
14.3717348417
 20
1.4312687081
 30
0.0
 10
14.1774859373
 20
1.4312687081
 30
0.0
 10
13.7981158113
 20
1.3918189155
 30
0.0
 10
13.2450646574
 20
1.2132173678
 30
0.0
 10
12.7421539324
 20
0.9214615975
 30
0.0
 10
12.3133586137
 20
0.5351118465
 30
0.0
 10
11.9708382552
 20
0.064157452
 30
0.0
 10
11.7758016597
 20
-0.3738974759
 30
0.0
 10
11.6760186552
 20
-0.7467484155
 30
0.0
 10
11.6313563776
 20
-1.0326250728
 30
0.0
 10
11.6168056041
 20
-1.3196576907
 30
0.0
 10
11.6315353682
 20
-1.6066922655
 30
0.0
 10
11.6764025208
 20
-1.8926488183
 30
0.0
 10
11.7764920293
 20
-2.26558223
 30
0.0
 10
11.971917479
 20
-2.7036206579
 30
0.0
 10
12.3149299889
 20
-3.1743826581
 30
0.0
 10
12.7434324173
 20
-3.5598744673
 30
0.0
 10
13.2457193292
 20
-3.850988088
 30
0.0
 10
13.7977687628
 20
-4.0292699489
 30
0.0
 10
14.177292884
 20
-4.0688298625
 30
0.0
 10
14.3717348417
 20
-4.0688298625
 30
0.0
 11
14.3717348417
 21
1.4312687081
 31
0.0
 11
13.8007831505
 21
1.371914439
 31
0.0
 11
13.2534213955
 21
1.1943583307
 31
0.0
 11
12.7545065001
 21
0.9056959341
 31
0.0
 11
12.3277377737
 21
0.5210110726
 31
0.0
 11
11.9889176625
 21
0.0550388655
 31
0.0
 11
11.7555430979
 21
-0.4689774606
 31
0.0
 11
11.6810478178
 21
-0.7477881576
 31
0.0
 11
11.6363749616
 21
-1.0328177329
 31
0.0
 11
11.6216856937
 21
-1.3196580168
 31
0.0
 11
11.6365582663
 21
-1.6065125952
 31
0.0
 11
11.6814358506
 21
-1.8916060693
 31
0.0
 11
11.7561572231
 21
-2.1704736546
 31
0.0
 11
11.9900011407
 21
-2.6944733057
 31
0.0
 11
12.3291783087
 21
-3.1601709596
 31
0.0
 11
12.7557298312
 21
-3.5441447692
 31
0.0
 11
13.2540130828
 21
-3.8321827947
 31
0.0
 11
13.8006415541
 21
-4.0094462838
 31
0.0
 11
14.3717348417
 21
-4.0688298625
 31
0.0
  0
SPLINE
  5
338
100
AcDbEntity
  8
CURVE
100
AcDbSpline
 62
253
  6
CONTINUOUS
 70
0
 71
3
 72
25
 73
21
 74
19
 42
0.0000001
 43
0.0000001
 44
0.0000000001
 12
8.7425434981
 22
-0.0
 32
0.0
 13
-8.747904794
 23
-0.0
 33
0.0
 40
0.0
 40
0.0
 40
0.0
 40
0.0
 40
0.0666666667
 40
0.1333333333
 40
0.2
 40
0.2666666667
 40
0.3333333333
 40
0.4
 40
0.4333333333
 40
0.4666666667
 40
0.5
 40
0.5333333333
 40
0.5666666667
 40
0.6
 40
0.6666666667
 40
0.7333333333
 40
0.8
 40
0.8666666667
 40
0.9333333333
 40
1.0
 40
1.0
 40
1.0
 40
1.0
 10
14.3717348417
 20
-4.0688298625
 30
0.0
 10
14.5660135861
 20
-4.0688298625
 30
0.0
 10
14.9453332265
 20
-4.0293610894
 30
0.0
 10
15.4978255065
 20
-3.8509769006
 30
0.0
 10
16.0001527745
 20
-3.5598065102
 30
0.0
 10
16.4288519479
 20
-3.174047652
 30
0.0
 10
16.7717069298
 20
-2.7033441123
 30
0.0
 10
16.9671325616
 20
-2.2651733276
 30
0.0
 10
17.0671673425
 20
-1.8921797603
 30
0.0
 10
17.1119873892
 20
-1.6061851126
 30
0.0
 10
17.1266640363
 20
-1.319146677
 30
0.0
 10
17.1120610816
 20
-1.0321259264
 30
0.0
 10
17.0673534478
 20
-0.7462909029
 30
0.0
 10
16.9675177245
 20
-0.3734997979
 30
0.0
 10
16.7724745692
 20
0.0644436694
 30
0.0
 10
16.4297656512
 20
0.535488249
 30
0.0
 10
16.0011348176
 20
0.9215787243
 30
0.0
 10
15.4982566775
 20
1.2132591511
 30
0.0
 10
14.9456837045
 20
1.3917327307
 30
0.0
 10
14.566132726
 20
1.4312687081
 30
0.0
 10
14.3717348417
 20
1.4312687081
 30
0.0
 11
14.3717348417
 21
-4.0688298625
 31
0.0
 11
14.9425853631
 21
-4.0094975845
 31
0.0
 11
15.4894646712
 21
-3.8321792004
 31
0.0
 11
15.9878814254
 21
-3.5440417656
 31
0.0
 11
16.4145445826
 21
-3.1598902051
 31
0.0
 11
16.7536495592
 21
-2.6941605453
 31
0.0
 11
16.9874491131
 21
-2.1700535241
 31
0.0
 11
17.0621330026
 21
-1.8911381816
 31
0.0
 11
17.1069634892
 21
-1.6060111479
 31
0.0
 11
17.1217841027
 21
-1.3191496245
 31
0.0
 11
17.1070436351
 21
-1.0323235476
 31
0.0
 11
17.0623252547
 21
-0.7473311853
 31
0.0
 11
16.9877934219
 21
-0.4685672684
 31
0.0
 11
16.7543650473
 21
0.0553624058
 31
0.0
 11
16.4154453319
 21
0.5213292316
 31
0.0
 11
15.9887602665
 21
0.9058437162
 31
0.0
 11
15.4899742053
 21
1.1943913433
 31
0.0
 11
14.9428914554
 21
1.3718711285
 31
0.0
 11
14.3717348417
 21
1.4312687081
 31
0.0
  0
SPLINE
  5
339
100
AcDbEntity
  8
CURVE
100
AcDbSpline
 62
253
  6
CONTINUOUS
 70
0
 71
3
 72
31
 73
27
 74
25
 42
0.0000001
 43
0.0000001
 44
0.0000000001
 12
0.0
 22
-0.7241502913
 32
0.0
 13
0.0
 23
0.7806683753
 33
0.0
 40
0.0
 40
0.0
 40
0.0
 40
0.0
 40
0.0357142857
 40
0.0714285714
 40
0.1071428571
 40
0.1428571429
 40
0.1785714286
 40
0.2142857143
 40
0.2857142857
 40
0.3571428571
 40
0.4285714286
 40
0.5
 40
0.5357142857
 40
0.5714285714
 40
0.6071428571
 40
0.6428571429
 40
0.6785714286
 40
0.7142857143
 40
0.75
 40
0.7857142857
 40
0.8214285714
 40
0.8571428571
 40
0.8928571429
 40
0.9285714286
 40
0.9642857143
 40
1.0
 40
1.0
 40
1.0
 40
1.0
 10
14.1717469168
 20
-2.531454988
 30
0.0
 10
14.1717469168
 20
-2.5400758248
 30
0.0
 10
14.1725675073
 20
-2.5561778088
 30
0.0
 10
14.1761417111
 20
-2.5797807186
 30
0.0
 10
14.1819495843
 20
-2.6017675796
 30
0.0
 10
14.1899469842
 20
-2.6222516994
 30
0.0
 10
14.1999242469
 20
-2.6408624953
 30
0.0
 10
14.2154581552
 20
-2.6633179184
 30
0.0
 10
14.238884745
 20
-2.687533044
 30
0.0
 10
14.2752678552
 20
-2.7108227238
 30
0.0
 10
14.3163615285
 20
-2.7259297953
 30
0.0
 10
14.3535626225
 20
-2.73162227
 30
0.0
 10
14.3842026209
 20
-2.7314811356
 30
0.0
 10
14.4064567843
 20
-2.7290714486
 30
0.0
 10
14.4279855793
 20
-2.7245525388
 30
0.0
 10
14.4490519786
 20
-2.7178523733
 30
0.0
 10
14.4692934988
 20
-2.7089719258
 30
0.0
 10
14.4884257821
 20
-2.6979374242
 30
0.0
 10
14.5066246642
 20
-2.6843782598
 30
0.0
 10
14.523440769
 20
-2.6680401245
 30
0.0
 10
14.5381559461
 20
-2.6493866641
 30
0.0
 10
14.5503463664
 20
-2.6289943453
 30
0.0
 10
14.5598398055
 20
-2.6069752157
 30
0.0
 10
14.5666547397
 20
-2.5832757986
 30
0.0
 10
14.5707850083
 20
-2.5578809909
 30
0.0
 10
14.5717227665
 20
-2.5407486591
 30
0.0
 10
14.5717227665
 20
-2.531454988
 30
0.0
 11
14.1717469168
 21
-2.531454988
 31
0.0
 11
14.1729580603
 21
-2.5560861311
 31
0.0
 11
14.1765139894
 21
-2.5795113771
 31
0.0
 11
14.1823145054
 21
-2.6015171227
 31
0.0
 11
14.1902769613
 21
-2.6219394787
 31
0.0
 11
14.2002031083
 21
-2.6405676239
 31
0.0
 11
14.2118419584
 21
-2.6574471191
 31
0.0
 11
14.2402632787
 21
-2.6865716322
 31
0.0
 11
14.2760529491
 21
-2.7094589558
 31
0.0
 11
14.3169528018
 21
-2.724550445
 31
0.0
 11
14.3612958824
 21
-2.7311957269
 31
0.0
 11
14.3840816484
 21
-2.7310971629
 31
0.0
 11
14.4063358896
 21
-2.7287199114
 31
0.0
 11
14.4279085133
 21
-2.7241889961
 31
0.0
 11
14.4489144988
 21
-2.7174889929
 31
0.0
 11
14.469108626
 21
-2.7086129168
 31
0.0
 11
14.4882702152
 21
-2.6975166471
 31
0.0
 11
14.5063942013
 21
-2.683915098
 31
0.0
 11
14.5230906144
 21
-2.667654237
 31
0.0
 11
14.5377351533
 21
-2.6490968544
 31
0.0
 11
14.5498968695
 21
-2.6287232102
 31
0.0
 11
14.559393388
 21
-2.6066951678
 31
0.0
 11
14.5662072954
 21
-2.5829932335
 31
0.0
 11
14.5703310697
 21
-2.5578303759
 31
0.0
 11
14.5717227665
 21
-2.531454988
 31
0.0
  0
SPLINE
  5
33A
100
AcDbEntity
  8
CURVE
100
AcDbSpline
 62
253
  6
CONTINUOUS
 70
0
 71
3
 72
33
 73
29
 74
27
 42
0.0000001
 43
0.0000001
 44
0.0000000001
 12
0.0
 22
0.724402371
 32
0.0
 13
0.0
 23
-0.7800723179
 33
0.0
 40
0.0
 40
0.0
 40
0.0
 40
0.0
 40
0.0357142857
 40
0.0714285714
 40
0.1071428571
 40
0.1428571429
 40
0.1785714286
 40
0.2142857143
 40
0.25
 40
0.2857142857
 40
0.3214285714
 40
0.3571428571
 40
0.4285714286
 40
0.5
 40
0.5357142857
 40
0.5714285714
 40
0.6071428571
 40
0.6428571429
 40
0.6785714286
 40
0.7142857143
 40
0.75
 40
0.7857142857
 40
0.8214285714
 40
0.8571428571
 40
0.8928571429
 40
0.9285714286
 40
0.9642857143
 40
1.0
 40
1.0
 40
1.0
 40
1.0
 10
14.5717227665
 20
-0.1061061664
 30
0.0
 10
14.5717227665
 20
-0.0974823286
 30
0.0
 10
14.5709016705
 20
-0.0813761268
 30
0.0
 10
14.5673253798
 20
-0.0577665015
 30
0.0
 10
14.5615143163
 20
-0.0357758109
 30
0.0
 10
14.5535146425
 20
-0.0152903985
 30
0.0
 10
14.5435332431
 20
0.0033163877
 30
0.0
 10
14.5319011337
 20
0.0201468144
 30
0.0
 10
14.5186000163
 20
0.0354489444
 30
0.0
 10
14.5035437899
 20
0.049250028
 30
0.0
 10
14.4864871283
 20
0.0615943772
 30
0.0
 10
14.4613037093
 20
0.0757898227
 30
0.0
 10
14.4271230022
 20
0.0883664628
 30
0.0
 10
14.389884337
 20
0.0940642499
 30
0.0
 10
14.3592320907
 20
0.0939182222
 30
0.0
 10
14.3369700717
 20
0.0915037292
 30
0.0
 10
14.3154391442
 20
0.086979624
 30
0.0
 10
14.2943728032
 20
0.0802743533
 30
0.0
 10
14.2741329886
 20
0.0713889626
 30
0.0
 10
14.2550031451
 20
0.0603495659
 30
0.0
 10
14.2368064758
 20
0.046784455
 30
0.0
 10
14.2199929551
 20
0.0304392089
 30
0.0
 10
14.2052819912
 20
0.0117794615
 30
0.0
 10
14.1930986568
 20
-0.0086153165
 30
0.0
 10
14.1836142212
 20
-0.0306313101
 30
0.0
 10
14.1768072746
 20
-0.0543220768
 30
0.0
 10
14.1726830052
 20
-0.0797026483
 30
0.0
 10
14.1717469168
 20
-0.0968195912
 30
0.0
 10
14.1717469168
 20
-0.1061061664
 30
0.0
 11
14.5717227665
 21
-0.1061061664
 31
0.0
 11
14.5705108961
 21
-0.0814677397
 31
0.0
 11
14.5669529177
 21
-0.0580363239
 31
0.0
 11
14.561149548
 21
-0.0360266906
 31
0.0
 11
14.5531843549
 21
-0.0156035028
 31
0.0
 11
14.5432581248
 21
0.0030203278
 31
0.0
 11
14.5316229657
 21
0.0198920983
 31
0.0
 11
14.5183074982
 21
0.03519877
 31
0.0
 11
14.5032103841
 21
0.0490072389
 31
0.0
 11
14.4861819779
 21
0.0613114164
 31
0.0
 11
14.4674194685
 21
0.0718964502
 31
0.0
 11
14.4265114106
 21
0.0869906922
 31
0.0
 11
14.3821494993
 21
0.0936357215
 31
0.0
 11
14.359353285
 21
0.0935340602
 31
0.0
 11
14.3370919203
 21
0.0911521271
 31
0.0
 11
14.3155165753
 21
0.0866160964
 31
0.0
 11
14.2945105576
 21
0.0799109999
 31
0.0
 11
14.2743179838
 21
0.0710299616
 31
0.0
 11
14.2551586741
 21
0.0599286135
 31
0.0
 11
14.2370370006
 21
0.0463210991
 31
0.0
 11
14.2203433812
 21
0.0300534587
 31
0.0
 11
14.2057032628
 21
0.0114902898
 31
0.0
 11
14.1935484733
 21
-0.0088855191
 31
0.0
 11
14.1840604694
 21
-0.0309104389
 31
0.0
 11
14.1772543875
 21
-0.0546037109
 31
0.0
 11
14.1731363613
 21
-0.0797517888
 31
0.0
 11
14.1717469168
 21
-0.1061061664
 31
0.0
  0
SPLINE
  5
33B
100
AcDbEntity
  8
CURVE
100
AcDbSpline
 62
253
  6
CONTINUOUS
 70
0
 71
3
 72
25
 73
21
 74
19
 42
0.0000001
 43
0.0000001
 44
0.0000000001
 12
0.0000000827
 22
-7.4626686432
 32
0.0
 13
-0.0003586819
 23
7.4744852113
 33
0.0
 40
0.0
 40
0.0
 40
0.0
 40
0.0
 40
0.0666666667
 40
0.1333333333
 40
0.2
 40
0.2666666667
 40
0.3333333333
 40
0.4
 40
0.4333333333
 40
0.4666666667
 40
0.5
 40
0.5333333333
 40
0.5666666667
 40
0.6
 40
0.6666666667
 40
0.7333333333
 40
0.8
 40
0.8666666667
 40
0.9333333333
 40
1.0
 40
1.0
 40
1.0
 40
1.0
 10
16.7218082773
 20
-1.3187805772
 30
0.0
 10
16.7218082791
 20
-1.4846176582
 30
0.0
 10
16.6881598703
 20
-1.8084336939
 30
0.0
 10
16.5360364123
 20
-2.2801618572
 30
0.0
 10
16.2876949213
 20
-2.7091781067
 30
0.0
 10
15.9583605641
 20
-3.0756753654
 30
0.0
 10
15.5562012654
 20
-3.3690009642
 30
0.0
 10
15.1816521077
 20
-3.536299443
 30
0.0
 10
14.8627091587
 20
-3.6219882406
 30
0.0
 10
14.6181100653
 20
-3.66041258
 30
0.0
 10
14.3725420426
 20
-3.6730330715
 30
0.0
 10
14.1269625991
 20
-3.6605783987
 30
0.0
 10
13.8823021282
 20
-3.6223173544
 30
0.0
 10
13.5632538906
 20
-3.5368220338
 30
0.0
 10
13.1886817951
 20
-3.3698252296
 30
0.0
 10
12.7861666818
 20
-3.0766356647
 30
0.0
 10
12.4566340807
 20
-2.7103827223
 30
0.0
 10
12.2078002875
 20
-2.2810494552
 30
0.0
 10
12.0554581852
 20
-1.8092380202
 30
0.0
 10
12.0216693795
 20
-1.4849949099
 30
0.0
 10
12.0216614088
 20
-1.3188952386
 30
0.0
 11
16.7218082773
 21
-1.3187805772
 31
0.0
 11
16.6712180628
 21
-1.8061010455
 31
0.0
 11
16.5200000735
 21
-2.2730432049
 31
0.0
 11
16.2741961103
 21
-2.6987582749
 31
0.0
 11
15.9462230739
 21
-3.0634800887
 31
0.0
 11
15.5483179836
 21
-3.3535730602
 31
0.0
 11
15.1003077352
 21
-3.5537091436
 31
0.0
 11
14.8618105118
 21
-3.6176811974
 31
0.0
 11
14.6179485771
 21
-3.6561119386
 31
0.0
 11
14.3725401392
 21
-3.6688538774
 31
0.0
 11
14.1271157612
 21
-3.6562773368
 31
0.0
 11
13.8831978437
 21
-3.6180072801
 31
0.0
 11
13.6446318301
 21
-3.5541873537
 31
0.0
 11
13.196510362
 21
-3.3543596629
 31
0.0
 11
12.7983304338
 21
-3.0644584351
 31
0.0
 11
12.470083882
 21
-2.6998693348
 31
0.0
 11
12.223882236
 21
-2.2739697606
 31
0.0
 11
12.0724013342
 21
-1.8068124818
 31
0.0
 11
12.0216614088
 21
-1.3188952386
 31
0.0
  0
SPLINE
  5
33C
100
AcDbEntity
  8
CURVE
100
AcDbSpline
 62
253
  6
CONTINUOUS
 70
0
 71
3
 72
25
 73
21
 74
19
 42
0.0000001
 43
0.0000001
 44
0.0000000001
 12
-0.0003578256
 22
7.4566409461
 32
0.0
 13
0.0000000827
 23
-7.4671586904
 33
0.0
 40
0.0
 40
0.0
 40
0.0
 40
0.0
 40
0.0666666667
 40
0.1333333333
 40
0.2
 40
0.2666666667
 40
0.3333333333
 40
0.4
 40
0.4333333333
 40
0.4666666667
 40
0.5
 40
0.5333333333
 40
0.5666666667
 40
0.6
 40
0.6666666667
 40
0.7333333333
 40
0.8
 40
0.8666666667
 40
0.9333333333
 40
1.0
 40
1.0
 40
1.0
 40
1.0
 10
12.0216614088
 20
-1.3188952386
 30
0.0
 10
12.0216534571
 20
-1.1531921064
 30
0.0
 10
12.0552276474
 20
-0.829527767
 30
0.0
 10
12.2073143843
 20
-0.3576407699
 30
0.0
 10
12.455827617
 20
0.0716695172
 30
0.0
 10
12.7854282008
 20
0.4383319781
 30
0.0
 10
13.1877762696
 20
0.7316080501
 30
0.0
 10
13.5623374753
 20
0.8987688398
 30
0.0
 10
13.8811731428
 20
0.9843455523
 30
0.0
 10
14.1256564533
 20
1.0227067445
 30
0.0
 10
14.3710946176
 20
1.0352945602
 30
0.0
 10
14.6165418529
 20
1.022838125
 30
0.0
 10
14.8610736928
 20
0.9846065967
 30
0.0
 10
15.1799938244
 20
0.8991820106
 30
0.0
 10
15.5545632574
 20
0.7322702867
 30
0.0
 10
15.9572281674
 20
0.4390667647
 30
0.0
 10
16.2869560566
 20
0.0726390406
 30
0.0
 10
16.5358606552
 20
-0.3569364659
 30
0.0
 10
16.6881028588
 20
-0.8288079097
 30
0.0
 10
16.7218082754
 20
-1.1528437174
 30
0.0
 10
16.7218082773
 20
-1.3187805772
 30
0.0
 11
12.0216614088
 21
-1.3188952386
 31
0.0
 11
12.0721818893
 21
-0.831796019
 31
0.0
 11
12.2233854669
 21
-0.3647368883
 31
0.0
 11
12.4693421755
 21
0.0612282128
 31
0.0
 11
12.7975527816
 21
0.4261009133
 31
0.0
 11
13.1956304993
 21
0.7161608627
 31
0.0
 11
13.6436452841
 21
0.916150358
 31
0.0
 11
13.8820659028
 21
0.9800419953
 31
0.0
 11
14.1258155956
 21
1.0184111817
 31
0.0
 11
14.3710961294
 21
1.0311205184
 31
0.0
 11
14.616389287
 21
1.0185422762
 31
0.0
 11
14.8601834026
 21
0.9803004448
 31
0.0
 11
15.0986584094
 21
0.9165294244
 31
0.0
 11
15.5467601891
 21
0.7167853778
 31
0.0
 11
15.9450719973
 21
0.426862731
 31
0.0
 11
16.2734855081
 21
0.0621144102
 31
0.0
 11
16.519750256
 21
-0.3639857888
 31
0.0
 11
16.6711555124
 21
-0.831171621
 31
0.0
 11
16.7218082773
 21
-1.3187805772
 31
0.0
  0
SPLINE
  5
33D
100
AcDbEntity
  8
RACCORDO
100
AcDbSpline
 62
253
  6
CONTINUOUS
 70
0
 71
3
 72
22
 73
18
 74
16
 42
0.0000001
 43
0.0000001
 44
0.0000000001
 12
-0.0021832472
 22
0.2504804114
 32
0.0
 13
0.2504803882
 23
0.0021859092
 33
0.0
 40
0.0
 40
0.0
 40
0.0
 40
0.0
 40
0.104302378
 40
0.2074605176
 40
0.3083460848
 40
0.4058557355
 40
0.4989232668
 40
0.5865313867
 40
0.6677229924
 40
0.7416118719
 40
0.8073927865
 40
0.8643509935
 40
0.9118715322
 40
0.9494494424
 40
0.9767055422
 40
0.9934335021
 40
1.0
 40
1.0
 40
1.0
 40
1.0
 10
-11.6043009674
 20
10.8238368495
 30
0.0
 10
-11.6043768734
 20
10.8325454171
 30
0.0
 10
-11.6044963519
 20
10.8498673075
 30
0.0
 10
-11.6045792641
 20
10.8756130921
 30
0.0
 10
-11.6045646844
 20
10.9007918498
 30
0.0
 10
-11.6044528688
 20
10.9251278072
 30
0.0
 10
-11.6042451911
 20
10.9483545559
 30
0.0
 10
-11.6039441627
 20
10.9702174186
 30
0.0
 10
-11.6035534069
 20
10.9904781105
 30
0.0
 10
-11.6030778194
 20
11.0089111935
 30
0.0
 10
-11.6025232496
 20
11.0253264749
 30
0.0
 10
-11.6018979947
 20
11.0395091594
 30
0.0
 10
-11.6012095861
 20
11.0514077911
 30
0.0
 10
-11.6004770899
 20
11.0606120991
 30
0.0
 10
-11.5997079963
 20
11.0677260638
 30
0.0
 10
-11.5989765394
 20
11.0712563799
 30
0.0
 10
-11.5983059868
 20
11.0738225457
 30
0.0
 10
-11.5977577271
 20
11.0738273303
 30
0.0
 11
-11.6043009674
 21
10.8238368495
 31
0.0
 11
-11.6044809113
 21
10.8499629248
 31
0.0
 11
-11.6045633299
 21
10.8758028682
 31
0.0
 11
-11.6045473206
 21
10.9010736814
 31
0.0
 11
-11.6044330587
 21
10.9254985993
 31
0.0
 11
-11.6042217956
 21
10.9488101211
 31
0.0
 11
-11.6039158451
 21
10.9707529397
 31
0.0
 11
-11.6035185579
 21
10.9910867382
 31
0.0
 11
-11.6030342851
 21
11.0095888216
 31
0.0
 11
-11.6024683305
 21
11.0260565557
 31
0.0
 11
-11.6018268923
 21
11.0403095865
 31
0.0
 11
-11.6011169956
 21
11.0521918155
 31
0.0
 11
-11.6003464152
 21
11.0615731089
 31
0.0
 11
-11.5995235903
 21
11.0683507231
 31
0.0
 11
-11.5986575326
 21
11.0724504302
 31
0.0
 11
-11.5977577271
 21
11.0738273303
 31
0.0
  0
LINE
  5
33E
100
AcDbEntity
  8
RACCORDO
100
AcDbLine
 62
253
  6
CONTINUOUS
 10
-11.6042990508
 20
10.8238368586
 11
-12.0868495477
 21
10.8215324023
  0
SPLINE
  5
33F
100
AcDbEntity
  8
0
100
AcDbSpline
 62
253
  6
CONTINUOUS
 70
0
 71
3
 72
25
 73
21
 74
19
 42
0.0000001
 43
0.0000001
 44
0.0000000001
 12
-0.4773650572
 22
-0.072058679
 32
0.0
 13
0.0719729274
 23
-0.4773779936
 33
0.0
 40
0.0
 40
0.0
 40
0.0
 40
0.0
 40
0.0881044587
 40
0.1753073463
 40
0.2609738429
 40
0.3444803147
 40
0.4252188542
 40
0.5026017069
 40
0.5760655508
 40
0.6450755988
 40
0.7091294936
 40
0.7677609685
 40
0.8205432458
 40
0.8670921532
 40
0.9070689357
 40
0.9401827563
 40
0.9661928933
 40
0.9849107349
 40
0.9962021919
 40
1.0
 40
1.0
 40
1.0
 40
1.0
 10
-10.5302662409
 20
-9.9135544721
 30
0.0
 10
-10.5442855709
 20
-9.9156707024
 30
0.0
 10
-10.5721798394
 20
-9.9198876843
 30
0.0
 10
-10.6137022246
 20
-9.9261840148
 30
0.0
 10
-10.6544901824
 20
-9.9323882574
 30
0.0
 10
-10.6942467795
 20
-9.9384552348
 30
0.0
 10
-10.7326825832
 20
-9.9443407687
 30
0.0
 10
-10.7695178071
 20
-9.9500019795
 30
0.0
 10
-10.8044842149
 20
-9.95539767
 30
0.0
 10
-10.837327532
 20
-9.960488367
 30
0.0
 10
-10.8678077464
 20
-9.9652374669
 30
0.0
 10
-10.895706017
 20
-9.9696086171
 30
0.0
 10
-10.9208094724
 20
-9.9735753254
 30
0.0
 10
-10.9429660913
 20
-9.9770913972
 30
0.0
 10
-10.9619217788
 20
-9.9801826326
 30
0.0
 10
-10.9778069087
 20
-9.9826763458
 30
0.0
 10
-10.9897802149
 20
-9.9849575528
 30
0.0
 10
-10.9995332553
 20
-9.9860152
 30
0.0
 10
-11.0033430621
 20
-9.9878684448
 30
0.0
 10
-11.0073200016
 20
-9.987491232
 30
0.0
 10
-11.0072288885
 20
-9.988095562
 30
0.0
 11
-10.5302662409
 21
-9.9135544721
 31
0.0
 11
-10.5723228147
 21
-9.9199125372
 31
0.0
 11
-10.6139461818
 21
-9.9262243155
 31
0.0
 11
-10.6548333235
 21
-9.9324438572
 31
0.0
 11
-10.6946865809
 21
-9.938525884
 31
0.0
 11
-10.7332158219
 21
-9.9444261186
 31
0.0
 11
-10.7701405532
 21
-9.9501016072
 31
0.0
 11
-10.8051919622
 21
-9.9555110322
 31
0.0
 11
-10.8381148743
 21
-9.960615013
 31
0.0
 11
-10.8686696104
 21
-9.9653763925
 31
0.0
 11
-10.8966337315
 21
-9.9697605077
 31
0.0
 11
-10.9218036585
 21
-9.9737354424
 31
0.0
 11
-10.9439961542
 21
-9.9772722589
 31
0.0
 11
-10.9630496568
 21
-9.9803452092
 31
0.0
 11
-10.9788254566
 21
-9.9829319221
 31
0.0
 11
-10.9912087057
 21
-9.9850135663
 31
0.0
 11
-11.0001092538
 21
-9.9865749875
 31
0.0
 11
-11.0054623048
 21
-9.9876048185
 31
0.0
 11
-11.0072288885
 21
-9.988095562
 31
0.0
  0
SPLINE
  5
340
100
AcDbEntity
  8
0
100
AcDbSpline
 62
253
  6
CONTINUOUS
 70
0
 71
3
 72
25
 73
21
 74
19
 42
0.0000001
 43
0.0000001
 44
0.0000000001
 12
-0.026149326
 22
-0.4995673242
 32
0.0
 13
0.4995656586
 23
-0.0261811268
 33
0.0
 40
0.0
 40
0.0
 40
0.0
 40
0.0
 40
0.087003969
 40
0.1733342858
 40
0.2583362773
 40
0.3413653954
 40
0.4217921358
 40
0.4990068475
 40
0.572424402
 40
0.641488693
 40
0.7056769416
 40
0.7645037943
 40
0.8175252187
 40
0.8643422405
 40
0.9046046611
 40
0.9380151502
 40
0.9643349325
 40
0.9833956743
 40
0.9951425725
 40
1.0
 40
1.0
 40
1.0
 40
1.0
 10
-10.0620218145
 20
-10.3383281483
 30
0.0
 10
-10.0627801796
 20
-10.3528162616
 30
0.0
 10
-10.064247338
 20
-10.381682617
 30
0.0
 10
-10.0663026613
 20
-10.4247113029
 30
0.0
 10
-10.068194033
 20
-10.4670840565
 30
0.0
 10
-10.0699071542
 20
-10.5084791488
 30
0.0
 10
-10.0714291129
 20
-10.5485822782
 30
0.0
 10
-10.0727484878
 20
-10.5870889668
 30
0.0
 10
-10.0738554602
 20
-10.623706819
 30
0.0
 10
-10.0747418788
 20
-10.6581579423
 30
0.0
 10
-10.0754014759
 20
-10.6901803939
 30
0.0
 10
-10.0758295995
 20
-10.7195324172
 30
0.0
 10
-10.076024621
 20
-10.7459870139
 30
0.0
 10
-10.0759842039
 20
-10.7693569127
 30
0.0
 10
-10.0757180551
 20
-10.7894246896
 30
0.0
 10
-10.0752126523
 20
-10.8061564113
 30
0.0
 10
-10.0745358576
 20
-10.8191100958
 30
0.0
 10
-10.0735803252
 20
-10.828985675
 30
0.0
 10
-10.0726927484
 20
-10.8341427451
 30
0.0
 10
-10.0715489123
 20
-10.8376005247
 30
0.0
 10
-10.0707400443
 20
-10.8376429156
 30
0.0
 11
-10.0620218145
 21
-10.3383281483
 31
0.0
 11
-10.0642308407
 21
-10.3817958962
 31
0.0
 11
-10.0662905993
 21
-10.4249335967
 31
0.0
 11
-10.0681854507
 21
-10.4674137084
 31
0.0
 11
-10.0699010073
 21
-10.508913683
 31
0.0
 11
-10.0714242432
 21
-10.5491184142
 31
0.0
 11
-10.0727435925
 21
-10.5877226305
 31
0.0
 11
-10.0738490375
 21
-10.6244332128
 31
0.0
 11
-10.0747321846
 21
-10.6589714205
 31
0.0
 11
-10.0753863281
 21
-10.6910750074
 31
0.0
 11
-10.0758065012
 21
-10.7205002134
 31
0.0
 11
-10.0759895135
 21
-10.7470236151
 31
0.0
 11
-10.0759339755
 21
-10.7704438222
 31
0.0
 11
-10.0756403088
 21
-10.7905830068
 31
0.0
 11
-10.0751107432
 21
-10.8072882537
 31
0.0
 11
-10.0743492997
 21
-10.820432721
 31
0.0
 11
-10.0733617599
 21
-10.8299166038
 31
0.0
 11
-10.072155622
 21
-10.8356678917
 31
0.0
 11
-10.0707400443
 21
-10.8376429156
 31
0.0
  0
SPLINE
  5
341
100
AcDbEntity
  8
ASSI
100
AcDbSpline
 62
253
  6
CONTINUOUS
 70
0
 71
3
 72
22
 73
18
 74
16
 42
0.0000001
 43
0.0000001
 44
0.0000000001
 12
-0.0021832472
 22
0.2504804114
 32
0.0
 13
0.2504803882
 23
0.0021859092
 33
0.0
 40
0.0
 40
0.0
 40
0.0
 40
0.0
 40
0.104302378
 40
0.2074605176
 40
0.3083460848
 40
0.4058557355
 40
0.4989232668
 40
0.5865313867
 40
0.6677229924
 40
0.7416118719
 40
0.8073927865
 40
0.8643509935
 40
0.9118715322
 40
0.9494494424
 40
0.9767055422
 40
0.9934335021
 40
1.0
 40
1.0
 40
1.0
 40
1.0
 10
-11.6043009674
 20
10.8238368495
 30
0.0
 10
-11.6043768734
 20
10.8325454171
 30
0.0
 10
-11.6044963519
 20
10.8498673075
 30
0.0
 10
-11.6045792641
 20
10.8756130921
 30
0.0
 10
-11.6045646844
 20
10.9007918498
 30
0.0
 10
-11.6044528688
 20
10.9251278072
 30
0.0
 10
-11.6042451911
 20
10.9483545559
 30
0.0
 10
-11.6039441627
 20
10.9702174186
 30
0.0
 10
-11.6035534069
 20
10.9904781105
 30
0.0
 10
-11.6030778194
 20
11.0089111935
 30
0.0
 10
-11.6025232496
 20
11.0253264749
 30
0.0
 10
-11.6018979947
 20
11.0395091594
 30
0.0
 10
-11.6012095861
 20
11.0514077911
 30
0.0
 10
-11.6004770899
 20
11.0606120991
 30
0.0
 10
-11.5997079963
 20
11.0677260638
 30
0.0
 10
-11.5989765394
 20
11.0712563799
 30
0.0
 10
-11.5983059868
 20
11.0738225457
 30
0.0
 10
-11.5977577271
 20
11.0738273303
 30
0.0
 11
-11.6043009674
 21
10.8238368495
 31
0.0
 11
-11.6044809113
 21
10.8499629248
 31
0.0
 11
-11.6045633299
 21
10.8758028682
 31
0.0
 11
-11.6045473206
 21
10.9010736814
 31
0.0
 11
-11.6044330587
 21
10.9254985993
 31
0.0
 11
-11.6042217956
 21
10.9488101211
 31
0.0
 11
-11.6039158451
 21
10.9707529397
 31
0.0
 11
-11.6035185579
 21
10.9910867382
 31
0.0
 11
-11.6030342851
 21
11.0095888216
 31
0.0
 11
-11.6024683305
 21
11.0260565557
 31
0.0
 11
-11.6018268923
 21
11.0403095865
 31
0.0
 11
-11.6011169956
 21
11.0521918155
 31
0.0
 11
-11.6003464152
 21
11.0615731089
 31
0.0
 11
-11.5995235903
 21
11.0683507231
 31
0.0
 11
-11.5986575326
 21
11.0724504302
 31
0.0
 11
-11.5977577271
 21
11.0738273303
 31
0.0
  0
LINE
  5
342
100
AcDbEntity
  8
ASSI
100
AcDbLine
 62
253
  6
CONTINUOUS
 10
-11.6042990508
 20
10.8238368586
 11
-12.0868495477
 21
10.8215324023
  0
SPLINE
  5
343
100
AcDbEntity
  8
ASSI
100
AcDbSpline
 62
253
  6
CONTINUOUS
 70
0
 71
3
 72
25
 73
21
 74
19
 42
0.0000001
 43
0.0000001
 44
0.0000000001
 12
-0.4773650572
 22
-0.072058679
 32
0.0
 13
0.0719729274
 23
-0.4773779936
 33
0.0
 40
0.0
 40
0.0
 40
0.0
 40
0.0
 40
0.0881044587
 40
0.1753073463
 40
0.2609738429
 40
0.3444803147
 40
0.4252188542
 40
0.5026017069
 40
0.5760655508
 40
0.6450755988
 40
0.7091294936
 40
0.7677609685
 40
0.8205432458
 40
0.8670921532
 40
0.9070689357
 40
0.9401827563
 40
0.9661928933
 40
0.9849107349
 40
0.9962021919
 40
1.0
 40
1.0
 40
1.0
 40
1.0
 10
-10.5302662409
 20
-9.9135544721
 30
0.0
 10
-10.5442855709
 20
-9.9156707024
 30
0.0
 10
-10.5721798394
 20
-9.9198876843
 30
0.0
 10
-10.6137022246
 20
-9.9261840148
 30
0.0
 10
-10.6544901824
 20
-9.9323882574
 30
0.0
 10
-10.6942467795
 20
-9.9384552348
 30
0.0
 10
-10.7326825832
 20
-9.9443407687
 30
0.0
 10
-10.7695178071
 20
-9.9500019795
 30
0.0
 10
-10.8044842149
 20
-9.95539767
 30
0.0
 10
-10.837327532
 20
-9.960488367
 30
0.0
 10
-10.8678077464
 20
-9.9652374669
 30
0.0
 10
-10.895706017
 20
-9.9696086171
 30
0.0
 10
-10.9208094724
 20
-9.9735753254
 30
0.0
 10
-10.9429660913
 20
-9.9770913972
 30
0.0
 10
-10.9619217788
 20
-9.9801826326
 30
0.0
 10
-10.9778069087
 20
-9.9826763458
 30
0.0
 10
-10.9897802149
 20
-9.9849575528
 30
0.0
 10
-10.9995332553
 20
-9.9860152
 30
0.0
 10
-11.0033430621
 20
-9.9878684448
 30
0.0
 10
-11.0073200016
 20
-9.987491232
 30
0.0
 10
-11.0072288885
 20
-9.988095562
 30
0.0
 11
-10.5302662409
 21
-9.9135544721
 31
0.0
 11
-10.5723228147
 21
-9.9199125372
 31
0.0
 11
-10.6139461818
 21
-9.9262243155
 31
0.0
 11
-10.6548333235
 21
-9.9324438572
 31
0.0
 11
-10.6946865809
 21
-9.938525884
 31
0.0
 11
-10.7332158219
 21
-9.9444261186
 31
0.0
 11
-10.7701405532
 21
-9.9501016072
 31
0.0
 11
-10.8051919622
 21
-9.9555110322
 31
0.0
 11
-10.8381148743
 21
-9.960615013
 31
0.0
 11
-10.8686696104
 21
-9.9653763925
 31
0.0
 11
-10.8966337315
 21
-9.9697605077
 31
0.0
 11
-10.9218036585
 21
-9.9737354424
 31
0.0
 11
-10.9439961542
 21
-9.9772722589
 31
0.0
 11
-10.9630496568
 21
-9.9803452092
 31
0.0
 11
-10.9788254566
 21
-9.9829319221
 31
0.0
 11
-10.9912087057
 21
-9.9850135663
 31
0.0
 11
-11.0001092538
 21
-9.9865749875
 31
0.0
 11
-11.0054623048
 21
-9.9876048185
 31
0.0
 11
-11.0072288885
 21
-9.988095562
 31
0.0
  0
SPLINE
  5
344
100
AcDbEntity
  8
ASSI
100
AcDbSpline
 62
253
  6
CONTINUOUS
 70
0
 71
3
 72
25
 73
21
 74
19
 42
0.0000001
 43
0.0000001
 44
0.0000000001
 12
-0.026149326
 22
-0.4995673242
 32
0.0
 13
0.4995656586
 23
-0.0261811268
 33
0.0
 40
0.0
 40
0.0
 40
0.0
 40
0.0
 40
0.087003969
 40
0.1733342858
 40
0.2583362773
 40
0.3413653954
 40
0.4217921358
 40
0.4990068475
 40
0.572424402
 40
0.641488693
 40
0.7056769416
 40
0.7645037943
 40
0.8175252187
 40
0.8643422405
 40
0.9046046611
 40
0.9380151502
 40
0.9643349325
 40
0.9833956743
 40
0.9951425725
 40
1.0
 40
1.0
 40
1.0
 40
1.0
 10
-10.0620218145
 20
-10.3383281483
 30
0.0
 10
-10.0627801796
 20
-10.3528162616
 30
0.0
 10
-10.064247338
 20
-10.381682617
 30
0.0
 10
-10.0663026613
 20
-10.4247113029
 30
0.0
 10
-10.068194033
 20
-10.4670840565
 30
0.0
 10
-10.0699071542
 20
-10.5084791488
 30
0.0
 10
-10.0714291129
 20
-10.5485822782
 30
0.0
 10
-10.0727484878
 20
-10.5870889668
 30
0.0
 10
-10.0738554602
 20
-10.623706819
 30
0.0
 10
-10.0747418788
 20
-10.6581579423
 30
0.0
 10
-10.0754014759
 20
-10.6901803939
 30
0.0
 10
-10.0758295995
 20
-10.7195324172
 30
0.0
 10
-10.076024621
 20
-10.7459870139
 30
0.0
 10
-10.0759842039
 20
-10.7693569127
 30
0.0
 10
-10.0757180551
 20
-10.7894246896
 30
0.0
 10
-10.0752126523
 20
-10.8061564113
 30
0.0
 10
-10.0745358576
 20
-10.8191100958
 30
0.0
 10
-10.0735803252
 20
-10.828985675
 30
0.0
 10
-10.0726927484
 20
-10.8341427451
 30
0.0
 10
-10.0715489123
 20
-10.8376005247
 30
0.0
 10
-10.0707400443
 20
-10.8376429156
 30
0.0
 11
-10.0620218145
 21
-10.3383281483
 31
0.0
 11
-10.0642308407
 21
-10.3817958962
 31
0.0
 11
-10.0662905993
 21
-10.4249335967
 31
0.0
 11
-10.0681854507
 21
-10.4674137084
 31
0.0
 11
-10.0699010073
 21
-10.508913683
 31
0.0
 11
-10.0714242432
 21
-10.5491184142
 31
0.0
 11
-10.0727435925
 21
-10.5877226305
 31
0.0
 11
-10.0738490375
 21
-10.6244332128
 31
0.0
 11
-10.0747321846
 21
-10.6589714205
 31
0.0
 11
-10.0753863281
 21
-10.6910750074
 31
0.0
 11
-10.0758065012
 21
-10.7205002134
 31
0.0
 11
-10.0759895135
 21
-10.7470236151
 31
0.0
 11
-10.0759339755
 21
-10.7704438222
 31
0.0
 11
-10.0756403088
 21
-10.7905830068
 31
0.0
 11
-10.0751107432
 21
-10.8072882537
 31
0.0
 11
-10.0743492997
 21
-10.820432721
 31
0.0
 11
-10.0733617599
 21
-10.8299166038
 31
0.0
 11
-10.072155622
 21
-10.8356678917
 31
0.0
 11
-10.0707400443
 21
-10.8376429156
 31
0.0
  0
LINE
  5
345
100
AcDbEntity
  8
CURVE
100
AcDbLine
 62
253
  6
CONTINUOUS
 10
-11.9089945242
 20
-0.8961655937
 11
-11.9094373305
 21
-0.8869502452
  0
LINE
  5
346
100
AcDbEntity
  8
CURVE
100
AcDbLine
 62
253
  6
CONTINUOUS
 10
-11.9094372254
 20
-0.8869518349
 11
-11.9089957763
 21
-0.8961388542
  0
LINE
  5
347
100
AcDbEntity
  8
CURVE
100
AcDbLine
 62
253
  6
CONTINUOUS
 10
-11.94698932
 20
-0.0169956909
 11
-11.9466743733
 21
-0.025205532
  0
LINE
  5
348
100
AcDbEntity
  8
CURVE
100
AcDbLine
 62
253
  6
CONTINUOUS
 10
-11.9094554349
 20
-0.8865485712
 11
-11.9089493715
 21
-0.8970766011
  0
LINE
  5
349
100
AcDbEntity
  8
CURVE
100
AcDbLine
 62
253
  6
CONTINUOUS
 10
-11.8634725326
 20
-1.756433496
 11
-11.8629004023
 21
-1.7663371692
  0
LINE
  5
34A
100
AcDbEntity
  8
CURVE
100
AcDbLine
 62
253
  6
CONTINUOUS
 10
-11.8372682682
 20
-2.1920991093
 11
-11.8366408822
 21
-2.2021155221
  0
LINE
  5
34B
100
AcDbEntity
  8
CURVE
100
AcDbLine
 62
253
  6
CONTINUOUS
 10
-11.8090535245
 20
-2.6261238647
 11
-11.8083387485
 21
-2.6367131838
  0
LINE
  5
34C
100
AcDbEntity
  8
CURVE
100
AcDbLine
 62
253
  6
CONTINUOUS
 10
-11.7460301302
 20
-3.4976531791
 11
-11.7456628708
 21
-3.5024083571
  0
LINE
  5
34D
100
AcDbEntity
  8
CURVE
100
AcDbLine
 62
253
  6
CONTINUOUS
 10
-11.7456609926
 20
-3.5024322155
 11
-11.7460318325
 21
-3.4976306288
  0
LINE
  5
34E
100
AcDbEntity
  8
CURVE
100
AcDbLine
 62
253
  6
CONTINUOUS
 10
-11.8083367696
 20
-2.6367419684
 11
-11.8090561131
 21
-2.6260849009
  0
LINE
  5
34F
100
AcDbEntity
  8
CURVE
100
AcDbLine
 62
253
  6
CONTINUOUS
 10
-11.8366372396
 20
-2.2021735077
 11
-11.8372718667
 21
-2.1920415346
  0
LINE
  5
350
100
AcDbEntity
  8
CURVE
100
AcDbLine
 62
253
  6
CONTINUOUS
 10
-11.8629023342
 20
-1.7663036644
 11
-11.8634717716
 21
-1.7564465838
  0
LINE
  5
351
100
AcDbEntity
  8
CURVE
100
AcDbLine
 62
253
  6
CONTINUOUS
 10
-11.9089503156
 20
-0.8970570954
 11
-11.9094554402
 21
-0.8865485714
  0
LINE
  5
352
100
AcDbEntity
  8
CURVE
100
AcDbLine
 62
253
  6
CONTINUOUS
 10
-11.9466765057
 20
-0.0251511396
 11
-11.9469870722
 21
-0.0170554027
  0
LINE
  5
353
100
AcDbEntity
  8
CURVE
100
AcDbLine
 62
253
  6
CONTINUOUS
 10
-11.8153868675
 20
-2.531454988
 11
-11.8087349714
 21
-2.6308376493
  0
LINE
  5
354
100
AcDbEntity
  8
CURVE
100
AcDbLine
 62
253
  6
CONTINUOUS
 10
-11.808735511
 20
-2.6308296257
 11
-11.8153868675
 21
-2.531454988
  0
LINE
  5
355
100
AcDbEntity
  8
CURVE
100
AcDbLine
 62
253
  6
CONTINUOUS
 10
-11.9435298189
 20
-0.1061061664
 11
-11.9468049175
 21
-0.0217901161
  0
LINE
  5
356
100
AcDbEntity
  8
CURVE
100
AcDbLine
 62
253
  6
CONTINUOUS
 10
-11.9468058462
 20
-0.0217659503
 11
-11.9435298189
 21
-0.1061061664
  0
LINE
  5
357
100
AcDbEntity
  8
CURVE
100
AcDbLine
 62
253
  6
CONTINUOUS
 10
-11.863461688
 20
-1.7566404327
 11
-11.8628840511
 21
-1.7666360821
  0
LINE
  5
358
100
AcDbEntity
  8
CURVE
100
AcDbLine
 62
253
  6
CONTINUOUS
 10
-11.8628816266
 20
-1.7666777242
 11
-11.863462123
 21
-1.7566325176
  0
ELLIPSE
  5
359
100
AcDbEntity
  8
RACCORDO
100
AcDbEllipse
 62
7
  6
CONTINUOUS
 10
7.0576659171
 20
-10.9625690306
 30
0.0
 11
0.2
 21
-0.0
 31
0.0
 40
0.0524077793
 41
1.5707963268
 42
2.617993878
  0
ELLIPSE
  5
35A
100
AcDbEntity
  8
RACCORDO
100
AcDbEllipse
 62
7
  6
CONTINUOUS
 10
18.2576659171
 20
-10.9625690306
 30
0.0
 11
0.2
 21
0.0
 31
0.0
 40
0.0524077793
 41
1.5707963268
 42
2.617993878
  0
ELLIPSE
  5
35B
100
AcDbEntity
  8
RACCORDO
100
AcDbEllipse
 62
7
  6
CONTINUOUS
 10
10.4267258094
 20
-10.9625690306
 30
0.0
 11
0.2
 21
-0.0
 31
0.0
 40
0.0524077793
 41
0.5235987756
 42
1.5707963268
  0
ELLIPSE
  5
35C
100
AcDbEntity
  8
RACCORDO
100
AcDbEllipse
 62
7
  6
CONTINUOUS
 10
21.6267258094
 20
-10.9625690306
 30
0.0
 11
0.2
 21
-0.0
 31
0.0
 40
0.0524077793
 41
0.5235987756
 42
1.5707963268
  0
ELLIPSE
  5
35D
100
AcDbEntity
  8
0
100
AcDbEllipse
 62
7
  6
CONTINUOUS
 10
24.9655865629
 20
-10.4905361228
 30
0.0
 11
0.4943891341
 21
0.0770133648
 31
0.0
 40
0.9960067742
 41
-1.7259388368
 42
-0.1569690096
  0
ELLIPSE
  5
35E
100
AcDbEntity
  8
0
100
AcDbEllipse
 62
7
  6
CONTINUOUS
 10
3.7188051635
 20
-10.4905361228
 30
0.0
 11
0.4943891341
 21
-0.0770133648
 31
0.0
 40
0.9960067742
 41
-2.984623644
 42
-1.4156538168
  0
ELLIPSE
  5
35F
100
AcDbEntity
  8
RACCORDO
100
AcDbEllipse
 62
7
  6
CONTINUOUS
 10
25.2420434771
 20
10.8692913367
 30
0.0
 11
0.2426981267
 21
0.0606514259
 31
0.0
 40
0.9993528196
 41
-0.2447368254
 42
1.3257549497
  0
ELLIPSE
  5
360
100
AcDbEntity
  8
RACCORDO
100
AcDbEllipse
 62
7
  6
CONTINUOUS
 10
3.4423482493
 20
10.8692913367
 30
0.0
 11
0.2426981267
 21
-0.0606514259
 31
0.0
 40
0.9993528196
 41
1.8158377039
 42
3.386329479
  0
ELLIPSE
  5
361
100
AcDbEntity
  8
ASSI
100
AcDbEllipse
 62
7
  6
CONTINUOUS
 10
7.0576659171
 20
-10.9625690306
 30
0.0
 11
0.2
 21
-0.0
 31
0.0
 40
0.0524077793
 41
1.5707963268
 42
2.617993878
  0
ELLIPSE
  5
362
100
AcDbEntity
  8
ASSI
100
AcDbEllipse
 62
7
  6
CONTINUOUS
 10
18.2576659171
 20
-10.9625690306
 30
0.0
 11
0.2
 21
0.0
 31
0.0
 40
0.0524077793
 41
1.5707963268
 42
2.617993878
  0
ELLIPSE
  5
363
100
AcDbEntity
  8
ASSI
100
AcDbEllipse
 62
7
  6
CONTINUOUS
 10
10.4267258094
 20
-10.9625690306
 30
0.0
 11
0.2
 21
-0.0
 31
0.0
 40
0.0524077793
 41
0.5235987756
 42
1.5707963268
  0
ELLIPSE
  5
364
100
AcDbEntity
  8
ASSI
100
AcDbEllipse
 62
7
  6
CONTINUOUS
 10
21.6267258094
 20
-10.9625690306
 30
0.0
 11
0.2
 21
-0.0
 31
0.0
 40
0.0524077793
 41
0.5235987756
 42
1.5707963268
  0
ELLIPSE
  5
365
100
AcDbEntity
  8
ASSI
100
AcDbEllipse
 62
7
  6
CONTINUOUS
 10
24.9655865629
 20
-10.4905361228
 30
0.0
 11
0.4943891341
 21
0.0770133648
 31
0.0
 40
0.9960067742
 41
-1.7259388368
 42
-0.1569690096
  0
ELLIPSE
  5
366
100
AcDbEntity
  8
ASSI
100
AcDbEllipse
 62
7
  6
CONTINUOUS
 10
3.7188051635
 20
-10.4905361228
 30
0.0
 11
0.4943891341
 21
-0.0770133648
 31
0.0
 40
0.9960067742
 41
-2.984623644
 42
-1.4156538168
  0
ELLIPSE
  5
367
100
AcDbEntity
  8
ASSI
100
AcDbEllipse
 62
7
  6
CONTINUOUS
 10
25.2420434771
 20
10.8692913367
 30
0.0
 11
0.2426981267
 21
0.0606514259
 31
0.0
 40
0.9993528196
 41
-0.2447368254
 42
1.3257549497
  0
ELLIPSE
  5
368
100
AcDbEntity
  8
ASSI
100
AcDbEllipse
 62
7
  6
CONTINUOUS
 10
3.4423482493
 20
10.8692913367
 30
0.0
 11
0.2426981267
 21
-0.0606514259
 31
0.0
 40
0.9993528196
 41
1.8158377039
 42
3.386329479
  0
ENDSEC
  0
SECTION
  2
OBJECTS
  0
DICTIONARY
  5
C
100
AcDbDictionary
280
0
281
1
  3
ACAD_GROUP
350
D
  3
ACAD_MLINESTYLE
350
17
  3
ACAD_LAYOUT
350
1A
  3
ACAD_PLOTSETTINGS
350
19
  3
ACAD_PLOTSTYLENAME
350
E
  0
DICTIONARY
  5
D
102
{ACAD_REACTORS
330
C
102
}
100
AcDbDictionary
280
0
281
1
  0
ACDBDICTIONARYWDFLT
  5
E
102
{ACAD_REACTORS
330
C
102
}
100
AcDbDictionary
281
1
  3
Normal
350
F
100
AcDbDictionaryWithDefault
340
F
  0
DICTIONARY
  5
17
102
{ACAD_REACTORS
330
C
102
}
100
AcDbDictionary
280
0
281
1
  3
Standard
350
18
  0
DICTIONARY
  5
19
102
{ACAD_REACTORS
330
C
102
}
100
AcDbDictionary
281
1
  0
DICTIONARY
  5
1A
102
{ACAD_REACTORS
330
C
102
}
100
AcDbDictionary
281
1
  3
Model
350
369
  3
Layout1
350
36A
  0
ACDBPLACEHOLDER
  5
F
102
{ACAD_REACTORS
330
E
102
}
  0
MLINESTYLE
  5
18
102
{ACAD_REACTORS
330
17
102
}
100
AcDbMlineStyle
  2
STANDARD
 70
0
  3

 62
256
 51
90.0
 52
90.0
 71
2
 49
0.5
 62
256
  6
BYLAYER
 49
-0.5
 62
256
  6
BYLAYER
  0
LAYOUT
  5
369
102
{ACAD_REACTORS
330
1A
102
}
100
AcDbPlotSettings
  1

  2
none_device
  4
ISO_A4_(297.00_x_210.00_MM)
  6

 40
0.0
 41
0.0
 42
0.0
 43
0.0
 44
297.0
 45
210.0
 46
0.0
 47
0.0
 48
0.0
 49
0.0
140
0.0
141
0.0
142
1.0
143
1.0
 70
1024
 72
1
 73
0
 74
0
  7

 75
0
147
1.0
148
0.0
149
0.0
100
AcDbLayout
  1
Model
 70
0
 71
0
 10
0.0
 20
0.0
 11
297.0
 21
210.0
 12
0.0
 22
0.0
 32
0.0
 14
0.0
 24
0.0
 34
0.0
 15
0.0
 25
0.0
 35
0.0
146
0.0
 13
0.0
 23
0.0
 33
0.0
 16
1.0
 26
0.0
 36
0.0
 17
0.0
 27
1.0
 37
0.0
 76
0
330
21A
345
0
346
0
  0
LAYOUT
  5
36A
102
{ACAD_REACTORS
330
1A
102
}
100
AcDbPlotSettings
  1

  2
none_device
  4
ISO_A4_(297.00_x_210.00_MM)
  6

 40
0.0
 41
0.0
 42
0.0
 43
0.0
 44
297.0
 45
210.0
 46
0.0
 47
0.0
 48
0.0
 49
0.0
140
0.0
141
0.0
142
1.0
143
1.0
 70
0
 72
1
 73
0
 74
0
  7

 75
0
147
1.0
148
0.0
149
0.0
100
AcDbLayout
  1
Layout1
 70
0
 71
1
 10
0.0
 20
0.0
 11
297.0
 21
210.0
 12
0.0
 22
0.0
 32
0.0
 14
0.0
 24
0.0
 34
0.0
 15
0.0
 25
0.0
 35
0.0
146
0.0
 13
0.0
 23
0.0
 33
0.0
 16
1.0
 26
0.0
 36
0.0
 17
0.0
 27
1.0
 37
0.0
 76
0
330
21B
345
0
346
0
  0
ENDSEC
  0
EOF
