  0
SECTION
  2
HEADER
  9
$ACADVER
  1
AC1015
  9
$DWGCODEPAGE
  3
ANSI_1252
  9
$EXTMAX
 10
297.0
 20
210.0
 30
0.0
  9
$EXTMIN
 10
0.0
 20
0.0
 30
0.0
  9
$LIMMIN
 10
0.0
 20
0.0
  9
$LIMMAX
 10
297.0
 20
210.0
  9
$VIEWCTR
 10
148.5
 20
105.0
  9
$VIEWSIZE
 40
210.0
  9
$CLAYER
  8
0
  9
$LTSCALE
 40
16.335
  9
$CELTYPE
  6
BYLAYER
  9
$DIMSCALE
 40
1.0
  9
$DIMASZ
 40
3.0
  9
$DIMEXO
 40
1.85625
  9
$DIMDLI
 40
11.286
  9
$DIMEXE
 40
5.346
  9
$DIMCEN
 40
2.673
  9
$DIMLFAC
 40
1.0
  9
$DIMBLK
  1
_FILLED
  9
$DIMTXT
 40
3.0
  9
$DIMTOL
 70
1
  9
$DIMLIM
 70
0
  9
$DIMTFAC
 40
1.0
  9
$DIMTP
 40
0.01
  9
$DIMTM
 40
0.01
  9
$PDMODE
 70
3
  9
$PDSIZE
 40
3.0
  9
$HANDSEED
  5
361
  9
$TILEMODE
 70
1
  9
$MEASUREMENT
 70
1
  9
$INSUNITS
 70
4
  0
ENDSEC
  0
SECTION
  2
CLASSES
  0
CLASS
  1
ACDBDICTIONARYWDFLT
  2
AcDbDictionaryWithDefault
  3
AutoCAD 2000
 90
0
280
0
281
0
  0
CLASS
  1
ACDBPLACEHOLDER
  2
AcDbPlaceHolder
  3
AutoCAD 2000
 90
0
280
0
281
0
  0
CLASS
  1
LAYOUT
  2
AcDbLayout
  3
AutoCAD 2000
 90
0
280
0
281
0
  0
ENDSEC
  0
SECTION
  2
TABLES
  0
TABLE
  2
VPORT
  5
8
100
AcDbSymbolTable
 70
2
  0
VPORT
  5
1F4
100
AcDbSymbolTableRecord
100
AcDbViewportTableRecord
  2
*ACTIVE
 70
0
 10
0.0
 20
0.0
 11
1.0
 21
1.0
 12
148.5
 22
105.0
 13
0.0
 23
0.0
 14
1.0
 24
1.0
 15
0.0
 25
0.0
 16
0.0
 26
0.0
 36
1.0
 17
0.0
 27
0.0
 37
0.0
 40
210.0
 41
1.4142857143
 42
50.0
 43
0.0
 44
0.0
 50
0.0
 51
0.0
 71
0
 72
100
 73
1
 74
1
 75
0
 76
0
 77
0
 78
0
  0
ENDTAB
  0
TABLE
  2
LTYPE
  5
5
100
AcDbSymbolTable
 70
6
  0
LTYPE
  5
14
100
AcDbSymbolTableRecord
100
AcDbLinetypeTableRecord
  2
BYBLOCK
 70
0
  3

 72
65
 73
0
 40
0.0
  0
LTYPE
  5
15
100
AcDbSymbolTableRecord
100
AcDbLinetypeTableRecord
  2
BYLAYER
 70
0
  3

 72
65
 73
0
 40
0.0
  0
LTYPE
  5
16
100
AcDbSymbolTableRecord
100
AcDbLinetypeTableRecord
  2
CONTINUOUS
 70
64
  3
Solid line
 72
65
 73
0
 40
0.0
  0
LTYPE
  5
1F5
100
AcDbSymbolTableRecord
100
AcDbLinetypeTableRecord
  2
CENTER
 70
64
  3
____ _ ____ _ ____ _ ____ _ ____ _ ____ _ ____
 72
65
 73
4
 40
0.6
 49
0.375
 74
0
 49
-0.075
 74
0
 49
0.075
 74
0
 49
-0.075
 74
0
  0
LTYPE
  5
1F6
100
AcDbSymbolTableRecord
100
AcDbLinetypeTableRecord
  2
HIDDEN
 70
64
  3
- - - - - - - - - - - - - - - - - - - -
 72
65
 73
2
 40
0.2
 49
0.1
 74
0
 49
-0.1
 74
0
  0
LTYPE
  5
1F7
100
AcDbSymbolTableRecord
100
AcDbLinetypeTableRecord
  2
PHANTOM
 70
64
  3
_____ _ _ _____ _ _ _____ _ _ _____
 72
65
 73
6
 40
0.8
 49
0.45
 74
0
 49
-0.05
 74
0
 49
0.1
 74
0
 49
-0.05
 74
0
 49
0.1
 74
0
 49
-0.05
 74
0
  0
LTYPE
  5
1F8
100
AcDbSymbolTableRecord
100
AcDbLinetypeTableRecord
  2
DOT
 70
64
  3
. . . . . . . . . . . . . . . . . . . .
 72
65
 73
2
 40
0.2
 49
0.1
 74
0
 49
-0.1
 74
0
  0
LTYPE
  5
1F9
100
AcDbSymbolTableRecord
100
AcDbLinetypeTableRecord
  2
DASHED
 70
64
  3
- - - - - - - - - - - - - - - - - - - -
 72
65
 73
2
 40
0.2
 49
0.1
 74
0
 49
-0.1
 74
0
  0
ENDTAB
  0
TABLE
  2
LAYER
  5
2
100
AcDbSymbolTable
 70
36
  0
LAYER
  5
10
100
AcDbSymbolTableRecord
100
AcDbLayerTableRecord
  2
0
 70
0
 62
7
  6
CONTINUOUS
370
-3
390
F
  0
LAYER
  5
1FA
100
AcDbSymbolTableRecord
100
AcDbLayerTableRecord
  2
DEFAULT_1
 70
0
 62
7
  6
CENTER
370
-3
390
F
  0
LAYER
  5
1FB
100
AcDbSymbolTableRecord
100
AcDbLayerTableRecord
  2
DEFAULT_2
 70
0
 62
7
  6
HIDDEN
370
-3
390
F
  0
LAYER
  5
1FC
100
AcDbSymbolTableRecord
100
AcDbLayerTableRecord
  2
DEFAULT_3
 70
0
 62
7
  6
PHANTOM
370
-3
390
F
  0
LAYER
  5
1FD
100
AcDbSymbolTableRecord
100
AcDbLayerTableRecord
  2
ASSI
 70
0
 62
7
  6
CONTINUOUS
370
-3
390
F
  0
LAYER
  5
1FE
100
AcDbSymbolTableRecord
100
AcDbLayerTableRecord
  2
COLOR9
 70
0
 62
7
  6
CONTINUOUS
370
-3
390
F
  0
LAYER
  5
1FF
100
AcDbSymbolTableRecord
100
AcDbLayerTableRecord
  2
COORDINATE
 70
0
 62
7
  6
CONTINUOUS
370
-3
390
F
  0
LAYER
  5
200
100
AcDbSymbolTableRecord
100
AcDbLayerTableRecord
  2
COORD_ORIGINE
 70
0
 62
7
  6
CONTINUOUS
370
-3
390
F
  0
LAYER
  5
201
100
AcDbSymbolTableRecord
100
AcDbLayerTableRecord
  2
COPY_PUBLISH
 70
0
 62
7
  6
CONTINUOUS
370
-3
390
F
  0
LAYER
  5
202
100
AcDbSymbolTableRecord
100
AcDbLayerTableRecord
  2
COSMETIC
 70
0
 62
7
  6
CONTINUOUS
370
-3
390
F
  0
LAYER
  5
203
100
AcDbSymbolTableRecord
100
AcDbLayerTableRecord
  2
CURVE
 70
0
 62
7
  6
CONTINUOUS
370
-3
390
F
  0
LAYER
  5
204
100
AcDbSymbolTableRecord
100
AcDbLayerTableRecord
  2
DRAFT
 70
0
 62
7
  6
CONTINUOUS
370
-3
390
F
  0
LAYER
  5
205
100
AcDbSymbolTableRecord
100
AcDbLayerTableRecord
  2
IGES
 70
0
 62
7
  6
CONTINUOUS
370
-3
390
F
  0
LAYER
  5
206
100
AcDbSymbolTableRecord
100
AcDbLayerTableRecord
  2
IGS_SCRITTE
 70
0
 62
7
  6
CONTINUOUS
370
-3
390
F
  0
LAYER
  5
207
100
AcDbSymbolTableRecord
100
AcDbLayerTableRecord
  2
IMPORT_IGES
 70
0
 62
7
  6
CONTINUOUS
370
-3
390
F
  0
LAYER
  5
208
100
AcDbSymbolTableRecord
100
AcDbLayerTableRecord
  2
INTF_12
 70
0
 62
7
  6
CONTINUOUS
370
-3
390
F
  0
LAYER
  5
209
100
AcDbSymbolTableRecord
100
AcDbLayerTableRecord
  2
INTF_15
 70
0
 62
7
  6
CONTINUOUS
370
-3
390
F
  0
LAYER
  5
20A
100
AcDbSymbolTableRecord
100
AcDbLayerTableRecord
  2
INTF_3
 70
0
 62
7
  6
CONTINUOUS
370
-3
390
F
  0
LAYER
  5
20B
100
AcDbSymbolTableRecord
100
AcDbLayerTableRecord
  2
INTF_4
 70
0
 62
7
  6
CONTINUOUS
370
-3
390
F
  0
LAYER
  5
20C
100
AcDbSymbolTableRecord
100
AcDbLayerTableRecord
  2
INTF_YELLOW
 70
0
 62
7
  6
CONTINUOUS
370
-3
390
F
  0
LAYER
  5
20D
100
AcDbSymbolTableRecord
100
AcDbLayerTableRecord
  2
PIANI
 70
0
 62
7
  6
CONTINUOUS
370
-3
390
F
  0
LAYER
  5
20E
100
AcDbSymbolTableRecord
100
AcDbLayerTableRecord
  2
PIANI_ORIGINE
 70
0
 62
7
  6
CONTINUOUS
370
-3
390
F
  0
LAYER
  5
20F
100
AcDbSymbolTableRecord
100
AcDbLayerTableRecord
  2
PIANI_RIFERIMENTO
 70
0
 62
7
  6
CONTINUOUS
370
-3
390
F
  0
LAYER
  5
210
100
AcDbSymbolTableRecord
100
AcDbLayerTableRecord
  2
RACCORDO
 70
0
 62
7
  6
CONTINUOUS
370
-3
390
F
  0
LAYER
  5
211
100
AcDbSymbolTableRecord
100
AcDbLayerTableRecord
  2
SMUSSO
 70
0
 62
7
  6
CONTINUOUS
370
-3
390
F
  0
LAYER
  5
212
100
AcDbSymbolTableRecord
100
AcDbLayerTableRecord
  2
SNAPLINE
 70
0
 62
7
  6
CONTINUOUS
370
-3
390
F
  0
LAYER
  5
213
100
AcDbSymbolTableRecord
100
AcDbLayerTableRecord
  2
SOLIDO
 70
0
 62
7
  6
CONTINUOUS
370
-3
390
F
  0
LAYER
  5
214
100
AcDbSymbolTableRecord
100
AcDbLayerTableRecord
  2
SUPERFICI
 70
0
 62
7
  6
CONTINUOUS
370
-3
390
F
  0
LAYER
  5
215
100
AcDbSymbolTableRecord
100
AcDbLayerTableRecord
  2
TRASH
 70
0
 62
7
  6
CONTINUOUS
370
-3
390
F
  0
LAYER
  5
216
100
AcDbSymbolTableRecord
100
AcDbLayerTableRecord
  2
WHITE
 70
0
 62
7
  6
CONTINUOUS
370
-3
390
F
  0
LAYER
  5
217
100
AcDbSymbolTableRecord
100
AcDbLayerTableRecord
  2
XSEC_DATUMS
 70
0
 62
7
  6
CONTINUOUS
370
-3
390
F
  0
ENDTAB
  0
TABLE
  2
STYLE
  5
3
100
AcDbSymbolTable
 70
1
  0
STYLE
  5
11
100
AcDbSymbolTableRecord
100
AcDbTextStyleTableRecord
  2
STANDARD
 70
0
 40
0.0
 41
0.8
 50
0.0
 71
0
 42
0.2
  3
txt
  4

  0
STYLE
  5
218
100
AcDbSymbolTableRecord
100
AcDbTextStyleTableRecord
  2
TEXTSTYLE_1
 70
0
 40
0.0
 41
0.8
 50
0.0
 71
0
 42
0.2
  3
gdt
  4

  0
ENDTAB
  0
TABLE
  2
VIEW
  5
6
100
AcDbSymbolTable
 70
0
  0
ENDTAB
  0
TABLE
  2
UCS
  5
7
100
AcDbSymbolTable
 70
0
  0
ENDTAB
  0
TABLE
  2
APPID
  5
9
100
AcDbSymbolTable
 70
1
  0
APPID
  5
219
100
AcDbSymbolTableRecord
100
AcDbRegAppTableRecord
  2
ACAD
 70
0
  0
ENDTAB
  0
TABLE
  2
BLOCK_RECORD
  5
1
100
AcDbSymbolTable
 70
0
  0
BLOCK_RECORD
  5
21A
100
AcDbSymbolTableRecord
100
AcDbBlockTableRecord
  2
*Model_Space
  0
BLOCK_RECORD
  5
21B
100
AcDbSymbolTableRecord
100
AcDbBlockTableRecord
  2
*Paper_Space
  0
BLOCK_RECORD
  5
21C
100
AcDbSymbolTableRecord
100
AcDbBlockTableRecord
  2
_FILLED
  0
BLOCK_RECORD
  5
21D
100
AcDbSymbolTableRecord
100
AcDbBlockTableRecord
  2
*D0
  0
BLOCK_RECORD
  5
21E
100
AcDbSymbolTableRecord
100
AcDbBlockTableRecord
  2
*D1
  0
BLOCK_RECORD
  5
21F
100
AcDbSymbolTableRecord
100
AcDbBlockTableRecord
  2
*D2
  0
ENDTAB
  0
TABLE
  2
DIMSTYLE
  5
A
100
AcDbSymbolTable
 70
1
100
AcDbDimStyleTable
 71
0
  0
DIMSTYLE
105
220
100
AcDbSymbolTableRecord
100
AcDbDimStyleTableRecord
  2
STANDARD
 70
0
  3

  4

 40
1.0
 41
3.0
 42
0.0625
 43
0.38
 44
0.18
 45
0.0
 46
0.0
 47
0.01
 48
0.01
140
3.0
141
0.09
142
0.0
143
25.4
144
1.0
145
0.0
146
1.0
147
0.09
 71
1.0
 72
0.0
 73
0
 74
0
 75
0
 76
0
 77
1
 78
8
170
0
171
2
172
0
173
0
174
0
175
0
176
0
177
0
178
0
270
2
271
2
272
2
273
2
274
2
275
0
280
0
281
0
282
0
283
1
284
8
285
0
286
0
287
3
288
0
340
11
341
21C
342
21C
343
21C
344
21C
  0
DIMSTYLE
105
221
100
AcDbSymbolTableRecord
100
AcDbDimStyleTableRecord
  2
DIMSTYLE_1
 70
0
  3

  4

 40
1.0
 41
3.0
 42
0.0625
 43
0.38
 44
0.18
 45
0.0
 46
0.0
 47
0.0
 48
0.0
140
3.0
141
0.09
142
0.0
143
25.4
144
1.0
145
0.0
146
1.0
147
0.09
 71
0.0
 72
0.0
 73
0
 74
0
 75
0
 76
0
 77
1
 78
8
170
0
171
2
172
0
173
0
174
0
175
0
176
0
177
0
178
0
270
2
271
2
272
2
273
2
274
2
275
0
280
0
281
0
282
0
283
1
284
8
285
0
286
0
287
3
288
0
340
11
341
21C
342
21C
343
21C
344
21C
  0
DIMSTYLE
105
222
100
AcDbSymbolTableRecord
100
AcDbDimStyleTableRecord
  2
DIMSTYLE_2
 70
0
  3

  4

 40
1.0
 41
3.0
 42
0.0625
 43
0.38
 44
0.18
 45
0.0
 46
0.0
 47
0.0
 48
0.0
140
3.0
141
0.09
142
0.0
143
25.4
144
1.0
145
0.0
146
1.0
147
0.09
 71
0.0
 72
0.0
 73
0
 74
0
 75
0
 76
0
 77
1
 78
8
170
0
171
2
172
0
173
0
174
0
175
0
176
0
177
0
178
0
270
2
271
1
272
1
273
2
274
2
275
0
280
0
281
0
282
0
283
1
284
8
285
0
286
0
287
3
288
0
340
11
341
21C
342
21C
343
21C
344
21C
  0
ENDTAB
  0
ENDSEC
  0
SECTION
  2
BLOCKS
  0
BLOCK
  5
20
100
AcDbEntity
  8
0
100
AcDbBlockBegin
  2
*Model_Space
 70
0
 10
0.0
 20
0.0
 30
0.0
  3
*Model_Space
  1

  0
ENDBLK
  5
21
100
AcDbEntity
  8
0
100
AcDbBlockEnd
  0
BLOCK
  5
1C
100
AcDbEntity
  8
0
100
AcDbBlockBegin
  2
*Paper_Space
 70
0
 10
0.0
 20
0.0
 30
0.0
  3
*Paper_Space
  1

  0
ENDBLK
  5
1D
100
AcDbEntity
  8
0
100
AcDbBlockEnd
  0
BLOCK
  5
223
100
AcDbEntity
  8
0
100
AcDbBlockBegin
  2
_FILLED
 70
64
 10
0.0
 20
0.0
  3
_FILLED
  1

  0
SOLID
  5
224
100
AcDbEntity
  8
0
  6
BYBLOCK
 62
0
100
AcDbTrace
 10
0.0
 20
0.0
 11
-1.0
 21
0.3166666667
 12
-1.0
 22
-0.3166666667
 13
-1.0
 23
-0.3166666667
  0
ENDBLK
  5
225
100
AcDbEntity
  8
0
  6
BYBLOCK
 62
0
100
AcDbBlockEnd
  0
BLOCK
  5
226
100
AcDbEntity
  8
0
100
AcDbBlockBegin
 62
7
  6
CONTINUOUS
  2
*D0
 70
65
 10
0.0
 20
0.0
  3
*D0
  1

  0
MTEXT
  5
227
100
AcDbEntity
  8
0
100
AcDbMText
 62
7
  6
CONTINUOUS
  7
STANDARD
 71
2
 72
1
 10
-11.9816547058
 20
22.9111064373
 30
0.0
 11
1.0
 21
0.0
 31
0.0
 44
0.9
  1
5,7
 40
3.0
 41
6.2142857143
  0
LINE
  5
228
100
AcDbEntity
  8
0
100
AcDbLine
 62
7
  6
CONTINUOUS
 10
-9.1317338157
 20
11.2790587952
 11
-9.1317338157
 21
20.6611064373
  0
LINE
  5
229
100
AcDbEntity
  8
0
100
AcDbLine
 62
7
  6
CONTINUOUS
 10
-14.8315755959
 20
11.2312237208
 11
-14.8315755959
 21
20.6611064373
  0
LINE
  5
22A
100
AcDbEntity
  8
0
100
AcDbLine
 62
7
  6
CONTINUOUS
 10
-9.1317338157
 20
19.1611064373
 11
-5.1317338157
 21
19.1611064373
  0
LINE
  5
22B
100
AcDbEntity
  8
0
100
AcDbLine
 62
7
  6
CONTINUOUS
 10
-5.1317338157
 20
19.1611064373
 11
-11.9816547058
 21
19.1611064373
  0
LINE
  5
22C
100
AcDbEntity
  8
0
100
AcDbLine
 62
7
  6
CONTINUOUS
 10
-14.8315755959
 20
19.1611064373
 11
-18.8315755959
 21
19.1611064373
  0
LINE
  5
22D
100
AcDbEntity
  8
0
100
AcDbLine
 62
7
  6
CONTINUOUS
 10
-18.8315755959
 20
19.1611064373
 11
-11.9816547058
 21
19.1611064373
  0
INSERT
  5
22E
100
AcDbEntity
  8
0
100
AcDbBlockReference
 62
7
  6
CONTINUOUS
  2
_FILLED
 10
-9.1317338157
 20
19.1611064373
 41
3.0
 42
3.0
 43
3.0
 50
180.0
  0
INSERT
  5
22F
100
AcDbEntity
  8
0
100
AcDbBlockReference
 62
7
  6
CONTINUOUS
  2
_FILLED
 10
-14.8315755959
 20
19.1611064373
 41
3.0
 42
3.0
 43
3.0
  0
ENDBLK
  5
230
100
AcDbEntity
  8
0
  6
BYBLOCK
 62
0
100
AcDbBlockEnd
  0
BLOCK
  5
231
100
AcDbEntity
  8
0
100
AcDbBlockBegin
 62
7
  6
CONTINUOUS
  2
*D1
 70
65
 10
0.0
 20
0.0
  3
*D1
  1

  0
MTEXT
  5
232
100
AcDbEntity
  8
0
100
AcDbMText
 62
7
  6
CONTINUOUS
  7
STANDARD
 71
2
 72
1
 10
11.3973819556
 20
22.779232174
 30
0.0
 11
1.0
 21
0.0
 31
0.0
 44
0.9
  1
22,3
 40
3.0
 41
8.5714285714
  0
LINE
  5
233
100
AcDbEntity
  8
0
100
AcDbLine
 62
7
  6
CONTINUOUS
 10
0.2473819556
 20
11.2790587952
 11
0.2473819556
 21
20.529232174
  0
LINE
  5
234
100
AcDbEntity
  8
0
100
AcDbLine
 62
7
  6
CONTINUOUS
 10
22.5473819556
 20
11.2790587952
 11
22.5473819556
 21
20.529232174
  0
LINE
  5
235
100
AcDbEntity
  8
0
100
AcDbLine
 62
7
  6
CONTINUOUS
 10
0.2473819556
 20
19.029232174
 11
11.3973819556
 21
19.029232174
  0
LINE
  5
236
100
AcDbEntity
  8
0
100
AcDbLine
 62
7
  6
CONTINUOUS
 10
22.5473819556
 20
19.029232174
 11
11.3973819556
 21
19.029232174
  0
INSERT
  5
237
100
AcDbEntity
  8
0
100
AcDbBlockReference
 62
7
  6
CONTINUOUS
  2
_FILLED
 10
0.2473819556
 20
19.029232174
 41
3.0
 42
3.0
 43
3.0
 50
180.0
  0
INSERT
  5
238
100
AcDbEntity
  8
0
100
AcDbBlockReference
 62
7
  6
CONTINUOUS
  2
_FILLED
 10
22.5473819556
 20
19.029232174
 41
3.0
 42
3.0
 43
3.0
  0
ENDBLK
  5
239
100
AcDbEntity
  8
0
  6
BYBLOCK
 62
0
100
AcDbBlockEnd
  0
BLOCK
  5
23A
100
AcDbEntity
  8
0
100
AcDbBlockBegin
 62
7
  6
CONTINUOUS
  2
*D2
 70
65
 10
0.0
 20
0.0
  3
*D2
  1

  0
MTEXT
  5
23B
100
AcDbEntity
  8
0
100
AcDbMText
 62
7
  6
CONTINUOUS
  7
STANDARD
 71
2
 72
1
 10
26.7973819556
 20
-0.0251267963
 30
0.0
 11
0.0
 21
1.0
 31
0.0
 44
0.9
  1
22,1
 40
3.0
 41
8.1428571429
  0
LINE
  5
23C
100
AcDbEntity
  8
0
100
AcDbLine
 62
7
  6
CONTINUOUS
 10
22.7973057539
 20
11.028992174
 11
32.0473819556
 21
11.028992174
  0
LINE
  5
23D
100
AcDbEntity
  8
0
100
AcDbLine
 62
7
  6
CONTINUOUS
 10
22.5201637609
 20
-11.0792457666
 11
32.0473819556
 21
-11.0792457666
  0
LINE
  5
23E
100
AcDbEntity
  8
0
100
AcDbLine
 62
7
  6
CONTINUOUS
 10
30.5473819556
 20
11.028992174
 11
30.5473819556
 21
-0.0251267963
  0
LINE
  5
23F
100
AcDbEntity
  8
0
100
AcDbLine
 62
7
  6
CONTINUOUS
 10
30.5473819556
 20
-11.0792457666
 11
30.5473819556
 21
-0.0251267963
  0
INSERT
  5
240
100
AcDbEntity
  8
0
100
AcDbBlockReference
 62
7
  6
CONTINUOUS
  2
_FILLED
 10
30.5473819556
 20
11.028992174
 41
3.0
 42
3.0
 43
3.0
 50
90.0
  0
INSERT
  5
241
100
AcDbEntity
  8
0
100
AcDbBlockReference
 62
7
  6
CONTINUOUS
  2
_FILLED
 10
30.5473819556
 20
-11.0792457666
 41
3.0
 42
3.0
 43
3.0
 50
270.0
  0
ENDBLK
  5
242
100
AcDbEntity
  8
0
  6
BYBLOCK
 62
0
100
AcDbBlockEnd
  0
ENDSEC
  0
SECTION
  2
ENTITIES
  0
DIMENSION
  5
243
100
AcDbEntity
  8
0
100
AcDbDimension
 62
7
  6
CONTINUOUS
  2
*D0
 10
-14.8315755959
 20
19.1611064373
 11
-15.088797563
 21
21.4111064373
 70
160
 71
2
 42
5.6998417802
  3
DIMSTYLE_1
100
AcDbAlignedDimension
 13
-9.1317338157
 23
11.2790587952
 14
-14.8315755959
 24
11.2312237208
 50
180.0
100
AcDbRotatedDimension
  0
DIMENSION
  5
244
100
AcDbEntity
  8
0
100
AcDbDimension
 62
7
  6
CONTINUOUS
  2
*D1
 10
22.5473819556
 20
19.029232174
 11
7.1116676699
 21
21.279232174
 70
160
 71
2
 42
22.3
  3
DIMSTYLE_1
100
AcDbAlignedDimension
 13
0.2473819556
 23
11.2790587952
 14
22.5473819556
 24
11.2790587952
100
AcDbRotatedDimension
  0
DIMENSION
  5
245
100
AcDbEntity
  8
0
100
AcDbDimension
 62
7
  6
CONTINUOUS
  2
*D2
 10
30.5473819556
 20
-11.0792457666
 11
30.1216816785
 21
-3.6649703552
 70
160
 71
2
 42
22.1082379406
  3
DIMSTYLE_2
100
AcDbAlignedDimension
 13
22.7973057539
 23
11.028992174
 14
22.5201637609
 24
-11.0792457666
 50
270.0
100
AcDbRotatedDimension
  0
LINE
  5
246
100
AcDbEntity
  8
0
100
AcDbLine
 62
7
  6
CONTINUOUS
 10
0.273689265
 20
-10.5817551337
 11
0.2473819556
 21
-1.971007826
  0
LINE
  5
247
100
AcDbEntity
  8
ASSI
100
AcDbLine
 62
7
  6
CONTINUOUS
 10
0.273689265
 20
-10.5817551337
 11
0.2473819556
 21
-1.971007826
  0
LINE
  5
248
100
AcDbEntity
  8
RACCORDO
100
AcDbLine
 62
7
  6
CONTINUOUS
 10
0.2473819556
 20
10.7790587952
 11
0.2473819556
 21
-1.971007826
  0
LINE
  5
249
100
AcDbEntity
  8
ASSI
100
AcDbLine
 62
7
  6
CONTINUOUS
 10
0.2473819556
 20
10.7790587952
 11
0.2473819556
 21
-1.971007826
  0
LINE
  5
24A
100
AcDbEntity
  8
RACCORDO
100
AcDbLine
 62
253
  6
CONTINUOUS
 10
0.9292692095
 20
10.7312237206
 11
0.9292692095
 21
10.9814130858
  0
LINE
  5
24B
100
AcDbEntity
  8
ASSI
100
AcDbLine
 62
253
  6
CONTINUOUS
 10
0.9261259971
 20
1.628992174
 11
0.9292692095
 21
10.9814130858
  0
LINE
  5
24C
100
AcDbEntity
  8
RACCORDO
100
AcDbLine
 62
7
  6
CONTINUOUS
 10
14.7914282547
 20
-11.0792457666
 11
15.1396469287
 21
-11.047636935
  0
LINE
  5
24D
100
AcDbEntity
  8
ASSI
100
AcDbLine
 62
7
  6
CONTINUOUS
 10
14.7914282547
 20
-11.0792457666
 11
15.1396469287
 21
-11.047636935
  0
LINE
  5
24E
100
AcDbEntity
  8
0
100
AcDbLine
 62
7
  6
CONTINUOUS
 10
22.0201637609
 20
-11.0792457666
 11
19.2033356566
 21
-11.0792457666
  0
LINE
  5
24F
100
AcDbEntity
  8
ASSI
100
AcDbLine
 62
7
  6
CONTINUOUS
 10
22.0201637609
 20
-11.0792457666
 11
19.2033356566
 21
-11.0792457666
  0
LINE
  5
250
100
AcDbEntity
  8
DRAFT
100
AcDbLine
 62
7
  6
CONTINUOUS
 10
14.7914282547
 20
-11.0792457666
 11
8.0033356566
 21
-11.0792457666
  0
LINE
  5
251
100
AcDbEntity
  8
ASSI
100
AcDbLine
 62
7
  6
CONTINUOUS
 10
14.7914282547
 20
-11.0792457666
 11
8.0033356566
 21
-11.0792457666
  0
LINE
  5
252
100
AcDbEntity
  8
0
100
AcDbLine
 62
7
  6
CONTINUOUS
 10
3.5914282547
 20
-11.0792457666
 11
0.7746001504
 21
-11.0792457666
  0
LINE
  5
253
100
AcDbEntity
  8
ASSI
100
AcDbLine
 62
7
  6
CONTINUOUS
 10
3.5914282547
 20
-11.0792457666
 11
0.7746001504
 21
-11.0792457666
  0
LINE
  5
254
100
AcDbEntity
  8
RACCORDO
100
AcDbLine
 62
7
  6
CONTINUOUS
 10
4.1128520095
 20
-11.0423961571
 11
7.4819119018
 21
-11.0423961571
  0
LINE
  5
255
100
AcDbEntity
  8
ASSI
100
AcDbLine
 62
7
  6
CONTINUOUS
 10
4.1128520095
 20
-11.0423961571
 11
7.4819119018
 21
-11.0423961571
  0
LINE
  5
256
100
AcDbEntity
  8
RACCORDO
100
AcDbLine
 62
7
  6
CONTINUOUS
 10
15.3128520095
 20
-11.0423961571
 11
18.6819119018
 21
-11.0423961571
  0
LINE
  5
257
100
AcDbEntity
  8
ASSI
100
AcDbLine
 62
7
  6
CONTINUOUS
 10
15.3128520095
 20
-11.0423961571
 11
18.6819119018
 21
-11.0423961571
  0
LINE
  5
258
100
AcDbEntity
  8
0
100
AcDbLine
 62
253
  6
CONTINUOUS
 10
0.8754116876
 20
-10.9279515979
 11
21.9193522237
 21
-10.9279515979
  0
LINE
  5
259
100
AcDbEntity
  8
ASSI
100
AcDbLine
 62
253
  6
CONTINUOUS
 10
0.8754116876
 20
-10.9279515979
 11
21.9193522237
 21
-10.9279515979
  0
LINE
  5
25A
100
AcDbEntity
  8
RACCORDO
100
AcDbLine
 62
7
  6
CONTINUOUS
 10
8.0033356566
 20
-11.0792457666
 11
7.6551169826
 21
-11.047636935
  0
LINE
  5
25B
100
AcDbEntity
  8
ASSI
100
AcDbLine
 62
7
  6
CONTINUOUS
 10
8.0033356566
 20
-11.0792457666
 11
7.6551169826
 21
-11.047636935
  0
LINE
  5
25C
100
AcDbEntity
  8
RACCORDO
100
AcDbLine
 62
7
  6
CONTINUOUS
 10
3.5914282547
 20
-11.0792457666
 11
3.9396469287
 21
-11.047636935
  0
LINE
  5
25D
100
AcDbEntity
  8
ASSI
100
AcDbLine
 62
7
  6
CONTINUOUS
 10
3.5914282547
 20
-11.0792457666
 11
3.9396469287
 21
-11.047636935
  0
LINE
  5
25E
100
AcDbEntity
  8
0
100
AcDbLine
 62
253
  6
CONTINUOUS
 10
0.8917631432
 20
-10.0784042456
 11
21.9030007681
 21
-10.0784042456
  0
LINE
  5
25F
100
AcDbEntity
  8
ASSI
100
AcDbLine
 62
253
  6
CONTINUOUS
 10
0.8917631432
 20
-10.0784042456
 11
21.9030007681
 21
-10.0784042456
  0
LINE
  5
260
100
AcDbEntity
  8
RACCORDO
100
AcDbLine
 62
7
  6
CONTINUOUS
 10
19.2033356566
 20
-11.0792457666
 11
18.8551169826
 21
-11.047636935
  0
LINE
  5
261
100
AcDbEntity
  8
ASSI
100
AcDbLine
 62
7
  6
CONTINUOUS
 10
19.2033356566
 20
-11.0792457666
 11
18.8551169826
 21
-11.047636935
  0
LINE
  5
262
100
AcDbEntity
  8
0
100
AcDbLine
 62
253
  6
CONTINUOUS
 10
0.273689265
 20
-10.5817551337
 11
0.375716274
 21
-10.4286368305
  0
LINE
  5
263
100
AcDbEntity
  8
ASSI
100
AcDbLine
 62
253
  6
CONTINUOUS
 10
0.273689265
 20
-10.5817551337
 11
0.375716274
 21
-10.4286368305
  0
LINE
  5
264
100
AcDbEntity
  8
0
100
AcDbLine
 62
253
  6
CONTINUOUS
 10
0.7746001504
 20
-11.0792457666
 11
0.8754116876
 21
-10.9279515979
  0
LINE
  5
265
100
AcDbEntity
  8
ASSI
100
AcDbLine
 62
253
  6
CONTINUOUS
 10
0.7746001504
 20
-11.0792457666
 11
0.8754116876
 21
-10.9279515979
  0
LINE
  5
266
100
AcDbEntity
  8
CURVE
100
AcDbLine
 62
253
  6
CONTINUOUS
 10
11.3234409556
 20
-3.420395826
 11
8.1380849556
 21
-0.235039826
  0
LINE
  5
267
100
AcDbEntity
  8
CURVE
100
AcDbLine
 62
253
  6
CONTINUOUS
 10
11.4648619556
 20
-2.996131826
 11
8.7490849556
 21
-0.280353826
  0
LINE
  5
268
100
AcDbEntity
  8
CURVE
100
AcDbLine
 62
253
  6
CONTINUOUS
 10
8.7490849556
 20
-0.280353826
 11
14.1806389556
 21
-0.280353826
  0
LINE
  5
269
100
AcDbEntity
  8
CURVE
100
AcDbLine
 62
253
  6
CONTINUOUS
 10
8.2648609556
 20
0.119646174
 11
14.6648619556
 21
0.119646174
  0
LINE
  5
26A
100
AcDbEntity
  8
CURVE
100
AcDbLine
 62
253
  6
CONTINUOUS
 10
11.4648619556
 20
-2.996131826
 11
14.1806389556
 21
-0.280353826
  0
LINE
  5
26B
100
AcDbEntity
  8
0
100
AcDbLine
 62
253
  6
CONTINUOUS
 10
21.8686379142
 20
1.628992174
 11
0.9261259971
 21
1.628992174
  0
LINE
  5
26C
100
AcDbEntity
  8
ASSI
100
AcDbLine
 62
253
  6
CONTINUOUS
 10
21.8686379142
 20
1.628992174
 11
0.9261259971
 21
1.628992174
  0
LINE
  5
26D
100
AcDbEntity
  8
CURVE
100
AcDbLine
 62
253
  6
CONTINUOUS
 10
11.6062829556
 20
-3.420395826
 11
14.7916389556
 21
-0.235039826
  0
LINE
  5
26E
100
AcDbEntity
  8
0
100
AcDbLine
 62
253
  6
CONTINUOUS
 10
21.9193522237
 20
-10.9279515979
 11
22.0201637609
 21
-11.0792457666
  0
LINE
  5
26F
100
AcDbEntity
  8
ASSI
100
AcDbLine
 62
253
  6
CONTINUOUS
 10
21.9193522237
 20
-10.9279515979
 11
22.0201637609
 21
-11.0792457666
  0
LINE
  5
270
100
AcDbEntity
  8
0
100
AcDbLine
 62
253
  6
CONTINUOUS
 10
22.4190476372
 20
-10.4286368305
 11
22.5210746463
 21
-10.5817551337
  0
LINE
  5
271
100
AcDbEntity
  8
ASSI
100
AcDbLine
 62
253
  6
CONTINUOUS
 10
22.4190476372
 20
-10.4286368305
 11
22.5210746463
 21
-10.5817551337
  0
LINE
  5
272
100
AcDbEntity
  8
0
100
AcDbLine
 62
7
  6
CONTINUOUS
 10
15.5492804992
 20
5.528992174
 11
7.2454834121
 21
5.528992174
  0
LINE
  5
273
100
AcDbEntity
  8
RACCORDO
100
AcDbLine
 62
7
  6
CONTINUOUS
 10
15.5492804992
 20
5.528992174
 11
7.2454834121
 21
5.528992174
  0
LINE
  5
274
100
AcDbEntity
  8
ASSI
100
AcDbLine
 62
7
  6
CONTINUOUS
 10
15.5492804992
 20
5.528992174
 11
7.2454834121
 21
5.528992174
  0
LINE
  5
275
100
AcDbEntity
  8
RACCORDO
100
AcDbLine
 62
253
  6
CONTINUOUS
 10
22.5473819556
 20
10.7790587952
 11
22.3651901294
 21
10.733528184
  0
LINE
  5
276
100
AcDbEntity
  8
ASSI
100
AcDbLine
 62
253
  6
CONTINUOUS
 10
22.5473819556
 20
10.7790587952
 11
22.3651901294
 21
10.733528184
  0
LINE
  5
277
100
AcDbEntity
  8
RACCORDO
100
AcDbLine
 62
253
  6
CONTINUOUS
 10
22.2973057539
 20
11.028992174
 11
22.1153423557
 21
10.983518648
  0
LINE
  5
278
100
AcDbEntity
  8
ASSI
100
AcDbLine
 62
253
  6
CONTINUOUS
 10
22.2973057539
 20
11.028992174
 11
22.1153423557
 21
10.983518648
  0
LINE
  5
279
100
AcDbEntity
  8
0
100
AcDbLine
 62
7
  6
CONTINUOUS
 10
15.5486530264
 20
7.728992174
 11
7.2461108849
 21
7.728992174
  0
LINE
  5
27A
100
AcDbEntity
  8
RACCORDO
100
AcDbLine
 62
7
  6
CONTINUOUS
 10
15.5486530264
 20
7.728992174
 11
7.2461108849
 21
7.728992174
  0
LINE
  5
27B
100
AcDbEntity
  8
ASSI
100
AcDbLine
 62
7
  6
CONTINUOUS
 10
15.5486530264
 20
7.728992174
 11
7.2461108849
 21
7.728992174
  0
LINE
  5
27C
100
AcDbEntity
  8
RACCORDO
100
AcDbLine
 62
253
  6
CONTINUOUS
 10
0.4295737819
 20
10.733528184
 11
0.2473819556
 21
10.7790587952
  0
LINE
  5
27D
100
AcDbEntity
  8
ASSI
100
AcDbLine
 62
253
  6
CONTINUOUS
 10
0.4295737819
 20
10.733528184
 11
0.2473819556
 21
10.7790587952
  0
LINE
  5
27E
100
AcDbEntity
  8
RACCORDO
100
AcDbLine
 62
253
  6
CONTINUOUS
 10
0.6794215556
 20
10.983518648
 11
0.4974581574
 21
11.028992174
  0
LINE
  5
27F
100
AcDbEntity
  8
ASSI
100
AcDbLine
 62
253
  6
CONTINUOUS
 10
0.6794215556
 20
10.983518648
 11
0.4974581574
 21
11.028992174
  0
LINE
  5
280
100
AcDbEntity
  8
RACCORDO
100
AcDbLine
 62
253
  6
CONTINUOUS
 10
21.8654947018
 20
10.7312237206
 11
21.8654947018
 21
10.9814130858
  0
LINE
  5
281
100
AcDbEntity
  8
ASSI
100
AcDbLine
 62
253
  6
CONTINUOUS
 10
21.8686379142
 20
1.628992174
 11
21.8654947018
 21
10.9814130858
  0
LINE
  5
282
100
AcDbEntity
  8
DRAFT
100
AcDbLine
 62
7
  6
CONTINUOUS
 10
19.9098479462
 20
11.028992174
 11
19.6473819556
 21
11.0028115706
  0
LINE
  5
283
100
AcDbEntity
  8
ASSI
100
AcDbLine
 62
7
  6
CONTINUOUS
 10
19.9098479462
 20
11.028992174
 11
19.6473819556
 21
11.0028115706
  0
LINE
  5
284
100
AcDbEntity
  8
DRAFT
100
AcDbLine
 62
7
  6
CONTINUOUS
 10
2.8849159651
 20
11.028992174
 11
3.1473819556
 21
11.0028115706
  0
LINE
  5
285
100
AcDbEntity
  8
ASSI
100
AcDbLine
 62
7
  6
CONTINUOUS
 10
2.8849159651
 20
11.028992174
 11
3.1473819556
 21
11.0028115706
  0
LINE
  5
286
100
AcDbEntity
  8
RACCORDO
100
AcDbLine
 62
7
  6
CONTINUOUS
 10
22.5473819556
 20
10.7790587952
 11
22.5473819556
 21
-1.971007826
  0
LINE
  5
287
100
AcDbEntity
  8
ASSI
100
AcDbLine
 62
7
  6
CONTINUOUS
 10
22.5473819556
 20
10.7790587952
 11
22.5473819556
 21
-1.971007826
  0
LINE
  5
288
100
AcDbEntity
  8
0
100
AcDbLine
 62
7
  6
CONTINUOUS
 10
22.5210746463
 20
-10.5817551337
 11
22.5473819556
 21
-1.971007826
  0
LINE
  5
289
100
AcDbEntity
  8
ASSI
100
AcDbLine
 62
7
  6
CONTINUOUS
 10
22.5210746463
 20
-10.5817551337
 11
22.5473819556
 21
-1.971007826
  0
LINE
  5
28A
100
AcDbEntity
  8
RACCORDO
100
AcDbLine
 62
253
  6
CONTINUOUS
 10
21.8654928714
 20
10.7312237206
 11
0.9292710399
 21
10.7312237206
  0
LINE
  5
28B
100
AcDbEntity
  8
ASSI
100
AcDbLine
 62
253
  6
CONTINUOUS
 10
21.8654928714
 20
10.7312237206
 11
0.9292710399
 21
10.7312237206
  0
LINE
  5
28C
100
AcDbEntity
  8
RACCORDO
100
AcDbLine
 62
253
  6
CONTINUOUS
 10
21.8654947018
 20
10.9814130858
 11
0.9292692095
 21
10.9814130858
  0
LINE
  5
28D
100
AcDbEntity
  8
ASSI
100
AcDbLine
 62
7
  6
CONTINUOUS
 10
21.8654947018
 20
10.9814130858
 11
0.9292692095
 21
10.9814130858
  0
LINE
  5
28E
100
AcDbEntity
  8
DRAFT
100
AcDbLine
 62
7
  6
CONTINUOUS
 10
19.6473819556
 20
11.0028115706
 11
3.1473819556
 21
11.0028115706
  0
LINE
  5
28F
100
AcDbEntity
  8
ASSI
100
AcDbLine
 62
7
  6
CONTINUOUS
 10
19.6473819556
 20
11.0028115706
 11
3.1473819556
 21
11.0028115706
  0
LINE
  5
290
100
AcDbEntity
  8
RACCORDO
100
AcDbLine
 62
7
  6
CONTINUOUS
 10
22.2973057539
 20
11.028992174
 11
19.9098479462
 21
11.028992174
  0
LINE
  5
291
100
AcDbEntity
  8
ASSI
100
AcDbLine
 62
7
  6
CONTINUOUS
 10
22.2973057539
 20
11.028992174
 11
19.9098479462
 21
11.028992174
  0
LINE
  5
292
100
AcDbEntity
  8
RACCORDO
100
AcDbLine
 62
7
  6
CONTINUOUS
 10
2.8849159651
 20
11.028992174
 11
0.4974581574
 21
11.028992174
  0
LINE
  5
293
100
AcDbEntity
  8
ASSI
100
AcDbLine
 62
7
  6
CONTINUOUS
 10
2.8849159651
 20
11.028992174
 11
0.4974581574
 21
11.028992174
  0
LINE
  5
294
100
AcDbEntity
  8
0
100
AcDbLine
 62
7
  6
CONTINUOUS
 10
-12.8154660921
 20
-10.9279515979
 11
-9.9286013802
 21
-11.0792457666
  0
LINE
  5
295
100
AcDbEntity
  8
ASSI
100
AcDbLine
 62
7
  6
CONTINUOUS
 10
-12.8154660921
 20
-10.9279515979
 11
-9.9286013802
 21
-11.0792457666
  0
LINE
  5
296
100
AcDbEntity
  8
0
100
AcDbLine
 62
253
  6
CONTINUOUS
 10
-12.8067478624
 20
-10.4286368305
 11
-9.8850765896
 21
-10.5817551337
  0
LINE
  5
297
100
AcDbEntity
  8
ASSI
100
AcDbLine
 62
253
  6
CONTINUOUS
 10
-12.8067478624
 20
-10.4286368305
 11
-9.8850765896
 21
-10.5817551337
  0
LINE
  5
298
100
AcDbEntity
  8
RACCORDO
100
AcDbLine
 62
253
  6
CONTINUOUS
 10
-9.5546095361
 20
-6.8044994272
 11
-9.5317338157
 21
-6.8044994272
  0
LINE
  5
299
100
AcDbEntity
  8
ASSI
100
AcDbLine
 62
253
  6
CONTINUOUS
 10
-9.5546095361
 20
-6.8044994272
 11
-9.5317338157
 21
-6.8044994272
  0
LINE
  5
29A
100
AcDbEntity
  8
CURVE
100
AcDbLine
 62
253
  6
CONTINUOUS
 10
-14.5035335914
 20
-3.420395826
 11
-14.4991024284
 21
-3.4789740282
  0
LINE
  5
29B
100
AcDbEntity
  8
CURVE
100
AcDbLine
 62
253
  6
CONTINUOUS
 10
-14.6867290675
 20
-0.235040876
 11
-14.6915306665
 21
-0.1121070963
  0
LINE
  5
29C
100
AcDbEntity
  8
RACCORDO
100
AcDbLine
 62
7
  6
CONTINUOUS
 10
-9.5317338157
 20
-6.8044976348
 11
-9.5317338157
 21
-6.5430287471
  0
LINE
  5
29D
100
AcDbEntity
  8
ASSI
100
AcDbLine
 62
7
  6
CONTINUOUS
 10
-9.5317338157
 20
-6.8044976348
 11
-9.5317338157
 21
-6.5430287471
  0
LINE
  5
29E
100
AcDbEntity
  8
RACCORDO
100
AcDbLine
 62
7
  6
CONTINUOUS
 10
-9.1317338157
 20
11.028992174
 11
-9.1317338157
 21
-1.971007826
  0
LINE
  5
29F
100
AcDbEntity
  8
ASSI
100
AcDbLine
 62
7
  6
CONTINUOUS
 10
-9.1317338157
 20
11.028992174
 11
-9.1317338157
 21
-1.971007826
  0
LINE
  5
2A0
100
AcDbEntity
  8
0
100
AcDbLine
 62
253
  6
CONTINUOUS
 10
-14.2590156757
 20
1.638492174
 11
-14.7414756691
 21
1.628992174
  0
LINE
  5
2A1
100
AcDbEntity
  8
ASSI
100
AcDbLine
 62
253
  6
CONTINUOUS
 10
-14.2590156757
 20
1.638492174
 11
-14.7414756691
 21
1.628992174
  0
LINE
  5
2A2
100
AcDbEntity
  8
0
100
AcDbLine
 62
7
  6
CONTINUOUS
 10
-9.9286013802
 20
-11.0792457666
 11
-9.1317338157
 21
-1.971007826
  0
LINE
  5
2A3
100
AcDbEntity
  8
ASSI
100
AcDbLine
 62
7
  6
CONTINUOUS
 10
-9.9286013802
 20
-11.0792457666
 11
-9.1317338157
 21
-1.971007826
  0
LINE
  5
2A4
100
AcDbEntity
  8
RACCORDO
100
AcDbLine
 62
253
  6
CONTINUOUS
 10
-9.1317338157
 20
10.7790587952
 11
-14.3490250986
 21
10.733528184
  0
LINE
  5
2A5
100
AcDbEntity
  8
ASSI
100
AcDbLine
 62
253
  6
CONTINUOUS
 10
-9.1317338157
 20
10.7790587952
 11
-14.3490250986
 21
10.733528184
  0
LINE
  5
2A6
100
AcDbEntity
  8
RACCORDO
100
AcDbLine
 62
7
  6
CONTINUOUS
 10
-9.1317338157
 20
11.028992174
 11
-14.5837573087
 21
10.9814130858
  0
LINE
  5
2A7
100
AcDbEntity
  8
ASSI
100
AcDbLine
 62
7
  6
CONTINUOUS
 10
-9.1317338157
 20
11.028992174
 11
-14.5837573087
 21
10.9814130858
  0
ARC
  5
2A8
100
AcDbEntity
  8
0
100
AcDbCircle
 62
253
  6
CONTINUOUS
 10
-2562.0291659724
 20
3.2934109551
 40
2562.9558253747
100
AcDbArc
 50
359.7010670072
 51
359.9627913298
  0
ARC
  5
2A9
100
AcDbEntity
  8
ASSI
100
AcDbCircle
 62
253
  6
CONTINUOUS
 10
-2562.0291659724
 20
3.2934109551
 40
2562.9558253747
100
AcDbArc
 50
359.7010670072
 51
359.9627913298
  0
ARC
  5
2AA
100
AcDbEntity
  8
0
100
AcDbCircle
 62
253
  6
CONTINUOUS
 10
2581.6819278108
 20
3.2841920017
 40
2559.8138131214
100
AcDbArc
 50
180.0370479955
 51
180.2990935685
  0
ARC
  5
2AB
100
AcDbEntity
  8
ASSI
100
AcDbCircle
 62
253
  6
CONTINUOUS
 10
2581.6819278108
 20
3.2841920017
 40
2559.8138131214
100
AcDbArc
 50
180.0370479955
 51
180.2990935685
  0
ARC
  5
2AC
100
AcDbEntity
  8
0
100
AcDbCircle
 62
253
  6
CONTINUOUS
 10
-2534.1310621532
 20
3.2936647991
 40
2534.5580261424
100
AcDbArc
 50
359.6993970068
 51
359.9625834519
  0
ARC
  5
2AD
100
AcDbEntity
  8
ASSI
100
AcDbCircle
 62
253
  6
CONTINUOUS
 10
-2534.1310621532
 20
3.2936647991
 40
2534.5580261424
100
AcDbArc
 50
359.6993970068
 51
359.9625834519
  0
ARC
  5
2AE
100
AcDbEntity
  8
0
100
AcDbCircle
 62
253
  6
CONTINUOUS
 10
2553.8186799663
 20
3.2844971855
 40
2531.4508698639
100
AcDbArc
 50
180.037254978
 51
180.3007644637
  0
ARC
  5
2AF
100
AcDbEntity
  8
ASSI
100
AcDbCircle
 62
253
  6
CONTINUOUS
 10
2553.8186799663
 20
3.2844971855
 40
2531.4508698639
100
AcDbArc
 50
180.037254978
 51
180.3007644637
  0
ARC
  5
2B0
100
AcDbEntity
  8
0
100
AcDbCircle
 62
7
  6
CONTINUOUS
 10
15.5453214911
 20
5.9274859726
 40
0.4020604646
100
AcDbArc
 50
356.679291676
 51
359.9997135529
  0
ARC
  5
2B1
100
AcDbEntity
  8
0
100
AcDbCircle
 62
7
  6
CONTINUOUS
 10
7.2494424196
 20
5.9274859726
 40
0.4020604639
100
AcDbArc
 50
180.0002864503
 51
183.320685082
  0
ARC
  5
2B2
100
AcDbEntity
  8
0
100
AcDbCircle
 62
7
  6
CONTINUOUS
 10
15.5486505205
 20
7.3273923729
 40
0.4015998011
100
AcDbArc
 50
86.6777968531
 51
89.9996424861
  0
ARC
  5
2B3
100
AcDbEntity
  8
0
100
AcDbCircle
 62
7
  6
CONTINUOUS
 10
7.2461133909
 20
7.3273923739
 40
0.4015998001
100
AcDbArc
 50
90.0003575169
 51
93.3221812304
  0
ARC
  5
2B4
100
AcDbEntity
  8
0
100
AcDbCircle
 62
7
  6
CONTINUOUS
 10
7.2454854411
 20
5.9298987963
 40
0.4009066223
100
AcDbArc
 50
266.6769864153
 51
269.9997100212
  0
ARC
  5
2B5
100
AcDbEntity
  8
0
100
AcDbCircle
 62
7
  6
CONTINUOUS
 10
15.5492784701
 20
5.9298987956
 40
0.4009066216
100
AcDbArc
 50
270.0002899832
 51
273.322992132
  0
ARC
  5
2B6
100
AcDbEntity
  8
0
100
AcDbCircle
 62
7
  6
CONTINUOUS
 10
7.248244618
 20
7.3304978207
 40
0.4008626624
100
AcDbArc
 50
176.6760851759
 51
179.9996299877
  0
ARC
  5
2B7
100
AcDbEntity
  8
0
100
AcDbCircle
 62
7
  6
CONTINUOUS
 10
15.5465192944
 20
7.3304978206
 40
0.4008626613
100
AcDbArc
 50
0.0003700158
 51
3.3238937694
  0
ARC
  5
2B8
100
AcDbEntity
  8
RACCORDO
100
AcDbCircle
 62
253
  6
CONTINUOUS
 10
22.115168505
 20
10.7335169173
 40
0.2500126444
100
AcDbArc
 50
0.0025780735
 51
89.9601566343
  0
ARC
  5
2B9
100
AcDbEntity
  8
ASSI
100
AcDbCircle
 62
253
  6
CONTINUOUS
 10
22.115168505
 20
10.7335169173
 40
0.2500126444
100
AcDbArc
 50
0.0025780735
 51
89.9601566343
  0
ARC
  5
2BA
100
AcDbEntity
  8
RACCORDO
100
AcDbCircle
 62
253
  6
CONTINUOUS
 10
0.6795953894
 20
10.7335169004
 40
0.2500126346
100
AcDbArc
 50
90.0398394799
 51
179.9974180535
  0
ARC
  5
2BB
100
AcDbEntity
  8
ASSI
100
AcDbCircle
 62
253
  6
CONTINUOUS
 10
0.6795953894
 20
10.7335169004
 40
0.2500126346
100
AcDbArc
 50
90.0398394799
 51
179.9974180535
  0
ARC
  5
2BC
100
AcDbEntity
  8
CURVE
100
AcDbCircle
 62
253
  6
CONTINUOUS
 10
11.4648619555
 20
-3.2789660201
 40
0.2000002036
100
AcDbArc
 50
225.0017837863
 51
314.9982162702
  0
ARC
  5
2BD
100
AcDbEntity
  8
RACCORDO
100
AcDbCircle
 62
7
  6
CONTINUOUS
 10
485.1682661843
 20
11.128992174
 40
500.0
100
AcDbArc
 50
180.045580912
 51
181.08868532
  0
ARC
  5
2BE
100
AcDbEntity
  8
ASSI
100
AcDbCircle
 62
7
  6
CONTINUOUS
 10
485.1682661843
 20
11.128992174
 40
500.0
100
AcDbArc
 50
180.045580912
 51
181.08868532
  0
ARC
  5
2BF
100
AcDbEntity
  8
RACCORDO
100
AcDbCircle
 62
253
  6
CONTINUOUS
 10
485.1334813278
 20
11.1287260996
 40
499.482663021
100
AcDbArc
 50
180.0453332552
 51
181.0886925858
  0
ARC
  5
2C0
100
AcDbEntity
  8
ASSI
100
AcDbCircle
 62
253
  6
CONTINUOUS
 10
485.1334813278
 20
11.1287260996
 40
499.482663021
100
AcDbArc
 50
180.0453332552
 51
181.0886925858
  0
ARC
  5
2C1
100
AcDbEntity
  8
0
100
AcDbCircle
 62
7
  6
CONTINUOUS
 10
75.2422778645
 20
3.338992174
 40
90.0
100
AcDbArc
 50
181.08868532
 51
188.5737414447
  0
ARC
  5
2C2
100
AcDbEntity
  8
ASSI
100
AcDbCircle
 62
7
  6
CONTINUOUS
 10
75.2422778645
 20
3.338992174
 40
90.0
100
AcDbArc
 50
181.08868532
 51
188.5737414447
  0
ARC
  5
2C3
100
AcDbEntity
  8
0
100
AcDbCircle
 62
253
  6
CONTINUOUS
 10
75.2248281157
 20
3.338992174
 40
89.4999999996
100
AcDbArc
 50
181.08868532
 51
188.5737414447
  0
ARC
  5
2C4
100
AcDbEntity
  8
ASSI
100
AcDbCircle
 62
253
  6
CONTINUOUS
 10
75.2248281157
 20
3.338992174
 40
89.4999999996
100
AcDbArc
 50
181.08868532
 51
188.5737414447
  0
ARC
  5
2C5
100
AcDbEntity
  8
0
100
AcDbCircle
 62
7
  6
CONTINUOUS
 10
-12.7631301359
 20
-9.9293220632
 40
1.0
100
AcDbArc
 50
188.5737414447
 51
267.0
  0
ARC
  5
2C6
100
AcDbEntity
  8
ASSI
100
AcDbCircle
 62
7
  6
CONTINUOUS
 10
-12.7631301359
 20
-9.9293220632
 40
1.0
100
AcDbArc
 50
188.5737414447
 51
267.0
  0
ARC
  5
2C7
100
AcDbEntity
  8
0
100
AcDbCircle
 62
253
  6
CONTINUOUS
 10
-12.7805798838
 20
-9.9293220627
 40
0.5000000005
100
AcDbArc
 50
188.5737414877
 51
266.999999957
  0
ARC
  5
2C8
100
AcDbEntity
  8
ASSI
100
AcDbCircle
 62
253
  6
CONTINUOUS
 10
-12.7805798838
 20
-9.9293220627
 40
0.5000000005
100
AcDbArc
 50
188.5737414877
 51
266.999999957
  0
ARC
  5
2C9
100
AcDbEntity
  8
RACCORDO
100
AcDbCircle
 62
7
  6
CONTINUOUS
 10
-9.8317338157
 20
-6.8044994272
 40
0.3
100
AcDbArc
 50
334.9997013218
 51
0.0003423163
  0
ARC
  5
2CA
100
AcDbEntity
  8
ASSI
100
AcDbCircle
 62
7
  6
CONTINUOUS
 10
-9.8317338157
 20
-6.8044994272
 40
0.3
100
AcDbArc
 50
334.9997013218
 51
0.0003423163
  0
ARC
  5
2CB
100
AcDbEntity
  8
RACCORDO
100
AcDbCircle
 62
7
  6
CONTINUOUS
 10
-14.5815756607
 20
10.7314226052
 40
0.25
100
AcDbArc
 50
90.5000032275
 51
180.045580992
  0
ARC
  5
2CC
100
AcDbEntity
  8
ASSI
100
AcDbCircle
 62
7
  6
CONTINUOUS
 10
-14.5815756607
 20
10.7314226052
 40
0.25
100
AcDbArc
 50
90.5000032275
 51
180.045580992
  0
LINE
  5
2CD
100
AcDbEntity
  8
0
100
AcDbLine
 62
7
  6
CONTINUOUS
 10
15.9473819556
 20
7.3305004094
 11
15.9473819556
 21
7.1226439865
  0
LINE
  5
2CE
100
AcDbEntity
  8
0
100
AcDbLine
 62
7
  6
CONTINUOUS
 10
15.9473819556
 20
7.1226439865
 11
15.9473819556
 21
7.0706799859
  0
LINE
  5
2CF
100
AcDbEntity
  8
0
100
AcDbLine
 62
7
  6
CONTINUOUS
 10
15.9473819556
 20
7.0706799859
 11
15.9473819556
 21
6.8628243799
  0
LINE
  5
2D0
100
AcDbEntity
  8
0
100
AcDbLine
 62
7
  6
CONTINUOUS
 10
15.9473819556
 20
6.8628243799
 11
15.9473819556
 21
6.6549695646
  0
LINE
  5
2D1
100
AcDbEntity
  8
0
100
AcDbLine
 62
7
  6
CONTINUOUS
 10
15.9473819556
 20
6.6549695646
 11
15.9473819556
 21
6.6030059601
  0
LINE
  5
2D2
100
AcDbEntity
  8
0
100
AcDbLine
 62
7
  6
CONTINUOUS
 10
15.9473819556
 20
6.6030059601
 11
15.9473819556
 21
6.3951520527
  0
LINE
  5
2D3
100
AcDbEntity
  8
0
100
AcDbLine
 62
7
  6
CONTINUOUS
 10
15.9473819556
 20
6.3951520527
 11
15.9473819556
 21
6.1872990776
  0
LINE
  5
2D4
100
AcDbEntity
  8
0
100
AcDbLine
 62
7
  6
CONTINUOUS
 10
15.9473819556
 20
6.1872990776
 11
15.9473819556
 21
6.1353359599
  0
LINE
  5
2D5
100
AcDbEntity
  8
0
100
AcDbLine
 62
7
  6
CONTINUOUS
 10
15.9473819556
 20
6.1353359599
 11
15.9473819556
 21
5.9274839625
  0
SPLINE
  5
2D6
100
AcDbEntity
  8
0
100
AcDbSpline
 62
7
  6
CONTINUOUS
 70
0
 71
3
 72
25
 73
21
 74
19
 42
0.0000001
 43
0.0000001
 44
0.0000000001
 12
-0.578414833
 22
0.033585452
 32
0.0
 13
-0.0335619525
 23
0.5784158551
 33
0.0
 40
0.0
 40
0.0
 40
0.0
 40
0.0
 40
0.0200514387
 40
0.0803270942
 40
0.1404453416
 40
0.2002856332
 40
0.2602499788
 40
0.3202499278
 40
0.3800671828
 40
0.4397602389
 40
0.4996674647
 40
0.5595882874
 40
0.6193181535
 40
0.6791887486
 40
0.7392639398
 40
0.7993237723
 40
0.8592712226
 40
0.9195041017
 40
0.9799050173
 40
1.0
 40
1.0
 40
1.0
 40
1.0
 10
7.2222468811
 20
5.5296662525
 30
0.0
 10
7.2183808646
 20
5.5298907314
 30
0.0
 10
7.202906007
 20
5.5310145312
 30
0.0
 10
7.1759917592
 20
5.5345512148
 30
0.0
 10
7.1419773166
 20
5.5420848609
 30
0.0
 10
7.1088063173
 20
5.552532965
 30
0.0
 10
7.0766919088
 20
5.5658217561
 30
0.0
 10
7.0458645748
 20
5.5818623681
 30
0.0
 10
7.0165999778
 20
5.6005051589
 30
0.0
 10
6.9890858821
 20
5.6216165082
 30
0.0
 10
6.9635035629
 20
5.6450616621
 30
0.0
 10
6.940063631
 20
5.6706584104
 30
0.0
 10
6.9189506205
 20
5.6981964873
 30
0.0
 10
6.900301174
 20
5.727494706
 30
0.0
 10
6.8842504923
 20
5.7583655754
 30
0.0
 10
6.8709500834
 20
5.7905332565
 30
0.0
 10
6.86049105
 20
5.8237650506
 30
0.0
 10
6.8529484526
 20
5.8578461483
 30
0.0
 10
6.84940721
 20
5.8848150011
 30
0.0
 10
6.8482818363
 20
5.9003224236
 30
0.0
 10
6.8480570274
 20
5.9041968425
 30
0.0
 11
7.2222468811
 21
5.5296662525
 31
0.0
 11
7.2106601941
 21
5.5305077998
 31
0.0
 11
7.1760494538
 21
5.5350566422
 31
0.0
 11
7.1420562594
 21
5.5425866954
 31
0.0
 11
7.1090012013
 21
5.5529991145
 31
0.0
 11
7.0769121636
 21
5.5662781936
 31
0.0
 11
7.0460870268
 21
5.5823182624
 31
0.0
 11
7.016869317
 21
5.6009315969
 31
0.0
 11
6.9894419564
 21
5.6219766003
 31
0.0
 11
6.9638637251
 21
5.6454179699
 31
0.0
 11
6.9404268648
 21
5.6710110115
 31
0.0
 11
6.9193791868
 21
5.6984631877
 31
0.0
 11
6.9007595386
 21
5.7277135005
 31
0.0
 11
6.8847090677
 21
5.7585823453
 31
0.0
 11
6.8714175719
 21
5.7907260922
 31
0.0
 11
6.8609938245
 21
5.8238426477
 31
0.0
 11
6.8534548534
 21
5.857901864
 31
0.0
 11
6.8488998126
 21
5.8925849571
 31
0.0
 11
6.8480570274
 21
5.9041968425
 31
0.0
  0
SPLINE
  5
2D7
100
AcDbEntity
  8
0
100
AcDbSpline
 62
7
  6
CONTINUOUS
 70
0
 71
3
 72
25
 73
21
 74
19
 42
0.0000001
 43
0.0000001
 44
0.0000000001
 12
0.0336205787
 22
0.5788763995
 32
0.0
 13
0.5788771578
 23
0.0336031692
 33
0.0
 40
0.0
 40
0.0
 40
0.0
 40
0.0
 40
0.0200416777
 40
0.0803005781
 40
0.1404186932
 40
0.2002719698
 40
0.2602592616
 40
0.3202893722
 40
0.380140933
 40
0.4398699628
 40
0.4998109175
 40
0.5597596722
 40
0.6195089209
 40
0.6793889892
 40
0.7394602604
 40
0.7995013133
 40
0.8594154143
 40
0.9195988866
 40
0.9799318234
 40
1.0
 40
1.0
 40
1.0
 40
1.0
 10
6.8480563258
 20
7.3537401274
 30
0.0
 10
6.84828093
 20
7.3576073454
 30
0.0
 10
6.8494055405
 20
7.3730894336
 30
0.0
 10
6.8529453289
 20
7.400019947
 30
0.0
 10
6.8604862814
 20
7.4340604976
 30
0.0
 10
6.8709461788
 20
7.4672641546
 30
0.0
 10
6.8842514803
 20
7.4994155906
 30
0.0
 10
6.9003131581
 20
7.5302822871
 30
0.0
 10
6.9189810735
 20
7.5595867433
 30
0.0
 10
6.9401206954
 20
7.587139385
 30
0.0
 10
6.9635959557
 20
7.6127572889
 30
0.0
 10
6.9892229169
 20
7.6362284506
 30
0.0
 10
7.0167896753
 20
7.657367621
 30
0.0
 10
7.0461133035
 20
7.6760377614
 30
0.0
 10
7.0770046632
 20
7.6921037093
 30
0.0
 10
7.1091864428
 20
7.7054144019
 30
0.0
 10
7.1424249068
 20
7.7158795353
 30
0.0
 10
7.1765040942
 20
7.7234249353
 30
0.0
 10
7.2034666341
 20
7.7269670426
 30
0.0
 10
7.2189681388
 20
7.7280924834
 30
0.0
 10
7.2228404751
 20
7.7283172682
 30
0.0
 11
6.8480563258
 21
7.3537401274
 31
0.0
 11
6.84889834
 21
7.3653304102
 31
0.0
 11
6.8534505722
 21
7.3999590264
 31
0.0
 11
6.8609879016
 21
7.4339790084
 31
0.0
 11
6.8714121245
 21
7.4670672551
 31
0.0
 11
6.8847078034
 21
7.4991938306
 31
0.0
 11
6.9007691432
 21
7.5300588872
 31
0.0
 11
6.9194078044
 21
7.55931684
 31
0.0
 11
6.9404814904
 21
7.5867832716
 31
0.0
 11
6.963953456
 21
7.612397562
 31
0.0
 11
6.9895771523
 21
7.6358659532
 31
0.0
 11
7.0170582245
 21
7.6569398073
 31
0.0
 11
7.0463345566
 21
7.6755803689
 31
0.0
 11
7.0772242227
 21
7.6916460967
 31
0.0
 11
7.1093820761
 21
7.7049476834
 31
0.0
 11
7.1425055546
 21
7.7153773983
 31
0.0
 11
7.176563372
 21
7.722919081
 31
0.0
 11
7.2112348411
 21
7.7274745719
 31
0.0
 11
7.2228404751
 21
7.7283172682
 31
0.0
  0
SPLINE
  5
2D8
100
AcDbEntity
  8
0
100
AcDbSpline
 62
7
  6
CONTINUOUS
 70
0
 71
3
 72
25
 73
21
 74
19
 42
0.0000001
 43
0.0000001
 44
0.0000000001
 12
-0.0335621863
 22
-0.578415825
 32
0.0
 13
-0.5784148365
 23
-0.0335852348
 33
0.0
 40
0.0
 40
0.0
 40
0.0
 40
0.0
 40
0.0200941342
 40
0.080494816
 40
0.1407296603
 40
0.2006766753
 40
0.2607351258
 40
0.320810864
 40
0.3806828279
 40
0.4404119795
 40
0.5003317803
 40
0.5602400374
 40
0.6199337955
 40
0.6797496649
 40
0.7397490773
 40
0.7997148019
 40
0.8595555079
 40
0.9196717812
 40
0.9799476896
 40
1.0
 40
1.0
 40
1.0
 40
1.0
 10
15.9467068745
 20
5.9041966796
 30
0.0
 10
15.9464820734
 20
5.9003224245
 30
0.0
 10
15.9453567181
 20
5.8848152109
 30
0.0
 10
15.9418154803
 20
5.8578461865
 30
0.0
 10
15.9342728193
 20
5.8237648436
 30
0.0
 10
15.9238137322
 20
5.7905330381
 30
0.0
 10
15.9105134167
 20
5.7583655873
 30
0.0
 10
15.8944627048
 20
5.7274946172
 30
0.0
 10
15.8758131084
 20
5.6981962169
 30
0.0
 10
15.8547001062
 20
5.6706582256
 30
0.0
 10
15.831260267
 20
5.6450615807
 30
0.0
 10
15.8056778448
 20
5.6216163343
 30
0.0
 10
15.7781636677
 20
5.6005049799
 30
0.0
 10
15.7488992572
 20
5.5818623412
 30
0.0
 10
15.7180720275
 20
5.5658217599
 30
0.0
 10
15.6859573929
 20
5.5525328758
 30
0.0
 10
15.652786413
 20
5.542084826
 30
0.0
 10
15.61877222
 20
5.5345512415
 30
0.0
 10
15.5918581388
 20
5.5310145505
 30
0.0
 10
15.5763830649
 20
5.529890731
 30
0.0
 10
15.5725168803
 20
5.5296662438
 30
0.0
 11
15.9467068745
 21
5.9041966796
 31
0.0
 11
15.9458641273
 21
5.8925852847
 31
0.0
 11
15.9413091385
 21
5.8579023221
 31
0.0
 11
15.9337699128
 21
5.8238419973
 31
0.0
 11
15.9233461959
 21
5.7907256973
 31
0.0
 11
15.9100550047
 21
5.7585826913
 31
0.0
 11
15.8940044053
 21
5.7277135571
 31
0.0
 11
15.8753843076
 21
5.6984625918
 31
0.0
 11
15.8543368459
 21
5.6710107721
 31
0.0
 11
15.8309003847
 21
5.6454181685
 31
0.0
 11
15.8053217127
 21
5.6219763971
 31
0.0
 11
15.7778940026
 21
5.6009311825
 31
0.0
 11
15.7486769552
 21
5.5823183032
 31
0.0
 11
15.7178521044
 21
5.5662783598
 31
0.0
 11
15.6857623292
 21
5.5529989761
 31
0.0
 11
15.6527070292
 21
5.5425865286
 31
0.0
 11
15.6187149504
 21
5.5350567291
 31
0.0
 11
15.5841040706
 21
5.5305078306
 31
0.0
 11
15.5725168803
 21
5.5296662438
 31
0.0
  0
SPLINE
  5
2D9
100
AcDbEntity
  8
0
100
AcDbSpline
 62
7
  6
CONTINUOUS
 70
0
 71
3
 72
25
 73
21
 74
19
 42
0.0000001
 43
0.0000001
 44
0.0000000001
 12
0.5788771349
 22
-0.0336033902
 32
0.0
 13
0.0336203657
 23
-0.5788764096
 33
0.0
 40
0.0
 40
0.0
 40
0.0
 40
0.0
 40
0.0200673121
 40
0.0803999929
 40
0.1405854283
 40
0.2004991081
 40
0.2605387869
 40
0.3206106022
 40
0.3804920415
 40
0.4402405814
 40
0.5001883132
 40
0.5601302958
 40
0.6198600277
 40
0.6797102083
 40
0.7397397796
 40
0.7997284436
 40
0.8595821308
 40
0.9196982792
 40
0.9799574461
 40
1.0
 40
1.0
 40
1.0
 40
1.0
 10
15.5719235896
 20
7.7283172593
 30
0.0
 10
15.575795759
 20
7.7280924827
 30
0.0
 10
15.5912970474
 20
7.7269670613
 30
0.0
 10
15.6182597518
 20
7.7234249614
 30
0.0
 10
15.6523391838
 20
7.7158795008
 30
0.0
 10
15.685577664
 20
7.7054143147
 30
0.0
 10
15.7177592175
 20
7.6921037157
 30
0.0
 10
15.7486506804
 20
7.6760377382
 30
0.0
 10
15.7779744924
 20
7.6573674485
 30
0.0
 10
15.8055411673
 20
7.6362282864
 30
0.0
 10
15.8311680265
 20
7.612757218
 30
0.0
 10
15.85464338
 20
7.5871392122
 30
0.0
 10
15.8757830085
 20
7.5595864893
 30
0.0
 10
15.8944507734
 20
7.5302822196
 30
0.0
 10
15.9105124212
 20
7.4994156284
 30
0.0
 10
15.9238178161
 20
7.4672639687
 30
0.0
 10
15.9342776606
 20
7.4340603318
 30
0.0
 10
15.9418185536
 20
7.4000200275
 30
0.0
 10
15.9453583508
 20
7.3730896758
 30
0.0
 10
15.9464829814
 20
7.3576073674
 30
0.0
 10
15.9467075941
 20
7.3537399802
 30
0.0
 11
15.5719235896
 21
7.7283172593
 31
0.0
 11
15.5835287237
 21
7.7274746021
 31
0.0
 11
15.6182000501
 21
7.7229191671
 31
0.0
 11
15.6522589767
 21
7.7153772323
 31
0.0
 11
15.6853822084
 21
7.7049475478
 31
0.0
 11
15.7175393255
 21
7.6916462658
 31
0.0
 11
15.748429281
 21
7.6755804115
 31
0.0
 11
15.7777062684
 21
7.6569394003
 31
0.0
 11
15.8051869875
 21
7.6358657615
 31
0.0
 11
15.8308102462
 21
7.6123977709
 31
0.0
 11
15.8542826139
 21
7.5867830415
 31
0.0
 11
15.8753565126
 21
7.5593162606
 31
0.0
 11
15.8939947212
 21
7.5300589685
 31
0.0
 11
15.9100559359
 21
7.4991941996
 31
0.0
 11
15.9233519196
 21
7.4670668898
 31
0.0
 11
15.9337761718
 21
7.4339784032
 31
0.0
 11
15.9413132498
 21
7.3999595335
 31
0.0
 11
15.9458655399
 21
7.3653307695
 31
0.0
 11
15.9467075941
 21
7.3537399802
 31
0.0
  0
LINE
  5
2DA
100
AcDbEntity
  8
0
100
AcDbLine
 62
7
  6
CONTINUOUS
 10
6.8473819557
 20
5.9274839625
 11
6.8473819557
 21
6.1353359644
  0
LINE
  5
2DB
100
AcDbEntity
  8
0
100
AcDbLine
 62
7
  6
CONTINUOUS
 10
6.8473819557
 20
6.1353359644
 11
6.8473819557
 21
6.1872990815
  0
LINE
  5
2DC
100
AcDbEntity
  8
0
100
AcDbLine
 62
7
  6
CONTINUOUS
 10
6.8473819557
 20
6.1872990815
 11
6.8473819557
 21
6.3951520389
  0
LINE
  5
2DD
100
AcDbEntity
  8
0
100
AcDbLine
 62
7
  6
CONTINUOUS
 10
6.8473819557
 20
6.3951520389
 11
6.8473819557
 21
6.6030059674
  0
LINE
  5
2DE
100
AcDbEntity
  8
0
100
AcDbLine
 62
7
  6
CONTINUOUS
 10
6.8473819557
 20
6.6030059674
 11
6.8473819557
 21
6.6549695722
  0
LINE
  5
2DF
100
AcDbEntity
  8
0
100
AcDbLine
 62
7
  6
CONTINUOUS
 10
6.8473819557
 20
6.6549695722
 11
6.8473819557
 21
6.8628243074
  0
LINE
  5
2E0
100
AcDbEntity
  8
0
100
AcDbLine
 62
7
  6
CONTINUOUS
 10
6.8473819557
 20
6.8628243074
 11
6.8473819557
 21
7.0706799899
  0
LINE
  5
2E1
100
AcDbEntity
  8
0
100
AcDbLine
 62
7
  6
CONTINUOUS
 10
6.8473819557
 20
7.0706799899
 11
6.8473819557
 21
7.1226439909
  0
LINE
  5
2E2
100
AcDbEntity
  8
0
100
AcDbLine
 62
7
  6
CONTINUOUS
 10
6.8473819557
 20
7.1226439909
 11
6.8473819557
 21
7.3305004094
  0
LINE
  5
2E3
100
AcDbEntity
  8
RACCORDO
100
AcDbLine
 62
7
  6
CONTINUOUS
 10
15.9473819556
 20
7.3305004094
 11
15.9473819556
 21
7.0966619318
  0
LINE
  5
2E4
100
AcDbEntity
  8
RACCORDO
100
AcDbLine
 62
7
  6
CONTINUOUS
 10
15.9473819556
 20
7.0966619318
 11
15.9473819556
 21
6.8628243473
  0
LINE
  5
2E5
100
AcDbEntity
  8
RACCORDO
100
AcDbLine
 62
7
  6
CONTINUOUS
 10
15.9473819556
 20
6.8628243473
 11
15.9473819556
 21
6.6289877069
  0
LINE
  5
2E6
100
AcDbEntity
  8
RACCORDO
100
AcDbLine
 62
7
  6
CONTINUOUS
 10
15.9473819556
 20
6.6289877069
 11
15.9473819556
 21
6.3951520619
  0
LINE
  5
2E7
100
AcDbEntity
  8
RACCORDO
100
AcDbLine
 62
7
  6
CONTINUOUS
 10
15.9473819556
 20
6.3951520619
 11
15.9473819556
 21
6.1613174634
  0
LINE
  5
2E8
100
AcDbEntity
  8
RACCORDO
100
AcDbLine
 62
7
  6
CONTINUOUS
 10
15.9473819556
 20
6.1613174634
 11
15.9473819556
 21
5.9274839625
  0
LINE
  5
2E9
100
AcDbEntity
  8
RACCORDO
100
AcDbLine
 62
7
  6
CONTINUOUS
 10
6.8473819557
 20
5.9274839625
 11
6.8473819557
 21
7.3305004094
  0
SPLINE
  5
2EA
100
AcDbEntity
  8
RACCORDO
100
AcDbSpline
 62
7
  6
CONTINUOUS
 70
0
 71
3
 72
25
 73
21
 74
19
 42
0.0000001
 43
0.0000001
 44
0.0000000001
 12
-0.6256832202
 22
0.0
 32
0.0
 13
0.0
 23
0.6256832202
 33
0.0
 40
0.0
 40
0.0
 40
0.0
 40
0.0
 40
0.0556733582
 40
0.1114505503
 40
0.1670993388
 40
0.2225000448
 40
0.278013467
 40
0.3335579392
 40
0.3889329739
 40
0.4441938583
 40
0.4996537624
 40
0.5551262503
 40
0.6104212299
 40
0.6658457278
 40
0.721459882
 40
0.7770616371
 40
0.8325613724
 40
0.8883154579
 40
0.9442070521
 40
1.0
 40
1.0
 40
1.0
 40
1.0
 10
7.2454834121
 20
5.528992174
 30
0.0
 10
7.2338721168
 20
5.528992174
 30
0.0
 10
7.2106151713
 20
5.5300027673
 30
0.0
 10
7.1760196447
 20
5.5345464287
 30
0.0
 10
7.1420049991
 20
5.542077328
 30
0.0
 10
7.1088287951
 20
5.552524595
 30
0.0
 10
7.0767083459
 20
5.5658139321
 30
0.0
 10
7.0458760564
 20
5.5818555922
 30
0.0
 10
7.0166070749
 20
5.6005000271
 30
0.0
 10
6.9890887891
 20
5.6216138752
 30
0.0
 10
6.9635025685
 20
5.6450624368
 30
0.0
 10
6.9400593885
 20
5.6706632392
 30
0.0
 10
6.9189440403
 20
5.6982056589
 30
0.0
 10
6.9002931215
 20
5.7275084083
 30
0.0
 10
6.884241586
 20
5.7583843513
 30
0.0
 10
6.8709408537
 20
5.790558125
 30
0.0
 10
6.86048293
 20
5.8237949856
 30
0.0
 10
6.8529433789
 20
5.8578758142
 30
0.0
 10
6.848393927
 20
5.8925419701
 30
0.0
 10
6.8473819557
 20
5.9158477254
 30
0.0
 10
6.8473819557
 20
5.9274839625
 30
0.0
 11
7.2454834121
 21
5.528992174
 31
0.0
 11
7.2106824298
 21
5.5305058605
 31
0.0
 11
7.1760808315
 21
5.5350511162
 31
0.0
 11
7.1420857877
 21
5.5425787891
 31
0.0
 11
7.1090233014
 21
5.5529910807
 31
0.0
 11
7.0769282832
 21
5.5662706829
 31
0.0
 11
7.0460984978
 21
5.5823116404
 31
0.0
 11
7.0168766196
 21
5.6009264834
 31
0.0
 11
6.9894450795
 21
5.62197398
 31
0.0
 11
6.9638628416
 21
5.6454188537
 31
0.0
 11
6.9404226406
 21
5.6710160501
 31
0.0
 11
6.9193726354
 21
5.698472551
 31
0.0
 11
6.9007516366
 21
5.7277271994
 31
0.0
 11
6.8847004677
 21
5.7586008171
 31
0.0
 11
6.8714086698
 21
5.7907506002
 31
0.0
 11
6.8609852881
 21
5.823874554
 31
0.0
 11
6.8534489927
 21
5.8579351665
 31
0.0
 11
6.8488977888
 21
5.8926081776
 31
0.0
 11
6.8473819557
 21
5.9274839625
 31
0.0
  0
SPLINE
  5
2EB
100
AcDbEntity
  8
RACCORDO
100
AcDbSpline
 62
7
  6
CONTINUOUS
 70
0
 71
3
 72
25
 73
21
 74
19
 42
0.0000001
 43
0.0000001
 44
0.0000000001
 12
-0.0
 22
0.6261321933
 32
0.0
 13
0.6261321933
 23
-0.0
 33
0.0
 40
0.0
 40
0.0
 40
0.0
 40
0.0
 40
0.0556462765
 40
0.1114123659
 40
0.1670645122
 40
0.2224808987
 40
0.2780198863
 40
0.3335969858
 40
0.3890085547
 40
0.4443073417
 40
0.499802936
 40
0.5553057357
 40
0.6106232273
 40
0.6660612395
 40
0.7216764573
 40
0.7772651809
 40
0.8327377847
 40
0.8884496229
 40
0.9442824486
 40
1.0
 40
1.0
 40
1.0
 40
1.0
 10
6.8473819557
 20
7.3305004094
 30
0.0
 10
6.8473819557
 20
7.3421143845
 30
0.0
 10
6.8483934178
 20
7.3653800423
 30
0.0
 10
6.8529407199
 20
7.3999930144
 30
0.0
 10
6.860478908
 20
7.4340333518
 30
0.0
 10
6.8709378645
 20
7.467241807
 30
0.0
 10
6.8842436481
 20
7.4993991382
 30
0.0
 10
6.9003064066
 20
7.5302708576
 30
0.0
 10
6.9189760499
 20
7.5595798074
 30
0.0
 10
6.9401182433
 20
7.5871366949
 30
0.0
 10
6.9635969441
 20
7.6127584964
 30
0.0
 10
6.9892279854
 20
7.6362328957
 30
0.0
 10
7.0167991592
 20
7.6573744253
 30
0.0
 10
7.0461274375
 20
7.67604607
 30
0.0
 10
7.0770239539
 20
7.6921128588
 30
0.0
 10
7.1092117131
 20
7.7054237725
 30
0.0
 10
7.1424548709
 20
7.7158876499
 30
0.0
 10
7.1765333461
 20
7.7234299257
 30
0.0
 10
7.2111875688
 20
7.7279800458
 30
0.0
 10
7.234482034
 20
7.728992174
 30
0.0
 10
7.2461108849
 20
7.728992174
 30
0.0
 11
6.8473819557
 21
7.3305004094
 31
0.0
 11
6.8488965072
 21
7.3653094008
 31
0.0
 11
6.8534452456
 21
7.3999287877
 31
0.0
 11
6.8609801275
 21
7.4339499785
 31
0.0
 11
6.8714040917
 21
7.46704516
 31
0.0
 11
6.8847002517
 21
7.4991776239
 31
0.0
 11
6.900762541
 21
7.5300474507
 31
0.0
 11
6.9194028221
 21
7.5593097244
 31
0.0
 11
6.9404790716
 21
7.5867803883
 31
0.0
 11
6.9639545549
 21
7.6123986606
 31
0.0
 11
6.9895824104
 21
7.6358703619
 31
0.0
 11
7.0170678736
 21
7.65694656
 31
0.0
 11
7.0463487012
 21
7.6755885301
 31
0.0
 11
7.0772432727
 21
7.6916549686
 31
0.0
 11
7.1094071009
 21
7.7049567763
 31
0.0
 11
7.1425375423
 21
7.7153859596
 31
0.0
 11
7.1765961263
 21
7.7229248475
 31
0.0
 11
7.2112572714
 21
7.7274765276
 31
0.0
 11
7.2461108849
 21
7.728992174
 31
0.0
  0
SPLINE
  5
2EC
100
AcDbEntity
  8
RACCORDO
100
AcDbSpline
 62
7
  6
CONTINUOUS
 70
0
 71
3
 72
25
 73
21
 74
19
 42
0.0000001
 43
0.0000001
 44
0.0000000001
 12
0.0
 22
-0.6256832202
 32
0.0
 13
-0.6256832202
 23
0.0
 33
0.0
 40
0.0
 40
0.0
 40
0.0
 40
0.0
 40
0.0557950913
 40
0.1116884983
 40
0.1674453284
 40
0.2229447961
 40
0.2785453267
 40
0.3341599831
 40
0.3895856968
 40
0.4448800349
 40
0.5003515979
 40
0.5558124452
 40
0.6110739736
 40
0.6664477952
 40
0.7219917909
 40
0.7775064418
 40
0.8329073853
 40
0.8885533946
 40
0.9443287616
 40
1.0
 40
1.0
 40
1.0
 40
1.0
 10
15.9473819556
 20
5.9274839625
 30
0.0
 10
15.9473819556
 20
5.9158472784
 30
0.0
 10
15.9463699094
 20
5.8925406964
 30
0.0
 10
15.94182011
 20
5.8578731724
 30
0.0
 10
15.9342800802
 20
5.8237915271
 30
0.0
 10
15.9238217356
 20
5.7905545255
 30
0.0
 10
15.9105207889
 20
5.7583810665
 30
0.0
 10
15.8944689401
 20
5.7275051693
 30
0.0
 10
15.8758176076
 20
5.6982024141
 30
0.0
 10
15.8547020175
 20
5.6706602735
 30
0.0
 10
15.8312586912
 20
5.6450597839
 30
0.0
 10
15.8056721514
 20
5.6216113633
 30
0.0
 10
15.7781535817
 20
5.6004977548
 30
0.0
 10
15.7488845997
 20
5.5818537313
 30
0.0
 10
15.7180522573
 20
5.5658123833
 30
0.0
 10
15.6859314922
 20
5.5525232634
 30
0.0
 10
15.6527554406
 20
5.5420764232
 30
0.0
 10
15.6187416272
 20
5.5345460069
 30
0.0
 10
15.5841474736
 20
5.5300026929
 30
0.0
 10
15.5608913524
 20
5.528992174
 30
0.0
 10
15.5492804992
 20
5.528992174
 30
0.0
 11
15.9473819556
 21
5.9274839625
 31
0.0
 11
15.9458660059
 21
5.8926068403
 31
0.0
 11
15.9413144892
 21
5.8579327263
 31
0.0
 11
15.9337775387
 21
5.8238705
 31
0.0
 11
15.9233538661
 21
5.7907468132
 31
0.0
 11
15.9100620668
 21
5.7585978597
 31
0.0
 11
15.8940104876
 21
5.7277241013
 31
0.0
 11
15.875388789
 21
5.6984689966
 31
0.0
 11
15.8543387418
 21
5.6710130336
 31
0.0
 11
15.8308986963
 21
5.6454164795
 31
0.0
 11
15.8053158075
 21
5.6219714427
 31
0.0
 11
15.7778837275
 21
5.6009239878
 31
0.0
 11
15.7486623032
 21
5.5823098449
 31
0.0
 11
15.7178326432
 21
5.5662692922
 31
0.0
 11
15.6857367919
 21
5.5529896929
 31
0.0
 11
15.6526740556
 21
5.5425777001
 31
0.0
 11
15.6186806466
 21
5.5350506878
 31
0.0
 11
15.584080159
 21
5.5305057452
 31
0.0
 11
15.5492804992
 21
5.528992174
 31
0.0
  0
SPLINE
  5
2ED
100
AcDbEntity
  8
RACCORDO
100
AcDbSpline
 62
7
  6
CONTINUOUS
 70
0
 71
3
 72
25
 73
21
 74
19
 42
0.0000001
 43
0.0000001
 44
0.0000000001
 12
0.6261321933
 22
0.0
 32
0.0
 13
-0.0
 23
-0.6261321933
 33
0.0
 40
0.0
 40
0.0
 40
0.0
 40
0.0
 40
0.0557196865
 40
0.1115543222
 40
0.16726891
 40
0.2227412555
 40
0.2783287553
 40
0.3339444681
 40
0.3893836966
 40
0.4447005512
 40
0.5002024237
 40
0.5556989543
 40
0.6109983787
 40
0.6664087318
 40
0.7219853485
 40
0.7775255617
 40
0.8329421921
 40
0.8885915724
 40
0.9443558468
 40
1.0
 40
1.0
 40
1.0
 40
1.0
 10
15.5486530264
 20
7.728992174
 30
0.0
 10
15.5602823229
 20
7.728992174
 30
0.0
 10
15.583577613
 20
7.7279799711
 30
0.0
 10
15.6182332035
 20
7.7234295038
 30
0.0
 10
15.6523124984
 20
7.7158867486
 30
0.0
 10
15.6855558003
 20
7.7054224492
 30
0.0
 10
15.717743245
 20
7.6921113204
 30
0.0
 10
15.7486397145
 20
7.6760442187
 30
0.0
 10
15.7779679983
 20
7.6573721604
 30
0.0
 10
15.8055388932
 20
7.6362303885
 30
0.0
 10
15.8311696209
 20
7.6127558436
 30
0.0
 10
15.8546481785
 20
7.5871337253
 30
0.0
 10
15.8757901305
 20
7.5595765569
 30
0.0
 10
15.8944593611
 20
7.5302676098
 30
0.0
 10
15.9105218073
 20
7.4993958403
 30
0.0
 10
15.9238273746
 20
7.4672381941
 30
0.0
 10
15.9342859062
 20
7.4340298884
 30
0.0
 10
15.941823613
 20
7.3999903779
 30
0.0
 10
15.946370568
 20
7.3653787757
 30
0.0
 10
15.9473819556
 20
7.3421139413
 30
0.0
 10
15.9473819556
 20
7.3305004094
 30
0.0
 11
15.5486530264
 21
7.728992174
 31
0.0
 11
15.5835079729
 21
7.7274764114
 31
0.0
 11
15.6181702201
 21
7.7229244189
 31
0.0
 11
15.6522304222
 21
7.715384875
 31
0.0
 11
15.6853606017
 21
7.7049553988
 31
0.0
 11
15.7175236002
 21
7.6916535894
 31
0.0
 11
15.7484183086
 21
7.6755867424
 31
0.0
 11
15.777699593
 21
7.656944072
 31
0.0
 11
15.8051845202
 21
7.6358678303
 31
0.0
 11
15.8308117319
 21
7.6123962856
 31
0.0
 11
15.8542873757
 21
7.5867773653
 31
0.0
 11
15.8753635815
 21
7.5593061648
 31
0.0
 11
15.8940031618
 21
7.5300443473
 31
0.0
 11
15.9100650452
 21
7.4991746501
 31
0.0
 11
15.9233612029
 21
7.4670413547
 31
0.0
 11
15.9337848705
 21
7.4339459197
 31
0.0
 11
15.9413190938
 21
7.3999263569
 31
0.0
 11
15.9458675197
 21
7.3653080752
 31
0.0
 11
15.9473819556
 21
7.3305004094
 31
0.0
  0
SPLINE
  5
2EE
100
AcDbEntity
  8
RACCORDO
100
AcDbSpline
 62
253
  6
CONTINUOUS
 70
0
 71
3
 72
10
 73
6
 74
4
 42
0.0000001
 43
0.0000001
 44
0.0000000001
 12
0.0060355961
 22
9.0950346867
 32
0.0
 13
0.0002514557
 23
9.0950366859
 33
0.0
 40
0.0
 40
0.0
 40
0.0
 40
0.0
 40
0.33331324
 40
0.66664763
 40
1.0
 40
1.0
 40
1.0
 40
1.0
 10
0.4264305836
 20
1.638492174
 30
0.0
 10
0.427101165
 20
2.6489906671
 30
0.0
 10
0.4282280793
 20
4.6700519223
 30
0.0
 10
0.4292758546
 20
7.7017306581
 30
0.0
 10
0.4295458408
 20
9.7229108391
 30
0.0
 10
0.4295737819
 20
10.733528184
 30
0.0
 11
0.4264305836
 21
1.638492174
 31
0.0
 11
0.428120946
 21
4.6699878495
 31
0.0
 11
0.4291687036
 21
7.7016761753
 31
0.0
 11
0.4295737819
 21
10.733528184
 31
0.0
  0
SPLINE
  5
2EF
100
AcDbEntity
  8
0
100
AcDbSpline
 62
253
  6
CONTINUOUS
 70
0
 71
3
 72
25
 73
21
 74
19
 42
0.0000001
 43
0.0000001
 44
0.0000000001
 12
0.4390248502
 22
-0.23920298
 32
0.0
 13
0.4999607732
 23
-0.0003316614
 33
0.0
 40
0.0
 40
0.0
 40
0.0
 40
0.0
 40
0.0068059321
 40
0.0207337758
 40
0.0417520194
 40
0.0697246347
 40
0.10445486
 40
0.1456934389
 40
0.1931423402
 40
0.246457634
 40
0.3052523085
 40
0.3690992429
 40
0.4375344016
 40
0.5100602612
 40
0.5861494626
 40
0.6652486693
 40
0.7467826077
 40
0.8301582634
 40
0.9147692045
 40
1.0
 40
1.0
 40
1.0
 40
1.0
 10
0.4264305836
 20
1.638492174
 30
0.0
 10
0.4274265747
 20
1.6379495076
 30
0.0
 10
0.4309688715
 20
1.6375474552
 30
0.0
 10
0.437790381
 20
1.6366723242
 30
0.0
 10
0.4482999804
 20
1.6359983061
 30
0.0
 10
0.4622121873
 20
1.6352178658
 30
0.0
 10
0.4795266631
 20
1.6344947943
 30
0.0
 10
0.5000798997
 20
1.633779975
 30
0.0
 10
0.5237363816
 20
1.6331013581
 30
0.0
 10
0.5503194634
 20
1.6324578663
 30
0.0
 10
0.579637304
 20
1.6318571114
 30
0.0
 10
0.6114761393
 20
1.6313031387
 30
0.0
 10
0.645604469
 20
1.6308004667
 30
0.0
 10
0.6817739337
 20
1.6303528673
 30
0.0
 10
0.7197213741
 20
1.6299637445
 30
0.0
 10
0.7591706735
 20
1.6296360143
 30
0.0
 10
0.7998347903
 20
1.6293721275
 30
0.0
 10
0.841417841
 20
1.6291740484
 30
0.0
 10
0.8836172534
 20
1.6290432481
 30
0.0
 10
0.911921979
 20
1.6290015966
 30
0.0
 10
0.9261259971
 20
1.628992174
 30
0.0
 11
0.4264305836
 21
1.638492174
 31
0.0
 11
0.4297354389
 21
1.6376820522
 31
0.0
 11
0.4366522184
 21
1.6368778251
 31
0.0
 11
0.4471305931
 21
1.6360853446
 31
0.0
 11
0.4610943183
 21
1.6353103771
 31
0.0
 11
0.4784417887
 21
1.6345585616
 31
0.0
 11
0.4990467776
 21
1.6338353685
 31
0.0
 11
0.5227593555
 21
1.6331460601
 31
0.0
 11
0.5494069805
 21
1.632495652
 31
0.0
 11
0.5787957547
 21
1.6318888769
 31
0.0
 11
0.6107118342
 21
1.6313301498
 31
0.0
 11
0.6449229857
 21
1.6308235363
 31
0.0
 11
0.681180276
 21
1.6303727227
 31
0.0
 11
0.7192198834
 21
1.6299809893
 31
0.0
 11
0.7587650174
 21
1.6296511864
 31
0.0
 11
0.7995279327
 21
1.6293857139
 31
0.0
 11
0.8412120232
 21
1.6291865035
 31
0.0
 11
0.8835139796
 21
1.6290550045
 31
0.0
 11
0.9261259971
 21
1.628992174
 31
0.0
  0
SPLINE
  5
2F0
100
AcDbEntity
  8
RACCORDO
100
AcDbSpline
 62
253
  6
CONTINUOUS
 70
0
 71
3
 72
10
 73
6
 74
4
 42
0.0000001
 43
0.0000001
 44
0.0000000001
 12
0.0060343306
 22
9.1022302253
 32
0.0
 13
0.0002526151
 23
9.102232222
 33
0.0
 40
0.0
 40
0.0
 40
0.0
 40
0.0
 40
0.3333130829
 40
0.6666473215
 40
1.0
 40
1.0
 40
1.0
 40
1.0
 10
0.9261259971
 20
1.628992174
 30
0.0
 10
0.9267964376
 20
2.6402896467
 30
0.0
 10
0.9279234131
 20
4.6629489284
 30
0.0
 10
0.9289700329
 20
7.6970261766
 30
0.0
 10
0.9292429699
 20
9.7198058899
 30
0.0
 10
0.9292710399
 20
10.7312237206
 30
0.0
 11
0.9261259971
 21
1.628992174
 31
0.0
 11
0.9278160718
 21
4.6628847879
 31
0.0
 11
0.9288638118
 21
7.6969702547
 31
0.0
 11
0.9292710399
 21
10.7312237206
 31
0.0
  0
SPLINE
  5
2F1
100
AcDbEntity
  8
RACCORDO
100
AcDbSpline
 62
253
  6
CONTINUOUS
 70
0
 71
3
 72
25
 73
21
 74
19
 42
0.0000001
 43
0.0000001
 44
0.0000000001
 12
-0.4997136625
 22
0.0000069763
 32
0.0
 13
-0.4951377735
 23
0.0674709552
 33
0.0
 40
0.0
 40
0.0
 40
0.0
 40
0.0
 40
0.085271627
 40
0.1699228858
 40
0.2533392761
 40
0.334911862
 40
0.4140477186
 40
0.4901712172
 40
0.5627281194
 40
0.6311904874
 40
0.6950603256
 40
0.7538728639
 40
0.8072001514
 40
0.8546543022
 40
0.8958900524
 40
0.9306072984
 40
0.958553747
 40
0.9795266151
 40
0.9933739673
 40
1.0
 40
1.0
 40
1.0
 40
1.0
 10
0.9292710399
 20
10.73122372
 30
0.0
 10
0.9150672409
 20
10.7312239183
 30
0.0
 10
0.8867629781
 20
10.7312300436
 30
0.0
 10
0.8445639527
 20
10.7312563999
 30
0.0
 10
0.8029810952
 20
10.7312997173
 30
0.0
 10
0.7623169667
 20
10.7313596691
 30
0.0
 10
0.7228676531
 20
10.7314358099
 30
0.0
 10
0.6849201303
 20
10.7315275657
 30
0.0
 10
0.6487505498
 20
10.731634248
 30
0.0
 10
0.6146221318
 20
10.7317550388
 30
0.0
 10
0.5827831997
 20
10.7318890371
 30
0.0
 10
0.5534654085
 20
10.7320351162
 30
0.0
 10
0.5268821283
 20
10.7321923821
 30
0.0
 10
0.5032266591
 20
10.7323586692
 30
0.0
 10
0.4826715398
 20
10.732535144
 30
0.0
 10
0.4653651707
 20
10.73271224
 30
0.0
 10
0.4514366801
 20
10.7329094434
 30
0.0
 10
0.4409789211
 20
10.7330672726
 30
0.0
 10
0.4340858936
 20
10.7333032161
 30
0.0
 10
0.4306673816
 20
10.7333791548
 30
0.0
 10
0.4295737819
 20
10.7335281764
 30
0.0
 11
0.9292710399
 21
10.73122372
 31
0.0
 11
0.8866596439
 21
10.7312329753
 31
0.0
 11
0.8443582616
 21
10.7312594909
 31
0.0
 11
0.8026739745
 21
10.7313030763
 31
0.0
 11
0.7619110835
 21
10.7313634109
 31
0.0
 11
0.722365889
 21
10.7314400562
 31
0.0
 11
0.6843260489
 21
10.7315324529
 31
0.0
 11
0.6480685329
 21
10.7316399272
 31
0.0
 11
0.6138571689
 21
10.7317616951
 31
0.0
 11
0.5819408244
 21
10.7318968692
 31
0.0
 11
0.5525517661
 21
10.7320444639
 31
0.0
 11
0.5259038659
 21
10.7322034034
 31
0.0
 11
0.5021909815
 21
10.7323725297
 31
0.0
 11
0.4815856832
 21
10.7325506103
 31
0.0
 11
0.4642379954
 21
10.7327363478
 31
0.0
 11
0.4502740937
 21
10.7329283875
 31
0.0
 11
0.4397955157
 21
10.7331253384
 31
0.0
 11
0.4328787073
 21
10.7333257472
 31
0.0
 11
0.4295737819
 21
10.7335281764
 31
0.0
  0
SPLINE
  5
2F2
100
AcDbEntity
  8
0
100
AcDbSpline
 62
253
  6
CONTINUOUS
 70
0
 71
3
 72
25
 73
21
 74
19
 42
0.0000001
 43
0.0000001
 44
0.0000000001
 12
0.1156726251
 22
-0.5000143338
 32
0.0
 13
0.5132129288
 23
-0.0026419615
 33
0.0
 40
0.0
 40
0.0
 40
0.0
 40
0.0
 40
0.0139486785
 40
0.0321748852
 40
0.0558987827
 40
0.0855593295
 40
0.1212490579
 40
0.1628831388
 40
0.2102678154
 40
0.263131883
 40
0.3211434014
 40
0.3839199748
 40
0.4510360341
 40
0.5220286665
 40
0.5964027304
 40
0.6736356257
 40
0.7531819132
 40
0.8344778801
 40
0.9169460991
 40
1.0
 40
1.0
 40
1.0
 40
1.0
 10
0.3920677297
 20
-10.0038631544
 30
0.0
 10
0.3926055565
 20
-10.0061880008
 30
0.0
 10
0.3954849037
 20
-10.011137544
 30
0.0
 10
0.4028480532
 20
-10.017348891
 30
0.0
 10
0.4135216025
 20
-10.0234522484
 30
0.0
 10
0.4275713437
 20
-10.029407237
 30
0.0
 10
0.444942553
 20
-10.0352118158
 30
0.0
 10
0.4655385288
 20
-10.0408084353
 30
0.0
 10
0.4892206761
 20
-10.0461551742
 30
0.0
 10
0.515823514
 20
-10.0512077595
 30
0.0
 10
0.5451568491
 20
-10.0559268702
 30
0.0
 10
0.577009297
 20
-10.0602759034
 30
0.0
 10
0.6111502727
 20
-10.0642217128
 30
0.0
 10
0.6473320856
 20
-10.0677344539
 30
0.0
 10
0.6852919069
 20
-10.0707877475
 30
0.0
 10
0.724753797
 20
-10.0733587713
 30
0.0
 10
0.7654307659
 20
-10.0754283773
 30
0.0
 10
0.8070269384
 20
-10.076981194
 30
0.0
 10
0.849239591
 20
-10.0780057137
 30
0.0
 10
0.8775550313
 20
-10.0783311038
 30
0.0
 10
0.8917631432
 20
-10.0784042456
 30
0.0
 11
0.3920677297
 21
-10.0038631544
 31
0.0
 11
0.39535749
 21
-10.0102212196
 31
0.0
 11
0.4022610893
 21
-10.016532998
 31
0.0
 11
0.4127282694
 21
-10.0227525398
 31
0.0
 11
0.426682829
 21
-10.0288345666
 31
0.0
 11
0.4440231789
 21
-10.0347348013
 31
0.0
 11
0.464623081
 21
-10.04041029
 31
0.0
 11
0.4883325678
 21
-10.0458197151
 31
0.0
 11
0.514979034
 21
-10.050923696
 31
0.0
 11
0.5443684929
 21
-10.0556850755
 31
0.0
 11
0.576286989
 21
-10.0600691909
 31
0.0
 11
0.6105021553
 21
-10.0640441256
 31
0.0
 11
0.6467649049
 21
-10.0675809422
 31
0.0
 11
0.6848112446
 21
-10.0706538925
 31
0.0
 11
0.7243641965
 21
-10.0732406055
 31
0.0
 11
0.7651358148
 21
-10.0753222498
 31
0.0
 11
0.8068292815
 21
-10.076883671
 31
0.0
 11
0.8491410678
 21
-10.077913502
 31
0.0
 11
0.8917631432
 21
-10.0784042456
 31
0.0
  0
SPLINE
  5
2F3
100
AcDbEntity
  8
0
100
AcDbSpline
 62
253
  6
CONTINUOUS
 70
0
 71
3
 72
25
 73
21
 74
19
 42
0.0000001
 43
0.0000001
 44
0.0000000001
 12
0.0014329144
 22
-0.7839168072
 32
0.0
 13
0.7839168112
 23
-0.0014307322
 33
0.0
 40
0.0
 40
0.0
 40
0.0
 40
0.0
 40
0.0555066409
 40
0.1110226213
 40
0.1665481587
 40
0.2220831809
 40
0.2776273283
 40
0.3331799649
 40
0.3887401978
 40
0.444306904
 40
0.4998787649
 40
0.555454306
 40
0.6110319415
 40
0.6666100223
 40
0.7221868858
 40
0.7777609063
 40
0.833330544
 40
0.8888943916
 40
0.9444512168
 40
1.0
 40
1.0
 40
1.0
 40
1.0
 10
0.375716274
 20
-10.4286368305
 30
0.0
 10
0.3757427861
 20
-10.4431410268
 30
0.0
 10
0.377062476
 20
-10.4721654464
 30
0.0
 10
0.3828257707
 20
-10.5153551428
 30
0.0
 10
0.3923292249
 20
-10.5578897056
 30
0.0
 10
0.405500643
 20
-10.5994418379
 30
0.0
 10
0.422239992
 20
-10.6396972162
 30
0.0
 10
0.4424201497
 20
-10.6783498936
 30
0.0
 10
0.4658878752
 20
-10.7151064924
 30
0.0
 10
0.492464972
 20
-10.7496879288
 30
0.0
 10
0.5219496424
 20
-10.781831664
 30
0.0
 10
0.5541180193
 20
-10.8112936598
 30
0.0
 10
0.5887258638
 20
-10.8378502398
 30
0.0
 10
0.6255104281
 20
-10.8612997824
 30
0.0
 10
0.6641924128
 20
-10.8814642519
 30
0.0
 10
0.7044782204
 20
-10.8981905488
 30
0.0
 10
0.7460616821
 20
-10.9113516713
 30
0.0
 10
0.7886282476
 20
-10.9208476824
 30
0.0
 10
0.8318504049
 20
-10.9266064573
 30
0.0
 10
0.8608964792
 20
-10.9279251061
 30
0.0
 10
0.8754116876
 20
-10.9279515979
 30
0.0
 11
0.375716274
 21
-10.4286368305
 31
0.0
 11
0.3776928035
 21
-10.4721045776
 31
0.0
 11
0.3834484756
 21
-10.5152422774
 31
0.0
 11
0.392939588
 21
-10.5577223885
 31
0.0
 11
0.4060940755
 21
-10.5992223626
 31
0.0
 11
0.4228120569
 21
-10.6394270935
 31
0.0
 11
0.442966594
 21
-10.6780313096
 31
0.0
 11
0.4664046548
 21
-10.7147418919
 31
0.0
 11
0.4929482759
 21
-10.7492800996
 31
0.0
 11
0.5223959136
 21
-10.7813836868
 31
0.0
 11
0.5545239741
 21
-10.8108088932
 31
0.0
 11
0.5890885115
 21
-10.8373322952
 31
0.0
 11
0.6258270798
 21
-10.8607525028
 31
0.0
 11
0.6644607257
 21
-10.8808916879
 31
0.0
 11
0.7046961068
 21
-10.8975969351
 31
0.0
 11
0.7462277189
 21
-10.9107414028
 31
0.0
 11
0.7887402153
 21
-10.9202252859
 31
0.0
 11
0.8319108019
 21
-10.925976574
 31
0.0
 11
0.8754116876
 21
-10.9279515979
 31
0.0
  0
SPLINE
  5
2F4
100
AcDbEntity
  8
0
100
AcDbSpline
 62
253
  6
CONTINUOUS
 70
0
 71
3
 72
26
 73
22
 74
20
 42
0.0000001
 43
0.0000001
 44
0.0000000001
 12
0.2685929374
 22
0.8063832935
 32
0.0
 13
0.0022369592
 23
0.8499359847
 33
0.0
 40
0.0
 40
0.0
 40
0.0
 40
0.0
 40
0.0076246917
 40
0.0212415454
 40
0.0408201379
 40
0.0662705183
 40
0.097465855
 40
0.134246857
 40
0.176424113
 40
0.2237795972
 40
0.2760683609
 40
0.3330193498
 40
0.3943374779
 40
0.4597046572
 40
0.5287822035
 40
0.6012118306
 40
0.6766179093
 40
0.7546093822
 40
0.8347824281
 40
0.9167204116
 40
1.0
 40
1.0
 40
1.0
 40
1.0
 10
0.8754116876
 20
-10.9279515979
 30
0.0
 10
0.8760943337
 20
-10.9259021232
 30
0.0
 10
0.8769234463
 20
-10.9198930371
 30
0.0
 10
0.878143177
 20
-10.9084220954
 30
0.0
 10
0.8792759759
 20
-10.8918285465
 30
0.0
 10
0.8804560576
 20
-10.87027143
 30
0.0
 10
0.8815970565
 20
-10.8438242581
 30
0.0
 10
0.8827150461
 20
-10.8126369819
 30
0.0
 10
0.8837924489
 20
-10.7768664539
 30
0.0
 10
0.8848254738
 20
-10.7366998502
 30
0.0
 10
0.8858069122
 20
-10.6923451378
 30
0.0
 10
0.8867314637
 20
-10.6440326706
 30
0.0
 10
0.887593875
 20
-10.5920132216
 30
0.0
 10
0.8883894551
 20
-10.5365567315
 30
0.0
 10
0.8891138928
 20
-10.4779509854
 30
0.0
 10
0.8897633014
 20
-10.4165000478
 30
0.0
 10
0.8903342254
 20
-10.3525227984
 30
0.0
 10
0.8908236149
 20
-10.2863510029
 30
0.0
 10
0.8912289186
 20
-10.2183280333
 30
0.0
 10
0.8915479265
 20
-10.148806399
 30
0.0
 10
0.8917010456
 20
-10.1019983519
 30
0.0
 10
0.8917631432
 20
-10.0784042456
 30
0.0
 11
0.8754116876
 21
-10.9279515979
 31
0.0
 11
0.8766645086
 21
-10.9215933271
 31
0.0
 11
0.8779060258
 21
-10.9100866159
 31
0.0
 11
0.8791299168
 21
-10.8934910767
 31
0.0
 11
0.8803297369
 21
-10.8718931085
 31
0.0
 11
0.8814993004
 21
-10.8454047853
 31
0.0
 11
0.8826325246
 21
-10.8141637261
 31
0.0
 11
0.8837235321
 21
-10.7783322401
 31
0.0
 11
0.8847666604
 21
-10.7380964901
 31
0.0
 11
0.885756503
 21
-10.6936652589
 31
0.0
 11
0.8866879232
 21
-10.6452693586
 31
0.0
 11
0.8875560932
 21
-10.5931599261
 31
0.0
 11
0.8883565093
 21
-10.5376075817
 31
0.0
 11
0.8890850257
 21
-10.4789004061
 31
0.0
 11
0.889737864
 21
-10.4173431081
 31
0.0
 11
0.8903116429
 21
-10.3532551149
 31
0.0
 11
0.8908033836
 21
-10.2869689499
 31
0.0
 11
0.8912105533
 21
-10.2188279737
 31
0.0
 11
0.8915310158
 21
-10.1491864291
 31
0.0
 11
0.8917631432
 21
-10.0784042456
 31
0.0
  0
SPLINE
  5
2F5
100
AcDbEntity
  8
0
100
AcDbSpline
 62
253
  6
CONTINUOUS
 70
0
 71
3
 72
26
 73
22
 74
20
 42
0.0000001
 43
0.0000001
 44
0.0000000001
 12
0.2359522709
 22
0.3541440557
 32
0.0
 13
0.0022405098
 23
0.4255425554
 33
0.0
 40
0.0
 40
0.0
 40
0.0
 40
0.0
 40
0.0080280304
 40
0.0218584245
 40
0.0415678431
 40
0.0671002974
 40
0.0983438593
 40
0.135147229
 40
0.1773258644
 40
0.2246650247
 40
0.2769221631
 40
0.333828105
 40
0.3950893218
 40
0.4603890646
 40
0.5293898417
 40
0.6017344933
 40
0.6770484607
 40
0.7549417191
 40
0.8350114612
 40
0.9168420376
 40
1.0
 40
1.0
 40
1.0
 40
1.0
 10
0.375716274
 20
-10.4286368305
 30
0.0
 10
0.3763476847
 20
-10.4276891375
 30
0.0
 10
0.3772432941
 20
-10.4246478829
 30
0.0
 10
0.3784294581
 20
-10.4189101358
 30
0.0
 10
0.3795843651
 20
-10.4105878218
 30
0.0
 10
0.3807575083
 20
-10.3998091959
 30
0.0
 10
0.3819017714
 20
-10.3865806661
 30
0.0
 10
0.3830190006
 20
-10.3709858331
 30
0.0
 10
0.3840968546
 20
-10.3530990447
 30
0.0
 10
0.3851298608
 20
-10.3330147973
 30
0.0
 10
0.3861113893
 20
-10.3108365527
 30
0.0
 10
0.3870359738
 20
-10.2866795305
 30
0.0
 10
0.3878984202
 20
-10.2606690383
 30
0.0
 10
0.3886940244
 20
-10.232940038
 30
0.0
 10
0.3894184802
 20
-10.2036364113
 30
0.0
 10
0.3900679042
 20
-10.17291019
 30
0.0
 10
0.3906388328
 20
-10.1409208135
 30
0.0
 10
0.3911282368
 20
-10.107834167
 30
0.0
 10
0.3915335238
 20
-10.0738219414
 30
0.0
 10
0.3918525448
 20
-10.0390619746
 30
0.0
 10
0.3920056243
 20
-10.015658905
 30
0.0
 10
0.3920677297
 20
-10.0038631544
 30
0.0
 11
0.375716274
 21
-10.4286368305
 31
0.0
 11
0.3769688807
 21
-10.4254584361
 31
0.0
 11
0.3782104552
 21
-10.4197053816
 31
0.0
 11
0.3794343495
 21
-10.4114078461
 31
0.0
 11
0.3806341968
 21
-10.400609002
 31
0.0
 11
0.3818037788
 21
-10.3873648949
 31
0.0
 11
0.382937024
 21
-10.3717443314
 31
0.0
 11
0.3840280511
 21
-10.3538284679
 31
0.0
 11
0.3850711983
 21
-10.3337103875
 31
0.0
 11
0.3860610585
 21
-10.3114944845
 31
0.0
 11
0.386992495
 21
-10.2872961686
 31
0.0
 11
0.3878606794
 21
-10.2612410129
 31
0.0
 11
0.3886611078
 21
-10.2334643387
 31
0.0
 11
0.3893896338
 21
-10.2041102038
 31
0.0
 11
0.3900424797
 21
-10.173330972
 31
0.0
 11
0.3906162619
 21
-10.1412863662
 31
0.0
 11
0.3911080069
 21
-10.1081426584
 31
0.0
 11
0.3915151699
 21
-10.0740715362
 31
0.0
 11
0.3918356377
 21
-10.0392501356
 31
0.0
 11
0.3920677297
 21
-10.0038631544
 31
0.0
  0
SPLINE
  5
2F6
100
AcDbEntity
  8
RACCORDO
100
AcDbSpline
 62
253
  6
CONTINUOUS
 70
0
 71
3
 72
10
 73
6
 74
4
 42
0.0000001
 43
0.0000001
 44
0.0000000001
 12
0.0002526151
 22
-9.102232222
 32
0.0
 13
0.0060343306
 23
-9.1022302253
 33
0.0
 40
0.0
 40
0.0
 40
0.0
 40
0.0
 40
0.3333526785
 40
0.6666869171
 40
1.0
 40
1.0
 40
1.0
 40
1.0
 10
21.8654928714
 20
10.7312237206
 30
0.0
 10
21.8655209414
 20
9.7198058899
 30
0.0
 10
21.8657938784
 20
7.6970261766
 30
0.0
 10
21.8668404982
 20
4.6629489284
 30
0.0
 10
21.8679674737
 20
2.6402896467
 30
0.0
 10
21.8686379142
 20
1.628992174
 30
0.0
 11
21.8654928714
 21
10.7312237206
 31
0.0
 11
21.8659000995
 21
7.6969702547
 31
0.0
 11
21.8669478395
 21
4.6628847879
 31
0.0
 11
21.8686379142
 21
1.628992174
 31
0.0
  0
SPLINE
  5
2F7
100
AcDbEntity
  8
RACCORDO
100
AcDbSpline
 62
253
  6
CONTINUOUS
 70
0
 71
3
 72
25
 73
21
 74
19
 42
0.0000001
 43
0.0000001
 44
0.0000000001
 12
-0.2498751414
 22
0.0000000203
 32
0.0
 13
-0.2424238368
 23
0.0605662416
 33
0.0
 40
0.0
 40
0.0
 40
0.0
 40
0.0
 40
0.0852547325
 40
0.169900986
 40
0.2533120723
 40
0.3348797757
 40
0.4140110861
 40
0.4901304632
 40
0.5626837212
 40
0.6311429841
 40
0.6950103138
 40
0.7538209474
 40
0.8071470326
 40
0.8546008355
 40
0.8958373009
 40
0.9305566248
 40
0.958507049
 40
0.9794866968
 40
0.9933463674
 40
1.0
 40
1.0
 40
1.0
 40
1.0
 10
0.9292692095
 20
10.9814130858
 30
0.0
 10
0.9221681967
 20
10.9814130864
 30
0.0
 10
0.9080168519
 20
10.9814183375
 30
0.0
 10
0.8869180665
 20
10.9814419446
 30
0.0
 10
0.8661264036
 20
10.9814810968
 30
0.0
 10
0.8457941256
 20
10.9815355026
 30
0.0
 10
0.8260692351
 20
10.9816047555
 30
0.0
 10
0.8070952353
 20
10.9816883366
 30
0.0
 10
0.7890102062
 20
10.9817856188
 30
0.0
 10
0.7719457637
 20
10.9818958584
 30
0.0
 10
0.7560260858
 20
10.9820182331
 30
0.0
 10
0.7413669975
 20
10.9821517197
 30
0.0
 10
0.7280752357
 20
10.982295488
 30
0.0
 10
0.7162473044
 20
10.9824476068
 30
0.0
 10
0.7059698975
 20
10.9826089976
 30
0.0
 10
0.6973159051
 20
10.9827713439
 30
0.0
 10
0.6903534163
 20
10.9829512626
 30
0.0
 10
0.685119467
 20
10.9830974492
 30
0.0
 10
0.6816807709
 20
10.9833105277
 30
0.0
 10
0.679959222
 20
10.9833843195
 30
0.0
 10
0.6794215556
 20
10.983518648
 30
0.0
 11
0.9292692095
 21
10.9814130858
 31
0.0
 11
0.9079661726
 21
10.981421021
 31
0.0
 11
0.8868151914
 21
10.9814447734
 31
0.0
 11
0.8659728717
 21
10.9814841705
 31
0.0
 11
0.8455912038
 21
10.9815389254
 31
0.0
 11
0.8258183793
 21
10.9816086399
 31
0.0
 11
0.8067982255
 21
10.981692807
 31
0.0
 11
0.7886692348
 21
10.9817908141
 31
0.0
 11
0.7715633278
 21
10.981901948
 31
0.0
 11
0.7556049472
 21
10.9820254002
 31
0.0
 11
0.7409102508
 21
10.9821602723
 31
0.0
 11
0.72758618
 21
10.9823055828
 31
0.0
 11
0.7157296634
 21
10.9824602745
 31
0.0
 11
0.7054269843
 21
10.9826232218
 31
0.0
 11
0.6967531544
 21
10.9827932382
 31
0.0
 11
0.6897712524
 21
10.982969087
 31
0.0
 11
0.6845320649
 21
10.9831494896
 31
0.0
 11
0.6810737501
 21
10.9833331304
 31
0.0
 11
0.6794215556
 21
10.983518648
 31
0.0
  0
SPLINE
  5
2F8
100
AcDbEntity
  8
RACCORDO
100
AcDbSpline
 62
253
  6
CONTINUOUS
 70
0
 71
3
 72
25
 73
21
 74
19
 42
0.0000001
 43
0.0000001
 44
0.0000000001
 12
-0.2424238368
 22
-0.0605662415
 32
0.0
 13
-0.2498751414
 23
-0.0000000203
 33
0.0
 40
0.0
 40
0.0
 40
0.0
 40
0.0
 40
0.0066536326
 40
0.0205133032
 40
0.041492951
 40
0.0694433752
 40
0.1041626991
 40
0.1453991645
 40
0.1928529674
 40
0.2461790526
 40
0.3049896861
 40
0.3688570158
 40
0.4373162788
 40
0.5098695368
 40
0.5859889138
 40
0.6651202243
 40
0.7466879277
 40
0.830099014
 40
0.9147452674
 40
1.0
 40
1.0
 40
1.0
 40
1.0
 10
22.1153423557
 20
10.983518648
 30
0.0
 10
22.1148046893
 20
10.9833843195
 30
0.0
 10
22.1130831404
 20
10.9833105277
 30
0.0
 10
22.1096444443
 20
10.9830974492
 30
0.0
 10
22.104410495
 20
10.9829512626
 30
0.0
 10
22.0974480062
 20
10.9827713439
 30
0.0
 10
22.0887940138
 20
10.9826089976
 30
0.0
 10
22.0785166069
 20
10.9824476068
 30
0.0
 10
22.0666886756
 20
10.982295488
 30
0.0
 10
22.0533969138
 20
10.9821517197
 30
0.0
 10
22.0387378255
 20
10.9820182331
 30
0.0
 10
22.0228181476
 20
10.9818958584
 30
0.0
 10
22.0057537051
 20
10.9817856188
 30
0.0
 10
21.987668676
 20
10.9816883366
 30
0.0
 10
21.9686946762
 20
10.9816047555
 30
0.0
 10
21.9489697857
 20
10.9815355026
 30
0.0
 10
21.9286375077
 20
10.9814810968
 30
0.0
 10
21.9078458448
 20
10.9814419446
 30
0.0
 10
21.8867470594
 20
10.9814183375
 30
0.0
 10
21.8725957146
 20
10.9814130864
 30
0.0
 10
21.8654947018
 20
10.9814130858
 30
0.0
 11
22.1153423557
 21
10.983518648
 31
0.0
 11
22.1136901612
 21
10.9833331304
 31
0.0
 11
22.1102318464
 21
10.9831494896
 31
0.0
 11
22.1049926589
 21
10.982969087
 31
0.0
 11
22.0980107569
 21
10.9827932382
 31
0.0
 11
22.089336927
 21
10.9826232218
 31
0.0
 11
22.0790342479
 21
10.9824602745
 31
0.0
 11
22.0671777313
 21
10.9823055828
 31
0.0
 11
22.0538536605
 21
10.9821602723
 31
0.0
 11
22.0391589641
 21
10.9820254002
 31
0.0
 11
22.0232005835
 21
10.981901948
 31
0.0
 11
22.0060946765
 21
10.9817908141
 31
0.0
 11
21.9879656858
 21
10.981692807
 31
0.0
 11
21.968945532
 21
10.9816086399
 31
0.0
 11
21.9491727075
 21
10.9815389254
 31
0.0
 11
21.9287910396
 21
10.9814841705
 31
0.0
 11
21.9079487199
 21
10.9814447734
 31
0.0
 11
21.8867977387
 21
10.981421021
 31
0.0
 11
21.8654947018
 21
10.9814130858
 31
0.0
  0
SPLINE
  5
2F9
100
AcDbEntity
  8
RACCORDO
100
AcDbSpline
 62
253
  6
CONTINUOUS
 70
0
 71
3
 72
10
 73
6
 74
4
 42
0.0000001
 43
0.0000001
 44
0.0000000001
 12
0.0002514557
 22
-9.0950366859
 32
0.0
 13
0.0060355961
 23
-9.0950346867
 33
0.0
 40
0.0
 40
0.0
 40
0.0
 40
0.0
 40
0.33335237
 40
0.66668676
 40
1.0
 40
1.0
 40
1.0
 40
1.0
 10
22.3651901294
 20
10.733528184
 30
0.0
 10
22.3652180705
 20
9.7229108391
 30
0.0
 10
22.3654880567
 20
7.7017306581
 30
0.0
 10
22.366535832
 20
4.6700519223
 30
0.0
 10
22.3676627463
 20
2.6489906671
 30
0.0
 10
22.3683333277
 20
1.638492174
 30
0.0
 11
22.3651901294
 21
10.733528184
 31
0.0
 11
22.3655952077
 21
7.7016761753
 31
0.0
 11
22.3666429653
 21
4.6699878495
 31
0.0
 11
22.3683333277
 21
1.638492174
 31
0.0
  0
SPLINE
  5
2FA
100
AcDbEntity
  8
RACCORDO
100
AcDbSpline
 62
253
  6
CONTINUOUS
 70
0
 71
3
 72
25
 73
21
 74
19
 42
0.0000001
 43
0.0000001
 44
0.0000000001
 12
-0.4951377735
 22
-0.0674709553
 32
0.0
 13
-0.4997136625
 23
-0.0000069763
 33
0.0
 40
0.0
 40
0.0
 40
0.0
 40
0.0
 40
0.0066260327
 40
0.0204733849
 40
0.041446253
 40
0.0693927016
 40
0.1041099476
 40
0.1453456978
 40
0.1927998486
 40
0.2461271361
 40
0.3049396744
 40
0.3688095125
 40
0.4372718806
 40
0.5098287828
 40
0.5859522814
 40
0.665088138
 40
0.7466607239
 40
0.8300771141
 40
0.914728373
 40
1.0
 40
1.0
 40
1.0
 40
1.0
 10
22.3651901294
 20
10.7335281764
 30
0.0
 10
22.3640965297
 20
10.7333791548
 30
0.0
 10
22.3606780177
 20
10.7333032161
 30
0.0
 10
22.3537849902
 20
10.7330672726
 30
0.0
 10
22.3433272312
 20
10.7329094434
 30
0.0
 10
22.3293987406
 20
10.73271224
 30
0.0
 10
22.3120923715
 20
10.732535144
 30
0.0
 10
22.2915372522
 20
10.7323586692
 30
0.0
 10
22.267881783
 20
10.7321923821
 30
0.0
 10
22.2412985029
 20
10.7320351162
 30
0.0
 10
22.2119807116
 20
10.7318890371
 30
0.0
 10
22.1801417796
 20
10.7317550388
 30
0.0
 10
22.1460133615
 20
10.731634248
 30
0.0
 10
22.109843781
 20
10.7315275657
 30
0.0
 10
22.0718962582
 20
10.7314358099
 30
0.0
 10
22.0324469446
 20
10.7313596691
 30
0.0
 10
21.9917828161
 20
10.7312997173
 30
0.0
 10
21.9501999587
 20
10.7312563999
 30
0.0
 10
21.9080009332
 20
10.7312300436
 30
0.0
 10
21.8796966704
 20
10.7312239183
 30
0.0
 10
21.8654928714
 20
10.73122372
 30
0.0
 11
22.3651901294
 21
10.7335281764
 31
0.0
 11
22.361885204
 21
10.7333257472
 31
0.0
 11
22.3549683956
 21
10.7331253384
 31
0.0
 11
22.3444898176
 21
10.7329283875
 31
0.0
 11
22.3305259159
 21
10.7327363478
 31
0.0
 11
22.3131782281
 21
10.7325506103
 31
0.0
 11
22.2925729298
 21
10.7323725297
 31
0.0
 11
22.2688600454
 21
10.7322034034
 31
0.0
 11
22.2422121453
 21
10.7320444639
 31
0.0
 11
22.212823087
 21
10.7318968692
 31
0.0
 11
22.1809067424
 21
10.7317616951
 31
0.0
 11
22.1466953785
 21
10.7316399272
 31
0.0
 11
22.1104378624
 21
10.7315324529
 31
0.0
 11
22.0723980223
 21
10.7314400562
 31
0.0
 11
22.0328528279
 21
10.7313634109
 31
0.0
 11
21.9920899369
 21
10.7313030763
 31
0.0
 11
21.9504056497
 21
10.7312594909
 31
0.0
 11
21.9081042675
 21
10.7312329753
 31
0.0
 11
21.8654928714
 21
10.73122372
 31
0.0
  0
SPLINE
  5
2FB
100
AcDbEntity
  8
0
100
AcDbSpline
 62
253
  6
CONTINUOUS
 70
0
 71
3
 72
25
 73
21
 74
19
 42
0.0000001
 43
0.0000001
 44
0.0000000001
 12
-0.4390248508
 22
-0.2392029787
 32
0.0
 13
-0.4999607732
 23
-0.0003316614
 33
0.0
 40
0.0
 40
0.0
 40
0.0
 40
0.0
 40
0.0068059321
 40
0.0207337759
 40
0.0417520194
 40
0.0697246348
 40
0.1044548601
 40
0.145693439
 40
0.1931423402
 40
0.246457634
 40
0.3052523086
 40
0.369099243
 40
0.4375344017
 40
0.5100602612
 40
0.5861494627
 40
0.6652486694
 40
0.7467826077
 40
0.8301582634
 40
0.9147692045
 40
1.0
 40
1.0
 40
1.0
 40
1.0
 10
22.3683333277
 20
1.638492174
 30
0.0
 10
22.3673373366
 20
1.6379495076
 30
0.0
 10
22.3637950397
 20
1.6375474552
 30
0.0
 10
22.3569735303
 20
1.6366723242
 30
0.0
 10
22.3464639309
 20
1.6359983061
 30
0.0
 10
22.332551724
 20
1.6352178658
 30
0.0
 10
22.3152372482
 20
1.6344947943
 30
0.0
 10
22.2946840116
 20
1.633779975
 30
0.0
 10
22.2710275297
 20
1.6331013581
 30
0.0
 10
22.2444444479
 20
1.6324578663
 30
0.0
 10
22.2151266072
 20
1.6318571114
 30
0.0
 10
22.1832877719
 20
1.6313031387
 30
0.0
 10
22.1491594423
 20
1.6308004667
 30
0.0
 10
22.1129899776
 20
1.6303528673
 30
0.0
 10
22.0750425372
 20
1.6299637445
 30
0.0
 10
22.0355932377
 20
1.6296360143
 30
0.0
 10
21.994929121
 20
1.6293721275
 30
0.0
 10
21.9533460703
 20
1.6291740484
 30
0.0
 10
21.9111466579
 20
1.6290432481
 30
0.0
 10
21.8828419323
 20
1.6290015966
 30
0.0
 10
21.8686379142
 20
1.628992174
 30
0.0
 11
22.3683333277
 21
1.638492174
 31
0.0
 11
22.3650284724
 21
1.6376820522
 31
0.0
 11
22.3581116929
 21
1.6368778251
 31
0.0
 11
22.3476333182
 21
1.6360853446
 31
0.0
 11
22.333669593
 21
1.6353103771
 31
0.0
 11
22.3163221226
 21
1.6345585616
 31
0.0
 11
22.2957171336
 21
1.6338353685
 31
0.0
 11
22.2720045558
 21
1.6331460601
 31
0.0
 11
22.2453569307
 21
1.632495652
 31
0.0
 11
22.2159681566
 21
1.6318888769
 31
0.0
 11
22.184052077
 21
1.6313301498
 31
0.0
 11
22.1498409255
 21
1.6308235363
 31
0.0
 11
22.1135836353
 21
1.6303727227
 31
0.0
 11
22.0755440279
 21
1.6299809893
 31
0.0
 11
22.0359988939
 21
1.6296511864
 31
0.0
 11
21.9952359786
 21
1.6293857139
 31
0.0
 11
21.9535518881
 21
1.6291865035
 31
0.0
 11
21.9112499317
 21
1.6290550045
 31
0.0
 11
21.8686379142
 21
1.628992174
 31
0.0
  0
SPLINE
  5
2FC
100
AcDbEntity
  8
0
100
AcDbSpline
 62
253
  6
CONTINUOUS
 70
0
 71
3
 72
25
 73
21
 74
19
 42
0.0000001
 43
0.0000001
 44
0.0000000001
 12
-0.1156726714
 22
-0.5000143222
 32
0.0
 13
-0.5132129279
 23
-0.0026419614
 33
0.0
 40
0.0
 40
0.0
 40
0.0
 40
0.0
 40
0.013948679
 40
0.0321748863
 40
0.0558987844
 40
0.0855593318
 40
0.1212490608
 40
0.1628831421
 40
0.210267819
 40
0.2631318866
 40
0.3211434051
 40
0.3839199784
 40
0.4510360375
 40
0.5220286697
 40
0.5964027332
 40
0.673635628
 40
0.753181915
 40
0.8344778813
 40
0.9169460997
 40
1.0
 40
1.0
 40
1.0
 40
1.0
 10
22.4026961816
 20
-10.0038631544
 30
0.0
 10
22.4021583546
 20
-10.0061880008
 30
0.0
 10
22.3992790069
 20
-10.0111375439
 30
0.0
 10
22.391915857
 20
-10.0173488908
 30
0.0
 10
22.3812423073
 20
-10.0234522482
 30
0.0
 10
22.3671925658
 20
-10.0294072367
 30
0.0
 10
22.3498213562
 20
-10.0352118154
 30
0.0
 10
22.3292253802
 20
-10.0408084348
 30
0.0
 10
22.3055432327
 20
-10.0461551736
 30
0.0
 10
22.2789403948
 20
-10.0512077588
 30
0.0
 10
22.2496070597
 20
-10.0559268695
 30
0.0
 10
22.2177546119
 20
-10.0602759025
 30
0.0
 10
22.1836136364
 20
-10.0642217119
 30
0.0
 10
22.1474318237
 20
-10.0677344529
 30
0.0
 10
22.1094720027
 20
-10.0707877465
 30
0.0
 10
22.0700101128
 20
-10.0733587701
 30
0.0
 10
22.0293331442
 20
-10.0754283761
 30
0.0
 10
21.9877369721
 20
-10.0769811928
 30
0.0
 10
21.9455243199
 20
-10.0780057124
 30
0.0
 10
21.9172088798
 20
-10.0783311026
 30
0.0
 10
21.9030007681
 20
-10.0784042443
 30
0.0
 11
22.4026961816
 21
-10.0038631544
 31
0.0
 11
22.3994064207
 21
-10.0102212195
 31
0.0
 11
22.3925028209
 21
-10.0165329978
 31
0.0
 11
22.3820356404
 21
-10.0227525395
 31
0.0
 11
22.3680810804
 21
-10.0288345663
 31
0.0
 11
22.3507407303
 21
-10.0347348008
 31
0.0
 11
22.330140828
 21
-10.0404102895
 31
0.0
 11
22.3064313411
 21
-10.0458197145
 31
0.0
 11
22.2797848749
 21
-10.0509236953
 31
0.0
 11
22.2503954159
 21
-10.0556850747
 31
0.0
 11
22.2184769199
 21
-10.06006919
 31
0.0
 11
22.1842617538
 21
-10.0640441247
 31
0.0
 11
22.1479990044
 21
-10.0675809412
 31
0.0
 11
22.1099526649
 21
-10.0706538914
 31
0.0
 11
22.0703997133
 21
-10.0732406043
 31
0.0
 11
22.0296280954
 21
-10.0753222486
 31
0.0
 11
21.987934629
 21
-10.0768836698
 31
0.0
 11
21.9456228431
 21
-10.0779135007
 31
0.0
 11
21.9030007681
 21
-10.0784042443
 31
0.0
  0
SPLINE
  5
2FD
100
AcDbEntity
  8
0
100
AcDbSpline
 62
253
  6
CONTINUOUS
 70
0
 71
3
 72
26
 73
22
 74
20
 42
0.0000001
 43
0.0000001
 44
0.0000000001
 12
0.0022369592
 22
-0.8499359847
 32
0.0
 13
0.2685929371
 23
-0.8063832936
 33
0.0
 40
0.0
 40
0.0
 40
0.0
 40
0.0
 40
0.0832795884
 40
0.1652175719
 40
0.2453906178
 40
0.3233820907
 40
0.3987881694
 40
0.4712177965
 40
0.5402953428
 40
0.6056625221
 40
0.6669806502
 40
0.7239316391
 40
0.7762204028
 40
0.823575887
 40
0.865753143
 40
0.902534145
 40
0.9337294817
 40
0.9591798621
 40
0.9787584546
 40
0.9923753083
 40
1.0
 40
1.0
 40
1.0
 40
1.0
 10
21.9030007681
 20
-10.0784042456
 30
0.0
 10
21.9030628657
 20
-10.1019983519
 30
0.0
 10
21.9032159848
 20
-10.148806399
 30
0.0
 10
21.9035349927
 20
-10.2183280333
 30
0.0
 10
21.9039402964
 20
-10.2863510029
 30
0.0
 10
21.9044296859
 20
-10.3525227984
 30
0.0
 10
21.9050006099
 20
-10.4165000478
 30
0.0
 10
21.9056500185
 20
-10.4779509854
 30
0.0
 10
21.9063744562
 20
-10.5365567315
 30
0.0
 10
21.9071700363
 20
-10.5920132216
 30
0.0
 10
21.9080324476
 20
-10.6440326706
 30
0.0
 10
21.9089569991
 20
-10.6923451378
 30
0.0
 10
21.9099384375
 20
-10.7366998502
 30
0.0
 10
21.9109714624
 20
-10.7768664539
 30
0.0
 10
21.9120488652
 20
-10.8126369819
 30
0.0
 10
21.9131668548
 20
-10.8438242581
 30
0.0
 10
21.9143078537
 20
-10.87027143
 30
0.0
 10
21.9154879354
 20
-10.8918285465
 30
0.0
 10
21.9166207343
 20
-10.9084220954
 30
0.0
 10
21.917840465
 20
-10.9198930371
 30
0.0
 10
21.9186695776
 20
-10.9259021232
 30
0.0
 10
21.9193522237
 20
-10.9279515979
 30
0.0
 11
21.9030007681
 21
-10.0784042456
 31
0.0
 11
21.9032328955
 21
-10.1491864291
 31
0.0
 11
21.903553358
 21
-10.2188279737
 31
0.0
 11
21.9039605277
 21
-10.2869689499
 31
0.0
 11
21.9044522684
 21
-10.3532551149
 31
0.0
 11
21.9050260473
 21
-10.4173431081
 31
0.0
 11
21.9056788856
 21
-10.4789004061
 31
0.0
 11
21.9064074019
 21
-10.5376075817
 31
0.0
 11
21.9072078181
 21
-10.5931599261
 31
0.0
 11
21.9080759881
 21
-10.6452693586
 31
0.0
 11
21.9090074083
 21
-10.6936652589
 31
0.0
 11
21.9099972509
 21
-10.7380964901
 31
0.0
 11
21.9110403792
 21
-10.7783322401
 31
0.0
 11
21.9121313867
 21
-10.8141637261
 31
0.0
 11
21.9132646109
 21
-10.8454047853
 31
0.0
 11
21.9144341744
 21
-10.8718931085
 31
0.0
 11
21.9156339945
 21
-10.8934910767
 31
0.0
 11
21.9168578855
 21
-10.9100866159
 31
0.0
 11
21.9180994027
 21
-10.9215933271
 31
0.0
 11
21.9193522237
 21
-10.9279515979
 31
0.0
  0
SPLINE
  5
2FE
100
AcDbEntity
  8
0
100
AcDbSpline
 62
253
  6
CONTINUOUS
 70
0
 71
3
 72
26
 73
22
 74
20
 42
0.0000001
 43
0.0000001
 44
0.0000000001
 12
0.0022405098
 22
-0.4255425554
 32
0.0
 13
0.2359522711
 23
-0.3541440557
 33
0.0
 40
0.0
 40
0.0
 40
0.0
 40
0.0
 40
0.0831579624
 40
0.1649885388
 40
0.2450582809
 40
0.3229515393
 40
0.3982655067
 40
0.4706101583
 40
0.5396109354
 40
0.6049106782
 40
0.666171895
 40
0.7230778369
 40
0.7753349753
 40
0.8226741356
 40
0.864852771
 40
0.9016561407
 40
0.9328997026
 40
0.9584321569
 40
0.9781415755
 40
0.9919719696
 40
1.0
 40
1.0
 40
1.0
 40
1.0
 10
22.4026961816
 20
-10.0038631544
 30
0.0
 10
22.402758287
 20
-10.015658905
 30
0.0
 10
22.4029113665
 20
-10.0390619746
 30
0.0
 10
22.4032303875
 20
-10.0738219414
 30
0.0
 10
22.4036356745
 20
-10.107834167
 30
0.0
 10
22.4041250785
 20
-10.1409208135
 30
0.0
 10
22.4046960071
 20
-10.17291019
 30
0.0
 10
22.4053454311
 20
-10.2036364113
 30
0.0
 10
22.4060698869
 20
-10.232940038
 30
0.0
 10
22.4068654911
 20
-10.2606690383
 30
0.0
 10
22.4077279375
 20
-10.2866795305
 30
0.0
 10
22.408652522
 20
-10.3108365527
 30
0.0
 10
22.4096340505
 20
-10.3330147973
 30
0.0
 10
22.4106670567
 20
-10.3530990447
 30
0.0
 10
22.4117449107
 20
-10.3709858331
 30
0.0
 10
22.4128621399
 20
-10.3865806661
 30
0.0
 10
22.4140064029
 20
-10.3998091959
 30
0.0
 10
22.4151795462
 20
-10.4105878218
 30
0.0
 10
22.4163344532
 20
-10.4189101358
 30
0.0
 10
22.4175206172
 20
-10.4246478829
 30
0.0
 10
22.4184162266
 20
-10.4276891375
 30
0.0
 10
22.4190476372
 20
-10.4286368305
 30
0.0
 11
22.4026961816
 21
-10.0038631544
 31
0.0
 11
22.4029282736
 21
-10.0392501356
 31
0.0
 11
22.4032487414
 21
-10.0740715362
 31
0.0
 11
22.4036559044
 21
-10.1081426584
 31
0.0
 11
22.4041476494
 21
-10.1412863662
 31
0.0
 11
22.4047214315
 21
-10.173330972
 31
0.0
 11
22.4053742775
 21
-10.2041102038
 31
0.0
 11
22.4061028035
 21
-10.2334643387
 31
0.0
 11
22.4069032319
 21
-10.2612410129
 31
0.0
 11
22.4077714163
 21
-10.2872961686
 31
0.0
 11
22.4087028528
 21
-10.3114944845
 31
0.0
 11
22.409692713
 21
-10.3337103875
 31
0.0
 11
22.4107358602
 21
-10.3538284679
 31
0.0
 11
22.4118268873
 21
-10.3717443314
 31
0.0
 11
22.4129601325
 21
-10.3873648949
 31
0.0
 11
22.4141297145
 21
-10.400609002
 31
0.0
 11
22.4153295618
 21
-10.4114078461
 31
0.0
 11
22.4165534561
 21
-10.4197053816
 31
0.0
 11
22.4177950306
 21
-10.4254584361
 31
0.0
 11
22.4190476372
 21
-10.4286368305
 31
0.0
  0
SPLINE
  5
2FF
100
AcDbEntity
  8
0
100
AcDbSpline
 62
253
  6
CONTINUOUS
 70
0
 71
3
 72
25
 73
21
 74
19
 42
0.0000001
 43
0.0000001
 44
0.0000000001
 12
-0.0014329144
 22
-0.7839168072
 32
0.0
 13
-0.7839168112
 23
-0.0014307322
 33
0.0
 40
0.0
 40
0.0
 40
0.0
 40
0.0
 40
0.055506642
 40
0.1110226234
 40
0.1665481617
 40
0.2220831846
 40
0.2776273326
 40
0.3331799697
 40
0.3887402028
 40
0.4443069091
 40
0.49987877
 40
0.555454311
 40
0.6110319462
 40
0.6666100265
 40
0.7221868895
 40
0.7777609094
 40
0.8333305464
 40
0.8888943932
 40
0.9444512176
 40
1.0
 40
1.0
 40
1.0
 40
1.0
 10
22.4190476372
 20
-10.4286368305
 30
0.0
 10
22.4190211252
 20
-10.4431410271
 30
0.0
 10
22.4177014353
 20
-10.4721654473
 30
0.0
 10
22.4119381403
 20
-10.5153551444
 30
0.0
 10
22.4024346858
 20
-10.5578897079
 30
0.0
 10
22.3892632673
 20
-10.5994418406
 30
0.0
 10
22.3725239179
 20
-10.6396972192
 30
0.0
 10
22.3523437598
 20
-10.6783498968
 30
0.0
 10
22.3288760339
 20
-10.7151064956
 30
0.0
 10
22.3022989367
 20
-10.7496879319
 30
0.0
 10
22.2728142661
 20
-10.7818316668
 30
0.0
 10
22.2406458891
 20
-10.8112936623
 30
0.0
 10
22.2060380445
 20
-10.8378502418
 30
0.0
 10
22.1692534803
 20
-10.861299784
 30
0.0
 10
22.1305714959
 20
-10.8814642531
 30
0.0
 10
22.0902856886
 20
-10.8981905496
 30
0.0
 10
22.0487022274
 20
-10.9113516717
 30
0.0
 10
22.0061356624
 20
-10.9208476826
 30
0.0
 10
21.9629135057
 20
-10.9266064574
 30
0.0
 10
21.9338674319
 20
-10.9279251061
 30
0.0
 10
21.9193522237
 20
-10.9279515979
 30
0.0
 11
22.4190476372
 21
-10.4286368305
 31
0.0
 11
22.4170711077
 21
-10.4721045785
 31
0.0
 11
22.4113154354
 21
-10.515242279
 31
0.0
 11
22.4018243226
 21
-10.5577223907
 31
0.0
 11
22.3886698348
 21
-10.5992223653
 31
0.0
 11
22.3719518529
 21
-10.6394270965
 31
0.0
 11
22.3517973154
 21
-10.6780313128
 31
0.0
 11
22.3283592542
 21
-10.7147418951
 31
0.0
 11
22.3018156328
 21
-10.7492801027
 31
0.0
 11
22.2723679948
 21
-10.7813836896
 31
0.0
 11
22.2402399342
 21
-10.8108088957
 31
0.0
 11
22.2056753968
 21
-10.8373322973
 31
0.0
 11
22.1689368286
 21
-10.8607525045
 31
0.0
 11
22.130303183
 21
-10.8808916891
 31
0.0
 11
22.0900678022
 21
-10.8975969359
 31
0.0
 11
22.0485361906
 21
-10.9107414033
 31
0.0
 11
22.0060236947
 21
-10.9202252861
 31
0.0
 11
21.9628531087
 21
-10.925976574
 31
0.0
 11
21.9193522237
 21
-10.9279515979
 31
0.0
  0
LINE
  5
300
100
AcDbEntity
  8
ASSI
100
AcDbLine
 62
7
  6
CONTINUOUS
 10
15.9473819556
 20
7.3305004094
 11
15.9473819556
 21
7.0966619318
  0
LINE
  5
301
100
AcDbEntity
  8
ASSI
100
AcDbLine
 62
7
  6
CONTINUOUS
 10
15.9473819556
 20
7.0966619318
 11
15.9473819556
 21
6.8628243473
  0
LINE
  5
302
100
AcDbEntity
  8
ASSI
100
AcDbLine
 62
7
  6
CONTINUOUS
 10
15.9473819556
 20
6.8628243473
 11
15.9473819556
 21
6.6289877069
  0
LINE
  5
303
100
AcDbEntity
  8
ASSI
100
AcDbLine
 62
7
  6
CONTINUOUS
 10
15.9473819556
 20
6.6289877069
 11
15.9473819556
 21
6.3951520619
  0
LINE
  5
304
100
AcDbEntity
  8
ASSI
100
AcDbLine
 62
7
  6
CONTINUOUS
 10
15.9473819556
 20
6.3951520619
 11
15.9473819556
 21
6.1613174634
  0
LINE
  5
305
100
AcDbEntity
  8
ASSI
100
AcDbLine
 62
7
  6
CONTINUOUS
 10
15.9473819556
 20
6.1613174634
 11
15.9473819556
 21
5.9274839625
  0
LINE
  5
306
100
AcDbEntity
  8
ASSI
100
AcDbLine
 62
7
  6
CONTINUOUS
 10
6.8473819557
 20
5.9274839625
 11
6.8473819557
 21
7.3305004094
  0
SPLINE
  5
307
100
AcDbEntity
  8
ASSI
100
AcDbSpline
 62
7
  6
CONTINUOUS
 70
0
 71
3
 72
25
 73
21
 74
19
 42
0.0000001
 43
0.0000001
 44
0.0000000001
 12
-0.6256832202
 22
0.0
 32
0.0
 13
0.0
 23
0.6256832202
 33
0.0
 40
0.0
 40
0.0
 40
0.0
 40
0.0
 40
0.0556733582
 40
0.1114505503
 40
0.1670993388
 40
0.2225000448
 40
0.278013467
 40
0.3335579392
 40
0.3889329739
 40
0.4441938583
 40
0.4996537624
 40
0.5551262503
 40
0.6104212299
 40
0.6658457278
 40
0.721459882
 40
0.7770616371
 40
0.8325613724
 40
0.8883154579
 40
0.9442070521
 40
1.0
 40
1.0
 40
1.0
 40
1.0
 10
7.2454834121
 20
5.528992174
 30
0.0
 10
7.2338721168
 20
5.528992174
 30
0.0
 10
7.2106151713
 20
5.5300027673
 30
0.0
 10
7.1760196447
 20
5.5345464287
 30
0.0
 10
7.1420049991
 20
5.542077328
 30
0.0
 10
7.1088287951
 20
5.552524595
 30
0.0
 10
7.0767083459
 20
5.5658139321
 30
0.0
 10
7.0458760564
 20
5.5818555922
 30
0.0
 10
7.0166070749
 20
5.6005000271
 30
0.0
 10
6.9890887891
 20
5.6216138752
 30
0.0
 10
6.9635025685
 20
5.6450624368
 30
0.0
 10
6.9400593885
 20
5.6706632392
 30
0.0
 10
6.9189440403
 20
5.6982056589
 30
0.0
 10
6.9002931215
 20
5.7275084083
 30
0.0
 10
6.884241586
 20
5.7583843513
 30
0.0
 10
6.8709408537
 20
5.790558125
 30
0.0
 10
6.86048293
 20
5.8237949856
 30
0.0
 10
6.8529433789
 20
5.8578758142
 30
0.0
 10
6.848393927
 20
5.8925419701
 30
0.0
 10
6.8473819557
 20
5.9158477254
 30
0.0
 10
6.8473819557
 20
5.9274839625
 30
0.0
 11
7.2454834121
 21
5.528992174
 31
0.0
 11
7.2106824298
 21
5.5305058605
 31
0.0
 11
7.1760808315
 21
5.5350511162
 31
0.0
 11
7.1420857877
 21
5.5425787891
 31
0.0
 11
7.1090233014
 21
5.5529910807
 31
0.0
 11
7.0769282832
 21
5.5662706829
 31
0.0
 11
7.0460984978
 21
5.5823116404
 31
0.0
 11
7.0168766196
 21
5.6009264834
 31
0.0
 11
6.9894450795
 21
5.62197398
 31
0.0
 11
6.9638628416
 21
5.6454188537
 31
0.0
 11
6.9404226406
 21
5.6710160501
 31
0.0
 11
6.9193726354
 21
5.698472551
 31
0.0
 11
6.9007516366
 21
5.7277271994
 31
0.0
 11
6.8847004677
 21
5.7586008171
 31
0.0
 11
6.8714086698
 21
5.7907506002
 31
0.0
 11
6.8609852881
 21
5.823874554
 31
0.0
 11
6.8534489927
 21
5.8579351665
 31
0.0
 11
6.8488977888
 21
5.8926081776
 31
0.0
 11
6.8473819557
 21
5.9274839625
 31
0.0
  0
SPLINE
  5
308
100
AcDbEntity
  8
ASSI
100
AcDbSpline
 62
7
  6
CONTINUOUS
 70
0
 71
3
 72
25
 73
21
 74
19
 42
0.0000001
 43
0.0000001
 44
0.0000000001
 12
-0.0
 22
0.6261321933
 32
0.0
 13
0.6261321933
 23
-0.0
 33
0.0
 40
0.0
 40
0.0
 40
0.0
 40
0.0
 40
0.0556462765
 40
0.1114123659
 40
0.1670645122
 40
0.2224808987
 40
0.2780198863
 40
0.3335969858
 40
0.3890085547
 40
0.4443073417
 40
0.499802936
 40
0.5553057357
 40
0.6106232273
 40
0.6660612395
 40
0.7216764573
 40
0.7772651809
 40
0.8327377847
 40
0.8884496229
 40
0.9442824486
 40
1.0
 40
1.0
 40
1.0
 40
1.0
 10
6.8473819557
 20
7.3305004094
 30
0.0
 10
6.8473819557
 20
7.3421143845
 30
0.0
 10
6.8483934178
 20
7.3653800423
 30
0.0
 10
6.8529407199
 20
7.3999930144
 30
0.0
 10
6.860478908
 20
7.4340333518
 30
0.0
 10
6.8709378645
 20
7.467241807
 30
0.0
 10
6.8842436481
 20
7.4993991382
 30
0.0
 10
6.9003064066
 20
7.5302708576
 30
0.0
 10
6.9189760499
 20
7.5595798074
 30
0.0
 10
6.9401182433
 20
7.5871366949
 30
0.0
 10
6.9635969441
 20
7.6127584964
 30
0.0
 10
6.9892279854
 20
7.6362328957
 30
0.0
 10
7.0167991592
 20
7.6573744253
 30
0.0
 10
7.0461274375
 20
7.67604607
 30
0.0
 10
7.0770239539
 20
7.6921128588
 30
0.0
 10
7.1092117131
 20
7.7054237725
 30
0.0
 10
7.1424548709
 20
7.7158876499
 30
0.0
 10
7.1765333461
 20
7.7234299257
 30
0.0
 10
7.2111875688
 20
7.7279800458
 30
0.0
 10
7.234482034
 20
7.728992174
 30
0.0
 10
7.2461108849
 20
7.728992174
 30
0.0
 11
6.8473819557
 21
7.3305004094
 31
0.0
 11
6.8488965072
 21
7.3653094008
 31
0.0
 11
6.8534452456
 21
7.3999287877
 31
0.0
 11
6.8609801275
 21
7.4339499785
 31
0.0
 11
6.8714040917
 21
7.46704516
 31
0.0
 11
6.8847002517
 21
7.4991776239
 31
0.0
 11
6.900762541
 21
7.5300474507
 31
0.0
 11
6.9194028221
 21
7.5593097244
 31
0.0
 11
6.9404790716
 21
7.5867803883
 31
0.0
 11
6.9639545549
 21
7.6123986606
 31
0.0
 11
6.9895824104
 21
7.6358703619
 31
0.0
 11
7.0170678736
 21
7.65694656
 31
0.0
 11
7.0463487012
 21
7.6755885301
 31
0.0
 11
7.0772432727
 21
7.6916549686
 31
0.0
 11
7.1094071009
 21
7.7049567763
 31
0.0
 11
7.1425375423
 21
7.7153859596
 31
0.0
 11
7.1765961263
 21
7.7229248475
 31
0.0
 11
7.2112572714
 21
7.7274765276
 31
0.0
 11
7.2461108849
 21
7.728992174
 31
0.0
  0
SPLINE
  5
309
100
AcDbEntity
  8
ASSI
100
AcDbSpline
 62
7
  6
CONTINUOUS
 70
0
 71
3
 72
25
 73
21
 74
19
 42
0.0000001
 43
0.0000001
 44
0.0000000001
 12
0.0
 22
-0.6256832202
 32
0.0
 13
-0.6256832202
 23
0.0
 33
0.0
 40
0.0
 40
0.0
 40
0.0
 40
0.0
 40
0.0557950913
 40
0.1116884983
 40
0.1674453284
 40
0.2229447961
 40
0.2785453267
 40
0.3341599831
 40
0.3895856968
 40
0.4448800349
 40
0.5003515979
 40
0.5558124452
 40
0.6110739736
 40
0.6664477952
 40
0.7219917909
 40
0.7775064418
 40
0.8329073853
 40
0.8885533946
 40
0.9443287616
 40
1.0
 40
1.0
 40
1.0
 40
1.0
 10
15.9473819556
 20
5.9274839625
 30
0.0
 10
15.9473819556
 20
5.9158472784
 30
0.0
 10
15.9463699094
 20
5.8925406964
 30
0.0
 10
15.94182011
 20
5.8578731724
 30
0.0
 10
15.9342800802
 20
5.8237915271
 30
0.0
 10
15.9238217356
 20
5.7905545255
 30
0.0
 10
15.9105207889
 20
5.7583810665
 30
0.0
 10
15.8944689401
 20
5.7275051693
 30
0.0
 10
15.8758176076
 20
5.6982024141
 30
0.0
 10
15.8547020175
 20
5.6706602735
 30
0.0
 10
15.8312586912
 20
5.6450597839
 30
0.0
 10
15.8056721514
 20
5.6216113633
 30
0.0
 10
15.7781535817
 20
5.6004977548
 30
0.0
 10
15.7488845997
 20
5.5818537313
 30
0.0
 10
15.7180522573
 20
5.5658123833
 30
0.0
 10
15.6859314922
 20
5.5525232634
 30
0.0
 10
15.6527554406
 20
5.5420764232
 30
0.0
 10
15.6187416272
 20
5.5345460069
 30
0.0
 10
15.5841474736
 20
5.5300026929
 30
0.0
 10
15.5608913524
 20
5.528992174
 30
0.0
 10
15.5492804992
 20
5.528992174
 30
0.0
 11
15.9473819556
 21
5.9274839625
 31
0.0
 11
15.9458660059
 21
5.8926068403
 31
0.0
 11
15.9413144892
 21
5.8579327263
 31
0.0
 11
15.9337775387
 21
5.8238705
 31
0.0
 11
15.9233538661
 21
5.7907468132
 31
0.0
 11
15.9100620668
 21
5.7585978597
 31
0.0
 11
15.8940104876
 21
5.7277241013
 31
0.0
 11
15.875388789
 21
5.6984689966
 31
0.0
 11
15.8543387418
 21
5.6710130336
 31
0.0
 11
15.8308986963
 21
5.6454164795
 31
0.0
 11
15.8053158075
 21
5.6219714427
 31
0.0
 11
15.7778837275
 21
5.6009239878
 31
0.0
 11
15.7486623032
 21
5.5823098449
 31
0.0
 11
15.7178326432
 21
5.5662692922
 31
0.0
 11
15.6857367919
 21
5.5529896929
 31
0.0
 11
15.6526740556
 21
5.5425777001
 31
0.0
 11
15.6186806466
 21
5.5350506878
 31
0.0
 11
15.584080159
 21
5.5305057452
 31
0.0
 11
15.5492804992
 21
5.528992174
 31
0.0
  0
SPLINE
  5
30A
100
AcDbEntity
  8
ASSI
100
AcDbSpline
 62
7
  6
CONTINUOUS
 70
0
 71
3
 72
25
 73
21
 74
19
 42
0.0000001
 43
0.0000001
 44
0.0000000001
 12
0.6261321933
 22
0.0
 32
0.0
 13
-0.0
 23
-0.6261321933
 33
0.0
 40
0.0
 40
0.0
 40
0.0
 40
0.0
 40
0.0557196865
 40
0.1115543222
 40
0.16726891
 40
0.2227412555
 40
0.2783287553
 40
0.3339444681
 40
0.3893836966
 40
0.4447005512
 40
0.5002024237
 40
0.5556989543
 40
0.6109983787
 40
0.6664087318
 40
0.7219853485
 40
0.7775255617
 40
0.8329421921
 40
0.8885915724
 40
0.9443558468
 40
1.0
 40
1.0
 40
1.0
 40
1.0
 10
15.5486530264
 20
7.728992174
 30
0.0
 10
15.5602823229
 20
7.728992174
 30
0.0
 10
15.583577613
 20
7.7279799711
 30
0.0
 10
15.6182332035
 20
7.7234295038
 30
0.0
 10
15.6523124984
 20
7.7158867486
 30
0.0
 10
15.6855558003
 20
7.7054224492
 30
0.0
 10
15.717743245
 20
7.6921113204
 30
0.0
 10
15.7486397145
 20
7.6760442187
 30
0.0
 10
15.7779679983
 20
7.6573721604
 30
0.0
 10
15.8055388932
 20
7.6362303885
 30
0.0
 10
15.8311696209
 20
7.6127558436
 30
0.0
 10
15.8546481785
 20
7.5871337253
 30
0.0
 10
15.8757901305
 20
7.5595765569
 30
0.0
 10
15.8944593611
 20
7.5302676098
 30
0.0
 10
15.9105218073
 20
7.4993958403
 30
0.0
 10
15.9238273746
 20
7.4672381941
 30
0.0
 10
15.9342859062
 20
7.4340298884
 30
0.0
 10
15.941823613
 20
7.3999903779
 30
0.0
 10
15.946370568
 20
7.3653787757
 30
0.0
 10
15.9473819556
 20
7.3421139413
 30
0.0
 10
15.9473819556
 20
7.3305004094
 30
0.0
 11
15.5486530264
 21
7.728992174
 31
0.0
 11
15.5835079729
 21
7.7274764114
 31
0.0
 11
15.6181702201
 21
7.7229244189
 31
0.0
 11
15.6522304222
 21
7.715384875
 31
0.0
 11
15.6853606017
 21
7.7049553988
 31
0.0
 11
15.7175236002
 21
7.6916535894
 31
0.0
 11
15.7484183086
 21
7.6755867424
 31
0.0
 11
15.777699593
 21
7.656944072
 31
0.0
 11
15.8051845202
 21
7.6358678303
 31
0.0
 11
15.8308117319
 21
7.6123962856
 31
0.0
 11
15.8542873757
 21
7.5867773653
 31
0.0
 11
15.8753635815
 21
7.5593061648
 31
0.0
 11
15.8940031618
 21
7.5300443473
 31
0.0
 11
15.9100650452
 21
7.4991746501
 31
0.0
 11
15.9233612029
 21
7.4670413547
 31
0.0
 11
15.9337848705
 21
7.4339459197
 31
0.0
 11
15.9413190938
 21
7.3999263569
 31
0.0
 11
15.9458675197
 21
7.3653080752
 31
0.0
 11
15.9473819556
 21
7.3305004094
 31
0.0
  0
SPLINE
  5
30B
100
AcDbEntity
  8
ASSI
100
AcDbSpline
 62
253
  6
CONTINUOUS
 70
0
 71
3
 72
25
 73
21
 74
19
 42
0.0000001
 43
0.0000001
 44
0.0000000001
 12
0.4390248502
 22
-0.23920298
 32
0.0
 13
0.4999607732
 23
-0.0003316614
 33
0.0
 40
0.0
 40
0.0
 40
0.0
 40
0.0
 40
0.0068059321
 40
0.0207337758
 40
0.0417520194
 40
0.0697246347
 40
0.10445486
 40
0.1456934389
 40
0.1931423402
 40
0.246457634
 40
0.3052523085
 40
0.3690992429
 40
0.4375344016
 40
0.5100602612
 40
0.5861494626
 40
0.6652486693
 40
0.7467826077
 40
0.8301582634
 40
0.9147692045
 40
1.0
 40
1.0
 40
1.0
 40
1.0
 10
0.4264305836
 20
1.638492174
 30
0.0
 10
0.4274265747
 20
1.6379495076
 30
0.0
 10
0.4309688715
 20
1.6375474552
 30
0.0
 10
0.437790381
 20
1.6366723242
 30
0.0
 10
0.4482999804
 20
1.6359983061
 30
0.0
 10
0.4622121873
 20
1.6352178658
 30
0.0
 10
0.4795266631
 20
1.6344947943
 30
0.0
 10
0.5000798997
 20
1.633779975
 30
0.0
 10
0.5237363816
 20
1.6331013581
 30
0.0
 10
0.5503194634
 20
1.6324578663
 30
0.0
 10
0.579637304
 20
1.6318571114
 30
0.0
 10
0.6114761393
 20
1.6313031387
 30
0.0
 10
0.645604469
 20
1.6308004667
 30
0.0
 10
0.6817739337
 20
1.6303528673
 30
0.0
 10
0.7197213741
 20
1.6299637445
 30
0.0
 10
0.7591706735
 20
1.6296360143
 30
0.0
 10
0.7998347903
 20
1.6293721275
 30
0.0
 10
0.841417841
 20
1.6291740484
 30
0.0
 10
0.8836172534
 20
1.6290432481
 30
0.0
 10
0.911921979
 20
1.6290015966
 30
0.0
 10
0.9261259971
 20
1.628992174
 30
0.0
 11
0.4264305836
 21
1.638492174
 31
0.0
 11
0.4297354389
 21
1.6376820522
 31
0.0
 11
0.4366522184
 21
1.6368778251
 31
0.0
 11
0.4471305931
 21
1.6360853446
 31
0.0
 11
0.4610943183
 21
1.6353103771
 31
0.0
 11
0.4784417887
 21
1.6345585616
 31
0.0
 11
0.4990467776
 21
1.6338353685
 31
0.0
 11
0.5227593555
 21
1.6331460601
 31
0.0
 11
0.5494069805
 21
1.632495652
 31
0.0
 11
0.5787957547
 21
1.6318888769
 31
0.0
 11
0.6107118342
 21
1.6313301498
 31
0.0
 11
0.6449229857
 21
1.6308235363
 31
0.0
 11
0.681180276
 21
1.6303727227
 31
0.0
 11
0.7192198834
 21
1.6299809893
 31
0.0
 11
0.7587650174
 21
1.6296511864
 31
0.0
 11
0.7995279327
 21
1.6293857139
 31
0.0
 11
0.8412120232
 21
1.6291865035
 31
0.0
 11
0.8835139796
 21
1.6290550045
 31
0.0
 11
0.9261259971
 21
1.628992174
 31
0.0
  0
SPLINE
  5
30C
100
AcDbEntity
  8
ASSI
100
AcDbSpline
 62
253
  6
CONTINUOUS
 70
0
 71
3
 72
25
 73
21
 74
19
 42
0.0000001
 43
0.0000001
 44
0.0000000001
 12
-0.4997136625
 22
0.0000069763
 32
0.0
 13
-0.4951377735
 23
0.0674709552
 33
0.0
 40
0.0
 40
0.0
 40
0.0
 40
0.0
 40
0.085271627
 40
0.1699228858
 40
0.2533392761
 40
0.334911862
 40
0.4140477186
 40
0.4901712172
 40
0.5627281194
 40
0.6311904874
 40
0.6950603256
 40
0.7538728639
 40
0.8072001514
 40
0.8546543022
 40
0.8958900524
 40
0.9306072984
 40
0.958553747
 40
0.9795266151
 40
0.9933739673
 40
1.0
 40
1.0
 40
1.0
 40
1.0
 10
0.9292710399
 20
10.73122372
 30
0.0
 10
0.9150672409
 20
10.7312239183
 30
0.0
 10
0.8867629781
 20
10.7312300436
 30
0.0
 10
0.8445639527
 20
10.7312563999
 30
0.0
 10
0.8029810952
 20
10.7312997173
 30
0.0
 10
0.7623169667
 20
10.7313596691
 30
0.0
 10
0.7228676531
 20
10.7314358099
 30
0.0
 10
0.6849201303
 20
10.7315275657
 30
0.0
 10
0.6487505498
 20
10.731634248
 30
0.0
 10
0.6146221318
 20
10.7317550388
 30
0.0
 10
0.5827831997
 20
10.7318890371
 30
0.0
 10
0.5534654085
 20
10.7320351162
 30
0.0
 10
0.5268821283
 20
10.7321923821
 30
0.0
 10
0.5032266591
 20
10.7323586692
 30
0.0
 10
0.4826715398
 20
10.732535144
 30
0.0
 10
0.4653651707
 20
10.73271224
 30
0.0
 10
0.4514366801
 20
10.7329094434
 30
0.0
 10
0.4409789211
 20
10.7330672726
 30
0.0
 10
0.4340858936
 20
10.7333032161
 30
0.0
 10
0.4306673816
 20
10.7333791548
 30
0.0
 10
0.4295737819
 20
10.7335281764
 30
0.0
 11
0.9292710399
 21
10.73122372
 31
0.0
 11
0.8866596439
 21
10.7312329753
 31
0.0
 11
0.8443582616
 21
10.7312594909
 31
0.0
 11
0.8026739745
 21
10.7313030763
 31
0.0
 11
0.7619110835
 21
10.7313634109
 31
0.0
 11
0.722365889
 21
10.7314400562
 31
0.0
 11
0.6843260489
 21
10.7315324529
 31
0.0
 11
0.6480685329
 21
10.7316399272
 31
0.0
 11
0.6138571689
 21
10.7317616951
 31
0.0
 11
0.5819408244
 21
10.7318968692
 31
0.0
 11
0.5525517661
 21
10.7320444639
 31
0.0
 11
0.5259038659
 21
10.7322034034
 31
0.0
 11
0.5021909815
 21
10.7323725297
 31
0.0
 11
0.4815856832
 21
10.7325506103
 31
0.0
 11
0.4642379954
 21
10.7327363478
 31
0.0
 11
0.4502740937
 21
10.7329283875
 31
0.0
 11
0.4397955157
 21
10.7331253384
 31
0.0
 11
0.4328787073
 21
10.7333257472
 31
0.0
 11
0.4295737819
 21
10.7335281764
 31
0.0
  0
SPLINE
  5
30D
100
AcDbEntity
  8
ASSI
100
AcDbSpline
 62
253
  6
CONTINUOUS
 70
0
 71
3
 72
25
 73
21
 74
19
 42
0.0000001
 43
0.0000001
 44
0.0000000001
 12
0.1156726251
 22
-0.5000143338
 32
0.0
 13
0.5132129288
 23
-0.0026419615
 33
0.0
 40
0.0
 40
0.0
 40
0.0
 40
0.0
 40
0.0139486785
 40
0.0321748852
 40
0.0558987827
 40
0.0855593295
 40
0.1212490579
 40
0.1628831388
 40
0.2102678154
 40
0.263131883
 40
0.3211434014
 40
0.3839199748
 40
0.4510360341
 40
0.5220286665
 40
0.5964027304
 40
0.6736356257
 40
0.7531819132
 40
0.8344778801
 40
0.9169460991
 40
1.0
 40
1.0
 40
1.0
 40
1.0
 10
0.3920677297
 20
-10.0038631544
 30
0.0
 10
0.3926055565
 20
-10.0061880008
 30
0.0
 10
0.3954849037
 20
-10.011137544
 30
0.0
 10
0.4028480532
 20
-10.017348891
 30
0.0
 10
0.4135216025
 20
-10.0234522484
 30
0.0
 10
0.4275713437
 20
-10.029407237
 30
0.0
 10
0.444942553
 20
-10.0352118158
 30
0.0
 10
0.4655385288
 20
-10.0408084353
 30
0.0
 10
0.4892206761
 20
-10.0461551742
 30
0.0
 10
0.515823514
 20
-10.0512077595
 30
0.0
 10
0.5451568491
 20
-10.0559268702
 30
0.0
 10
0.577009297
 20
-10.0602759034
 30
0.0
 10
0.6111502727
 20
-10.0642217128
 30
0.0
 10
0.6473320856
 20
-10.0677344539
 30
0.0
 10
0.6852919069
 20
-10.0707877475
 30
0.0
 10
0.724753797
 20
-10.0733587713
 30
0.0
 10
0.7654307659
 20
-10.0754283773
 30
0.0
 10
0.8070269384
 20
-10.076981194
 30
0.0
 10
0.849239591
 20
-10.0780057137
 30
0.0
 10
0.8775550313
 20
-10.0783311038
 30
0.0
 10
0.8917631432
 20
-10.0784042456
 30
0.0
 11
0.3920677297
 21
-10.0038631544
 31
0.0
 11
0.39535749
 21
-10.0102212196
 31
0.0
 11
0.4022610893
 21
-10.016532998
 31
0.0
 11
0.4127282694
 21
-10.0227525398
 31
0.0
 11
0.426682829
 21
-10.0288345666
 31
0.0
 11
0.4440231789
 21
-10.0347348013
 31
0.0
 11
0.464623081
 21
-10.04041029
 31
0.0
 11
0.4883325678
 21
-10.0458197151
 31
0.0
 11
0.514979034
 21
-10.050923696
 31
0.0
 11
0.5443684929
 21
-10.0556850755
 31
0.0
 11
0.576286989
 21
-10.0600691909
 31
0.0
 11
0.6105021553
 21
-10.0640441256
 31
0.0
 11
0.6467649049
 21
-10.0675809422
 31
0.0
 11
0.6848112446
 21
-10.0706538925
 31
0.0
 11
0.7243641965
 21
-10.0732406055
 31
0.0
 11
0.7651358148
 21
-10.0753222498
 31
0.0
 11
0.8068292815
 21
-10.076883671
 31
0.0
 11
0.8491410678
 21
-10.077913502
 31
0.0
 11
0.8917631432
 21
-10.0784042456
 31
0.0
  0
SPLINE
  5
30E
100
AcDbEntity
  8
ASSI
100
AcDbSpline
 62
253
  6
CONTINUOUS
 70
0
 71
3
 72
25
 73
21
 74
19
 42
0.0000001
 43
0.0000001
 44
0.0000000001
 12
0.0014329144
 22
-0.7839168072
 32
0.0
 13
0.7839168112
 23
-0.0014307322
 33
0.0
 40
0.0
 40
0.0
 40
0.0
 40
0.0
 40
0.0555066409
 40
0.1110226213
 40
0.1665481587
 40
0.2220831809
 40
0.2776273283
 40
0.3331799649
 40
0.3887401978
 40
0.444306904
 40
0.4998787649
 40
0.555454306
 40
0.6110319415
 40
0.6666100223
 40
0.7221868858
 40
0.7777609063
 40
0.833330544
 40
0.8888943916
 40
0.9444512168
 40
1.0
 40
1.0
 40
1.0
 40
1.0
 10
0.375716274
 20
-10.4286368305
 30
0.0
 10
0.3757427861
 20
-10.4431410268
 30
0.0
 10
0.377062476
 20
-10.4721654464
 30
0.0
 10
0.3828257707
 20
-10.5153551428
 30
0.0
 10
0.3923292249
 20
-10.5578897056
 30
0.0
 10
0.405500643
 20
-10.5994418379
 30
0.0
 10
0.422239992
 20
-10.6396972162
 30
0.0
 10
0.4424201497
 20
-10.6783498936
 30
0.0
 10
0.4658878752
 20
-10.7151064924
 30
0.0
 10
0.492464972
 20
-10.7496879288
 30
0.0
 10
0.5219496424
 20
-10.781831664
 30
0.0
 10
0.5541180193
 20
-10.8112936598
 30
0.0
 10
0.5887258638
 20
-10.8378502398
 30
0.0
 10
0.6255104281
 20
-10.8612997824
 30
0.0
 10
0.6641924128
 20
-10.8814642519
 30
0.0
 10
0.7044782204
 20
-10.8981905488
 30
0.0
 10
0.7460616821
 20
-10.9113516713
 30
0.0
 10
0.7886282476
 20
-10.9208476824
 30
0.0
 10
0.8318504049
 20
-10.9266064573
 30
0.0
 10
0.8608964792
 20
-10.9279251061
 30
0.0
 10
0.8754116876
 20
-10.9279515979
 30
0.0
 11
0.375716274
 21
-10.4286368305
 31
0.0
 11
0.3776928035
 21
-10.4721045776
 31
0.0
 11
0.3834484756
 21
-10.5152422774
 31
0.0
 11
0.392939588
 21
-10.5577223885
 31
0.0
 11
0.4060940755
 21
-10.5992223626
 31
0.0
 11
0.4228120569
 21
-10.6394270935
 31
0.0
 11
0.442966594
 21
-10.6780313096
 31
0.0
 11
0.4664046548
 21
-10.7147418919
 31
0.0
 11
0.4929482759
 21
-10.7492800996
 31
0.0
 11
0.5223959136
 21
-10.7813836868
 31
0.0
 11
0.5545239741
 21
-10.8108088932
 31
0.0
 11
0.5890885115
 21
-10.8373322952
 31
0.0
 11
0.6258270798
 21
-10.8607525028
 31
0.0
 11
0.6644607257
 21
-10.8808916879
 31
0.0
 11
0.7046961068
 21
-10.8975969351
 31
0.0
 11
0.7462277189
 21
-10.9107414028
 31
0.0
 11
0.7887402153
 21
-10.9202252859
 31
0.0
 11
0.8319108019
 21
-10.925976574
 31
0.0
 11
0.8754116876
 21
-10.9279515979
 31
0.0
  0
SPLINE
  5
30F
100
AcDbEntity
  8
ASSI
100
AcDbSpline
 62
253
  6
CONTINUOUS
 70
0
 71
3
 72
26
 73
22
 74
20
 42
0.0000001
 43
0.0000001
 44
0.0000000001
 12
0.2685929374
 22
0.8063832935
 32
0.0
 13
0.0022369592
 23
0.8499359847
 33
0.0
 40
0.0
 40
0.0
 40
0.0
 40
0.0
 40
0.0076246917
 40
0.0212415454
 40
0.0408201379
 40
0.0662705183
 40
0.097465855
 40
0.134246857
 40
0.176424113
 40
0.2237795972
 40
0.2760683609
 40
0.3330193498
 40
0.3943374779
 40
0.4597046572
 40
0.5287822035
 40
0.6012118306
 40
0.6766179093
 40
0.7546093822
 40
0.8347824281
 40
0.9167204116
 40
1.0
 40
1.0
 40
1.0
 40
1.0
 10
0.8754116876
 20
-10.9279515979
 30
0.0
 10
0.8760943337
 20
-10.9259021232
 30
0.0
 10
0.8769234463
 20
-10.9198930371
 30
0.0
 10
0.878143177
 20
-10.9084220954
 30
0.0
 10
0.8792759759
 20
-10.8918285465
 30
0.0
 10
0.8804560576
 20
-10.87027143
 30
0.0
 10
0.8815970565
 20
-10.8438242581
 30
0.0
 10
0.8827150461
 20
-10.8126369819
 30
0.0
 10
0.8837924489
 20
-10.7768664539
 30
0.0
 10
0.8848254738
 20
-10.7366998502
 30
0.0
 10
0.8858069122
 20
-10.6923451378
 30
0.0
 10
0.8867314637
 20
-10.6440326706
 30
0.0
 10
0.887593875
 20
-10.5920132216
 30
0.0
 10
0.8883894551
 20
-10.5365567315
 30
0.0
 10
0.8891138928
 20
-10.4779509854
 30
0.0
 10
0.8897633014
 20
-10.4165000478
 30
0.0
 10
0.8903342254
 20
-10.3525227984
 30
0.0
 10
0.8908236149
 20
-10.2863510029
 30
0.0
 10
0.8912289186
 20
-10.2183280333
 30
0.0
 10
0.8915479265
 20
-10.148806399
 30
0.0
 10
0.8917010456
 20
-10.1019983519
 30
0.0
 10
0.8917631432
 20
-10.0784042456
 30
0.0
 11
0.8754116876
 21
-10.9279515979
 31
0.0
 11
0.8766645086
 21
-10.9215933271
 31
0.0
 11
0.8779060258
 21
-10.9100866159
 31
0.0
 11
0.8791299168
 21
-10.8934910767
 31
0.0
 11
0.8803297369
 21
-10.8718931085
 31
0.0
 11
0.8814993004
 21
-10.8454047853
 31
0.0
 11
0.8826325246
 21
-10.8141637261
 31
0.0
 11
0.8837235321
 21
-10.7783322401
 31
0.0
 11
0.8847666604
 21
-10.7380964901
 31
0.0
 11
0.885756503
 21
-10.6936652589
 31
0.0
 11
0.8866879232
 21
-10.6452693586
 31
0.0
 11
0.8875560932
 21
-10.5931599261
 31
0.0
 11
0.8883565093
 21
-10.5376075817
 31
0.0
 11
0.8890850257
 21
-10.4789004061
 31
0.0
 11
0.889737864
 21
-10.4173431081
 31
0.0
 11
0.8903116429
 21
-10.3532551149
 31
0.0
 11
0.8908033836
 21
-10.2869689499
 31
0.0
 11
0.8912105533
 21
-10.2188279737
 31
0.0
 11
0.8915310158
 21
-10.1491864291
 31
0.0
 11
0.8917631432
 21
-10.0784042456
 31
0.0
  0
SPLINE
  5
310
100
AcDbEntity
  8
ASSI
100
AcDbSpline
 62
253
  6
CONTINUOUS
 70
0
 71
3
 72
26
 73
22
 74
20
 42
0.0000001
 43
0.0000001
 44
0.0000000001
 12
0.2359522709
 22
0.3541440557
 32
0.0
 13
0.0022405098
 23
0.4255425554
 33
0.0
 40
0.0
 40
0.0
 40
0.0
 40
0.0
 40
0.0080280304
 40
0.0218584245
 40
0.0415678431
 40
0.0671002974
 40
0.0983438593
 40
0.135147229
 40
0.1773258644
 40
0.2246650247
 40
0.2769221631
 40
0.333828105
 40
0.3950893218
 40
0.4603890646
 40
0.5293898417
 40
0.6017344933
 40
0.6770484607
 40
0.7549417191
 40
0.8350114612
 40
0.9168420376
 40
1.0
 40
1.0
 40
1.0
 40
1.0
 10
0.375716274
 20
-10.4286368305
 30
0.0
 10
0.3763476847
 20
-10.4276891375
 30
0.0
 10
0.3772432941
 20
-10.4246478829
 30
0.0
 10
0.3784294581
 20
-10.4189101358
 30
0.0
 10
0.3795843651
 20
-10.4105878218
 30
0.0
 10
0.3807575083
 20
-10.3998091959
 30
0.0
 10
0.3819017714
 20
-10.3865806661
 30
0.0
 10
0.3830190006
 20
-10.3709858331
 30
0.0
 10
0.3840968546
 20
-10.3530990447
 30
0.0
 10
0.3851298608
 20
-10.3330147973
 30
0.0
 10
0.3861113893
 20
-10.3108365527
 30
0.0
 10
0.3870359738
 20
-10.2866795305
 30
0.0
 10
0.3878984202
 20
-10.2606690383
 30
0.0
 10
0.3886940244
 20
-10.232940038
 30
0.0
 10
0.3894184802
 20
-10.2036364113
 30
0.0
 10
0.3900679042
 20
-10.17291019
 30
0.0
 10
0.3906388328
 20
-10.1409208135
 30
0.0
 10
0.3911282368
 20
-10.107834167
 30
0.0
 10
0.3915335238
 20
-10.0738219414
 30
0.0
 10
0.3918525448
 20
-10.0390619746
 30
0.0
 10
0.3920056243
 20
-10.015658905
 30
0.0
 10
0.3920677297
 20
-10.0038631544
 30
0.0
 11
0.375716274
 21
-10.4286368305
 31
0.0
 11
0.3769688807
 21
-10.4254584361
 31
0.0
 11
0.3782104552
 21
-10.4197053816
 31
0.0
 11
0.3794343495
 21
-10.4114078461
 31
0.0
 11
0.3806341968
 21
-10.400609002
 31
0.0
 11
0.3818037788
 21
-10.3873648949
 31
0.0
 11
0.382937024
 21
-10.3717443314
 31
0.0
 11
0.3840280511
 21
-10.3538284679
 31
0.0
 11
0.3850711983
 21
-10.3337103875
 31
0.0
 11
0.3860610585
 21
-10.3114944845
 31
0.0
 11
0.386992495
 21
-10.2872961686
 31
0.0
 11
0.3878606794
 21
-10.2612410129
 31
0.0
 11
0.3886611078
 21
-10.2334643387
 31
0.0
 11
0.3893896338
 21
-10.2041102038
 31
0.0
 11
0.3900424797
 21
-10.173330972
 31
0.0
 11
0.3906162619
 21
-10.1412863662
 31
0.0
 11
0.3911080069
 21
-10.1081426584
 31
0.0
 11
0.3915151699
 21
-10.0740715362
 31
0.0
 11
0.3918356377
 21
-10.0392501356
 31
0.0
 11
0.3920677297
 21
-10.0038631544
 31
0.0
  0
SPLINE
  5
311
100
AcDbEntity
  8
ASSI
100
AcDbSpline
 62
253
  6
CONTINUOUS
 70
0
 71
3
 72
25
 73
21
 74
19
 42
0.0000001
 43
0.0000001
 44
0.0000000001
 12
-0.1156726714
 22
-0.5000143222
 32
0.0
 13
-0.5132129279
 23
-0.0026419614
 33
0.0
 40
0.0
 40
0.0
 40
0.0
 40
0.0
 40
0.013948679
 40
0.0321748863
 40
0.0558987844
 40
0.0855593318
 40
0.1212490608
 40
0.1628831421
 40
0.210267819
 40
0.2631318866
 40
0.3211434051
 40
0.3839199784
 40
0.4510360375
 40
0.5220286697
 40
0.5964027332
 40
0.673635628
 40
0.753181915
 40
0.8344778813
 40
0.9169460997
 40
1.0
 40
1.0
 40
1.0
 40
1.0
 10
22.4026961816
 20
-10.0038631544
 30
0.0
 10
22.4021583546
 20
-10.0061880008
 30
0.0
 10
22.3992790069
 20
-10.0111375439
 30
0.0
 10
22.391915857
 20
-10.0173488908
 30
0.0
 10
22.3812423073
 20
-10.0234522482
 30
0.0
 10
22.3671925658
 20
-10.0294072367
 30
0.0
 10
22.3498213562
 20
-10.0352118154
 30
0.0
 10
22.3292253802
 20
-10.0408084348
 30
0.0
 10
22.3055432327
 20
-10.0461551736
 30
0.0
 10
22.2789403948
 20
-10.0512077588
 30
0.0
 10
22.2496070597
 20
-10.0559268695
 30
0.0
 10
22.2177546119
 20
-10.0602759025
 30
0.0
 10
22.1836136364
 20
-10.0642217119
 30
0.0
 10
22.1474318237
 20
-10.0677344529
 30
0.0
 10
22.1094720027
 20
-10.0707877465
 30
0.0
 10
22.0700101128
 20
-10.0733587701
 30
0.0
 10
22.0293331442
 20
-10.0754283761
 30
0.0
 10
21.9877369721
 20
-10.0769811928
 30
0.0
 10
21.9455243199
 20
-10.0780057124
 30
0.0
 10
21.9172088798
 20
-10.0783311026
 30
0.0
 10
21.9030007681
 20
-10.0784042443
 30
0.0
 11
22.4026961816
 21
-10.0038631544
 31
0.0
 11
22.3994064207
 21
-10.0102212195
 31
0.0
 11
22.3925028209
 21
-10.0165329978
 31
0.0
 11
22.3820356404
 21
-10.0227525395
 31
0.0
 11
22.3680810804
 21
-10.0288345663
 31
0.0
 11
22.3507407303
 21
-10.0347348008
 31
0.0
 11
22.330140828
 21
-10.0404102895
 31
0.0
 11
22.3064313411
 21
-10.0458197145
 31
0.0
 11
22.2797848749
 21
-10.0509236953
 31
0.0
 11
22.2503954159
 21
-10.0556850747
 31
0.0
 11
22.2184769199
 21
-10.06006919
 31
0.0
 11
22.1842617538
 21
-10.0640441247
 31
0.0
 11
22.1479990044
 21
-10.0675809412
 31
0.0
 11
22.1099526649
 21
-10.0706538914
 31
0.0
 11
22.0703997133
 21
-10.0732406043
 31
0.0
 11
22.0296280954
 21
-10.0753222486
 31
0.0
 11
21.987934629
 21
-10.0768836698
 31
0.0
 11
21.9456228431
 21
-10.0779135007
 31
0.0
 11
21.9030007681
 21
-10.0784042443
 31
0.0
  0
SPLINE
  5
312
100
AcDbEntity
  8
ASSI
100
AcDbSpline
 62
253
  6
CONTINUOUS
 70
0
 71
3
 72
26
 73
22
 74
20
 42
0.0000001
 43
0.0000001
 44
0.0000000001
 12
0.0022369592
 22
-0.8499359847
 32
0.0
 13
0.2685929371
 23
-0.8063832936
 33
0.0
 40
0.0
 40
0.0
 40
0.0
 40
0.0
 40
0.0832795884
 40
0.1652175719
 40
0.2453906178
 40
0.3233820907
 40
0.3987881694
 40
0.4712177965
 40
0.5402953428
 40
0.6056625221
 40
0.6669806502
 40
0.7239316391
 40
0.7762204028
 40
0.823575887
 40
0.865753143
 40
0.902534145
 40
0.9337294817
 40
0.9591798621
 40
0.9787584546
 40
0.9923753083
 40
1.0
 40
1.0
 40
1.0
 40
1.0
 10
21.9030007681
 20
-10.0784042456
 30
0.0
 10
21.9030628657
 20
-10.1019983519
 30
0.0
 10
21.9032159848
 20
-10.148806399
 30
0.0
 10
21.9035349927
 20
-10.2183280333
 30
0.0
 10
21.9039402964
 20
-10.2863510029
 30
0.0
 10
21.9044296859
 20
-10.3525227984
 30
0.0
 10
21.9050006099
 20
-10.4165000478
 30
0.0
 10
21.9056500185
 20
-10.4779509854
 30
0.0
 10
21.9063744562
 20
-10.5365567315
 30
0.0
 10
21.9071700363
 20
-10.5920132216
 30
0.0
 10
21.9080324476
 20
-10.6440326706
 30
0.0
 10
21.9089569991
 20
-10.6923451378
 30
0.0
 10
21.9099384375
 20
-10.7366998502
 30
0.0
 10
21.9109714624
 20
-10.7768664539
 30
0.0
 10
21.9120488652
 20
-10.8126369819
 30
0.0
 10
21.9131668548
 20
-10.8438242581
 30
0.0
 10
21.9143078537
 20
-10.87027143
 30
0.0
 10
21.9154879354
 20
-10.8918285465
 30
0.0
 10
21.9166207343
 20
-10.9084220954
 30
0.0
 10
21.917840465
 20
-10.9198930371
 30
0.0
 10
21.9186695776
 20
-10.9259021232
 30
0.0
 10
21.9193522237
 20
-10.9279515979
 30
0.0
 11
21.9030007681
 21
-10.0784042456
 31
0.0
 11
21.9032328955
 21
-10.1491864291
 31
0.0
 11
21.903553358
 21
-10.2188279737
 31
0.0
 11
21.9039605277
 21
-10.2869689499
 31
0.0
 11
21.9044522684
 21
-10.3532551149
 31
0.0
 11
21.9050260473
 21
-10.4173431081
 31
0.0
 11
21.9056788856
 21
-10.4789004061
 31
0.0
 11
21.9064074019
 21
-10.5376075817
 31
0.0
 11
21.9072078181
 21
-10.5931599261
 31
0.0
 11
21.9080759881
 21
-10.6452693586
 31
0.0
 11
21.9090074083
 21
-10.6936652589
 31
0.0
 11
21.9099972509
 21
-10.7380964901
 31
0.0
 11
21.9110403792
 21
-10.7783322401
 31
0.0
 11
21.9121313867
 21
-10.8141637261
 31
0.0
 11
21.9132646109
 21
-10.8454047853
 31
0.0
 11
21.9144341744
 21
-10.8718931085
 31
0.0
 11
21.9156339945
 21
-10.8934910767
 31
0.0
 11
21.9168578855
 21
-10.9100866159
 31
0.0
 11
21.9180994027
 21
-10.9215933271
 31
0.0
 11
21.9193522237
 21
-10.9279515979
 31
0.0
  0
SPLINE
  5
313
100
AcDbEntity
  8
ASSI
100
AcDbSpline
 62
253
  6
CONTINUOUS
 70
0
 71
3
 72
26
 73
22
 74
20
 42
0.0000001
 43
0.0000001
 44
0.0000000001
 12
0.0022405098
 22
-0.4255425554
 32
0.0
 13
0.2359522711
 23
-0.3541440557
 33
0.0
 40
0.0
 40
0.0
 40
0.0
 40
0.0
 40
0.0831579624
 40
0.1649885388
 40
0.2450582809
 40
0.3229515393
 40
0.3982655067
 40
0.4706101583
 40
0.5396109354
 40
0.6049106782
 40
0.666171895
 40
0.7230778369
 40
0.7753349753
 40
0.8226741356
 40
0.864852771
 40
0.9016561407
 40
0.9328997026
 40
0.9584321569
 40
0.9781415755
 40
0.9919719696
 40
1.0
 40
1.0
 40
1.0
 40
1.0
 10
22.4026961816
 20
-10.0038631544
 30
0.0
 10
22.402758287
 20
-10.015658905
 30
0.0
 10
22.4029113665
 20
-10.0390619746
 30
0.0
 10
22.4032303875
 20
-10.0738219414
 30
0.0
 10
22.4036356745
 20
-10.107834167
 30
0.0
 10
22.4041250785
 20
-10.1409208135
 30
0.0
 10
22.4046960071
 20
-10.17291019
 30
0.0
 10
22.4053454311
 20
-10.2036364113
 30
0.0
 10
22.4060698869
 20
-10.232940038
 30
0.0
 10
22.4068654911
 20
-10.2606690383
 30
0.0
 10
22.4077279375
 20
-10.2866795305
 30
0.0
 10
22.408652522
 20
-10.3108365527
 30
0.0
 10
22.4096340505
 20
-10.3330147973
 30
0.0
 10
22.4106670567
 20
-10.3530990447
 30
0.0
 10
22.4117449107
 20
-10.3709858331
 30
0.0
 10
22.4128621399
 20
-10.3865806661
 30
0.0
 10
22.4140064029
 20
-10.3998091959
 30
0.0
 10
22.4151795462
 20
-10.4105878218
 30
0.0
 10
22.4163344532
 20
-10.4189101358
 30
0.0
 10
22.4175206172
 20
-10.4246478829
 30
0.0
 10
22.4184162266
 20
-10.4276891375
 30
0.0
 10
22.4190476372
 20
-10.4286368305
 30
0.0
 11
22.4026961816
 21
-10.0038631544
 31
0.0
 11
22.4029282736
 21
-10.0392501356
 31
0.0
 11
22.4032487414
 21
-10.0740715362
 31
0.0
 11
22.4036559044
 21
-10.1081426584
 31
0.0
 11
22.4041476494
 21
-10.1412863662
 31
0.0
 11
22.4047214315
 21
-10.173330972
 31
0.0
 11
22.4053742775
 21
-10.2041102038
 31
0.0
 11
22.4061028035
 21
-10.2334643387
 31
0.0
 11
22.4069032319
 21
-10.2612410129
 31
0.0
 11
22.4077714163
 21
-10.2872961686
 31
0.0
 11
22.4087028528
 21
-10.3114944845
 31
0.0
 11
22.409692713
 21
-10.3337103875
 31
0.0
 11
22.4107358602
 21
-10.3538284679
 31
0.0
 11
22.4118268873
 21
-10.3717443314
 31
0.0
 11
22.4129601325
 21
-10.3873648949
 31
0.0
 11
22.4141297145
 21
-10.400609002
 31
0.0
 11
22.4153295618
 21
-10.4114078461
 31
0.0
 11
22.4165534561
 21
-10.4197053816
 31
0.0
 11
22.4177950306
 21
-10.4254584361
 31
0.0
 11
22.4190476372
 21
-10.4286368305
 31
0.0
  0
SPLINE
  5
314
100
AcDbEntity
  8
ASSI
100
AcDbSpline
 62
253
  6
CONTINUOUS
 70
0
 71
3
 72
25
 73
21
 74
19
 42
0.0000001
 43
0.0000001
 44
0.0000000001
 12
-0.0014329144
 22
-0.7839168072
 32
0.0
 13
-0.7839168112
 23
-0.0014307322
 33
0.0
 40
0.0
 40
0.0
 40
0.0
 40
0.0
 40
0.055506642
 40
0.1110226234
 40
0.1665481617
 40
0.2220831846
 40
0.2776273326
 40
0.3331799697
 40
0.3887402028
 40
0.4443069091
 40
0.49987877
 40
0.555454311
 40
0.6110319462
 40
0.6666100265
 40
0.7221868895
 40
0.7777609094
 40
0.8333305464
 40
0.8888943932
 40
0.9444512176
 40
1.0
 40
1.0
 40
1.0
 40
1.0
 10
22.4190476372
 20
-10.4286368305
 30
0.0
 10
22.4190211252
 20
-10.4431410271
 30
0.0
 10
22.4177014353
 20
-10.4721654473
 30
0.0
 10
22.4119381403
 20
-10.5153551444
 30
0.0
 10
22.4024346858
 20
-10.5578897079
 30
0.0
 10
22.3892632673
 20
-10.5994418406
 30
0.0
 10
22.3725239179
 20
-10.6396972192
 30
0.0
 10
22.3523437598
 20
-10.6783498968
 30
0.0
 10
22.3288760339
 20
-10.7151064956
 30
0.0
 10
22.3022989367
 20
-10.7496879319
 30
0.0
 10
22.2728142661
 20
-10.7818316668
 30
0.0
 10
22.2406458891
 20
-10.8112936623
 30
0.0
 10
22.2060380445
 20
-10.8378502418
 30
0.0
 10
22.1692534803
 20
-10.861299784
 30
0.0
 10
22.1305714959
 20
-10.8814642531
 30
0.0
 10
22.0902856886
 20
-10.8981905496
 30
0.0
 10
22.0487022274
 20
-10.9113516717
 30
0.0
 10
22.0061356624
 20
-10.9208476826
 30
0.0
 10
21.9629135057
 20
-10.9266064574
 30
0.0
 10
21.9338674319
 20
-10.9279251061
 30
0.0
 10
21.9193522237
 20
-10.9279515979
 30
0.0
 11
22.4190476372
 21
-10.4286368305
 31
0.0
 11
22.4170711077
 21
-10.4721045785
 31
0.0
 11
22.4113154354
 21
-10.515242279
 31
0.0
 11
22.4018243226
 21
-10.5577223907
 31
0.0
 11
22.3886698348
 21
-10.5992223653
 31
0.0
 11
22.3719518529
 21
-10.6394270965
 31
0.0
 11
22.3517973154
 21
-10.6780313128
 31
0.0
 11
22.3283592542
 21
-10.7147418951
 31
0.0
 11
22.3018156328
 21
-10.7492801027
 31
0.0
 11
22.2723679948
 21
-10.7813836896
 31
0.0
 11
22.2402399342
 21
-10.8108088957
 31
0.0
 11
22.2056753968
 21
-10.8373322973
 31
0.0
 11
22.1689368286
 21
-10.8607525045
 31
0.0
 11
22.130303183
 21
-10.8808916891
 31
0.0
 11
22.0900678022
 21
-10.8975969359
 31
0.0
 11
22.0485361906
 21
-10.9107414033
 31
0.0
 11
22.0060236947
 21
-10.9202252861
 31
0.0
 11
21.9628531087
 21
-10.925976574
 31
0.0
 11
21.9193522237
 21
-10.9279515979
 31
0.0
  0
SPLINE
  5
315
100
AcDbEntity
  8
ASSI
100
AcDbSpline
 62
253
  6
CONTINUOUS
 70
0
 71
3
 72
25
 73
21
 74
19
 42
0.0000001
 43
0.0000001
 44
0.0000000001
 12
-0.2498751414
 22
0.0000000203
 32
0.0
 13
-0.2424238368
 23
0.0605662416
 33
0.0
 40
0.0
 40
0.0
 40
0.0
 40
0.0
 40
0.0852547325
 40
0.169900986
 40
0.2533120723
 40
0.3348797757
 40
0.4140110861
 40
0.4901304632
 40
0.5626837212
 40
0.6311429841
 40
0.6950103138
 40
0.7538209474
 40
0.8071470326
 40
0.8546008355
 40
0.8958373009
 40
0.9305566248
 40
0.958507049
 40
0.9794866968
 40
0.9933463674
 40
1.0
 40
1.0
 40
1.0
 40
1.0
 10
0.9292692095
 20
10.9814130858
 30
0.0
 10
0.9221681967
 20
10.9814130864
 30
0.0
 10
0.9080168519
 20
10.9814183375
 30
0.0
 10
0.8869180665
 20
10.9814419446
 30
0.0
 10
0.8661264036
 20
10.9814810968
 30
0.0
 10
0.8457941256
 20
10.9815355026
 30
0.0
 10
0.8260692351
 20
10.9816047555
 30
0.0
 10
0.8070952353
 20
10.9816883366
 30
0.0
 10
0.7890102062
 20
10.9817856188
 30
0.0
 10
0.7719457637
 20
10.9818958584
 30
0.0
 10
0.7560260858
 20
10.9820182331
 30
0.0
 10
0.7413669975
 20
10.9821517197
 30
0.0
 10
0.7280752357
 20
10.982295488
 30
0.0
 10
0.7162473044
 20
10.9824476068
 30
0.0
 10
0.7059698975
 20
10.9826089976
 30
0.0
 10
0.6973159051
 20
10.9827713439
 30
0.0
 10
0.6903534163
 20
10.9829512626
 30
0.0
 10
0.685119467
 20
10.9830974492
 30
0.0
 10
0.6816807709
 20
10.9833105277
 30
0.0
 10
0.679959222
 20
10.9833843195
 30
0.0
 10
0.6794215556
 20
10.983518648
 30
0.0
 11
0.9292692095
 21
10.9814130858
 31
0.0
 11
0.9079661726
 21
10.981421021
 31
0.0
 11
0.8868151914
 21
10.9814447734
 31
0.0
 11
0.8659728717
 21
10.9814841705
 31
0.0
 11
0.8455912038
 21
10.9815389254
 31
0.0
 11
0.8258183793
 21
10.9816086399
 31
0.0
 11
0.8067982255
 21
10.981692807
 31
0.0
 11
0.7886692348
 21
10.9817908141
 31
0.0
 11
0.7715633278
 21
10.981901948
 31
0.0
 11
0.7556049472
 21
10.9820254002
 31
0.0
 11
0.7409102508
 21
10.9821602723
 31
0.0
 11
0.72758618
 21
10.9823055828
 31
0.0
 11
0.7157296634
 21
10.9824602745
 31
0.0
 11
0.7054269843
 21
10.9826232218
 31
0.0
 11
0.6967531544
 21
10.9827932382
 31
0.0
 11
0.6897712524
 21
10.982969087
 31
0.0
 11
0.6845320649
 21
10.9831494896
 31
0.0
 11
0.6810737501
 21
10.9833331304
 31
0.0
 11
0.6794215556
 21
10.983518648
 31
0.0
  0
SPLINE
  5
316
100
AcDbEntity
  8
ASSI
100
AcDbSpline
 62
253
  6
CONTINUOUS
 70
0
 71
3
 72
25
 73
21
 74
19
 42
0.0000001
 43
0.0000001
 44
0.0000000001
 12
-0.2424238368
 22
-0.0605662415
 32
0.0
 13
-0.2498751414
 23
-0.0000000203
 33
0.0
 40
0.0
 40
0.0
 40
0.0
 40
0.0
 40
0.0066536326
 40
0.0205133032
 40
0.041492951
 40
0.0694433752
 40
0.1041626991
 40
0.1453991645
 40
0.1928529674
 40
0.2461790526
 40
0.3049896861
 40
0.3688570158
 40
0.4373162788
 40
0.5098695368
 40
0.5859889138
 40
0.6651202243
 40
0.7466879277
 40
0.830099014
 40
0.9147452674
 40
1.0
 40
1.0
 40
1.0
 40
1.0
 10
22.1153423557
 20
10.983518648
 30
0.0
 10
22.1148046893
 20
10.9833843195
 30
0.0
 10
22.1130831404
 20
10.9833105277
 30
0.0
 10
22.1096444443
 20
10.9830974492
 30
0.0
 10
22.104410495
 20
10.9829512626
 30
0.0
 10
22.0974480062
 20
10.9827713439
 30
0.0
 10
22.0887940138
 20
10.9826089976
 30
0.0
 10
22.0785166069
 20
10.9824476068
 30
0.0
 10
22.0666886756
 20
10.982295488
 30
0.0
 10
22.0533969138
 20
10.9821517197
 30
0.0
 10
22.0387378255
 20
10.9820182331
 30
0.0
 10
22.0228181476
 20
10.9818958584
 30
0.0
 10
22.0057537051
 20
10.9817856188
 30
0.0
 10
21.987668676
 20
10.9816883366
 30
0.0
 10
21.9686946762
 20
10.9816047555
 30
0.0
 10
21.9489697857
 20
10.9815355026
 30
0.0
 10
21.9286375077
 20
10.9814810968
 30
0.0
 10
21.9078458448
 20
10.9814419446
 30
0.0
 10
21.8867470594
 20
10.9814183375
 30
0.0
 10
21.8725957146
 20
10.9814130864
 30
0.0
 10
21.8654947018
 20
10.9814130858
 30
0.0
 11
22.1153423557
 21
10.983518648
 31
0.0
 11
22.1136901612
 21
10.9833331304
 31
0.0
 11
22.1102318464
 21
10.9831494896
 31
0.0
 11
22.1049926589
 21
10.982969087
 31
0.0
 11
22.0980107569
 21
10.9827932382
 31
0.0
 11
22.089336927
 21
10.9826232218
 31
0.0
 11
22.0790342479
 21
10.9824602745
 31
0.0
 11
22.0671777313
 21
10.9823055828
 31
0.0
 11
22.0538536605
 21
10.9821602723
 31
0.0
 11
22.0391589641
 21
10.9820254002
 31
0.0
 11
22.0232005835
 21
10.981901948
 31
0.0
 11
22.0060946765
 21
10.9817908141
 31
0.0
 11
21.9879656858
 21
10.981692807
 31
0.0
 11
21.968945532
 21
10.9816086399
 31
0.0
 11
21.9491727075
 21
10.9815389254
 31
0.0
 11
21.9287910396
 21
10.9814841705
 31
0.0
 11
21.9079487199
 21
10.9814447734
 31
0.0
 11
21.8867977387
 21
10.981421021
 31
0.0
 11
21.8654947018
 21
10.9814130858
 31
0.0
  0
SPLINE
  5
317
100
AcDbEntity
  8
ASSI
100
AcDbSpline
 62
253
  6
CONTINUOUS
 70
0
 71
3
 72
10
 73
6
 74
4
 42
0.0000001
 43
0.0000001
 44
0.0000000001
 12
0.0060355961
 22
9.0950346867
 32
0.0
 13
0.0002514557
 23
9.0950366859
 33
0.0
 40
0.0
 40
0.0
 40
0.0
 40
0.0
 40
0.33331324
 40
0.66664763
 40
1.0
 40
1.0
 40
1.0
 40
1.0
 10
0.4264305836
 20
1.638492174
 30
0.0
 10
0.427101165
 20
2.6489906671
 30
0.0
 10
0.4282280793
 20
4.6700519223
 30
0.0
 10
0.4292758546
 20
7.7017306581
 30
0.0
 10
0.4295458408
 20
9.7229108391
 30
0.0
 10
0.4295737819
 20
10.733528184
 30
0.0
 11
0.4264305836
 21
1.638492174
 31
0.0
 11
0.428120946
 21
4.6699878495
 31
0.0
 11
0.4291687036
 21
7.7016761753
 31
0.0
 11
0.4295737819
 21
10.733528184
 31
0.0
  0
SPLINE
  5
318
100
AcDbEntity
  8
ASSI
100
AcDbSpline
 62
253
  6
CONTINUOUS
 70
0
 71
3
 72
10
 73
6
 74
4
 42
0.0000001
 43
0.0000001
 44
0.0000000001
 12
0.0002514557
 22
-9.0950366859
 32
0.0
 13
0.0060355961
 23
-9.0950346867
 33
0.0
 40
0.0
 40
0.0
 40
0.0
 40
0.0
 40
0.33335237
 40
0.66668676
 40
1.0
 40
1.0
 40
1.0
 40
1.0
 10
22.3651901294
 20
10.733528184
 30
0.0
 10
22.3652180705
 20
9.7229108391
 30
0.0
 10
22.3654880567
 20
7.7017306581
 30
0.0
 10
22.366535832
 20
4.6700519223
 30
0.0
 10
22.3676627463
 20
2.6489906671
 30
0.0
 10
22.3683333277
 20
1.638492174
 30
0.0
 11
22.3651901294
 21
10.733528184
 31
0.0
 11
22.3655952077
 21
7.7016761753
 31
0.0
 11
22.3666429653
 21
4.6699878495
 31
0.0
 11
22.3683333277
 21
1.638492174
 31
0.0
  0
SPLINE
  5
319
100
AcDbEntity
  8
ASSI
100
AcDbSpline
 62
253
  6
CONTINUOUS
 70
0
 71
3
 72
25
 73
21
 74
19
 42
0.0000001
 43
0.0000001
 44
0.0000000001
 12
-0.4951377735
 22
-0.0674709553
 32
0.0
 13
-0.4997136625
 23
-0.0000069763
 33
0.0
 40
0.0
 40
0.0
 40
0.0
 40
0.0
 40
0.0066260327
 40
0.0204733849
 40
0.041446253
 40
0.0693927016
 40
0.1041099476
 40
0.1453456978
 40
0.1927998486
 40
0.2461271361
 40
0.3049396744
 40
0.3688095125
 40
0.4372718806
 40
0.5098287828
 40
0.5859522814
 40
0.665088138
 40
0.7466607239
 40
0.8300771141
 40
0.914728373
 40
1.0
 40
1.0
 40
1.0
 40
1.0
 10
22.3651901294
 20
10.7335281764
 30
0.0
 10
22.3640965297
 20
10.7333791548
 30
0.0
 10
22.3606780177
 20
10.7333032161
 30
0.0
 10
22.3537849902
 20
10.7330672726
 30
0.0
 10
22.3433272312
 20
10.7329094434
 30
0.0
 10
22.3293987406
 20
10.73271224
 30
0.0
 10
22.3120923715
 20
10.732535144
 30
0.0
 10
22.2915372522
 20
10.7323586692
 30
0.0
 10
22.267881783
 20
10.7321923821
 30
0.0
 10
22.2412985029
 20
10.7320351162
 30
0.0
 10
22.2119807116
 20
10.7318890371
 30
0.0
 10
22.1801417796
 20
10.7317550388
 30
0.0
 10
22.1460133615
 20
10.731634248
 30
0.0
 10
22.109843781
 20
10.7315275657
 30
0.0
 10
22.0718962582
 20
10.7314358099
 30
0.0
 10
22.0324469446
 20
10.7313596691
 30
0.0
 10
21.9917828161
 20
10.7312997173
 30
0.0
 10
21.9501999587
 20
10.7312563999
 30
0.0
 10
21.9080009332
 20
10.7312300436
 30
0.0
 10
21.8796966704
 20
10.7312239183
 30
0.0
 10
21.8654928714
 20
10.73122372
 30
0.0
 11
22.3651901294
 21
10.7335281764
 31
0.0
 11
22.361885204
 21
10.7333257472
 31
0.0
 11
22.3549683956
 21
10.7331253384
 31
0.0
 11
22.3444898176
 21
10.7329283875
 31
0.0
 11
22.3305259159
 21
10.7327363478
 31
0.0
 11
22.3131782281
 21
10.7325506103
 31
0.0
 11
22.2925729298
 21
10.7323725297
 31
0.0
 11
22.2688600454
 21
10.7322034034
 31
0.0
 11
22.2422121453
 21
10.7320444639
 31
0.0
 11
22.212823087
 21
10.7318968692
 31
0.0
 11
22.1809067424
 21
10.7317616951
 31
0.0
 11
22.1466953785
 21
10.7316399272
 31
0.0
 11
22.1104378624
 21
10.7315324529
 31
0.0
 11
22.0723980223
 21
10.7314400562
 31
0.0
 11
22.0328528279
 21
10.7313634109
 31
0.0
 11
21.9920899369
 21
10.7313030763
 31
0.0
 11
21.9504056497
 21
10.7312594909
 31
0.0
 11
21.9081042675
 21
10.7312329753
 31
0.0
 11
21.8654928714
 21
10.73122372
 31
0.0
  0
SPLINE
  5
31A
100
AcDbEntity
  8
ASSI
100
AcDbSpline
 62
253
  6
CONTINUOUS
 70
0
 71
3
 72
25
 73
21
 74
19
 42
0.0000001
 43
0.0000001
 44
0.0000000001
 12
-0.4390248508
 22
-0.2392029787
 32
0.0
 13
-0.4999607732
 23
-0.0003316614
 33
0.0
 40
0.0
 40
0.0
 40
0.0
 40
0.0
 40
0.0068059321
 40
0.0207337759
 40
0.0417520194
 40
0.0697246348
 40
0.1044548601
 40
0.145693439
 40
0.1931423402
 40
0.246457634
 40
0.3052523086
 40
0.369099243
 40
0.4375344017
 40
0.5100602612
 40
0.5861494627
 40
0.6652486694
 40
0.7467826077
 40
0.8301582634
 40
0.9147692045
 40
1.0
 40
1.0
 40
1.0
 40
1.0
 10
22.3683333277
 20
1.638492174
 30
0.0
 10
22.3673373366
 20
1.6379495076
 30
0.0
 10
22.3637950397
 20
1.6375474552
 30
0.0
 10
22.3569735303
 20
1.6366723242
 30
0.0
 10
22.3464639309
 20
1.6359983061
 30
0.0
 10
22.332551724
 20
1.6352178658
 30
0.0
 10
22.3152372482
 20
1.6344947943
 30
0.0
 10
22.2946840116
 20
1.633779975
 30
0.0
 10
22.2710275297
 20
1.6331013581
 30
0.0
 10
22.2444444479
 20
1.6324578663
 30
0.0
 10
22.2151266072
 20
1.6318571114
 30
0.0
 10
22.1832877719
 20
1.6313031387
 30
0.0
 10
22.1491594423
 20
1.6308004667
 30
0.0
 10
22.1129899776
 20
1.6303528673
 30
0.0
 10
22.0750425372
 20
1.6299637445
 30
0.0
 10
22.0355932377
 20
1.6296360143
 30
0.0
 10
21.994929121
 20
1.6293721275
 30
0.0
 10
21.9533460703
 20
1.6291740484
 30
0.0
 10
21.9111466579
 20
1.6290432481
 30
0.0
 10
21.8828419323
 20
1.6290015966
 30
0.0
 10
21.8686379142
 20
1.628992174
 30
0.0
 11
22.3683333277
 21
1.638492174
 31
0.0
 11
22.3650284724
 21
1.6376820522
 31
0.0
 11
22.3581116929
 21
1.6368778251
 31
0.0
 11
22.3476333182
 21
1.6360853446
 31
0.0
 11
22.333669593
 21
1.6353103771
 31
0.0
 11
22.3163221226
 21
1.6345585616
 31
0.0
 11
22.2957171336
 21
1.6338353685
 31
0.0
 11
22.2720045558
 21
1.6331460601
 31
0.0
 11
22.2453569307
 21
1.632495652
 31
0.0
 11
22.2159681566
 21
1.6318888769
 31
0.0
 11
22.184052077
 21
1.6313301498
 31
0.0
 11
22.1498409255
 21
1.6308235363
 31
0.0
 11
22.1135836353
 21
1.6303727227
 31
0.0
 11
22.0755440279
 21
1.6299809893
 31
0.0
 11
22.0359988939
 21
1.6296511864
 31
0.0
 11
21.9952359786
 21
1.6293857139
 31
0.0
 11
21.9535518881
 21
1.6291865035
 31
0.0
 11
21.9112499317
 21
1.6290550045
 31
0.0
 11
21.8686379142
 21
1.628992174
 31
0.0
  0
SPLINE
  5
31B
100
AcDbEntity
  8
CURVE
100
AcDbSpline
 62
253
  6
CONTINUOUS
 70
0
 71
3
 72
19
 73
15
 74
13
 42
0.0000001
 43
0.0000001
 44
0.0000000001
 12
-0.374970076
 22
0.3073186238
 32
0.0
 13
0.4782987469
 23
0.0000023915
 33
0.0
 40
0.0
 40
0.0
 40
0.0
 40
0.0
 40
0.0833333333
 40
0.1666666667
 40
0.25
 40
0.3333333333
 40
0.4166666667
 40
0.5
 40
0.5833333333
 40
0.6666666667
 40
0.75
 40
0.8333333333
 40
0.9166666667
 40
1.0
 40
1.0
 40
1.0
 40
1.0
 10
8.1380840951
 20
-0.235040876
 30
0.0
 10
8.1276682596
 20
-0.2265042476
 30
0.0
 10
8.1098057666
 20
-0.2083487804
 30
0.0
 10
8.0877066883
 20
-0.175737508
 30
0.0
 10
8.0717792862
 20
-0.1378724505
 30
0.0
 10
8.0640940353
 20
-0.0973246245
 30
0.0
 10
8.0650255565
 20
-0.0544955907
 30
0.0
 10
8.0750558729
 20
-0.0125473327
 30
0.0
 10
8.0938183052
 20
0.0261380351
 30
0.0
 10
8.1201113676
 20
0.0598186274
 30
0.0
 10
8.1521347834
 20
0.086676974
 30
0.0
 10
8.188912278
 20
0.1059668266
 30
0.0
 10
8.2265432682
 20
0.1169987952
 30
0.0
 10
8.2515748793
 20
0.1196461076
 30
0.0
 10
8.2648609556
 20
0.119646174
 30
0.0
 11
8.1380840951
 21
-0.235040876
 31
0.0
 11
8.1105882102
 21
-0.2074524351
 31
0.0
 11
8.088735301
 21
-0.1748618772
 31
0.0
 11
8.0731529781
 21
-0.1374253224
 31
0.0
 11
8.065530164
 21
-0.0969444232
 31
0.0
 11
8.0665420223
 21
-0.0546423867
 31
0.0
 11
8.0765112255
 21
-0.0130911478
 31
0.0
 11
8.0950734102
 21
0.0253039059
 31
0.0
 11
8.1210664265
 21
0.0586815865
 31
0.0
 11
8.1529271298
 21
0.0854155583
 31
0.0
 11
8.1890545273
 21
0.1045905126
 31
0.0
 11
8.2265293393
 21
0.1158219619
 31
0.0
 11
8.2648609556
 21
0.119646174
 31
0.0
  0
SPLINE
  5
31C
100
AcDbEntity
  8
CURVE
100
AcDbSpline
 62
253
  6
CONTINUOUS
 70
0
 71
3
 72
19
 73
15
 74
13
 42
0.0000001
 43
0.0000001
 44
0.0000000001
 12
0.4842599406
 22
0.0
 32
0.0
 13
-0.373000519
 23
-0.3057044109
 33
0.0
 40
0.0
 40
0.0
 40
0.0
 40
0.0
 40
0.0833333333
 40
0.1666666667
 40
0.25
 40
0.3333333333
 40
0.4166666667
 40
0.5
 40
0.5833333333
 40
0.6666666667
 40
0.75
 40
0.8333333333
 40
0.9166666667
 40
1.0
 40
1.0
 40
1.0
 40
1.0
 10
14.6648619556
 20
0.1196448164
 30
0.0
 10
14.6783136207
 20
0.1196448164
 30
0.0
 10
14.7036113456
 20
0.1169316786
 30
0.0
 10
14.7413385202
 20
0.1057399871
 30
0.0
 10
14.7776267939
 20
0.0865920478
 30
0.0
 10
14.8092558697
 20
0.0601595057
 30
0.0
 10
14.8356845572
 20
0.0265137537
 30
0.0
 10
14.8545428879
 20
-0.0122160665
 30
0.0
 10
14.8646031418
 20
-0.053940453
 30
0.0
 10
14.8656978209
 20
-0.0965987751
 30
0.0
 10
14.8580569916
 20
-0.1376376611
 30
0.0
 10
14.8419373417
 20
-0.1759108233
 30
0.0
 10
14.8197949707
 20
-0.2084840761
 30
0.0
 10
14.8020000812
 20
-0.2265480368
 30
0.0
 10
14.7916389556
 20
-0.235039826
 30
0.0
 11
14.6648619556
 21
0.1196448164
 31
0.0
 11
14.7035747768
 21
0.1157446812
 31
0.0
 11
14.7410987034
 21
0.1044139458
 31
0.0
 11
14.7768502609
 21
0.0853779473
 31
0.0
 11
14.8083891383
 21
0.058957304
 31
0.0
 11
14.8344228311
 21
0.025666409
 31
0.0
 11
14.8530765418
 21
-0.0127151609
 31
0.0
 11
14.8631088793
 21
-0.0540961089
 31
0.0
 11
14.8642419028
 21
-0.0963288691
 31
0.0
 11
14.8566438548
 21
-0.1371767071
 31
0.0
 11
14.8409335549
 21
-0.1749608384
 31
0.0
 11
14.8190366435
 21
-0.2075711908
 31
0.0
 11
14.7916389556
 21
-0.235039826
 31
0.0
  0
SPLINE
  5
31D
100
AcDbEntity
  8
RACCORDO
100
AcDbSpline
 62
253
  6
CONTINUOUS
 70
0
 71
3
 72
22
 73
18
 74
16
 42
0.0000001
 43
0.0000001
 44
0.0000000001
 12
-0.0021832472
 22
0.2504804114
 32
0.0
 13
0.2504803882
 23
0.0021859092
 33
0.0
 40
0.0
 40
0.0
 40
0.0
 40
0.0
 40
0.104302378
 40
0.2074605176
 40
0.3083460848
 40
0.4058557355
 40
0.4989232668
 40
0.5865313867
 40
0.6677229924
 40
0.7416118719
 40
0.8073927865
 40
0.8643509935
 40
0.9118715322
 40
0.9494494424
 40
0.9767055422
 40
0.9934335021
 40
1.0
 40
1.0
 40
1.0
 40
1.0
 10
-14.3490270153
 20
10.7335281673
 30
0.0
 10
-14.3491029212
 20
10.7422367348
 30
0.0
 10
-14.3492223997
 20
10.7595586252
 30
0.0
 10
-14.3493053119
 20
10.7853044099
 30
0.0
 10
-14.3492907323
 20
10.8104831675
 30
0.0
 10
-14.3491789166
 20
10.8348191249
 30
0.0
 10
-14.348971239
 20
10.8580458736
 30
0.0
 10
-14.3486702105
 20
10.8799087364
 30
0.0
 10
-14.3482794548
 20
10.9001694282
 30
0.0
 10
-14.3478038673
 20
10.9186025113
 30
0.0
 10
-14.3472492975
 20
10.9350177926
 30
0.0
 10
-14.3466240426
 20
10.9492004771
 30
0.0
 10
-14.3459356339
 20
10.9610991088
 30
0.0
 10
-14.3452031378
 20
10.9703034168
 30
0.0
 10
-14.3444340441
 20
10.9774173815
 30
0.0
 10
-14.3437025873
 20
10.9809476976
 30
0.0
 10
-14.3430320346
 20
10.9835138634
 30
0.0
 10
-14.342483775
 20
10.983518648
 30
0.0
 11
-14.3490270153
 21
10.7335281673
 31
0.0
 11
-14.3492069591
 21
10.7596542425
 31
0.0
 11
-14.3492893777
 21
10.7854941859
 31
0.0
 11
-14.3492733684
 21
10.8107649991
 31
0.0
 11
-14.3491591065
 21
10.835189917
 31
0.0
 11
-14.3489478434
 21
10.8585014388
 31
0.0
 11
-14.3486418929
 21
10.8804442574
 31
0.0
 11
-14.3482446057
 21
10.9007780559
 31
0.0
 11
-14.347760333
 21
10.9192801393
 31
0.0
 11
-14.3471943783
 21
10.9357478734
 31
0.0
 11
-14.3465529401
 21
10.9500009043
 31
0.0
 11
-14.3458430435
 21
10.9618831332
 31
0.0
 11
-14.345072463
 21
10.9712644266
 31
0.0
 11
-14.3442496381
 21
10.9780420409
 31
0.0
 11
-14.3433835805
 21
10.9821417479
 31
0.0
 11
-14.342483775
 21
10.983518648
 31
0.0
  0
LINE
  5
31E
100
AcDbEntity
  8
RACCORDO
100
AcDbLine
 62
253
  6
CONTINUOUS
 10
-14.3490250986
 20
10.7335281764
 11
-14.8315755955
 21
10.73122372
  0
SPLINE
  5
31F
100
AcDbEntity
  8
0
100
AcDbSpline
 62
253
  6
CONTINUOUS
 70
0
 71
3
 72
25
 73
21
 74
19
 42
0.0000001
 43
0.0000001
 44
0.0000000001
 12
-0.4773650572
 22
-0.072058679
 32
0.0
 13
0.0719729274
 23
-0.4773779936
 33
0.0
 40
0.0
 40
0.0
 40
0.0
 40
0.0
 40
0.0881044587
 40
0.1753073463
 40
0.2609738429
 40
0.3444803147
 40
0.4252188542
 40
0.5026017069
 40
0.5760655508
 40
0.6450755988
 40
0.7091294936
 40
0.7677609685
 40
0.8205432458
 40
0.8670921532
 40
0.9070689357
 40
0.9401827563
 40
0.9661928933
 40
0.9849107349
 40
0.9962021919
 40
1.0
 40
1.0
 40
1.0
 40
1.0
 10
-13.2749922887
 20
-10.0038631544
 30
0.0
 10
-13.2890116187
 20
-10.0059793847
 30
0.0
 10
-13.3169058872
 20
-10.0101963666
 30
0.0
 10
-13.3584282724
 20
-10.0164926971
 30
0.0
 10
-13.3992162302
 20
-10.0226969397
 30
0.0
 10
-13.4389728273
 20
-10.028763917
 30
0.0
 10
-13.4774086311
 20
-10.0346494509
 30
0.0
 10
-13.514243855
 20
-10.0403106617
 30
0.0
 10
-13.5492102627
 20
-10.0457063523
 30
0.0
 10
-13.5820535798
 20
-10.0507970493
 30
0.0
 10
-13.6125337942
 20
-10.0555461492
 30
0.0
 10
-13.6404320649
 20
-10.0599172994
 30
0.0
 10
-13.6655355202
 20
-10.0638840077
 30
0.0
 10
-13.6876921391
 20
-10.0674000795
 30
0.0
 10
-13.7066478266
 20
-10.0704913149
 30
0.0
 10
-13.7225329565
 20
-10.0729850281
 30
0.0
 10
-13.7345062627
 20
-10.0752662351
 30
0.0
 10
-13.7442593032
 20
-10.0763238823
 30
0.0
 10
-13.7480691099
 20
-10.0781771271
 30
0.0
 10
-13.7520460495
 20
-10.0777999143
 30
0.0
 10
-13.7519549363
 20
-10.0784042443
 30
0.0
 11
-13.2749922887
 21
-10.0038631544
 31
0.0
 11
-13.3170488626
 21
-10.0102212195
 31
0.0
 11
-13.3586722296
 21
-10.0165329978
 31
0.0
 11
-13.3995593713
 21
-10.0227525395
 31
0.0
 11
-13.4394126287
 21
-10.0288345663
 31
0.0
 11
-13.4779418698
 21
-10.0347348008
 31
0.0
 11
-13.514866601
 21
-10.0404102895
 31
0.0
 11
-13.54991801
 21
-10.0458197145
 31
0.0
 11
-13.5828409222
 21
-10.0509236953
 31
0.0
 11
-13.6133956582
 21
-10.0556850747
 31
0.0
 11
-13.6413597793
 21
-10.06006919
 31
0.0
 11
-13.6665297064
 21
-10.0640441247
 31
0.0
 11
-13.688722202
 21
-10.0675809412
 31
0.0
 11
-13.7077757046
 21
-10.0706538914
 31
0.0
 11
-13.7235515045
 21
-10.0732406043
 31
0.0
 11
-13.7359347535
 21
-10.0753222486
 31
0.0
 11
-13.7448353016
 21
-10.0768836698
 31
0.0
 11
-13.7501883527
 21
-10.0779135007
 31
0.0
 11
-13.7519549363
 21
-10.0784042443
 31
0.0
  0
SPLINE
  5
320
100
AcDbEntity
  8
0
100
AcDbSpline
 62
253
  6
CONTINUOUS
 70
0
 71
3
 72
25
 73
21
 74
19
 42
0.0000001
 43
0.0000001
 44
0.0000000001
 12
-0.026149326
 22
-0.4995673242
 32
0.0
 13
0.4995656586
 23
-0.0261811268
 33
0.0
 40
0.0
 40
0.0
 40
0.0
 40
0.0
 40
0.087003969
 40
0.1733342858
 40
0.2583362773
 40
0.3413653954
 40
0.4217921358
 40
0.4990068475
 40
0.572424402
 40
0.641488693
 40
0.7056769416
 40
0.7645037943
 40
0.8175252187
 40
0.8643422405
 40
0.9046046611
 40
0.9380151502
 40
0.9643349325
 40
0.9833956743
 40
0.9951425725
 40
1.0
 40
1.0
 40
1.0
 40
1.0
 10
-12.8067478624
 20
-10.4286368305
 30
0.0
 10
-12.8075062274
 20
-10.4431249439
 30
0.0
 10
-12.8089733858
 20
-10.4719912992
 30
0.0
 10
-12.8110287091
 20
-10.5150199852
 30
0.0
 10
-12.8129200808
 20
-10.5573927388
 30
0.0
 10
-12.8146332021
 20
-10.5987878311
 30
0.0
 10
-12.8161551607
 20
-10.6388909605
 30
0.0
 10
-12.8174745356
 20
-10.6773976491
 30
0.0
 10
-12.8185815081
 20
-10.7140155012
 30
0.0
 10
-12.8194679267
 20
-10.7484666246
 30
0.0
 10
-12.8201275237
 20
-10.7804890762
 30
0.0
 10
-12.8205556473
 20
-10.8098410995
 30
0.0
 10
-12.8207506688
 20
-10.8362956961
 30
0.0
 10
-12.8207102517
 20
-10.859665595
 30
0.0
 10
-12.820444103
 20
-10.8797333719
 30
0.0
 10
-12.8199387002
 20
-10.8964650936
 30
0.0
 10
-12.8192619054
 20
-10.9094187781
 30
0.0
 10
-12.818306373
 20
-10.9192943573
 30
0.0
 10
-12.8174187962
 20
-10.9244514274
 30
0.0
 10
-12.8162749601
 20
-10.9279092069
 30
0.0
 10
-12.8154660921
 20
-10.9279515979
 30
0.0
 11
-12.8067478624
 21
-10.4286368305
 31
0.0
 11
-12.8089568886
 21
-10.4721045785
 31
0.0
 11
-12.8110166471
 21
-10.515242279
 31
0.0
 11
-12.8129114985
 21
-10.5577223907
 31
0.0
 11
-12.8146270552
 21
-10.5992223653
 31
0.0
 11
-12.8161502911
 21
-10.6394270965
 31
0.0
 11
-12.8174696403
 21
-10.6780313128
 31
0.0
 11
-12.8185750853
 21
-10.7147418951
 31
0.0
 11
-12.8194582324
 21
-10.7492801027
 31
0.0
 11
-12.8201123759
 21
-10.7813836896
 31
0.0
 11
-12.820532549
 21
-10.8108088957
 31
0.0
 11
-12.8207155613
 21
-10.8373322973
 31
0.0
 11
-12.8206600233
 21
-10.8607525045
 31
0.0
 11
-12.8203663566
 21
-10.8808916891
 31
0.0
 11
-12.8198367911
 21
-10.8975969359
 31
0.0
 11
-12.8190753476
 21
-10.9107414033
 31
0.0
 11
-12.8180878077
 21
-10.9202252861
 31
0.0
 11
-12.8168816699
 21
-10.925976574
 31
0.0
 11
-12.8154660921
 21
-10.9279515979
 31
0.0
  0
SPLINE
  5
321
100
AcDbEntity
  8
ASSI
100
AcDbSpline
 62
253
  6
CONTINUOUS
 70
0
 71
3
 72
22
 73
18
 74
16
 42
0.0000001
 43
0.0000001
 44
0.0000000001
 12
-0.0021832472
 22
0.2504804114
 32
0.0
 13
0.2504803882
 23
0.0021859092
 33
0.0
 40
0.0
 40
0.0
 40
0.0
 40
0.0
 40
0.104302378
 40
0.2074605176
 40
0.3083460848
 40
0.4058557355
 40
0.4989232668
 40
0.5865313867
 40
0.6677229924
 40
0.7416118719
 40
0.8073927865
 40
0.8643509935
 40
0.9118715322
 40
0.9494494424
 40
0.9767055422
 40
0.9934335021
 40
1.0
 40
1.0
 40
1.0
 40
1.0
 10
-14.3490270153
 20
10.7335281673
 30
0.0
 10
-14.3491029212
 20
10.7422367348
 30
0.0
 10
-14.3492223997
 20
10.7595586252
 30
0.0
 10
-14.3493053119
 20
10.7853044099
 30
0.0
 10
-14.3492907323
 20
10.8104831675
 30
0.0
 10
-14.3491789166
 20
10.8348191249
 30
0.0
 10
-14.348971239
 20
10.8580458736
 30
0.0
 10
-14.3486702105
 20
10.8799087364
 30
0.0
 10
-14.3482794548
 20
10.9001694282
 30
0.0
 10
-14.3478038673
 20
10.9186025113
 30
0.0
 10
-14.3472492975
 20
10.9350177926
 30
0.0
 10
-14.3466240426
 20
10.9492004771
 30
0.0
 10
-14.3459356339
 20
10.9610991088
 30
0.0
 10
-14.3452031378
 20
10.9703034168
 30
0.0
 10
-14.3444340441
 20
10.9774173815
 30
0.0
 10
-14.3437025873
 20
10.9809476976
 30
0.0
 10
-14.3430320346
 20
10.9835138634
 30
0.0
 10
-14.342483775
 20
10.983518648
 30
0.0
 11
-14.3490270153
 21
10.7335281673
 31
0.0
 11
-14.3492069591
 21
10.7596542425
 31
0.0
 11
-14.3492893777
 21
10.7854941859
 31
0.0
 11
-14.3492733684
 21
10.8107649991
 31
0.0
 11
-14.3491591065
 21
10.835189917
 31
0.0
 11
-14.3489478434
 21
10.8585014388
 31
0.0
 11
-14.3486418929
 21
10.8804442574
 31
0.0
 11
-14.3482446057
 21
10.9007780559
 31
0.0
 11
-14.347760333
 21
10.9192801393
 31
0.0
 11
-14.3471943783
 21
10.9357478734
 31
0.0
 11
-14.3465529401
 21
10.9500009043
 31
0.0
 11
-14.3458430435
 21
10.9618831332
 31
0.0
 11
-14.345072463
 21
10.9712644266
 31
0.0
 11
-14.3442496381
 21
10.9780420409
 31
0.0
 11
-14.3433835805
 21
10.9821417479
 31
0.0
 11
-14.342483775
 21
10.983518648
 31
0.0
  0
LINE
  5
322
100
AcDbEntity
  8
ASSI
100
AcDbLine
 62
253
  6
CONTINUOUS
 10
-14.3490250986
 20
10.7335281764
 11
-14.8315755955
 21
10.73122372
  0
SPLINE
  5
323
100
AcDbEntity
  8
ASSI
100
AcDbSpline
 62
253
  6
CONTINUOUS
 70
0
 71
3
 72
25
 73
21
 74
19
 42
0.0000001
 43
0.0000001
 44
0.0000000001
 12
-0.4773650572
 22
-0.072058679
 32
0.0
 13
0.0719729274
 23
-0.4773779936
 33
0.0
 40
0.0
 40
0.0
 40
0.0
 40
0.0
 40
0.0881044587
 40
0.1753073463
 40
0.2609738429
 40
0.3444803147
 40
0.4252188542
 40
0.5026017069
 40
0.5760655508
 40
0.6450755988
 40
0.7091294936
 40
0.7677609685
 40
0.8205432458
 40
0.8670921532
 40
0.9070689357
 40
0.9401827563
 40
0.9661928933
 40
0.9849107349
 40
0.9962021919
 40
1.0
 40
1.0
 40
1.0
 40
1.0
 10
-13.2749922887
 20
-10.0038631544
 30
0.0
 10
-13.2890116187
 20
-10.0059793847
 30
0.0
 10
-13.3169058872
 20
-10.0101963666
 30
0.0
 10
-13.3584282724
 20
-10.0164926971
 30
0.0
 10
-13.3992162302
 20
-10.0226969397
 30
0.0
 10
-13.4389728273
 20
-10.028763917
 30
0.0
 10
-13.4774086311
 20
-10.0346494509
 30
0.0
 10
-13.514243855
 20
-10.0403106617
 30
0.0
 10
-13.5492102627
 20
-10.0457063523
 30
0.0
 10
-13.5820535798
 20
-10.0507970493
 30
0.0
 10
-13.6125337942
 20
-10.0555461492
 30
0.0
 10
-13.6404320649
 20
-10.0599172994
 30
0.0
 10
-13.6655355202
 20
-10.0638840077
 30
0.0
 10
-13.6876921391
 20
-10.0674000795
 30
0.0
 10
-13.7066478266
 20
-10.0704913149
 30
0.0
 10
-13.7225329565
 20
-10.0729850281
 30
0.0
 10
-13.7345062627
 20
-10.0752662351
 30
0.0
 10
-13.7442593032
 20
-10.0763238823
 30
0.0
 10
-13.7480691099
 20
-10.0781771271
 30
0.0
 10
-13.7520460495
 20
-10.0777999143
 30
0.0
 10
-13.7519549363
 20
-10.0784042443
 30
0.0
 11
-13.2749922887
 21
-10.0038631544
 31
0.0
 11
-13.3170488626
 21
-10.0102212195
 31
0.0
 11
-13.3586722296
 21
-10.0165329978
 31
0.0
 11
-13.3995593713
 21
-10.0227525395
 31
0.0
 11
-13.4394126287
 21
-10.0288345663
 31
0.0
 11
-13.4779418698
 21
-10.0347348008
 31
0.0
 11
-13.514866601
 21
-10.0404102895
 31
0.0
 11
-13.54991801
 21
-10.0458197145
 31
0.0
 11
-13.5828409222
 21
-10.0509236953
 31
0.0
 11
-13.6133956582
 21
-10.0556850747
 31
0.0
 11
-13.6413597793
 21
-10.06006919
 31
0.0
 11
-13.6665297064
 21
-10.0640441247
 31
0.0
 11
-13.688722202
 21
-10.0675809412
 31
0.0
 11
-13.7077757046
 21
-10.0706538914
 31
0.0
 11
-13.7235515045
 21
-10.0732406043
 31
0.0
 11
-13.7359347535
 21
-10.0753222486
 31
0.0
 11
-13.7448353016
 21
-10.0768836698
 31
0.0
 11
-13.7501883527
 21
-10.0779135007
 31
0.0
 11
-13.7519549363
 21
-10.0784042443
 31
0.0
  0
SPLINE
  5
324
100
AcDbEntity
  8
ASSI
100
AcDbSpline
 62
253
  6
CONTINUOUS
 70
0
 71
3
 72
25
 73
21
 74
19
 42
0.0000001
 43
0.0000001
 44
0.0000000001
 12
-0.026149326
 22
-0.4995673242
 32
0.0
 13
0.4995656586
 23
-0.0261811268
 33
0.0
 40
0.0
 40
0.0
 40
0.0
 40
0.0
 40
0.087003969
 40
0.1733342858
 40
0.2583362773
 40
0.3413653954
 40
0.4217921358
 40
0.4990068475
 40
0.572424402
 40
0.641488693
 40
0.7056769416
 40
0.7645037943
 40
0.8175252187
 40
0.8643422405
 40
0.9046046611
 40
0.9380151502
 40
0.9643349325
 40
0.9833956743
 40
0.9951425725
 40
1.0
 40
1.0
 40
1.0
 40
1.0
 10
-12.8067478624
 20
-10.4286368305
 30
0.0
 10
-12.8075062274
 20
-10.4431249439
 30
0.0
 10
-12.8089733858
 20
-10.4719912992
 30
0.0
 10
-12.8110287091
 20
-10.5150199852
 30
0.0
 10
-12.8129200808
 20
-10.5573927388
 30
0.0
 10
-12.8146332021
 20
-10.5987878311
 30
0.0
 10
-12.8161551607
 20
-10.6388909605
 30
0.0
 10
-12.8174745356
 20
-10.6773976491
 30
0.0
 10
-12.8185815081
 20
-10.7140155012
 30
0.0
 10
-12.8194679267
 20
-10.7484666246
 30
0.0
 10
-12.8201275237
 20
-10.7804890762
 30
0.0
 10
-12.8205556473
 20
-10.8098410995
 30
0.0
 10
-12.8207506688
 20
-10.8362956961
 30
0.0
 10
-12.8207102517
 20
-10.859665595
 30
0.0
 10
-12.820444103
 20
-10.8797333719
 30
0.0
 10
-12.8199387002
 20
-10.8964650936
 30
0.0
 10
-12.8192619054
 20
-10.9094187781
 30
0.0
 10
-12.818306373
 20
-10.9192943573
 30
0.0
 10
-12.8174187962
 20
-10.9244514274
 30
0.0
 10
-12.8162749601
 20
-10.9279092069
 30
0.0
 10
-12.8154660921
 20
-10.9279515979
 30
0.0
 11
-12.8067478624
 21
-10.4286368305
 31
0.0
 11
-12.8089568886
 21
-10.4721045785
 31
0.0
 11
-12.8110166471
 21
-10.515242279
 31
0.0
 11
-12.8129114985
 21
-10.5577223907
 31
0.0
 11
-12.8146270552
 21
-10.5992223653
 31
0.0
 11
-12.8161502911
 21
-10.6394270965
 31
0.0
 11
-12.8174696403
 21
-10.6780313128
 31
0.0
 11
-12.8185750853
 21
-10.7147418951
 31
0.0
 11
-12.8194582324
 21
-10.7492801027
 31
0.0
 11
-12.8201123759
 21
-10.7813836896
 31
0.0
 11
-12.820532549
 21
-10.8108088957
 31
0.0
 11
-12.8207155613
 21
-10.8373322973
 31
0.0
 11
-12.8206600233
 21
-10.8607525045
 31
0.0
 11
-12.8203663566
 21
-10.8808916891
 31
0.0
 11
-12.8198367911
 21
-10.8975969359
 31
0.0
 11
-12.8190753476
 21
-10.9107414033
 31
0.0
 11
-12.8180878077
 21
-10.9202252861
 31
0.0
 11
-12.8168816699
 21
-10.925976574
 31
0.0
 11
-12.8154660921
 21
-10.9279515979
 31
0.0
  0
ELLIPSE
  5
325
100
AcDbEntity
  8
RACCORDO
100
AcDbEllipse
 62
7
  6
CONTINUOUS
 10
4.1128520095
 20
-11.0528777129
 30
0.0
 11
0.2
 21
0.0
 31
0.0
 40
0.0524077793
 41
1.5707963268
 42
2.617993878
  0
ELLIPSE
  5
326
100
AcDbEntity
  8
RACCORDO
100
AcDbEllipse
 62
7
  6
CONTINUOUS
 10
15.3128520095
 20
-11.0528777129
 30
0.0
 11
0.2
 21
0.0
 31
0.0
 40
0.0524077793
 41
1.5707963268
 42
2.617993878
  0
ELLIPSE
  5
327
100
AcDbEntity
  8
RACCORDO
100
AcDbEllipse
 62
7
  6
CONTINUOUS
 10
7.4819119018
 20
-11.0528777129
 30
0.0
 11
0.2
 21
0.0
 31
0.0
 40
0.0524077793
 41
0.5235987756
 42
1.5707963268
  0
ELLIPSE
  5
328
100
AcDbEntity
  8
RACCORDO
100
AcDbEllipse
 62
7
  6
CONTINUOUS
 10
18.6819119018
 20
-11.0528777129
 30
0.0
 11
0.2
 21
-0.0
 31
0.0
 40
0.0524077793
 41
0.5235987756
 42
1.5707963268
  0
ELLIPSE
  5
329
100
AcDbEntity
  8
0
100
AcDbEllipse
 62
7
  6
CONTINUOUS
 10
22.0207726554
 20
-10.5808448051
 30
0.0
 11
0.4943891341
 21
0.0770133648
 31
0.0
 40
0.9960067742
 41
-1.7259388368
 42
-0.1569690096
  0
ELLIPSE
  5
32A
100
AcDbEntity
  8
0
100
AcDbEllipse
 62
7
  6
CONTINUOUS
 10
0.7739912559
 20
-10.5808448051
 30
0.0
 11
0.4943891341
 21
-0.0770133648
 31
0.0
 40
0.9960067742
 41
-2.984623644
 42
-1.4156538168
  0
ELLIPSE
  5
32B
100
AcDbEntity
  8
RACCORDO
100
AcDbEllipse
 62
7
  6
CONTINUOUS
 10
22.2972295696
 20
10.7789826544
 30
0.0
 11
0.2426981267
 21
0.0606514259
 31
0.0
 40
0.9993528196
 41
-0.2447368254
 42
1.3257549497
  0
ELLIPSE
  5
32C
100
AcDbEntity
  8
RACCORDO
100
AcDbEllipse
 62
7
  6
CONTINUOUS
 10
0.4975343417
 20
10.7789826544
 30
0.0
 11
0.2426981267
 21
-0.0606514259
 31
0.0
 40
0.9993528196
 41
1.8158377039
 42
3.386329479
  0
ELLIPSE
  5
32D
100
AcDbEntity
  8
ASSI
100
AcDbEllipse
 62
7
  6
CONTINUOUS
 10
4.1128520095
 20
-11.0528777129
 30
0.0
 11
0.2
 21
0.0
 31
0.0
 40
0.0524077793
 41
1.5707963268
 42
2.617993878
  0
ELLIPSE
  5
32E
100
AcDbEntity
  8
ASSI
100
AcDbEllipse
 62
7
  6
CONTINUOUS
 10
15.3128520095
 20
-11.0528777129
 30
0.0
 11
0.2
 21
0.0
 31
0.0
 40
0.0524077793
 41
1.5707963268
 42
2.617993878
  0
ELLIPSE
  5
32F
100
AcDbEntity
  8
ASSI
100
AcDbEllipse
 62
7
  6
CONTINUOUS
 10
7.4819119018
 20
-11.0528777129
 30
0.0
 11
0.2
 21
0.0
 31
0.0
 40
0.0524077793
 41
0.5235987756
 42
1.5707963268
  0
ELLIPSE
  5
330
100
AcDbEntity
  8
ASSI
100
AcDbEllipse
 62
7
  6
CONTINUOUS
 10
18.6819119018
 20
-11.0528777129
 30
0.0
 11
0.2
 21
-0.0
 31
0.0
 40
0.0524077793
 41
0.5235987756
 42
1.5707963268
  0
ELLIPSE
  5
331
100
AcDbEntity
  8
ASSI
100
AcDbEllipse
 62
7
  6
CONTINUOUS
 10
22.0207726554
 20
-10.5808448051
 30
0.0
 11
0.4943891341
 21
0.0770133648
 31
0.0
 40
0.9960067742
 41
-1.7259388368
 42
-0.1569690096
  0
ELLIPSE
  5
332
100
AcDbEntity
  8
ASSI
100
AcDbEllipse
 62
7
  6
CONTINUOUS
 10
0.7739912559
 20
-10.5808448051
 30
0.0
 11
0.4943891341
 21
-0.0770133648
 31
0.0
 40
0.9960067742
 41
-2.984623644
 42
-1.4156538168
  0
ELLIPSE
  5
333
100
AcDbEntity
  8
ASSI
100
AcDbEllipse
 62
7
  6
CONTINUOUS
 10
22.2972295696
 20
10.7789826544
 30
0.0
 11
0.2426981267
 21
0.0606514259
 31
0.0
 40
0.9993528196
 41
-0.2447368254
 42
1.3257549497
  0
ELLIPSE
  5
334
100
AcDbEntity
  8
ASSI
100
AcDbEllipse
 62
7
  6
CONTINUOUS
 10
0.4975343417
 20
10.7789826544
 30
0.0
 11
0.2426981267
 21
-0.0606514259
 31
0.0
 40
0.9993528196
 41
1.8158377039
 42
3.386329479
  0
ELLIPSE
  5
335
100
AcDbEntity
  8
CURVE
100
AcDbEllipse
 62
253
  6
CONTINUOUS
 10
75.2422778645
 20
3.338992174
 30
0.0
 11
40.249223595
 21
80.49844719
 31
0.0
 40
1.0
 41
-4.1797430854
 42
-4.1782928466
  0
ELLIPSE
  5
336
100
AcDbEntity
  8
CURVE
100
AcDbEllipse
 62
253
  6
CONTINUOUS
 10
75.2422778645
 20
3.338992174
 30
0.0
 11
9.8205094702
 21
89.4626044431
 31
0.0
 40
1.0
 41
-4.5366889832
 42
-4.5340562215
  0
ELLIPSE
  5
337
100
AcDbEntity
  8
CURVE
100
AcDbEllipse
 62
253
  6
CONTINUOUS
 10
75.2422778645
 20
3.338992174
 30
0.0
 11
22.237871519
 21
87.2093863658
 31
0.0
 40
1.0
 41
-4.3986676566
 42
-4.3963500953
  0
ELLIPSE
  5
338
100
AcDbEntity
  8
CURVE
100
AcDbEllipse
 62
253
  6
CONTINUOUS
 10
75.2422778645
 20
3.338992174
 30
0.0
 11
0.0
 21
90.0
 31
0.0
 40
1.0
 41
-4.6509671976
 42
-4.6483410175
  0
ELLIPSE
  5
339
100
AcDbEntity
  8
CURVE
100
AcDbEllipse
 62
253
  6
CONTINUOUS
 10
75.2422778645
 20
3.338992174
 30
0.0
 11
26.080573382
 21
86.138282384
 31
0.0
 40
1.0
 41
-4.3592878482
 42
-4.3569658958
  0
ELLIPSE
  5
33A
100
AcDbEntity
  8
CURVE
100
AcDbEllipse
 62
253
  6
CONTINUOUS
 10
75.2422778645
 20
3.338992174
 30
0.0
 11
20.6777628493
 21
87.5924090521
 31
0.0
 40
1.0
 41
-4.4313569941
 42
-4.4290338686
  0
ELLIPSE
  5
33B
100
AcDbEntity
  8
CURVE
100
AcDbEllipse
 62
253
  6
CONTINUOUS
 10
75.2422778645
 20
3.338992174
 30
0.0
 11
12.48310907
 21
89.1300846401
 31
0.0
 40
1.0
 41
-4.5266551261
 42
-4.5240309691
  0
ELLIPSE
  5
33C
100
AcDbEntity
  8
CURVE
100
AcDbEllipse
 62
253
  6
CONTINUOUS
 10
75.2422778645
 20
3.338992174
 30
0.0
 11
-14.4164018706
 21
88.8378711874
 31
0.0
 40
1.0
 41
1.4515558787
 42
1.4541850759
  0
ELLIPSE
  5
33D
100
AcDbEntity
  8
CURVE
100
AcDbEllipse
 62
253
  6
CONTINUOUS
 10
75.2422778645
 20
3.338992174
 30
0.0
 11
14.4164018706
 21
88.8378711874
 31
0.0
 40
1.0
 41
-4.4777305859
 42
-4.476338606
  0
ELLIPSE
  5
33E
100
AcDbEntity
  8
CURVE
100
AcDbEllipse
 62
253
  6
CONTINUOUS
 10
75.2422778645
 20
3.338992174
 30
0.0
 11
20.6777628493
 21
87.5924090521
 31
0.0
 40
1.0
 41
-4.4094399912
 42
-4.4067820586
  0
ELLIPSE
  5
33F
100
AcDbEntity
  8
CURVE
100
AcDbEllipse
 62
253
  6
CONTINUOUS
 10
75.2422778645
 20
3.338992174
 30
0.0
 11
23.1001141641
 21
86.9849683888
 31
0.0
 40
1.0
 41
-4.3839986352
 42
-4.3816907386
  0
ELLIPSE
  5
340
100
AcDbEntity
  8
CURVE
100
AcDbEllipse
 62
253
  6
CONTINUOUS
 10
75.2422778645
 20
3.338992174
 30
0.0
 11
63.6396103068
 21
63.6396103068
 31
0.0
 40
1.0
 41
2.4223595158
 42
2.4250117783
  0
ELLIPSE
  5
341
100
AcDbEntity
  8
CURVE
100
AcDbEllipse
 62
253
  6
CONTINUOUS
 10
75.2422778645
 20
3.338992174
 30
0.0
 11
-9.8205094702
 21
89.4626044431
 31
0.0
 40
1.0
 41
1.5253159365
 42
1.5276268794
  0
ELLIPSE
  5
342
100
AcDbEntity
  8
CURVE
100
AcDbEllipse
 62
253
  6
CONTINUOUS
 10
75.2422778645
 20
3.338992174
 30
0.0
 11
83.149157926
 21
34.4415089129
 31
0.0
 40
1.0
 41
2.8051329017
 42
2.8077864085
  0
ELLIPSE
  5
343
100
AcDbEntity
  8
CURVE
100
AcDbEllipse
 62
253
  6
CONTINUOUS
 10
75.2422778645
 20
3.338992174
 30
0.0
 11
47.3158000907
 21
76.5585727517
 31
0.0
 40
1.0
 41
-4.1048815293
 42
-4.1025752917
  0
ELLIPSE
  5
344
100
AcDbEntity
  8
CURVE
100
AcDbEllipse
 62
253
  6
CONTINUOUS
 10
75.2422778645
 20
3.338992174
 30
0.0
 11
79.3507138891
 21
42.4672132979
 31
0.0
 40
1.0
 41
2.6991703162
 42
2.7014683255
  0
ELLIPSE
  5
345
100
AcDbEntity
  8
CURVE
100
AcDbEllipse
 62
253
  6
CONTINUOUS
 10
75.2422778645
 20
3.338992174
 30
0.0
 11
29.7906247292
 21
84.9265487244
 31
0.0
 40
1.0
 41
-4.3310016143
 42
-4.3287168007
  0
ELLIPSE
  5
346
100
AcDbEntity
  8
CURVE
100
AcDbEllipse
 62
253
  6
CONTINUOUS
 10
75.2422778645
 20
3.338992174
 30
0.0
 11
14.4164018706
 21
88.8378711874
 31
0.0
 40
1.0
 41
-4.5101886963
 42
-4.5074968082
  0
ELLIPSE
  5
347
100
AcDbEntity
  8
CURVE
100
AcDbEllipse
 62
253
  6
CONTINUOUS
 10
75.2422778645
 20
3.338992174
 30
0.0
 11
-47.3158000907
 21
76.5585727517
 31
0.0
 40
1.0
 41
1.0569438795
 42
1.0585469748
  0
ELLIPSE
  5
348
100
AcDbEntity
  8
CURVE
100
AcDbEllipse
 62
253
  6
CONTINUOUS
 10
75.2422778645
 20
3.338992174
 30
0.0
 11
83.149157926
 21
-34.4415089129
 31
0.0
 40
1.0
 41
-2.6825280476
 42
-2.6784450471
  0
ELLIPSE
  5
349
100
AcDbEntity
  8
CURVE
100
AcDbEllipse
 62
253
  6
CONTINUOUS
 10
75.2422778645
 20
3.338992174
 30
0.0
 11
87.5924090521
 21
-20.6777628493
 31
0.0
 40
1.0
 41
-2.8457208862
 42
-2.8434033248
  0
ELLIPSE
  5
34A
100
AcDbEntity
  8
CURVE
100
AcDbEllipse
 62
253
  6
CONTINUOUS
 10
75.2422778645
 20
3.338992174
 30
0.0
 11
85.3814968245
 21
-28.4604989415
 31
0.0
 40
1.0
 41
-2.7584203164
 42
-2.7557941363
  0
ELLIPSE
  5
34B
100
AcDbEntity
  8
CURVE
100
AcDbEllipse
 62
253
  6
CONTINUOUS
 10
75.2422778645
 20
3.338992174
 30
0.0
 11
87.5924090521
 21
-20.6777628493
 31
0.0
 40
1.0
 41
-2.8506690186
 42
-2.8483470663
  0
ELLIPSE
  5
34C
100
AcDbEntity
  8
CURVE
100
AcDbEllipse
 62
253
  6
CONTINUOUS
 10
75.2422778645
 20
3.338992174
 30
0.0
 11
83.149157926
 21
-34.4415089129
 31
0.0
 40
1.0
 41
-2.6924164509
 42
-2.6897937414
  0
ELLIPSE
  5
34D
100
AcDbEntity
  8
CURVE
100
AcDbEllipse
 62
253
  6
CONTINUOUS
 10
75.2422778645
 20
3.338992174
 30
0.0
 11
87.5924090521
 21
-20.6777628493
 31
0.0
 40
1.0
 41
-2.8556154887
 42
-2.8532917281
  0
ELLIPSE
  5
34E
100
AcDbEntity
  8
CURVE
100
AcDbEllipse
 62
253
  6
CONTINUOUS
 10
75.2422778645
 20
3.338992174
 30
0.0
 11
90.0
 21
-0.0
 31
0.0
 40
1.0
 41
-3.0923844718
 42
-3.0851155326
  0
ELLIPSE
  5
34F
100
AcDbEntity
  8
CURVE
100
AcDbEllipse
 62
253
  6
CONTINUOUS
 10
75.2422778645
 20
3.338992174
 30
0.0
 11
88.8378711874
 21
-14.4164018706
 31
0.0
 40
1.0
 41
-2.9341333517
 42
-2.9315091946
  0
ELLIPSE
  5
350
100
AcDbEntity
  8
CURVE
100
AcDbEllipse
 62
253
  6
CONTINUOUS
 10
75.2422778645
 20
3.338992174
 30
0.0
 11
86.138282384
 21
-26.080573382
 31
0.0
 40
1.0
 41
-2.8033273255
 42
-2.7986168276
  0
ELLIPSE
  5
351
100
AcDbEntity
  8
CURVE
100
AcDbEllipse
 62
253
  6
CONTINUOUS
 10
75.2422778645
 20
3.338992174
 30
0.0
 11
76.5585727517
 21
-47.3158000907
 31
0.0
 40
1.0
 41
-2.5463834656
 42
-2.5437542684
  0
ELLIPSE
  5
352
100
AcDbEntity
  8
CURVE
100
AcDbEllipse
 62
253
  6
CONTINUOUS
 10
75.2422778645
 20
3.338992174
 30
0.0
 11
63.6396103068
 21
63.6396103068
 31
0.0
 40
1.0
 41
2.4299776075
 42
2.4313695874
  0
ELLIPSE
  5
353
100
AcDbEntity
  8
CURVE
100
AcDbEllipse
 62
253
  6
CONTINUOUS
 10
75.2422778645
 20
3.338992174
 30
0.0
 11
-42.4672132979
 21
79.3507138891
 31
0.0
 40
1.0
 41
1.1505246499
 42
1.1531825825
  0
ELLIPSE
  5
354
100
AcDbEntity
  8
CURVE
100
AcDbEllipse
 62
253
  6
CONTINUOUS
 10
75.2422778645
 20
3.338992174
 30
0.0
 11
73.0117966658
 21
-52.6239256197
 31
0.0
 40
1.0
 41
-2.4482524793
 42
-2.4459445827
  0
ELLIPSE
  5
355
100
AcDbEntity
  8
CURVE
100
AcDbEllipse
 62
253
  6
CONTINUOUS
 10
75.2422778645
 20
3.338992174
 30
0.0
 11
90.0
 21
0.0
 31
0.0
 40
1.0
 41
-3.075427628
 42
-3.0727753655
  0
ELLIPSE
  5
356
100
AcDbEntity
  8
CURVE
100
AcDbEllipse
 62
253
  6
CONTINUOUS
 10
75.2422778645
 20
3.338992174
 30
0.0
 11
34.4415089129
 21
83.149157926
 31
0.0
 40
1.0
 41
-4.255835816
 42
-4.2535248731
  0
ELLIPSE
  5
357
100
AcDbEntity
  8
CURVE
100
AcDbEllipse
 62
253
  6
CONTINUOUS
 10
75.2422778645
 20
3.338992174
 30
0.0
 11
55.3870988462
 21
70.9384894215
 31
0.0
 40
1.0
 41
-3.9882769045
 42
-3.9856260659
  0
ELLIPSE
  5
358
100
AcDbEntity
  8
CURVE
100
AcDbEllipse
 62
253
  6
CONTINUOUS
 10
75.2422778645
 20
3.338992174
 30
0.0
 11
90.0
 21
-0.0
 31
0.0
 40
1.0
 41
-3.082699817
 42
-3.0803894095
  0
ELLIPSE
  5
359
100
AcDbEntity
  8
CURVE
100
AcDbEllipse
 62
253
  6
CONTINUOUS
 10
75.2422778645
 20
3.338992174
 30
0.0
 11
-14.4164018706
 21
88.8378711874
 31
0.0
 40
1.0
 41
1.4661603794
 42
1.4737751323
  0
ELLIPSE
  5
35A
100
AcDbEntity
  8
CURVE
100
AcDbEllipse
 62
253
  6
CONTINUOUS
 10
75.2422778645
 20
3.338992174
 30
0.0
 11
76.5585727517
 21
47.3158000907
 31
0.0
 40
1.0
 41
2.6392908282
 42
2.6442576245
  0
ELLIPSE
  5
35B
100
AcDbEntity
  8
CURVE
100
AcDbEllipse
 62
253
  6
CONTINUOUS
 10
75.2422778645
 20
3.338992174
 30
0.0
 11
-34.4415089129
 21
83.149157926
 31
0.0
 40
1.0
 41
1.2270717694
 42
1.2293697786
  0
ELLIPSE
  5
35C
100
AcDbEntity
  8
CURVE
100
AcDbEllipse
 62
253
  6
CONTINUOUS
 10
75.2422778645
 20
3.338992174
 30
0.0
 11
76.5585727517
 21
47.3158000907
 31
0.0
 40
1.0
 41
2.6343200032
 42
2.636992819
  0
ELLIPSE
  5
35D
100
AcDbEntity
  8
CURVE
100
AcDbEllipse
 62
253
  6
CONTINUOUS
 10
75.2422778645
 20
3.338992174
 30
0.0
 11
90.0
 21
-0.0
 31
0.0
 40
1.0
 41
3.1818184566
 42
3.1881766783
  0
ELLIPSE
  5
35E
100
AcDbEntity
  8
CURVE
100
AcDbEllipse
 62
253
  6
CONTINUOUS
 10
75.2422778645
 20
3.338992174
 30
0.0
 11
-34.4415089129
 21
83.149157926
 31
0.0
 40
1.0
 41
1.2178191567
 42
1.2197320742
  0
ENDSEC
  0
SECTION
  2
OBJECTS
  0
DICTIONARY
  5
C
100
AcDbDictionary
280
0
281
1
  3
ACAD_GROUP
350
D
  3
ACAD_MLINESTYLE
350
17
  3
ACAD_LAYOUT
350
1A
  3
ACAD_PLOTSETTINGS
350
19
  3
ACAD_PLOTSTYLENAME
350
E
  0
DICTIONARY
  5
D
102
{ACAD_REACTORS
330
C
102
}
100
AcDbDictionary
280
0
281
1
  0
ACDBDICTIONARYWDFLT
  5
E
102
{ACAD_REACTORS
330
C
102
}
100
AcDbDictionary
281
1
  3
Normal
350
F
100
AcDbDictionaryWithDefault
340
F
  0
DICTIONARY
  5
17
102
{ACAD_REACTORS
330
C
102
}
100
AcDbDictionary
280
0
281
1
  3
Standard
350
18
  0
DICTIONARY
  5
19
102
{ACAD_REACTORS
330
C
102
}
100
AcDbDictionary
281
1
  0
DICTIONARY
  5
1A
102
{ACAD_REACTORS
330
C
102
}
100
AcDbDictionary
281
1
  3
Model
350
35F
  3
Layout1
350
360
  0
ACDBPLACEHOLDER
  5
F
102
{ACAD_REACTORS
330
E
102
}
  0
MLINESTYLE
  5
18
102
{ACAD_REACTORS
330
17
102
}
100
AcDbMlineStyle
  2
STANDARD
 70
0
  3

 62
256
 51
90.0
 52
90.0
 71
2
 49
0.5
 62
256
  6
BYLAYER
 49
-0.5
 62
256
  6
BYLAYER
  0
LAYOUT
  5
35F
102
{ACAD_REACTORS
330
1A
102
}
100
AcDbPlotSettings
  1

  2
none_device
  4
ISO_A4_(297.00_x_210.00_MM)
  6

 40
0.0
 41
0.0
 42
0.0
 43
0.0
 44
297.0
 45
210.0
 46
0.0
 47
0.0
 48
0.0
 49
0.0
140
0.0
141
0.0
142
1.0
143
1.0
 70
1024
 72
1
 73
0
 74
0
  7

 75
0
147
1.0
148
0.0
149
0.0
100
AcDbLayout
  1
Model
 70
0
 71
0
 10
0.0
 20
0.0
 11
297.0
 21
210.0
 12
0.0
 22
0.0
 32
0.0
 14
0.0
 24
0.0
 34
0.0
 15
0.0
 25
0.0
 35
0.0
146
0.0
 13
0.0
 23
0.0
 33
0.0
 16
1.0
 26
0.0
 36
0.0
 17
0.0
 27
1.0
 37
0.0
 76
0
330
21A
345
0
346
0
  0
LAYOUT
  5
360
102
{ACAD_REACTORS
330
1A
102
}
100
AcDbPlotSettings
  1

  2
none_device
  4
ISO_A4_(297.00_x_210.00_MM)
  6

 40
0.0
 41
0.0
 42
0.0
 43
0.0
 44
297.0
 45
210.0
 46
0.0
 47
0.0
 48
0.0
 49
0.0
140
0.0
141
0.0
142
1.0
143
1.0
 70
0
 72
1
 73
0
 74
0
  7

 75
0
147
1.0
148
0.0
149
0.0
100
AcDbLayout
  1
Layout1
 70
0
 71
1
 10
0.0
 20
0.0
 11
297.0
 21
210.0
 12
0.0
 22
0.0
 32
0.0
 14
0.0
 24
0.0
 34
0.0
 15
0.0
 25
0.0
 35
0.0
146
0.0
 13
0.0
 23
0.0
 33
0.0
 16
1.0
 26
0.0
 36
0.0
 17
0.0
 27
1.0
 37
0.0
 76
0
330
21B
345
0
346
0
  0
ENDSEC
  0
EOF
