  0
SECTION
  2
HEADER
  9
$ACADVER
  1
AC1015
  9
$DWGCODEPAGE
  3
ANSI_1252
  9
$EXTMAX
 10
297.0
 20
210.0
 30
0.0
  9
$EXTMIN
 10
0.0
 20
0.0
 30
0.0
  9
$LIMMIN
 10
0.0
 20
0.0
  9
$LIMMAX
 10
297.0
 20
210.0
  9
$VIEWCTR
 10
148.5
 20
105.0
  9
$VIEWSIZE
 40
210.0
  9
$CLAYER
  8
0
  9
$LTSCALE
 40
16.335
  9
$CELTYPE
  6
BYLAYER
  9
$DIMSCALE
 40
1.0
  9
$DIMASZ
 40
3.0
  9
$DIMEXO
 40
1.85625
  9
$DIMDLI
 40
11.286
  9
$DIMEXE
 40
5.346
  9
$DIMCEN
 40
2.673
  9
$DIMLFAC
 40
1.0
  9
$DIMBLK
  1
_FILLED
  9
$DIMTXT
 40
3.0
  9
$DIMTOL
 70
1
  9
$DIMLIM
 70
0
  9
$DIMTFAC
 40
1.0
  9
$DIMTP
 40
0.01
  9
$DIMTM
 40
0.01
  9
$PDMODE
 70
3
  9
$PDSIZE
 40
3.0
  9
$HANDSEED
  5
38C
  9
$TILEMODE
 70
1
  9
$MEASUREMENT
 70
1
  9
$INSUNITS
 70
4
  0
ENDSEC
  0
SECTION
  2
CLASSES
  0
CLASS
  1
ACDBDICTIONARYWDFLT
  2
AcDbDictionaryWithDefault
  3
AutoCAD 2000
 90
0
280
0
281
0
  0
CLASS
  1
ACDBPLACEHOLDER
  2
AcDbPlaceHolder
  3
AutoCAD 2000
 90
0
280
0
281
0
  0
CLASS
  1
LAYOUT
  2
AcDbLayout
  3
AutoCAD 2000
 90
0
280
0
281
0
  0
ENDSEC
  0
SECTION
  2
TABLES
  0
TABLE
  2
VPORT
  5
8
100
AcDbSymbolTable
 70
2
  0
VPORT
  5
1F4
100
AcDbSymbolTableRecord
100
AcDbViewportTableRecord
  2
*ACTIVE
 70
0
 10
0.0
 20
0.0
 11
1.0
 21
1.0
 12
148.5
 22
105.0
 13
0.0
 23
0.0
 14
1.0
 24
1.0
 15
0.0
 25
0.0
 16
0.0
 26
0.0
 36
1.0
 17
0.0
 27
0.0
 37
0.0
 40
210.0
 41
1.4142857143
 42
50.0
 43
0.0
 44
0.0
 50
0.0
 51
0.0
 71
0
 72
100
 73
1
 74
1
 75
0
 76
0
 77
0
 78
0
  0
ENDTAB
  0
TABLE
  2
LTYPE
  5
5
100
AcDbSymbolTable
 70
6
  0
LTYPE
  5
14
100
AcDbSymbolTableRecord
100
AcDbLinetypeTableRecord
  2
BYBLOCK
 70
0
  3

 72
65
 73
0
 40
0.0
  0
LTYPE
  5
15
100
AcDbSymbolTableRecord
100
AcDbLinetypeTableRecord
  2
BYLAYER
 70
0
  3

 72
65
 73
0
 40
0.0
  0
LTYPE
  5
16
100
AcDbSymbolTableRecord
100
AcDbLinetypeTableRecord
  2
CONTINUOUS
 70
64
  3
Solid line
 72
65
 73
0
 40
0.0
  0
LTYPE
  5
1F5
100
AcDbSymbolTableRecord
100
AcDbLinetypeTableRecord
  2
CENTER
 70
64
  3
____ _ ____ _ ____ _ ____ _ ____ _ ____ _ ____
 72
65
 73
4
 40
0.6
 49
0.375
 74
0
 49
-0.075
 74
0
 49
0.075
 74
0
 49
-0.075
 74
0
  0
LTYPE
  5
1F6
100
AcDbSymbolTableRecord
100
AcDbLinetypeTableRecord
  2
HIDDEN
 70
64
  3
- - - - - - - - - - - - - - - - - - - -
 72
65
 73
2
 40
0.2
 49
0.1
 74
0
 49
-0.1
 74
0
  0
LTYPE
  5
1F7
100
AcDbSymbolTableRecord
100
AcDbLinetypeTableRecord
  2
PHANTOM
 70
64
  3
_____ _ _ _____ _ _ _____ _ _ _____
 72
65
 73
6
 40
0.8
 49
0.45
 74
0
 49
-0.05
 74
0
 49
0.1
 74
0
 49
-0.05
 74
0
 49
0.1
 74
0
 49
-0.05
 74
0
  0
LTYPE
  5
1F8
100
AcDbSymbolTableRecord
100
AcDbLinetypeTableRecord
  2
DOT
 70
64
  3
. . . . . . . . . . . . . . . . . . . .
 72
65
 73
2
 40
0.2
 49
0.1
 74
0
 49
-0.1
 74
0
  0
LTYPE
  5
1F9
100
AcDbSymbolTableRecord
100
AcDbLinetypeTableRecord
  2
DASHED
 70
64
  3
- - - - - - - - - - - - - - - - - - - -
 72
65
 73
2
 40
0.2
 49
0.1
 74
0
 49
-0.1
 74
0
  0
ENDTAB
  0
TABLE
  2
LAYER
  5
2
100
AcDbSymbolTable
 70
36
  0
LAYER
  5
10
100
AcDbSymbolTableRecord
100
AcDbLayerTableRecord
  2
0
 70
0
 62
7
  6
CONTINUOUS
370
-3
390
F
  0
LAYER
  5
1FA
100
AcDbSymbolTableRecord
100
AcDbLayerTableRecord
  2
DEFAULT_1
 70
0
 62
7
  6
CENTER
370
-3
390
F
  0
LAYER
  5
1FB
100
AcDbSymbolTableRecord
100
AcDbLayerTableRecord
  2
DEFAULT_2
 70
0
 62
7
  6
HIDDEN
370
-3
390
F
  0
LAYER
  5
1FC
100
AcDbSymbolTableRecord
100
AcDbLayerTableRecord
  2
DEFAULT_3
 70
0
 62
7
  6
PHANTOM
370
-3
390
F
  0
LAYER
  5
1FD
100
AcDbSymbolTableRecord
100
AcDbLayerTableRecord
  2
ASSI
 70
0
 62
7
  6
CONTINUOUS
370
-3
390
F
  0
LAYER
  5
1FE
100
AcDbSymbolTableRecord
100
AcDbLayerTableRecord
  2
COLOR9
 70
0
 62
7
  6
CONTINUOUS
370
-3
390
F
  0
LAYER
  5
1FF
100
AcDbSymbolTableRecord
100
AcDbLayerTableRecord
  2
COORDINATE
 70
0
 62
7
  6
CONTINUOUS
370
-3
390
F
  0
LAYER
  5
200
100
AcDbSymbolTableRecord
100
AcDbLayerTableRecord
  2
COORD_ORIGINE
 70
0
 62
7
  6
CONTINUOUS
370
-3
390
F
  0
LAYER
  5
201
100
AcDbSymbolTableRecord
100
AcDbLayerTableRecord
  2
COPY_PUBLISH
 70
0
 62
7
  6
CONTINUOUS
370
-3
390
F
  0
LAYER
  5
202
100
AcDbSymbolTableRecord
100
AcDbLayerTableRecord
  2
COSMETIC
 70
0
 62
7
  6
CONTINUOUS
370
-3
390
F
  0
LAYER
  5
203
100
AcDbSymbolTableRecord
100
AcDbLayerTableRecord
  2
CURVE
 70
0
 62
7
  6
CONTINUOUS
370
-3
390
F
  0
LAYER
  5
204
100
AcDbSymbolTableRecord
100
AcDbLayerTableRecord
  2
DRAFT
 70
0
 62
7
  6
CONTINUOUS
370
-3
390
F
  0
LAYER
  5
205
100
AcDbSymbolTableRecord
100
AcDbLayerTableRecord
  2
IGES
 70
0
 62
7
  6
CONTINUOUS
370
-3
390
F
  0
LAYER
  5
206
100
AcDbSymbolTableRecord
100
AcDbLayerTableRecord
  2
IGS_SCRITTE
 70
0
 62
7
  6
CONTINUOUS
370
-3
390
F
  0
LAYER
  5
207
100
AcDbSymbolTableRecord
100
AcDbLayerTableRecord
  2
IMPORT_IGES
 70
0
 62
7
  6
CONTINUOUS
370
-3
390
F
  0
LAYER
  5
208
100
AcDbSymbolTableRecord
100
AcDbLayerTableRecord
  2
INTF_12
 70
0
 62
7
  6
CONTINUOUS
370
-3
390
F
  0
LAYER
  5
209
100
AcDbSymbolTableRecord
100
AcDbLayerTableRecord
  2
INTF_15
 70
0
 62
7
  6
CONTINUOUS
370
-3
390
F
  0
LAYER
  5
20A
100
AcDbSymbolTableRecord
100
AcDbLayerTableRecord
  2
INTF_3
 70
0
 62
7
  6
CONTINUOUS
370
-3
390
F
  0
LAYER
  5
20B
100
AcDbSymbolTableRecord
100
AcDbLayerTableRecord
  2
INTF_4
 70
0
 62
7
  6
CONTINUOUS
370
-3
390
F
  0
LAYER
  5
20C
100
AcDbSymbolTableRecord
100
AcDbLayerTableRecord
  2
INTF_YELLOW
 70
0
 62
7
  6
CONTINUOUS
370
-3
390
F
  0
LAYER
  5
20D
100
AcDbSymbolTableRecord
100
AcDbLayerTableRecord
  2
PIANI
 70
0
 62
7
  6
CONTINUOUS
370
-3
390
F
  0
LAYER
  5
20E
100
AcDbSymbolTableRecord
100
AcDbLayerTableRecord
  2
PIANI_ORIGINE
 70
0
 62
7
  6
CONTINUOUS
370
-3
390
F
  0
LAYER
  5
20F
100
AcDbSymbolTableRecord
100
AcDbLayerTableRecord
  2
PIANI_RIFERIMENTO
 70
0
 62
7
  6
CONTINUOUS
370
-3
390
F
  0
LAYER
  5
210
100
AcDbSymbolTableRecord
100
AcDbLayerTableRecord
  2
RACCORDO
 70
0
 62
7
  6
CONTINUOUS
370
-3
390
F
  0
LAYER
  5
211
100
AcDbSymbolTableRecord
100
AcDbLayerTableRecord
  2
SMUSSO
 70
0
 62
7
  6
CONTINUOUS
370
-3
390
F
  0
LAYER
  5
212
100
AcDbSymbolTableRecord
100
AcDbLayerTableRecord
  2
SNAPLINE
 70
0
 62
7
  6
CONTINUOUS
370
-3
390
F
  0
LAYER
  5
213
100
AcDbSymbolTableRecord
100
AcDbLayerTableRecord
  2
SOLIDO
 70
0
 62
7
  6
CONTINUOUS
370
-3
390
F
  0
LAYER
  5
214
100
AcDbSymbolTableRecord
100
AcDbLayerTableRecord
  2
SUPERFICI
 70
0
 62
7
  6
CONTINUOUS
370
-3
390
F
  0
LAYER
  5
215
100
AcDbSymbolTableRecord
100
AcDbLayerTableRecord
  2
TRASH
 70
0
 62
7
  6
CONTINUOUS
370
-3
390
F
  0
LAYER
  5
216
100
AcDbSymbolTableRecord
100
AcDbLayerTableRecord
  2
WHITE
 70
0
 62
7
  6
CONTINUOUS
370
-3
390
F
  0
LAYER
  5
217
100
AcDbSymbolTableRecord
100
AcDbLayerTableRecord
  2
XSEC_DATUMS
 70
0
 62
7
  6
CONTINUOUS
370
-3
390
F
  0
ENDTAB
  0
TABLE
  2
STYLE
  5
3
100
AcDbSymbolTable
 70
1
  0
STYLE
  5
11
100
AcDbSymbolTableRecord
100
AcDbTextStyleTableRecord
  2
STANDARD
 70
0
 40
0.0
 41
0.8
 50
0.0
 71
0
 42
0.2
  3
txt
  4

  0
STYLE
  5
218
100
AcDbSymbolTableRecord
100
AcDbTextStyleTableRecord
  2
TEXTSTYLE_1
 70
0
 40
0.0
 41
0.8
 50
0.0
 71
0
 42
0.2
  3
gdt
  4

  0
ENDTAB
  0
TABLE
  2
VIEW
  5
6
100
AcDbSymbolTable
 70
0
  0
ENDTAB
  0
TABLE
  2
UCS
  5
7
100
AcDbSymbolTable
 70
0
  0
ENDTAB
  0
TABLE
  2
APPID
  5
9
100
AcDbSymbolTable
 70
1
  0
APPID
  5
219
100
AcDbSymbolTableRecord
100
AcDbRegAppTableRecord
  2
ACAD
 70
0
  0
ENDTAB
  0
TABLE
  2
BLOCK_RECORD
  5
1
100
AcDbSymbolTable
 70
0
  0
BLOCK_RECORD
  5
21A
100
AcDbSymbolTableRecord
100
AcDbBlockTableRecord
  2
*Model_Space
  0
BLOCK_RECORD
  5
21B
100
AcDbSymbolTableRecord
100
AcDbBlockTableRecord
  2
*Paper_Space
  0
BLOCK_RECORD
  5
21C
100
AcDbSymbolTableRecord
100
AcDbBlockTableRecord
  2
_FILLED
  0
BLOCK_RECORD
  5
21D
100
AcDbSymbolTableRecord
100
AcDbBlockTableRecord
  2
*D0
  0
BLOCK_RECORD
  5
21E
100
AcDbSymbolTableRecord
100
AcDbBlockTableRecord
  2
*D1
  0
BLOCK_RECORD
  5
21F
100
AcDbSymbolTableRecord
100
AcDbBlockTableRecord
  2
*D2
  0
ENDTAB
  0
TABLE
  2
DIMSTYLE
  5
A
100
AcDbSymbolTable
 70
1
100
AcDbDimStyleTable
 71
0
  0
DIMSTYLE
105
220
100
AcDbSymbolTableRecord
100
AcDbDimStyleTableRecord
  2
STANDARD
 70
0
  3

  4

 40
1.0
 41
3.0
 42
0.0625
 43
0.38
 44
0.18
 45
0.0
 46
0.0
 47
0.01
 48
0.01
140
3.0
141
0.09
142
0.0
143
25.4
144
1.0
145
0.0
146
1.0
147
0.09
 71
1.0
 72
0.0
 73
0
 74
0
 75
0
 76
0
 77
1
 78
8
170
0
171
2
172
0
173
0
174
0
175
0
176
0
177
0
178
0
270
2
271
2
272
2
273
2
274
2
275
0
280
0
281
0
282
0
283
1
284
8
285
0
286
0
287
3
288
0
340
11
341
21C
342
21C
343
21C
344
21C
  0
DIMSTYLE
105
221
100
AcDbSymbolTableRecord
100
AcDbDimStyleTableRecord
  2
DIMSTYLE_1
 70
0
  3

  4

 40
1.0
 41
3.0
 42
0.0625
 43
0.38
 44
0.18
 45
0.0
 46
0.0
 47
0.0
 48
0.0
140
3.0
141
0.09
142
0.0
143
25.4
144
1.0
145
0.0
146
1.0
147
0.09
 71
0.0
 72
0.0
 73
0
 74
0
 75
0
 76
0
 77
1
 78
8
170
0
171
2
172
0
173
0
174
0
175
0
176
0
177
0
178
0
270
2
271
2
272
2
273
2
274
2
275
0
280
0
281
0
282
0
283
1
284
8
285
0
286
0
287
3
288
0
340
11
341
21C
342
21C
343
21C
344
21C
  0
DIMSTYLE
105
222
100
AcDbSymbolTableRecord
100
AcDbDimStyleTableRecord
  2
DIMSTYLE_2
 70
0
  3

  4

 40
1.0
 41
3.0
 42
0.0625
 43
0.38
 44
0.18
 45
0.0
 46
0.0
 47
0.0
 48
0.0
140
3.0
141
0.09
142
0.0
143
25.4
144
1.0
145
0.0
146
1.0
147
0.09
 71
0.0
 72
0.0
 73
0
 74
0
 75
0
 76
0
 77
1
 78
8
170
0
171
2
172
0
173
0
174
0
175
0
176
0
177
0
178
0
270
2
271
1
272
1
273
2
274
2
275
0
280
0
281
0
282
0
283
1
284
8
285
0
286
0
287
3
288
0
340
11
341
21C
342
21C
343
21C
344
21C
  0
ENDTAB
  0
ENDSEC
  0
SECTION
  2
BLOCKS
  0
BLOCK
  5
20
100
AcDbEntity
  8
0
100
AcDbBlockBegin
  2
*Model_Space
 70
0
 10
0.0
 20
0.0
 30
0.0
  3
*Model_Space
  1

  0
ENDBLK
  5
21
100
AcDbEntity
  8
0
100
AcDbBlockEnd
  0
BLOCK
  5
1C
100
AcDbEntity
  8
0
100
AcDbBlockBegin
  2
*Paper_Space
 70
0
 10
0.0
 20
0.0
 30
0.0
  3
*Paper_Space
  1

  0
ENDBLK
  5
1D
100
AcDbEntity
  8
0
100
AcDbBlockEnd
  0
BLOCK
  5
223
100
AcDbEntity
  8
0
100
AcDbBlockBegin
  2
_FILLED
 70
64
 10
0.0
 20
0.0
  3
_FILLED
  1

  0
SOLID
  5
224
100
AcDbEntity
  8
0
  6
BYBLOCK
 62
0
100
AcDbTrace
 10
0.0
 20
0.0
 11
-1.0
 21
0.3166666667
 12
-1.0
 22
-0.3166666667
 13
-1.0
 23
-0.3166666667
  0
ENDBLK
  5
225
100
AcDbEntity
  8
0
  6
BYBLOCK
 62
0
100
AcDbBlockEnd
  0
BLOCK
  5
226
100
AcDbEntity
  8
0
100
AcDbBlockBegin
 62
7
  6
CONTINUOUS
  2
*D0
 70
65
 10
0.0
 20
0.0
  3
*D0
  1

  0
MTEXT
  5
227
100
AcDbEntity
  8
0
100
AcDbMText
 62
7
  6
CONTINUOUS
  7
STANDARD
 71
2
 72
1
 10
10.2540734077
 20
22.8279950805
 30
0.0
 11
1.0
 21
0.0
 31
0.0
 44
0.9
  1
22,3
 40
3.0
 41
8.5714285714
  0
LINE
  5
228
100
AcDbEntity
  8
0
100
AcDbLine
 62
7
  6
CONTINUOUS
 10
21.4040734077
 20
11.3278217018
 11
21.4040734077
 21
20.5779950805
  0
LINE
  5
229
100
AcDbEntity
  8
0
100
AcDbLine
 62
7
  6
CONTINUOUS
 10
-0.8959265923
 20
11.3278217018
 11
-0.8959265923
 21
20.5779950805
  0
LINE
  5
22A
100
AcDbEntity
  8
0
100
AcDbLine
 62
7
  6
CONTINUOUS
 10
21.4040734077
 20
19.0779950805
 11
10.2540734077
 21
19.0779950805
  0
LINE
  5
22B
100
AcDbEntity
  8
0
100
AcDbLine
 62
7
  6
CONTINUOUS
 10
-0.8959265923
 20
19.0779950805
 11
10.2540734077
 21
19.0779950805
  0
INSERT
  5
22C
100
AcDbEntity
  8
0
100
AcDbBlockReference
 62
7
  6
CONTINUOUS
  2
_FILLED
 10
21.4040734077
 20
19.0779950805
 41
3.0
 42
3.0
 43
3.0
  0
INSERT
  5
22D
100
AcDbEntity
  8
0
100
AcDbBlockReference
 62
7
  6
CONTINUOUS
  2
_FILLED
 10
-0.8959265923
 20
19.0779950805
 41
3.0
 42
3.0
 43
3.0
 50
180.0
  0
ENDBLK
  5
22E
100
AcDbEntity
  8
0
  6
BYBLOCK
 62
0
100
AcDbBlockEnd
  0
BLOCK
  5
22F
100
AcDbEntity
  8
0
100
AcDbBlockBegin
 62
7
  6
CONTINUOUS
  2
*D1
 70
65
 10
0.0
 20
0.0
  3
*D1
  1

  0
MTEXT
  5
230
100
AcDbEntity
  8
0
100
AcDbMText
 62
7
  6
CONTINUOUS
  7
STANDARD
 71
2
 72
1
 10
25.6540734077
 20
0.0236361103
 30
0.0
 11
0.0
 21
1.0
 31
0.0
 44
0.9
  1
22,1
 40
3.0
 41
8.1428571429
  0
LINE
  5
231
100
AcDbEntity
  8
0
100
AcDbLine
 62
7
  6
CONTINUOUS
 10
21.6539972059
 20
11.0777550805
 11
30.9040734077
 21
11.0777550805
  0
LINE
  5
232
100
AcDbEntity
  8
0
100
AcDbLine
 62
7
  6
CONTINUOUS
 10
21.3768552129
 20
-11.03048286
 11
30.9040734077
 21
-11.03048286
  0
LINE
  5
233
100
AcDbEntity
  8
0
100
AcDbLine
 62
7
  6
CONTINUOUS
 10
29.4040734077
 20
11.0777550805
 11
29.4040734077
 21
0.0236361103
  0
LINE
  5
234
100
AcDbEntity
  8
0
100
AcDbLine
 62
7
  6
CONTINUOUS
 10
29.4040734077
 20
-11.03048286
 11
29.4040734077
 21
0.0236361103
  0
INSERT
  5
235
100
AcDbEntity
  8
0
100
AcDbBlockReference
 62
7
  6
CONTINUOUS
  2
_FILLED
 10
29.4040734077
 20
11.0777550805
 41
3.0
 42
3.0
 43
3.0
 50
90.0
  0
INSERT
  5
236
100
AcDbEntity
  8
0
100
AcDbBlockReference
 62
7
  6
CONTINUOUS
  2
_FILLED
 10
29.4040734077
 20
-11.03048286
 41
3.0
 42
3.0
 43
3.0
 50
270.0
  0
ENDBLK
  5
237
100
AcDbEntity
  8
0
  6
BYBLOCK
 62
0
100
AcDbBlockEnd
  0
BLOCK
  5
238
100
AcDbEntity
  8
0
100
AcDbBlockBegin
 62
7
  6
CONTINUOUS
  2
*D2
 70
65
 10
0.0
 20
0.0
  3
*D2
  1

  0
MTEXT
  5
239
100
AcDbEntity
  8
0
100
AcDbMText
 62
7
  6
CONTINUOUS
  7
STANDARD
 71
2
 72
1
 10
-13.7808964391
 20
22.8279950805
 30
0.0
 11
1.0
 21
0.0
 31
0.0
 44
0.9
  1
5,7
 40
3.0
 41
6.2142857143
  0
LINE
  5
23A
100
AcDbEntity
  8
0
100
AcDbLine
 62
7
  6
CONTINUOUS
 10
-10.930975549
 20
11.3278217018
 11
-10.930975549
 21
20.5779950805
  0
LINE
  5
23B
100
AcDbEntity
  8
0
100
AcDbLine
 62
7
  6
CONTINUOUS
 10
-16.6308173292
 20
11.2799866273
 11
-16.6308173292
 21
20.5779950805
  0
LINE
  5
23C
100
AcDbEntity
  8
0
100
AcDbLine
 62
7
  6
CONTINUOUS
 10
-10.930975549
 20
19.0779950805
 11
-6.930975549
 21
19.0779950805
  0
LINE
  5
23D
100
AcDbEntity
  8
0
100
AcDbLine
 62
7
  6
CONTINUOUS
 10
-6.930975549
 20
19.0779950805
 11
-13.7808964391
 21
19.0779950805
  0
LINE
  5
23E
100
AcDbEntity
  8
0
100
AcDbLine
 62
7
  6
CONTINUOUS
 10
-16.6308173292
 20
19.0779950805
 11
-20.6308173292
 21
19.0779950805
  0
LINE
  5
23F
100
AcDbEntity
  8
0
100
AcDbLine
 62
7
  6
CONTINUOUS
 10
-20.6308173292
 20
19.0779950805
 11
-13.7808964391
 21
19.0779950805
  0
INSERT
  5
240
100
AcDbEntity
  8
0
100
AcDbBlockReference
 62
7
  6
CONTINUOUS
  2
_FILLED
 10
-10.930975549
 20
19.0779950805
 41
3.0
 42
3.0
 43
3.0
 50
180.0
  0
INSERT
  5
241
100
AcDbEntity
  8
0
100
AcDbBlockReference
 62
7
  6
CONTINUOUS
  2
_FILLED
 10
-16.6308173292
 20
19.0779950805
 41
3.0
 42
3.0
 43
3.0
  0
ENDBLK
  5
242
100
AcDbEntity
  8
0
  6
BYBLOCK
 62
0
100
AcDbBlockEnd
  0
ENDSEC
  0
SECTION
  2
ENTITIES
  0
DIMENSION
  5
243
100
AcDbEntity
  8
0
100
AcDbDimension
 62
7
  6
CONTINUOUS
  2
*D0
 10
-0.8959265923
 20
19.0779950805
 11
5.968359122
 21
21.3279950805
 70
160
 71
2
 42
22.3
  3
DIMSTYLE_1
100
AcDbAlignedDimension
 13
21.4040734077
 23
11.3278217018
 14
-0.8959265923
 24
11.3278217018
 50
180.0
100
AcDbRotatedDimension
  0
DIMENSION
  5
244
100
AcDbEntity
  8
0
100
AcDbDimension
 62
7
  6
CONTINUOUS
  2
*D1
 10
29.4040734077
 20
-11.03048286
 11
28.9783731305
 21
-3.6162074487
 70
160
 71
2
 42
22.1082379406
  3
DIMSTYLE_2
100
AcDbAlignedDimension
 13
21.6539972059
 23
11.0777550805
 14
21.3768552129
 24
-11.03048286
 50
270.0
100
AcDbRotatedDimension
  0
DIMENSION
  5
245
100
AcDbEntity
  8
0
100
AcDbDimension
 62
7
  6
CONTINUOUS
  2
*D2
 10
-16.6308173292
 20
19.0779950805
 11
-16.8880392963
 21
21.3279950805
 70
160
 71
2
 42
5.6998417802
  3
DIMSTYLE_1
100
AcDbAlignedDimension
 13
-10.930975549
 23
11.3278217018
 14
-16.6308173292
 24
11.2799866273
 50
180.0
100
AcDbRotatedDimension
  0
LINE
  5
246
100
AcDbEntity
  8
0
100
AcDbLine
 62
7
  6
CONTINUOUS
 10
-0.869619283
 20
-10.5329922272
 11
-0.8959265923
 21
-1.9222449195
  0
LINE
  5
247
100
AcDbEntity
  8
ASSI
100
AcDbLine
 62
7
  6
CONTINUOUS
 10
-0.869619283
 20
-10.5329922272
 11
-0.8959265923
 21
-1.9222449195
  0
LINE
  5
248
100
AcDbEntity
  8
RACCORDO
100
AcDbLine
 62
7
  6
CONTINUOUS
 10
-0.8959265923
 20
10.8278217018
 11
-0.8959265923
 21
-1.9222449195
  0
LINE
  5
249
100
AcDbEntity
  8
ASSI
100
AcDbLine
 62
7
  6
CONTINUOUS
 10
-0.8959265923
 20
10.8278217018
 11
-0.8959265923
 21
-1.9222449195
  0
LINE
  5
24A
100
AcDbEntity
  8
RACCORDO
100
AcDbLine
 62
253
  6
CONTINUOUS
 10
-0.2140393385
 20
10.7799866271
 11
-0.2140393385
 21
11.0301759923
  0
LINE
  5
24B
100
AcDbEntity
  8
ASSI
100
AcDbLine
 62
253
  6
CONTINUOUS
 10
-0.2171825509
 20
1.6777550805
 11
-0.2140393385
 21
11.0301759923
  0
LINE
  5
24C
100
AcDbEntity
  8
RACCORDO
100
AcDbLine
 62
7
  6
CONTINUOUS
 10
13.6481197068
 20
-11.03048286
 11
13.9963383807
 21
-10.9988740285
  0
LINE
  5
24D
100
AcDbEntity
  8
ASSI
100
AcDbLine
 62
7
  6
CONTINUOUS
 10
13.6481197068
 20
-11.03048286
 11
13.9963383807
 21
-10.9988740285
  0
LINE
  5
24E
100
AcDbEntity
  8
0
100
AcDbLine
 62
7
  6
CONTINUOUS
 10
20.8768552129
 20
-11.03048286
 11
18.0600271086
 21
-11.03048286
  0
LINE
  5
24F
100
AcDbEntity
  8
ASSI
100
AcDbLine
 62
7
  6
CONTINUOUS
 10
20.8768552129
 20
-11.03048286
 11
18.0600271086
 21
-11.03048286
  0
LINE
  5
250
100
AcDbEntity
  8
DRAFT
100
AcDbLine
 62
7
  6
CONTINUOUS
 10
13.6481197068
 20
-11.03048286
 11
6.8600271086
 21
-11.03048286
  0
LINE
  5
251
100
AcDbEntity
  8
ASSI
100
AcDbLine
 62
7
  6
CONTINUOUS
 10
13.6481197068
 20
-11.03048286
 11
6.8600271086
 21
-11.03048286
  0
LINE
  5
252
100
AcDbEntity
  8
0
100
AcDbLine
 62
7
  6
CONTINUOUS
 10
2.4481197068
 20
-11.03048286
 11
-0.3687083976
 21
-11.03048286
  0
LINE
  5
253
100
AcDbEntity
  8
ASSI
100
AcDbLine
 62
7
  6
CONTINUOUS
 10
2.4481197068
 20
-11.03048286
 11
-0.3687083976
 21
-11.03048286
  0
LINE
  5
254
100
AcDbEntity
  8
RACCORDO
100
AcDbLine
 62
7
  6
CONTINUOUS
 10
2.9695434615
 20
-10.9936332505
 11
6.3386033538
 21
-10.9936332505
  0
LINE
  5
255
100
AcDbEntity
  8
ASSI
100
AcDbLine
 62
7
  6
CONTINUOUS
 10
2.9695434615
 20
-10.9936332505
 11
6.3386033538
 21
-10.9936332505
  0
LINE
  5
256
100
AcDbEntity
  8
RACCORDO
100
AcDbLine
 62
7
  6
CONTINUOUS
 10
14.1695434615
 20
-10.9936332505
 11
17.5386033538
 21
-10.9936332505
  0
LINE
  5
257
100
AcDbEntity
  8
ASSI
100
AcDbLine
 62
7
  6
CONTINUOUS
 10
14.1695434615
 20
-10.9936332505
 11
17.5386033538
 21
-10.9936332505
  0
LINE
  5
258
100
AcDbEntity
  8
0
100
AcDbLine
 62
253
  6
CONTINUOUS
 10
-0.2678968604
 20
-10.8791886914
 11
20.7760436758
 21
-10.8791886914
  0
LINE
  5
259
100
AcDbEntity
  8
ASSI
100
AcDbLine
 62
253
  6
CONTINUOUS
 10
-0.2678968604
 20
-10.8791886914
 11
20.7760436758
 21
-10.8791886914
  0
LINE
  5
25A
100
AcDbEntity
  8
RACCORDO
100
AcDbLine
 62
7
  6
CONTINUOUS
 10
6.8600271086
 20
-11.03048286
 11
6.5118084346
 21
-10.9988740285
  0
LINE
  5
25B
100
AcDbEntity
  8
ASSI
100
AcDbLine
 62
7
  6
CONTINUOUS
 10
6.8600271086
 20
-11.03048286
 11
6.5118084346
 21
-10.9988740285
  0
LINE
  5
25C
100
AcDbEntity
  8
RACCORDO
100
AcDbLine
 62
7
  6
CONTINUOUS
 10
2.4481197068
 20
-11.03048286
 11
2.7963383807
 21
-10.9988740285
  0
LINE
  5
25D
100
AcDbEntity
  8
ASSI
100
AcDbLine
 62
7
  6
CONTINUOUS
 10
2.4481197068
 20
-11.03048286
 11
2.7963383807
 21
-10.9988740285
  0
LINE
  5
25E
100
AcDbEntity
  8
0
100
AcDbLine
 62
253
  6
CONTINUOUS
 10
-0.2515454047
 20
-10.0296413391
 11
20.7596922201
 21
-10.0296413391
  0
LINE
  5
25F
100
AcDbEntity
  8
ASSI
100
AcDbLine
 62
253
  6
CONTINUOUS
 10
-0.2515454047
 20
-10.0296413391
 11
20.7596922201
 21
-10.0296413391
  0
LINE
  5
260
100
AcDbEntity
  8
RACCORDO
100
AcDbLine
 62
7
  6
CONTINUOUS
 10
18.0600271086
 20
-11.03048286
 11
17.7118084346
 21
-10.9988740285
  0
LINE
  5
261
100
AcDbEntity
  8
ASSI
100
AcDbLine
 62
7
  6
CONTINUOUS
 10
18.0600271086
 20
-11.03048286
 11
17.7118084346
 21
-10.9988740285
  0
LINE
  5
262
100
AcDbEntity
  8
0
100
AcDbLine
 62
253
  6
CONTINUOUS
 10
-0.869619283
 20
-10.5329922272
 11
-0.7675922739
 21
-10.379873924
  0
LINE
  5
263
100
AcDbEntity
  8
ASSI
100
AcDbLine
 62
253
  6
CONTINUOUS
 10
-0.869619283
 20
-10.5329922272
 11
-0.7675922739
 21
-10.379873924
  0
LINE
  5
264
100
AcDbEntity
  8
0
100
AcDbLine
 62
253
  6
CONTINUOUS
 10
-0.3687083976
 20
-11.03048286
 11
-0.2678968604
 21
-10.8791886914
  0
LINE
  5
265
100
AcDbEntity
  8
ASSI
100
AcDbLine
 62
253
  6
CONTINUOUS
 10
-0.3687083976
 20
-11.03048286
 11
-0.2678968604
 21
-10.8791886914
  0
LINE
  5
266
100
AcDbEntity
  8
CURVE
100
AcDbLine
 62
253
  6
CONTINUOUS
 10
10.1126520514
 20
-3.9364584818
 11
6.8626520514
 21
-0.6864584818
  0
LINE
  5
267
100
AcDbEntity
  8
CURVE
100
AcDbLine
 62
253
  6
CONTINUOUS
 10
7.1454947639
 20
-0.4036157694
 11
10.2540734077
 21
-3.5121944131
  0
LINE
  5
268
100
AcDbEntity
  8
CURVE
100
AcDbLine
 62
253
  6
CONTINUOUS
 10
10.1126520514
 20
-2.6636662757
 11
7.1126520514
 21
0.3363337243
  0
LINE
  5
269
100
AcDbEntity
  8
CURVE
100
AcDbLine
 62
253
  6
CONTINUOUS
 10
10.2540734077
 20
-2.239402207
 11
7.7369161201
 21
0.2777550805
  0
LINE
  5
26A
100
AcDbEntity
  8
CURVE
100
AcDbLine
 62
253
  6
CONTINUOUS
 10
7.7369161201
 20
0.2777550805
 11
12.7712306952
 21
0.2777550805
  0
LINE
  5
26B
100
AcDbEntity
  8
CURVE
100
AcDbLine
 62
253
  6
CONTINUOUS
 10
7.2540734077
 20
0.6777550805
 11
13.2540734077
 21
0.6777550805
  0
LINE
  5
26C
100
AcDbEntity
  8
CURVE
100
AcDbLine
 62
253
  6
CONTINUOUS
 10
12.7712306952
 20
0.2777550805
 11
10.2540734077
 21
-2.239402207
  0
LINE
  5
26D
100
AcDbEntity
  8
CURVE
100
AcDbLine
 62
253
  6
CONTINUOUS
 10
13.3954947639
 20
0.3363337243
 11
10.3954947639
 21
-2.6636662757
  0
LINE
  5
26E
100
AcDbEntity
  8
0
100
AcDbLine
 62
253
  6
CONTINUOUS
 10
20.7253293662
 20
1.6777550805
 11
-0.2171825509
 21
1.6777550805
  0
LINE
  5
26F
100
AcDbEntity
  8
ASSI
100
AcDbLine
 62
253
  6
CONTINUOUS
 10
20.7253293662
 20
1.6777550805
 11
-0.2171825509
 21
1.6777550805
  0
LINE
  5
270
100
AcDbEntity
  8
CURVE
100
AcDbLine
 62
253
  6
CONTINUOUS
 10
10.2540734077
 20
-3.5121944131
 11
13.3626520514
 21
-0.4036157694
  0
LINE
  5
271
100
AcDbEntity
  8
CURVE
100
AcDbLine
 62
253
  6
CONTINUOUS
 10
13.6454947639
 20
-0.6864584818
 11
10.3954947639
 21
-3.9364584818
  0
LINE
  5
272
100
AcDbEntity
  8
0
100
AcDbLine
 62
253
  6
CONTINUOUS
 10
20.7760436758
 20
-10.8791886914
 11
20.8768552129
 21
-11.03048286
  0
LINE
  5
273
100
AcDbEntity
  8
ASSI
100
AcDbLine
 62
253
  6
CONTINUOUS
 10
20.7760436758
 20
-10.8791886914
 11
20.8768552129
 21
-11.03048286
  0
LINE
  5
274
100
AcDbEntity
  8
0
100
AcDbLine
 62
253
  6
CONTINUOUS
 10
21.2757390893
 20
-10.379873924
 11
21.3777660983
 21
-10.5329922272
  0
LINE
  5
275
100
AcDbEntity
  8
ASSI
100
AcDbLine
 62
253
  6
CONTINUOUS
 10
21.2757390893
 20
-10.379873924
 11
21.3777660983
 21
-10.5329922272
  0
LINE
  5
276
100
AcDbEntity
  8
0
100
AcDbLine
 62
7
  6
CONTINUOUS
 10
14.4059719512
 20
5.5777550805
 11
6.1021748641
 21
5.5777550805
  0
LINE
  5
277
100
AcDbEntity
  8
RACCORDO
100
AcDbLine
 62
7
  6
CONTINUOUS
 10
14.4059719512
 20
5.5777550805
 11
6.1021748641
 21
5.5777550805
  0
LINE
  5
278
100
AcDbEntity
  8
ASSI
100
AcDbLine
 62
7
  6
CONTINUOUS
 10
14.4059719512
 20
5.5777550805
 11
6.1021748641
 21
5.5777550805
  0
LINE
  5
279
100
AcDbEntity
  8
RACCORDO
100
AcDbLine
 62
253
  6
CONTINUOUS
 10
21.4040734077
 20
10.8278217018
 11
21.2218815814
 21
10.7822910905
  0
LINE
  5
27A
100
AcDbEntity
  8
ASSI
100
AcDbLine
 62
253
  6
CONTINUOUS
 10
21.4040734077
 20
10.8278217018
 11
21.2218815814
 21
10.7822910905
  0
LINE
  5
27B
100
AcDbEntity
  8
RACCORDO
100
AcDbLine
 62
253
  6
CONTINUOUS
 10
21.1539972059
 20
11.0777550805
 11
20.9720338077
 21
11.0322815546
  0
LINE
  5
27C
100
AcDbEntity
  8
ASSI
100
AcDbLine
 62
253
  6
CONTINUOUS
 10
21.1539972059
 20
11.0777550805
 11
20.9720338077
 21
11.0322815546
  0
LINE
  5
27D
100
AcDbEntity
  8
0
100
AcDbLine
 62
7
  6
CONTINUOUS
 10
14.4053444784
 20
7.7777550805
 11
6.1028023369
 21
7.7777550805
  0
LINE
  5
27E
100
AcDbEntity
  8
RACCORDO
100
AcDbLine
 62
7
  6
CONTINUOUS
 10
14.4053444784
 20
7.7777550805
 11
6.1028023369
 21
7.7777550805
  0
LINE
  5
27F
100
AcDbEntity
  8
ASSI
100
AcDbLine
 62
7
  6
CONTINUOUS
 10
14.4053444784
 20
7.7777550805
 11
6.1028023369
 21
7.7777550805
  0
LINE
  5
280
100
AcDbEntity
  8
RACCORDO
100
AcDbLine
 62
253
  6
CONTINUOUS
 10
-0.7137347661
 20
10.7822910905
 11
-0.8959265923
 21
10.8278217018
  0
LINE
  5
281
100
AcDbEntity
  8
ASSI
100
AcDbLine
 62
253
  6
CONTINUOUS
 10
-0.7137347661
 20
10.7822910905
 11
-0.8959265923
 21
10.8278217018
  0
LINE
  5
282
100
AcDbEntity
  8
RACCORDO
100
AcDbLine
 62
253
  6
CONTINUOUS
 10
-0.4638869924
 20
11.0322815546
 11
-0.6458503906
 21
11.0777550805
  0
LINE
  5
283
100
AcDbEntity
  8
ASSI
100
AcDbLine
 62
253
  6
CONTINUOUS
 10
-0.4638869924
 20
11.0322815546
 11
-0.6458503906
 21
11.0777550805
  0
LINE
  5
284
100
AcDbEntity
  8
RACCORDO
100
AcDbLine
 62
253
  6
CONTINUOUS
 10
20.7221861538
 20
10.7799866271
 11
20.7221861538
 21
11.0301759923
  0
LINE
  5
285
100
AcDbEntity
  8
ASSI
100
AcDbLine
 62
253
  6
CONTINUOUS
 10
20.7253293662
 20
1.6777550805
 11
20.7221861538
 21
11.0301759923
  0
LINE
  5
286
100
AcDbEntity
  8
DRAFT
100
AcDbLine
 62
7
  6
CONTINUOUS
 10
18.7665393982
 20
11.0777550805
 11
18.5040734077
 21
11.0515744772
  0
LINE
  5
287
100
AcDbEntity
  8
ASSI
100
AcDbLine
 62
7
  6
CONTINUOUS
 10
18.7665393982
 20
11.0777550805
 11
18.5040734077
 21
11.0515744772
  0
LINE
  5
288
100
AcDbEntity
  8
DRAFT
100
AcDbLine
 62
7
  6
CONTINUOUS
 10
1.7416074171
 20
11.0777550805
 11
2.0040734077
 21
11.0515744772
  0
LINE
  5
289
100
AcDbEntity
  8
ASSI
100
AcDbLine
 62
7
  6
CONTINUOUS
 10
1.7416074171
 20
11.0777550805
 11
2.0040734077
 21
11.0515744772
  0
LINE
  5
28A
100
AcDbEntity
  8
RACCORDO
100
AcDbLine
 62
7
  6
CONTINUOUS
 10
21.4040734077
 20
10.8278217018
 11
21.4040734077
 21
-1.9222449195
  0
LINE
  5
28B
100
AcDbEntity
  8
ASSI
100
AcDbLine
 62
7
  6
CONTINUOUS
 10
21.4040734077
 20
10.8278217018
 11
21.4040734077
 21
-1.9222449195
  0
LINE
  5
28C
100
AcDbEntity
  8
0
100
AcDbLine
 62
7
  6
CONTINUOUS
 10
21.3777660983
 20
-10.5329922272
 11
21.4040734077
 21
-1.9222449195
  0
LINE
  5
28D
100
AcDbEntity
  8
ASSI
100
AcDbLine
 62
7
  6
CONTINUOUS
 10
21.3777660983
 20
-10.5329922272
 11
21.4040734077
 21
-1.9222449195
  0
LINE
  5
28E
100
AcDbEntity
  8
RACCORDO
100
AcDbLine
 62
253
  6
CONTINUOUS
 10
20.7221843234
 20
10.7799866271
 11
-0.2140375081
 21
10.7799866271
  0
LINE
  5
28F
100
AcDbEntity
  8
ASSI
100
AcDbLine
 62
253
  6
CONTINUOUS
 10
20.7221843234
 20
10.7799866271
 11
-0.2140375081
 21
10.7799866271
  0
LINE
  5
290
100
AcDbEntity
  8
RACCORDO
100
AcDbLine
 62
253
  6
CONTINUOUS
 10
20.7221861538
 20
11.0301759923
 11
-0.2140393385
 21
11.0301759923
  0
LINE
  5
291
100
AcDbEntity
  8
ASSI
100
AcDbLine
 62
7
  6
CONTINUOUS
 10
20.7221861538
 20
11.0301759923
 11
-0.2140393385
 21
11.0301759923
  0
LINE
  5
292
100
AcDbEntity
  8
DRAFT
100
AcDbLine
 62
7
  6
CONTINUOUS
 10
18.5040734077
 20
11.0515744772
 11
2.0040734077
 21
11.0515744772
  0
LINE
  5
293
100
AcDbEntity
  8
ASSI
100
AcDbLine
 62
7
  6
CONTINUOUS
 10
18.5040734077
 20
11.0515744772
 11
2.0040734077
 21
11.0515744772
  0
LINE
  5
294
100
AcDbEntity
  8
RACCORDO
100
AcDbLine
 62
7
  6
CONTINUOUS
 10
21.1539972059
 20
11.0777550805
 11
18.7665393982
 21
11.0777550805
  0
LINE
  5
295
100
AcDbEntity
  8
ASSI
100
AcDbLine
 62
7
  6
CONTINUOUS
 10
21.1539972059
 20
11.0777550805
 11
18.7665393982
 21
11.0777550805
  0
LINE
  5
296
100
AcDbEntity
  8
RACCORDO
100
AcDbLine
 62
7
  6
CONTINUOUS
 10
1.7416074171
 20
11.0777550805
 11
-0.6458503906
 21
11.0777550805
  0
LINE
  5
297
100
AcDbEntity
  8
ASSI
100
AcDbLine
 62
7
  6
CONTINUOUS
 10
1.7416074171
 20
11.0777550805
 11
-0.6458503906
 21
11.0777550805
  0
LINE
  5
298
100
AcDbEntity
  8
0
100
AcDbLine
 62
7
  6
CONTINUOUS
 10
-14.6147078254
 20
-10.8791886914
 11
-11.7278431135
 21
-11.03048286
  0
LINE
  5
299
100
AcDbEntity
  8
ASSI
100
AcDbLine
 62
7
  6
CONTINUOUS
 10
-14.6147078254
 20
-10.8791886914
 11
-11.7278431135
 21
-11.03048286
  0
LINE
  5
29A
100
AcDbEntity
  8
0
100
AcDbLine
 62
253
  6
CONTINUOUS
 10
-14.6059895957
 20
-10.379873924
 11
-11.6843183229
 21
-10.5329922272
  0
LINE
  5
29B
100
AcDbEntity
  8
ASSI
100
AcDbLine
 62
253
  6
CONTINUOUS
 10
-14.6059895957
 20
-10.379873924
 11
-11.6843183229
 21
-10.5329922272
  0
LINE
  5
29C
100
AcDbEntity
  8
RACCORDO
100
AcDbLine
 62
253
  6
CONTINUOUS
 10
-11.3538512694
 20
-6.7557365207
 11
-11.330975549
 21
-6.7557365207
  0
LINE
  5
29D
100
AcDbEntity
  8
ASSI
100
AcDbLine
 62
253
  6
CONTINUOUS
 10
-11.3538512694
 20
-6.7557365207
 11
-11.330975549
 21
-6.7557365207
  0
LINE
  5
29E
100
AcDbEntity
  8
CURVE
100
AcDbLine
 62
253
  6
CONTINUOUS
 10
-16.2584459954
 20
-3.9364584818
 11
-16.2536437363
 21
-3.9950371256
  0
LINE
  5
29F
100
AcDbEntity
  8
CURVE
100
AcDbLine
 62
253
  6
CONTINUOUS
 10
-16.255280054
 20
-3.975129748
 11
-16.2584459954
 21
-3.9364584818
  0
LINE
  5
2A0
100
AcDbEntity
  8
CURVE
100
AcDbLine
 62
253
  6
CONTINUOUS
 10
-16.3532906288
 20
-2.6636662757
 11
-16.3493237888
 21
-2.7222449195
  0
LINE
  5
2A1
100
AcDbEntity
  8
CURVE
100
AcDbLine
 62
253
  6
CONTINUOUS
 10
-16.479520559
 20
-0.3450455115
 11
-16.4730232791
 21
-0.498407333
  0
LINE
  5
2A2
100
AcDbEntity
  8
RACCORDO
100
AcDbLine
 62
7
  6
CONTINUOUS
 10
-11.330975549
 20
-6.7557347283
 11
-11.330975549
 21
-6.4942658406
  0
LINE
  5
2A3
100
AcDbEntity
  8
ASSI
100
AcDbLine
 62
7
  6
CONTINUOUS
 10
-11.330975549
 20
-6.7557347283
 11
-11.330975549
 21
-6.4942658406
  0
LINE
  5
2A4
100
AcDbEntity
  8
RACCORDO
100
AcDbLine
 62
7
  6
CONTINUOUS
 10
-10.930975549
 20
11.0777550805
 11
-10.930975549
 21
-1.9222449195
  0
LINE
  5
2A5
100
AcDbEntity
  8
ASSI
100
AcDbLine
 62
7
  6
CONTINUOUS
 10
-10.930975549
 20
11.0777550805
 11
-10.930975549
 21
-1.9222449195
  0
LINE
  5
2A6
100
AcDbEntity
  8
0
100
AcDbLine
 62
253
  6
CONTINUOUS
 10
-16.058257409
 20
1.6872550805
 11
-16.5407174024
 21
1.6777550805
  0
LINE
  5
2A7
100
AcDbEntity
  8
ASSI
100
AcDbLine
 62
253
  6
CONTINUOUS
 10
-16.058257409
 20
1.6872550805
 11
-16.5407174024
 21
1.6777550805
  0
LINE
  5
2A8
100
AcDbEntity
  8
0
100
AcDbLine
 62
7
  6
CONTINUOUS
 10
-11.7278431135
 20
-11.03048286
 11
-10.930975549
 21
-1.9222449195
  0
LINE
  5
2A9
100
AcDbEntity
  8
ASSI
100
AcDbLine
 62
7
  6
CONTINUOUS
 10
-11.7278431135
 20
-11.03048286
 11
-10.930975549
 21
-1.9222449195
  0
LINE
  5
2AA
100
AcDbEntity
  8
RACCORDO
100
AcDbLine
 62
253
  6
CONTINUOUS
 10
-10.930975549
 20
10.8278217018
 11
-16.1482668319
 21
10.7822910905
  0
LINE
  5
2AB
100
AcDbEntity
  8
ASSI
100
AcDbLine
 62
253
  6
CONTINUOUS
 10
-10.930975549
 20
10.8278217018
 11
-16.1482668319
 21
10.7822910905
  0
LINE
  5
2AC
100
AcDbEntity
  8
RACCORDO
100
AcDbLine
 62
7
  6
CONTINUOUS
 10
-10.930975549
 20
11.0777550805
 11
-16.382999042
 21
11.0301759923
  0
LINE
  5
2AD
100
AcDbEntity
  8
ASSI
100
AcDbLine
 62
7
  6
CONTINUOUS
 10
-10.930975549
 20
11.0777550805
 11
-16.382999042
 21
11.0301759923
  0
ARC
  5
2AE
100
AcDbEntity
  8
0
100
AcDbCircle
 62
253
  6
CONTINUOUS
 10
-2563.1724745204
 20
3.3421738616
 40
2562.9558253747
100
AcDbArc
 50
359.7010670072
 51
359.9627913298
  0
ARC
  5
2AF
100
AcDbEntity
  8
ASSI
100
AcDbCircle
 62
253
  6
CONTINUOUS
 10
-2563.1724745204
 20
3.3421738616
 40
2562.9558253747
100
AcDbArc
 50
359.7010670072
 51
359.9627913298
  0
ARC
  5
2B0
100
AcDbEntity
  8
0
100
AcDbCircle
 62
253
  6
CONTINUOUS
 10
2580.5386192629
 20
3.3329549083
 40
2559.8138131214
100
AcDbArc
 50
180.0370479955
 51
180.2990935685
  0
ARC
  5
2B1
100
AcDbEntity
  8
ASSI
100
AcDbCircle
 62
253
  6
CONTINUOUS
 10
2580.5386192629
 20
3.3329549083
 40
2559.8138131214
100
AcDbArc
 50
180.0370479955
 51
180.2990935685
  0
ARC
  5
2B2
100
AcDbEntity
  8
0
100
AcDbCircle
 62
253
  6
CONTINUOUS
 10
-2535.2743707012
 20
3.3424277056
 40
2534.5580261424
100
AcDbArc
 50
359.6993970068
 51
359.9625834519
  0
ARC
  5
2B3
100
AcDbEntity
  8
ASSI
100
AcDbCircle
 62
253
  6
CONTINUOUS
 10
-2535.2743707012
 20
3.3424277056
 40
2534.5580261424
100
AcDbArc
 50
359.6993970068
 51
359.9625834519
  0
ARC
  5
2B4
100
AcDbEntity
  8
0
100
AcDbCircle
 62
253
  6
CONTINUOUS
 10
2552.6753714183
 20
3.3332600921
 40
2531.4508698639
100
AcDbArc
 50
180.037254978
 51
180.3007644637
  0
ARC
  5
2B5
100
AcDbEntity
  8
ASSI
100
AcDbCircle
 62
253
  6
CONTINUOUS
 10
2552.6753714183
 20
3.3332600921
 40
2531.4508698639
100
AcDbArc
 50
180.037254978
 51
180.3007644637
  0
ARC
  5
2B6
100
AcDbEntity
  8
0
100
AcDbCircle
 62
7
  6
CONTINUOUS
 10
14.4020129431
 20
5.9762488791
 40
0.4020604646
100
AcDbArc
 50
356.6792916761
 51
359.9997135529
  0
ARC
  5
2B7
100
AcDbEntity
  8
0
100
AcDbCircle
 62
7
  6
CONTINUOUS
 10
6.1061338716
 20
5.9762488792
 40
0.4020604639
100
AcDbArc
 50
180.0002864503
 51
183.320685082
  0
ARC
  5
2B8
100
AcDbEntity
  8
0
100
AcDbCircle
 62
7
  6
CONTINUOUS
 10
14.4053419725
 20
7.3761552794
 40
0.4015998011
100
AcDbArc
 50
86.677796853
 51
89.9996424861
  0
ARC
  5
2B9
100
AcDbEntity
  8
0
100
AcDbCircle
 62
7
  6
CONTINUOUS
 10
6.1028048429
 20
7.3761552805
 40
0.4015998001
100
AcDbArc
 50
90.0003575169
 51
93.3221812304
  0
ARC
  5
2BA
100
AcDbEntity
  8
0
100
AcDbCircle
 62
7
  6
CONTINUOUS
 10
6.1021768931
 20
5.9786617029
 40
0.4009066223
100
AcDbArc
 50
266.6769864153
 51
269.9997100212
  0
ARC
  5
2BB
100
AcDbEntity
  8
0
100
AcDbCircle
 62
7
  6
CONTINUOUS
 10
14.4059699222
 20
5.9786617022
 40
0.4009066216
100
AcDbArc
 50
270.0002899832
 51
273.322992132
  0
ARC
  5
2BC
100
AcDbEntity
  8
0
100
AcDbCircle
 62
7
  6
CONTINUOUS
 10
6.10493607
 20
7.3792607272
 40
0.4008626624
100
AcDbArc
 50
176.6760851759
 51
179.9996299877
  0
ARC
  5
2BD
100
AcDbEntity
  8
0
100
AcDbCircle
 62
7
  6
CONTINUOUS
 10
14.4032107464
 20
7.3792607272
 40
0.4008626613
100
AcDbArc
 50
0.0003700158
 51
3.3238937694
  0
ARC
  5
2BE
100
AcDbEntity
  8
RACCORDO
100
AcDbCircle
 62
253
  6
CONTINUOUS
 10
20.971859957
 20
10.7822798239
 40
0.2500126443
100
AcDbArc
 50
0.0025780686
 51
89.9601566404
  0
ARC
  5
2BF
100
AcDbEntity
  8
ASSI
100
AcDbCircle
 62
253
  6
CONTINUOUS
 10
20.971859957
 20
10.7822798239
 40
0.2500126443
100
AcDbArc
 50
0.0025780686
 51
89.9601566404
  0
ARC
  5
2C0
100
AcDbEntity
  8
RACCORDO
100
AcDbCircle
 62
253
  6
CONTINUOUS
 10
-0.4637131586
 20
10.782279807
 40
0.2500126345
100
AcDbArc
 50
90.0398394728
 51
179.9974180604
  0
ARC
  5
2C1
100
AcDbEntity
  8
ASSI
100
AcDbCircle
 62
253
  6
CONTINUOUS
 10
-0.4637131586
 20
10.782279807
 40
0.2500126345
100
AcDbArc
 50
90.0398394728
 51
179.9974180604
  0
ARC
  5
2C2
100
AcDbEntity
  8
CURVE
100
AcDbCircle
 62
253
  6
CONTINUOUS
 10
7.0040734077
 20
-0.5450371256
 40
0.2
100
AcDbArc
 50
45.0
 51
225.0
  0
ARC
  5
2C3
100
AcDbEntity
  8
CURVE
100
AcDbCircle
 62
253
  6
CONTINUOUS
 10
10.2540734077
 20
-3.7950371256
 40
0.2
100
AcDbArc
 50
225.0
 51
315.0
  0
ARC
  5
2C4
100
AcDbEntity
  8
CURVE
100
AcDbCircle
 62
253
  6
CONTINUOUS
 10
13.5040734077
 20
-0.5450371256
 40
0.2
100
AcDbArc
 50
315.0
 51
135.0
  0
ARC
  5
2C5
100
AcDbEntity
  8
CURVE
100
AcDbCircle
 62
253
  6
CONTINUOUS
 10
13.2540734077
 20
0.4777550805
 40
0.2
100
AcDbArc
 50
315.0
 51
90.0
  0
ARC
  5
2C6
100
AcDbEntity
  8
CURVE
100
AcDbCircle
 62
253
  6
CONTINUOUS
 10
7.2540734077
 20
0.4777550805
 40
0.2
100
AcDbArc
 50
90.0
 51
225.0
  0
ARC
  5
2C7
100
AcDbEntity
  8
CURVE
100
AcDbCircle
 62
253
  6
CONTINUOUS
 10
10.2540734077
 20
-2.5222449195
 40
0.2
100
AcDbArc
 50
225.0
 51
315.0
  0
ARC
  5
2C8
100
AcDbEntity
  8
RACCORDO
100
AcDbCircle
 62
7
  6
CONTINUOUS
 10
483.369024451
 20
11.1777550805
 40
500.0
100
AcDbArc
 50
180.045580912
 51
181.08868532
  0
ARC
  5
2C9
100
AcDbEntity
  8
ASSI
100
AcDbCircle
 62
7
  6
CONTINUOUS
 10
483.369024451
 20
11.1777550805
 40
500.0
100
AcDbArc
 50
180.045580912
 51
181.08868532
  0
ARC
  5
2CA
100
AcDbEntity
  8
RACCORDO
100
AcDbCircle
 62
253
  6
CONTINUOUS
 10
483.3342395945
 20
11.1774890061
 40
499.482663021
100
AcDbArc
 50
180.0453332552
 51
181.0886925858
  0
ARC
  5
2CB
100
AcDbEntity
  8
ASSI
100
AcDbCircle
 62
253
  6
CONTINUOUS
 10
483.3342395945
 20
11.1774890061
 40
499.482663021
100
AcDbArc
 50
180.0453332552
 51
181.0886925858
  0
ARC
  5
2CC
100
AcDbEntity
  8
0
100
AcDbCircle
 62
7
  6
CONTINUOUS
 10
73.4430361311
 20
3.3877550805
 40
90.0
100
AcDbArc
 50
181.08868532
 51
188.5737414447
  0
ARC
  5
2CD
100
AcDbEntity
  8
ASSI
100
AcDbCircle
 62
7
  6
CONTINUOUS
 10
73.4430361311
 20
3.3877550805
 40
90.0
100
AcDbArc
 50
181.08868532
 51
188.5737414447
  0
ARC
  5
2CE
100
AcDbEntity
  8
CURVE
100
AcDbCircle
 62
253
  6
CONTINUOUS
 10
73.4400623494
 20
3.3876219201
 40
89.9970232386
100
AcDbArc
 50
182.4747703831
 51
182.5946126255
  0
ARC
  5
2CF
100
AcDbEntity
  8
CURVE
100
AcDbCircle
 62
253
  6
CONTINUOUS
 10
73.4353058701
 20
3.3874098473
 40
89.9922620348
100
AcDbArc
 50
182.4747701843
 51
182.5946148322
  0
ARC
  5
2D0
100
AcDbEntity
  8
0
100
AcDbCircle
 62
253
  6
CONTINUOUS
 10
73.4255863824
 20
3.3877550805
 40
89.4999999996
100
AcDbArc
 50
181.08868532
 51
188.5737414447
  0
ARC
  5
2D1
100
AcDbEntity
  8
ASSI
100
AcDbCircle
 62
253
  6
CONTINUOUS
 10
73.4255863824
 20
3.3877550805
 40
89.4999999996
100
AcDbArc
 50
181.08868532
 51
188.5737414447
  0
ARC
  5
2D2
100
AcDbEntity
  8
0
100
AcDbCircle
 62
7
  6
CONTINUOUS
 10
-14.5623718692
 20
-9.8805591566
 40
1.0
100
AcDbArc
 50
188.5737414447
 51
267.0
  0
ARC
  5
2D3
100
AcDbEntity
  8
ASSI
100
AcDbCircle
 62
7
  6
CONTINUOUS
 10
-14.5623718692
 20
-9.8805591566
 40
1.0
100
AcDbArc
 50
188.5737414447
 51
267.0
  0
ARC
  5
2D4
100
AcDbEntity
  8
0
100
AcDbCircle
 62
253
  6
CONTINUOUS
 10
-14.5798216171
 20
-9.8805591562
 40
0.5000000005
100
AcDbArc
 50
188.5737414877
 51
266.999999957
  0
ARC
  5
2D5
100
AcDbEntity
  8
ASSI
100
AcDbCircle
 62
253
  6
CONTINUOUS
 10
-14.5798216171
 20
-9.8805591562
 40
0.5000000005
100
AcDbArc
 50
188.5737414877
 51
266.999999957
  0
ARC
  5
2D6
100
AcDbEntity
  8
RACCORDO
100
AcDbCircle
 62
7
  6
CONTINUOUS
 10
-11.630975549
 20
-6.7557365207
 40
0.3
100
AcDbArc
 50
334.9997013218
 51
0.0003423163
  0
ARC
  5
2D7
100
AcDbEntity
  8
ASSI
100
AcDbCircle
 62
7
  6
CONTINUOUS
 10
-11.630975549
 20
-6.7557365207
 40
0.3
100
AcDbArc
 50
334.9997013218
 51
0.0003423163
  0
ARC
  5
2D8
100
AcDbEntity
  8
RACCORDO
100
AcDbCircle
 62
7
  6
CONTINUOUS
 10
-16.3808173941
 20
10.7801855117
 40
0.25
100
AcDbArc
 50
90.5000032275
 51
180.045580992
  0
ARC
  5
2D9
100
AcDbEntity
  8
ASSI
100
AcDbCircle
 62
7
  6
CONTINUOUS
 10
-16.3808173941
 20
10.7801855117
 40
0.25
100
AcDbArc
 50
90.5000032275
 51
180.045580992
  0
LINE
  5
2DA
100
AcDbEntity
  8
0
100
AcDbLine
 62
7
  6
CONTINUOUS
 10
14.8040734077
 20
7.3792633159
 11
14.8040734076
 21
7.171406893
  0
LINE
  5
2DB
100
AcDbEntity
  8
0
100
AcDbLine
 62
7
  6
CONTINUOUS
 10
14.8040734076
 20
7.171406893
 11
14.8040734076
 21
7.1194428924
  0
LINE
  5
2DC
100
AcDbEntity
  8
0
100
AcDbLine
 62
7
  6
CONTINUOUS
 10
14.8040734076
 20
7.1194428924
 11
14.8040734076
 21
6.9115872864
  0
LINE
  5
2DD
100
AcDbEntity
  8
0
100
AcDbLine
 62
7
  6
CONTINUOUS
 10
14.8040734076
 20
6.9115872864
 11
14.8040734076
 21
6.7037324711
  0
LINE
  5
2DE
100
AcDbEntity
  8
0
100
AcDbLine
 62
7
  6
CONTINUOUS
 10
14.8040734076
 20
6.7037324711
 11
14.8040734076
 21
6.6517688667
  0
LINE
  5
2DF
100
AcDbEntity
  8
0
100
AcDbLine
 62
7
  6
CONTINUOUS
 10
14.8040734076
 20
6.6517688667
 11
14.8040734076
 21
6.4439149593
  0
LINE
  5
2E0
100
AcDbEntity
  8
0
100
AcDbLine
 62
7
  6
CONTINUOUS
 10
14.8040734076
 20
6.4439149593
 11
14.8040734076
 21
6.2360619841
  0
LINE
  5
2E1
100
AcDbEntity
  8
0
100
AcDbLine
 62
7
  6
CONTINUOUS
 10
14.8040734076
 20
6.2360619841
 11
14.8040734076
 21
6.1840988664
  0
LINE
  5
2E2
100
AcDbEntity
  8
0
100
AcDbLine
 62
7
  6
CONTINUOUS
 10
14.8040734076
 20
6.1840988664
 11
14.8040734077
 21
5.9762468691
  0
SPLINE
  5
2E3
100
AcDbEntity
  8
0
100
AcDbSpline
 62
7
  6
CONTINUOUS
 70
0
 71
3
 72
25
 73
21
 74
19
 42
0.0000001
 43
0.0000001
 44
0.0000000001
 12
-0.578414833
 22
0.033585452
 32
0.0
 13
-0.0335619525
 23
0.5784158551
 33
0.0
 40
0.0
 40
0.0
 40
0.0
 40
0.0
 40
0.0200514387
 40
0.0803270942
 40
0.1404453416
 40
0.2002856332
 40
0.2602499788
 40
0.3202499278
 40
0.3800671828
 40
0.4397602389
 40
0.4996674647
 40
0.5595882874
 40
0.6193181535
 40
0.6791887486
 40
0.7392639398
 40
0.7993237723
 40
0.8592712226
 40
0.9195041017
 40
0.9799050173
 40
1.0
 40
1.0
 40
1.0
 40
1.0
 10
6.0789383331
 20
5.578429159
 30
0.0
 10
6.0750723166
 20
5.5786536379
 30
0.0
 10
6.059597459
 20
5.5797774377
 30
0.0
 10
6.0326832112
 20
5.5833141213
 30
0.0
 10
5.9986687687
 20
5.5908477674
 30
0.0
 10
5.9654977693
 20
5.6012958716
 30
0.0
 10
5.9333833608
 20
5.6145846626
 30
0.0
 10
5.9025560268
 20
5.6306252747
 30
0.0
 10
5.8732914299
 20
5.6492680654
 30
0.0
 10
5.8457773341
 20
5.6703794147
 30
0.0
 10
5.820195015
 20
5.6938245686
 30
0.0
 10
5.796755083
 20
5.7194213169
 30
0.0
 10
5.7756420725
 20
5.7469593938
 30
0.0
 10
5.756992626
 20
5.7762576125
 30
0.0
 10
5.7409419443
 20
5.8071284819
 30
0.0
 10
5.7276415354
 20
5.8392961631
 30
0.0
 10
5.717182502
 20
5.8725279572
 30
0.0
 10
5.7096399046
 20
5.9066090548
 30
0.0
 10
5.706098662
 20
5.9335779076
 30
0.0
 10
5.7049732884
 20
5.9490853301
 30
0.0
 10
5.7047484794
 20
5.952959749
 30
0.0
 11
6.0789383331
 21
5.578429159
 31
0.0
 11
6.0673516461
 21
5.5792707063
 31
0.0
 11
6.0327409059
 21
5.5838195488
 31
0.0
 11
5.9987477115
 21
5.5913496019
 31
0.0
 11
5.9656926533
 21
5.601762021
 31
0.0
 11
5.9336036156
 21
5.6150411002
 31
0.0
 11
5.9027784788
 21
5.6310811689
 31
0.0
 11
5.873560769
 21
5.6496945034
 31
0.0
 11
5.8461334084
 21
5.6707395068
 31
0.0
 11
5.8205551772
 21
5.6941808764
 31
0.0
 11
5.7971183168
 21
5.719773918
 31
0.0
 11
5.7760706388
 21
5.7472260942
 31
0.0
 11
5.7574509907
 21
5.776476407
 31
0.0
 11
5.7414005198
 21
5.8073452518
 31
0.0
 11
5.7281090239
 21
5.8394889987
 31
0.0
 11
5.7176852765
 21
5.8726055543
 31
0.0
 11
5.7101463054
 21
5.9066647705
 31
0.0
 11
5.7055912646
 21
5.9413478637
 31
0.0
 11
5.7047484794
 21
5.952959749
 31
0.0
  0
SPLINE
  5
2E4
100
AcDbEntity
  8
0
100
AcDbSpline
 62
7
  6
CONTINUOUS
 70
0
 71
3
 72
25
 73
21
 74
19
 42
0.0000001
 43
0.0000001
 44
0.0000000001
 12
0.0336205787
 22
0.5788763995
 32
0.0
 13
0.5788771578
 23
0.0336031692
 33
0.0
 40
0.0
 40
0.0
 40
0.0
 40
0.0
 40
0.0200416777
 40
0.0803005781
 40
0.1404186932
 40
0.2002719698
 40
0.2602592616
 40
0.3202893722
 40
0.380140933
 40
0.4398699628
 40
0.4998109175
 40
0.5597596722
 40
0.6195089209
 40
0.6793889892
 40
0.7394602604
 40
0.7995013133
 40
0.8594154143
 40
0.9195988866
 40
0.9799318234
 40
1.0
 40
1.0
 40
1.0
 40
1.0
 10
5.7047477778
 20
7.4025030339
 30
0.0
 10
5.7049723821
 20
7.406370252
 30
0.0
 10
5.7060969925
 20
7.4218523402
 30
0.0
 10
5.709636781
 20
7.4487828535
 30
0.0
 10
5.7171777334
 20
7.4828234041
 30
0.0
 10
5.7276376308
 20
7.5160270612
 30
0.0
 10
5.7409429323
 20
7.5481784972
 30
0.0
 10
5.7570046101
 20
7.5790451936
 30
0.0
 10
5.7756725256
 20
7.6083496498
 30
0.0
 10
5.7968121474
 20
7.6359022915
 30
0.0
 10
5.8202874077
 20
7.6615201954
 30
0.0
 10
5.8459143689
 20
7.6849913571
 30
0.0
 10
5.8734811273
 20
7.7061305276
 30
0.0
 10
5.9028047555
 20
7.7248006679
 30
0.0
 10
5.9336961152
 20
7.7408666158
 30
0.0
 10
5.9658778948
 20
7.7541773084
 30
0.0
 10
5.9991163588
 20
7.7646424418
 30
0.0
 10
6.0331955462
 20
7.7721878418
 30
0.0
 10
6.0601580862
 20
7.7757299491
 30
0.0
 10
6.0756595908
 20
7.7768553899
 30
0.0
 10
6.0795319272
 20
7.7770801747
 30
0.0
 11
5.7047477778
 21
7.4025030339
 31
0.0
 11
5.705589792
 21
7.4140933167
 31
0.0
 11
5.7101420242
 21
7.448721933
 31
0.0
 11
5.7176793536
 21
7.482741915
 31
0.0
 11
5.7281035765
 21
7.5158301616
 31
0.0
 11
5.7413992555
 21
7.5479567371
 31
0.0
 11
5.7574605952
 21
7.5788217938
 31
0.0
 11
5.7760992565
 21
7.6080797465
 31
0.0
 11
5.7971729424
 21
7.6355461781
 31
0.0
 11
5.8206449081
 21
7.6611604685
 31
0.0
 11
5.8462686043
 21
7.6846288597
 31
0.0
 11
5.8737496765
 21
7.7057027139
 31
0.0
 11
5.9030260086
 21
7.7243432755
 31
0.0
 11
5.9339156747
 21
7.7404090033
 31
0.0
 11
5.9660735281
 21
7.7537105899
 31
0.0
 11
5.9991970066
 21
7.7641403048
 31
0.0
 11
6.033254824
 21
7.7716819875
 31
0.0
 11
6.0679262931
 21
7.7762374784
 31
0.0
 11
6.0795319272
 21
7.7770801747
 31
0.0
  0
SPLINE
  5
2E5
100
AcDbEntity
  8
0
100
AcDbSpline
 62
7
  6
CONTINUOUS
 70
0
 71
3
 72
25
 73
21
 74
19
 42
0.0000001
 43
0.0000001
 44
0.0000000001
 12
-0.0335621863
 22
-0.578415825
 32
0.0
 13
-0.5784148365
 23
-0.0335852348
 33
0.0
 40
0.0
 40
0.0
 40
0.0
 40
0.0
 40
0.0200941342
 40
0.080494816
 40
0.1407296603
 40
0.2006766753
 40
0.2607351258
 40
0.320810864
 40
0.3806828279
 40
0.4404119795
 40
0.5003317803
 40
0.5602400374
 40
0.6199337955
 40
0.6797496649
 40
0.7397490773
 40
0.7997148019
 40
0.8595555079
 40
0.9196717812
 40
0.9799476896
 40
1.0
 40
1.0
 40
1.0
 40
1.0
 10
14.8033983265
 20
5.9529595861
 30
0.0
 10
14.8031735255
 20
5.949085331
 30
0.0
 10
14.8020481702
 20
5.9335781175
 30
0.0
 10
14.7985069323
 20
5.906609093
 30
0.0
 10
14.7909642713
 20
5.8725277501
 30
0.0
 10
14.7805051842
 20
5.8392959446
 30
0.0
 10
14.7672048687
 20
5.8071284939
 30
0.0
 10
14.7511541568
 20
5.7762575238
 30
0.0
 10
14.7325045604
 20
5.7469591234
 30
0.0
 10
14.7113915582
 20
5.7194211322
 30
0.0
 10
14.6879517191
 20
5.6938244872
 30
0.0
 10
14.6623692968
 20
5.6703792408
 30
0.0
 10
14.6348551197
 20
5.6492678865
 30
0.0
 10
14.6055907092
 20
5.6306252477
 30
0.0
 10
14.5747634795
 20
5.6145846664
 30
0.0
 10
14.5426488449
 20
5.6012957824
 30
0.0
 10
14.5094778651
 20
5.5908477325
 30
0.0
 10
14.475463672
 20
5.583314148
 30
0.0
 10
14.4485495908
 20
5.579777457
 30
0.0
 10
14.4330745169
 20
5.5786536375
 30
0.0
 10
14.4292083323
 20
5.5784291503
 30
0.0
 11
14.8033983265
 21
5.9529595861
 31
0.0
 11
14.8025555793
 21
5.9413481912
 31
0.0
 11
14.7980005906
 21
5.9066652286
 31
0.0
 11
14.7904613648
 21
5.8726049038
 31
0.0
 11
14.7800376479
 21
5.8394886038
 31
0.0
 11
14.7667464567
 21
5.8073455979
 31
0.0
 11
14.7506958573
 21
5.7764764637
 31
0.0
 11
14.7320757596
 21
5.7472254983
 31
0.0
 11
14.7110282979
 21
5.7197736786
 31
0.0
 11
14.6875918367
 21
5.694181075
 31
0.0
 11
14.6620131647
 21
5.6707393036
 31
0.0
 11
14.6345854546
 21
5.6496940891
 31
0.0
 11
14.6053684072
 21
5.6310812097
 31
0.0
 11
14.5745435564
 21
5.6150412664
 31
0.0
 11
14.5424537813
 21
5.6017618826
 31
0.0
 11
14.5093984812
 21
5.5913494351
 31
0.0
 11
14.4754064024
 21
5.5838196356
 31
0.0
 11
14.4407955226
 21
5.5792707371
 31
0.0
 11
14.4292083323
 21
5.5784291503
 31
0.0
  0
SPLINE
  5
2E6
100
AcDbEntity
  8
0
100
AcDbSpline
 62
7
  6
CONTINUOUS
 70
0
 71
3
 72
25
 73
21
 74
19
 42
0.0000001
 43
0.0000001
 44
0.0000000001
 12
0.5788771349
 22
-0.0336033902
 32
0.0
 13
0.0336203657
 23
-0.5788764096
 33
0.0
 40
0.0
 40
0.0
 40
0.0
 40
0.0
 40
0.0200673121
 40
0.0803999929
 40
0.1405854283
 40
0.2004991081
 40
0.2605387869
 40
0.3206106022
 40
0.3804920415
 40
0.4402405814
 40
0.5001883132
 40
0.5601302958
 40
0.6198600277
 40
0.6797102083
 40
0.7397397796
 40
0.7997284436
 40
0.8595821308
 40
0.9196982792
 40
0.9799574461
 40
1.0
 40
1.0
 40
1.0
 40
1.0
 10
14.4286150416
 20
7.7770801658
 30
0.0
 10
14.432487211
 20
7.7768553892
 30
0.0
 10
14.4479884994
 20
7.7757299679
 30
0.0
 10
14.4749512039
 20
7.7721878679
 30
0.0
 10
14.5090306358
 20
7.7646424073
 30
0.0
 10
14.542269116
 20
7.7541772212
 30
0.0
 10
14.5744506695
 20
7.7408666223
 30
0.0
 10
14.6053421324
 20
7.7248006448
 30
0.0
 10
14.6346659444
 20
7.706130355
 30
0.0
 10
14.6622326193
 20
7.684991193
 30
0.0
 10
14.6878594785
 20
7.6615201246
 30
0.0
 10
14.711334832
 20
7.6359021188
 30
0.0
 10
14.7324744606
 20
7.6083493959
 30
0.0
 10
14.7511422254
 20
7.5790451262
 30
0.0
 10
14.7672038732
 20
7.5481785349
 30
0.0
 10
14.7805092682
 20
7.5160268752
 30
0.0
 10
14.7909691126
 20
7.4828232383
 30
0.0
 10
14.7985100056
 20
7.448782934
 30
0.0
 10
14.8020498028
 20
7.4218525823
 30
0.0
 10
14.8031744334
 20
7.4063702739
 30
0.0
 10
14.8033990461
 20
7.4025028867
 30
0.0
 11
14.4286150416
 21
7.7770801658
 31
0.0
 11
14.4402201757
 21
7.7762375086
 31
0.0
 11
14.4748915021
 21
7.7716820737
 31
0.0
 11
14.5089504287
 21
7.7641401389
 31
0.0
 11
14.5420736604
 21
7.7537104543
 31
0.0
 11
14.5742307776
 21
7.7404091723
 31
0.0
 11
14.605120733
 21
7.724343318
 31
0.0
 11
14.6343977204
 21
7.7057023068
 31
0.0
 11
14.6618784395
 21
7.684628668
 31
0.0
 11
14.6875016983
 21
7.6611606775
 31
0.0
 11
14.7109740659
 21
7.635545948
 31
0.0
 11
14.7320479646
 21
7.6080791671
 31
0.0
 11
14.7506861733
 21
7.578821875
 31
0.0
 11
14.7667473879
 21
7.5479571061
 31
0.0
 11
14.7800433716
 21
7.5158297964
 31
0.0
 11
14.7904676238
 21
7.4827413098
 31
0.0
 11
14.7980047018
 21
7.4487224401
 31
0.0
 11
14.8025569919
 21
7.414093676
 31
0.0
 11
14.8033990461
 21
7.4025028867
 31
0.0
  0
LINE
  5
2E7
100
AcDbEntity
  8
0
100
AcDbLine
 62
7
  6
CONTINUOUS
 10
5.7040734077
 20
5.9762468691
 11
5.7040734077
 21
6.184098871
  0
LINE
  5
2E8
100
AcDbEntity
  8
0
100
AcDbLine
 62
7
  6
CONTINUOUS
 10
5.7040734077
 20
6.184098871
 11
5.7040734077
 21
6.236061988
  0
LINE
  5
2E9
100
AcDbEntity
  8
0
100
AcDbLine
 62
7
  6
CONTINUOUS
 10
5.7040734077
 20
6.236061988
 11
5.7040734077
 21
6.4439149454
  0
LINE
  5
2EA
100
AcDbEntity
  8
0
100
AcDbLine
 62
7
  6
CONTINUOUS
 10
5.7040734077
 20
6.4439149454
 11
5.7040734077
 21
6.651768874
  0
LINE
  5
2EB
100
AcDbEntity
  8
0
100
AcDbLine
 62
7
  6
CONTINUOUS
 10
5.7040734077
 20
6.651768874
 11
5.7040734077
 21
6.7037324787
  0
LINE
  5
2EC
100
AcDbEntity
  8
0
100
AcDbLine
 62
7
  6
CONTINUOUS
 10
5.7040734077
 20
6.7037324787
 11
5.7040734077
 21
6.911587214
  0
LINE
  5
2ED
100
AcDbEntity
  8
0
100
AcDbLine
 62
7
  6
CONTINUOUS
 10
5.7040734077
 20
6.911587214
 11
5.7040734077
 21
7.1194428964
  0
LINE
  5
2EE
100
AcDbEntity
  8
0
100
AcDbLine
 62
7
  6
CONTINUOUS
 10
5.7040734077
 20
7.1194428964
 11
5.7040734077
 21
7.1714068974
  0
LINE
  5
2EF
100
AcDbEntity
  8
0
100
AcDbLine
 62
7
  6
CONTINUOUS
 10
5.7040734077
 20
7.1714068974
 11
5.7040734077
 21
7.3792633159
  0
LINE
  5
2F0
100
AcDbEntity
  8
RACCORDO
100
AcDbLine
 62
7
  6
CONTINUOUS
 10
14.8040734077
 20
7.379263316
 11
14.8040734076
 21
7.1454248384
  0
LINE
  5
2F1
100
AcDbEntity
  8
RACCORDO
100
AcDbLine
 62
7
  6
CONTINUOUS
 10
14.8040734076
 20
7.1454248384
 11
14.8040734076
 21
6.9115872538
  0
LINE
  5
2F2
100
AcDbEntity
  8
RACCORDO
100
AcDbLine
 62
7
  6
CONTINUOUS
 10
14.8040734076
 20
6.9115872538
 11
14.8040734076
 21
6.6777506135
  0
LINE
  5
2F3
100
AcDbEntity
  8
RACCORDO
100
AcDbLine
 62
7
  6
CONTINUOUS
 10
14.8040734076
 20
6.6777506135
 11
14.8040734076
 21
6.4439149685
  0
LINE
  5
2F4
100
AcDbEntity
  8
RACCORDO
100
AcDbLine
 62
7
  6
CONTINUOUS
 10
14.8040734076
 20
6.4439149685
 11
14.8040734076
 21
6.2100803699
  0
LINE
  5
2F5
100
AcDbEntity
  8
RACCORDO
100
AcDbLine
 62
7
  6
CONTINUOUS
 10
14.8040734076
 20
6.2100803699
 11
14.8040734077
 21
5.9762468691
  0
LINE
  5
2F6
100
AcDbEntity
  8
RACCORDO
100
AcDbLine
 62
7
  6
CONTINUOUS
 10
5.7040734077
 20
5.9762468691
 11
5.7040734077
 21
7.379263316
  0
SPLINE
  5
2F7
100
AcDbEntity
  8
RACCORDO
100
AcDbSpline
 62
7
  6
CONTINUOUS
 70
0
 71
3
 72
25
 73
21
 74
19
 42
0.0000001
 43
0.0000001
 44
0.0000000001
 12
-0.6256832202
 22
0.0
 32
0.0
 13
0.0
 23
0.6256832202
 33
0.0
 40
0.0
 40
0.0
 40
0.0
 40
0.0
 40
0.0556733582
 40
0.1114505503
 40
0.1670993388
 40
0.2225000448
 40
0.278013467
 40
0.3335579392
 40
0.3889329739
 40
0.4441938583
 40
0.4996537624
 40
0.5551262503
 40
0.6104212299
 40
0.6658457278
 40
0.721459882
 40
0.7770616371
 40
0.8325613724
 40
0.8883154579
 40
0.9442070521
 40
1.0
 40
1.0
 40
1.0
 40
1.0
 10
6.1021748641
 20
5.5777550805
 30
0.0
 10
6.0905635688
 20
5.5777550805
 30
0.0
 10
6.0673066233
 20
5.5787656738
 30
0.0
 10
6.0327110968
 20
5.5833093353
 30
0.0
 10
5.9986964511
 20
5.5908402345
 30
0.0
 10
5.9655202471
 20
5.6012875015
 30
0.0
 10
5.9333997979
 20
5.6145768386
 30
0.0
 10
5.9025675084
 20
5.6306184987
 30
0.0
 10
5.873298527
 20
5.6492629336
 30
0.0
 10
5.8457802411
 20
5.6703767817
 30
0.0
 10
5.8201940205
 20
5.6938253434
 30
0.0
 10
5.7967508405
 20
5.7194261457
 30
0.0
 10
5.7756354923
 20
5.7469685654
 30
0.0
 10
5.7569845736
 20
5.7762713149
 30
0.0
 10
5.740933038
 20
5.8071472578
 30
0.0
 10
5.7276323057
 20
5.8393210316
 30
0.0
 10
5.717174382
 20
5.8725578921
 30
0.0
 10
5.709634831
 20
5.9066387207
 30
0.0
 10
5.705085379
 20
5.9413048766
 30
0.0
 10
5.7040734077
 20
5.964610632
 30
0.0
 10
5.7040734077
 20
5.9762468691
 30
0.0
 11
6.1021748641
 21
5.5777550805
 31
0.0
 11
6.0673738818
 21
5.579268767
 31
0.0
 11
6.0327722836
 21
5.5838140227
 31
0.0
 11
5.9987772397
 21
5.5913416956
 31
0.0
 11
5.9657147534
 21
5.6017539872
 31
0.0
 11
5.9336197352
 21
5.6150335894
 31
0.0
 11
5.9027899498
 21
5.6310745469
 31
0.0
 11
5.8735680716
 21
5.64968939
 31
0.0
 11
5.8461365315
 21
5.6707368866
 31
0.0
 11
5.8205542936
 21
5.6941817603
 31
0.0
 11
5.7971140926
 21
5.7197789567
 31
0.0
 11
5.7760640874
 21
5.7472354576
 31
0.0
 11
5.7574430886
 21
5.7764901059
 31
0.0
 11
5.7413919197
 21
5.8073637236
 31
0.0
 11
5.7281001218
 21
5.8395135067
 31
0.0
 11
5.7176767401
 21
5.8726374606
 31
0.0
 11
5.7101404448
 21
5.906698073
 31
0.0
 11
5.7055892409
 21
5.9413710841
 31
0.0
 11
5.7040734077
 21
5.9762468691
 31
0.0
  0
SPLINE
  5
2F8
100
AcDbEntity
  8
RACCORDO
100
AcDbSpline
 62
7
  6
CONTINUOUS
 70
0
 71
3
 72
25
 73
21
 74
19
 42
0.0000001
 43
0.0000001
 44
0.0000000001
 12
-0.0
 22
0.6261321933
 32
0.0
 13
0.6261321933
 23
-0.0
 33
0.0
 40
0.0
 40
0.0
 40
0.0
 40
0.0
 40
0.0556462765
 40
0.1114123659
 40
0.1670645122
 40
0.2224808987
 40
0.2780198863
 40
0.3335969858
 40
0.3890085547
 40
0.4443073417
 40
0.499802936
 40
0.5553057357
 40
0.6106232273
 40
0.6660612395
 40
0.7216764573
 40
0.7772651809
 40
0.8327377847
 40
0.8884496229
 40
0.9442824486
 40
1.0
 40
1.0
 40
1.0
 40
1.0
 10
5.7040734077
 20
7.379263316
 30
0.0
 10
5.7040734077
 20
7.390877291
 30
0.0
 10
5.7050848698
 20
7.4141429488
 30
0.0
 10
5.7096321719
 20
7.4487559209
 30
0.0
 10
5.71717036
 20
7.4827962583
 30
0.0
 10
5.7276293165
 20
7.5160047135
 30
0.0
 10
5.7409351002
 20
7.5481620448
 30
0.0
 10
5.7569978586
 20
7.5790337641
 30
0.0
 10
5.7756675019
 20
7.6083427139
 30
0.0
 10
5.7968096953
 20
7.6358996014
 30
0.0
 10
5.8202883961
 20
7.6615214029
 30
0.0
 10
5.8459194374
 20
7.6849958022
 30
0.0
 10
5.8734906112
 20
7.7061373318
 30
0.0
 10
5.9028188896
 20
7.7248089765
 30
0.0
 10
5.933715406
 20
7.7408757653
 30
0.0
 10
5.9659031651
 20
7.754186679
 30
0.0
 10
5.9991463229
 20
7.7646505564
 30
0.0
 10
6.0332247982
 20
7.7721928322
 30
0.0
 10
6.0678790208
 20
7.7767429524
 30
0.0
 10
6.0911734861
 20
7.7777550805
 30
0.0
 10
6.1028023369
 20
7.7777550805
 30
0.0
 11
5.7040734077
 21
7.379263316
 31
0.0
 11
5.7055879592
 21
7.4140723073
 31
0.0
 11
5.7101366977
 21
7.4486916943
 31
0.0
 11
5.7176715796
 21
7.482712885
 31
0.0
 11
5.7280955437
 21
7.5158080665
 31
0.0
 11
5.7413917038
 21
7.5479405304
 31
0.0
 11
5.757453993
 21
7.5788103572
 31
0.0
 11
5.7760942741
 21
7.608072631
 31
0.0
 11
5.7971705236
 21
7.6355432949
 31
0.0
 11
5.820646007
 21
7.6611615671
 31
0.0
 11
5.8462738624
 21
7.6846332685
 31
0.0
 11
5.8737593256
 21
7.7057094665
 31
0.0
 11
5.9030401532
 21
7.7243514366
 31
0.0
 11
5.9339347247
 21
7.7404178751
 31
0.0
 11
5.966098553
 21
7.7537196829
 31
0.0
 11
5.9992289943
 21
7.7641488662
 31
0.0
 11
6.0332875783
 21
7.771687754
 31
0.0
 11
6.0679487234
 21
7.7762394342
 31
0.0
 11
6.1028023369
 21
7.7777550805
 31
0.0
  0
SPLINE
  5
2F9
100
AcDbEntity
  8
RACCORDO
100
AcDbSpline
 62
7
  6
CONTINUOUS
 70
0
 71
3
 72
25
 73
21
 74
19
 42
0.0000001
 43
0.0000001
 44
0.0000000001
 12
0.0
 22
-0.6256832202
 32
0.0
 13
-0.6256832202
 23
-0.0
 33
0.0
 40
0.0
 40
0.0
 40
0.0
 40
0.0
 40
0.0557950913
 40
0.1116884983
 40
0.1674453284
 40
0.2229447961
 40
0.2785453267
 40
0.3341599831
 40
0.3895856968
 40
0.4448800349
 40
0.5003515979
 40
0.5558124452
 40
0.6110739736
 40
0.6664477952
 40
0.7219917909
 40
0.7775064418
 40
0.8329073853
 40
0.8885533946
 40
0.9443287616
 40
1.0
 40
1.0
 40
1.0
 40
1.0
 10
14.8040734077
 20
5.9762468691
 30
0.0
 10
14.8040734077
 20
5.9646101849
 30
0.0
 10
14.8030613614
 20
5.9413036029
 30
0.0
 10
14.798511562
 20
5.906636079
 30
0.0
 10
14.7909715322
 20
5.8725544337
 30
0.0
 10
14.7805131877
 20
5.8393174321
 30
0.0
 10
14.7672122409
 20
5.8071439731
 30
0.0
 10
14.7511603921
 20
5.7762680758
 30
0.0
 10
14.7325090596
 20
5.7469653206
 30
0.0
 10
14.7113934695
 20
5.71942318
 30
0.0
 10
14.6879501432
 20
5.6938226905
 30
0.0
 10
14.6623636035
 20
5.6703742698
 30
0.0
 10
14.6348450337
 20
5.6492606614
 30
0.0
 10
14.6055760517
 20
5.6306166379
 30
0.0
 10
14.5747437093
 20
5.6145752898
 30
0.0
 10
14.5426229443
 20
5.6012861699
 30
0.0
 10
14.5094468927
 20
5.5908393297
 30
0.0
 10
14.4754330792
 20
5.5833089135
 30
0.0
 10
14.4408389257
 20
5.5787655994
 30
0.0
 10
14.4175828045
 20
5.5777550805
 30
0.0
 10
14.4059719512
 20
5.5777550805
 30
0.0
 11
14.8040734077
 21
5.9762468691
 31
0.0
 11
14.802557458
 21
5.9413697468
 31
0.0
 11
14.7980059412
 21
5.9066956328
 31
0.0
 11
14.7904689907
 21
5.8726334065
 31
0.0
 11
14.7800453181
 21
5.8395097198
 31
0.0
 11
14.7667535188
 21
5.8073607662
 31
0.0
 11
14.7507019396
 21
5.7764870078
 31
0.0
 11
14.732080241
 21
5.7472319031
 31
0.0
 11
14.7110301938
 21
5.7197759401
 31
0.0
 11
14.6875901484
 21
5.694179386
 31
0.0
 11
14.6620072595
 21
5.6707343492
 31
0.0
 11
14.6345751795
 21
5.6496868943
 31
0.0
 11
14.6053537552
 21
5.6310727514
 31
0.0
 11
14.5745240952
 21
5.6150321988
 31
0.0
 11
14.5424282439
 21
5.6017525995
 31
0.0
 11
14.5093655077
 21
5.5913406066
 31
0.0
 11
14.4753720986
 21
5.5838135943
 31
0.0
 11
14.440771611
 21
5.5792686517
 31
0.0
 11
14.4059719512
 21
5.5777550805
 31
0.0
  0
SPLINE
  5
2FA
100
AcDbEntity
  8
RACCORDO
100
AcDbSpline
 62
7
  6
CONTINUOUS
 70
0
 71
3
 72
25
 73
21
 74
19
 42
0.0000001
 43
0.0000001
 44
0.0000000001
 12
0.6261321933
 22
0.0
 32
0.0
 13
-0.0
 23
-0.6261321933
 33
0.0
 40
0.0
 40
0.0
 40
0.0
 40
0.0
 40
0.0557196865
 40
0.1115543222
 40
0.16726891
 40
0.2227412555
 40
0.2783287553
 40
0.3339444681
 40
0.3893836966
 40
0.4447005512
 40
0.5002024237
 40
0.5556989543
 40
0.6109983787
 40
0.6664087318
 40
0.7219853485
 40
0.7775255617
 40
0.8329421921
 40
0.8885915724
 40
0.9443558468
 40
1.0
 40
1.0
 40
1.0
 40
1.0
 10
14.4053444784
 20
7.7777550805
 30
0.0
 10
14.4169737749
 20
7.7777550805
 30
0.0
 10
14.440269065
 20
7.7767428777
 30
0.0
 10
14.4749246555
 20
7.7721924103
 30
0.0
 10
14.5090039504
 20
7.7646496552
 30
0.0
 10
14.5422472524
 20
7.7541853557
 30
0.0
 10
14.574434697
 20
7.7408742269
 30
0.0
 10
14.6053311665
 20
7.7248071253
 30
0.0
 10
14.6346594503
 20
7.7061350669
 30
0.0
 10
14.6622303452
 20
7.684993295
 30
0.0
 10
14.6878610729
 20
7.6615187501
 30
0.0
 10
14.7113396306
 20
7.6358966318
 30
0.0
 10
14.7324815825
 20
7.6083394634
 30
0.0
 10
14.7511508132
 20
7.5790305163
 30
0.0
 10
14.7672132593
 20
7.5481587468
 30
0.0
 10
14.7805188266
 20
7.5160011006
 30
0.0
 10
14.7909773583
 20
7.482792795
 30
0.0
 10
14.7985150651
 20
7.4487532844
 30
0.0
 10
14.80306202
 20
7.4141416822
 30
0.0
 10
14.8040734077
 20
7.3908768479
 30
0.0
 10
14.8040734077
 20
7.379263316
 30
0.0
 11
14.4053444784
 21
7.7777550805
 31
0.0
 11
14.4401994249
 21
7.776239318
 31
0.0
 11
14.4748616721
 21
7.7716873254
 31
0.0
 11
14.5089218742
 21
7.7641477815
 31
0.0
 11
14.5420520538
 21
7.7537183054
 31
0.0
 11
14.5742150522
 21
7.740416496
 31
0.0
 11
14.6051097606
 21
7.724349649
 31
0.0
 11
14.634391045
 21
7.7057069785
 31
0.0
 11
14.6618759722
 21
7.6846307369
 31
0.0
 11
14.6875031839
 21
7.6611591922
 31
0.0
 11
14.7109788277
 21
7.6355402719
 31
0.0
 11
14.7320550335
 21
7.6080690714
 31
0.0
 11
14.7506946138
 21
7.5788072538
 31
0.0
 11
14.7667564972
 21
7.5479375566
 31
0.0
 11
14.7800526549
 21
7.5158042612
 31
0.0
 11
14.7904763225
 21
7.4827088262
 31
0.0
 11
14.7980105458
 21
7.4486892634
 31
0.0
 11
14.8025589717
 21
7.4140709817
 31
0.0
 11
14.8040734077
 21
7.379263316
 31
0.0
  0
SPLINE
  5
2FB
100
AcDbEntity
  8
RACCORDO
100
AcDbSpline
 62
253
  6
CONTINUOUS
 70
0
 71
3
 72
10
 73
6
 74
4
 42
0.0000001
 43
0.0000001
 44
0.0000000001
 12
0.0060355961
 22
9.0950346867
 32
0.0
 13
0.0002514557
 23
9.0950366859
 33
0.0
 40
0.0
 40
0.0
 40
0.0
 40
0.0
 40
0.33331324
 40
0.66664763
 40
1.0
 40
1.0
 40
1.0
 40
1.0
 10
-0.7168779644
 20
1.6872550805
 30
0.0
 10
-0.716207383
 20
2.6977535736
 30
0.0
 10
-0.7150804687
 20
4.7188148288
 30
0.0
 10
-0.7140326934
 20
7.7504935646
 30
0.0
 10
-0.7137627072
 20
9.7716737456
 30
0.0
 10
-0.7137347661
 20
10.7822910905
 30
0.0
 11
-0.7168779644
 21
1.6872550805
 31
0.0
 11
-0.715187602
 21
4.718750756
 31
0.0
 11
-0.7141398444
 21
7.7504390818
 31
0.0
 11
-0.7137347661
 21
10.7822910905
 31
0.0
  0
SPLINE
  5
2FC
100
AcDbEntity
  8
0
100
AcDbSpline
 62
253
  6
CONTINUOUS
 70
0
 71
3
 72
25
 73
21
 74
19
 42
0.0000001
 43
0.0000001
 44
0.0000000001
 12
0.4390248502
 22
-0.23920298
 32
0.0
 13
0.4999607732
 23
-0.0003316614
 33
0.0
 40
0.0
 40
0.0
 40
0.0
 40
0.0
 40
0.0068059321
 40
0.0207337758
 40
0.0417520194
 40
0.0697246347
 40
0.10445486
 40
0.1456934389
 40
0.1931423402
 40
0.246457634
 40
0.3052523085
 40
0.3690992429
 40
0.4375344016
 40
0.5100602612
 40
0.5861494626
 40
0.6652486693
 40
0.7467826077
 40
0.8301582634
 40
0.9147692045
 40
1.0
 40
1.0
 40
1.0
 40
1.0
 10
-0.7168779644
 20
1.6872550805
 30
0.0
 10
-0.7158819733
 20
1.6867124141
 30
0.0
 10
-0.7123396764
 20
1.6863103618
 30
0.0
 10
-0.705518167
 20
1.6854352307
 30
0.0
 10
-0.6950085676
 20
1.6847612126
 30
0.0
 10
-0.6810963607
 20
1.6839807723
 30
0.0
 10
-0.6637818849
 20
1.6832577008
 30
0.0
 10
-0.6432286483
 20
1.6825428815
 30
0.0
 10
-0.6195721664
 20
1.6818642647
 30
0.0
 10
-0.5929890846
 20
1.6812207728
 30
0.0
 10
-0.5636712439
 20
1.6806200179
 30
0.0
 10
-0.5318324087
 20
1.6800660453
 30
0.0
 10
-0.497704079
 20
1.6795633733
 30
0.0
 10
-0.4615346143
 20
1.6791157739
 30
0.0
 10
-0.4235871739
 20
1.678726651
 30
0.0
 10
-0.3841378744
 20
1.6783989209
 30
0.0
 10
-0.3434737577
 20
1.678135034
 30
0.0
 10
-0.301890707
 20
1.677936955
 30
0.0
 10
-0.2596912946
 20
1.6778061546
 30
0.0
 10
-0.231386569
 20
1.6777645031
 30
0.0
 10
-0.2171825509
 20
1.6777550805
 30
0.0
 11
-0.7168779644
 21
1.6872550805
 31
0.0
 11
-0.7135731091
 21
1.6864449587
 31
0.0
 11
-0.7066563296
 21
1.6856407316
 31
0.0
 11
-0.6961779549
 21
1.6848482511
 31
0.0
 11
-0.6822142297
 21
1.6840732837
 31
0.0
 11
-0.6648667593
 21
1.6833214681
 31
0.0
 11
-0.6442617703
 21
1.682598275
 31
0.0
 11
-0.6205491925
 21
1.6819089666
 31
0.0
 11
-0.5939015675
 21
1.6812585585
 31
0.0
 11
-0.5645127933
 21
1.6806517834
 31
0.0
 11
-0.5325967138
 21
1.6800930563
 31
0.0
 11
-0.4983855623
 21
1.6795864428
 31
0.0
 11
-0.462128272
 21
1.6791356292
 31
0.0
 11
-0.4240886646
 21
1.6787438958
 31
0.0
 11
-0.3845435306
 21
1.678414093
 31
0.0
 11
-0.3437806153
 21
1.6781486205
 31
0.0
 11
-0.3020965248
 21
1.67794941
 31
0.0
 11
-0.2597945684
 21
1.6778179111
 31
0.0
 11
-0.2171825509
 21
1.6777550805
 31
0.0
  0
SPLINE
  5
2FD
100
AcDbEntity
  8
RACCORDO
100
AcDbSpline
 62
253
  6
CONTINUOUS
 70
0
 71
3
 72
10
 73
6
 74
4
 42
0.0000001
 43
0.0000001
 44
0.0000000001
 12
0.0060343306
 22
9.1022302253
 32
0.0
 13
0.0002526151
 23
9.102232222
 33
0.0
 40
0.0
 40
0.0
 40
0.0
 40
0.0
 40
0.3333130829
 40
0.6666473215
 40
1.0
 40
1.0
 40
1.0
 40
1.0
 10
-0.2171825509
 20
1.6777550805
 30
0.0
 10
-0.2165121104
 20
2.6890525532
 30
0.0
 10
-0.2153851349
 20
4.7117118349
 30
0.0
 10
-0.2143385151
 20
7.7457890831
 30
0.0
 10
-0.2140655781
 20
9.7685687964
 30
0.0
 10
-0.2140375081
 20
10.7799866271
 30
0.0
 11
-0.2171825509
 21
1.6777550805
 31
0.0
 11
-0.2154924762
 21
4.7116476944
 31
0.0
 11
-0.2144447362
 21
7.7457331613
 31
0.0
 11
-0.2140375081
 21
10.7799866271
 31
0.0
  0
SPLINE
  5
2FE
100
AcDbEntity
  8
RACCORDO
100
AcDbSpline
 62
253
  6
CONTINUOUS
 70
0
 71
3
 72
25
 73
21
 74
19
 42
0.0000001
 43
0.0000001
 44
0.0000000001
 12
-0.4997136625
 22
0.0000069763
 32
0.0
 13
-0.4951377735
 23
0.0674709552
 33
0.0
 40
0.0
 40
0.0
 40
0.0
 40
0.0
 40
0.085271627
 40
0.1699228858
 40
0.2533392761
 40
0.334911862
 40
0.4140477186
 40
0.4901712172
 40
0.5627281194
 40
0.6311904874
 40
0.6950603256
 40
0.7538728639
 40
0.8072001514
 40
0.8546543022
 40
0.8958900524
 40
0.9306072984
 40
0.958553747
 40
0.9795266151
 40
0.9933739673
 40
1.0
 40
1.0
 40
1.0
 40
1.0
 10
-0.2140375081
 20
10.7799866265
 30
0.0
 10
-0.2282413071
 20
10.7799868248
 30
0.0
 10
-0.2565455699
 20
10.7799929501
 30
0.0
 10
-0.2987445953
 20
10.7800193064
 30
0.0
 10
-0.3403274527
 20
10.7800626238
 30
0.0
 10
-0.3809915813
 20
10.7801225756
 30
0.0
 10
-0.4204408948
 20
10.7801987164
 30
0.0
 10
-0.4583884177
 20
10.7802904722
 30
0.0
 10
-0.4945579982
 20
10.7803971545
 30
0.0
 10
-0.5286864162
 20
10.7805179453
 30
0.0
 10
-0.5605253483
 20
10.7806519437
 30
0.0
 10
-0.5898431395
 20
10.7807980228
 30
0.0
 10
-0.6164264196
 20
10.7809552886
 30
0.0
 10
-0.6400818889
 20
10.7811215758
 30
0.0
 10
-0.6606370082
 20
10.7812980505
 30
0.0
 10
-0.6779433773
 20
10.7814751466
 30
0.0
 10
-0.6918718678
 20
10.7816723499
 30
0.0
 10
-0.7023296269
 20
10.7818301791
 30
0.0
 10
-0.7092226544
 20
10.7820661226
 30
0.0
 10
-0.7126411664
 20
10.7821420613
 30
0.0
 10
-0.7137347661
 20
10.7822910829
 30
0.0
 11
-0.2140375081
 21
10.7799866265
 31
0.0
 11
-0.2566489041
 21
10.7799958818
 31
0.0
 11
-0.2989502864
 21
10.7800223974
 31
0.0
 11
-0.3406345735
 21
10.7800659828
 31
0.0
 11
-0.3813974645
 21
10.7801263174
 31
0.0
 11
-0.420942659
 21
10.7802029627
 31
0.0
 11
-0.4589824991
 21
10.7802953595
 31
0.0
 11
-0.4952400151
 21
10.7804028337
 31
0.0
 11
-0.5294513791
 21
10.7805246016
 31
0.0
 11
-0.5613677236
 21
10.7806597757
 31
0.0
 11
-0.5907567819
 21
10.7808073704
 31
0.0
 11
-0.6174046821
 21
10.7809663099
 31
0.0
 11
-0.6411175665
 21
10.7811354362
 31
0.0
 11
-0.6617228647
 21
10.7813135169
 31
0.0
 11
-0.6790705526
 21
10.7814992543
 31
0.0
 11
-0.6930344543
 21
10.781691294
 31
0.0
 11
-0.7035130323
 21
10.7818882449
 31
0.0
 11
-0.7104298407
 21
10.7820886537
 31
0.0
 11
-0.7137347661
 21
10.7822910829
 31
0.0
  0
SPLINE
  5
2FF
100
AcDbEntity
  8
0
100
AcDbSpline
 62
253
  6
CONTINUOUS
 70
0
 71
3
 72
25
 73
21
 74
19
 42
0.0000001
 43
0.0000001
 44
0.0000000001
 12
0.1156726251
 22
-0.5000143338
 32
0.0
 13
0.5132129288
 23
-0.0026419615
 33
0.0
 40
0.0
 40
0.0
 40
0.0
 40
0.0
 40
0.0139486785
 40
0.0321748852
 40
0.0558987827
 40
0.0855593295
 40
0.1212490579
 40
0.1628831388
 40
0.2102678154
 40
0.263131883
 40
0.3211434014
 40
0.3839199748
 40
0.4510360341
 40
0.5220286665
 40
0.5964027304
 40
0.6736356257
 40
0.7531819132
 40
0.8344778801
 40
0.9169460991
 40
1.0
 40
1.0
 40
1.0
 40
1.0
 10
-0.7512408183
 20
-9.9551002478
 30
0.0
 10
-0.7507029915
 20
-9.9574250942
 30
0.0
 10
-0.7478236443
 20
-9.9623746375
 30
0.0
 10
-0.7404604948
 20
-9.9685859845
 30
0.0
 10
-0.7297869455
 20
-9.9746893419
 30
0.0
 10
-0.7157372043
 20
-9.9806443305
 30
0.0
 10
-0.698365995
 20
-9.9864489093
 30
0.0
 10
-0.6777700192
 20
-9.9920455288
 30
0.0
 10
-0.6540878718
 20
-9.9973922677
 30
0.0
 10
-0.6274850339
 20
-10.0024448529
 30
0.0
 10
-0.5981516988
 20
-10.0071639637
 30
0.0
 10
-0.566299251
 20
-10.0115129968
 30
0.0
 10
-0.5321582753
 20
-10.0154588063
 30
0.0
 10
-0.4959764624
 20
-10.0189715474
 30
0.0
 10
-0.4580166411
 20
-10.022024841
 30
0.0
 10
-0.4185547509
 20
-10.0245958648
 30
0.0
 10
-0.377877782
 20
-10.0266654708
 30
0.0
 10
-0.3362816095
 20
-10.0282182875
 30
0.0
 10
-0.294068957
 20
-10.0292428071
 30
0.0
 10
-0.2657535167
 20
-10.0295681973
 30
0.0
 10
-0.2515454047
 20
-10.0296413391
 30
0.0
 11
-0.7512408183
 21
-9.9551002478
 31
0.0
 11
-0.747951058
 21
-9.961458313
 31
0.0
 11
-0.7410474586
 21
-9.9677700914
 31
0.0
 11
-0.7305802786
 21
-9.9739896332
 31
0.0
 11
-0.7166257189
 21
-9.9800716601
 31
0.0
 11
-0.6992853691
 21
-9.9859718947
 31
0.0
 11
-0.678685467
 21
-9.9916473834
 31
0.0
 11
-0.6549759802
 21
-9.9970568086
 31
0.0
 11
-0.628329514
 21
-10.0021607894
 31
0.0
 11
-0.5989400551
 21
-10.006922169
 31
0.0
 11
-0.5670215589
 21
-10.0113062844
 31
0.0
 11
-0.5328063927
 21
-10.0152812191
 31
0.0
 11
-0.4965436431
 21
-10.0188180357
 31
0.0
 11
-0.4584973034
 21
-10.021890986
 31
0.0
 11
-0.4189443514
 21
-10.024477699
 31
0.0
 11
-0.3781727332
 21
-10.0265593432
 31
0.0
 11
-0.3364792664
 21
-10.0281207645
 31
0.0
 11
-0.2941674802
 21
-10.0291505955
 31
0.0
 11
-0.2515454047
 21
-10.0296413391
 31
0.0
  0
SPLINE
  5
300
100
AcDbEntity
  8
0
100
AcDbSpline
 62
253
  6
CONTINUOUS
 70
0
 71
3
 72
25
 73
21
 74
19
 42
0.0000001
 43
0.0000001
 44
0.0000000001
 12
0.0014329144
 22
-0.7839168072
 32
0.0
 13
0.7839168112
 23
-0.0014307322
 33
0.0
 40
0.0
 40
0.0
 40
0.0
 40
0.0
 40
0.0555066409
 40
0.1110226213
 40
0.1665481587
 40
0.2220831809
 40
0.2776273283
 40
0.3331799649
 40
0.3887401978
 40
0.444306904
 40
0.4998787649
 40
0.555454306
 40
0.6110319415
 40
0.6666100223
 40
0.7221868858
 40
0.7777609063
 40
0.833330544
 40
0.8888943916
 40
0.9444512168
 40
1.0
 40
1.0
 40
1.0
 40
1.0
 10
-0.7675922739
 20
-10.379873924
 30
0.0
 10
-0.7675657618
 20
-10.3943781202
 30
0.0
 10
-0.766246072
 20
-10.4234025399
 30
0.0
 10
-0.7604827772
 20
-10.4665922363
 30
0.0
 10
-0.7509793231
 20
-10.5091267991
 30
0.0
 10
-0.737807905
 20
-10.5506789313
 30
0.0
 10
-0.721068556
 20
-10.5909343097
 30
0.0
 10
-0.7008883983
 20
-10.6295869871
 30
0.0
 10
-0.6774206728
 20
-10.6663435859
 30
0.0
 10
-0.6508435759
 20
-10.7009250223
 30
0.0
 10
-0.6213589056
 20
-10.7330687574
 30
0.0
 10
-0.5891905287
 20
-10.7625307533
 30
0.0
 10
-0.5545826841
 20
-10.7890873332
 30
0.0
 10
-0.5177981199
 20
-10.8125368758
 30
0.0
 10
-0.4791161352
 20
-10.8327013453
 30
0.0
 10
-0.4388303276
 20
-10.8494276423
 30
0.0
 10
-0.3972468658
 20
-10.8625887647
 30
0.0
 10
-0.3546803004
 20
-10.8720847759
 30
0.0
 10
-0.311458143
 20
-10.8778435508
 30
0.0
 10
-0.2824120687
 20
-10.8791621996
 30
0.0
 10
-0.2678968604
 20
-10.8791886914
 30
0.0
 11
-0.7675922739
 21
-10.379873924
 31
0.0
 11
-0.7656157445
 21
-10.4233416711
 31
0.0
 11
-0.7598600724
 21
-10.4664793708
 31
0.0
 11
-0.7503689599
 21
-10.5089594819
 31
0.0
 11
-0.7372144725
 21
-10.5504594561
 31
0.0
 11
-0.720496491
 21
-10.5906641869
 31
0.0
 11
-0.700341954
 21
-10.629268403
 31
0.0
 11
-0.6769038932
 21
-10.6659789853
 31
0.0
 11
-0.650360272
 21
-10.7005171931
 31
0.0
 11
-0.6209126344
 21
-10.7326207803
 31
0.0
 11
-0.5887845738
 21
-10.7620459866
 31
0.0
 11
-0.5542200364
 21
-10.7885693887
 31
0.0
 11
-0.5174814682
 21
-10.8119895963
 31
0.0
 11
-0.4788478223
 21
-10.8321287813
 31
0.0
 11
-0.4386124412
 21
-10.8488340286
 31
0.0
 11
-0.3970808291
 21
-10.8619784963
 31
0.0
 11
-0.3545683327
 21
-10.8714623793
 31
0.0
 11
-0.3113977461
 21
-10.8772136674
 31
0.0
 11
-0.2678968604
 21
-10.8791886914
 31
0.0
  0
SPLINE
  5
301
100
AcDbEntity
  8
0
100
AcDbSpline
 62
253
  6
CONTINUOUS
 70
0
 71
3
 72
26
 73
22
 74
20
 42
0.0000001
 43
0.0000001
 44
0.0000000001
 12
0.2685929374
 22
0.8063832935
 32
0.0
 13
0.0022369592
 23
0.8499359847
 33
0.0
 40
0.0
 40
0.0
 40
0.0
 40
0.0
 40
0.0076246917
 40
0.0212415454
 40
0.0408201379
 40
0.0662705183
 40
0.097465855
 40
0.134246857
 40
0.176424113
 40
0.2237795972
 40
0.2760683609
 40
0.3330193498
 40
0.3943374779
 40
0.4597046572
 40
0.5287822035
 40
0.6012118306
 40
0.6766179093
 40
0.7546093822
 40
0.8347824281
 40
0.9167204116
 40
1.0
 40
1.0
 40
1.0
 40
1.0
 10
-0.2678968604
 20
-10.8791886914
 30
0.0
 10
-0.2672142143
 20
-10.8771392167
 30
0.0
 10
-0.2663851017
 20
-10.8711301306
 30
0.0
 10
-0.265165371
 20
-10.8596591889
 30
0.0
 10
-0.2640325721
 20
-10.8430656399
 30
0.0
 10
-0.2628524904
 20
-10.8215085235
 30
0.0
 10
-0.2617114915
 20
-10.7950613516
 30
0.0
 10
-0.2605935019
 20
-10.7638740754
 30
0.0
 10
-0.2595160991
 20
-10.7281035473
 30
0.0
 10
-0.2584830741
 20
-10.6879369436
 30
0.0
 10
-0.2575016358
 20
-10.6435822313
 30
0.0
 10
-0.2565770843
 20
-10.5952697641
 30
0.0
 10
-0.255714673
 20
-10.5432503151
 30
0.0
 10
-0.2549190929
 20
-10.487793825
 30
0.0
 10
-0.2541946551
 20
-10.4291880789
 30
0.0
 10
-0.2535452465
 20
-10.3677371413
 30
0.0
 10
-0.2529743226
 20
-10.3037598918
 30
0.0
 10
-0.2524849331
 20
-10.2375880963
 30
0.0
 10
-0.2520796293
 20
-10.1695651268
 30
0.0
 10
-0.2517606215
 20
-10.1000434925
 30
0.0
 10
-0.2516075024
 20
-10.0532354454
 30
0.0
 10
-0.2515454047
 20
-10.0296413391
 30
0.0
 11
-0.2678968604
 21
-10.8791886914
 31
0.0
 11
-0.2666440394
 21
-10.8728304205
 31
0.0
 11
-0.2654025222
 21
-10.8613237094
 31
0.0
 11
-0.2641786312
 21
-10.8447281702
 31
0.0
 11
-0.262978811
 21
-10.823130202
 31
0.0
 11
-0.2618092476
 21
-10.7966418788
 31
0.0
 11
-0.2606760234
 21
-10.7654008196
 31
0.0
 11
-0.2595850159
 21
-10.7295693336
 31
0.0
 11
-0.2585418876
 21
-10.6893335836
 31
0.0
 11
-0.257552045
 21
-10.6449023523
 31
0.0
 11
-0.2566206248
 21
-10.596506452
 31
0.0
 11
-0.2557524547
 21
-10.5443970195
 31
0.0
 11
-0.2549520386
 21
-10.4888446752
 31
0.0
 11
-0.2542235223
 21
-10.4301374996
 31
0.0
 11
-0.2535706839
 21
-10.3685802016
 31
0.0
 11
-0.2529969051
 21
-10.3044922084
 31
0.0
 11
-0.2525051644
 21
-10.2382060434
 31
0.0
 11
-0.2520979946
 21
-10.1700650671
 31
0.0
 11
-0.2517775322
 21
-10.1004235226
 31
0.0
 11
-0.2515454047
 21
-10.0296413391
 31
0.0
  0
SPLINE
  5
302
100
AcDbEntity
  8
0
100
AcDbSpline
 62
253
  6
CONTINUOUS
 70
0
 71
3
 72
26
 73
22
 74
20
 42
0.0000001
 43
0.0000001
 44
0.0000000001
 12
0.2359522709
 22
0.3541440557
 32
0.0
 13
0.0022405098
 23
0.4255425554
 33
0.0
 40
0.0
 40
0.0
 40
0.0
 40
0.0
 40
0.0080280304
 40
0.0218584245
 40
0.0415678431
 40
0.0671002974
 40
0.0983438593
 40
0.135147229
 40
0.1773258644
 40
0.2246650247
 40
0.2769221631
 40
0.333828105
 40
0.3950893218
 40
0.4603890646
 40
0.5293898417
 40
0.6017344933
 40
0.6770484607
 40
0.7549417191
 40
0.8350114612
 40
0.9168420376
 40
1.0
 40
1.0
 40
1.0
 40
1.0
 10
-0.7675922739
 20
-10.379873924
 30
0.0
 10
-0.7669608633
 20
-10.3789262309
 30
0.0
 10
-0.7660652539
 20
-10.3758849764
 30
0.0
 10
-0.7648790899
 20
-10.3701472293
 30
0.0
 10
-0.7637241828
 20
-10.3618249153
 30
0.0
 10
-0.7625510396
 20
-10.3510462894
 30
0.0
 10
-0.7614067765
 20
-10.3378177596
 30
0.0
 10
-0.7602895474
 20
-10.3222229266
 30
0.0
 10
-0.7592116934
 20
-10.3043361382
 30
0.0
 10
-0.7581786872
 20
-10.2842518908
 30
0.0
 10
-0.7571971587
 20
-10.2620736461
 30
0.0
 10
-0.7562725742
 20
-10.237916624
 30
0.0
 10
-0.7554101278
 20
-10.2119061318
 30
0.0
 10
-0.7546145236
 20
-10.1841771314
 30
0.0
 10
-0.7538900677
 20
-10.1548735048
 30
0.0
 10
-0.7532406438
 20
-10.1241472835
 30
0.0
 10
-0.7526697152
 20
-10.0921579069
 30
0.0
 10
-0.7521803111
 20
-10.0590712605
 30
0.0
 10
-0.7517750242
 20
-10.0250590348
 30
0.0
 10
-0.7514560032
 20
-9.9902990681
 30
0.0
 10
-0.7513029237
 20
-9.9668959984
 30
0.0
 10
-0.7512408183
 20
-9.9551002478
 30
0.0
 11
-0.7675922739
 21
-10.379873924
 31
0.0
 11
-0.7663396672
 21
-10.3766955296
 31
0.0
 11
-0.7650980928
 21
-10.3709424751
 31
0.0
 11
-0.7638741985
 21
-10.3626449396
 31
0.0
 11
-0.7626743511
 21
-10.3518460955
 31
0.0
 11
-0.7615047692
 21
-10.3386019884
 31
0.0
 11
-0.760371524
 21
-10.3229814249
 31
0.0
 11
-0.7592804969
 21
-10.3050655614
 31
0.0
 11
-0.7582373497
 21
-10.284947481
 31
0.0
 11
-0.7572474895
 21
-10.2627315779
 31
0.0
 11
-0.756316053
 21
-10.238533262
 31
0.0
 11
-0.7554478686
 21
-10.2124781064
 31
0.0
 11
-0.7546474402
 21
-10.1847014322
 31
0.0
 11
-0.7539189142
 21
-10.1553472973
 31
0.0
 11
-0.7532660682
 21
-10.1245680655
 31
0.0
 11
-0.7526922861
 21
-10.0925234597
 31
0.0
 11
-0.752200541
 21
-10.0593797518
 31
0.0
 11
-0.751793378
 21
-10.0253086297
 31
0.0
 11
-0.7514729103
 21
-9.990487229
 31
0.0
 11
-0.7512408183
 21
-9.9551002478
 31
0.0
  0
SPLINE
  5
303
100
AcDbEntity
  8
RACCORDO
100
AcDbSpline
 62
253
  6
CONTINUOUS
 70
0
 71
3
 72
10
 73
6
 74
4
 42
0.0000001
 43
0.0000001
 44
0.0000000001
 12
0.0002526151
 22
-9.102232222
 32
0.0
 13
0.0060343306
 23
-9.1022302253
 33
0.0
 40
0.0
 40
0.0
 40
0.0
 40
0.0
 40
0.3333526785
 40
0.6666869171
 40
1.0
 40
1.0
 40
1.0
 40
1.0
 10
20.7221843234
 20
10.7799866271
 30
0.0
 10
20.7222123934
 20
9.7685687964
 30
0.0
 10
20.7224853304
 20
7.7457890831
 30
0.0
 10
20.7235319502
 20
4.7117118349
 30
0.0
 10
20.7246589258
 20
2.6890525532
 30
0.0
 10
20.7253293662
 20
1.6777550805
 30
0.0
 11
20.7221843234
 21
10.7799866271
 31
0.0
 11
20.7225915515
 21
7.7457331613
 31
0.0
 11
20.7236392915
 21
4.7116476944
 31
0.0
 11
20.7253293662
 21
1.6777550805
 31
0.0
  0
SPLINE
  5
304
100
AcDbEntity
  8
RACCORDO
100
AcDbSpline
 62
253
  6
CONTINUOUS
 70
0
 71
3
 72
25
 73
21
 74
19
 42
0.0000001
 43
0.0000001
 44
0.0000000001
 12
-0.2498751414
 22
0.0000000203
 32
0.0
 13
-0.2424238368
 23
0.0605662416
 33
0.0
 40
0.0
 40
0.0
 40
0.0
 40
0.0
 40
0.0852547325
 40
0.169900986
 40
0.2533120723
 40
0.3348797757
 40
0.4140110861
 40
0.4901304632
 40
0.5626837212
 40
0.6311429841
 40
0.6950103138
 40
0.7538209474
 40
0.8071470326
 40
0.8546008355
 40
0.8958373009
 40
0.9305566248
 40
0.958507049
 40
0.9794866968
 40
0.9933463674
 40
1.0
 40
1.0
 40
1.0
 40
1.0
 10
-0.2140393385
 20
11.0301759923
 30
0.0
 10
-0.2211403513
 20
11.0301759929
 30
0.0
 10
-0.2352916961
 20
11.0301812441
 30
0.0
 10
-0.2563904814
 20
11.0302048511
 30
0.0
 10
-0.2771821443
 20
11.0302440033
 30
0.0
 10
-0.2975144224
 20
11.0302984091
 30
0.0
 10
-0.3172393129
 20
11.0303676621
 30
0.0
 10
-0.3362133126
 20
11.0304512432
 30
0.0
 10
-0.3542983417
 20
11.0305485253
 30
0.0
 10
-0.3713627843
 20
11.0306587649
 30
0.0
 10
-0.3872824622
 20
11.0307811396
 30
0.0
 10
-0.4019415505
 20
11.0309146262
 30
0.0
 10
-0.4152333123
 20
11.0310583945
 30
0.0
 10
-0.4270612436
 20
11.0312105133
 30
0.0
 10
-0.4373386505
 20
11.0313719041
 30
0.0
 10
-0.4459926429
 20
11.0315342504
 30
0.0
 10
-0.4529551316
 20
11.0317141691
 30
0.0
 10
-0.4581890809
 20
11.0318603557
 30
0.0
 10
-0.4616277771
 20
11.0320734342
 30
0.0
 10
-0.463349326
 20
11.032147226
 30
0.0
 10
-0.4638869924
 20
11.0322815546
 30
0.0
 11
-0.2140393385
 21
11.0301759923
 31
0.0
 11
-0.2353423753
 21
11.0301839275
 31
0.0
 11
-0.2564933565
 21
11.0302076799
 31
0.0
 11
-0.2773356763
 21
11.030247077
 31
0.0
 11
-0.2977173442
 21
11.0303018319
 31
0.0
 11
-0.3174901687
 21
11.0303715464
 31
0.0
 11
-0.3365103225
 21
11.0304557135
 31
0.0
 11
-0.3546393132
 21
11.0305537206
 31
0.0
 11
-0.3717452202
 21
11.0306648545
 31
0.0
 11
-0.3877036008
 21
11.0307883067
 31
0.0
 11
-0.4023982972
 21
11.0309231788
 31
0.0
 11
-0.4157223679
 21
11.0310684893
 31
0.0
 11
-0.4275788845
 21
11.031223181
 31
0.0
 11
-0.4378815637
 21
11.0313861283
 31
0.0
 11
-0.4465553935
 21
11.0315561447
 31
0.0
 11
-0.4535372956
 21
11.0317319935
 31
0.0
 11
-0.458776483
 21
11.0319123962
 31
0.0
 11
-0.4622347979
 21
11.032096037
 31
0.0
 11
-0.4638869924
 21
11.0322815546
 31
0.0
  0
SPLINE
  5
305
100
AcDbEntity
  8
RACCORDO
100
AcDbSpline
 62
253
  6
CONTINUOUS
 70
0
 71
3
 72
25
 73
21
 74
19
 42
0.0000001
 43
0.0000001
 44
0.0000000001
 12
-0.2424238368
 22
-0.0605662415
 32
0.0
 13
-0.2498751414
 23
-0.0000000203
 33
0.0
 40
0.0
 40
0.0
 40
0.0
 40
0.0
 40
0.0066536326
 40
0.0205133032
 40
0.041492951
 40
0.0694433752
 40
0.1041626991
 40
0.1453991645
 40
0.1928529674
 40
0.2461790526
 40
0.3049896861
 40
0.3688570158
 40
0.4373162788
 40
0.5098695368
 40
0.5859889138
 40
0.6651202243
 40
0.7466879277
 40
0.830099014
 40
0.9147452674
 40
1.0
 40
1.0
 40
1.0
 40
1.0
 10
20.9720338077
 20
11.0322815546
 30
0.0
 10
20.9714961413
 20
11.032147226
 30
0.0
 10
20.9697745924
 20
11.0320734342
 30
0.0
 10
20.9663358963
 20
11.0318603557
 30
0.0
 10
20.961101947
 20
11.0317141691
 30
0.0
 10
20.9541394582
 20
11.0315342504
 30
0.0
 10
20.9454854658
 20
11.0313719041
 30
0.0
 10
20.9352080589
 20
11.0312105133
 30
0.0
 10
20.9233801277
 20
11.0310583945
 30
0.0
 10
20.9100883658
 20
11.0309146262
 30
0.0
 10
20.8954292776
 20
11.0307811396
 30
0.0
 10
20.8795095997
 20
11.0306587649
 30
0.0
 10
20.8624451571
 20
11.0305485253
 30
0.0
 10
20.844360128
 20
11.0304512432
 30
0.0
 10
20.8253861282
 20
11.0303676621
 30
0.0
 10
20.8056612377
 20
11.0302984091
 30
0.0
 10
20.7853289597
 20
11.0302440033
 30
0.0
 10
20.7645372968
 20
11.0302048511
 30
0.0
 10
20.7434385115
 20
11.0301812441
 30
0.0
 10
20.7292871666
 20
11.0301759929
 30
0.0
 10
20.7221861538
 20
11.0301759923
 30
0.0
 11
20.9720338077
 21
11.0322815546
 31
0.0
 11
20.9703816132
 21
11.032096037
 31
0.0
 11
20.9669232984
 21
11.0319123962
 31
0.0
 11
20.9616841109
 21
11.0317319935
 31
0.0
 11
20.9547022089
 21
11.0315561447
 31
0.0
 11
20.946028379
 21
11.0313861283
 31
0.0
 11
20.9357256999
 21
11.031223181
 31
0.0
 11
20.9238691833
 21
11.0310684893
 31
0.0
 11
20.9105451125
 21
11.0309231788
 31
0.0
 11
20.8958504161
 21
11.0307883067
 31
0.0
 11
20.8798920356
 21
11.0306648545
 31
0.0
 11
20.8627861286
 21
11.0305537206
 31
0.0
 11
20.8446571379
 21
11.0304557135
 31
0.0
 11
20.825636984
 21
11.0303715464
 31
0.0
 11
20.8058641595
 21
11.0303018319
 31
0.0
 11
20.7854824916
 21
11.030247077
 31
0.0
 11
20.7646401719
 21
11.0302076799
 31
0.0
 11
20.7434891907
 21
11.0301839275
 31
0.0
 11
20.7221861538
 21
11.0301759923
 31
0.0
  0
SPLINE
  5
306
100
AcDbEntity
  8
RACCORDO
100
AcDbSpline
 62
253
  6
CONTINUOUS
 70
0
 71
3
 72
10
 73
6
 74
4
 42
0.0000001
 43
0.0000001
 44
0.0000000001
 12
0.0002514557
 22
-9.0950366859
 32
0.0
 13
0.0060355961
 23
-9.0950346867
 33
0.0
 40
0.0
 40
0.0
 40
0.0
 40
0.0
 40
0.33335237
 40
0.66668676
 40
1.0
 40
1.0
 40
1.0
 40
1.0
 10
21.2218815814
 20
10.7822910905
 30
0.0
 10
21.2219095225
 20
9.7716737456
 30
0.0
 10
21.2221795088
 20
7.7504935646
 30
0.0
 10
21.223227284
 20
4.7188148288
 30
0.0
 10
21.2243541984
 20
2.6977535736
 30
0.0
 10
21.2250247797
 20
1.6872550805
 30
0.0
 11
21.2218815814
 21
10.7822910905
 31
0.0
 11
21.2222866597
 21
7.7504390818
 31
0.0
 11
21.2233344173
 21
4.718750756
 31
0.0
 11
21.2250247797
 21
1.6872550805
 31
0.0
  0
SPLINE
  5
307
100
AcDbEntity
  8
RACCORDO
100
AcDbSpline
 62
253
  6
CONTINUOUS
 70
0
 71
3
 72
25
 73
21
 74
19
 42
0.0000001
 43
0.0000001
 44
0.0000000001
 12
-0.4951377735
 22
-0.0674709553
 32
0.0
 13
-0.4997136625
 23
-0.0000069763
 33
0.0
 40
0.0
 40
0.0
 40
0.0
 40
0.0
 40
0.0066260327
 40
0.0204733849
 40
0.041446253
 40
0.0693927016
 40
0.1041099476
 40
0.1453456978
 40
0.1927998486
 40
0.2461271361
 40
0.3049396744
 40
0.3688095125
 40
0.4372718806
 40
0.5098287828
 40
0.5859522814
 40
0.665088138
 40
0.7466607239
 40
0.8300771141
 40
0.914728373
 40
1.0
 40
1.0
 40
1.0
 40
1.0
 10
21.2218815814
 20
10.7822910829
 30
0.0
 10
21.2207879817
 20
10.7821420613
 30
0.0
 10
21.2173694698
 20
10.7820661226
 30
0.0
 10
21.2104764423
 20
10.7818301791
 30
0.0
 10
21.2000186832
 20
10.7816723499
 30
0.0
 10
21.1860901927
 20
10.7814751466
 30
0.0
 10
21.1687838236
 20
10.7812980505
 30
0.0
 10
21.1482287043
 20
10.7811215758
 30
0.0
 10
21.124573235
 20
10.7809552886
 30
0.0
 10
21.0979899549
 20
10.7807980228
 30
0.0
 10
21.0686721636
 20
10.7806519437
 30
0.0
 10
21.0368332316
 20
10.7805179453
 30
0.0
 10
21.0027048135
 20
10.7803971545
 30
0.0
 10
20.9665352331
 20
10.7802904722
 30
0.0
 10
20.9285877102
 20
10.7801987164
 30
0.0
 10
20.8891383967
 20
10.7801225756
 30
0.0
 10
20.8484742681
 20
10.7800626238
 30
0.0
 10
20.8068914107
 20
10.7800193064
 30
0.0
 10
20.7646923853
 20
10.7799929501
 30
0.0
 10
20.7363881224
 20
10.7799868248
 30
0.0
 10
20.7221843234
 20
10.7799866265
 30
0.0
 11
21.2218815814
 21
10.7822910829
 31
0.0
 11
21.218576656
 21
10.7820886537
 31
0.0
 11
21.2116598477
 21
10.7818882449
 31
0.0
 11
21.2011812697
 21
10.781691294
 31
0.0
 11
21.1872173679
 21
10.7814992543
 31
0.0
 11
21.1698696801
 21
10.7813135169
 31
0.0
 11
21.1492643818
 21
10.7811354362
 31
0.0
 11
21.1255514974
 21
10.7809663099
 31
0.0
 11
21.0989035973
 21
10.7808073704
 31
0.0
 11
21.069514539
 21
10.7806597757
 31
0.0
 11
21.0375981945
 21
10.7805246016
 31
0.0
 11
21.0033868305
 21
10.7804028337
 31
0.0
 11
20.9671293144
 21
10.7802953595
 31
0.0
 11
20.9290894743
 21
10.7802029627
 31
0.0
 11
20.8895442799
 21
10.7801263174
 31
0.0
 11
20.8487813889
 21
10.7800659828
 31
0.0
 11
20.8070971018
 21
10.7800223974
 31
0.0
 11
20.7647957195
 21
10.7799958818
 31
0.0
 11
20.7221843234
 21
10.7799866265
 31
0.0
  0
SPLINE
  5
308
100
AcDbEntity
  8
0
100
AcDbSpline
 62
253
  6
CONTINUOUS
 70
0
 71
3
 72
25
 73
21
 74
19
 42
0.0000001
 43
0.0000001
 44
0.0000000001
 12
-0.4390248508
 22
-0.2392029787
 32
0.0
 13
-0.4999607732
 23
-0.0003316614
 33
0.0
 40
0.0
 40
0.0
 40
0.0
 40
0.0
 40
0.0068059321
 40
0.0207337759
 40
0.0417520194
 40
0.0697246348
 40
0.1044548601
 40
0.145693439
 40
0.1931423402
 40
0.246457634
 40
0.3052523086
 40
0.369099243
 40
0.4375344017
 40
0.5100602612
 40
0.5861494627
 40
0.6652486694
 40
0.7467826077
 40
0.8301582634
 40
0.9147692045
 40
1.0
 40
1.0
 40
1.0
 40
1.0
 10
21.2250247797
 20
1.6872550805
 30
0.0
 10
21.2240287886
 20
1.6867124141
 30
0.0
 10
21.2204864918
 20
1.6863103618
 30
0.0
 10
21.2136649823
 20
1.6854352307
 30
0.0
 10
21.2031553829
 20
1.6847612126
 30
0.0
 10
21.189243176
 20
1.6839807723
 30
0.0
 10
21.1719287002
 20
1.6832577008
 30
0.0
 10
21.1513754636
 20
1.6825428815
 30
0.0
 10
21.1277189817
 20
1.6818642647
 30
0.0
 10
21.1011358999
 20
1.6812207728
 30
0.0
 10
21.0718180592
 20
1.6806200179
 30
0.0
 10
21.039979224
 20
1.6800660453
 30
0.0
 10
21.0058508943
 20
1.6795633733
 30
0.0
 10
20.9696814296
 20
1.6791157739
 30
0.0
 10
20.9317339892
 20
1.678726651
 30
0.0
 10
20.8922846898
 20
1.6783989209
 30
0.0
 10
20.851620573
 20
1.678135034
 30
0.0
 10
20.8100375223
 20
1.677936955
 30
0.0
 10
20.7678381099
 20
1.6778061546
 30
0.0
 10
20.7395333844
 20
1.6777645031
 30
0.0
 10
20.7253293662
 20
1.6777550805
 30
0.0
 11
21.2250247797
 21
1.6872550805
 31
0.0
 11
21.2217199244
 21
1.6864449587
 31
0.0
 11
21.2148031449
 21
1.6856407316
 31
0.0
 11
21.2043247702
 21
1.6848482511
 31
0.0
 11
21.190361045
 21
1.6840732837
 31
0.0
 11
21.1730135746
 21
1.6833214681
 31
0.0
 11
21.1524085856
 21
1.682598275
 31
0.0
 11
21.1286960078
 21
1.6819089666
 31
0.0
 11
21.1020483828
 21
1.6812585585
 31
0.0
 11
21.0726596086
 21
1.6806517834
 31
0.0
 11
21.0407435291
 21
1.6800930563
 31
0.0
 11
21.0065323776
 21
1.6795864428
 31
0.0
 11
20.9702750873
 21
1.6791356292
 31
0.0
 11
20.9322354799
 21
1.6787438958
 31
0.0
 11
20.8926903459
 21
1.678414093
 31
0.0
 11
20.8519274306
 21
1.6781486205
 31
0.0
 11
20.8102433401
 21
1.67794941
 31
0.0
 11
20.7679413837
 21
1.6778179111
 31
0.0
 11
20.7253293662
 21
1.6777550805
 31
0.0
  0
SPLINE
  5
309
100
AcDbEntity
  8
0
100
AcDbSpline
 62
253
  6
CONTINUOUS
 70
0
 71
3
 72
25
 73
21
 74
19
 42
0.0000001
 43
0.0000001
 44
0.0000000001
 12
-0.1156726714
 22
-0.5000143222
 32
0.0
 13
-0.5132129279
 23
-0.0026419614
 33
0.0
 40
0.0
 40
0.0
 40
0.0
 40
0.0
 40
0.013948679
 40
0.0321748863
 40
0.0558987844
 40
0.0855593318
 40
0.1212490608
 40
0.1628831421
 40
0.210267819
 40
0.2631318866
 40
0.3211434051
 40
0.3839199784
 40
0.4510360375
 40
0.5220286697
 40
0.5964027332
 40
0.673635628
 40
0.753181915
 40
0.8344778813
 40
0.9169460997
 40
1.0
 40
1.0
 40
1.0
 40
1.0
 10
21.2593876336
 20
-9.9551002478
 30
0.0
 10
21.2588498066
 20
-9.9574250943
 30
0.0
 10
21.255970459
 20
-9.9623746374
 30
0.0
 10
21.2486073091
 20
-9.9685859843
 30
0.0
 10
21.2379337593
 20
-9.9746893416
 30
0.0
 10
21.2238840178
 20
-9.9806443302
 30
0.0
 10
21.2065128082
 20
-9.9864489088
 30
0.0
 10
21.1859168322
 20
-9.9920455283
 30
0.0
 10
21.1622346847
 20
-9.9973922671
 30
0.0
 10
21.1356318468
 20
-10.0024448522
 30
0.0
 10
21.1062985117
 20
-10.0071639629
 30
0.0
 10
21.0744460639
 20
-10.011512996
 30
0.0
 10
21.0403050884
 20
-10.0154588053
 30
0.0
 10
21.0041232757
 20
-10.0189715464
 30
0.0
 10
20.9661634547
 20
-10.0220248399
 30
0.0
 10
20.9267015648
 20
-10.0245958636
 30
0.0
 10
20.8860245963
 20
-10.0266654696
 30
0.0
 10
20.8444284241
 20
-10.0282182863
 30
0.0
 10
20.8022157719
 20
-10.0292428059
 30
0.0
 10
20.7739003319
 20
-10.029568196
 30
0.0
 10
20.7596922201
 20
-10.0296413378
 30
0.0
 11
21.2593876336
 21
-9.9551002478
 31
0.0
 11
21.2560978727
 21
-9.961458313
 31
0.0
 11
21.2491942729
 21
-9.9677700913
 31
0.0
 11
21.2387270924
 21
-9.973989633
 31
0.0
 11
21.2247725324
 21
-9.9800716597
 31
0.0
 11
21.2074321823
 21
-9.9859718943
 31
0.0
 11
21.18683228
 21
-9.9916473829
 31
0.0
 11
21.1631227931
 21
-9.997056808
 31
0.0
 11
21.1364763269
 21
-10.0021607887
 31
0.0
 11
21.1070868679
 21
-10.0069221682
 31
0.0
 11
21.0751683719
 21
-10.0113062835
 31
0.0
 11
21.0409532058
 21
-10.0152812182
 31
0.0
 11
21.0046904564
 21
-10.0188180347
 31
0.0
 11
20.966644117
 21
-10.0218909849
 31
0.0
 11
20.9270911653
 21
-10.0244776978
 31
0.0
 11
20.8863195474
 21
-10.0265593421
 31
0.0
 11
20.844626081
 21
-10.0281207632
 31
0.0
 11
20.8023142951
 21
-10.0291505942
 31
0.0
 11
20.7596922201
 21
-10.0296413378
 31
0.0
  0
SPLINE
  5
30A
100
AcDbEntity
  8
0
100
AcDbSpline
 62
253
  6
CONTINUOUS
 70
0
 71
3
 72
26
 73
22
 74
20
 42
0.0000001
 43
0.0000001
 44
0.0000000001
 12
0.0022369592
 22
-0.8499359847
 32
0.0
 13
0.2685929371
 23
-0.8063832936
 33
0.0
 40
0.0
 40
0.0
 40
0.0
 40
0.0
 40
0.0832795884
 40
0.1652175719
 40
0.2453906178
 40
0.3233820907
 40
0.3987881694
 40
0.4712177965
 40
0.5402953428
 40
0.6056625221
 40
0.6669806502
 40
0.7239316391
 40
0.7762204028
 40
0.823575887
 40
0.865753143
 40
0.902534145
 40
0.9337294817
 40
0.9591798621
 40
0.9787584546
 40
0.9923753083
 40
1.0
 40
1.0
 40
1.0
 40
1.0
 10
20.7596922201
 20
-10.0296413391
 30
0.0
 10
20.7597543178
 20
-10.0532354454
 30
0.0
 10
20.7599074368
 20
-10.1000434925
 30
0.0
 10
20.7602264447
 20
-10.1695651268
 30
0.0
 10
20.7606317484
 20
-10.2375880963
 30
0.0
 10
20.7611211379
 20
-10.3037598918
 30
0.0
 10
20.7616920619
 20
-10.3677371413
 30
0.0
 10
20.7623414705
 20
-10.4291880789
 30
0.0
 10
20.7630659082
 20
-10.487793825
 30
0.0
 10
20.7638614883
 20
-10.5432503151
 30
0.0
 10
20.7647238996
 20
-10.5952697641
 30
0.0
 10
20.7656484511
 20
-10.6435822313
 30
0.0
 10
20.7666298895
 20
-10.6879369436
 30
0.0
 10
20.7676629144
 20
-10.7281035473
 30
0.0
 10
20.7687403172
 20
-10.7638740754
 30
0.0
 10
20.7698583069
 20
-10.7950613516
 30
0.0
 10
20.7709993058
 20
-10.8215085235
 30
0.0
 10
20.7721793874
 20
-10.8430656399
 30
0.0
 10
20.7733121864
 20
-10.8596591889
 30
0.0
 10
20.774531917
 20
-10.8711301306
 30
0.0
 10
20.7753610296
 20
-10.8771392167
 30
0.0
 10
20.7760436758
 20
-10.8791886914
 30
0.0
 11
20.7596922201
 21
-10.0296413391
 31
0.0
 11
20.7599243475
 21
-10.1004235226
 31
0.0
 11
20.76024481
 21
-10.1700650671
 31
0.0
 11
20.7606519798
 21
-10.2382060434
 31
0.0
 11
20.7611437205
 21
-10.3044922084
 31
0.0
 11
20.7617174993
 21
-10.3685802016
 31
0.0
 11
20.7623703377
 21
-10.4301374996
 31
0.0
 11
20.763098854
 21
-10.4888446752
 31
0.0
 11
20.7638992701
 21
-10.5443970195
 31
0.0
 11
20.7647674401
 21
-10.596506452
 31
0.0
 11
20.7656988603
 21
-10.6449023523
 31
0.0
 11
20.7666887029
 21
-10.6893335836
 31
0.0
 11
20.7677318312
 21
-10.7295693336
 31
0.0
 11
20.7688228388
 21
-10.7654008196
 31
0.0
 11
20.7699560629
 21
-10.7966418788
 31
0.0
 11
20.7711256264
 21
-10.823130202
 31
0.0
 11
20.7723254465
 21
-10.8447281702
 31
0.0
 11
20.7735493375
 21
-10.8613237094
 31
0.0
 11
20.7747908547
 21
-10.8728304205
 31
0.0
 11
20.7760436758
 21
-10.8791886914
 31
0.0
  0
SPLINE
  5
30B
100
AcDbEntity
  8
0
100
AcDbSpline
 62
253
  6
CONTINUOUS
 70
0
 71
3
 72
26
 73
22
 74
20
 42
0.0000001
 43
0.0000001
 44
0.0000000001
 12
0.0022405098
 22
-0.4255425554
 32
0.0
 13
0.2359522711
 23
-0.3541440557
 33
0.0
 40
0.0
 40
0.0
 40
0.0
 40
0.0
 40
0.0831579624
 40
0.1649885388
 40
0.2450582809
 40
0.3229515393
 40
0.3982655067
 40
0.4706101583
 40
0.5396109354
 40
0.6049106782
 40
0.666171895
 40
0.7230778369
 40
0.7753349753
 40
0.8226741356
 40
0.864852771
 40
0.9016561407
 40
0.9328997026
 40
0.9584321569
 40
0.9781415755
 40
0.9919719696
 40
1.0
 40
1.0
 40
1.0
 40
1.0
 10
21.2593876336
 20
-9.9551002478
 30
0.0
 10
21.259449739
 20
-9.9668959984
 30
0.0
 10
21.2596028185
 20
-9.9902990681
 30
0.0
 10
21.2599218396
 20
-10.0250590348
 30
0.0
 10
21.2603271265
 20
-10.0590712605
 30
0.0
 10
21.2608165306
 20
-10.0921579069
 30
0.0
 10
21.2613874591
 20
-10.1241472835
 30
0.0
 10
21.2620368831
 20
-10.1548735048
 30
0.0
 10
21.262761339
 20
-10.1841771314
 30
0.0
 10
21.2635569431
 20
-10.2119061318
 30
0.0
 10
21.2644193895
 20
-10.237916624
 30
0.0
 10
21.265343974
 20
-10.2620736461
 30
0.0
 10
21.2663255026
 20
-10.2842518908
 30
0.0
 10
21.2673585087
 20
-10.3043361382
 30
0.0
 10
21.2684363627
 20
-10.3222229266
 30
0.0
 10
21.2695535919
 20
-10.3378177596
 30
0.0
 10
21.270697855
 20
-10.3510462894
 30
0.0
 10
21.2718709982
 20
-10.3618249153
 30
0.0
 10
21.2730259053
 20
-10.3701472293
 30
0.0
 10
21.2742120692
 20
-10.3758849764
 30
0.0
 10
21.2751076786
 20
-10.3789262309
 30
0.0
 10
21.2757390893
 20
-10.379873924
 30
0.0
 11
21.2593876336
 21
-9.9551002478
 31
0.0
 11
21.2596197257
 21
-9.990487229
 31
0.0
 11
21.2599401934
 21
-10.0253086297
 31
0.0
 11
21.2603473564
 21
-10.0593797518
 31
0.0
 11
21.2608391014
 21
-10.0925234597
 31
0.0
 11
21.2614128836
 21
-10.1245680655
 31
0.0
 11
21.2620657295
 21
-10.1553472973
 31
0.0
 11
21.2627942555
 21
-10.1847014322
 31
0.0
 11
21.263594684
 21
-10.2124781064
 31
0.0
 11
21.2644628684
 21
-10.238533262
 31
0.0
 11
21.2653943048
 21
-10.2627315779
 31
0.0
 11
21.266384165
 21
-10.284947481
 31
0.0
 11
21.2674273122
 21
-10.3050655614
 31
0.0
 11
21.2685183393
 21
-10.3229814249
 31
0.0
 11
21.2696515846
 21
-10.3386019884
 31
0.0
 11
21.2708211665
 21
-10.3518460955
 31
0.0
 11
21.2720210138
 21
-10.3626449396
 31
0.0
 11
21.2732449081
 21
-10.3709424751
 31
0.0
 11
21.2744864826
 21
-10.3766955296
 31
0.0
 11
21.2757390893
 21
-10.379873924
 31
0.0
  0
SPLINE
  5
30C
100
AcDbEntity
  8
0
100
AcDbSpline
 62
253
  6
CONTINUOUS
 70
0
 71
3
 72
25
 73
21
 74
19
 42
0.0000001
 43
0.0000001
 44
0.0000000001
 12
-0.0014329144
 22
-0.7839168072
 32
0.0
 13
-0.7839168112
 23
-0.0014307322
 33
0.0
 40
0.0
 40
0.0
 40
0.0
 40
0.0
 40
0.055506642
 40
0.1110226234
 40
0.1665481617
 40
0.2220831846
 40
0.2776273326
 40
0.3331799697
 40
0.3887402028
 40
0.4443069091
 40
0.49987877
 40
0.555454311
 40
0.6110319462
 40
0.6666100265
 40
0.7221868895
 40
0.7777609094
 40
0.8333305464
 40
0.8888943932
 40
0.9444512176
 40
1.0
 40
1.0
 40
1.0
 40
1.0
 10
21.2757390893
 20
-10.379873924
 30
0.0
 10
21.2757125772
 20
-10.3943781205
 30
0.0
 10
21.2743928873
 20
-10.4234025407
 30
0.0
 10
21.2686295923
 20
-10.4665922379
 30
0.0
 10
21.2591261378
 20
-10.5091268013
 30
0.0
 10
21.2459547193
 20
-10.550678934
 30
0.0
 10
21.2292153699
 20
-10.5909343127
 30
0.0
 10
21.2090352118
 20
-10.6295869902
 30
0.0
 10
21.1855674859
 20
-10.6663435891
 30
0.0
 10
21.1589903887
 20
-10.7009250253
 30
0.0
 10
21.1295057181
 20
-10.7330687602
 30
0.0
 10
21.0973373411
 20
-10.7625307558
 30
0.0
 10
21.0627294965
 20
-10.7890873353
 30
0.0
 10
21.0259449323
 20
-10.8125368775
 30
0.0
 10
20.9872629479
 20
-10.8327013465
 30
0.0
 10
20.9469771406
 20
-10.8494276431
 30
0.0
 10
20.9053936794
 20
-10.8625887652
 30
0.0
 10
20.8628271144
 20
-10.8720847761
 30
0.0
 10
20.8196049577
 20
-10.8778435509
 30
0.0
 10
20.7905588839
 20
-10.8791621996
 30
0.0
 10
20.7760436758
 20
-10.8791886914
 30
0.0
 11
21.2757390893
 21
-10.379873924
 31
0.0
 11
21.2737625597
 21
-10.4233416719
 31
0.0
 11
21.2680068874
 21
-10.4664793725
 31
0.0
 11
21.2585157747
 21
-10.5089594842
 31
0.0
 11
21.2453612868
 21
-10.5504594588
 31
0.0
 11
21.228643305
 21
-10.59066419
 31
0.0
 11
21.2084887675
 21
-10.6292684062
 31
0.0
 11
21.1850507062
 21
-10.6659789886
 31
0.0
 11
21.1585070848
 21
-10.7005171962
 31
0.0
 11
21.1290594469
 21
-10.7326207831
 31
0.0
 11
21.0969313862
 21
-10.7620459891
 31
0.0
 11
21.0623668488
 21
-10.7885693908
 31
0.0
 11
21.0256282806
 21
-10.8119895979
 31
0.0
 11
20.986994635
 21
-10.8321287826
 31
0.0
 11
20.9467592542
 21
-10.8488340294
 31
0.0
 11
20.9052276427
 21
-10.8619784967
 31
0.0
 11
20.8627151468
 21
-10.8714623796
 31
0.0
 11
20.8195445608
 21
-10.8772136675
 31
0.0
 11
20.7760436758
 21
-10.8791886914
 31
0.0
  0
LINE
  5
30D
100
AcDbEntity
  8
ASSI
100
AcDbLine
 62
7
  6
CONTINUOUS
 10
14.8040734077
 20
7.379263316
 11
14.8040734076
 21
7.1454248384
  0
LINE
  5
30E
100
AcDbEntity
  8
ASSI
100
AcDbLine
 62
7
  6
CONTINUOUS
 10
14.8040734076
 20
7.1454248384
 11
14.8040734076
 21
6.9115872538
  0
LINE
  5
30F
100
AcDbEntity
  8
ASSI
100
AcDbLine
 62
7
  6
CONTINUOUS
 10
14.8040734076
 20
6.9115872538
 11
14.8040734076
 21
6.6777506135
  0
LINE
  5
310
100
AcDbEntity
  8
ASSI
100
AcDbLine
 62
7
  6
CONTINUOUS
 10
14.8040734076
 20
6.6777506135
 11
14.8040734076
 21
6.4439149685
  0
LINE
  5
311
100
AcDbEntity
  8
ASSI
100
AcDbLine
 62
7
  6
CONTINUOUS
 10
14.8040734076
 20
6.4439149685
 11
14.8040734076
 21
6.2100803699
  0
LINE
  5
312
100
AcDbEntity
  8
ASSI
100
AcDbLine
 62
7
  6
CONTINUOUS
 10
14.8040734076
 20
6.2100803699
 11
14.8040734077
 21
5.9762468691
  0
LINE
  5
313
100
AcDbEntity
  8
ASSI
100
AcDbLine
 62
7
  6
CONTINUOUS
 10
5.7040734077
 20
5.9762468691
 11
5.7040734077
 21
7.379263316
  0
SPLINE
  5
314
100
AcDbEntity
  8
ASSI
100
AcDbSpline
 62
7
  6
CONTINUOUS
 70
0
 71
3
 72
25
 73
21
 74
19
 42
0.0000001
 43
0.0000001
 44
0.0000000001
 12
-0.6256832202
 22
0.0
 32
0.0
 13
0.0
 23
0.6256832202
 33
0.0
 40
0.0
 40
0.0
 40
0.0
 40
0.0
 40
0.0556733582
 40
0.1114505503
 40
0.1670993388
 40
0.2225000448
 40
0.278013467
 40
0.3335579392
 40
0.3889329739
 40
0.4441938583
 40
0.4996537624
 40
0.5551262503
 40
0.6104212299
 40
0.6658457278
 40
0.721459882
 40
0.7770616371
 40
0.8325613724
 40
0.8883154579
 40
0.9442070521
 40
1.0
 40
1.0
 40
1.0
 40
1.0
 10
6.1021748641
 20
5.5777550805
 30
0.0
 10
6.0905635688
 20
5.5777550805
 30
0.0
 10
6.0673066233
 20
5.5787656738
 30
0.0
 10
6.0327110968
 20
5.5833093353
 30
0.0
 10
5.9986964511
 20
5.5908402345
 30
0.0
 10
5.9655202471
 20
5.6012875015
 30
0.0
 10
5.9333997979
 20
5.6145768386
 30
0.0
 10
5.9025675084
 20
5.6306184987
 30
0.0
 10
5.873298527
 20
5.6492629336
 30
0.0
 10
5.8457802411
 20
5.6703767817
 30
0.0
 10
5.8201940205
 20
5.6938253434
 30
0.0
 10
5.7967508405
 20
5.7194261457
 30
0.0
 10
5.7756354923
 20
5.7469685654
 30
0.0
 10
5.7569845736
 20
5.7762713149
 30
0.0
 10
5.740933038
 20
5.8071472578
 30
0.0
 10
5.7276323057
 20
5.8393210316
 30
0.0
 10
5.717174382
 20
5.8725578921
 30
0.0
 10
5.709634831
 20
5.9066387207
 30
0.0
 10
5.705085379
 20
5.9413048766
 30
0.0
 10
5.7040734077
 20
5.964610632
 30
0.0
 10
5.7040734077
 20
5.9762468691
 30
0.0
 11
6.1021748641
 21
5.5777550805
 31
0.0
 11
6.0673738818
 21
5.579268767
 31
0.0
 11
6.0327722836
 21
5.5838140227
 31
0.0
 11
5.9987772397
 21
5.5913416956
 31
0.0
 11
5.9657147534
 21
5.6017539872
 31
0.0
 11
5.9336197352
 21
5.6150335894
 31
0.0
 11
5.9027899498
 21
5.6310745469
 31
0.0
 11
5.8735680716
 21
5.64968939
 31
0.0
 11
5.8461365315
 21
5.6707368866
 31
0.0
 11
5.8205542936
 21
5.6941817603
 31
0.0
 11
5.7971140926
 21
5.7197789567
 31
0.0
 11
5.7760640874
 21
5.7472354576
 31
0.0
 11
5.7574430886
 21
5.7764901059
 31
0.0
 11
5.7413919197
 21
5.8073637236
 31
0.0
 11
5.7281001218
 21
5.8395135067
 31
0.0
 11
5.7176767401
 21
5.8726374606
 31
0.0
 11
5.7101404448
 21
5.906698073
 31
0.0
 11
5.7055892409
 21
5.9413710841
 31
0.0
 11
5.7040734077
 21
5.9762468691
 31
0.0
  0
SPLINE
  5
315
100
AcDbEntity
  8
ASSI
100
AcDbSpline
 62
7
  6
CONTINUOUS
 70
0
 71
3
 72
25
 73
21
 74
19
 42
0.0000001
 43
0.0000001
 44
0.0000000001
 12
-0.0
 22
0.6261321933
 32
0.0
 13
0.6261321933
 23
-0.0
 33
0.0
 40
0.0
 40
0.0
 40
0.0
 40
0.0
 40
0.0556462765
 40
0.1114123659
 40
0.1670645122
 40
0.2224808987
 40
0.2780198863
 40
0.3335969858
 40
0.3890085547
 40
0.4443073417
 40
0.499802936
 40
0.5553057357
 40
0.6106232273
 40
0.6660612395
 40
0.7216764573
 40
0.7772651809
 40
0.8327377847
 40
0.8884496229
 40
0.9442824486
 40
1.0
 40
1.0
 40
1.0
 40
1.0
 10
5.7040734077
 20
7.379263316
 30
0.0
 10
5.7040734077
 20
7.390877291
 30
0.0
 10
5.7050848698
 20
7.4141429488
 30
0.0
 10
5.7096321719
 20
7.4487559209
 30
0.0
 10
5.71717036
 20
7.4827962583
 30
0.0
 10
5.7276293165
 20
7.5160047135
 30
0.0
 10
5.7409351002
 20
7.5481620448
 30
0.0
 10
5.7569978586
 20
7.5790337641
 30
0.0
 10
5.7756675019
 20
7.6083427139
 30
0.0
 10
5.7968096953
 20
7.6358996014
 30
0.0
 10
5.8202883961
 20
7.6615214029
 30
0.0
 10
5.8459194374
 20
7.6849958022
 30
0.0
 10
5.8734906112
 20
7.7061373318
 30
0.0
 10
5.9028188896
 20
7.7248089765
 30
0.0
 10
5.933715406
 20
7.7408757653
 30
0.0
 10
5.9659031651
 20
7.754186679
 30
0.0
 10
5.9991463229
 20
7.7646505564
 30
0.0
 10
6.0332247982
 20
7.7721928322
 30
0.0
 10
6.0678790208
 20
7.7767429524
 30
0.0
 10
6.0911734861
 20
7.7777550805
 30
0.0
 10
6.1028023369
 20
7.7777550805
 30
0.0
 11
5.7040734077
 21
7.379263316
 31
0.0
 11
5.7055879592
 21
7.4140723073
 31
0.0
 11
5.7101366977
 21
7.4486916943
 31
0.0
 11
5.7176715796
 21
7.482712885
 31
0.0
 11
5.7280955437
 21
7.5158080665
 31
0.0
 11
5.7413917038
 21
7.5479405304
 31
0.0
 11
5.757453993
 21
7.5788103572
 31
0.0
 11
5.7760942741
 21
7.608072631
 31
0.0
 11
5.7971705236
 21
7.6355432949
 31
0.0
 11
5.820646007
 21
7.6611615671
 31
0.0
 11
5.8462738624
 21
7.6846332685
 31
0.0
 11
5.8737593256
 21
7.7057094665
 31
0.0
 11
5.9030401532
 21
7.7243514366
 31
0.0
 11
5.9339347247
 21
7.7404178751
 31
0.0
 11
5.966098553
 21
7.7537196829
 31
0.0
 11
5.9992289943
 21
7.7641488662
 31
0.0
 11
6.0332875783
 21
7.771687754
 31
0.0
 11
6.0679487234
 21
7.7762394342
 31
0.0
 11
6.1028023369
 21
7.7777550805
 31
0.0
  0
SPLINE
  5
316
100
AcDbEntity
  8
ASSI
100
AcDbSpline
 62
7
  6
CONTINUOUS
 70
0
 71
3
 72
25
 73
21
 74
19
 42
0.0000001
 43
0.0000001
 44
0.0000000001
 12
0.0
 22
-0.6256832202
 32
0.0
 13
-0.6256832202
 23
-0.0
 33
0.0
 40
0.0
 40
0.0
 40
0.0
 40
0.0
 40
0.0557950913
 40
0.1116884983
 40
0.1674453284
 40
0.2229447961
 40
0.2785453267
 40
0.3341599831
 40
0.3895856968
 40
0.4448800349
 40
0.5003515979
 40
0.5558124452
 40
0.6110739736
 40
0.6664477952
 40
0.7219917909
 40
0.7775064418
 40
0.8329073853
 40
0.8885533946
 40
0.9443287616
 40
1.0
 40
1.0
 40
1.0
 40
1.0
 10
14.8040734077
 20
5.9762468691
 30
0.0
 10
14.8040734077
 20
5.9646101849
 30
0.0
 10
14.8030613614
 20
5.9413036029
 30
0.0
 10
14.798511562
 20
5.906636079
 30
0.0
 10
14.7909715322
 20
5.8725544337
 30
0.0
 10
14.7805131877
 20
5.8393174321
 30
0.0
 10
14.7672122409
 20
5.8071439731
 30
0.0
 10
14.7511603921
 20
5.7762680758
 30
0.0
 10
14.7325090596
 20
5.7469653206
 30
0.0
 10
14.7113934695
 20
5.71942318
 30
0.0
 10
14.6879501432
 20
5.6938226905
 30
0.0
 10
14.6623636035
 20
5.6703742698
 30
0.0
 10
14.6348450337
 20
5.6492606614
 30
0.0
 10
14.6055760517
 20
5.6306166379
 30
0.0
 10
14.5747437093
 20
5.6145752898
 30
0.0
 10
14.5426229443
 20
5.6012861699
 30
0.0
 10
14.5094468927
 20
5.5908393297
 30
0.0
 10
14.4754330792
 20
5.5833089135
 30
0.0
 10
14.4408389257
 20
5.5787655994
 30
0.0
 10
14.4175828045
 20
5.5777550805
 30
0.0
 10
14.4059719512
 20
5.5777550805
 30
0.0
 11
14.8040734077
 21
5.9762468691
 31
0.0
 11
14.802557458
 21
5.9413697468
 31
0.0
 11
14.7980059412
 21
5.9066956328
 31
0.0
 11
14.7904689907
 21
5.8726334065
 31
0.0
 11
14.7800453181
 21
5.8395097198
 31
0.0
 11
14.7667535188
 21
5.8073607662
 31
0.0
 11
14.7507019396
 21
5.7764870078
 31
0.0
 11
14.732080241
 21
5.7472319031
 31
0.0
 11
14.7110301938
 21
5.7197759401
 31
0.0
 11
14.6875901484
 21
5.694179386
 31
0.0
 11
14.6620072595
 21
5.6707343492
 31
0.0
 11
14.6345751795
 21
5.6496868943
 31
0.0
 11
14.6053537552
 21
5.6310727514
 31
0.0
 11
14.5745240952
 21
5.6150321988
 31
0.0
 11
14.5424282439
 21
5.6017525995
 31
0.0
 11
14.5093655077
 21
5.5913406066
 31
0.0
 11
14.4753720986
 21
5.5838135943
 31
0.0
 11
14.440771611
 21
5.5792686517
 31
0.0
 11
14.4059719512
 21
5.5777550805
 31
0.0
  0
SPLINE
  5
317
100
AcDbEntity
  8
ASSI
100
AcDbSpline
 62
7
  6
CONTINUOUS
 70
0
 71
3
 72
25
 73
21
 74
19
 42
0.0000001
 43
0.0000001
 44
0.0000000001
 12
0.6261321933
 22
0.0
 32
0.0
 13
-0.0
 23
-0.6261321933
 33
0.0
 40
0.0
 40
0.0
 40
0.0
 40
0.0
 40
0.0557196865
 40
0.1115543222
 40
0.16726891
 40
0.2227412555
 40
0.2783287553
 40
0.3339444681
 40
0.3893836966
 40
0.4447005512
 40
0.5002024237
 40
0.5556989543
 40
0.6109983787
 40
0.6664087318
 40
0.7219853485
 40
0.7775255617
 40
0.8329421921
 40
0.8885915724
 40
0.9443558468
 40
1.0
 40
1.0
 40
1.0
 40
1.0
 10
14.4053444784
 20
7.7777550805
 30
0.0
 10
14.4169737749
 20
7.7777550805
 30
0.0
 10
14.440269065
 20
7.7767428777
 30
0.0
 10
14.4749246555
 20
7.7721924103
 30
0.0
 10
14.5090039504
 20
7.7646496552
 30
0.0
 10
14.5422472524
 20
7.7541853557
 30
0.0
 10
14.574434697
 20
7.7408742269
 30
0.0
 10
14.6053311665
 20
7.7248071253
 30
0.0
 10
14.6346594503
 20
7.7061350669
 30
0.0
 10
14.6622303452
 20
7.684993295
 30
0.0
 10
14.6878610729
 20
7.6615187501
 30
0.0
 10
14.7113396306
 20
7.6358966318
 30
0.0
 10
14.7324815825
 20
7.6083394634
 30
0.0
 10
14.7511508132
 20
7.5790305163
 30
0.0
 10
14.7672132593
 20
7.5481587468
 30
0.0
 10
14.7805188266
 20
7.5160011006
 30
0.0
 10
14.7909773583
 20
7.482792795
 30
0.0
 10
14.7985150651
 20
7.4487532844
 30
0.0
 10
14.80306202
 20
7.4141416822
 30
0.0
 10
14.8040734077
 20
7.3908768479
 30
0.0
 10
14.8040734077
 20
7.379263316
 30
0.0
 11
14.4053444784
 21
7.7777550805
 31
0.0
 11
14.4401994249
 21
7.776239318
 31
0.0
 11
14.4748616721
 21
7.7716873254
 31
0.0
 11
14.5089218742
 21
7.7641477815
 31
0.0
 11
14.5420520538
 21
7.7537183054
 31
0.0
 11
14.5742150522
 21
7.740416496
 31
0.0
 11
14.6051097606
 21
7.724349649
 31
0.0
 11
14.634391045
 21
7.7057069785
 31
0.0
 11
14.6618759722
 21
7.6846307369
 31
0.0
 11
14.6875031839
 21
7.6611591922
 31
0.0
 11
14.7109788277
 21
7.6355402719
 31
0.0
 11
14.7320550335
 21
7.6080690714
 31
0.0
 11
14.7506946138
 21
7.5788072538
 31
0.0
 11
14.7667564972
 21
7.5479375566
 31
0.0
 11
14.7800526549
 21
7.5158042612
 31
0.0
 11
14.7904763225
 21
7.4827088262
 31
0.0
 11
14.7980105458
 21
7.4486892634
 31
0.0
 11
14.8025589717
 21
7.4140709817
 31
0.0
 11
14.8040734077
 21
7.379263316
 31
0.0
  0
SPLINE
  5
318
100
AcDbEntity
  8
ASSI
100
AcDbSpline
 62
253
  6
CONTINUOUS
 70
0
 71
3
 72
25
 73
21
 74
19
 42
0.0000001
 43
0.0000001
 44
0.0000000001
 12
0.4390248502
 22
-0.23920298
 32
0.0
 13
0.4999607732
 23
-0.0003316614
 33
0.0
 40
0.0
 40
0.0
 40
0.0
 40
0.0
 40
0.0068059321
 40
0.0207337758
 40
0.0417520194
 40
0.0697246347
 40
0.10445486
 40
0.1456934389
 40
0.1931423402
 40
0.246457634
 40
0.3052523085
 40
0.3690992429
 40
0.4375344016
 40
0.5100602612
 40
0.5861494626
 40
0.6652486693
 40
0.7467826077
 40
0.8301582634
 40
0.9147692045
 40
1.0
 40
1.0
 40
1.0
 40
1.0
 10
-0.7168779644
 20
1.6872550805
 30
0.0
 10
-0.7158819733
 20
1.6867124141
 30
0.0
 10
-0.7123396764
 20
1.6863103618
 30
0.0
 10
-0.705518167
 20
1.6854352307
 30
0.0
 10
-0.6950085676
 20
1.6847612126
 30
0.0
 10
-0.6810963607
 20
1.6839807723
 30
0.0
 10
-0.6637818849
 20
1.6832577008
 30
0.0
 10
-0.6432286483
 20
1.6825428815
 30
0.0
 10
-0.6195721664
 20
1.6818642647
 30
0.0
 10
-0.5929890846
 20
1.6812207728
 30
0.0
 10
-0.5636712439
 20
1.6806200179
 30
0.0
 10
-0.5318324087
 20
1.6800660453
 30
0.0
 10
-0.497704079
 20
1.6795633733
 30
0.0
 10
-0.4615346143
 20
1.6791157739
 30
0.0
 10
-0.4235871739
 20
1.678726651
 30
0.0
 10
-0.3841378744
 20
1.6783989209
 30
0.0
 10
-0.3434737577
 20
1.678135034
 30
0.0
 10
-0.301890707
 20
1.677936955
 30
0.0
 10
-0.2596912946
 20
1.6778061546
 30
0.0
 10
-0.231386569
 20
1.6777645031
 30
0.0
 10
-0.2171825509
 20
1.6777550805
 30
0.0
 11
-0.7168779644
 21
1.6872550805
 31
0.0
 11
-0.7135731091
 21
1.6864449587
 31
0.0
 11
-0.7066563296
 21
1.6856407316
 31
0.0
 11
-0.6961779549
 21
1.6848482511
 31
0.0
 11
-0.6822142297
 21
1.6840732837
 31
0.0
 11
-0.6648667593
 21
1.6833214681
 31
0.0
 11
-0.6442617703
 21
1.682598275
 31
0.0
 11
-0.6205491925
 21
1.6819089666
 31
0.0
 11
-0.5939015675
 21
1.6812585585
 31
0.0
 11
-0.5645127933
 21
1.6806517834
 31
0.0
 11
-0.5325967138
 21
1.6800930563
 31
0.0
 11
-0.4983855623
 21
1.6795864428
 31
0.0
 11
-0.462128272
 21
1.6791356292
 31
0.0
 11
-0.4240886646
 21
1.6787438958
 31
0.0
 11
-0.3845435306
 21
1.678414093
 31
0.0
 11
-0.3437806153
 21
1.6781486205
 31
0.0
 11
-0.3020965248
 21
1.67794941
 31
0.0
 11
-0.2597945684
 21
1.6778179111
 31
0.0
 11
-0.2171825509
 21
1.6777550805
 31
0.0
  0
SPLINE
  5
319
100
AcDbEntity
  8
ASSI
100
AcDbSpline
 62
253
  6
CONTINUOUS
 70
0
 71
3
 72
25
 73
21
 74
19
 42
0.0000001
 43
0.0000001
 44
0.0000000001
 12
-0.4997136625
 22
0.0000069763
 32
0.0
 13
-0.4951377735
 23
0.0674709552
 33
0.0
 40
0.0
 40
0.0
 40
0.0
 40
0.0
 40
0.085271627
 40
0.1699228858
 40
0.2533392761
 40
0.334911862
 40
0.4140477186
 40
0.4901712172
 40
0.5627281194
 40
0.6311904874
 40
0.6950603256
 40
0.7538728639
 40
0.8072001514
 40
0.8546543022
 40
0.8958900524
 40
0.9306072984
 40
0.958553747
 40
0.9795266151
 40
0.9933739673
 40
1.0
 40
1.0
 40
1.0
 40
1.0
 10
-0.2140375081
 20
10.7799866265
 30
0.0
 10
-0.2282413071
 20
10.7799868248
 30
0.0
 10
-0.2565455699
 20
10.7799929501
 30
0.0
 10
-0.2987445953
 20
10.7800193064
 30
0.0
 10
-0.3403274527
 20
10.7800626238
 30
0.0
 10
-0.3809915813
 20
10.7801225756
 30
0.0
 10
-0.4204408948
 20
10.7801987164
 30
0.0
 10
-0.4583884177
 20
10.7802904722
 30
0.0
 10
-0.4945579982
 20
10.7803971545
 30
0.0
 10
-0.5286864162
 20
10.7805179453
 30
0.0
 10
-0.5605253483
 20
10.7806519437
 30
0.0
 10
-0.5898431395
 20
10.7807980228
 30
0.0
 10
-0.6164264196
 20
10.7809552886
 30
0.0
 10
-0.6400818889
 20
10.7811215758
 30
0.0
 10
-0.6606370082
 20
10.7812980505
 30
0.0
 10
-0.6779433773
 20
10.7814751466
 30
0.0
 10
-0.6918718678
 20
10.7816723499
 30
0.0
 10
-0.7023296269
 20
10.7818301791
 30
0.0
 10
-0.7092226544
 20
10.7820661226
 30
0.0
 10
-0.7126411664
 20
10.7821420613
 30
0.0
 10
-0.7137347661
 20
10.7822910829
 30
0.0
 11
-0.2140375081
 21
10.7799866265
 31
0.0
 11
-0.2566489041
 21
10.7799958818
 31
0.0
 11
-0.2989502864
 21
10.7800223974
 31
0.0
 11
-0.3406345735
 21
10.7800659828
 31
0.0
 11
-0.3813974645
 21
10.7801263174
 31
0.0
 11
-0.420942659
 21
10.7802029627
 31
0.0
 11
-0.4589824991
 21
10.7802953595
 31
0.0
 11
-0.4952400151
 21
10.7804028337
 31
0.0
 11
-0.5294513791
 21
10.7805246016
 31
0.0
 11
-0.5613677236
 21
10.7806597757
 31
0.0
 11
-0.5907567819
 21
10.7808073704
 31
0.0
 11
-0.6174046821
 21
10.7809663099
 31
0.0
 11
-0.6411175665
 21
10.7811354362
 31
0.0
 11
-0.6617228647
 21
10.7813135169
 31
0.0
 11
-0.6790705526
 21
10.7814992543
 31
0.0
 11
-0.6930344543
 21
10.781691294
 31
0.0
 11
-0.7035130323
 21
10.7818882449
 31
0.0
 11
-0.7104298407
 21
10.7820886537
 31
0.0
 11
-0.7137347661
 21
10.7822910829
 31
0.0
  0
SPLINE
  5
31A
100
AcDbEntity
  8
ASSI
100
AcDbSpline
 62
253
  6
CONTINUOUS
 70
0
 71
3
 72
25
 73
21
 74
19
 42
0.0000001
 43
0.0000001
 44
0.0000000001
 12
0.1156726251
 22
-0.5000143338
 32
0.0
 13
0.5132129288
 23
-0.0026419615
 33
0.0
 40
0.0
 40
0.0
 40
0.0
 40
0.0
 40
0.0139486785
 40
0.0321748852
 40
0.0558987827
 40
0.0855593295
 40
0.1212490579
 40
0.1628831388
 40
0.2102678154
 40
0.263131883
 40
0.3211434014
 40
0.3839199748
 40
0.4510360341
 40
0.5220286665
 40
0.5964027304
 40
0.6736356257
 40
0.7531819132
 40
0.8344778801
 40
0.9169460991
 40
1.0
 40
1.0
 40
1.0
 40
1.0
 10
-0.7512408183
 20
-9.9551002478
 30
0.0
 10
-0.7507029915
 20
-9.9574250942
 30
0.0
 10
-0.7478236443
 20
-9.9623746375
 30
0.0
 10
-0.7404604948
 20
-9.9685859845
 30
0.0
 10
-0.7297869455
 20
-9.9746893419
 30
0.0
 10
-0.7157372043
 20
-9.9806443305
 30
0.0
 10
-0.698365995
 20
-9.9864489093
 30
0.0
 10
-0.6777700192
 20
-9.9920455288
 30
0.0
 10
-0.6540878718
 20
-9.9973922677
 30
0.0
 10
-0.6274850339
 20
-10.0024448529
 30
0.0
 10
-0.5981516988
 20
-10.0071639637
 30
0.0
 10
-0.566299251
 20
-10.0115129968
 30
0.0
 10
-0.5321582753
 20
-10.0154588063
 30
0.0
 10
-0.4959764624
 20
-10.0189715474
 30
0.0
 10
-0.4580166411
 20
-10.022024841
 30
0.0
 10
-0.4185547509
 20
-10.0245958648
 30
0.0
 10
-0.377877782
 20
-10.0266654708
 30
0.0
 10
-0.3362816095
 20
-10.0282182875
 30
0.0
 10
-0.294068957
 20
-10.0292428071
 30
0.0
 10
-0.2657535167
 20
-10.0295681973
 30
0.0
 10
-0.2515454047
 20
-10.0296413391
 30
0.0
 11
-0.7512408183
 21
-9.9551002478
 31
0.0
 11
-0.747951058
 21
-9.961458313
 31
0.0
 11
-0.7410474586
 21
-9.9677700914
 31
0.0
 11
-0.7305802786
 21
-9.9739896332
 31
0.0
 11
-0.7166257189
 21
-9.9800716601
 31
0.0
 11
-0.6992853691
 21
-9.9859718947
 31
0.0
 11
-0.678685467
 21
-9.9916473834
 31
0.0
 11
-0.6549759802
 21
-9.9970568086
 31
0.0
 11
-0.628329514
 21
-10.0021607894
 31
0.0
 11
-0.5989400551
 21
-10.006922169
 31
0.0
 11
-0.5670215589
 21
-10.0113062844
 31
0.0
 11
-0.5328063927
 21
-10.0152812191
 31
0.0
 11
-0.4965436431
 21
-10.0188180357
 31
0.0
 11
-0.4584973034
 21
-10.021890986
 31
0.0
 11
-0.4189443514
 21
-10.024477699
 31
0.0
 11
-0.3781727332
 21
-10.0265593432
 31
0.0
 11
-0.3364792664
 21
-10.0281207645
 31
0.0
 11
-0.2941674802
 21
-10.0291505955
 31
0.0
 11
-0.2515454047
 21
-10.0296413391
 31
0.0
  0
SPLINE
  5
31B
100
AcDbEntity
  8
ASSI
100
AcDbSpline
 62
253
  6
CONTINUOUS
 70
0
 71
3
 72
25
 73
21
 74
19
 42
0.0000001
 43
0.0000001
 44
0.0000000001
 12
0.0014329144
 22
-0.7839168072
 32
0.0
 13
0.7839168112
 23
-0.0014307322
 33
0.0
 40
0.0
 40
0.0
 40
0.0
 40
0.0
 40
0.0555066409
 40
0.1110226213
 40
0.1665481587
 40
0.2220831809
 40
0.2776273283
 40
0.3331799649
 40
0.3887401978
 40
0.444306904
 40
0.4998787649
 40
0.555454306
 40
0.6110319415
 40
0.6666100223
 40
0.7221868858
 40
0.7777609063
 40
0.833330544
 40
0.8888943916
 40
0.9444512168
 40
1.0
 40
1.0
 40
1.0
 40
1.0
 10
-0.7675922739
 20
-10.379873924
 30
0.0
 10
-0.7675657618
 20
-10.3943781202
 30
0.0
 10
-0.766246072
 20
-10.4234025399
 30
0.0
 10
-0.7604827772
 20
-10.4665922363
 30
0.0
 10
-0.7509793231
 20
-10.5091267991
 30
0.0
 10
-0.737807905
 20
-10.5506789313
 30
0.0
 10
-0.721068556
 20
-10.5909343097
 30
0.0
 10
-0.7008883983
 20
-10.6295869871
 30
0.0
 10
-0.6774206728
 20
-10.6663435859
 30
0.0
 10
-0.6508435759
 20
-10.7009250223
 30
0.0
 10
-0.6213589056
 20
-10.7330687574
 30
0.0
 10
-0.5891905287
 20
-10.7625307533
 30
0.0
 10
-0.5545826841
 20
-10.7890873332
 30
0.0
 10
-0.5177981199
 20
-10.8125368758
 30
0.0
 10
-0.4791161352
 20
-10.8327013453
 30
0.0
 10
-0.4388303276
 20
-10.8494276423
 30
0.0
 10
-0.3972468658
 20
-10.8625887647
 30
0.0
 10
-0.3546803004
 20
-10.8720847759
 30
0.0
 10
-0.311458143
 20
-10.8778435508
 30
0.0
 10
-0.2824120687
 20
-10.8791621996
 30
0.0
 10
-0.2678968604
 20
-10.8791886914
 30
0.0
 11
-0.7675922739
 21
-10.379873924
 31
0.0
 11
-0.7656157445
 21
-10.4233416711
 31
0.0
 11
-0.7598600724
 21
-10.4664793708
 31
0.0
 11
-0.7503689599
 21
-10.5089594819
 31
0.0
 11
-0.7372144725
 21
-10.5504594561
 31
0.0
 11
-0.720496491
 21
-10.5906641869
 31
0.0
 11
-0.700341954
 21
-10.629268403
 31
0.0
 11
-0.6769038932
 21
-10.6659789853
 31
0.0
 11
-0.650360272
 21
-10.7005171931
 31
0.0
 11
-0.6209126344
 21
-10.7326207803
 31
0.0
 11
-0.5887845738
 21
-10.7620459866
 31
0.0
 11
-0.5542200364
 21
-10.7885693887
 31
0.0
 11
-0.5174814682
 21
-10.8119895963
 31
0.0
 11
-0.4788478223
 21
-10.8321287813
 31
0.0
 11
-0.4386124412
 21
-10.8488340286
 31
0.0
 11
-0.3970808291
 21
-10.8619784963
 31
0.0
 11
-0.3545683327
 21
-10.8714623793
 31
0.0
 11
-0.3113977461
 21
-10.8772136674
 31
0.0
 11
-0.2678968604
 21
-10.8791886914
 31
0.0
  0
SPLINE
  5
31C
100
AcDbEntity
  8
ASSI
100
AcDbSpline
 62
253
  6
CONTINUOUS
 70
0
 71
3
 72
26
 73
22
 74
20
 42
0.0000001
 43
0.0000001
 44
0.0000000001
 12
0.2685929374
 22
0.8063832935
 32
0.0
 13
0.0022369592
 23
0.8499359847
 33
0.0
 40
0.0
 40
0.0
 40
0.0
 40
0.0
 40
0.0076246917
 40
0.0212415454
 40
0.0408201379
 40
0.0662705183
 40
0.097465855
 40
0.134246857
 40
0.176424113
 40
0.2237795972
 40
0.2760683609
 40
0.3330193498
 40
0.3943374779
 40
0.4597046572
 40
0.5287822035
 40
0.6012118306
 40
0.6766179093
 40
0.7546093822
 40
0.8347824281
 40
0.9167204116
 40
1.0
 40
1.0
 40
1.0
 40
1.0
 10
-0.2678968604
 20
-10.8791886914
 30
0.0
 10
-0.2672142143
 20
-10.8771392167
 30
0.0
 10
-0.2663851017
 20
-10.8711301306
 30
0.0
 10
-0.265165371
 20
-10.8596591889
 30
0.0
 10
-0.2640325721
 20
-10.8430656399
 30
0.0
 10
-0.2628524904
 20
-10.8215085235
 30
0.0
 10
-0.2617114915
 20
-10.7950613516
 30
0.0
 10
-0.2605935019
 20
-10.7638740754
 30
0.0
 10
-0.2595160991
 20
-10.7281035473
 30
0.0
 10
-0.2584830741
 20
-10.6879369436
 30
0.0
 10
-0.2575016358
 20
-10.6435822313
 30
0.0
 10
-0.2565770843
 20
-10.5952697641
 30
0.0
 10
-0.255714673
 20
-10.5432503151
 30
0.0
 10
-0.2549190929
 20
-10.487793825
 30
0.0
 10
-0.2541946551
 20
-10.4291880789
 30
0.0
 10
-0.2535452465
 20
-10.3677371413
 30
0.0
 10
-0.2529743226
 20
-10.3037598918
 30
0.0
 10
-0.2524849331
 20
-10.2375880963
 30
0.0
 10
-0.2520796293
 20
-10.1695651268
 30
0.0
 10
-0.2517606215
 20
-10.1000434925
 30
0.0
 10
-0.2516075024
 20
-10.0532354454
 30
0.0
 10
-0.2515454047
 20
-10.0296413391
 30
0.0
 11
-0.2678968604
 21
-10.8791886914
 31
0.0
 11
-0.2666440394
 21
-10.8728304205
 31
0.0
 11
-0.2654025222
 21
-10.8613237094
 31
0.0
 11
-0.2641786312
 21
-10.8447281702
 31
0.0
 11
-0.262978811
 21
-10.823130202
 31
0.0
 11
-0.2618092476
 21
-10.7966418788
 31
0.0
 11
-0.2606760234
 21
-10.7654008196
 31
0.0
 11
-0.2595850159
 21
-10.7295693336
 31
0.0
 11
-0.2585418876
 21
-10.6893335836
 31
0.0
 11
-0.257552045
 21
-10.6449023523
 31
0.0
 11
-0.2566206248
 21
-10.596506452
 31
0.0
 11
-0.2557524547
 21
-10.5443970195
 31
0.0
 11
-0.2549520386
 21
-10.4888446752
 31
0.0
 11
-0.2542235223
 21
-10.4301374996
 31
0.0
 11
-0.2535706839
 21
-10.3685802016
 31
0.0
 11
-0.2529969051
 21
-10.3044922084
 31
0.0
 11
-0.2525051644
 21
-10.2382060434
 31
0.0
 11
-0.2520979946
 21
-10.1700650671
 31
0.0
 11
-0.2517775322
 21
-10.1004235226
 31
0.0
 11
-0.2515454047
 21
-10.0296413391
 31
0.0
  0
SPLINE
  5
31D
100
AcDbEntity
  8
ASSI
100
AcDbSpline
 62
253
  6
CONTINUOUS
 70
0
 71
3
 72
26
 73
22
 74
20
 42
0.0000001
 43
0.0000001
 44
0.0000000001
 12
0.2359522709
 22
0.3541440557
 32
0.0
 13
0.0022405098
 23
0.4255425554
 33
0.0
 40
0.0
 40
0.0
 40
0.0
 40
0.0
 40
0.0080280304
 40
0.0218584245
 40
0.0415678431
 40
0.0671002974
 40
0.0983438593
 40
0.135147229
 40
0.1773258644
 40
0.2246650247
 40
0.2769221631
 40
0.333828105
 40
0.3950893218
 40
0.4603890646
 40
0.5293898417
 40
0.6017344933
 40
0.6770484607
 40
0.7549417191
 40
0.8350114612
 40
0.9168420376
 40
1.0
 40
1.0
 40
1.0
 40
1.0
 10
-0.7675922739
 20
-10.379873924
 30
0.0
 10
-0.7669608633
 20
-10.3789262309
 30
0.0
 10
-0.7660652539
 20
-10.3758849764
 30
0.0
 10
-0.7648790899
 20
-10.3701472293
 30
0.0
 10
-0.7637241828
 20
-10.3618249153
 30
0.0
 10
-0.7625510396
 20
-10.3510462894
 30
0.0
 10
-0.7614067765
 20
-10.3378177596
 30
0.0
 10
-0.7602895474
 20
-10.3222229266
 30
0.0
 10
-0.7592116934
 20
-10.3043361382
 30
0.0
 10
-0.7581786872
 20
-10.2842518908
 30
0.0
 10
-0.7571971587
 20
-10.2620736461
 30
0.0
 10
-0.7562725742
 20
-10.237916624
 30
0.0
 10
-0.7554101278
 20
-10.2119061318
 30
0.0
 10
-0.7546145236
 20
-10.1841771314
 30
0.0
 10
-0.7538900677
 20
-10.1548735048
 30
0.0
 10
-0.7532406438
 20
-10.1241472835
 30
0.0
 10
-0.7526697152
 20
-10.0921579069
 30
0.0
 10
-0.7521803111
 20
-10.0590712605
 30
0.0
 10
-0.7517750242
 20
-10.0250590348
 30
0.0
 10
-0.7514560032
 20
-9.9902990681
 30
0.0
 10
-0.7513029237
 20
-9.9668959984
 30
0.0
 10
-0.7512408183
 20
-9.9551002478
 30
0.0
 11
-0.7675922739
 21
-10.379873924
 31
0.0
 11
-0.7663396672
 21
-10.3766955296
 31
0.0
 11
-0.7650980928
 21
-10.3709424751
 31
0.0
 11
-0.7638741985
 21
-10.3626449396
 31
0.0
 11
-0.7626743511
 21
-10.3518460955
 31
0.0
 11
-0.7615047692
 21
-10.3386019884
 31
0.0
 11
-0.760371524
 21
-10.3229814249
 31
0.0
 11
-0.7592804969
 21
-10.3050655614
 31
0.0
 11
-0.7582373497
 21
-10.284947481
 31
0.0
 11
-0.7572474895
 21
-10.2627315779
 31
0.0
 11
-0.756316053
 21
-10.238533262
 31
0.0
 11
-0.7554478686
 21
-10.2124781064
 31
0.0
 11
-0.7546474402
 21
-10.1847014322
 31
0.0
 11
-0.7539189142
 21
-10.1553472973
 31
0.0
 11
-0.7532660682
 21
-10.1245680655
 31
0.0
 11
-0.7526922861
 21
-10.0925234597
 31
0.0
 11
-0.752200541
 21
-10.0593797518
 31
0.0
 11
-0.751793378
 21
-10.0253086297
 31
0.0
 11
-0.7514729103
 21
-9.990487229
 31
0.0
 11
-0.7512408183
 21
-9.9551002478
 31
0.0
  0
SPLINE
  5
31E
100
AcDbEntity
  8
ASSI
100
AcDbSpline
 62
253
  6
CONTINUOUS
 70
0
 71
3
 72
10
 73
6
 74
4
 42
0.0000001
 43
0.0000001
 44
0.0000000001
 12
0.0002514557
 22
-9.0950366859
 32
0.0
 13
0.0060355961
 23
-9.0950346867
 33
0.0
 40
0.0
 40
0.0
 40
0.0
 40
0.0
 40
0.33335237
 40
0.66668676
 40
1.0
 40
1.0
 40
1.0
 40
1.0
 10
21.2218815814
 20
10.7822910905
 30
0.0
 10
21.2219095225
 20
9.7716737456
 30
0.0
 10
21.2221795088
 20
7.7504935646
 30
0.0
 10
21.223227284
 20
4.7188148288
 30
0.0
 10
21.2243541984
 20
2.6977535736
 30
0.0
 10
21.2250247797
 20
1.6872550805
 30
0.0
 11
21.2218815814
 21
10.7822910905
 31
0.0
 11
21.2222866597
 21
7.7504390818
 31
0.0
 11
21.2233344173
 21
4.718750756
 31
0.0
 11
21.2250247797
 21
1.6872550805
 31
0.0
  0
SPLINE
  5
31F
100
AcDbEntity
  8
ASSI
100
AcDbSpline
 62
253
  6
CONTINUOUS
 70
0
 71
3
 72
25
 73
21
 74
19
 42
0.0000001
 43
0.0000001
 44
0.0000000001
 12
-0.4951377735
 22
-0.0674709553
 32
0.0
 13
-0.4997136625
 23
-0.0000069763
 33
0.0
 40
0.0
 40
0.0
 40
0.0
 40
0.0
 40
0.0066260327
 40
0.0204733849
 40
0.041446253
 40
0.0693927016
 40
0.1041099476
 40
0.1453456978
 40
0.1927998486
 40
0.2461271361
 40
0.3049396744
 40
0.3688095125
 40
0.4372718806
 40
0.5098287828
 40
0.5859522814
 40
0.665088138
 40
0.7466607239
 40
0.8300771141
 40
0.914728373
 40
1.0
 40
1.0
 40
1.0
 40
1.0
 10
21.2218815814
 20
10.7822910829
 30
0.0
 10
21.2207879817
 20
10.7821420613
 30
0.0
 10
21.2173694698
 20
10.7820661226
 30
0.0
 10
21.2104764423
 20
10.7818301791
 30
0.0
 10
21.2000186832
 20
10.7816723499
 30
0.0
 10
21.1860901927
 20
10.7814751466
 30
0.0
 10
21.1687838236
 20
10.7812980505
 30
0.0
 10
21.1482287043
 20
10.7811215758
 30
0.0
 10
21.124573235
 20
10.7809552886
 30
0.0
 10
21.0979899549
 20
10.7807980228
 30
0.0
 10
21.0686721636
 20
10.7806519437
 30
0.0
 10
21.0368332316
 20
10.7805179453
 30
0.0
 10
21.0027048135
 20
10.7803971545
 30
0.0
 10
20.9665352331
 20
10.7802904722
 30
0.0
 10
20.9285877102
 20
10.7801987164
 30
0.0
 10
20.8891383967
 20
10.7801225756
 30
0.0
 10
20.8484742681
 20
10.7800626238
 30
0.0
 10
20.8068914107
 20
10.7800193064
 30
0.0
 10
20.7646923853
 20
10.7799929501
 30
0.0
 10
20.7363881224
 20
10.7799868248
 30
0.0
 10
20.7221843234
 20
10.7799866265
 30
0.0
 11
21.2218815814
 21
10.7822910829
 31
0.0
 11
21.218576656
 21
10.7820886537
 31
0.0
 11
21.2116598477
 21
10.7818882449
 31
0.0
 11
21.2011812697
 21
10.781691294
 31
0.0
 11
21.1872173679
 21
10.7814992543
 31
0.0
 11
21.1698696801
 21
10.7813135169
 31
0.0
 11
21.1492643818
 21
10.7811354362
 31
0.0
 11
21.1255514974
 21
10.7809663099
 31
0.0
 11
21.0989035973
 21
10.7808073704
 31
0.0
 11
21.069514539
 21
10.7806597757
 31
0.0
 11
21.0375981945
 21
10.7805246016
 31
0.0
 11
21.0033868305
 21
10.7804028337
 31
0.0
 11
20.9671293144
 21
10.7802953595
 31
0.0
 11
20.9290894743
 21
10.7802029627
 31
0.0
 11
20.8895442799
 21
10.7801263174
 31
0.0
 11
20.8487813889
 21
10.7800659828
 31
0.0
 11
20.8070971018
 21
10.7800223974
 31
0.0
 11
20.7647957195
 21
10.7799958818
 31
0.0
 11
20.7221843234
 21
10.7799866265
 31
0.0
  0
SPLINE
  5
320
100
AcDbEntity
  8
ASSI
100
AcDbSpline
 62
253
  6
CONTINUOUS
 70
0
 71
3
 72
25
 73
21
 74
19
 42
0.0000001
 43
0.0000001
 44
0.0000000001
 12
-0.2498751414
 22
0.0000000203
 32
0.0
 13
-0.2424238368
 23
0.0605662416
 33
0.0
 40
0.0
 40
0.0
 40
0.0
 40
0.0
 40
0.0852547325
 40
0.169900986
 40
0.2533120723
 40
0.3348797757
 40
0.4140110861
 40
0.4901304632
 40
0.5626837212
 40
0.6311429841
 40
0.6950103138
 40
0.7538209474
 40
0.8071470326
 40
0.8546008355
 40
0.8958373009
 40
0.9305566248
 40
0.958507049
 40
0.9794866968
 40
0.9933463674
 40
1.0
 40
1.0
 40
1.0
 40
1.0
 10
-0.2140393385
 20
11.0301759923
 30
0.0
 10
-0.2211403513
 20
11.0301759929
 30
0.0
 10
-0.2352916961
 20
11.0301812441
 30
0.0
 10
-0.2563904814
 20
11.0302048511
 30
0.0
 10
-0.2771821443
 20
11.0302440033
 30
0.0
 10
-0.2975144224
 20
11.0302984091
 30
0.0
 10
-0.3172393129
 20
11.0303676621
 30
0.0
 10
-0.3362133126
 20
11.0304512432
 30
0.0
 10
-0.3542983417
 20
11.0305485253
 30
0.0
 10
-0.3713627843
 20
11.0306587649
 30
0.0
 10
-0.3872824622
 20
11.0307811396
 30
0.0
 10
-0.4019415505
 20
11.0309146262
 30
0.0
 10
-0.4152333123
 20
11.0310583945
 30
0.0
 10
-0.4270612436
 20
11.0312105133
 30
0.0
 10
-0.4373386505
 20
11.0313719041
 30
0.0
 10
-0.4459926429
 20
11.0315342504
 30
0.0
 10
-0.4529551316
 20
11.0317141691
 30
0.0
 10
-0.4581890809
 20
11.0318603557
 30
0.0
 10
-0.4616277771
 20
11.0320734342
 30
0.0
 10
-0.463349326
 20
11.032147226
 30
0.0
 10
-0.4638869924
 20
11.0322815546
 30
0.0
 11
-0.2140393385
 21
11.0301759923
 31
0.0
 11
-0.2353423753
 21
11.0301839275
 31
0.0
 11
-0.2564933565
 21
11.0302076799
 31
0.0
 11
-0.2773356763
 21
11.030247077
 31
0.0
 11
-0.2977173442
 21
11.0303018319
 31
0.0
 11
-0.3174901687
 21
11.0303715464
 31
0.0
 11
-0.3365103225
 21
11.0304557135
 31
0.0
 11
-0.3546393132
 21
11.0305537206
 31
0.0
 11
-0.3717452202
 21
11.0306648545
 31
0.0
 11
-0.3877036008
 21
11.0307883067
 31
0.0
 11
-0.4023982972
 21
11.0309231788
 31
0.0
 11
-0.4157223679
 21
11.0310684893
 31
0.0
 11
-0.4275788845
 21
11.031223181
 31
0.0
 11
-0.4378815637
 21
11.0313861283
 31
0.0
 11
-0.4465553935
 21
11.0315561447
 31
0.0
 11
-0.4535372956
 21
11.0317319935
 31
0.0
 11
-0.458776483
 21
11.0319123962
 31
0.0
 11
-0.4622347979
 21
11.032096037
 31
0.0
 11
-0.4638869924
 21
11.0322815546
 31
0.0
  0
SPLINE
  5
321
100
AcDbEntity
  8
ASSI
100
AcDbSpline
 62
253
  6
CONTINUOUS
 70
0
 71
3
 72
25
 73
21
 74
19
 42
0.0000001
 43
0.0000001
 44
0.0000000001
 12
-0.2424238368
 22
-0.0605662415
 32
0.0
 13
-0.2498751414
 23
-0.0000000203
 33
0.0
 40
0.0
 40
0.0
 40
0.0
 40
0.0
 40
0.0066536326
 40
0.0205133032
 40
0.041492951
 40
0.0694433752
 40
0.1041626991
 40
0.1453991645
 40
0.1928529674
 40
0.2461790526
 40
0.3049896861
 40
0.3688570158
 40
0.4373162788
 40
0.5098695368
 40
0.5859889138
 40
0.6651202243
 40
0.7466879277
 40
0.830099014
 40
0.9147452674
 40
1.0
 40
1.0
 40
1.0
 40
1.0
 10
20.9720338077
 20
11.0322815546
 30
0.0
 10
20.9714961413
 20
11.032147226
 30
0.0
 10
20.9697745924
 20
11.0320734342
 30
0.0
 10
20.9663358963
 20
11.0318603557
 30
0.0
 10
20.961101947
 20
11.0317141691
 30
0.0
 10
20.9541394582
 20
11.0315342504
 30
0.0
 10
20.9454854658
 20
11.0313719041
 30
0.0
 10
20.9352080589
 20
11.0312105133
 30
0.0
 10
20.9233801277
 20
11.0310583945
 30
0.0
 10
20.9100883658
 20
11.0309146262
 30
0.0
 10
20.8954292776
 20
11.0307811396
 30
0.0
 10
20.8795095997
 20
11.0306587649
 30
0.0
 10
20.8624451571
 20
11.0305485253
 30
0.0
 10
20.844360128
 20
11.0304512432
 30
0.0
 10
20.8253861282
 20
11.0303676621
 30
0.0
 10
20.8056612377
 20
11.0302984091
 30
0.0
 10
20.7853289597
 20
11.0302440033
 30
0.0
 10
20.7645372968
 20
11.0302048511
 30
0.0
 10
20.7434385115
 20
11.0301812441
 30
0.0
 10
20.7292871666
 20
11.0301759929
 30
0.0
 10
20.7221861538
 20
11.0301759923
 30
0.0
 11
20.9720338077
 21
11.0322815546
 31
0.0
 11
20.9703816132
 21
11.032096037
 31
0.0
 11
20.9669232984
 21
11.0319123962
 31
0.0
 11
20.9616841109
 21
11.0317319935
 31
0.0
 11
20.9547022089
 21
11.0315561447
 31
0.0
 11
20.946028379
 21
11.0313861283
 31
0.0
 11
20.9357256999
 21
11.031223181
 31
0.0
 11
20.9238691833
 21
11.0310684893
 31
0.0
 11
20.9105451125
 21
11.0309231788
 31
0.0
 11
20.8958504161
 21
11.0307883067
 31
0.0
 11
20.8798920356
 21
11.0306648545
 31
0.0
 11
20.8627861286
 21
11.0305537206
 31
0.0
 11
20.8446571379
 21
11.0304557135
 31
0.0
 11
20.825636984
 21
11.0303715464
 31
0.0
 11
20.8058641595
 21
11.0303018319
 31
0.0
 11
20.7854824916
 21
11.030247077
 31
0.0
 11
20.7646401719
 21
11.0302076799
 31
0.0
 11
20.7434891907
 21
11.0301839275
 31
0.0
 11
20.7221861538
 21
11.0301759923
 31
0.0
  0
SPLINE
  5
322
100
AcDbEntity
  8
ASSI
100
AcDbSpline
 62
253
  6
CONTINUOUS
 70
0
 71
3
 72
25
 73
21
 74
19
 42
0.0000001
 43
0.0000001
 44
0.0000000001
 12
-0.4390248508
 22
-0.2392029787
 32
0.0
 13
-0.4999607732
 23
-0.0003316614
 33
0.0
 40
0.0
 40
0.0
 40
0.0
 40
0.0
 40
0.0068059321
 40
0.0207337759
 40
0.0417520194
 40
0.0697246348
 40
0.1044548601
 40
0.145693439
 40
0.1931423402
 40
0.246457634
 40
0.3052523086
 40
0.369099243
 40
0.4375344017
 40
0.5100602612
 40
0.5861494627
 40
0.6652486694
 40
0.7467826077
 40
0.8301582634
 40
0.9147692045
 40
1.0
 40
1.0
 40
1.0
 40
1.0
 10
21.2250247797
 20
1.6872550805
 30
0.0
 10
21.2240287886
 20
1.6867124141
 30
0.0
 10
21.2204864918
 20
1.6863103618
 30
0.0
 10
21.2136649823
 20
1.6854352307
 30
0.0
 10
21.2031553829
 20
1.6847612126
 30
0.0
 10
21.189243176
 20
1.6839807723
 30
0.0
 10
21.1719287002
 20
1.6832577008
 30
0.0
 10
21.1513754636
 20
1.6825428815
 30
0.0
 10
21.1277189817
 20
1.6818642647
 30
0.0
 10
21.1011358999
 20
1.6812207728
 30
0.0
 10
21.0718180592
 20
1.6806200179
 30
0.0
 10
21.039979224
 20
1.6800660453
 30
0.0
 10
21.0058508943
 20
1.6795633733
 30
0.0
 10
20.9696814296
 20
1.6791157739
 30
0.0
 10
20.9317339892
 20
1.678726651
 30
0.0
 10
20.8922846898
 20
1.6783989209
 30
0.0
 10
20.851620573
 20
1.678135034
 30
0.0
 10
20.8100375223
 20
1.677936955
 30
0.0
 10
20.7678381099
 20
1.6778061546
 30
0.0
 10
20.7395333844
 20
1.6777645031
 30
0.0
 10
20.7253293662
 20
1.6777550805
 30
0.0
 11
21.2250247797
 21
1.6872550805
 31
0.0
 11
21.2217199244
 21
1.6864449587
 31
0.0
 11
21.2148031449
 21
1.6856407316
 31
0.0
 11
21.2043247702
 21
1.6848482511
 31
0.0
 11
21.190361045
 21
1.6840732837
 31
0.0
 11
21.1730135746
 21
1.6833214681
 31
0.0
 11
21.1524085856
 21
1.682598275
 31
0.0
 11
21.1286960078
 21
1.6819089666
 31
0.0
 11
21.1020483828
 21
1.6812585585
 31
0.0
 11
21.0726596086
 21
1.6806517834
 31
0.0
 11
21.0407435291
 21
1.6800930563
 31
0.0
 11
21.0065323776
 21
1.6795864428
 31
0.0
 11
20.9702750873
 21
1.6791356292
 31
0.0
 11
20.9322354799
 21
1.6787438958
 31
0.0
 11
20.8926903459
 21
1.678414093
 31
0.0
 11
20.8519274306
 21
1.6781486205
 31
0.0
 11
20.8102433401
 21
1.67794941
 31
0.0
 11
20.7679413837
 21
1.6778179111
 31
0.0
 11
20.7253293662
 21
1.6777550805
 31
0.0
  0
SPLINE
  5
323
100
AcDbEntity
  8
ASSI
100
AcDbSpline
 62
253
  6
CONTINUOUS
 70
0
 71
3
 72
25
 73
21
 74
19
 42
0.0000001
 43
0.0000001
 44
0.0000000001
 12
-0.1156726714
 22
-0.5000143222
 32
0.0
 13
-0.5132129279
 23
-0.0026419614
 33
0.0
 40
0.0
 40
0.0
 40
0.0
 40
0.0
 40
0.013948679
 40
0.0321748863
 40
0.0558987844
 40
0.0855593318
 40
0.1212490608
 40
0.1628831421
 40
0.210267819
 40
0.2631318866
 40
0.3211434051
 40
0.3839199784
 40
0.4510360375
 40
0.5220286697
 40
0.5964027332
 40
0.673635628
 40
0.753181915
 40
0.8344778813
 40
0.9169460997
 40
1.0
 40
1.0
 40
1.0
 40
1.0
 10
21.2593876336
 20
-9.9551002478
 30
0.0
 10
21.2588498066
 20
-9.9574250943
 30
0.0
 10
21.255970459
 20
-9.9623746374
 30
0.0
 10
21.2486073091
 20
-9.9685859843
 30
0.0
 10
21.2379337593
 20
-9.9746893416
 30
0.0
 10
21.2238840178
 20
-9.9806443302
 30
0.0
 10
21.2065128082
 20
-9.9864489088
 30
0.0
 10
21.1859168322
 20
-9.9920455283
 30
0.0
 10
21.1622346847
 20
-9.9973922671
 30
0.0
 10
21.1356318468
 20
-10.0024448522
 30
0.0
 10
21.1062985117
 20
-10.0071639629
 30
0.0
 10
21.0744460639
 20
-10.011512996
 30
0.0
 10
21.0403050884
 20
-10.0154588053
 30
0.0
 10
21.0041232757
 20
-10.0189715464
 30
0.0
 10
20.9661634547
 20
-10.0220248399
 30
0.0
 10
20.9267015648
 20
-10.0245958636
 30
0.0
 10
20.8860245963
 20
-10.0266654696
 30
0.0
 10
20.8444284241
 20
-10.0282182863
 30
0.0
 10
20.8022157719
 20
-10.0292428059
 30
0.0
 10
20.7739003319
 20
-10.029568196
 30
0.0
 10
20.7596922201
 20
-10.0296413378
 30
0.0
 11
21.2593876336
 21
-9.9551002478
 31
0.0
 11
21.2560978727
 21
-9.961458313
 31
0.0
 11
21.2491942729
 21
-9.9677700913
 31
0.0
 11
21.2387270924
 21
-9.973989633
 31
0.0
 11
21.2247725324
 21
-9.9800716597
 31
0.0
 11
21.2074321823
 21
-9.9859718943
 31
0.0
 11
21.18683228
 21
-9.9916473829
 31
0.0
 11
21.1631227931
 21
-9.997056808
 31
0.0
 11
21.1364763269
 21
-10.0021607887
 31
0.0
 11
21.1070868679
 21
-10.0069221682
 31
0.0
 11
21.0751683719
 21
-10.0113062835
 31
0.0
 11
21.0409532058
 21
-10.0152812182
 31
0.0
 11
21.0046904564
 21
-10.0188180347
 31
0.0
 11
20.966644117
 21
-10.0218909849
 31
0.0
 11
20.9270911653
 21
-10.0244776978
 31
0.0
 11
20.8863195474
 21
-10.0265593421
 31
0.0
 11
20.844626081
 21
-10.0281207632
 31
0.0
 11
20.8023142951
 21
-10.0291505942
 31
0.0
 11
20.7596922201
 21
-10.0296413378
 31
0.0
  0
SPLINE
  5
324
100
AcDbEntity
  8
ASSI
100
AcDbSpline
 62
253
  6
CONTINUOUS
 70
0
 71
3
 72
26
 73
22
 74
20
 42
0.0000001
 43
0.0000001
 44
0.0000000001
 12
0.0022369592
 22
-0.8499359847
 32
0.0
 13
0.2685929371
 23
-0.8063832936
 33
0.0
 40
0.0
 40
0.0
 40
0.0
 40
0.0
 40
0.0832795884
 40
0.1652175719
 40
0.2453906178
 40
0.3233820907
 40
0.3987881694
 40
0.4712177965
 40
0.5402953428
 40
0.6056625221
 40
0.6669806502
 40
0.7239316391
 40
0.7762204028
 40
0.823575887
 40
0.865753143
 40
0.902534145
 40
0.9337294817
 40
0.9591798621
 40
0.9787584546
 40
0.9923753083
 40
1.0
 40
1.0
 40
1.0
 40
1.0
 10
20.7596922201
 20
-10.0296413391
 30
0.0
 10
20.7597543178
 20
-10.0532354454
 30
0.0
 10
20.7599074368
 20
-10.1000434925
 30
0.0
 10
20.7602264447
 20
-10.1695651268
 30
0.0
 10
20.7606317484
 20
-10.2375880963
 30
0.0
 10
20.7611211379
 20
-10.3037598918
 30
0.0
 10
20.7616920619
 20
-10.3677371413
 30
0.0
 10
20.7623414705
 20
-10.4291880789
 30
0.0
 10
20.7630659082
 20
-10.487793825
 30
0.0
 10
20.7638614883
 20
-10.5432503151
 30
0.0
 10
20.7647238996
 20
-10.5952697641
 30
0.0
 10
20.7656484511
 20
-10.6435822313
 30
0.0
 10
20.7666298895
 20
-10.6879369436
 30
0.0
 10
20.7676629144
 20
-10.7281035473
 30
0.0
 10
20.7687403172
 20
-10.7638740754
 30
0.0
 10
20.7698583069
 20
-10.7950613516
 30
0.0
 10
20.7709993058
 20
-10.8215085235
 30
0.0
 10
20.7721793874
 20
-10.8430656399
 30
0.0
 10
20.7733121864
 20
-10.8596591889
 30
0.0
 10
20.774531917
 20
-10.8711301306
 30
0.0
 10
20.7753610296
 20
-10.8771392167
 30
0.0
 10
20.7760436758
 20
-10.8791886914
 30
0.0
 11
20.7596922201
 21
-10.0296413391
 31
0.0
 11
20.7599243475
 21
-10.1004235226
 31
0.0
 11
20.76024481
 21
-10.1700650671
 31
0.0
 11
20.7606519798
 21
-10.2382060434
 31
0.0
 11
20.7611437205
 21
-10.3044922084
 31
0.0
 11
20.7617174993
 21
-10.3685802016
 31
0.0
 11
20.7623703377
 21
-10.4301374996
 31
0.0
 11
20.763098854
 21
-10.4888446752
 31
0.0
 11
20.7638992701
 21
-10.5443970195
 31
0.0
 11
20.7647674401
 21
-10.596506452
 31
0.0
 11
20.7656988603
 21
-10.6449023523
 31
0.0
 11
20.7666887029
 21
-10.6893335836
 31
0.0
 11
20.7677318312
 21
-10.7295693336
 31
0.0
 11
20.7688228388
 21
-10.7654008196
 31
0.0
 11
20.7699560629
 21
-10.7966418788
 31
0.0
 11
20.7711256264
 21
-10.823130202
 31
0.0
 11
20.7723254465
 21
-10.8447281702
 31
0.0
 11
20.7735493375
 21
-10.8613237094
 31
0.0
 11
20.7747908547
 21
-10.8728304205
 31
0.0
 11
20.7760436758
 21
-10.8791886914
 31
0.0
  0
SPLINE
  5
325
100
AcDbEntity
  8
ASSI
100
AcDbSpline
 62
253
  6
CONTINUOUS
 70
0
 71
3
 72
26
 73
22
 74
20
 42
0.0000001
 43
0.0000001
 44
0.0000000001
 12
0.0022405098
 22
-0.4255425554
 32
0.0
 13
0.2359522711
 23
-0.3541440557
 33
0.0
 40
0.0
 40
0.0
 40
0.0
 40
0.0
 40
0.0831579624
 40
0.1649885388
 40
0.2450582809
 40
0.3229515393
 40
0.3982655067
 40
0.4706101583
 40
0.5396109354
 40
0.6049106782
 40
0.666171895
 40
0.7230778369
 40
0.7753349753
 40
0.8226741356
 40
0.864852771
 40
0.9016561407
 40
0.9328997026
 40
0.9584321569
 40
0.9781415755
 40
0.9919719696
 40
1.0
 40
1.0
 40
1.0
 40
1.0
 10
21.2593876336
 20
-9.9551002478
 30
0.0
 10
21.259449739
 20
-9.9668959984
 30
0.0
 10
21.2596028185
 20
-9.9902990681
 30
0.0
 10
21.2599218396
 20
-10.0250590348
 30
0.0
 10
21.2603271265
 20
-10.0590712605
 30
0.0
 10
21.2608165306
 20
-10.0921579069
 30
0.0
 10
21.2613874591
 20
-10.1241472835
 30
0.0
 10
21.2620368831
 20
-10.1548735048
 30
0.0
 10
21.262761339
 20
-10.1841771314
 30
0.0
 10
21.2635569431
 20
-10.2119061318
 30
0.0
 10
21.2644193895
 20
-10.237916624
 30
0.0
 10
21.265343974
 20
-10.2620736461
 30
0.0
 10
21.2663255026
 20
-10.2842518908
 30
0.0
 10
21.2673585087
 20
-10.3043361382
 30
0.0
 10
21.2684363627
 20
-10.3222229266
 30
0.0
 10
21.2695535919
 20
-10.3378177596
 30
0.0
 10
21.270697855
 20
-10.3510462894
 30
0.0
 10
21.2718709982
 20
-10.3618249153
 30
0.0
 10
21.2730259053
 20
-10.3701472293
 30
0.0
 10
21.2742120692
 20
-10.3758849764
 30
0.0
 10
21.2751076786
 20
-10.3789262309
 30
0.0
 10
21.2757390893
 20
-10.379873924
 30
0.0
 11
21.2593876336
 21
-9.9551002478
 31
0.0
 11
21.2596197257
 21
-9.990487229
 31
0.0
 11
21.2599401934
 21
-10.0253086297
 31
0.0
 11
21.2603473564
 21
-10.0593797518
 31
0.0
 11
21.2608391014
 21
-10.0925234597
 31
0.0
 11
21.2614128836
 21
-10.1245680655
 31
0.0
 11
21.2620657295
 21
-10.1553472973
 31
0.0
 11
21.2627942555
 21
-10.1847014322
 31
0.0
 11
21.263594684
 21
-10.2124781064
 31
0.0
 11
21.2644628684
 21
-10.238533262
 31
0.0
 11
21.2653943048
 21
-10.2627315779
 31
0.0
 11
21.266384165
 21
-10.284947481
 31
0.0
 11
21.2674273122
 21
-10.3050655614
 31
0.0
 11
21.2685183393
 21
-10.3229814249
 31
0.0
 11
21.2696515846
 21
-10.3386019884
 31
0.0
 11
21.2708211665
 21
-10.3518460955
 31
0.0
 11
21.2720210138
 21
-10.3626449396
 31
0.0
 11
21.2732449081
 21
-10.3709424751
 31
0.0
 11
21.2744864826
 21
-10.3766955296
 31
0.0
 11
21.2757390893
 21
-10.379873924
 31
0.0
  0
SPLINE
  5
326
100
AcDbEntity
  8
ASSI
100
AcDbSpline
 62
253
  6
CONTINUOUS
 70
0
 71
3
 72
25
 73
21
 74
19
 42
0.0000001
 43
0.0000001
 44
0.0000000001
 12
-0.0014329144
 22
-0.7839168072
 32
0.0
 13
-0.7839168112
 23
-0.0014307322
 33
0.0
 40
0.0
 40
0.0
 40
0.0
 40
0.0
 40
0.055506642
 40
0.1110226234
 40
0.1665481617
 40
0.2220831846
 40
0.2776273326
 40
0.3331799697
 40
0.3887402028
 40
0.4443069091
 40
0.49987877
 40
0.555454311
 40
0.6110319462
 40
0.6666100265
 40
0.7221868895
 40
0.7777609094
 40
0.8333305464
 40
0.8888943932
 40
0.9444512176
 40
1.0
 40
1.0
 40
1.0
 40
1.0
 10
21.2757390893
 20
-10.379873924
 30
0.0
 10
21.2757125772
 20
-10.3943781205
 30
0.0
 10
21.2743928873
 20
-10.4234025407
 30
0.0
 10
21.2686295923
 20
-10.4665922379
 30
0.0
 10
21.2591261378
 20
-10.5091268013
 30
0.0
 10
21.2459547193
 20
-10.550678934
 30
0.0
 10
21.2292153699
 20
-10.5909343127
 30
0.0
 10
21.2090352118
 20
-10.6295869902
 30
0.0
 10
21.1855674859
 20
-10.6663435891
 30
0.0
 10
21.1589903887
 20
-10.7009250253
 30
0.0
 10
21.1295057181
 20
-10.7330687602
 30
0.0
 10
21.0973373411
 20
-10.7625307558
 30
0.0
 10
21.0627294965
 20
-10.7890873353
 30
0.0
 10
21.0259449323
 20
-10.8125368775
 30
0.0
 10
20.9872629479
 20
-10.8327013465
 30
0.0
 10
20.9469771406
 20
-10.8494276431
 30
0.0
 10
20.9053936794
 20
-10.8625887652
 30
0.0
 10
20.8628271144
 20
-10.8720847761
 30
0.0
 10
20.8196049577
 20
-10.8778435509
 30
0.0
 10
20.7905588839
 20
-10.8791621996
 30
0.0
 10
20.7760436758
 20
-10.8791886914
 30
0.0
 11
21.2757390893
 21
-10.379873924
 31
0.0
 11
21.2737625597
 21
-10.4233416719
 31
0.0
 11
21.2680068874
 21
-10.4664793725
 31
0.0
 11
21.2585157747
 21
-10.5089594842
 31
0.0
 11
21.2453612868
 21
-10.5504594588
 31
0.0
 11
21.228643305
 21
-10.59066419
 31
0.0
 11
21.2084887675
 21
-10.6292684062
 31
0.0
 11
21.1850507062
 21
-10.6659789886
 31
0.0
 11
21.1585070848
 21
-10.7005171962
 31
0.0
 11
21.1290594469
 21
-10.7326207831
 31
0.0
 11
21.0969313862
 21
-10.7620459891
 31
0.0
 11
21.0623668488
 21
-10.7885693908
 31
0.0
 11
21.0256282806
 21
-10.8119895979
 31
0.0
 11
20.986994635
 21
-10.8321287826
 31
0.0
 11
20.9467592542
 21
-10.8488340294
 31
0.0
 11
20.9052276427
 21
-10.8619784967
 31
0.0
 11
20.8627151468
 21
-10.8714623796
 31
0.0
 11
20.8195445608
 21
-10.8772136675
 31
0.0
 11
20.7760436758
 21
-10.8791886914
 31
0.0
  0
SPLINE
  5
327
100
AcDbEntity
  8
ASSI
100
AcDbSpline
 62
253
  6
CONTINUOUS
 70
0
 71
3
 72
10
 73
6
 74
4
 42
0.0000001
 43
0.0000001
 44
0.0000000001
 12
0.0060355961
 22
9.0950346867
 32
0.0
 13
0.0002514557
 23
9.0950366859
 33
0.0
 40
0.0
 40
0.0
 40
0.0
 40
0.0
 40
0.33331324
 40
0.66664763
 40
1.0
 40
1.0
 40
1.0
 40
1.0
 10
-0.7168779644
 20
1.6872550805
 30
0.0
 10
-0.716207383
 20
2.6977535736
 30
0.0
 10
-0.7150804687
 20
4.7188148288
 30
0.0
 10
-0.7140326934
 20
7.7504935646
 30
0.0
 10
-0.7137627072
 20
9.7716737456
 30
0.0
 10
-0.7137347661
 20
10.7822910905
 30
0.0
 11
-0.7168779644
 21
1.6872550805
 31
0.0
 11
-0.715187602
 21
4.718750756
 31
0.0
 11
-0.7141398444
 21
7.7504390818
 31
0.0
 11
-0.7137347661
 21
10.7822910905
 31
0.0
  0
SPLINE
  5
328
100
AcDbEntity
  8
RACCORDO
100
AcDbSpline
 62
253
  6
CONTINUOUS
 70
0
 71
3
 72
22
 73
18
 74
16
 42
0.0000001
 43
0.0000001
 44
0.0000000001
 12
-0.0021832472
 22
0.2504804114
 32
0.0
 13
0.2504803882
 23
0.0021859092
 33
0.0
 40
0.0
 40
0.0
 40
0.0
 40
0.0
 40
0.104302378
 40
0.2074605176
 40
0.3083460848
 40
0.4058557355
 40
0.4989232668
 40
0.5865313867
 40
0.6677229924
 40
0.7416118719
 40
0.8073927865
 40
0.8643509935
 40
0.9118715322
 40
0.9494494424
 40
0.9767055422
 40
0.9934335021
 40
1.0
 40
1.0
 40
1.0
 40
1.0
 10
-16.1482687486
 20
10.7822910738
 30
0.0
 10
-16.1483446545
 20
10.7909996413
 30
0.0
 10
-16.148464133
 20
10.8083215318
 30
0.0
 10
-16.1485470452
 20
10.8340673164
 30
0.0
 10
-16.1485324656
 20
10.859246074
 30
0.0
 10
-16.1484206499
 20
10.8835820314
 30
0.0
 10
-16.1482129723
 20
10.9068087801
 30
0.0
 10
-16.1479119438
 20
10.9286716429
 30
0.0
 10
-16.1475211881
 20
10.9489323347
 30
0.0
 10
-16.1470456006
 20
10.9673654178
 30
0.0
 10
-16.1464910308
 20
10.9837806991
 30
0.0
 10
-16.1458657759
 20
10.9979633836
 30
0.0
 10
-16.1451773672
 20
11.0098620153
 30
0.0
 10
-16.1444448711
 20
11.0190663233
 30
0.0
 10
-16.1436757774
 20
11.0261802881
 30
0.0
 10
-16.1429443206
 20
11.0297106041
 30
0.0
 10
-16.1422737679
 20
11.03227677
 30
0.0
 10
-16.1417255083
 20
11.0322815546
 30
0.0
 11
-16.1482687486
 21
10.7822910738
 31
0.0
 11
-16.1484486924
 21
10.8084171491
 31
0.0
 11
-16.148531111
 21
10.8342570924
 31
0.0
 11
-16.1485151017
 21
10.8595279056
 31
0.0
 11
-16.1484008398
 21
10.8839528235
 31
0.0
 11
-16.1481895767
 21
10.9072643453
 31
0.0
 11
-16.1478836262
 21
10.929207164
 31
0.0
 11
-16.147486339
 21
10.9495409625
 31
0.0
 11
-16.1470020663
 21
10.9680430459
 31
0.0
 11
-16.1464361116
 21
10.98451078
 31
0.0
 11
-16.1457946735
 21
10.9987638108
 31
0.0
 11
-16.1450847768
 21
11.0106460397
 31
0.0
 11
-16.1443141963
 21
11.0200273331
 31
0.0
 11
-16.1434913715
 21
11.0268049474
 31
0.0
 11
-16.1426253138
 21
11.0309046545
 31
0.0
 11
-16.1417255083
 21
11.0322815546
 31
0.0
  0
LINE
  5
329
100
AcDbEntity
  8
RACCORDO
100
AcDbLine
 62
253
  6
CONTINUOUS
 10
-16.1482668319
 20
10.7822910829
 11
-16.6308173288
 21
10.7799866265
  0
SPLINE
  5
32A
100
AcDbEntity
  8
0
100
AcDbSpline
 62
253
  6
CONTINUOUS
 70
0
 71
3
 72
25
 73
21
 74
19
 42
0.0000001
 43
0.0000001
 44
0.0000000001
 12
-0.4773650572
 22
-0.072058679
 32
0.0
 13
0.0719729274
 23
-0.4773779936
 33
0.0
 40
0.0
 40
0.0
 40
0.0
 40
0.0
 40
0.0881044587
 40
0.1753073463
 40
0.2609738429
 40
0.3444803147
 40
0.4252188542
 40
0.5026017069
 40
0.5760655508
 40
0.6450755988
 40
0.7091294936
 40
0.7677609685
 40
0.8205432458
 40
0.8670921532
 40
0.9070689357
 40
0.9401827563
 40
0.9661928933
 40
0.9849107349
 40
0.9962021919
 40
1.0
 40
1.0
 40
1.0
 40
1.0
 10
-15.074234022
 20
-9.9551002478
 30
0.0
 10
-15.088253352
 20
-9.9572164781
 30
0.0
 10
-15.1161476205
 20
-9.9614334601
 30
0.0
 10
-15.1576700057
 20
-9.9677297905
 30
0.0
 10
-15.1984579635
 20
-9.9739340332
 30
0.0
 10
-15.2382145606
 20
-9.9800010105
 30
0.0
 10
-15.2766503644
 20
-9.9858865444
 30
0.0
 10
-15.3134855883
 20
-9.9915477552
 30
0.0
 10
-15.348451996
 20
-9.9969434458
 30
0.0
 10
-15.3812953131
 20
-10.0020341428
 30
0.0
 10
-15.4117755275
 20
-10.0067832426
 30
0.0
 10
-15.4396737982
 20
-10.0111543929
 30
0.0
 10
-15.4647772535
 20
-10.0151211012
 30
0.0
 10
-15.4869338724
 20
-10.018637173
 30
0.0
 10
-15.5058895599
 20
-10.0217284083
 30
0.0
 10
-15.5217746898
 20
-10.0242221216
 30
0.0
 10
-15.533747996
 20
-10.0265033286
 30
0.0
 10
-15.5435010365
 20
-10.0275609758
 30
0.0
 10
-15.5473108432
 20
-10.0294142205
 30
0.0
 10
-15.5512877828
 20
-10.0290370078
 30
0.0
 10
-15.5511966696
 20
-10.0296413378
 30
0.0
 11
-15.074234022
 21
-9.9551002478
 31
0.0
 11
-15.1162905959
 21
-9.961458313
 31
0.0
 11
-15.1579139629
 21
-9.9677700913
 31
0.0
 11
-15.1988011046
 21
-9.973989633
 31
0.0
 11
-15.2386543621
 21
-9.9800716597
 31
0.0
 11
-15.2771836031
 21
-9.9859718943
 31
0.0
 11
-15.3141083343
 21
-9.9916473829
 31
0.0
 11
-15.3491597433
 21
-9.997056808
 31
0.0
 11
-15.3820826555
 21
-10.0021607887
 31
0.0
 11
-15.4126373915
 21
-10.0069221682
 31
0.0
 11
-15.4406015126
 21
-10.0113062835
 31
0.0
 11
-15.4657714397
 21
-10.0152812182
 31
0.0
 11
-15.4879639353
 21
-10.0188180347
 31
0.0
 11
-15.5070174379
 21
-10.0218909849
 31
0.0
 11
-15.5227932378
 21
-10.0244776978
 31
0.0
 11
-15.5351764868
 21
-10.0265593421
 31
0.0
 11
-15.5440770349
 21
-10.0281207632
 31
0.0
 11
-15.549430086
 21
-10.0291505942
 31
0.0
 11
-15.5511966696
 21
-10.0296413378
 31
0.0
  0
SPLINE
  5
32B
100
AcDbEntity
  8
0
100
AcDbSpline
 62
253
  6
CONTINUOUS
 70
0
 71
3
 72
25
 73
21
 74
19
 42
0.0000001
 43
0.0000001
 44
0.0000000001
 12
-0.026149326
 22
-0.4995673242
 32
0.0
 13
0.4995656586
 23
-0.0261811268
 33
0.0
 40
0.0
 40
0.0
 40
0.0
 40
0.0
 40
0.087003969
 40
0.1733342858
 40
0.2583362773
 40
0.3413653954
 40
0.4217921358
 40
0.4990068475
 40
0.572424402
 40
0.641488693
 40
0.7056769416
 40
0.7645037943
 40
0.8175252187
 40
0.8643422405
 40
0.9046046611
 40
0.9380151502
 40
0.9643349325
 40
0.9833956743
 40
0.9951425725
 40
1.0
 40
1.0
 40
1.0
 40
1.0
 10
-14.6059895957
 20
-10.379873924
 30
0.0
 10
-14.6067479607
 20
-10.3943620373
 30
0.0
 10
-14.6082151191
 20
-10.4232283927
 30
0.0
 10
-14.6102704424
 20
-10.4662570786
 30
0.0
 10
-14.6121618141
 20
-10.5086298323
 30
0.0
 10
-14.6138749354
 20
-10.5500249246
 30
0.0
 10
-14.615396894
 20
-10.590128054
 30
0.0
 10
-14.6167162689
 20
-10.6286347426
 30
0.0
 10
-14.6178232414
 20
-10.6652525947
 30
0.0
 10
-14.61870966
 20
-10.6997037181
 30
0.0
 10
-14.619369257
 20
-10.7317261697
 30
0.0
 10
-14.6197973806
 20
-10.761078193
 30
0.0
 10
-14.6199924022
 20
-10.7875327896
 30
0.0
 10
-14.619951985
 20
-10.8109026885
 30
0.0
 10
-14.6196858363
 20
-10.8309704653
 30
0.0
 10
-14.6191804335
 20
-10.8477021871
 30
0.0
 10
-14.6185036387
 20
-10.8606558716
 30
0.0
 10
-14.6175481064
 20
-10.8705314508
 30
0.0
 10
-14.6166605295
 20
-10.8756885209
 30
0.0
 10
-14.6155166934
 20
-10.8791463004
 30
0.0
 10
-14.6147078254
 20
-10.8791886914
 30
0.0
 11
-14.6059895957
 21
-10.379873924
 31
0.0
 11
-14.6081986219
 21
-10.4233416719
 31
0.0
 11
-14.6102583804
 21
-10.4664793725
 31
0.0
 11
-14.6121532318
 21
-10.5089594842
 31
0.0
 11
-14.6138687885
 21
-10.5504594588
 31
0.0
 11
-14.6153920244
 21
-10.59066419
 31
0.0
 11
-14.6167113737
 21
-10.6292684062
 31
0.0
 11
-14.6178168186
 21
-10.6659789886
 31
0.0
 11
-14.6186999657
 21
-10.7005171962
 31
0.0
 11
-14.6193541092
 21
-10.7326207831
 31
0.0
 11
-14.6197742823
 21
-10.7620459891
 31
0.0
 11
-14.6199572946
 21
-10.7885693908
 31
0.0
 11
-14.6199017566
 21
-10.8119895979
 31
0.0
 11
-14.6196080899
 21
-10.8321287826
 31
0.0
 11
-14.6190785244
 21
-10.8488340294
 31
0.0
 11
-14.6183170809
 21
-10.8619784967
 31
0.0
 11
-14.617329541
 21
-10.8714623796
 31
0.0
 11
-14.6161234032
 21
-10.8772136675
 31
0.0
 11
-14.6147078254
 21
-10.8791886914
 31
0.0
  0
SPLINE
  5
32C
100
AcDbEntity
  8
ASSI
100
AcDbSpline
 62
253
  6
CONTINUOUS
 70
0
 71
3
 72
22
 73
18
 74
16
 42
0.0000001
 43
0.0000001
 44
0.0000000001
 12
-0.0021832472
 22
0.2504804114
 32
0.0
 13
0.2504803882
 23
0.0021859092
 33
0.0
 40
0.0
 40
0.0
 40
0.0
 40
0.0
 40
0.104302378
 40
0.2074605176
 40
0.3083460848
 40
0.4058557355
 40
0.4989232668
 40
0.5865313867
 40
0.6677229924
 40
0.7416118719
 40
0.8073927865
 40
0.8643509935
 40
0.9118715322
 40
0.9494494424
 40
0.9767055422
 40
0.9934335021
 40
1.0
 40
1.0
 40
1.0
 40
1.0
 10
-16.1482687486
 20
10.7822910738
 30
0.0
 10
-16.1483446545
 20
10.7909996413
 30
0.0
 10
-16.148464133
 20
10.8083215318
 30
0.0
 10
-16.1485470452
 20
10.8340673164
 30
0.0
 10
-16.1485324656
 20
10.859246074
 30
0.0
 10
-16.1484206499
 20
10.8835820314
 30
0.0
 10
-16.1482129723
 20
10.9068087801
 30
0.0
 10
-16.1479119438
 20
10.9286716429
 30
0.0
 10
-16.1475211881
 20
10.9489323347
 30
0.0
 10
-16.1470456006
 20
10.9673654178
 30
0.0
 10
-16.1464910308
 20
10.9837806991
 30
0.0
 10
-16.1458657759
 20
10.9979633836
 30
0.0
 10
-16.1451773672
 20
11.0098620153
 30
0.0
 10
-16.1444448711
 20
11.0190663233
 30
0.0
 10
-16.1436757774
 20
11.0261802881
 30
0.0
 10
-16.1429443206
 20
11.0297106041
 30
0.0
 10
-16.1422737679
 20
11.03227677
 30
0.0
 10
-16.1417255083
 20
11.0322815546
 30
0.0
 11
-16.1482687486
 21
10.7822910738
 31
0.0
 11
-16.1484486924
 21
10.8084171491
 31
0.0
 11
-16.148531111
 21
10.8342570924
 31
0.0
 11
-16.1485151017
 21
10.8595279056
 31
0.0
 11
-16.1484008398
 21
10.8839528235
 31
0.0
 11
-16.1481895767
 21
10.9072643453
 31
0.0
 11
-16.1478836262
 21
10.929207164
 31
0.0
 11
-16.147486339
 21
10.9495409625
 31
0.0
 11
-16.1470020663
 21
10.9680430459
 31
0.0
 11
-16.1464361116
 21
10.98451078
 31
0.0
 11
-16.1457946735
 21
10.9987638108
 31
0.0
 11
-16.1450847768
 21
11.0106460397
 31
0.0
 11
-16.1443141963
 21
11.0200273331
 31
0.0
 11
-16.1434913715
 21
11.0268049474
 31
0.0
 11
-16.1426253138
 21
11.0309046545
 31
0.0
 11
-16.1417255083
 21
11.0322815546
 31
0.0
  0
LINE
  5
32D
100
AcDbEntity
  8
ASSI
100
AcDbLine
 62
253
  6
CONTINUOUS
 10
-16.1482668319
 20
10.7822910829
 11
-16.6308173288
 21
10.7799866265
  0
SPLINE
  5
32E
100
AcDbEntity
  8
ASSI
100
AcDbSpline
 62
253
  6
CONTINUOUS
 70
0
 71
3
 72
25
 73
21
 74
19
 42
0.0000001
 43
0.0000001
 44
0.0000000001
 12
-0.4773650572
 22
-0.072058679
 32
0.0
 13
0.0719729274
 23
-0.4773779936
 33
0.0
 40
0.0
 40
0.0
 40
0.0
 40
0.0
 40
0.0881044587
 40
0.1753073463
 40
0.2609738429
 40
0.3444803147
 40
0.4252188542
 40
0.5026017069
 40
0.5760655508
 40
0.6450755988
 40
0.7091294936
 40
0.7677609685
 40
0.8205432458
 40
0.8670921532
 40
0.9070689357
 40
0.9401827563
 40
0.9661928933
 40
0.9849107349
 40
0.9962021919
 40
1.0
 40
1.0
 40
1.0
 40
1.0
 10
-15.074234022
 20
-9.9551002478
 30
0.0
 10
-15.088253352
 20
-9.9572164781
 30
0.0
 10
-15.1161476205
 20
-9.9614334601
 30
0.0
 10
-15.1576700057
 20
-9.9677297905
 30
0.0
 10
-15.1984579635
 20
-9.9739340332
 30
0.0
 10
-15.2382145606
 20
-9.9800010105
 30
0.0
 10
-15.2766503644
 20
-9.9858865444
 30
0.0
 10
-15.3134855883
 20
-9.9915477552
 30
0.0
 10
-15.348451996
 20
-9.9969434458
 30
0.0
 10
-15.3812953131
 20
-10.0020341428
 30
0.0
 10
-15.4117755275
 20
-10.0067832426
 30
0.0
 10
-15.4396737982
 20
-10.0111543929
 30
0.0
 10
-15.4647772535
 20
-10.0151211012
 30
0.0
 10
-15.4869338724
 20
-10.018637173
 30
0.0
 10
-15.5058895599
 20
-10.0217284083
 30
0.0
 10
-15.5217746898
 20
-10.0242221216
 30
0.0
 10
-15.533747996
 20
-10.0265033286
 30
0.0
 10
-15.5435010365
 20
-10.0275609758
 30
0.0
 10
-15.5473108432
 20
-10.0294142205
 30
0.0
 10
-15.5512877828
 20
-10.0290370078
 30
0.0
 10
-15.5511966696
 20
-10.0296413378
 30
0.0
 11
-15.074234022
 21
-9.9551002478
 31
0.0
 11
-15.1162905959
 21
-9.961458313
 31
0.0
 11
-15.1579139629
 21
-9.9677700913
 31
0.0
 11
-15.1988011046
 21
-9.973989633
 31
0.0
 11
-15.2386543621
 21
-9.9800716597
 31
0.0
 11
-15.2771836031
 21
-9.9859718943
 31
0.0
 11
-15.3141083343
 21
-9.9916473829
 31
0.0
 11
-15.3491597433
 21
-9.997056808
 31
0.0
 11
-15.3820826555
 21
-10.0021607887
 31
0.0
 11
-15.4126373915
 21
-10.0069221682
 31
0.0
 11
-15.4406015126
 21
-10.0113062835
 31
0.0
 11
-15.4657714397
 21
-10.0152812182
 31
0.0
 11
-15.4879639353
 21
-10.0188180347
 31
0.0
 11
-15.5070174379
 21
-10.0218909849
 31
0.0
 11
-15.5227932378
 21
-10.0244776978
 31
0.0
 11
-15.5351764868
 21
-10.0265593421
 31
0.0
 11
-15.5440770349
 21
-10.0281207632
 31
0.0
 11
-15.549430086
 21
-10.0291505942
 31
0.0
 11
-15.5511966696
 21
-10.0296413378
 31
0.0
  0
SPLINE
  5
32F
100
AcDbEntity
  8
ASSI
100
AcDbSpline
 62
253
  6
CONTINUOUS
 70
0
 71
3
 72
25
 73
21
 74
19
 42
0.0000001
 43
0.0000001
 44
0.0000000001
 12
-0.026149326
 22
-0.4995673242
 32
0.0
 13
0.4995656586
 23
-0.0261811268
 33
0.0
 40
0.0
 40
0.0
 40
0.0
 40
0.0
 40
0.087003969
 40
0.1733342858
 40
0.2583362773
 40
0.3413653954
 40
0.4217921358
 40
0.4990068475
 40
0.572424402
 40
0.641488693
 40
0.7056769416
 40
0.7645037943
 40
0.8175252187
 40
0.8643422405
 40
0.9046046611
 40
0.9380151502
 40
0.9643349325
 40
0.9833956743
 40
0.9951425725
 40
1.0
 40
1.0
 40
1.0
 40
1.0
 10
-14.6059895957
 20
-10.379873924
 30
0.0
 10
-14.6067479607
 20
-10.3943620373
 30
0.0
 10
-14.6082151191
 20
-10.4232283927
 30
0.0
 10
-14.6102704424
 20
-10.4662570786
 30
0.0
 10
-14.6121618141
 20
-10.5086298323
 30
0.0
 10
-14.6138749354
 20
-10.5500249246
 30
0.0
 10
-14.615396894
 20
-10.590128054
 30
0.0
 10
-14.6167162689
 20
-10.6286347426
 30
0.0
 10
-14.6178232414
 20
-10.6652525947
 30
0.0
 10
-14.61870966
 20
-10.6997037181
 30
0.0
 10
-14.619369257
 20
-10.7317261697
 30
0.0
 10
-14.6197973806
 20
-10.761078193
 30
0.0
 10
-14.6199924022
 20
-10.7875327896
 30
0.0
 10
-14.619951985
 20
-10.8109026885
 30
0.0
 10
-14.6196858363
 20
-10.8309704653
 30
0.0
 10
-14.6191804335
 20
-10.8477021871
 30
0.0
 10
-14.6185036387
 20
-10.8606558716
 30
0.0
 10
-14.6175481064
 20
-10.8705314508
 30
0.0
 10
-14.6166605295
 20
-10.8756885209
 30
0.0
 10
-14.6155166934
 20
-10.8791463004
 30
0.0
 10
-14.6147078254
 20
-10.8791886914
 30
0.0
 11
-14.6059895957
 21
-10.379873924
 31
0.0
 11
-14.6081986219
 21
-10.4233416719
 31
0.0
 11
-14.6102583804
 21
-10.4664793725
 31
0.0
 11
-14.6121532318
 21
-10.5089594842
 31
0.0
 11
-14.6138687885
 21
-10.5504594588
 31
0.0
 11
-14.6153920244
 21
-10.59066419
 31
0.0
 11
-14.6167113737
 21
-10.6292684062
 31
0.0
 11
-14.6178168186
 21
-10.6659789886
 31
0.0
 11
-14.6186999657
 21
-10.7005171962
 31
0.0
 11
-14.6193541092
 21
-10.7326207831
 31
0.0
 11
-14.6197742823
 21
-10.7620459891
 31
0.0
 11
-14.6199572946
 21
-10.7885693908
 31
0.0
 11
-14.6199017566
 21
-10.8119895979
 31
0.0
 11
-14.6196080899
 21
-10.8321287826
 31
0.0
 11
-14.6190785244
 21
-10.8488340294
 31
0.0
 11
-14.6183170809
 21
-10.8619784967
 31
0.0
 11
-14.617329541
 21
-10.8714623796
 31
0.0
 11
-14.6161234032
 21
-10.8772136675
 31
0.0
 11
-14.6147078254
 21
-10.8791886914
 31
0.0
  0
ELLIPSE
  5
330
100
AcDbEntity
  8
RACCORDO
100
AcDbEllipse
 62
7
  6
CONTINUOUS
 10
2.9695434615
 20
-11.0041148064
 30
0.0
 11
0.2
 21
-0.0
 31
0.0
 40
0.0524077793
 41
1.5707963268
 42
2.617993878
  0
ELLIPSE
  5
331
100
AcDbEntity
  8
RACCORDO
100
AcDbEllipse
 62
7
  6
CONTINUOUS
 10
14.1695434615
 20
-11.0041148064
 30
0.0
 11
0.2
 21
0.0
 31
0.0
 40
0.0524077793
 41
1.5707963268
 42
2.617993878
  0
ELLIPSE
  5
332
100
AcDbEntity
  8
RACCORDO
100
AcDbEllipse
 62
7
  6
CONTINUOUS
 10
6.3386033538
 20
-11.0041148064
 30
0.0
 11
0.2
 21
0.0
 31
0.0
 40
0.0524077793
 41
0.5235987756
 42
1.5707963268
  0
ELLIPSE
  5
333
100
AcDbEntity
  8
RACCORDO
100
AcDbEllipse
 62
7
  6
CONTINUOUS
 10
17.5386033538
 20
-11.0041148064
 30
0.0
 11
0.2
 21
-0.0
 31
0.0
 40
0.0524077793
 41
0.5235987756
 42
1.5707963268
  0
ELLIPSE
  5
334
100
AcDbEntity
  8
0
100
AcDbEllipse
 62
7
  6
CONTINUOUS
 10
20.8774641074
 20
-10.5320818986
 30
0.0
 11
0.4943891341
 21
0.0770133648
 31
0.0
 40
0.9960067742
 41
-1.7259388368
 42
-0.1569690096
  0
ELLIPSE
  5
335
100
AcDbEntity
  8
0
100
AcDbEllipse
 62
7
  6
CONTINUOUS
 10
-0.369317292
 20
-10.5320818986
 30
0.0
 11
0.4943891341
 21
-0.0770133648
 31
0.0
 40
0.9960067742
 41
-2.984623644
 42
-1.4156538168
  0
ELLIPSE
  5
336
100
AcDbEntity
  8
RACCORDO
100
AcDbEllipse
 62
7
  6
CONTINUOUS
 10
21.1539210216
 20
10.8277455609
 30
0.0
 11
0.2426981267
 21
0.0606514259
 31
0.0
 40
0.9993528196
 41
-0.2447368254
 42
1.3257549497
  0
ELLIPSE
  5
337
100
AcDbEntity
  8
RACCORDO
100
AcDbEllipse
 62
7
  6
CONTINUOUS
 10
-0.6457742063
 20
10.8277455609
 30
0.0
 11
0.2426981267
 21
-0.0606514259
 31
0.0
 40
0.9993528196
 41
1.8158377039
 42
3.386329479
  0
ELLIPSE
  5
338
100
AcDbEntity
  8
ASSI
100
AcDbEllipse
 62
7
  6
CONTINUOUS
 10
2.9695434615
 20
-11.0041148064
 30
0.0
 11
0.2
 21
-0.0
 31
0.0
 40
0.0524077793
 41
1.5707963268
 42
2.617993878
  0
ELLIPSE
  5
339
100
AcDbEntity
  8
ASSI
100
AcDbEllipse
 62
7
  6
CONTINUOUS
 10
14.1695434615
 20
-11.0041148064
 30
0.0
 11
0.2
 21
0.0
 31
0.0
 40
0.0524077793
 41
1.5707963268
 42
2.617993878
  0
ELLIPSE
  5
33A
100
AcDbEntity
  8
ASSI
100
AcDbEllipse
 62
7
  6
CONTINUOUS
 10
6.3386033538
 20
-11.0041148064
 30
0.0
 11
0.2
 21
0.0
 31
0.0
 40
0.0524077793
 41
0.5235987756
 42
1.5707963268
  0
ELLIPSE
  5
33B
100
AcDbEntity
  8
ASSI
100
AcDbEllipse
 62
7
  6
CONTINUOUS
 10
17.5386033538
 20
-11.0041148064
 30
0.0
 11
0.2
 21
-0.0
 31
0.0
 40
0.0524077793
 41
0.5235987756
 42
1.5707963268
  0
ELLIPSE
  5
33C
100
AcDbEntity
  8
ASSI
100
AcDbEllipse
 62
7
  6
CONTINUOUS
 10
20.8774641074
 20
-10.5320818986
 30
0.0
 11
0.4943891341
 21
0.0770133648
 31
0.0
 40
0.9960067742
 41
-1.7259388368
 42
-0.1569690096
  0
ELLIPSE
  5
33D
100
AcDbEntity
  8
ASSI
100
AcDbEllipse
 62
7
  6
CONTINUOUS
 10
-0.369317292
 20
-10.5320818986
 30
0.0
 11
0.4943891341
 21
-0.0770133648
 31
0.0
 40
0.9960067742
 41
-2.984623644
 42
-1.4156538168
  0
ELLIPSE
  5
33E
100
AcDbEntity
  8
ASSI
100
AcDbEllipse
 62
7
  6
CONTINUOUS
 10
21.1539210216
 20
10.8277455609
 30
0.0
 11
0.2426981267
 21
0.0606514259
 31
0.0
 40
0.9993528196
 41
-0.2447368254
 42
1.3257549497
  0
ELLIPSE
  5
33F
100
AcDbEntity
  8
ASSI
100
AcDbEllipse
 62
7
  6
CONTINUOUS
 10
-0.6457742063
 20
10.8277455609
 30
0.0
 11
0.2426981267
 21
-0.0606514259
 31
0.0
 40
0.9993528196
 41
1.8158377039
 42
3.386329479
  0
ELLIPSE
  5
340
100
AcDbEntity
  8
CURVE
100
AcDbEllipse
 62
253
  6
CONTINUOUS
 10
73.4430361311
 20
3.3877550805
 30
0.0
 11
73.0117966658
 21
52.6239256197
 31
0.0
 40
1.0
 41
2.5592085799
 42
2.5597287104
  0
ELLIPSE
  5
341
100
AcDbEntity
  8
CURVE
100
AcDbEllipse
 62
253
  6
CONTINUOUS
 10
73.4430361311
 20
3.3877550805
 30
0.0
 11
-8.868385617
 21
89.5619994001
 31
0.0
 40
1.0
 41
1.5147574898
 42
1.5173379121
  0
ELLIPSE
  5
342
100
AcDbEntity
  8
CURVE
100
AcDbEllipse
 62
253
  6
CONTINUOUS
 10
73.4430361311
 20
3.3877550805
 30
0.0
 11
-47.3158000907
 21
76.5585727517
 31
0.0
 40
1.0
 41
1.0647726462
 42
1.0673670973
  0
ELLIPSE
  5
343
100
AcDbEntity
  8
CURVE
100
AcDbEllipse
 62
253
  6
CONTINUOUS
 10
73.4430361311
 20
3.3877550805
 30
0.0
 11
83.149157926
 21
34.4415089129
 31
0.0
 40
1.0
 41
2.80133594
 42
2.8039484078
  0
ELLIPSE
  5
344
100
AcDbEntity
  8
CURVE
100
AcDbEllipse
 62
253
  6
CONTINUOUS
 10
73.4430361311
 20
3.3877550805
 30
0.0
 11
63.6396103068
 21
-63.6396103068
 31
0.0
 40
1.0
 41
-2.2962242048
 42
-2.2939688658
  0
ELLIPSE
  5
345
100
AcDbEntity
  8
CURVE
100
AcDbEllipse
 62
253
  6
CONTINUOUS
 10
73.4430361311
 20
3.3877550805
 30
0.0
 11
-42.4672132979
 21
79.3507138891
 31
0.0
 40
1.0
 41
1.1416250895
 42
1.1442940375
  0
ELLIPSE
  5
346
100
AcDbEntity
  8
CURVE
100
AcDbEllipse
 62
253
  6
CONTINUOUS
 10
73.4430361311
 20
3.3877550805
 30
0.0
 11
79.3507138891
 21
42.4672132979
 31
0.0
 40
1.0
 41
2.7200292925
 42
2.7222045278
  0
ELLIPSE
  5
347
100
AcDbEntity
  8
CURVE
100
AcDbEllipse
 62
253
  6
CONTINUOUS
 10
73.4430361311
 20
3.3877550805
 30
0.0
 11
-63.6396103068
 21
63.6396103068
 31
0.0
 40
1.0
 41
0.8574068993
 42
0.8601975438
  0
ELLIPSE
  5
348
100
AcDbEntity
  8
CURVE
100
AcDbEllipse
 62
253
  6
CONTINUOUS
 10
73.4430361311
 20
3.3877550805
 30
0.0
 11
-10.9964937326
 21
89.3256801015
 31
0.0
 40
1.0
 41
1.5203157311
 42
1.5231063756
  0
ELLIPSE
  5
349
100
AcDbEntity
  8
CURVE
100
AcDbEllipse
 62
253
  6
CONTINUOUS
 10
73.4430361311
 20
3.3877550805
 30
0.0
 11
-34.4415089129
 21
83.149157926
 31
0.0
 40
1.0
 41
1.2479307456
 42
1.250105981
  0
ELLIPSE
  5
34A
100
AcDbEntity
  8
CURVE
100
AcDbEllipse
 62
253
  6
CONTINUOUS
 10
73.4430361311
 20
3.3877550805
 30
0.0
 11
-14.4164018706
 21
88.8378711874
 31
0.0
 40
1.0
 41
1.474815622
 42
1.4770382465
  0
ELLIPSE
  5
34B
100
AcDbEntity
  8
CURVE
100
AcDbEllipse
 62
253
  6
CONTINUOUS
 10
73.4430361311
 20
3.3877550805
 30
0.0
 11
40.249223595
 21
80.49844719
 31
0.0
 40
1.0
 41
-4.186515747
 42
-4.183846799
  0
ELLIPSE
  5
34C
100
AcDbEntity
  8
CURVE
100
AcDbEllipse
 62
253
  6
CONTINUOUS
 10
132.0135412548
 20
7.2761456014
 30
0.0
 11
-0.0
 21
-71.7746125272
 31
-71.7746125272
210
0.0
220
0.7071067812
230
-0.7071067812
 40
0.7071067812
 41
1.5108260414
 42
1.5134623111
  0
ELLIPSE
  5
34D
100
AcDbEntity
  8
CURVE
100
AcDbEllipse
 62
253
  6
CONTINUOUS
 10
73.4430361311
 20
3.3877550805
 30
0.0
 11
12.48310907
 21
89.1300846401
 31
0.0
 40
1.0
 41
-4.5207967828
 42
-4.5159051352
  0
ELLIPSE
  5
34E
100
AcDbEntity
  8
CURVE
100
AcDbEllipse
 62
253
  6
CONTINUOUS
 10
73.4430361311
 20
3.3877550805
 30
0.0
 11
-10.9964937326
 21
89.3256801015
 31
0.0
 40
1.0
 41
1.4958576736
 42
1.5007493633
  0
ELLIPSE
  5
34F
100
AcDbEntity
  8
CURVE
100
AcDbEllipse
 62
253
  6
CONTINUOUS
 10
73.4430361311
 20
3.3877550805
 30
0.0
 11
24.0240223706
 21
86.734343539
 31
0.0
 40
1.0
 41
-4.3995202873
 42
-4.396939865
  0
ELLIPSE
  5
350
100
AcDbEntity
  8
CURVE
100
AcDbEllipse
 62
253
  6
CONTINUOUS
 10
73.4430361311
 20
3.3877550805
 30
0.0
 11
-20.6777628493
 21
87.5924090521
 31
0.0
 40
1.0
 41
1.3811113348
 42
1.3816314653
  0
ELLIPSE
  5
351
100
AcDbEntity
  8
CURVE
100
AcDbEllipse
 62
253
  6
CONTINUOUS
 10
73.4430361311
 20
3.3877550805
 30
0.0
 11
70.9384894215
 21
-55.3870988462
 31
0.0
 40
1.0
 41
-2.4165294077
 42
-2.4161190431
  0
ELLIPSE
  5
352
100
AcDbEntity
  8
CURVE
100
AcDbEllipse
 62
253
  6
CONTINUOUS
 10
73.4430361311
 20
3.3877550805
 30
0.0
 11
88.8378711874
 21
14.4164018706
 31
0.0
 40
1.0
 41
3.0385189019
 42
3.0428717904
  0
ELLIPSE
  5
353
100
AcDbEntity
  8
CURVE
100
AcDbEllipse
 62
253
  6
CONTINUOUS
 10
73.4430361311
 20
3.3877550805
 30
0.0
 11
76.5585727517
 21
-47.3158000907
 31
0.0
 40
1.0
 41
-2.5397259199
 42
-2.5355759266
  0
ELLIPSE
  5
354
100
AcDbEntity
  8
CURVE
100
AcDbEllipse
 62
253
  6
CONTINUOUS
 10
73.4430361311
 20
3.3877550805
 30
0.0
 11
83.149157926
 21
34.4415089129
 31
0.0
 40
1.0
 41
2.7924311418
 42
2.7964442502
  0
ELLIPSE
  5
355
100
AcDbEntity
  8
CURVE
100
AcDbEllipse
 62
253
  6
CONTINUOUS
 10
73.4430361311
 20
3.3877550805
 30
0.0
 11
90.0
 21
0.0
 31
0.0
 40
1.0
 41
-3.1001658187
 42
-3.0980550836
  0
ELLIPSE
  5
356
100
AcDbEntity
  8
CURVE
100
AcDbEllipse
 62
253
  6
CONTINUOUS
 10
132.2447089069
 20
37.3506948115
 30
0.0
 11
-0.0
 21
72.0578945071
 31
-72.0578945071
210
0.0
220
-0.7071067812
230
-0.7071067812
 40
0.7071067812
 41
-1.6122231616
 42
-1.6095789119
  0
ELLIPSE
  5
357
100
AcDbEntity
  8
CURVE
100
AcDbEllipse
 62
253
  6
CONTINUOUS
 10
73.4430361311
 20
3.3877550805
 30
0.0
 11
-26.080573382
 21
86.138282384
 31
0.0
 40
1.0
 41
1.3134230039
 42
1.3155776101
  0
ELLIPSE
  5
358
100
AcDbEntity
  8
CURVE
100
AcDbEllipse
 62
253
  6
CONTINUOUS
 10
73.4430361311
 20
3.3877550805
 30
0.0
 11
8.0825035784
 21
89.6363382558
 31
0.0
 40
1.0
 41
-4.5836796454
 42
-4.5810353956
  0
ELLIPSE
  5
359
100
AcDbEntity
  8
CURVE
100
AcDbEllipse
 62
253
  6
CONTINUOUS
 10
73.4430361311
 20
3.3877550805
 30
0.0
 11
9.8205094702
 21
89.4626044431
 31
0.0
 40
1.0
 41
-4.5616276726
 42
-4.5595169375
  0
ELLIPSE
  5
35A
100
AcDbEntity
  8
CURVE
100
AcDbEllipse
 62
253
  6
CONTINUOUS
 10
73.4430361311
 20
3.3877550805
 30
0.0
 11
26.080573382
 21
86.138282384
 31
0.0
 40
1.0
 41
-4.3748501087
 42
-4.3708370003
  0
ELLIPSE
  5
35B
100
AcDbEntity
  8
CURVE
100
AcDbEllipse
 62
253
  6
CONTINUOUS
 10
73.4430361311
 20
3.3877550805
 30
0.0
 11
34.4415089129
 21
83.149157926
 31
0.0
 40
1.0
 41
-4.2713975239
 42
-4.2685590481
  0
ELLIPSE
  5
35C
100
AcDbEntity
  8
CURVE
100
AcDbEllipse
 62
253
  6
CONTINUOUS
 10
73.4430361311
 20
3.3877550805
 30
0.0
 11
-20.6777628493
 21
87.5924090521
 31
0.0
 40
1.0
 41
1.3901033729
 42
1.3920195429
  0
ELLIPSE
  5
35D
100
AcDbEntity
  8
CURVE
100
AcDbEllipse
 62
253
  6
CONTINUOUS
 10
73.4430361311
 20
3.3877550805
 30
0.0
 11
-12.48310907
 21
89.1300846401
 31
0.0
 40
1.0
 41
1.4938009113
 42
1.4942112759
  0
ELLIPSE
  5
35E
100
AcDbEntity
  8
CURVE
100
AcDbEllipse
 62
253
  6
CONTINUOUS
 10
73.4430361311
 20
3.3877550805
 30
0.0
 11
-63.6396103068
 21
63.6396103068
 31
0.0
 40
1.0
 41
0.8475007865
 42
0.8521860511
  0
ELLIPSE
  5
35F
100
AcDbEntity
  8
CURVE
100
AcDbEllipse
 62
253
  6
CONTINUOUS
 10
73.4430361311
 20
3.3877550805
 30
0.0
 11
83.149157926
 21
-34.4415089129
 31
0.0
 40
1.0
 41
-2.6885615965
 42
-2.6867909488
  0
ELLIPSE
  5
360
100
AcDbEntity
  8
CURVE
100
AcDbEllipse
 62
253
  6
CONTINUOUS
 10
73.4430361311
 20
3.3877550805
 30
0.0
 11
63.6396103068
 21
63.6396103068
 31
0.0
 40
1.0
 41
2.4130537754
 42
2.4165264656
  0
ELLIPSE
  5
361
100
AcDbEntity
  8
CURVE
100
AcDbEllipse
 62
253
  6
CONTINUOUS
 10
73.4430361311
 20
3.3877550805
 30
0.0
 11
87.5924090521
 21
20.6777628493
 31
0.0
 40
1.0
 41
2.9645980164
 42
2.9666281343
  0
ELLIPSE
  5
362
100
AcDbEntity
  8
CURVE
100
AcDbEllipse
 62
253
  6
CONTINUOUS
 10
73.4430361311
 20
3.3877550805
 30
0.0
 11
86.138282384
 21
-26.080573382
 31
0.0
 40
1.0
 41
-2.7959964873
 42
-2.7914226042
  0
ELLIPSE
  5
363
100
AcDbEntity
  8
CURVE
100
AcDbEllipse
 62
253
  6
CONTINUOUS
 10
73.4430361311
 20
3.3877550805
 30
0.0
 11
83.149157926
 21
34.4415089129
 31
0.0
 40
1.0
 41
2.7983862007
 42
2.8004884364
  0
ELLIPSE
  5
364
100
AcDbEntity
  8
CURVE
100
AcDbEllipse
 62
253
  6
CONTINUOUS
 10
73.4430361311
 20
3.3877550805
 30
0.0
 11
76.5585727517
 21
-47.3158000907
 31
0.0
 40
1.0
 41
-2.5471392482
 42
-2.5438035766
  0
ELLIPSE
  5
365
100
AcDbEntity
  8
CURVE
100
AcDbEllipse
 62
253
  6
CONTINUOUS
 10
73.4430361311
 20
3.3877550805
 30
0.0
 11
-26.080573382
 21
86.138282384
 31
0.0
 40
1.0
 41
1.315759242
 42
1.3176740715
  0
ELLIPSE
  5
366
100
AcDbEntity
  8
CURVE
100
AcDbEllipse
 62
253
  6
CONTINUOUS
 10
73.4430361311
 20
3.3877550805
 30
0.0
 11
29.7906247292
 21
84.9265487244
 31
0.0
 40
1.0
 41
-4.3360542923
 42
-4.3341394628
  0
ELLIPSE
  5
367
100
AcDbEntity
  8
CURVE
100
AcDbEllipse
 62
253
  6
CONTINUOUS
 10
73.4430361311
 20
3.3877550805
 30
0.0
 11
28.4604989415
 21
85.3814968245
 31
0.0
 40
1.0
 41
-4.3497593795
 42
-4.3464237079
  0
ELLIPSE
  5
368
100
AcDbEntity
  8
CURVE
100
AcDbEllipse
 62
253
  6
CONTINUOUS
 10
73.4430361311
 20
3.3877550805
 30
0.0
 11
20.6777628493
 21
87.5924090521
 31
0.0
 40
1.0
 41
-4.4363504578
 42
-4.4342765876
  0
ELLIPSE
  5
369
100
AcDbEntity
  8
CURVE
100
AcDbEllipse
 62
253
  6
CONTINUOUS
 10
73.4430361311
 20
3.3877550805
 30
0.0
 11
53.7237476676
 21
72.206363546
 31
0.0
 40
1.0
 41
-4.026430626
 42
-4.0232265854
  0
ELLIPSE
  5
36A
100
AcDbEntity
  8
CURVE
100
AcDbEllipse
 62
253
  6
CONTINUOUS
 10
73.4430361311
 20
3.3877550805
 30
0.0
 11
42.4672132979
 21
79.3507138891
 31
0.0
 40
1.0
 41
-4.17149949
 42
-4.1693972542
  0
ELLIPSE
  5
36B
100
AcDbEntity
  8
CURVE
100
AcDbEllipse
 62
253
  6
CONTINUOUS
 10
73.4430361311
 20
3.3877550805
 30
0.0
 11
38.1739856625
 21
81.5030479101
 31
0.0
 40
1.0
 41
-4.2227650905
 42
-4.2195307878
  0
ELLIPSE
  5
36C
100
AcDbEntity
  8
CURVE
100
AcDbEllipse
 62
253
  6
CONTINUOUS
 10
73.4430361311
 20
3.3877550805
 30
0.0
 11
34.4415089129
 21
83.149157926
 31
0.0
 40
1.0
 41
-4.2648607314
 42
-4.2628306135
  0
ELLIPSE
  5
36D
100
AcDbEntity
  8
CURVE
100
AcDbEllipse
 62
253
  6
CONTINUOUS
 10
73.4430361311
 20
3.3877550805
 30
0.0
 11
55.3870988462
 21
70.9384894215
 31
0.0
 40
1.0
 41
-3.9926208633
 42
-3.9891481731
  0
ELLIPSE
  5
36E
100
AcDbEntity
  8
CURVE
100
AcDbEllipse
 62
253
  6
CONTINUOUS
 10
73.4430361311
 20
3.3877550805
 30
0.0
 11
26.080573382
 21
86.138282384
 31
0.0
 40
1.0
 41
-4.3562850555
 42
-4.351599791
  0
ELLIPSE
  5
36F
100
AcDbEntity
  8
CURVE
100
AcDbEllipse
 62
253
  6
CONTINUOUS
 10
73.4430361311
 20
3.3877550805
 30
0.0
 11
0.0
 21
90.0
 31
0.0
 40
1.0
 41
1.6356908992
 42
1.6406298273
  0
ELLIPSE
  5
370
100
AcDbEntity
  8
CURVE
100
AcDbEllipse
 62
253
  6
CONTINUOUS
 10
73.4430361311
 20
3.3877550805
 30
0.0
 11
86.138282384
 21
-26.080573382
 31
0.0
 40
1.0
 41
-2.7677135173
 42
-2.7661211059
  0
ELLIPSE
  5
371
100
AcDbEntity
  8
CURVE
100
AcDbEllipse
 62
253
  6
CONTINUOUS
 10
73.4430361311
 20
3.3877550805
 30
0.0
 11
-55.3870988462
 21
70.9384894215
 31
0.0
 40
1.0
 41
0.984554446
 42
0.9877653295
  0
ELLIPSE
  5
372
100
AcDbEntity
  8
CURVE
100
AcDbEllipse
 62
253
  6
CONTINUOUS
 10
73.4430361311
 20
3.3877550805
 30
0.0
 11
73.0117966658
 21
-52.6239256197
 31
0.0
 40
1.0
 41
-2.4424435291
 42
-2.4404028163
  0
ELLIPSE
  5
373
100
AcDbEntity
  8
CURVE
100
AcDbEllipse
 62
253
  6
CONTINUOUS
 10
73.4430361311
 20
3.3877550805
 30
0.0
 11
83.149157926
 21
-34.4415089129
 31
0.0
 40
1.0
 41
-2.6793886625
 42
-2.6772388089
  0
ELLIPSE
  5
374
100
AcDbEntity
  8
CURVE
100
AcDbEllipse
 62
253
  6
CONTINUOUS
 10
73.4430361311
 20
3.3877550805
 30
0.0
 11
83.149157926
 21
34.4415089129
 31
0.0
 40
1.0
 41
2.8155346209
 42
2.8183984812
  0
ELLIPSE
  5
375
100
AcDbEntity
  8
CURVE
100
AcDbEllipse
 62
253
  6
CONTINUOUS
 10
73.4430361311
 20
3.3877550805
 30
0.0
 11
70.9384894215
 21
-55.3870988462
 31
0.0
 40
1.0
 41
-2.41425135
 42
-2.4120427728
  0
ELLIPSE
  5
376
100
AcDbEntity
  8
CURVE
100
AcDbEllipse
 62
253
  6
CONTINUOUS
 10
73.4430361311
 20
3.3877550805
 30
0.0
 11
87.5924090521
 21
-20.6777628493
 31
0.0
 40
1.0
 41
-2.8481435067
 42
-2.8453363773
  0
ELLIPSE
  5
377
100
AcDbEntity
  8
CURVE
100
AcDbEllipse
 62
253
  6
CONTINUOUS
 10
73.4430361311
 20
3.3877550805
 30
0.0
 11
87.5924090521
 21
20.6777628493
 31
0.0
 40
1.0
 41
2.9691524969
 42
2.9719944735
  0
ELLIPSE
  5
378
100
AcDbEntity
  8
CURVE
100
AcDbEllipse
 62
253
  6
CONTINUOUS
 10
73.4430361311
 20
3.3877550805
 30
0.0
 11
76.5585727517
 21
47.3158000907
 31
0.0
 40
1.0
 41
2.64462526
 42
2.6474019425
  0
ELLIPSE
  5
379
100
AcDbEntity
  8
CURVE
100
AcDbEllipse
 62
253
  6
CONTINUOUS
 10
73.4430361311
 20
3.3877550805
 30
0.0
 11
89.3256801015
 21
10.9964937326
 31
0.0
 40
1.0
 41
3.0734513456
 42
3.0757102873
  0
ELLIPSE
  5
37A
100
AcDbEntity
  8
CURVE
100
AcDbEllipse
 62
253
  6
CONTINUOUS
 10
73.4430361311
 20
3.3877550805
 30
0.0
 11
-63.6396103068
 21
63.6396103068
 31
0.0
 40
1.0
 41
0.8296128814
 42
0.8348907922
  0
ELLIPSE
  5
37B
100
AcDbEntity
  8
CURVE
100
AcDbEllipse
 62
253
  6
CONTINUOUS
 10
73.4430361311
 20
3.3877550805
 30
0.0
 11
88.8378711874
 21
-14.4164018706
 31
0.0
 40
1.0
 41
-2.935432861
 42
-2.9341598767
  0
ELLIPSE
  5
37C
100
AcDbEntity
  8
CURVE
100
AcDbEllipse
 62
253
  6
CONTINUOUS
 10
73.4430361311
 20
3.3877550805
 30
0.0
 11
0.0
 21
90.0
 31
0.0
 40
1.0
 41
-4.667104465
 42
-4.6640966056
  0
ELLIPSE
  5
37D
100
AcDbEntity
  8
CURVE
100
AcDbEllipse
 62
253
  6
CONTINUOUS
 10
73.4430361311
 20
3.3877550805
 30
0.0
 11
88.8378711874
 21
14.4164018706
 31
0.0
 40
1.0
 41
3.0272748761
 42
3.0300379004
  0
ELLIPSE
  5
37E
100
AcDbEntity
  8
CURVE
100
AcDbEllipse
 62
253
  6
CONTINUOUS
 10
73.4430361311
 20
3.3877550805
 30
0.0
 11
-26.080573382
 21
86.138282384
 31
0.0
 40
1.0
 41
1.326115549
 42
1.3283799181
  0
ELLIPSE
  5
37F
100
AcDbEntity
  8
CURVE
100
AcDbEllipse
 62
253
  6
CONTINUOUS
 10
73.4430361311
 20
3.3877550805
 30
0.0
 11
23.1001141641
 21
86.9849683888
 31
0.0
 40
1.0
 41
-4.4012310302
 42
-4.3984678997
  0
ELLIPSE
  5
380
100
AcDbEntity
  8
CURVE
100
AcDbEllipse
 62
253
  6
CONTINUOUS
 10
73.4430361311
 20
3.3877550805
 30
0.0
 11
-14.4164018706
 21
88.8378711874
 31
0.0
 40
1.0
 41
1.4642690732
 42
1.4665280149
  0
ELLIPSE
  5
381
100
AcDbEntity
  8
CURVE
100
AcDbEllipse
 62
253
  6
CONTINUOUS
 10
73.4430361311
 20
3.3877550805
 30
0.0
 11
20.6777628493
 21
87.5924090521
 31
0.0
 40
1.0
 41
-4.4239582106
 42
-4.4211815281
  0
ELLIPSE
  5
382
100
AcDbEntity
  8
CURVE
100
AcDbEllipse
 62
253
  6
CONTINUOUS
 10
73.4430361311
 20
3.3877550805
 30
0.0
 11
90.0
 21
-0.0
 31
0.0
 40
1.0
 41
-3.0922721296
 42
-3.0794382396
  0
ELLIPSE
  5
383
100
AcDbEntity
  8
CURVE
100
AcDbEllipse
 62
253
  6
CONTINUOUS
 10
73.4430361311
 20
3.3877550805
 30
0.0
 11
24.0240223706
 21
86.734343539
 31
0.0
 40
1.0
 41
-4.3805538879
 42
-4.3777467585
  0
ELLIPSE
  5
384
100
AcDbEntity
  8
CURVE
100
AcDbEllipse
 62
253
  6
CONTINUOUS
 10
73.4430361311
 20
3.3877550805
 30
0.0
 11
10.9964937326
 21
89.3256801015
 31
0.0
 40
1.0
 41
-4.525467177
 42
-4.5232585999
  0
ELLIPSE
  5
385
100
AcDbEntity
  8
CURVE
100
AcDbEllipse
 62
253
  6
CONTINUOUS
 10
73.4430361311
 20
3.3877550805
 30
0.0
 11
20.6777628493
 21
87.5924090521
 31
0.0
 40
1.0
 41
-4.4139241269
 42
-4.4110602665
  0
ELLIPSE
  5
386
100
AcDbEntity
  8
CURVE
100
AcDbEllipse
 62
253
  6
CONTINUOUS
 10
73.4430361311
 20
3.3877550805
 30
0.0
 11
17.0196769039
 21
88.3760748058
 31
0.0
 40
1.0
 41
-4.4526308825
 42
-4.4504810288
  0
ELLIPSE
  5
387
100
AcDbEntity
  8
CURVE
100
AcDbEllipse
 62
253
  6
CONTINUOUS
 10
73.4430361311
 20
3.3877550805
 30
0.0
 11
0.0
 21
90.0
 31
0.0
 40
1.0
 41
-4.6407342173
 42
-4.6377627421
  0
ELLIPSE
  5
388
100
AcDbEntity
  8
CURVE
100
AcDbEllipse
 62
253
  6
CONTINUOUS
 10
73.4430361311
 20
3.3877550805
 30
0.0
 11
29.7906247292
 21
84.9265487244
 31
0.0
 40
1.0
 41
-4.300392271
 42
-4.2982771012
  0
ELLIPSE
  5
389
100
AcDbEntity
  8
CURVE
100
AcDbEllipse
 62
253
  6
CONTINUOUS
 10
73.4430361311
 20
3.3877550805
 30
0.0
 11
0.0
 21
90.0
 31
0.0
 40
1.0
 41
1.6455957072
 42
1.6522665727
  0
ENDSEC
  0
SECTION
  2
OBJECTS
  0
DICTIONARY
  5
C
100
AcDbDictionary
280
0
281
1
  3
ACAD_GROUP
350
D
  3
ACAD_MLINESTYLE
350
17
  3
ACAD_LAYOUT
350
1A
  3
ACAD_PLOTSETTINGS
350
19
  3
ACAD_PLOTSTYLENAME
350
E
  0
DICTIONARY
  5
D
102
{ACAD_REACTORS
330
C
102
}
100
AcDbDictionary
280
0
281
1
  0
ACDBDICTIONARYWDFLT
  5
E
102
{ACAD_REACTORS
330
C
102
}
100
AcDbDictionary
281
1
  3
Normal
350
F
100
AcDbDictionaryWithDefault
340
F
  0
DICTIONARY
  5
17
102
{ACAD_REACTORS
330
C
102
}
100
AcDbDictionary
280
0
281
1
  3
Standard
350
18
  0
DICTIONARY
  5
19
102
{ACAD_REACTORS
330
C
102
}
100
AcDbDictionary
281
1
  0
DICTIONARY
  5
1A
102
{ACAD_REACTORS
330
C
102
}
100
AcDbDictionary
281
1
  3
Model
350
38A
  3
Layout1
350
38B
  0
ACDBPLACEHOLDER
  5
F
102
{ACAD_REACTORS
330
E
102
}
  0
MLINESTYLE
  5
18
102
{ACAD_REACTORS
330
17
102
}
100
AcDbMlineStyle
  2
STANDARD
 70
0
  3

 62
256
 51
90.0
 52
90.0
 71
2
 49
0.5
 62
256
  6
BYLAYER
 49
-0.5
 62
256
  6
BYLAYER
  0
LAYOUT
  5
38A
102
{ACAD_REACTORS
330
1A
102
}
100
AcDbPlotSettings
  1

  2
none_device
  4
ISO_A4_(297.00_x_210.00_MM)
  6

 40
0.0
 41
0.0
 42
0.0
 43
0.0
 44
297.0
 45
210.0
 46
0.0
 47
0.0
 48
0.0
 49
0.0
140
0.0
141
0.0
142
1.0
143
1.0
 70
1024
 72
1
 73
0
 74
0
  7

 75
0
147
1.0
148
0.0
149
0.0
100
AcDbLayout
  1
Model
 70
0
 71
0
 10
0.0
 20
0.0
 11
297.0
 21
210.0
 12
0.0
 22
0.0
 32
0.0
 14
0.0
 24
0.0
 34
0.0
 15
0.0
 25
0.0
 35
0.0
146
0.0
 13
0.0
 23
0.0
 33
0.0
 16
1.0
 26
0.0
 36
0.0
 17
0.0
 27
1.0
 37
0.0
 76
0
330
21A
345
0
346
0
  0
LAYOUT
  5
38B
102
{ACAD_REACTORS
330
1A
102
}
100
AcDbPlotSettings
  1

  2
none_device
  4
ISO_A4_(297.00_x_210.00_MM)
  6

 40
0.0
 41
0.0
 42
0.0
 43
0.0
 44
297.0
 45
210.0
 46
0.0
 47
0.0
 48
0.0
 49
0.0
140
0.0
141
0.0
142
1.0
143
1.0
 70
0
 72
1
 73
0
 74
0
  7

 75
0
147
1.0
148
0.0
149
0.0
100
AcDbLayout
  1
Layout1
 70
0
 71
1
 10
0.0
 20
0.0
 11
297.0
 21
210.0
 12
0.0
 22
0.0
 32
0.0
 14
0.0
 24
0.0
 34
0.0
 15
0.0
 25
0.0
 35
0.0
146
0.0
 13
0.0
 23
0.0
 33
0.0
 16
1.0
 26
0.0
 36
0.0
 17
0.0
 27
1.0
 37
0.0
 76
0
330
21B
345
0
346
0
  0
ENDSEC
  0
EOF
