  0
SECTION
  2
HEADER
  9
$ACADVER
  1
AC1015
  9
$DWGCODEPAGE
  3
ANSI_1252
  9
$EXTMAX
 10
297.0
 20
210.0
 30
0.0
  9
$EXTMIN
 10
0.0
 20
0.0
 30
0.0
  9
$LIMMIN
 10
0.0
 20
0.0
  9
$LIMMAX
 10
297.0
 20
210.0
  9
$VIEWCTR
 10
148.5
 20
105.0
  9
$VIEWSIZE
 40
210.0
  9
$CLAYER
  8
0
  9
$LTSCALE
 40
16.335
  9
$CELTYPE
  6
BYLAYER
  9
$DIMSCALE
 40
1.0
  9
$DIMASZ
 40
3.0
  9
$DIMEXO
 40
1.85625
  9
$DIMDLI
 40
11.286
  9
$DIMEXE
 40
5.346
  9
$DIMCEN
 40
2.673
  9
$DIMLFAC
 40
1.0
  9
$DIMBLK
  1
_FILLED
  9
$DIMTXT
 40
3.0
  9
$DIMTOL
 70
1
  9
$DIMLIM
 70
0
  9
$DIMTFAC
 40
1.0
  9
$DIMTP
 40
0.01
  9
$DIMTM
 40
0.01
  9
$PDMODE
 70
3
  9
$PDSIZE
 40
3.0
  9
$HANDSEED
  5
399
  9
$TILEMODE
 70
1
  9
$MEASUREMENT
 70
1
  9
$INSUNITS
 70
4
  0
ENDSEC
  0
SECTION
  2
CLASSES
  0
CLASS
  1
ACDBDICTIONARYWDFLT
  2
AcDbDictionaryWithDefault
  3
AutoCAD 2000
 90
0
280
0
281
0
  0
CLASS
  1
ACDBPLACEHOLDER
  2
AcDbPlaceHolder
  3
AutoCAD 2000
 90
0
280
0
281
0
  0
CLASS
  1
LAYOUT
  2
AcDbLayout
  3
AutoCAD 2000
 90
0
280
0
281
0
  0
ENDSEC
  0
SECTION
  2
TABLES
  0
TABLE
  2
VPORT
  5
8
100
AcDbSymbolTable
 70
2
  0
VPORT
  5
1F4
100
AcDbSymbolTableRecord
100
AcDbViewportTableRecord
  2
*ACTIVE
 70
0
 10
0.0
 20
0.0
 11
1.0
 21
1.0
 12
148.5
 22
105.0
 13
0.0
 23
0.0
 14
1.0
 24
1.0
 15
0.0
 25
0.0
 16
0.0
 26
0.0
 36
1.0
 17
0.0
 27
0.0
 37
0.0
 40
210.0
 41
1.4142857143
 42
50.0
 43
0.0
 44
0.0
 50
0.0
 51
0.0
 71
0
 72
100
 73
1
 74
1
 75
0
 76
0
 77
0
 78
0
  0
ENDTAB
  0
TABLE
  2
LTYPE
  5
5
100
AcDbSymbolTable
 70
6
  0
LTYPE
  5
14
100
AcDbSymbolTableRecord
100
AcDbLinetypeTableRecord
  2
BYBLOCK
 70
0
  3

 72
65
 73
0
 40
0.0
  0
LTYPE
  5
15
100
AcDbSymbolTableRecord
100
AcDbLinetypeTableRecord
  2
BYLAYER
 70
0
  3

 72
65
 73
0
 40
0.0
  0
LTYPE
  5
16
100
AcDbSymbolTableRecord
100
AcDbLinetypeTableRecord
  2
CONTINUOUS
 70
64
  3
Solid line
 72
65
 73
0
 40
0.0
  0
LTYPE
  5
1F5
100
AcDbSymbolTableRecord
100
AcDbLinetypeTableRecord
  2
CENTER
 70
64
  3
____ _ ____ _ ____ _ ____ _ ____ _ ____ _ ____
 72
65
 73
4
 40
0.6
 49
0.375
 74
0
 49
-0.075
 74
0
 49
0.075
 74
0
 49
-0.075
 74
0
  0
LTYPE
  5
1F6
100
AcDbSymbolTableRecord
100
AcDbLinetypeTableRecord
  2
HIDDEN
 70
64
  3
- - - - - - - - - - - - - - - - - - - -
 72
65
 73
2
 40
0.2
 49
0.1
 74
0
 49
-0.1
 74
0
  0
LTYPE
  5
1F7
100
AcDbSymbolTableRecord
100
AcDbLinetypeTableRecord
  2
PHANTOM
 70
64
  3
_____ _ _ _____ _ _ _____ _ _ _____
 72
65
 73
6
 40
0.8
 49
0.45
 74
0
 49
-0.05
 74
0
 49
0.1
 74
0
 49
-0.05
 74
0
 49
0.1
 74
0
 49
-0.05
 74
0
  0
LTYPE
  5
1F8
100
AcDbSymbolTableRecord
100
AcDbLinetypeTableRecord
  2
DOT
 70
64
  3
. . . . . . . . . . . . . . . . . . . .
 72
65
 73
2
 40
0.2
 49
0.1
 74
0
 49
-0.1
 74
0
  0
LTYPE
  5
1F9
100
AcDbSymbolTableRecord
100
AcDbLinetypeTableRecord
  2
DASHED
 70
64
  3
- - - - - - - - - - - - - - - - - - - -
 72
65
 73
2
 40
0.2
 49
0.1
 74
0
 49
-0.1
 74
0
  0
ENDTAB
  0
TABLE
  2
LAYER
  5
2
100
AcDbSymbolTable
 70
36
  0
LAYER
  5
10
100
AcDbSymbolTableRecord
100
AcDbLayerTableRecord
  2
0
 70
0
 62
7
  6
CONTINUOUS
370
-3
390
F
  0
LAYER
  5
1FA
100
AcDbSymbolTableRecord
100
AcDbLayerTableRecord
  2
DEFAULT_1
 70
0
 62
7
  6
CENTER
370
-3
390
F
  0
LAYER
  5
1FB
100
AcDbSymbolTableRecord
100
AcDbLayerTableRecord
  2
DEFAULT_2
 70
0
 62
7
  6
HIDDEN
370
-3
390
F
  0
LAYER
  5
1FC
100
AcDbSymbolTableRecord
100
AcDbLayerTableRecord
  2
DEFAULT_3
 70
0
 62
7
  6
PHANTOM
370
-3
390
F
  0
LAYER
  5
1FD
100
AcDbSymbolTableRecord
100
AcDbLayerTableRecord
  2
ASSI
 70
0
 62
7
  6
CONTINUOUS
370
-3
390
F
  0
LAYER
  5
1FE
100
AcDbSymbolTableRecord
100
AcDbLayerTableRecord
  2
COLOR9
 70
0
 62
7
  6
CONTINUOUS
370
-3
390
F
  0
LAYER
  5
1FF
100
AcDbSymbolTableRecord
100
AcDbLayerTableRecord
  2
COORDINATE
 70
0
 62
7
  6
CONTINUOUS
370
-3
390
F
  0
LAYER
  5
200
100
AcDbSymbolTableRecord
100
AcDbLayerTableRecord
  2
COORD_ORIGINE
 70
0
 62
7
  6
CONTINUOUS
370
-3
390
F
  0
LAYER
  5
201
100
AcDbSymbolTableRecord
100
AcDbLayerTableRecord
  2
COPY_PUBLISH
 70
0
 62
7
  6
CONTINUOUS
370
-3
390
F
  0
LAYER
  5
202
100
AcDbSymbolTableRecord
100
AcDbLayerTableRecord
  2
COSMETIC
 70
0
 62
7
  6
CONTINUOUS
370
-3
390
F
  0
LAYER
  5
203
100
AcDbSymbolTableRecord
100
AcDbLayerTableRecord
  2
CURVE
 70
0
 62
7
  6
CONTINUOUS
370
-3
390
F
  0
LAYER
  5
204
100
AcDbSymbolTableRecord
100
AcDbLayerTableRecord
  2
DRAFT
 70
0
 62
7
  6
CONTINUOUS
370
-3
390
F
  0
LAYER
  5
205
100
AcDbSymbolTableRecord
100
AcDbLayerTableRecord
  2
IGS_SCRITTE
 70
0
 62
7
  6
CONTINUOUS
370
-3
390
F
  0
LAYER
  5
206
100
AcDbSymbolTableRecord
100
AcDbLayerTableRecord
  2
IMPORT_IGES
 70
0
 62
7
  6
CONTINUOUS
370
-3
390
F
  0
LAYER
  5
207
100
AcDbSymbolTableRecord
100
AcDbLayerTableRecord
  2
INTF_15
 70
0
 62
7
  6
CONTINUOUS
370
-3
390
F
  0
LAYER
  5
208
100
AcDbSymbolTableRecord
100
AcDbLayerTableRecord
  2
INTF_3
 70
0
 62
7
  6
CONTINUOUS
370
-3
390
F
  0
LAYER
  5
209
100
AcDbSymbolTableRecord
100
AcDbLayerTableRecord
  2
INTF_4
 70
0
 62
7
  6
CONTINUOUS
370
-3
390
F
  0
LAYER
  5
20A
100
AcDbSymbolTableRecord
100
AcDbLayerTableRecord
  2
INTF_YELLOW
 70
0
 62
7
  6
CONTINUOUS
370
-3
390
F
  0
LAYER
  5
20B
100
AcDbSymbolTableRecord
100
AcDbLayerTableRecord
  2
PIANI
 70
0
 62
7
  6
CONTINUOUS
370
-3
390
F
  0
LAYER
  5
20C
100
AcDbSymbolTableRecord
100
AcDbLayerTableRecord
  2
PIANI_ORIGINE
 70
0
 62
7
  6
CONTINUOUS
370
-3
390
F
  0
LAYER
  5
20D
100
AcDbSymbolTableRecord
100
AcDbLayerTableRecord
  2
PIANI_RIFERIMENTO
 70
0
 62
7
  6
CONTINUOUS
370
-3
390
F
  0
LAYER
  5
20E
100
AcDbSymbolTableRecord
100
AcDbLayerTableRecord
  2
RACCORDO
 70
0
 62
7
  6
CONTINUOUS
370
-3
390
F
  0
LAYER
  5
20F
100
AcDbSymbolTableRecord
100
AcDbLayerTableRecord
  2
SMUSSO
 70
0
 62
7
  6
CONTINUOUS
370
-3
390
F
  0
LAYER
  5
210
100
AcDbSymbolTableRecord
100
AcDbLayerTableRecord
  2
SNAPLINE
 70
0
 62
7
  6
CONTINUOUS
370
-3
390
F
  0
LAYER
  5
211
100
AcDbSymbolTableRecord
100
AcDbLayerTableRecord
  2
SOLIDO
 70
0
 62
7
  6
CONTINUOUS
370
-3
390
F
  0
LAYER
  5
212
100
AcDbSymbolTableRecord
100
AcDbLayerTableRecord
  2
SUPERFICI
 70
0
 62
7
  6
CONTINUOUS
370
-3
390
F
  0
LAYER
  5
213
100
AcDbSymbolTableRecord
100
AcDbLayerTableRecord
  2
TRASH
 70
0
 62
7
  6
CONTINUOUS
370
-3
390
F
  0
LAYER
  5
214
100
AcDbSymbolTableRecord
100
AcDbLayerTableRecord
  2
WHITE
 70
0
 62
7
  6
CONTINUOUS
370
-3
390
F
  0
LAYER
  5
215
100
AcDbSymbolTableRecord
100
AcDbLayerTableRecord
  2
XSEC_DATUMS
 70
0
 62
7
  6
CONTINUOUS
370
-3
390
F
  0
ENDTAB
  0
TABLE
  2
STYLE
  5
3
100
AcDbSymbolTable
 70
1
  0
STYLE
  5
11
100
AcDbSymbolTableRecord
100
AcDbTextStyleTableRecord
  2
STANDARD
 70
0
 40
0.0
 41
0.8
 50
0.0
 71
0
 42
0.2
  3
txt
  4

  0
STYLE
  5
216
100
AcDbSymbolTableRecord
100
AcDbTextStyleTableRecord
  2
TEXTSTYLE_1
 70
0
 40
0.0
 41
0.8
 50
0.0
 71
0
 42
0.2
  3
gdt
  4

  0
ENDTAB
  0
TABLE
  2
VIEW
  5
6
100
AcDbSymbolTable
 70
0
  0
ENDTAB
  0
TABLE
  2
UCS
  5
7
100
AcDbSymbolTable
 70
0
  0
ENDTAB
  0
TABLE
  2
APPID
  5
9
100
AcDbSymbolTable
 70
1
  0
APPID
  5
217
100
AcDbSymbolTableRecord
100
AcDbRegAppTableRecord
  2
ACAD
 70
0
  0
ENDTAB
  0
TABLE
  2
BLOCK_RECORD
  5
1
100
AcDbSymbolTable
 70
0
  0
BLOCK_RECORD
  5
218
100
AcDbSymbolTableRecord
100
AcDbBlockTableRecord
  2
*Model_Space
  0
BLOCK_RECORD
  5
219
100
AcDbSymbolTableRecord
100
AcDbBlockTableRecord
  2
*Paper_Space
  0
BLOCK_RECORD
  5
21A
100
AcDbSymbolTableRecord
100
AcDbBlockTableRecord
  2
_FILLED
  0
BLOCK_RECORD
  5
21B
100
AcDbSymbolTableRecord
100
AcDbBlockTableRecord
  2
*D0
  0
BLOCK_RECORD
  5
21C
100
AcDbSymbolTableRecord
100
AcDbBlockTableRecord
  2
*D1
  0
BLOCK_RECORD
  5
21D
100
AcDbSymbolTableRecord
100
AcDbBlockTableRecord
  2
*D2
  0
ENDTAB
  0
TABLE
  2
DIMSTYLE
  5
A
100
AcDbSymbolTable
 70
1
100
AcDbDimStyleTable
 71
0
  0
DIMSTYLE
105
21E
100
AcDbSymbolTableRecord
100
AcDbDimStyleTableRecord
  2
STANDARD
 70
0
  3

  4

 40
1.0
 41
3.0
 42
0.0625
 43
0.38
 44
0.18
 45
0.0
 46
0.0
 47
0.01
 48
0.01
140
3.0
141
0.09
142
0.0
143
25.4
144
1.0
145
0.0
146
1.0
147
0.09
 71
1.0
 72
0.0
 73
0
 74
0
 75
0
 76
0
 77
1
 78
8
170
0
171
2
172
0
173
0
174
0
175
0
176
0
177
0
178
0
270
2
271
2
272
2
273
2
274
2
275
0
280
0
281
0
282
0
283
1
284
8
285
0
286
0
287
3
288
0
340
11
341
21A
342
21A
343
21A
344
21A
  0
DIMSTYLE
105
21F
100
AcDbSymbolTableRecord
100
AcDbDimStyleTableRecord
  2
DIMSTYLE_1
 70
0
  3

  4

 40
1.0
 41
3.0
 42
0.0625
 43
0.38
 44
0.18
 45
0.0
 46
0.0
 47
0.0
 48
0.0
140
3.0
141
0.09
142
0.0
143
25.4
144
1.0
145
0.0
146
1.0
147
0.09
 71
0.0
 72
0.0
 73
0
 74
0
 75
0
 76
0
 77
1
 78
8
170
0
171
2
172
0
173
0
174
0
175
0
176
0
177
0
178
0
270
2
271
2
272
2
273
2
274
2
275
0
280
0
281
0
282
0
283
1
284
8
285
0
286
0
287
3
288
0
340
11
341
21A
342
21A
343
21A
344
21A
  0
DIMSTYLE
105
220
100
AcDbSymbolTableRecord
100
AcDbDimStyleTableRecord
  2
DIMSTYLE_2
 70
0
  3

  4

 40
1.0
 41
3.0
 42
0.0625
 43
0.38
 44
0.18
 45
0.0
 46
0.0
 47
0.0
 48
0.0
140
3.0
141
0.09
142
0.0
143
25.4
144
1.0
145
0.0
146
1.0
147
0.09
 71
0.0
 72
0.0
 73
0
 74
0
 75
0
 76
0
 77
1
 78
8
170
0
171
2
172
0
173
0
174
0
175
0
176
0
177
0
178
0
270
2
271
1
272
1
273
2
274
2
275
0
280
0
281
0
282
0
283
1
284
8
285
0
286
0
287
3
288
0
340
11
341
21A
342
21A
343
21A
344
21A
  0
ENDTAB
  0
ENDSEC
  0
SECTION
  2
BLOCKS
  0
BLOCK
  5
20
100
AcDbEntity
  8
0
100
AcDbBlockBegin
  2
*Model_Space
 70
0
 10
0.0
 20
0.0
 30
0.0
  3
*Model_Space
  1

  0
ENDBLK
  5
21
100
AcDbEntity
  8
0
100
AcDbBlockEnd
  0
BLOCK
  5
1C
100
AcDbEntity
  8
0
100
AcDbBlockBegin
  2
*Paper_Space
 70
0
 10
0.0
 20
0.0
 30
0.0
  3
*Paper_Space
  1

  0
ENDBLK
  5
1D
100
AcDbEntity
  8
0
100
AcDbBlockEnd
  0
BLOCK
  5
221
100
AcDbEntity
  8
0
100
AcDbBlockBegin
  2
_FILLED
 70
64
 10
0.0
 20
0.0
  3
_FILLED
  1

  0
SOLID
  5
222
100
AcDbEntity
  8
0
  6
BYBLOCK
 62
0
100
AcDbTrace
 10
0.0
 20
0.0
 11
-1.0
 21
0.3166666667
 12
-1.0
 22
-0.3166666667
 13
-1.0
 23
-0.3166666667
  0
ENDBLK
  5
223
100
AcDbEntity
  8
0
  6
BYBLOCK
 62
0
100
AcDbBlockEnd
  0
BLOCK
  5
224
100
AcDbEntity
  8
0
100
AcDbBlockBegin
 62
7
  6
CONTINUOUS
  2
*D0
 70
65
 10
0.0
 20
0.0
  3
*D0
  1

  0
MTEXT
  5
225
100
AcDbEntity
  8
0
100
AcDbMText
 62
7
  6
CONTINUOUS
  7
STANDARD
 71
2
 72
1
 10
-26.0046941332
 20
22.7353991786
 30
0.0
 11
1.0
 21
0.0
 31
0.0
 44
0.9
  1
5,7
 40
3.0
 41
6.2142857143
  0
LINE
  5
226
100
AcDbEntity
  8
0
100
AcDbLine
 62
7
  6
CONTINUOUS
 10
-23.1547732431
 20
11.2352257998
 11
-23.1547732431
 21
20.4853991786
  0
LINE
  5
227
100
AcDbEntity
  8
0
100
AcDbLine
 62
7
  6
CONTINUOUS
 10
-28.8546150233
 20
11.1873907254
 11
-28.8546150233
 21
20.4853991786
  0
LINE
  5
228
100
AcDbEntity
  8
0
100
AcDbLine
 62
7
  6
CONTINUOUS
 10
-23.1547732431
 20
18.9853991786
 11
-19.1547732431
 21
18.9853991786
  0
LINE
  5
229
100
AcDbEntity
  8
0
100
AcDbLine
 62
7
  6
CONTINUOUS
 10
-19.1547732431
 20
18.9853991786
 11
-26.0046941332
 21
18.9853991786
  0
LINE
  5
22A
100
AcDbEntity
  8
0
100
AcDbLine
 62
7
  6
CONTINUOUS
 10
-28.8546150233
 20
18.9853991786
 11
-32.8546150233
 21
18.9853991786
  0
LINE
  5
22B
100
AcDbEntity
  8
0
100
AcDbLine
 62
7
  6
CONTINUOUS
 10
-32.8546150233
 20
18.9853991786
 11
-26.0046941332
 21
18.9853991786
  0
INSERT
  5
22C
100
AcDbEntity
  8
0
100
AcDbBlockReference
 62
7
  6
CONTINUOUS
  2
_FILLED
 10
-23.1547732431
 20
18.9853991786
 41
3.0
 42
3.0
 43
3.0
 50
180.0
  0
INSERT
  5
22D
100
AcDbEntity
  8
0
100
AcDbBlockReference
 62
7
  6
CONTINUOUS
  2
_FILLED
 10
-28.8546150233
 20
18.9853991786
 41
3.0
 42
3.0
 43
3.0
  0
ENDBLK
  5
22E
100
AcDbEntity
  8
0
  6
BYBLOCK
 62
0
100
AcDbBlockEnd
  0
BLOCK
  5
22F
100
AcDbEntity
  8
0
100
AcDbBlockBegin
 62
7
  6
CONTINUOUS
  2
*D1
 70
65
 10
0.0
 20
0.0
  3
*D1
  1

  0
MTEXT
  5
230
100
AcDbEntity
  8
0
100
AcDbMText
 62
7
  6
CONTINUOUS
  7
STANDARD
 71
2
 72
1
 10
13.1124160903
 20
22.7353991786
 30
0.0
 11
1.0
 21
0.0
 31
0.0
 44
0.9
  1
44,7
 40
3.0
 41
8.7857142857
  0
LINE
  5
231
100
AcDbEntity
  8
0
100
AcDbLine
 62
7
  6
CONTINUOUS
 10
-9.2375839097
 20
11.2352257998
 11
-9.2375839097
 21
20.4853991786
  0
LINE
  5
232
100
AcDbEntity
  8
0
100
AcDbLine
 62
7
  6
CONTINUOUS
 10
35.4624160903
 20
11.2352257998
 11
35.4624160903
 21
20.4853991786
  0
LINE
  5
233
100
AcDbEntity
  8
0
100
AcDbLine
 62
7
  6
CONTINUOUS
 10
-9.2375839097
 20
18.9853991786
 11
13.1124160903
 21
18.9853991786
  0
LINE
  5
234
100
AcDbEntity
  8
0
100
AcDbLine
 62
7
  6
CONTINUOUS
 10
35.4624160903
 20
18.9853991786
 11
13.1124160903
 21
18.9853991786
  0
INSERT
  5
235
100
AcDbEntity
  8
0
100
AcDbBlockReference
 62
7
  6
CONTINUOUS
  2
_FILLED
 10
-9.2375839097
 20
18.9853991786
 41
3.0
 42
3.0
 43
3.0
 50
180.0
  0
INSERT
  5
236
100
AcDbEntity
  8
0
100
AcDbBlockReference
 62
7
  6
CONTINUOUS
  2
_FILLED
 10
35.4624160903
 20
18.9853991786
 41
3.0
 42
3.0
 43
3.0
 50
0.0
  0
ENDBLK
  5
237
100
AcDbEntity
  8
0
  6
BYBLOCK
 62
0
100
AcDbBlockEnd
  0
BLOCK
  5
238
100
AcDbEntity
  8
0
100
AcDbBlockBegin
 62
7
  6
CONTINUOUS
  2
*D2
 70
65
 10
0.0
 20
0.0
  3
*D2
  1

  0
MTEXT
  5
239
100
AcDbEntity
  8
0
100
AcDbMText
 62
7
  6
CONTINUOUS
  7
STANDARD
 71
2
 72
1
 10
39.7124160903
 20
-0.0689597917
 30
0.0
 11
0.0
 21
1.0
 31
0.0
 44
0.9
  1
22,1
 40
3.0
 41
8.1428571429
  0
LINE
  5
23A
100
AcDbEntity
  8
0
100
AcDbLine
 62
7
  6
CONTINUOUS
 10
35.7123398885
 20
10.9851591786
 11
44.9624160903
 21
10.9851591786
  0
LINE
  5
23B
100
AcDbEntity
  8
0
100
AcDbLine
 62
7
  6
CONTINUOUS
 10
35.4351978955
 20
-11.1230787619
 11
44.9624160903
 21
-11.1230787619
  0
LINE
  5
23C
100
AcDbEntity
  8
0
100
AcDbLine
 62
7
  6
CONTINUOUS
 10
43.4624160903
 20
10.9851591786
 11
43.4624160903
 21
-0.0689597917
  0
LINE
  5
23D
100
AcDbEntity
  8
0
100
AcDbLine
 62
7
  6
CONTINUOUS
 10
43.4624160903
 20
-11.1230787619
 11
43.4624160903
 21
-0.0689597917
  0
INSERT
  5
23E
100
AcDbEntity
  8
0
100
AcDbBlockReference
 62
7
  6
CONTINUOUS
  2
_FILLED
 10
43.4624160903
 20
10.9851591786
 41
3.0
 42
3.0
 43
3.0
 50
90.0
  0
INSERT
  5
23F
100
AcDbEntity
  8
0
100
AcDbBlockReference
 62
7
  6
CONTINUOUS
  2
_FILLED
 10
43.4624160903
 20
-11.1230787619
 41
3.0
 42
3.0
 43
3.0
 50
270.0
  0
ENDBLK
  5
240
100
AcDbEntity
  8
0
  6
BYBLOCK
 62
0
100
AcDbBlockEnd
  0
ENDSEC
  0
SECTION
  2
ENTITIES
  0
DIMENSION
  5
241
100
AcDbEntity
  8
0
100
AcDbDimension
 62
7
  6
CONTINUOUS
  2
*D0
 10
-28.8546150233
 20
18.9853991786
 11
-29.1118369903
 21
21.2353991786
 70
160
 71
2
 42
5.6998417802
  3
DIMSTYLE_1
100
AcDbAlignedDimension
 13
-23.1547732431
 23
11.2352257998
 14
-28.8546150233
 24
11.1873907254
 50
180.0
100
AcDbRotatedDimension
  0
DIMENSION
  5
242
100
AcDbEntity
  8
0
100
AcDbDimension
 62
7
  6
CONTINUOUS
  2
*D1
 10
35.4624160903
 20
18.9853991786
 11
8.7195589474
 21
21.2353991786
 70
160
 71
2
 42
44.7
  3
DIMSTYLE_1
100
AcDbAlignedDimension
 13
-9.2375839097
 23
11.2352257998
 14
35.4624160903
 24
11.2352257998
100
AcDbRotatedDimension
  0
DIMENSION
  5
243
100
AcDbEntity
  8
0
100
AcDbDimension
 62
7
  6
CONTINUOUS
  2
*D2
 10
43.4624160903
 20
-11.1230787619
 11
43.0367158131
 21
-3.7088033506
 70
160
 71
2
 42
22.1082379406
  3
DIMSTYLE_2
100
AcDbAlignedDimension
 13
35.7123398885
 23
10.9851591786
 14
35.4351978955
 24
-11.1230787619
 50
270.0
100
AcDbRotatedDimension
  0
LINE
  5
244
100
AcDbEntity
  8
0
100
AcDbLine
 62
7
  6
CONTINUOUS
 10
-9.2112766004
 20
-10.6255881291
 11
-9.2375839097
 21
-2.0148408214
  0
LINE
  5
245
100
AcDbEntity
  8
ASSI
100
AcDbLine
 62
7
  6
CONTINUOUS
 10
-9.2112766004
 20
-10.6255881291
 11
-9.2375839097
 21
-2.0148408214
  0
LINE
  5
246
100
AcDbEntity
  8
RACCORDO
100
AcDbLine
 62
7
  6
CONTINUOUS
 10
-9.2375839097
 20
10.7352257998
 11
-9.2375839097
 21
-2.0148408214
  0
LINE
  5
247
100
AcDbEntity
  8
ASSI
100
AcDbLine
 62
7
  6
CONTINUOUS
 10
-9.2375839097
 20
10.7352257998
 11
-9.2375839097
 21
-2.0148408214
  0
LINE
  5
248
100
AcDbEntity
  8
RACCORDO
100
AcDbLine
 62
253
  6
CONTINUOUS
 10
-8.5556966559
 20
10.6873907252
 11
-8.5556966559
 21
10.9375800904
  0
LINE
  5
249
100
AcDbEntity
  8
ASSI
100
AcDbLine
 62
253
  6
CONTINUOUS
 10
-8.5588398683
 20
1.5851591786
 11
-8.5556966559
 21
10.9375800904
  0
LINE
  5
24A
100
AcDbEntity
  8
0
100
AcDbLine
 62
253
  6
CONTINUOUS
 10
-9.2112766004
 20
-10.6255881291
 11
-9.1092495913
 21
-10.4724698259
  0
LINE
  5
24B
100
AcDbEntity
  8
ASSI
100
AcDbLine
 62
253
  6
CONTINUOUS
 10
-9.2112766004
 20
-10.6255881291
 11
-9.1092495913
 21
-10.4724698259
  0
LINE
  5
24C
100
AcDbEntity
  8
0
100
AcDbLine
 62
253
  6
CONTINUOUS
 10
-8.710365715
 20
-11.1230787619
 11
-8.6095541778
 21
-10.9717845933
  0
LINE
  5
24D
100
AcDbEntity
  8
ASSI
100
AcDbLine
 62
253
  6
CONTINUOUS
 10
-8.710365715
 20
-11.1230787619
 11
-8.6095541778
 21
-10.9717845933
  0
LINE
  5
24E
100
AcDbEntity
  8
RACCORDO
100
AcDbLine
 62
7
  6
CONTINUOUS
 10
27.7564623894
 20
-11.1230787619
 11
28.1046810634
 21
-11.0914699304
  0
LINE
  5
24F
100
AcDbEntity
  8
ASSI
100
AcDbLine
 62
7
  6
CONTINUOUS
 10
27.7564623894
 20
-11.1230787619
 11
28.1046810634
 21
-11.0914699304
  0
LINE
  5
250
100
AcDbEntity
  8
RACCORDO
100
AcDbLine
 62
7
  6
CONTINUOUS
 10
-1.5316302088
 20
-11.1230787619
 11
-1.8798488828
 21
-11.0914699304
  0
LINE
  5
251
100
AcDbEntity
  8
ASSI
100
AcDbLine
 62
7
  6
CONTINUOUS
 10
-1.5316302088
 20
-11.1230787619
 11
-1.8798488828
 21
-11.0914699304
  0
LINE
  5
252
100
AcDbEntity
  8
RACCORDO
100
AcDbLine
 62
7
  6
CONTINUOUS
 10
16.5564623894
 20
-11.1230787619
 11
16.9046810634
 21
-11.0914699304
  0
LINE
  5
253
100
AcDbEntity
  8
ASSI
100
AcDbLine
 62
7
  6
CONTINUOUS
 10
16.5564623894
 20
-11.1230787619
 11
16.9046810634
 21
-11.0914699304
  0
LINE
  5
254
100
AcDbEntity
  8
RACCORDO
100
AcDbLine
 62
7
  6
CONTINUOUS
 10
5.2564623894
 20
-11.1230787619
 11
5.6046810634
 21
-11.0914699304
  0
LINE
  5
255
100
AcDbEntity
  8
ASSI
100
AcDbLine
 62
7
  6
CONTINUOUS
 10
5.2564623894
 20
-11.1230787619
 11
5.6046810634
 21
-11.0914699304
  0
LINE
  5
256
100
AcDbEntity
  8
0
100
AcDbLine
 62
7
  6
CONTINUOUS
 10
34.9351978955
 20
-11.1230787619
 11
32.1683697912
 21
-11.1230787619
  0
LINE
  5
257
100
AcDbEntity
  8
ASSI
100
AcDbLine
 62
7
  6
CONTINUOUS
 10
34.9351978955
 20
-11.1230787619
 11
32.1683697912
 21
-11.1230787619
  0
LINE
  5
258
100
AcDbEntity
  8
DRAFT
100
AcDbLine
 62
7
  6
CONTINUOUS
 10
27.7564623894
 20
-11.1230787619
 11
20.9683697912
 21
-11.1230787619
  0
LINE
  5
259
100
AcDbEntity
  8
ASSI
100
AcDbLine
 62
7
  6
CONTINUOUS
 10
27.7564623894
 20
-11.1230787619
 11
20.9683697912
 21
-11.1230787619
  0
LINE
  5
25A
100
AcDbEntity
  8
DRAFT
100
AcDbLine
 62
7
  6
CONTINUOUS
 10
16.5564623894
 20
-11.1230787619
 11
9.6683697912
 21
-11.1230787619
  0
LINE
  5
25B
100
AcDbEntity
  8
ASSI
100
AcDbLine
 62
7
  6
CONTINUOUS
 10
16.5564623894
 20
-11.1230787619
 11
9.6683697912
 21
-11.1230787619
  0
LINE
  5
25C
100
AcDbEntity
  8
DRAFT
100
AcDbLine
 62
7
  6
CONTINUOUS
 10
5.2564623894
 20
-11.1230787619
 11
-1.5316302088
 21
-11.1230787619
  0
LINE
  5
25D
100
AcDbEntity
  8
ASSI
100
AcDbLine
 62
7
  6
CONTINUOUS
 10
5.2564623894
 20
-11.1230787619
 11
-1.5316302088
 21
-11.1230787619
  0
LINE
  5
25E
100
AcDbEntity
  8
0
100
AcDbLine
 62
7
  6
CONTINUOUS
 10
-5.9435376106
 20
-11.1230787619
 11
-8.710365715
 21
-11.1230787619
  0
LINE
  5
25F
100
AcDbEntity
  8
ASSI
100
AcDbLine
 62
7
  6
CONTINUOUS
 10
-5.9435376106
 20
-11.1230787619
 11
-8.710365715
 21
-11.1230787619
  0
LINE
  5
260
100
AcDbEntity
  8
RACCORDO
100
AcDbLine
 62
7
  6
CONTINUOUS
 10
31.6469460364
 20
-11.0862291525
 11
28.2778861441
 21
-11.0862291525
  0
LINE
  5
261
100
AcDbEntity
  8
ASSI
100
AcDbLine
 62
7
  6
CONTINUOUS
 10
31.6469460364
 20
-11.0862291525
 11
28.2778861441
 21
-11.0862291525
  0
LINE
  5
262
100
AcDbEntity
  8
RACCORDO
100
AcDbLine
 62
7
  6
CONTINUOUS
 10
20.4469460364
 20
-11.0862291525
 11
17.0778861441
 21
-11.0862291525
  0
LINE
  5
263
100
AcDbEntity
  8
ASSI
100
AcDbLine
 62
7
  6
CONTINUOUS
 10
20.4469460364
 20
-11.0862291525
 11
17.0778861441
 21
-11.0862291525
  0
LINE
  5
264
100
AcDbEntity
  8
RACCORDO
100
AcDbLine
 62
7
  6
CONTINUOUS
 10
9.1469460364
 20
-11.0862291525
 11
5.7778861441
 21
-11.0862291525
  0
LINE
  5
265
100
AcDbEntity
  8
ASSI
100
AcDbLine
 62
7
  6
CONTINUOUS
 10
9.1469460364
 20
-11.0862291525
 11
5.7778861441
 21
-11.0862291525
  0
LINE
  5
266
100
AcDbEntity
  8
RACCORDO
100
AcDbLine
 62
7
  6
CONTINUOUS
 10
-2.0530539636
 20
-11.0862291525
 11
-5.4221138559
 21
-11.0862291525
  0
LINE
  5
267
100
AcDbEntity
  8
ASSI
100
AcDbLine
 62
7
  6
CONTINUOUS
 10
-2.0530539636
 20
-11.0862291525
 11
-5.4221138559
 21
-11.0862291525
  0
LINE
  5
268
100
AcDbEntity
  8
0
100
AcDbLine
 62
253
  6
CONTINUOUS
 10
-8.6095541778
 20
-10.9717845933
 11
34.8343863584
 21
-10.9717845933
  0
LINE
  5
269
100
AcDbEntity
  8
ASSI
100
AcDbLine
 62
253
  6
CONTINUOUS
 10
-8.6095541778
 20
-10.9717845933
 11
34.8343863584
 21
-10.9717845933
  0
LINE
  5
26A
100
AcDbEntity
  8
0
100
AcDbLine
 62
253
  6
CONTINUOUS
 10
-8.5932027221
 20
-10.122237241
 11
34.8180349027
 21
-10.122237241
  0
LINE
  5
26B
100
AcDbEntity
  8
ASSI
100
AcDbLine
 62
253
  6
CONTINUOUS
 10
-8.5932027221
 20
-10.122237241
 11
34.8180349027
 21
-10.122237241
  0
LINE
  5
26C
100
AcDbEntity
  8
RACCORDO
100
AcDbLine
 62
7
  6
CONTINUOUS
 10
9.6683697912
 20
-11.1230787619
 11
9.3201511172
 21
-11.0914699304
  0
LINE
  5
26D
100
AcDbEntity
  8
ASSI
100
AcDbLine
 62
7
  6
CONTINUOUS
 10
9.6683697912
 20
-11.1230787619
 11
9.3201511172
 21
-11.0914699304
  0
LINE
  5
26E
100
AcDbEntity
  8
RACCORDO
100
AcDbLine
 62
7
  6
CONTINUOUS
 10
20.9683697912
 20
-11.1230787619
 11
20.6201511172
 21
-11.0914699304
  0
LINE
  5
26F
100
AcDbEntity
  8
ASSI
100
AcDbLine
 62
7
  6
CONTINUOUS
 10
20.9683697912
 20
-11.1230787619
 11
20.6201511172
 21
-11.0914699304
  0
LINE
  5
270
100
AcDbEntity
  8
RACCORDO
100
AcDbLine
 62
7
  6
CONTINUOUS
 10
-5.9435376106
 20
-11.1230787619
 11
-5.5953189366
 21
-11.0914699304
  0
LINE
  5
271
100
AcDbEntity
  8
ASSI
100
AcDbLine
 62
7
  6
CONTINUOUS
 10
-5.9435376106
 20
-11.1230787619
 11
-5.5953189366
 21
-11.0914699304
  0
LINE
  5
272
100
AcDbEntity
  8
RACCORDO
100
AcDbLine
 62
7
  6
CONTINUOUS
 10
32.1683697912
 20
-11.1230787619
 11
31.8201511172
 21
-11.0914699304
  0
LINE
  5
273
100
AcDbEntity
  8
ASSI
100
AcDbLine
 62
7
  6
CONTINUOUS
 10
32.1683697912
 20
-11.1230787619
 11
31.8201511172
 21
-11.0914699304
  0
LINE
  5
274
100
AcDbEntity
  8
CURVE
100
AcDbLine
 62
253
  6
CONTINUOUS
 10
13.6908486388
 20
-3.9803172771
 11
13.7747367692
 21
-3.9686039447
  0
LINE
  5
275
100
AcDbEntity
  8
CURVE
100
AcDbLine
 62
253
  6
CONTINUOUS
 10
13.7176342739
 20
-3.5727622123
 11
13.6374496236
 21
-3.5837865251
  0
LINE
  5
276
100
AcDbEntity
  8
CURVE
100
AcDbLine
 62
253
  6
CONTINUOUS
 10
12.6320839703
 20
-3.5837865251
 11
12.5517270651
 21
-3.5727622123
  0
LINE
  5
277
100
AcDbEntity
  8
CURVE
100
AcDbLine
 62
253
  6
CONTINUOUS
 10
12.4947106972
 20
-3.9686039447
 11
12.5787710825
 21
-3.9803172771
  0
LINE
  5
278
100
AcDbEntity
  8
CURVE
100
AcDbLine
 62
253
  6
CONTINUOUS
 10
11.1909134507
 20
-1.2600680874
 11
11.1891909019
 21
-1.4099298399
  0
LINE
  5
279
100
AcDbEntity
  8
CURVE
100
AcDbLine
 62
253
  6
CONTINUOUS
 10
11.589252879
 20
-1.4099298399
 11
11.5908893004
 21
-1.2688530867
  0
LINE
  5
27A
100
AcDbEntity
  8
CURVE
100
AcDbLine
 62
253
  6
CONTINUOUS
 10
14.6797639502
 20
-1.4099298399
 11
14.6781275288
 21
-1.5511788479
  0
LINE
  5
27B
100
AcDbEntity
  8
CURVE
100
AcDbLine
 62
253
  6
CONTINUOUS
 10
12.5512964279
 20
0.7527302777
 11
12.6314810782
 21
0.7639268454
  0
LINE
  5
27C
100
AcDbEntity
  8
CURVE
100
AcDbLine
 62
253
  6
CONTINUOUS
 10
12.578082063
 20
1.1602853425
 11
12.4941939326
 21
1.148744265
  0
LINE
  5
27D
100
AcDbEntity
  8
0
100
AcDbLine
 62
253
  6
CONTINUOUS
 10
34.7836720488
 20
1.5851591786
 11
-8.5588398683
 21
1.5851591786
  0
LINE
  5
27E
100
AcDbEntity
  8
ASSI
100
AcDbLine
 62
253
  6
CONTINUOUS
 10
34.7836720488
 20
1.5851591786
 11
-8.5588398683
 21
1.5851591786
  0
LINE
  5
27F
100
AcDbEntity
  8
CURVE
100
AcDbLine
 62
253
  6
CONTINUOUS
 10
13.7742200045
 20
1.148744265
 11
13.6901596193
 21
1.1602853425
  0
LINE
  5
280
100
AcDbEntity
  8
CURVE
100
AcDbLine
 62
253
  6
CONTINUOUS
 10
13.6368467314
 20
0.7639268454
 11
13.7172897641
 21
0.7527302777
  0
LINE
  5
281
100
AcDbEntity
  8
CURVE
100
AcDbLine
 62
253
  6
CONTINUOUS
 10
15.078017251
 20
-1.5597915923
 11
15.0798259274
 21
-1.4099298399
  0
LINE
  5
282
100
AcDbEntity
  8
RACCORDO
100
AcDbLine
 62
253
  6
CONTINUOUS
 10
35.4624160903
 20
10.7352257998
 11
35.2802242939
 21
10.6896951961
  0
LINE
  5
283
100
AcDbEntity
  8
ASSI
100
AcDbLine
 62
253
  6
CONTINUOUS
 10
35.4624160903
 20
10.7352257998
 11
35.2802242939
 21
10.6896951961
  0
LINE
  5
284
100
AcDbEntity
  8
RACCORDO
100
AcDbLine
 62
253
  6
CONTINUOUS
 10
-9.0553921133
 20
10.6896951961
 11
-9.2375839097
 21
10.7352257998
  0
LINE
  5
285
100
AcDbEntity
  8
ASSI
100
AcDbLine
 62
253
  6
CONTINUOUS
 10
-9.0553921133
 20
10.6896951961
 11
-9.2375839097
 21
10.7352257998
  0
LINE
  5
286
100
AcDbEntity
  8
RACCORDO
100
AcDbLine
 62
253
  6
CONTINUOUS
 10
35.2123398885
 20
10.9851591786
 11
35.0303764903
 21
10.9396856526
  0
LINE
  5
287
100
AcDbEntity
  8
ASSI
100
AcDbLine
 62
253
  6
CONTINUOUS
 10
35.2123398885
 20
10.9851591786
 11
35.0303764903
 21
10.9396856526
  0
LINE
  5
288
100
AcDbEntity
  8
RACCORDO
100
AcDbLine
 62
7
  6
CONTINUOUS
 10
17.2643146338
 20
5.4851591786
 11
8.9605175467
 21
5.4851591786
  0
LINE
  5
289
100
AcDbEntity
  8
ASSI
100
AcDbLine
 62
7
  6
CONTINUOUS
 10
17.2643146338
 20
5.4851591786
 11
8.9605175467
 21
5.4851591786
  0
LINE
  5
28A
100
AcDbEntity
  8
SUPERFICI
100
AcDbLine
 62
7
  6
CONTINUOUS
 10
8.9605175467
 20
5.4851591786
 11
17.2643146338
 21
5.4851591786
  0
LINE
  5
28B
100
AcDbEntity
  8
RACCORDO
100
AcDbLine
 62
253
  6
CONTINUOUS
 10
-8.8055443098
 20
10.9396856526
 11
-8.987507708
 21
10.9851591786
  0
LINE
  5
28C
100
AcDbEntity
  8
ASSI
100
AcDbLine
 62
253
  6
CONTINUOUS
 10
-8.8055443098
 20
10.9396856526
 11
-8.987507708
 21
10.9851591786
  0
LINE
  5
28D
100
AcDbEntity
  8
RACCORDO
100
AcDbLine
 62
7
  6
CONTINUOUS
 10
17.263687161
 20
7.6851591786
 11
8.9611450196
 21
7.6851591786
  0
LINE
  5
28E
100
AcDbEntity
  8
ASSI
100
AcDbLine
 62
7
  6
CONTINUOUS
 10
17.263687161
 20
7.6851591786
 11
8.9611450196
 21
7.6851591786
  0
LINE
  5
28F
100
AcDbEntity
  8
SUPERFICI
100
AcDbLine
 62
7
  6
CONTINUOUS
 10
8.9611450196
 20
7.6851591786
 11
17.263687161
 21
7.6851591786
  0
LINE
  5
290
100
AcDbEntity
  8
DRAFT
100
AcDbLine
 62
7
  6
CONTINUOUS
 10
32.8748820809
 20
10.9851591786
 11
32.6124160903
 21
10.9589785752
  0
LINE
  5
291
100
AcDbEntity
  8
ASSI
100
AcDbLine
 62
7
  6
CONTINUOUS
 10
32.8748820809
 20
10.9851591786
 11
32.6124160903
 21
10.9589785752
  0
LINE
  5
292
100
AcDbEntity
  8
DRAFT
100
AcDbLine
 62
7
  6
CONTINUOUS
 10
-6.6500499003
 20
10.9851591786
 11
-6.3875839097
 21
10.9589785752
  0
LINE
  5
293
100
AcDbEntity
  8
ASSI
100
AcDbLine
 62
7
  6
CONTINUOUS
 10
-6.6500499003
 20
10.9851591786
 11
-6.3875839097
 21
10.9589785752
  0
LINE
  5
294
100
AcDbEntity
  8
RACCORDO
100
AcDbLine
 62
253
  6
CONTINUOUS
 10
34.7805261532
 20
10.6873907252
 11
-8.5556939727
 21
10.6873907252
  0
LINE
  5
295
100
AcDbEntity
  8
ASSI
100
AcDbLine
 62
253
  6
CONTINUOUS
 10
34.7805261532
 20
10.6873907252
 11
-8.5556939727
 21
10.6873907252
  0
LINE
  5
296
100
AcDbEntity
  8
RACCORDO
100
AcDbLine
 62
253
  6
CONTINUOUS
 10
34.7805288364
 20
10.9375800904
 11
-8.5556966559
 21
10.9375800904
  0
LINE
  5
297
100
AcDbEntity
  8
ASSI
100
AcDbLine
 62
7
  6
CONTINUOUS
 10
34.7805288364
 20
10.9375800904
 11
-8.5556966559
 21
10.9375800904
  0
LINE
  5
298
100
AcDbEntity
  8
DRAFT
100
AcDbLine
 62
7
  6
CONTINUOUS
 10
32.6124160903
 20
10.9589785752
 11
-6.3875839097
 21
10.9589785752
  0
LINE
  5
299
100
AcDbEntity
  8
ASSI
100
AcDbLine
 62
7
  6
CONTINUOUS
 10
32.6124160903
 20
10.9589785752
 11
-6.3875839097
 21
10.9589785752
  0
LINE
  5
29A
100
AcDbEntity
  8
RACCORDO
100
AcDbLine
 62
7
  6
CONTINUOUS
 10
35.2123398885
 20
10.9851591786
 11
32.8748820809
 21
10.9851591786
  0
LINE
  5
29B
100
AcDbEntity
  8
ASSI
100
AcDbLine
 62
7
  6
CONTINUOUS
 10
35.2123398885
 20
10.9851591786
 11
32.8748820809
 21
10.9851591786
  0
LINE
  5
29C
100
AcDbEntity
  8
RACCORDO
100
AcDbLine
 62
7
  6
CONTINUOUS
 10
-6.6500499003
 20
10.9851591786
 11
-8.987507708
 21
10.9851591786
  0
LINE
  5
29D
100
AcDbEntity
  8
ASSI
100
AcDbLine
 62
7
  6
CONTINUOUS
 10
-6.6500499003
 20
10.9851591786
 11
-8.987507708
 21
10.9851591786
  0
LINE
  5
29E
100
AcDbEntity
  8
0
100
AcDbLine
 62
253
  6
CONTINUOUS
 10
34.8343863584
 20
-10.9717845933
 11
34.9351978955
 21
-11.1230787619
  0
LINE
  5
29F
100
AcDbEntity
  8
ASSI
100
AcDbLine
 62
253
  6
CONTINUOUS
 10
34.8343863584
 20
-10.9717845933
 11
34.9351978955
 21
-11.1230787619
  0
LINE
  5
2A0
100
AcDbEntity
  8
0
100
AcDbLine
 62
253
  6
CONTINUOUS
 10
35.3340817719
 20
-10.4724698259
 11
35.4361087809
 21
-10.6255881291
  0
LINE
  5
2A1
100
AcDbEntity
  8
ASSI
100
AcDbLine
 62
253
  6
CONTINUOUS
 10
35.3340817719
 20
-10.4724698259
 11
35.4361087809
 21
-10.6255881291
  0
LINE
  5
2A2
100
AcDbEntity
  8
RACCORDO
100
AcDbLine
 62
253
  6
CONTINUOUS
 10
34.7805288364
 20
10.6873907252
 11
34.7805288364
 21
10.9375800904
  0
LINE
  5
2A3
100
AcDbEntity
  8
ASSI
100
AcDbLine
 62
253
  6
CONTINUOUS
 10
34.7836720488
 20
1.5851591786
 11
34.7805288364
 21
10.9375800904
  0
LINE
  5
2A4
100
AcDbEntity
  8
RACCORDO
100
AcDbLine
 62
7
  6
CONTINUOUS
 10
35.4624160903
 20
10.7352257998
 11
35.4624160903
 21
-2.0148408214
  0
LINE
  5
2A5
100
AcDbEntity
  8
ASSI
100
AcDbLine
 62
7
  6
CONTINUOUS
 10
35.4624160903
 20
10.7352257998
 11
35.4624160903
 21
-2.0148408214
  0
LINE
  5
2A6
100
AcDbEntity
  8
0
100
AcDbLine
 62
7
  6
CONTINUOUS
 10
35.4361087809
 20
-10.6255881291
 11
35.4624160903
 21
-2.0148408214
  0
LINE
  5
2A7
100
AcDbEntity
  8
ASSI
100
AcDbLine
 62
7
  6
CONTINUOUS
 10
35.4361087809
 20
-10.6255881291
 11
35.4624160903
 21
-2.0148408214
  0
LINE
  5
2A8
100
AcDbEntity
  8
0
100
AcDbLine
 62
7
  6
CONTINUOUS
 10
-26.8385055195
 20
-10.9717845933
 11
-23.9516408076
 21
-11.1230787619
  0
LINE
  5
2A9
100
AcDbEntity
  8
ASSI
100
AcDbLine
 62
7
  6
CONTINUOUS
 10
-26.8385055195
 20
-10.9717845933
 11
-23.9516408076
 21
-11.1230787619
  0
LINE
  5
2AA
100
AcDbEntity
  8
0
100
AcDbLine
 62
253
  6
CONTINUOUS
 10
-26.8297872897
 20
-10.4724698259
 11
-23.908116017
 21
-10.6255881291
  0
LINE
  5
2AB
100
AcDbEntity
  8
ASSI
100
AcDbLine
 62
253
  6
CONTINUOUS
 10
-26.8297872897
 20
-10.4724698259
 11
-23.908116017
 21
-10.6255881291
  0
LINE
  5
2AC
100
AcDbEntity
  8
RACCORDO
100
AcDbLine
 62
253
  6
CONTINUOUS
 10
-23.5776489634
 20
-6.8483324226
 11
-23.5547732431
 21
-6.8483324226
  0
LINE
  5
2AD
100
AcDbEntity
  8
ASSI
100
AcDbLine
 62
253
  6
CONTINUOUS
 10
-23.5776489634
 20
-6.8483324226
 11
-23.5547732431
 21
-6.8483324226
  0
LINE
  5
2AE
100
AcDbEntity
  8
CURVE
100
AcDbLine
 62
253
  6
CONTINUOUS
 10
-28.486209794
 20
-3.9803172771
 11
-28.4832770091
 21
-4.0163890497
  0
LINE
  5
2AF
100
AcDbEntity
  8
CURVE
100
AcDbLine
 62
253
  6
CONTINUOUS
 10
-28.5174881914
 20
-3.5837865251
 11
-28.5149627084
 21
-3.6166537641
  0
LINE
  5
2B0
100
AcDbEntity
  8
CURVE
100
AcDbLine
 62
253
  6
CONTINUOUS
 10
-28.5278286862
 20
-3.4475364008
 11
-28.5183326007
 21
-3.5727622123
  0
LINE
  5
2B1
100
AcDbEntity
  8
CURVE
100
AcDbLine
 62
253
  6
CONTINUOUS
 10
-28.6049514006
 20
-2.3275530155
 11
-28.604587841
 21
-2.3333582931
  0
LINE
  5
2B2
100
AcDbEntity
  8
CURVE
100
AcDbLine
 62
253
  6
CONTINUOUS
 10
-28.6378473884
 20
-1.7747675635
 11
-28.6382087207
 21
-1.768359344
  0
LINE
  5
2B3
100
AcDbEntity
  8
CURVE
100
AcDbLine
 62
253
  6
CONTINUOUS
 10
-28.6679681871
 20
-1.2092929421
 11
-28.6676458497
 21
-1.2157205605
  0
LINE
  5
2B4
100
AcDbEntity
  8
CURVE
100
AcDbLine
 62
253
  6
CONTINUOUS
 10
-28.7170394115
 20
-0.0909812749
 11
-28.7168257291
 21
-0.0966510019
  0
LINE
  5
2B5
100
AcDbEntity
  8
CURVE
100
AcDbLine
 62
253
  6
CONTINUOUS
 10
-28.7448435917
 20
0.7527302777
 11
-28.7362774879
 21
0.4658224177
  0
LINE
  5
2B6
100
AcDbEntity
  8
CURVE
100
AcDbLine
 62
253
  6
CONTINUOUS
 10
-28.7451593149
 20
0.7639268454
 11
-28.7460763665
 21
0.7967305605
  0
LINE
  5
2B7
100
AcDbEntity
  8
CURVE
100
AcDbLine
 62
253
  6
CONTINUOUS
 10
-28.7551629392
 20
1.148744265
 11
-28.7521414257
 21
1.0256204536
  0
LINE
  5
2B8
100
AcDbEntity
  8
RACCORDO
100
AcDbLine
 62
7
  6
CONTINUOUS
 10
-23.5547732431
 20
-6.8483324226
 11
-23.5547732431
 21
-6.5868617425
  0
LINE
  5
2B9
100
AcDbEntity
  8
ASSI
100
AcDbLine
 62
7
  6
CONTINUOUS
 10
-23.5547732431
 20
-6.8483324226
 11
-23.5547732431
 21
-6.5868617425
  0
LINE
  5
2BA
100
AcDbEntity
  8
RACCORDO
100
AcDbLine
 62
7
  6
CONTINUOUS
 10
-23.1547732431
 20
10.9851591786
 11
-23.1547732431
 21
-2.0148408214
  0
LINE
  5
2BB
100
AcDbEntity
  8
ASSI
100
AcDbLine
 62
7
  6
CONTINUOUS
 10
-23.1547732431
 20
10.9851591786
 11
-23.1547732431
 21
-2.0148408214
  0
LINE
  5
2BC
100
AcDbEntity
  8
0
100
AcDbLine
 62
253
  6
CONTINUOUS
 10
-28.282055103
 20
1.5946591786
 11
-28.7645150961
 21
1.5851591786
  0
LINE
  5
2BD
100
AcDbEntity
  8
ASSI
100
AcDbLine
 62
253
  6
CONTINUOUS
 10
-28.282055103
 20
1.5946591786
 11
-28.7645150961
 21
1.5851591786
  0
LINE
  5
2BE
100
AcDbEntity
  8
0
100
AcDbLine
 62
7
  6
CONTINUOUS
 10
-23.9516408076
 20
-11.1230787619
 11
-23.1547732431
 21
-2.0148408214
  0
LINE
  5
2BF
100
AcDbEntity
  8
ASSI
100
AcDbLine
 62
7
  6
CONTINUOUS
 10
-23.9516408076
 20
-11.1230787619
 11
-23.1547732431
 21
-2.0148408214
  0
LINE
  5
2C0
100
AcDbEntity
  8
RACCORDO
100
AcDbLine
 62
253
  6
CONTINUOUS
 10
-23.1547732431
 20
10.7352257998
 11
-28.3720636707
 21
10.6896951961
  0
LINE
  5
2C1
100
AcDbEntity
  8
ASSI
100
AcDbLine
 62
253
  6
CONTINUOUS
 10
-23.1547732431
 20
10.7352257998
 11
-28.3720636707
 21
10.6896951961
  0
LINE
  5
2C2
100
AcDbEntity
  8
RACCORDO
100
AcDbLine
 62
7
  6
CONTINUOUS
 10
-23.1547732431
 20
10.9851591786
 11
-28.606796736
 21
10.9375800904
  0
LINE
  5
2C3
100
AcDbEntity
  8
ASSI
100
AcDbLine
 62
7
  6
CONTINUOUS
 10
-23.1547732431
 20
10.9851591786
 11
-28.606796736
 21
10.9375800904
  0
ARC
  5
2C4
100
AcDbEntity
  8
0
100
AcDbCircle
 62
253
  6
CONTINUOUS
 10
-2571.9411086901
 20
3.2513391295
 40
2563.3828049403
100
AcDbArc
 50
359.7010774351
 51
359.9627581626
  0
ARC
  5
2C5
100
AcDbEntity
  8
ASSI
100
AcDbCircle
 62
253
  6
CONTINUOUS
 10
-2571.9411086901
 20
3.2513391295
 40
2563.3828049403
100
AcDbArc
 50
359.7010774351
 51
359.9627581626
  0
ARC
  5
2C6
100
AcDbEntity
  8
0
100
AcDbCircle
 62
253
  6
CONTINUOUS
 10
2594.1262470935
 20
3.2394865764
 40
2559.343098298
100
AcDbArc
 50
180.0370352783
 51
180.2991290469
  0
ARC
  5
2C7
100
AcDbEntity
  8
ASSI
100
AcDbCircle
 62
253
  6
CONTINUOUS
 10
2594.1262470935
 20
3.2394865764
 40
2559.343098298
100
AcDbArc
 50
180.0370352783
 51
180.2991290469
  0
ARC
  5
2C8
100
AcDbEntity
  8
0
100
AcDbCircle
 62
253
  6
CONTINUOUS
 10
-2544.038268697
 20
3.251583289
 40
2534.9802695343
100
AcDbArc
 50
359.6994074901
 51
359.9625500971
  0
ARC
  5
2C9
100
AcDbEntity
  8
ASSI
100
AcDbCircle
 62
253
  6
CONTINUOUS
 10
-2544.038268697
 20
3.251583289
 40
2534.9802695343
100
AcDbArc
 50
359.6994074901
 51
359.9625500971
  0
ARC
  5
2CA
100
AcDbEntity
  8
0
100
AcDbCircle
 62
253
  6
CONTINUOUS
 10
2566.2682212607
 20
3.2397964272
 40
2530.9853770519
100
AcDbArc
 50
180.0372421856
 51
180.3008001354
  0
ARC
  5
2CB
100
AcDbEntity
  8
ASSI
100
AcDbCircle
 62
253
  6
CONTINUOUS
 10
2566.2682212607
 20
3.2397964272
 40
2530.9853770519
100
AcDbArc
 50
180.0372421856
 51
180.3008001354
  0
ARC
  5
2CC
100
AcDbEntity
  8
CURVE
100
AcDbCircle
 62
253
  6
CONTINUOUS
 10
18.8890843206
 20
-1.42790301
 40
7.7000010819
100
AcDbArc
 50
169.1841145114
 51
178.7510397325
  0
ARC
  5
2CD
100
AcDbEntity
  8
CURVE
100
AcDbCircle
 62
253
  6
CONTINUOUS
 10
7.3962113906
 20
-1.393883195
 40
7.6835982773
100
AcDbArc
 50
349.1740637502
 51
358.7627423135
  0
ARC
  5
2CE
100
AcDbEntity
  8
CURVE
100
AcDbCircle
 62
253
  6
CONTINUOUS
 10
7.4199907907
 20
-1.4244284541
 40
7.6598363021
100
AcDbArc
 50
0.1084499073
 51
10.9425997161
  0
ARC
  5
2CF
100
AcDbEntity
  8
CURVE
100
AcDbCircle
 62
253
  6
CONTINUOUS
 10
18.8428281224
 20
-1.3966486248
 40
7.6536375911
100
AcDbArc
 50
180.0994242061
 51
190.9436030902
  0
ARC
  5
2D0
100
AcDbEntity
  8
CURVE
100
AcDbCircle
 62
253
  6
CONTINUOUS
 10
7.3954853729
 20
-1.3933459121
 40
7.2843480997
100
AcDbArc
 50
349.1720577954
 51
358.758452571
  0
ARC
  5
2D1
100
AcDbEntity
  8
CURVE
100
AcDbCircle
 62
253
  6
CONTINUOUS
 10
18.8713826187
 20
-1.4259268242
 40
7.282178223
100
AcDbArc
 50
169.1748759347
 51
178.7640581632
  0
ARC
  5
2D2
100
AcDbEntity
  8
CURVE
100
AcDbCircle
 62
253
  6
CONTINUOUS
 10
18.8532284393
 20
-1.3958524173
 40
7.2639914344
100
AcDbArc
 50
180.1110378036
 51
190.9340067917
  0
ARC
  5
2D3
100
AcDbEntity
  8
CURVE
100
AcDbCircle
 62
253
  6
CONTINUOUS
 10
7.4202078417
 20
-1.4240317147
 40
7.2595719227
100
AcDbArc
 50
0.1112983887
 51
10.9409412502
  0
ARC
  5
2D4
100
AcDbEntity
  8
CURVE
100
AcDbCircle
 62
253
  6
CONTINUOUS
 10
13.1348425917
 20
0.2820644208
 40
4.2984899916
100
AcDbArc
 50
262.5671555875
 51
277.4319791831
  0
ARC
  5
2D5
100
AcDbEntity
  8
CURVE
100
AcDbCircle
 62
253
  6
CONTINUOUS
 10
13.1341356313
 20
-3.0977828087
 40
4.2942229458
100
AcDbArc
 50
82.5603389365
 51
97.4400524169
  0
ARC
  5
2D6
100
AcDbEntity
  8
CURVE
100
AcDbCircle
 62
253
  6
CONTINUOUS
 10
13.1348236768
 20
0.2461884313
 40
3.8628351512
100
AcDbArc
 50
262.5218535811
 51
277.4764734122
  0
ARC
  5
2D7
100
AcDbEntity
  8
CURVE
100
AcDbCircle
 62
253
  6
CONTINUOUS
 10
12.6927395289
 20
-0.1991817255
 40
0.9623630358
100
AcDbArc
 50
98.4516514306
 51
106.1940622421
  0
ARC
  5
2D8
100
AcDbEntity
  8
0
100
AcDbCircle
 62
253
  6
CONTINUOUS
 10
-8.6086601565
 20
-10.4711411011
 40
0.5006295736
100
AcDbArc
 50
180.1520810084
 51
269.8976844934
  0
ARC
  5
2D9
100
AcDbEntity
  8
ASSI
100
AcDbCircle
 62
253
  6
CONTINUOUS
 10
-8.6086601565
 20
-10.4711411011
 40
0.5006295736
100
AcDbArc
 50
180.1520810084
 51
269.8976844934
  0
ARC
  5
2DA
100
AcDbEntity
  8
0
100
AcDbCircle
 62
253
  6
CONTINUOUS
 10
34.8334923359
 20
-10.4711411002
 40
0.5006295558
100
AcDbArc
 50
270.1023156417
 51
359.8479188874
  0
ARC
  5
2DB
100
AcDbEntity
  8
ASSI
100
AcDbCircle
 62
253
  6
CONTINUOUS
 10
34.8334923359
 20
-10.4711411002
 40
0.5006295558
100
AcDbArc
 50
270.1023156417
 51
359.8479188874
  0
ARC
  5
2DC
100
AcDbEntity
  8
SUPERFICI
100
AcDbCircle
 62
7
  6
CONTINUOUS
 10
8.9644653963
 20
5.8836542578
 40
0.402049306
100
AcDbArc
 50
180.0004689369
 51
183.7309092605
  0
ARC
  5
2DD
100
AcDbEntity
  8
SUPERFICI
100
AcDbCircle
 62
7
  6
CONTINUOUS
 10
17.260366801
 20
5.8836542612
 40
0.4020492893
100
AcDbArc
 50
356.2680323005
 51
359.9995305818
  0
ARC
  5
2DE
100
AcDbEntity
  8
SUPERFICI
100
AcDbCircle
 62
7
  6
CONTINUOUS
 10
8.9611489377
 20
7.2835642261
 40
0.4015949525
100
AcDbArc
 50
90.000558983
 51
93.7325289332
  0
ARC
  5
2DF
100
AcDbEntity
  8
SUPERFICI
100
AcDbCircle
 62
7
  6
CONTINUOUS
 10
17.263683239
 20
7.2835642267
 40
0.4015949519
100
AcDbArc
 50
86.2663923291
 51
89.9994404664
  0
ARC
  5
2E0
100
AcDbEntity
  8
SUPERFICI
100
AcDbCircle
 62
7
  6
CONTINUOUS
 10
17.2643113104
 20
5.886054963
 40
0.4008957844
100
AcDbArc
 50
270.0004749669
 51
273.7335044273
  0
ARC
  5
2E1
100
AcDbEntity
  8
SUPERFICI
100
AcDbCircle
 62
7
  6
CONTINUOUS
 10
8.9605208738
 20
5.8860549469
 40
0.4008957683
100
AcDbArc
 50
266.2654016501
 51
269.9995245205
  0
ARC
  5
2E2
100
AcDbEntity
  8
SUPERFICI
100
AcDbCircle
 62
7
  6
CONTINUOUS
 10
8.9632749954
 20
7.2866633824
 40
0.4008589051
100
AcDbArc
 50
176.2644402398
 51
179.999423772
  0
ARC
  5
2E3
100
AcDbEntity
  8
SUPERFICI
100
AcDbCircle
 62
7
  6
CONTINUOUS
 10
17.2615571876
 20
7.2866633864
 40
0.4008589027
100
AcDbArc
 50
0.0005756542
 51
3.7344650532
  0
ARC
  5
2E4
100
AcDbEntity
  8
RACCORDO
100
AcDbCircle
 62
253
  6
CONTINUOUS
 10
35.0302029509
 20
10.6896839317
 40
0.2500124135
100
AcDbArc
 50
0.0025758286
 51
89.9602279776
  0
ARC
  5
2E5
100
AcDbEntity
  8
ASSI
100
AcDbCircle
 62
253
  6
CONTINUOUS
 10
35.0302029509
 20
10.6896839317
 40
0.2500124135
100
AcDbArc
 50
0.0025758286
 51
89.9602279776
  0
ARC
  5
2E6
100
AcDbEntity
  8
RACCORDO
100
AcDbCircle
 62
253
  6
CONTINUOUS
 10
-8.8053718715
 20
10.6896850322
 40
0.2500110379
100
AcDbArc
 50
90.0395198313
 51
179.9976763473
  0
ARC
  5
2E7
100
AcDbEntity
  8
ASSI
100
AcDbCircle
 62
253
  6
CONTINUOUS
 10
-8.8053718715
 20
10.6896850322
 40
0.2500110379
100
AcDbArc
 50
90.0395198313
 51
179.9976763473
  0
ARC
  5
2E8
100
AcDbEntity
  8
0
100
AcDbCircle
 62
7
  6
CONTINUOUS
 10
-26.7861695632
 20
-9.9731550586
 40
1.0
100
AcDbArc
 50
188.5737414447
 51
267.0
  0
ARC
  5
2E9
100
AcDbEntity
  8
ASSI
100
AcDbCircle
 62
7
  6
CONTINUOUS
 10
-26.7861695632
 20
-9.9731550586
 40
1.0
100
AcDbArc
 50
188.5737414447
 51
267.0
  0
ARC
  5
2EA
100
AcDbEntity
  8
0
100
AcDbCircle
 62
253
  6
CONTINUOUS
 10
-26.8036193103
 20
-9.9731550571
 40
0.5000000015
100
AcDbArc
 50
188.5737415857
 51
266.9999998591
  0
ARC
  5
2EB
100
AcDbEntity
  8
ASSI
100
AcDbCircle
 62
253
  6
CONTINUOUS
 10
-26.8036193103
 20
-9.9731550571
 40
0.5000000015
100
AcDbArc
 50
188.5737415857
 51
266.9999998591
  0
ARC
  5
2EC
100
AcDbEntity
  8
RACCORDO
100
AcDbCircle
 62
7
  6
CONTINUOUS
 10
-23.8547732431
 20
-6.8483324226
 40
0.3
100
AcDbArc
 50
334.9996147864
 51
360.0
  0
ARC
  5
2ED
100
AcDbEntity
  8
ASSI
100
AcDbCircle
 62
7
  6
CONTINUOUS
 10
-23.8547732431
 20
-6.8483324226
 40
0.3
100
AcDbArc
 50
335.0
 51
360.0
  0
ARC
  5
2EE
100
AcDbEntity
  8
CURVE
100
AcDbCircle
 62
253
  6
CONTINUOUS
 10
61.2843664936
 20
3.2990639176
 40
90.0652447983
100
AcDbArc
 50
183.2261630089
 51
183.5829581915
  0
ARC
  5
2EF
100
AcDbEntity
  8
CURVE
100
AcDbCircle
 62
253
  6
CONTINUOUS
 10
61.2724518074
 20
3.2983921031
 40
90.0533112433
100
AcDbArc
 50
183.2291958216
 51
183.5818001187
  0
ARC
  5
2F0
100
AcDbEntity
  8
CURVE
100
AcDbCircle
 62
253
  6
CONTINUOUS
 10
61.26748068
 20
3.2977328252
 40
90.0483108202
100
AcDbArc
 50
182.8726921022
 51
182.9967493923
  0
ARC
  5
2F1
100
AcDbEntity
  8
CURVE
100
AcDbCircle
 62
253
  6
CONTINUOUS
 10
61.2582751928
 20
3.2972559269
 40
90.0390929896
100
AcDbArc
 50
182.8694202087
 51
182.9967525805
  0
ARC
  5
2F2
100
AcDbEntity
  8
CURVE
100
AcDbCircle
 62
253
  6
CONTINUOUS
 10
61.2448025674
 20
3.2970160919
 40
90.0256314399
100
AcDbArc
 50
183.94017534
 51
184.2965207158
  0
ARC
  5
2F3
100
AcDbEntity
  8
CURVE
100
AcDbCircle
 62
253
  6
CONTINUOUS
 10
61.239170746
 20
3.2961883336
 40
90.0199588035
100
AcDbArc
 50
183.0922283324
 51
183.225179265
  0
ARC
  5
2F4
100
AcDbEntity
  8
CURVE
100
AcDbCircle
 62
253
  6
CONTINUOUS
 10
61.2379400493
 20
3.2963090982
 40
90.0187368456
100
AcDbArc
 50
183.2257643571
 51
183.5818863021
  0
ARC
  5
2F5
100
AcDbEntity
  8
CURVE
100
AcDbCircle
 62
253
  6
CONTINUOUS
 10
61.231904498
 20
3.2960830534
 40
90.0126996942
100
AcDbArc
 50
183.9400999747
 51
184.2965414472
  0
ARC
  5
2F6
100
AcDbEntity
  8
CURVE
100
AcDbCircle
 62
253
  6
CONTINUOUS
 10
61.2288932119
 20
3.2956261036
 40
90.0096659101
100
AcDbArc
 50
183.0867334377
 51
183.2256543339
  0
ARC
  5
2F7
100
AcDbEntity
  8
CURVE
100
AcDbCircle
 62
253
  6
CONTINUOUS
 10
61.2248503944
 20
3.2955537439
 40
90.0056254406
100
AcDbArc
 50
183.2293746331
 51
183.583480588
  0
ARC
  5
2F8
100
AcDbEntity
  8
CURVE
100
AcDbCircle
 62
253
  6
CONTINUOUS
 10
61.2227752848
 20
3.2954270248
 40
90.0035469587
100
AcDbArc
 50
183.9398454989
 51
184.2964008938
  0
ARC
  5
2F9
100
AcDbEntity
  8
CURVE
100
AcDbCircle
 62
253
  6
CONTINUOUS
 10
61.2209174414
 20
3.2952896527
 40
90.0016840468
100
AcDbArc
 50
183.9400193904
 51
184.296375766
  0
ARC
  5
2FA
100
AcDbEntity
  8
0
100
AcDbCircle
 62
7
  6
CONTINUOUS
 10
61.2192384371
 20
3.2951591786
 40
90.0
100
AcDbArc
 50
181.08868532
 51
188.5737414447
  0
ARC
  5
2FB
100
AcDbEntity
  8
ASSI
100
AcDbCircle
 62
7
  6
CONTINUOUS
 10
61.2192384371
 20
3.2951591786
 40
90.0
100
AcDbArc
 50
181.08868532
 51
188.5737414447
  0
ARC
  5
2FC
100
AcDbEntity
  8
CURVE
100
AcDbCircle
 62
253
  6
CONTINUOUS
 10
61.2176373289
 20
3.2950313959
 40
89.998393802
100
AcDbArc
 50
184.2963682542
 51
184.6292914721
  0
ARC
  5
2FD
100
AcDbEntity
  8
CURVE
100
AcDbCircle
 62
253
  6
CONTINUOUS
 10
61.216625804
 20
3.294951152
 40
89.9973791005
100
AcDbArc
 50
184.2963920824
 51
184.6292925268
  0
ARC
  5
2FE
100
AcDbEntity
  8
CURVE
100
AcDbCircle
 62
253
  6
CONTINUOUS
 10
61.2115346094
 20
3.2948904694
 40
89.9922914996
100
AcDbArc
 50
181.8014917419
 51
182.1276677119
  0
ARC
  5
2FF
100
AcDbEntity
  8
CURVE
100
AcDbCircle
 62
253
  6
CONTINUOUS
 10
61.203276749
 20
3.2946862369
 40
89.9840313123
100
AcDbArc
 50
181.6364276078
 51
181.8014662153
  0
ARC
  5
300
100
AcDbEntity
  8
CURVE
100
AcDbCircle
 62
253
  6
CONTINUOUS
 10
61.1852429008
 20
3.2932461231
 40
89.9659509395
100
AcDbArc
 50
182.9966339721
 51
183.225482782
  0
ARC
  5
301
100
AcDbEntity
  8
CURVE
100
AcDbCircle
 62
253
  6
CONTINUOUS
 10
61.1795001733
 20
3.293158346
 40
89.9602116221
100
AcDbArc
 50
182.5161081777
 51
182.8690272491
  0
ARC
  5
302
100
AcDbEntity
  8
CURVE
100
AcDbCircle
 62
253
  6
CONTINUOUS
 10
61.1768669532
 20
3.2928028075
 40
89.9575632697
100
AcDbArc
 50
182.9966308909
 51
183.2260347391
  0
ARC
  5
303
100
AcDbEntity
  8
CURVE
100
AcDbCircle
 62
253
  6
CONTINUOUS
 10
61.1732629879
 20
3.2929369198
 40
89.9539709739
100
AcDbArc
 50
182.5161793974
 51
182.869385995
  0
ARC
  5
304
100
AcDbEntity
  8
CURVE
100
AcDbCircle
 62
253
  6
CONTINUOUS
 10
61.1622954647
 20
3.2924202798
 40
89.9429913317
100
AcDbArc
 50
182.5132606195
 51
182.8688947818
  0
ARC
  5
305
100
AcDbEntity
  8
CURVE
100
AcDbCircle
 62
253
  6
CONTINUOUS
 10
61.1476623093
 20
3.2905044741
 40
89.9282729126
100
AcDbArc
 50
183.5829584674
 51
183.8665879083
  0
ARC
  5
306
100
AcDbEntity
  8
CURVE
100
AcDbCircle
 62
253
  6
CONTINUOUS
 10
61.1406456946
 20
3.289978118
 40
89.9212368871
100
AcDbArc
 50
183.5832883532
 51
183.9070384313
  0
ARC
  5
307
100
AcDbEntity
  8
CURVE
100
AcDbCircle
 62
253
  6
CONTINUOUS
 10
61.1329660523
 20
3.2917196348
 40
89.9136593097
100
AcDbArc
 50
182.1563058515
 51
182.5143060544
  0
ARC
  5
308
100
AcDbEntity
  8
CURVE
100
AcDbCircle
 62
253
  6
CONTINUOUS
 10
61.1327283138
 20
3.2895183459
 40
89.9133063858
100
AcDbArc
 50
183.58523201
 51
183.8590115318
  0
ARC
  5
309
100
AcDbEntity
  8
CURVE
100
AcDbCircle
 62
253
  6
CONTINUOUS
 10
61.112258053
 20
3.2881237853
 40
89.8927889095
100
AcDbArc
 50
183.5853543064
 51
183.9151256289
  0
ARC
  5
30A
100
AcDbEntity
  8
0
100
AcDbCircle
 62
253
  6
CONTINUOUS
 10
61.2017886907
 20
3.2951591788
 40
89.5000000019
100
AcDbArc
 50
181.0886853201
 51
188.5737414446
  0
ARC
  5
30B
100
AcDbEntity
  8
ASSI
100
AcDbCircle
 62
253
  6
CONTINUOUS
 10
61.2017886907
 20
3.2951591788
 40
89.5000000019
100
AcDbArc
 50
181.0886853201
 51
188.5737414446
  0
ARC
  5
30C
100
AcDbEntity
  8
RACCORDO
100
AcDbCircle
 62
7
  6
CONTINUOUS
 10
-28.6046150721
 20
10.6875896099
 40
0.25
100
AcDbArc
 50
90.5000068928
 51
180.0455810216
  0
ARC
  5
30D
100
AcDbEntity
  8
ASSI
100
AcDbCircle
 62
7
  6
CONTINUOUS
 10
-28.6046150721
 20
10.6875896099
 40
0.25
100
AcDbArc
 50
90.5000068928
 51
180.0455810216
  0
ARC
  5
30E
100
AcDbEntity
  8
RACCORDO
100
AcDbCircle
 62
7
  6
CONTINUOUS
 10
471.1452267569
 20
11.0851591786
 40
500.0
100
AcDbArc
 50
180.045580912
 51
181.08868532
  0
ARC
  5
30F
100
AcDbEntity
  8
ASSI
100
AcDbCircle
 62
7
  6
CONTINUOUS
 10
471.1452267569
 20
11.0851591786
 40
500.0
100
AcDbArc
 50
180.045580912
 51
181.08868532
  0
ARC
  5
310
100
AcDbEntity
  8
RACCORDO
100
AcDbCircle
 62
253
  6
CONTINUOUS
 10
471.1027050411
 20
11.0847740331
 40
499.4749253344
100
AcDbArc
 50
180.0453202977
 51
181.0886957922
  0
ARC
  5
311
100
AcDbEntity
  8
ASSI
100
AcDbCircle
 62
253
  6
CONTINUOUS
 10
471.1027050411
 20
11.0847740331
 40
499.4749253344
100
AcDbArc
 50
180.0453202977
 51
181.0886957922
  0
SPLINE
  5
312
100
AcDbEntity
  8
SUPERFICI
100
AcDbSpline
 62
7
  6
CONTINUOUS
 70
0
 71
3
 72
23
 73
19
 74
17
 42
0.0000001
 43
0.0000001
 44
0.0000000001
 12
-0.0373933977
 22
0.5728934317
 32
0.0
 13
-0.5728938165
 23
0.0373849722
 33
0.0
 40
0.0
 40
0.0
 40
0.0
 40
0.0
 40
0.0227624385
 40
0.0912783971
 40
0.1596589011
 40
0.2276200343
 40
0.2955485644
 40
0.3637816853
 40
0.431984831
 40
0.4998306796
 40
0.5676700012
 40
0.6358795281
 40
0.7041611229
 40
0.7721606806
 40
0.840172955
 40
0.9086013743
 40
0.9772044438
 40
1.0
 40
1.0
 40
1.0
 40
1.0
 10
17.6615649144
 20
7.3127723575
 30
0.0
 10
17.6612811927
 20
7.3171191747
 30
0.0
 10
17.6598592014
 20
7.3345321742
 30
0.0
 10
17.6553799799
 20
7.3647872069
 30
0.0
 10
17.6458477798
 20
7.402859047
 30
0.0
 10
17.6326694945
 20
7.4397061726
 30
0.0
 10
17.6159629558
 20
7.4750627719
 30
0.0
 10
17.5958442236
 20
7.5086502276
 30
0.0
 10
17.5725281747
 20
7.5400827821
 30
0.0
 10
17.5462909541
 20
7.5690188608
 30
0.0
 10
17.5173464756
 20
7.5952485819
 30
0.0
 10
17.4859006065
 20
7.6185621294
 30
0.0
 10
17.4522878595
 20
7.6386855475
 30
0.0
 10
17.416898004
 20
7.6553982181
 30
0.0
 10
17.3800177783
 20
7.6685804807
 30
0.0
 10
17.3419103397
 20
7.6781168718
 30
0.0
 10
17.3116232554
 20
7.6825992542
 30
0.0
 10
17.2941872985
 20
7.6840227608
 30
0.0
 10
17.2898341541
 20
7.6843068312
 30
0.0
 11
17.6615649144
 21
7.3127723575
 31
0.0
 11
17.660501158
 21
7.3257966561
 31
0.0
 11
17.6547426059
 21
7.3646876226
 31
0.0
 11
17.6452115269
 21
7.4027496938
 31
0.0
 11
17.6320783144
 21
7.4394682912
 31
0.0
 11
17.6154253512
 21
7.4747096979
 31
0.0
 11
17.5953058212
 21
7.5082974611
 31
0.0
 11
17.5719899897
 21
7.5397292725
 31
0.0
 11
17.5458398099
 21
7.5685693453
 31
0.0
 11
17.5169951591
 21
7.5947088981
 31
0.0
 11
17.4855546091
 21
7.6180190933
 31
0.0
 11
17.4519384719
 21
7.638145381
 31
0.0
 11
17.4166566011
 21
7.6548081049
 31
0.0
 11
17.37990794
 21
7.6679443966
 31
0.0
 11
17.3418181151
 21
7.6774778283
 31
0.0
 11
17.3028774202
 21
7.6832417929
 31
0.0
 11
17.2898341541
 21
7.6843068312
 31
0.0
  0
LINE
  5
313
100
AcDbEntity
  8
SUPERFICI
100
AcDbLine
 62
7
  6
CONTINUOUS
 10
17.6624160903
 20
5.8836509673
 11
17.6624160903
 21
6.0915029925
  0
LINE
  5
314
100
AcDbEntity
  8
SUPERFICI
100
AcDbLine
 62
7
  6
CONTINUOUS
 10
17.6624160903
 20
6.0915029925
 11
17.6624160902
 21
6.1434661213
  0
LINE
  5
315
100
AcDbEntity
  8
SUPERFICI
100
AcDbLine
 62
7
  6
CONTINUOUS
 10
17.6624160902
 20
6.1434661213
 11
17.6624160902
 21
6.3513191127
  0
LINE
  5
316
100
AcDbEntity
  8
SUPERFICI
100
AcDbLine
 62
7
  6
CONTINUOUS
 10
17.6624160902
 20
6.3513191127
 11
17.6624160902
 21
6.5591730233
  0
LINE
  5
317
100
AcDbEntity
  8
SUPERFICI
100
AcDbLine
 62
7
  6
CONTINUOUS
 10
17.6624160902
 20
6.5591730233
 11
17.6624160902
 21
6.6111366083
  0
LINE
  5
318
100
AcDbEntity
  8
SUPERFICI
100
AcDbLine
 62
7
  6
CONTINUOUS
 10
17.6624160902
 20
6.6111366083
 11
17.6624160902
 21
6.8189913907
  0
LINE
  5
319
100
AcDbEntity
  8
SUPERFICI
100
AcDbLine
 62
7
  6
CONTINUOUS
 10
17.6624160902
 20
6.8189913907
 11
17.6624160902
 21
7.0268470099
  0
LINE
  5
31A
100
AcDbEntity
  8
SUPERFICI
100
AcDbLine
 62
7
  6
CONTINUOUS
 10
17.6624160902
 20
7.0268470099
 11
17.6624160903
 21
7.0788110141
  0
LINE
  5
31B
100
AcDbEntity
  8
SUPERFICI
100
AcDbLine
 62
7
  6
CONTINUOUS
 10
17.6624160903
 20
7.0788110141
 11
17.6624160903
 21
7.2866674139
  0
SPLINE
  5
31C
100
AcDbEntity
  8
SUPERFICI
100
AcDbSpline
 62
7
  6
CONTINUOUS
 70
0
 71
3
 72
23
 73
19
 74
17
 42
0.0000001
 43
0.0000001
 44
0.0000000001
 12
0.5724305079
 22
0.0373545532
 32
0.0
 13
0.0373392303
 23
0.5724312226
 33
0.0
 40
0.0
 40
0.0
 40
0.0
 40
0.0
 40
0.0227734797
 40
0.0913061118
 40
0.1596825666
 40
0.2276240875
 40
0.2955224771
 40
0.363719376
 40
0.4318847397
 40
0.4996959305
 40
0.5675057766
 40
0.635696583
 40
0.7039733749
 40
0.7719844587
 40
0.8400235209
 40
0.9084995609
 40
0.9771748682
 40
1.0
 40
1.0
 40
1.0
 40
1.0
 10
17.2904159765
 20
5.4860099951
 30
0.0
 10
17.294761388
 20
5.4862935595
 30
0.0
 10
17.3121656072
 20
5.4877144981
 30
0.0
 10
17.3424008105
 20
5.4921896309
 30
0.0
 10
17.3804409643
 20
5.50171219
 30
0.0
 10
17.4172490887
 20
5.5148750023
 30
0.0
 10
17.452562594
 20
5.5315602519
 30
0.0
 10
17.4861057734
 20
5.5516525526
 30
0.0
 10
17.5174955151
 20
5.574938342
 30
0.0
 10
17.5463921548
 20
5.6011430455
 30
0.0
 10
17.5725874347
 20
5.6300547424
 30
0.0
 10
17.5958725535
 20
5.6614696805
 30
0.0
 10
17.6159741978
 20
5.6950558757
 30
0.0
 10
17.6326713263
 20
5.7304251614
 30
0.0
 10
17.6458437883
 20
5.767292699
 30
0.0
 10
17.655375313
 20
5.8053975047
 30
0.0
 10
17.6598561119
 20
5.8356886713
 30
0.0
 10
17.6612794368
 20
5.8531299714
 30
0.0
 10
17.6615635277
 20
5.8574852441
 30
0.0
 11
17.2904159765
 21
5.4860099951
 31
0.0
 11
17.3034360701
 21
5.4870731682
 31
0.0
 11
17.3423052145
 21
5.4928272925
 31
0.0
 11
17.3803345961
 21
5.5023487253
 31
0.0
 11
17.4170133297
 21
5.5154663582
 31
0.0
 11
17.4522109127
 21
5.5320978332
 31
0.0
 11
17.4857536212
 21
5.5521905466
 31
0.0
 11
17.5171418938
 21
5.5754755885
 31
0.0
 11
17.5459423498
 21
5.6015930068
 31
0.0
 11
17.572046906
 21
5.6304040811
 31
0.0
 11
17.5953284419
 21
5.6618131141
 31
0.0
 11
17.6154328896
 21
5.6954021862
 31
0.0
 11
17.6320804253
 21
5.7306636405
 31
0.0
 11
17.6452068583
 21
5.7673986189
 31
0.0
 11
17.6547355227
 21
5.8054850482
 31
0.0
 11
17.66049842
 21
5.8444355871
 31
0.0
 11
17.6615635277
 21
5.8574852441
 31
0.0
  0
SPLINE
  5
31D
100
AcDbEntity
  8
SUPERFICI
100
AcDbSpline
 62
7
  6
CONTINUOUS
 70
0
 71
3
 72
23
 73
19
 74
17
 42
0.0000001
 43
0.0000001
 44
0.0000000001
 12
0.0373286304
 22
-0.5724315295
 32
0.0
 13
0.5724297311
 23
-0.0373654784
 33
0.0
 40
0.0
 40
0.0
 40
0.0
 40
0.0
 40
0.0228206867
 40
0.0914901968
 40
0.1599901218
 40
0.228039051
 40
0.2960313262
 40
0.364298113
 40
0.432505487
 40
0.5003281624
 40
0.5681263596
 40
0.6362752733
 40
0.7044822265
 40
0.7723992521
 40
0.8403304486
 40
0.90868309
 40
0.977221832
 40
1.0
 40
1.0
 40
1.0
 40
1.0
 10
8.5632681695
 20
5.857492651
 30
0.0
 10
8.5635521245
 20
5.8531382242
 30
0.0
 10
8.5649749113
 20
5.8356988581
 30
0.0
 10
8.5694552073
 20
5.8054049997
 30
0.0
 10
8.5789874199
 20
5.767294815
 30
0.0
 10
8.5921611422
 20
5.7304246857
 30
0.0
 10
8.6088567546
 20
5.6950587551
 30
0.0
 10
8.6289565275
 20
5.6614742138
 30
0.0
 10
8.6522434078
 20
5.6300559374
 30
0.0
 10
8.6784409943
 20
5.6011420793
 30
0.0
 10
8.7073354167
 20
5.5749397272
 30
0.0
 10
8.7387217903
 20
5.5516557102
 30
0.0
 10
8.7722665906
 20
5.5315615459
 30
0.0
 10
8.8075833151
 20
5.514874826
 30
0.0
 10
8.8443887054
 20
5.5017132876
 30
0.0
 10
8.8824234244
 20
5.4921913795
 30
0.0
 10
8.9126560261
 20
5.4877156966
 30
0.0
 10
8.9300622706
 20
5.4862941992
 30
0.0
 10
8.9344085708
 20
5.4860104935
 30
0.0
 11
8.5632681695
 21
5.857492651
 31
0.0
 11
8.5643327864
 21
5.8444455206
 31
0.0
 11
8.5700940624
 21
5.8054981176
 31
0.0
 11
8.5796254298
 21
5.7673982641
 31
0.0
 11
8.5927540555
 21
5.7306580781
 31
0.0
 11
8.6093970349
 21
5.6954064149
 31
0.0
 11
8.6294978803
 21
5.6618218901
 31
0.0
 11
8.6527846043
 21
5.630404898
 31
0.0
 11
8.6788942791
 21
5.6015885565
 31
0.0
 11
8.7076893734
 21
5.5754763385
 31
0.0
 11
8.739069712
 21
5.5521964575
 31
0.0
 11
8.7726169594
 21
5.5321001336
 31
0.0
 11
8.8078242083
 21
5.5154641408
 31
0.0
 11
8.8444974469
 21
5.5023487671
 31
0.0
 11
8.8825134023
 21
5.4928299882
 31
0.0
 11
8.9213858226
 21
5.4870741778
 31
0.0
 11
8.9344085708
 21
5.4860104935
 31
0.0
  0
LINE
  5
31E
100
AcDbEntity
  8
SUPERFICI
100
AcDbLine
 62
7
  6
CONTINUOUS
 10
8.5624160903
 20
7.2866674139
 11
8.5624160903
 21
7.0788110139
  0
LINE
  5
31F
100
AcDbEntity
  8
SUPERFICI
100
AcDbLine
 62
7
  6
CONTINUOUS
 10
8.5624160903
 20
7.0788110139
 11
8.5624160903
 21
7.0268470102
  0
LINE
  5
320
100
AcDbEntity
  8
SUPERFICI
100
AcDbLine
 62
7
  6
CONTINUOUS
 10
8.5624160903
 20
7.0268470102
 11
8.5624160903
 21
6.8189914068
  0
LINE
  5
321
100
AcDbEntity
  8
SUPERFICI
100
AcDbLine
 62
7
  6
CONTINUOUS
 10
8.5624160903
 20
6.8189914068
 11
8.5624160903
 21
6.6111366085
  0
LINE
  5
322
100
AcDbEntity
  8
SUPERFICI
100
AcDbLine
 62
7
  6
CONTINUOUS
 10
8.5624160903
 20
6.6111366085
 11
8.5624160903
 21
6.5591730234
  0
LINE
  5
323
100
AcDbEntity
  8
SUPERFICI
100
AcDbLine
 62
7
  6
CONTINUOUS
 10
8.5624160903
 20
6.5591730234
 11
8.5624160903
 21
6.351319116
  0
LINE
  5
324
100
AcDbEntity
  8
SUPERFICI
100
AcDbLine
 62
7
  6
CONTINUOUS
 10
8.5624160903
 20
6.351319116
 11
8.5624160903
 21
6.1434661215
  0
LINE
  5
325
100
AcDbEntity
  8
SUPERFICI
100
AcDbLine
 62
7
  6
CONTINUOUS
 10
8.5624160903
 20
6.1434661215
 11
8.5624160903
 21
6.0915029924
  0
LINE
  5
326
100
AcDbEntity
  8
SUPERFICI
100
AcDbLine
 62
7
  6
CONTINUOUS
 10
8.5624160903
 20
6.0915029924
 11
8.5624160903
 21
5.8836509672
  0
SPLINE
  5
327
100
AcDbEntity
  8
SUPERFICI
100
AcDbSpline
 62
7
  6
CONTINUOUS
 70
0
 71
3
 72
23
 73
19
 74
17
 42
0.0000001
 43
0.0000001
 44
0.0000000001
 12
-0.5728942614
 22
-0.0373741694
 32
0.0
 13
-0.0374043475
 23
-0.5728927836
 33
0.0
 40
0.0
 40
0.0
 40
0.0
 40
0.0
 40
0.0227908498
 40
0.0913877727
 40
0.1598399068
 40
0.2278622464
 40
0.2958431797
 40
0.3641148304
 40
0.4323409186
 40
0.5001930816
 40
0.568025988
 40
0.6362126247
 40
0.7044557186
 40
0.7724027938
 40
0.8403536431
 40
0.90871048
 40
0.9772327384
 40
1.0
 40
1.0
 40
1.0
 40
1.0
 10
8.9350055675
 20
7.6843073235
 30
0.0
 10
8.9306533185
 20
7.6840233938
 30
0.0
 10
8.9132194093
 20
7.682600444
 30
0.0
 10
8.8829297683
 20
7.6781186143
 30
0.0
 10
8.8448169857
 20
7.6685815958
 30
0.0
 10
8.807934103
 20
7.6553981005
 30
0.0
 10
8.7725475041
 20
7.6386869409
 30
0.0
 10
8.7389363501
 20
7.618565393
 30
0.0
 10
8.7074871071
 20
7.5952500908
 30
0.0
 10
8.6785404338
 20
7.5690180668
 30
0.0
 10
8.6523055426
 20
7.5400842157
 30
0.0
 10
8.6289912544
 20
7.5086550521
 30
0.0
 10
8.6088706536
 20
7.4750660178
 30
0.0
 10
8.5921626237
 20
7.4397062244
 30
0.0
 10
8.5789855759
 20
7.4028618196
 30
0.0
 10
8.5694539847
 20
7.3647953456
 30
0.0
 10
8.5649741878
 20
7.3345428219
 30
0.0
 10
8.5635516299
 20
7.3171277296
 30
0.0
 10
8.5632677651
 20
7.3127799963
 30
0.0
 11
8.9350055675
 21
7.6843073235
 31
0.0
 11
8.9219649762
 21
7.6832427952
 31
0.0
 11
8.8830276038
 21
7.6774805179
 31
0.0
 11
8.844924418
 21
7.6679444504
 31
0.0
 11
8.8081704136
 21
7.6548059679
 31
0.0
 11
8.7728982221
 21
7.6381477897
 31
0.0
 11
8.7392865829
 21
7.6180251102
 31
0.0
 11
8.7078380478
 21
7.5947097404
 31
0.0
 11
8.678988097
 21
7.5685650728
 31
0.0
 11
8.6528430786
 21
7.5397303536
 31
0.0
 11
8.6295324089
 21
7.5083065163
 31
0.0
 11
8.6094092632
 21
7.474714256
 31
0.0
 11
8.5927517702
 21
7.4394632276
 31
0.0
 11
8.5796207798
 21
7.4027501095
 31
0.0
 11
8.5700923115
 21
7.3647013912
 31
0.0
 11
8.564332041
 21
7.3258070316
 31
0.0
 11
8.5632677651
 21
7.3127799963
 31
0.0
  0
LINE
  5
328
100
AcDbEntity
  8
RACCORDO
100
AcDbLine
 62
7
  6
CONTINUOUS
 10
17.6624160903
 20
7.286667414
 11
17.6624160902
 21
7.052828964
  0
LINE
  5
329
100
AcDbEntity
  8
RACCORDO
100
AcDbLine
 62
7
  6
CONTINUOUS
 10
17.6624160902
 20
7.052828964
 11
17.6624160902
 21
6.818991396
  0
LINE
  5
32A
100
AcDbEntity
  8
RACCORDO
100
AcDbLine
 62
7
  6
CONTINUOUS
 10
17.6624160902
 20
6.818991396
 11
17.6624160902
 21
6.5851547611
  0
LINE
  5
32B
100
AcDbEntity
  8
RACCORDO
100
AcDbLine
 62
7
  6
CONTINUOUS
 10
17.6624160902
 20
6.5851547611
 11
17.6624160902
 21
6.3513191106
  0
LINE
  5
32C
100
AcDbEntity
  8
RACCORDO
100
AcDbLine
 62
7
  6
CONTINUOUS
 10
17.6624160902
 20
6.3513191106
 11
17.6624160902
 21
6.1174844956
  0
LINE
  5
32D
100
AcDbEntity
  8
RACCORDO
100
AcDbLine
 62
7
  6
CONTINUOUS
 10
17.6624160902
 20
6.1174844956
 11
17.6624160903
 21
5.8836509671
  0
LINE
  5
32E
100
AcDbEntity
  8
RACCORDO
100
AcDbLine
 62
7
  6
CONTINUOUS
 10
8.5624160903
 20
5.8836509671
 11
8.5624160903
 21
7.286667414
  0
SPLINE
  5
32F
100
AcDbEntity
  8
RACCORDO
100
AcDbSpline
 62
7
  6
CONTINUOUS
 70
0
 71
3
 72
23
 73
19
 74
17
 42
0.0000001
 43
0.0000001
 44
0.0000000001
 12
-0.6256304749
 22
0.0
 32
0.0
 13
0.0
 23
0.6256304749
 33
0.0
 40
0.0
 40
0.0
 40
0.0
 40
0.0
 40
0.0625348873
 40
0.125302776
 40
0.1879610843
 40
0.2502495145
 40
0.3125069208
 40
0.3750288287
 40
0.4375113249
 40
0.4996701031
 40
0.5618372342
 40
0.6243553179
 40
0.6869429983
 40
0.7492898499
 40
0.811675364
 40
0.8744418063
 40
0.9373328547
 40
1.0
 40
1.0
 40
1.0
 40
1.0
 10
8.9605175467
 20
5.4851591786
 30
0.0
 10
8.947476303
 20
5.4851591786
 30
0.0
 10
8.9213272232
 20
5.4864356148
 30
0.0
 10
8.882491224
 20
5.4921781756
 30
0.0
 10
8.8444526106
 20
5.5016933582
 30
0.0
 10
8.8076315462
 20
5.5148543025
 30
0.0
 10
8.7723004192
 20
5.5315431083
 30
0.0
 10
8.7387429692
 20
5.5516410112
 30
0.0
 10
8.7073434444
 20
5.5749323928
 30
0.0
 10
8.6784382273
 20
5.601144274
 30
0.0
 10
8.6522342774
 20
5.6300666831
 30
0.0
 10
8.6289425635
 20
5.661494442
 30
0.0
 10
8.6088372806
 20
5.6950938707
 30
0.0
 10
8.5921382658
 20
5.7304783933
 30
0.0
 10
8.5789671931
 20
5.767361097
 30
0.0
 10
8.5694431951
 20
5.8054680928
 30
0.0
 10
8.5636941436
 20
5.8443797863
 30
0.0
 10
8.5624160903
 20
5.8705821418
 30
0.0
 10
8.5624160903
 20
5.8836509671
 30
0.0
 11
8.9605175467
 21
5.4851591786
 31
0.0
 11
8.9214404484
 21
5.4870688201
 31
0.0
 11
8.8825934928
 21
5.4928140779
 31
0.0
 11
8.8445646588
 21
5.5023283853
 31
0.0
 11
8.8078690924
 21
5.5154455673
 31
0.0
 11
8.77265067
 21
5.5320821356
 31
0.0
 11
8.7390934949
 21
5.552180569
 31
0.0
 11
8.7076973795
 21
5.5754697639
 31
0.0
 11
8.6788897308
 21
5.6015931068
 31
0.0
 11
8.6527754651
 21
5.6304160366
 31
0.0
 11
8.629486009
 21
5.6618396755
 31
0.0
 11
8.6093792213
 21
5.6954398089
 31
0.0
 11
8.5927307326
 21
5.7307144869
 31
0.0
 11
8.5796034127
 21
5.7674709304
 31
0.0
 11
8.5700803302
 21
5.8055673052
 31
0.0
 11
8.5643283148
 21
5.8444911517
 31
0.0
 11
8.5624160903
 21
5.8836509671
 31
0.0
  0
SPLINE
  5
330
100
AcDbEntity
  8
RACCORDO
100
AcDbSpline
 62
7
  6
CONTINUOUS
 70
0
 71
3
 72
23
 73
19
 74
17
 42
0.0000001
 43
0.0000001
 44
0.0000000001
 12
-0.0
 22
0.6260794102
 32
0.0
 13
0.6260794102
 23
0.0
 33
0.0
 40
0.0
 40
0.0
 40
0.0
 40
0.0
 40
0.0625064794
 40
0.125265243
 40
0.1879314833
 40
0.2502417825
 40
0.3125316189
 40
0.3750924245
 40
0.4376158557
 40
0.4998130445
 40
0.5620138933
 40
0.624555553
 40
0.6871533927
 40
0.7494944038
 40
0.8118588393
 40
0.874584964
 40
0.9374149203
 40
1.0
 40
1.0
 40
1.0
 40
1.0
 10
8.5624160903
 20
7.286667414
 30
0.0
 10
8.5624160903
 20
7.2997120873
 30
0.0
 10
8.5636937196
 20
7.3258720881
 30
0.0
 10
8.5694411996
 20
7.3647295952
 30
0.0
 10
8.5789660821
 20
7.4027992389
 30
0.0
 10
8.5921423103
 20
7.4396584343
 30
0.0
 10
8.6088521935
 20
7.4750321307
 30
0.0
 10
8.6289764985
 20
7.5086337996
 30
0.0
 10
8.6522983475
 20
7.5400763818
 30
0.0
 10
8.6785431574
 20
7.5690213903
 30
0.0
 10
8.7074988509
 20
7.595260064
 30
0.0
 10
8.7389579443
 20
7.6185802806
 30
0.0
 10
8.7725839857
 20
7.6387071364
 30
0.0
 10
8.8079885512
 20
7.6554212522
 30
0.0
 10
8.844882858
 20
7.668601657
 30
0.0
 10
8.8829913854
 20
7.6781303118
 30
0.0
 10
8.9218926781
 20
7.6838807946
 30
0.0
 10
8.948083943
 20
7.6851591786
 30
0.0
 10
8.9611450196
 20
7.6851591786
 30
0.0
 11
8.5624160903
 21
7.286667414
 31
0.0
 11
8.5643269125
 21
7.3257547555
 31
0.0
 11
8.5700768798
 21
7.3646237246
 31
0.0
 11
8.5796008106
 21
7.4026842665
 31
0.0
 11
8.5927333004
 21
7.4394185976
 31
0.0
 11
8.6093911512
 21
7.4746803326
 31
0.0
 11
8.6295163996
 21
7.5082825518
 31
0.0
 11
8.6528366201
 21
7.5397224882
 31
0.0
 11
8.678993177
 21
7.5685701514
 31
0.0
 11
8.7078502422
 21
7.5947197478
 31
0.0
 11
8.7393058603
 21
7.6180379806
 31
0.0
 11
8.7729331799
 21
7.6381664429
 31
0.0
 11
8.808227794
 21
7.6548297008
 31
0.0
 11
8.8449966353
 21
7.66796634
 31
0.0
 11
8.8830949209
 21
7.6774938844
 31
0.0
 11
8.9220084727
 21
7.6832470595
 31
0.0
 11
8.9611450196
 21
7.6851591786
 31
0.0
  0
SPLINE
  5
331
100
AcDbEntity
  8
RACCORDO
100
AcDbSpline
 62
7
  6
CONTINUOUS
 70
0
 71
3
 72
23
 73
19
 74
17
 42
0.0000001
 43
0.0000001
 44
0.0000000001
 12
0.0
 22
-0.6256304749
 32
0.0
 13
-0.6256304749
 23
0.0
 33
0.0
 40
0.0
 40
0.0
 40
0.0
 40
0.0
 40
0.0626702289
 40
0.1255649537
 40
0.1883377991
 40
0.2507257318
 40
0.3130696196
 40
0.3756555984
 40
0.4381764296
 40
0.5003456957
 40
0.5625023603
 40
0.6249821737
 40
0.6875058217
 40
0.7497661681
 40
0.8120520785
 40
0.8747039402
 40
0.9374681374
 40
1.0
 40
1.0
 40
1.0
 40
1.0
 10
17.6624160903
 20
5.8836509671
 30
0.0
 10
17.6624160903
 20
5.8705814988
 30
0.0
 10
17.661137905
 20
5.8443777307
 30
0.0
 10
17.6553881515
 20
5.8054633551
 30
0.0
 10
17.6458629227
 20
5.7673539615
 30
0.0
 10
17.6326906041
 20
5.7304703982
 30
0.0
 10
17.6159910073
 20
5.6950866765
 30
0.0
 10
17.5958853092
 20
5.6614879676
 30
0.0
 10
17.5725925866
 20
5.6300601215
 30
0.0
 10
17.5463875723
 20
5.6011378899
 30
0.0
 10
17.5174821601
 20
5.5749270585
 30
0.0
 10
17.4860826989
 20
5.5516366729
 30
0.0
 10
17.4525245112
 20
5.5315391822
 30
0.0
 10
17.4171925962
 20
5.5148509726
 30
0.0
 10
17.3803724231
 20
5.5016912898
 30
0.0
 10
17.34233624
 20
5.4921773459
 30
0.0
 10
17.3035029232
 20
5.4864354844
 30
0.0
 10
17.2773552468
 20
5.4851591786
 30
0.0
 10
17.2643146338
 20
5.4851591786
 30
0.0
 11
17.6624160903
 21
5.8836509671
 31
0.0
 11
17.6605036775
 21
5.8444892293
 31
0.0
 11
17.6547510263
 21
5.8055631518
 31
0.0
 11
17.6452263777
 21
5.7674630392
 31
0.0
 11
17.6320977192
 21
5.7307054671
 31
0.0
 11
17.6154492396
 21
5.6954328352
 31
0.0
 11
17.5953423755
 21
5.6618339881
 31
0.0
 11
17.5720512865
 21
5.6304094199
 31
0.0
 11
17.5459354536
 21
5.6015861077
 31
0.0
 11
17.5171281762
 21
5.5754643239
 31
0.0
 11
17.4857329548
 21
5.5521767408
 31
0.0
 11
17.4521744693
 21
5.5320783768
 31
0.0
 11
17.416954011
 21
5.5154418118
 31
0.0
 11
17.3802596313
 21
5.5023259935
 31
0.0
 11
17.3422345614
 21
5.4928132586
 31
0.0
 11
17.3033898466
 21
5.4870686353
 31
0.0
 11
17.2643146338
 21
5.4851591786
 31
0.0
  0
SPLINE
  5
332
100
AcDbEntity
  8
RACCORDO
100
AcDbSpline
 62
7
  6
CONTINUOUS
 70
0
 71
3
 72
23
 73
19
 74
17
 42
0.0000001
 43
0.0000001
 44
0.0000000001
 12
0.6260794102
 22
0.0
 32
0.0
 13
-0.0
 23
-0.6260794102
 33
0.0
 40
0.0
 40
0.0
 40
0.0
 40
0.0
 40
0.0625881422
 40
0.1254217627
 40
0.1881542833
 40
0.2505211627
 40
0.3128592232
 40
0.3754553554
 40
0.4379997474
 40
0.5002027209
 40
0.5623977915
 40
0.6249185204
 40
0.6874810527
 40
0.7497738282
 40
0.8120816345
 40
0.8747414598
 40
0.937496554
 40
1.0
 40
1.0
 40
1.0
 40
1.0
 10
17.263687161
 20
7.6851591786
 30
0.0
 10
17.2767488767
 20
7.6851591786
 30
0.0
 10
17.3029415482
 20
7.6838806632
 30
0.0
 10
17.3418455167
 20
7.6781294805
 30
0.0
 10
17.3799564451
 20
7.6685995954
 30
0.0
 10
17.4168516188
 20
7.6554179431
 30
0.0
 10
17.452255389
 20
7.6387032426
 30
0.0
 10
17.4858807088
 20
7.6185759725
 30
0.0
 10
17.5173398848
 20
7.5952547514
 30
0.0
 10
17.5462953972
 20
7.5690150182
 30
0.0
 10
17.5725391535
 20
7.5400698214
 30
0.0
 10
17.5958600038
 20
7.5086273112
 30
0.0
 10
17.6159838962
 20
7.4750249123
 30
0.0
 10
17.632693188
 20
7.4396504269
 30
0.0
 10
17.6458681614
 20
7.4027921134
 30
0.0
 10
17.6553918101
 20
7.3647248855
 30
0.0
 10
17.6611385916
 20
7.3258700534
 30
0.0
 10
17.6624160903
 20
7.2997114542
 30
0.0
 10
17.6624160903
 20
7.286667414
 30
0.0
 11
17.263687161
 21
7.6851591786
 31
0.0
 11
17.3028256184
 21
7.6832468723
 31
0.0
 11
17.3417413954
 21
7.6774930635
 31
0.0
 11
17.3798434175
 21
7.6679639546
 31
0.0
 11
17.4166134035
 21
7.654825972
 31
0.0
 11
17.4519059778
 21
7.6381627203
 31
0.0
 11
17.4855320071
 21
7.618034184
 31
0.0
 11
17.5169885481
 21
7.5947143236
 31
0.0
 11
17.5458459923
 21
7.5685631645
 31
0.0
 11
17.572000989
 21
7.5397158768
 31
0.0
 11
17.5953195917
 21
7.5082768468
 31
0.0
 11
17.6154447699
 21
7.4746733256
 31
0.0
 11
17.6321026213
 21
7.4394095556
 31
0.0
 11
17.6452337557
 21
7.4026763975
 31
0.0
 11
17.6547561191
 21
7.3646196035
 31
0.0
 11
17.6605054536
 21
7.3257528631
 31
0.0
 11
17.6624160903
 21
7.286667414
 31
0.0
  0
SPLINE
  5
333
100
AcDbEntity
  8
RACCORDO
100
AcDbSpline
 62
253
  6
CONTINUOUS
 70
0
 71
3
 72
10
 73
6
 74
4
 42
0.0000001
 43
0.0000001
 44
0.0000000001
 12
0.0002526151
 22
-9.1022322221
 32
0.0
 13
0.0060343306
 23
-9.1022302254
 33
0.0
 40
0.0
 40
0.0
 40
0.0
 40
0.0
 40
0.3333526791
 40
0.6666869147
 40
1.0
 40
1.0
 40
1.0
 40
1.0
 10
34.7805261532
 20
10.6873907252
 30
0.0
 10
34.7805542232
 20
9.675972893
 30
0.0
 10
34.780828411
 20
7.653193187
 30
0.0
 10
34.7818745192
 20
4.6191159387
 30
0.0
 10
34.7830016084
 20
2.5964566585
 30
0.0
 10
34.7836720488
 20
1.5851591786
 30
0.0
 11
34.7805261532
 21
10.6873907252
 31
0.0
 11
34.7809342341
 21
7.6531372548
 31
0.0
 11
34.7819819741
 21
4.6190518142
 31
0.0
 11
34.7836720488
 21
1.5851591786
 31
0.0
  0
SPLINE
  5
334
100
AcDbEntity
  8
RACCORDO
100
AcDbSpline
 62
253
  6
CONTINUOUS
 70
0
 71
3
 72
10
 73
6
 74
4
 42
0.0000001
 43
0.0000001
 44
0.0000000001
 12
0.0002514557
 22
-9.0950366933
 32
0.0
 13
0.0060355961
 23
-9.0950346942
 33
0.0
 40
0.0
 40
0.0
 40
0.0
 40
0.0
 40
0.3333523679
 40
0.6666867588
 40
1.0
 40
1.0
 40
1.0
 40
1.0
 10
35.2802242939
 20
10.6896951961
 30
0.0
 10
35.280252235
 20
9.6790778568
 30
0.0
 10
35.2805221774
 20
7.6578976777
 30
0.0
 10
35.2815699706
 20
4.6262189393
 30
0.0
 10
35.282696881
 20
2.6051576761
 30
0.0
 10
35.2833674623
 20
1.5946591786
 30
0.0
 11
35.2802242939
 21
10.6896951961
 31
0.0
 11
35.2806293423
 21
7.6578432041
 31
0.0
 11
35.2816771
 21
4.6261548672
 31
0.0
 11
35.2833674623
 21
1.5946591786
 31
0.0
  0
SPLINE
  5
335
100
AcDbEntity
  8
RACCORDO
100
AcDbSpline
 62
253
  6
CONTINUOUS
 70
0
 71
3
 72
24
 73
20
 74
18
 42
0.0000001
 43
0.0000001
 44
0.0000000001
 12
-0.4951381098
 22
-0.0674744652
 32
0.0
 13
-0.4997144696
 23
-0.0000069948
 33
0.0
 40
0.0
 40
0.0
 40
0.0
 40
0.0
 40
0.0072410904
 40
0.0225728332
 40
0.0458757318
 40
0.0769602085
 40
0.1155730933
 40
0.1614001728
 40
0.2140673257
 40
0.2731450583
 40
0.3381511715
 40
0.4085561138
 40
0.4837853051
 40
0.5632252357
 40
0.64622704
 40
0.7321147597
 40
0.8201880871
 40
0.9097254715
 40
1.0
 40
1.0
 40
1.0
 40
1.0
 10
35.2802242939
 20
10.689695185
 30
0.0
 10
35.2790291806
 20
10.6895323221
 30
0.0
 10
35.2752593382
 20
10.6894609511
 30
0.0
 10
35.2676298296
 20
10.6892046118
 30
0.0
 10
35.2560132786
 20
10.6890421515
 30
0.0
 10
35.2405253221
 20
10.6888331408
 30
0.0
 10
35.2212824115
 20
10.6886483003
 30
0.0
 10
35.1984452541
 20
10.6884642202
 30
0.0
 10
35.1721987315
 20
10.688292232
 30
0.0
 10
35.1427575182
 20
10.6881308766
 30
0.0
 10
35.1103615582
 20
10.6879826661
 30
0.0
 10
35.0752751542
 20
10.6878485981
 30
0.0
 10
35.0377844167
 20
10.6877299377
 30
0.0
 10
34.9981953467
 20
10.6876276749
 30
0.0
 10
34.9568308249
 20
10.6875426867
 30
0.0
 10
34.9140281908
 20
10.6874756907
 30
0.0
 10
34.8701368897
 20
10.687427249
 30
0.0
 10
34.8255148545
 20
10.6873977701
 30
0.0
 10
34.7955633159
 20
10.6873909349
 30
0.0
 10
34.7805261532
 20
10.6873907244
 30
0.0
 11
35.2802242939
 21
10.689695185
 31
0.0
 11
35.2766121669
 21
10.6894808972
 31
0.0
 11
35.2689536048
 21
10.6892689714
 31
0.0
 11
35.2573106645
 21
10.6890611109
 31
0.0
 11
35.2417786162
 21
10.6888590356
 31
0.0
 11
35.2224841807
 21
10.6886643882
 31
0.0
 11
35.1995844783
 21
10.688478758
 31
0.0
 11
35.1732665224
 21
10.6883036623
 31
0.0
 11
35.1437449754
 21
10.6881405315
 31
0.0
 11
35.1112608255
 21
10.687990699
 31
0.0
 11
35.0760787173
 21
10.6878553878
 31
0.0
 11
35.0384857924
 21
10.6877357045
 31
0.0
 11
34.9987886434
 21
10.6876326274
 31
0.0
 11
34.9573115292
 21
10.6875469996
 31
0.0
 11
34.9143922459
 21
10.6874795207
 31
0.0
 11
34.8703807569
 21
10.6874307411
 31
0.0
 11
34.8256376402
 21
10.6874010627
 31
0.0
 11
34.7805261532
 21
10.6873907244
 31
0.0
  0
SPLINE
  5
336
100
AcDbEntity
  8
0
100
AcDbSpline
 62
253
  6
CONTINUOUS
 70
0
 71
3
 72
23
 73
19
 74
17
 42
0.0000001
 43
0.0000001
 44
0.0000000001
 12
-0.4390227157
 22
-0.2392018116
 32
0.0
 13
-0.4999583399
 23
-0.0003316598
 33
0.0
 40
0.0
 40
0.0
 40
0.0
 40
0.0
 40
0.008152361
 40
0.0253232964
 40
0.051431694
 40
0.0862550999
 40
0.1294799963
 40
0.180712013
 40
0.2394815731
 40
0.3052489593
 40
0.3774096104
 40
0.4552998516
 40
0.5382030955
 40
0.6253564931
 40
0.7159579915
 40
0.8091737417
 40
0.9041457919
 40
1.0
 40
1.0
 40
1.0
 40
1.0
 10
35.2833674623
 20
1.5946591786
 30
0.0
 10
35.2821744384
 20
1.5940091588
 30
0.0
 10
35.2778221573
 20
1.5936231936
 30
0.0
 10
35.2694253202
 20
1.5925930668
 30
0.0
 10
35.2563660276
 20
1.5918691669
 30
0.0
 10
35.2390560158
 20
1.5909916334
 30
0.0
 10
35.2175154274
 20
1.5902004449
 30
0.0
 10
35.1919950214
 20
1.5894209607
 30
0.0
 10
35.1627103973
 20
1.5886935103
 30
0.0
 10
35.1299374907
 20
1.5880155712
 30
0.0
 10
35.0939759026
 20
1.5873975019
 30
0.0
 10
35.0551573661
 20
1.5868443955
 30
0.0
 10
35.0138390853
 20
1.5863619718
 30
0.0
 10
34.9704015487
 20
1.5859547815
 30
0.0
 10
34.9252446868
 20
1.585626742
 30
0.0
 10
34.8787842863
 20
1.5853809602
 30
0.0
 10
34.8314481341
 20
1.5852197625
 30
0.0
 10
34.7996464191
 20
1.5851697756
 30
0.0
 10
34.7836720488
 20
1.5851591786
 30
0.0
 11
35.2833674623
 21
1.5946591786
 31
0.0
 11
35.279394756
 21
1.5937480854
 31
0.0
 11
35.2708575943
 21
1.5928453813
 31
0.0
 11
35.2578345845
 21
1.591959378
 31
0.0
 11
35.2404456385
 21
1.5910982336
 31
0.0
 11
35.2188508679
 21
1.5902698773
 31
0.0
 11
35.1932491106
 21
1.5894819363
 31
0.0
 11
35.1638760992
 21
1.5887416656
 31
0.0
 11
35.1310022911
 21
1.5880558815
 31
0.0
 11
35.0949303777
 21
1.5874308984
 31
0.0
 11
35.0559924975
 21
1.586872471
 31
0.0
 11
35.0145471782
 21
1.5863857411
 31
0.0
 11
34.9709760348
 21
1.5859751904
 31
0.0
 11
34.9256802565
 21
1.585644599
 31
0.0
 11
34.8790769122
 21
1.585397011
 31
0.0
 11
34.8315951106
 21
1.585234706
 31
0.0
 11
34.7836720488
 21
1.5851591786
 31
0.0
  0
SPLINE
  5
337
100
AcDbEntity
  8
0
100
AcDbSpline
 62
253
  6
CONTINUOUS
 70
0
 71
3
 72
23
 73
19
 74
17
 42
0.0000001
 43
0.0000001
 44
0.0000000001
 12
-0.1156656166
 22
-0.4999835144
 32
0.0
 13
-0.5131813232
 23
-0.0026417985
 33
0.0
 40
0.0
 40
0.0
 40
0.0
 40
0.0
 40
0.0159236402
 40
0.037519705
 40
0.0662667634
 40
0.1026032067
 40
0.1465356752
 40
0.197849916
 40
0.2561916431
 40
0.3211034949
 40
0.3920454012
 40
0.4684080643
 40
0.5495234077
 40
0.6346736632
 40
0.7230998673
 40
0.8140101335
 40
0.9065878679
 40
1.0
 40
1.0
 40
1.0
 40
1.0
 10
35.3177303162
 20
-10.0476961498
 30
0.0
 10
35.317116377
 20
-10.0503500023
 30
0.0
 10
35.3135050704
 20
-10.0560243086
 30
0.0
 10
35.3044147327
 20
-10.0629106566
 30
0.0
 10
35.291177043
 20
-10.0697080435
 30
0.0
 10
35.273708106
 20
-10.0762988838
 30
0.0
 10
35.2521080345
 20
-10.08268198
 30
0.0
 10
35.226540177
 20
-10.0887688946
 30
0.0
 10
35.197227342
 20
-10.0945030018
 30
0.0
 10
35.1644318046
 20
-10.0998235002
 30
0.0
 10
35.1284519092
 20
-10.1046782864
 30
0.0
 10
35.0896167579
 20
-10.1090197263
 30
0.0
 10
35.0482827046
 20
-10.1128060284
 30
0.0
 10
35.0048295953
 20
-10.1160009727
 30
0.0
 10
34.9596571049
 20
-10.1185742054
 30
0.0
 10
34.9131808793
 20
-10.1205013794
 30
0.0
 10
34.8658288407
 20
-10.1217643231
 30
0.0
 10
34.8340140232
 20
-10.1221549789
 30
0.0
 10
34.8180349027
 20
-10.1222372375
 30
0.0
 11
35.3177303162
 21
-10.0476961498
 31
0.0
 11
35.3137744573
 21
-10.0548466653
 31
0.0
 11
35.3052517075
 21
-10.0619313082
 31
0.0
 11
35.2922405806
 21
-10.0688848129
 31
0.0
 11
35.2748609387
 21
-10.0756431217
 31
0.0
 11
35.2532728881
 21
-10.0821439751
 31
0.0
 11
35.2276753037
 21
-10.0883274856
 31
0.0
 11
35.1983039978
 21
-10.0941366888
 31
0.0
 11
35.1654295469
 21
-10.0995180688
 31
0.0
 11
35.1293547998
 21
-10.1044220508
 31
0.0
 11
35.0904120869
 21
-10.108803458
 31
0.0
 11
35.0489601594
 21
-10.1126219275
 31
0.0
 11
35.0053808841
 21
-10.1158422827
 31
0.0
 11
34.9600757254
 21
-10.1184348567
 31
0.0
 11
34.9134620471
 21
-10.1203757659
 31
0.0
 11
34.8659692672
 21
-10.1216471303
 31
0.0
 11
34.8180349027
 21
-10.1222372375
 31
0.0
  0
SPLINE
  5
338
100
AcDbEntity
  8
0
100
AcDbSpline
 62
253
  6
CONTINUOUS
 70
0
 71
3
 72
24
 73
20
 74
18
 42
0.0000001
 43
0.0000001
 44
0.0000000001
 12
0.0022370123
 22
-0.8499340702
 32
0.0
 13
0.2685899292
 23
-0.8063822777
 33
0.0
 40
0.0
 40
0.0
 40
0.0
 40
0.0
 40
0.0929977429
 40
0.184256553
 40
0.2731879617
 40
0.3592144101
 40
0.441779768
 40
0.52034911
 40
0.5944135008
 40
0.6634931372
 40
0.7271410503
 40
0.784944825
 40
0.836530752
 40
0.8815652918
 40
0.9197580269
 40
0.9508640559
 40
0.9746874526
 40
0.9910862544
 40
1.0
 40
1.0
 40
1.0
 40
1.0
 10
34.8180349027
 20
-10.122237241
 30
0.0
 10
34.8181042484
 20
-10.1485845577
 30
0.0
 10
34.8182788831
 20
-10.2007864421
 30
0.0
 10
34.8186521412
 20
-10.2781830903
 30
0.0
 10
34.8191324681
 20
-10.3536040593
 30
0.0
 10
34.8197165888
 20
-10.4265612599
 30
0.0
 10
34.8204006677
 20
-10.4965817609
 30
0.0
 10
34.8211801074
 20
-10.5632120509
 30
0.0
 10
34.8220496555
 20
-10.626020223
 30
0.0
 10
34.8230034333
 20
-10.684599221
 30
0.0
 10
34.8240346988
 20
-10.7385693693
 30
0.0
 10
34.8251366411
 20
-10.7875806552
 30
0.0
 10
34.8262995935
 20
-10.8313160507
 30
0.0
 10
34.8275192439
 20
-10.8694898181
 30
0.0
 10
34.8287705191
 20
-10.9018615491
 30
0.0
 10
34.830080397
 20
-10.9282028829
 30
0.0
 10
34.8313216699
 20
-10.9483969297
 30
0.0
 10
34.8327038339
 20
-10.9622067602
 30
0.0
 10
34.8335883109
 20
-10.9693886311
 30
0.0
 10
34.8343863584
 20
-10.9717845933
 30
0.0
 11
34.8180349027
 21
-10.122237241
 31
0.0
 11
34.8183001758
 21
-10.2012790197
 31
0.0
 11
34.8186755633
 21
-10.2788423519
 31
0.0
 11
34.8191586821
 21
-10.3544269039
 31
0.0
 11
34.8197463664
 21
-10.4275416048
 31
0.0
 11
34.820434836
 21
-10.4977135813
 31
0.0
 11
34.8212196262
 21
-10.5644879616
 31
0.0
 11
34.8220956594
 21
-10.6274319329
 31
0.0
 11
34.82305726
 21
-10.6861373978
 31
0.0
 11
34.8240982066
 21
-10.7402240989
 31
0.0
 11
34.8252117511
 21
-10.7893410455
 31
0.0
 11
34.8263906867
 21
-10.8331699813
 31
0.0
 11
34.8276273715
 21
-10.8714265201
 31
0.0
 11
34.8289137951
 21
-10.9038624393
 31
0.0
 11
34.8302416006
 21
-10.9302672405
 31
0.0
 11
34.8316022394
 21
-10.9504698597
 31
0.0
 11
34.8329867637
 21
-10.9643388721
 31
0.0
 11
34.8343863584
 21
-10.9717845933
 31
0.0
  0
SPLINE
  5
339
100
AcDbEntity
  8
0
100
AcDbSpline
 62
253
  6
CONTINUOUS
 70
0
 71
3
 72
24
 73
20
 74
18
 42
0.0000001
 43
0.0000001
 44
0.0000000001
 12
0.0022405343
 22
-0.425539131
 32
0.0
 13
0.2359406645
 23
-0.3541476737
 33
0.0
 40
0.0
 40
0.0
 40
0.0
 40
0.0
 40
0.092855355
 40
0.1839967866
 40
0.2728162512
 40
0.3587375314
 40
0.4412058963
 40
0.5196878524
 40
0.5936759745
 40
0.6626920345
 40
0.7262908445
 40
0.7840621562
 40
0.8356349505
 40
0.8806792824
 40
0.9189099719
 40
0.9500906576
 40
0.9740413608
 40
0.9906572345
 40
1.0
 40
1.0
 40
1.0
 40
1.0
 10
35.3177303162
 20
-10.0476961498
 30
0.0
 10
35.3177996647
 20
-10.0608673455
 30
0.0
 10
35.3179742468
 20
-10.0869664443
 30
0.0
 10
35.3183475095
 20
-10.1256632334
 30
0.0
 10
35.3188278145
 20
-10.1633751852
 30
0.0
 10
35.3194119594
 20
-10.1998552643
 30
0.0
 10
35.3200960519
 20
-10.2348669886
 30
0.0
 10
35.3208755225
 20
-10.2681835903
 30
0.0
 10
35.3217451138
 20
-10.2995891085
 30
0.0
 10
35.3226989318
 20
-10.3288799918
 30
0.0
 10
35.3237303128
 20
-10.3558664753
 30
0.0
 10
35.324832206
 20
-10.3803734369
 30
0.0
 10
35.3259957563
 20
-10.402243082
 30
0.0
 10
35.3272142388
 20
-10.4213310432
 30
0.0
 10
35.3284699831
 20
-10.4375230348
 30
0.0
 10
35.3297696201
 20
-10.4506912881
 30
0.0
 10
35.3310410405
 20
-10.4608214271
 30
0.0
 10
35.3323734504
 20
-10.4677180696
 30
0.0
 10
35.3333469924
 20
-10.4713669197
 30
0.0
 10
35.3340817719
 20
-10.4724698259
 30
0.0
 11
35.3177303162
 21
-10.0476961498
 31
0.0
 11
35.3179955239
 21
-10.0872093945
 31
0.0
 11
35.3183709165
 21
-10.125992361
 31
0.0
 11
35.3188540263
 21
-10.163785955
 31
0.0
 11
35.3194417201
 21
-10.2003446053
 31
0.0
 11
35.3201302003
 21
-10.2354318541
 31
0.0
 11
35.3209150099
 21
-10.268820238
 31
0.0
 11
35.3217910677
 21
-10.3002933253
 31
0.0
 11
35.3227526986
 21
-10.3296470193
 31
0.0
 11
35.3237936793
 21
-10.3566911495
 31
0.0
 11
35.3249072615
 21
-10.3812502104
 31
0.0
 11
35.3260862368
 21
-10.4031650663
 31
0.0
 11
35.3273229642
 21
-10.42229352
 31
0.0
 11
35.3286094275
 21
-10.4385114565
 31
0.0
 11
35.3299372843
 21
-10.4517136333
 31
0.0
 11
35.3312979427
 21
-10.4618145029
 31
0.0
 11
35.332682557
 21
-10.4687484116
 31
0.0
 11
35.3340817719
 21
-10.4724698259
 31
0.0
  0
SPLINE
  5
33A
100
AcDbEntity
  8
RACCORDO
100
AcDbSpline
 62
253
  6
CONTINUOUS
 70
0
 71
3
 72
10
 73
6
 74
4
 42
0.0000001
 43
0.0000001
 44
0.0000000001
 12
0.0060355961
 22
9.0950346942
 32
0.0
 13
0.0002514557
 23
9.0950366933
 33
0.0
 40
0.0
 40
0.0
 40
0.0
 40
0.0
 40
0.3333132412
 40
0.6666476321
 40
1.0
 40
1.0
 40
1.0
 40
1.0
 10
-9.0585352818
 20
1.5946591786
 30
0.0
 10
-9.0578647004
 20
2.6051576761
 30
0.0
 10
-9.0567377901
 20
4.6262189393
 30
0.0
 10
-9.0556899969
 20
7.6578976777
 30
0.0
 10
-9.0554200544
 20
9.6790778568
 30
0.0
 10
-9.0553921133
 20
10.6896951961
 30
0.0
 11
-9.0585352818
 21
1.5946591786
 31
0.0
 11
-9.0568449194
 21
4.6261548672
 31
0.0
 11
-9.0557971618
 21
7.6578432041
 31
0.0
 11
-9.0553921133
 21
10.6896951961
 31
0.0
  0
SPLINE
  5
33B
100
AcDbEntity
  8
0
100
AcDbSpline
 62
253
  6
CONTINUOUS
 70
0
 71
3
 72
23
 73
19
 74
17
 42
0.0000001
 43
0.0000001
 44
0.0000000001
 12
0.4390227135
 22
-0.2392018158
 32
0.0
 13
0.4999583399
 23
-0.0003316598
 33
0.0
 40
0.0
 40
0.0
 40
0.0
 40
0.0
 40
0.0081523609
 40
0.0253232963
 40
0.0514316938
 40
0.0862550996
 40
0.1294799961
 40
0.1807120127
 40
0.2394815728
 40
0.305248959
 40
0.3774096101
 40
0.4552998514
 40
0.5382030953
 40
0.6253564929
 40
0.7159579914
 40
0.8091737416
 40
0.9041457919
 40
1.0
 40
1.0
 40
1.0
 40
1.0
 10
-9.0585352818
 20
1.5946591786
 30
0.0
 10
-9.0573422579
 20
1.5940091588
 30
0.0
 10
-9.0529899768
 20
1.5936231936
 30
0.0
 10
-9.0445931397
 20
1.5925930668
 30
0.0
 10
-9.0315338472
 20
1.5918691669
 30
0.0
 10
-9.0142238354
 20
1.5909916334
 30
0.0
 10
-8.9926832469
 20
1.5902004448
 30
0.0
 10
-8.967162841
 20
1.5894209607
 30
0.0
 10
-8.9378782169
 20
1.5886935103
 30
0.0
 10
-8.9051053103
 20
1.5880155712
 30
0.0
 10
-8.8691437221
 20
1.5873975019
 30
0.0
 10
-8.8303251857
 20
1.5868443955
 30
0.0
 10
-8.7890069049
 20
1.5863619718
 30
0.0
 10
-8.7455693682
 20
1.5859547815
 30
0.0
 10
-8.7004125063
 20
1.5856267419
 30
0.0
 10
-8.6539521058
 20
1.5853809602
 30
0.0
 10
-8.6066159535
 20
1.5852197625
 30
0.0
 10
-8.5748142385
 20
1.5851697756
 30
0.0
 10
-8.5588398683
 20
1.5851591786
 30
0.0
 11
-9.0585352818
 21
1.5946591786
 31
0.0
 11
-9.0545625755
 21
1.5937480854
 31
0.0
 11
-9.0460254138
 21
1.5928453813
 31
0.0
 11
-9.0330024041
 21
1.591959378
 31
0.0
 11
-9.015613458
 21
1.5910982336
 31
0.0
 11
-8.9940186875
 21
1.5902698773
 31
0.0
 11
-8.9684169302
 21
1.5894819363
 31
0.0
 11
-8.9390439188
 21
1.5887416656
 31
0.0
 11
-8.9061701107
 21
1.5880558815
 31
0.0
 11
-8.8700981972
 21
1.5874308984
 31
0.0
 11
-8.8311603171
 21
1.586872471
 31
0.0
 11
-8.7897149977
 21
1.5863857411
 31
0.0
 11
-8.7461438543
 21
1.5859751904
 31
0.0
 11
-8.700848076
 21
1.585644599
 31
0.0
 11
-8.6542447317
 21
1.585397011
 31
0.0
 11
-8.6067629301
 21
1.585234706
 31
0.0
 11
-8.5588398683
 21
1.5851591786
 31
0.0
  0
SPLINE
  5
33C
100
AcDbEntity
  8
RACCORDO
100
AcDbSpline
 62
253
  6
CONTINUOUS
 70
0
 71
3
 72
10
 73
6
 74
4
 42
0.0000001
 43
0.0000001
 44
0.0000000001
 12
0.0060343306
 22
9.1022302254
 32
0.0
 13
0.0002526151
 23
9.1022322221
 33
0.0
 40
0.0
 40
0.0
 40
0.0
 40
0.0
 40
0.3333130853
 40
0.6666473209
 40
1.0
 40
1.0
 40
1.0
 40
1.0
 10
-8.5588398683
 20
1.5851591786
 30
0.0
 10
-8.5581694278
 20
2.5964566585
 30
0.0
 10
-8.5570423386
 20
4.6191159387
 30
0.0
 10
-8.5559962304
 20
7.653193187
 30
0.0
 10
-8.5557220426
 20
9.675972893
 30
0.0
 10
-8.5556939727
 20
10.6873907252
 30
0.0
 11
-8.5588398683
 21
1.5851591786
 31
0.0
 11
-8.5571497935
 21
4.6190518142
 31
0.0
 11
-8.5561020536
 21
7.6531372548
 31
0.0
 11
-8.5556939727
 21
10.6873907252
 31
0.0
  0
SPLINE
  5
33D
100
AcDbEntity
  8
RACCORDO
100
AcDbSpline
 62
253
  6
CONTINUOUS
 70
0
 71
3
 72
24
 73
20
 74
18
 42
0.0000001
 43
0.0000001
 44
0.0000000001
 12
-0.4997144696
 22
0.0000069948
 32
0.0
 13
-0.4951381098
 23
0.0674744651
 33
0.0
 40
0.0
 40
0.0
 40
0.0
 40
0.0
 40
0.0902745285
 40
0.1798119128
 40
0.2678852403
 40
0.3537729599
 40
0.4367747643
 40
0.5162146948
 40
0.5914438862
 40
0.6618488285
 40
0.7268549417
 40
0.7859326743
 40
0.8385998271
 40
0.8844269067
 40
0.9230397915
 40
0.9541242682
 40
0.9774271668
 40
0.9927589096
 40
1.0
 40
1.0
 40
1.0
 40
1.0
 10
-8.5556939727
 20
10.6873907244
 30
0.0
 10
-8.5707311354
 20
10.6873909349
 30
0.0
 10
-8.6006826739
 20
10.6873977701
 30
0.0
 10
-8.6453047091
 20
10.687427249
 30
0.0
 10
-8.6891960102
 20
10.6874756907
 30
0.0
 10
-8.7319986443
 20
10.6875426867
 30
0.0
 10
-8.7733631661
 20
10.6876276749
 30
0.0
 10
-8.8129522361
 20
10.6877299377
 30
0.0
 10
-8.8504429736
 20
10.6878485981
 30
0.0
 10
-8.8855293776
 20
10.6879826661
 30
0.0
 10
-8.9179253377
 20
10.6881308766
 30
0.0
 10
-8.9473665509
 20
10.688292232
 30
0.0
 10
-8.9736130735
 20
10.6884642202
 30
0.0
 10
-8.996450231
 20
10.6886483003
 30
0.0
 10
-9.0156931415
 20
10.6888331408
 30
0.0
 10
-9.0311810981
 20
10.6890421515
 30
0.0
 10
-9.042797649
 20
10.6892046118
 30
0.0
 10
-9.0504271577
 20
10.6894609511
 30
0.0
 10
-9.054197
 20
10.6895323221
 30
0.0
 10
-9.0553921133
 20
10.689695185
 30
0.0
 11
-8.5556939727
 21
10.6873907244
 31
0.0
 11
-8.6008054596
 21
10.6874010627
 31
0.0
 11
-8.6455485763
 21
10.6874307411
 31
0.0
 11
-8.6895600654
 21
10.6874795207
 31
0.0
 11
-8.7324793486
 21
10.6875469996
 31
0.0
 11
-8.7739564628
 21
10.6876326274
 31
0.0
 11
-8.8136536118
 21
10.6877357045
 31
0.0
 11
-8.8512465367
 21
10.6878553878
 31
0.0
 11
-8.8864286449
 21
10.687990699
 31
0.0
 11
-8.9189127948
 21
10.6881405315
 31
0.0
 11
-8.9484343419
 21
10.6883036623
 31
0.0
 11
-8.9747522978
 21
10.688478758
 31
0.0
 11
-8.9976520002
 21
10.6886643882
 31
0.0
 11
-9.0169464356
 21
10.6888590356
 31
0.0
 11
-9.0324784839
 21
10.6890611109
 31
0.0
 11
-9.0441214242
 21
10.6892689714
 31
0.0
 11
-9.0517799863
 21
10.6894808972
 31
0.0
 11
-9.0553921133
 21
10.689695185
 31
0.0
  0
SPLINE
  5
33E
100
AcDbEntity
  8
0
100
AcDbSpline
 62
253
  6
CONTINUOUS
 70
0
 71
3
 72
23
 73
19
 74
17
 42
0.0000001
 43
0.0000001
 44
0.0000000001
 12
0.1156655032
 22
-0.499983543
 32
0.0
 13
0.5131813254
 23
-0.0026417988
 33
0.0
 40
0.0
 40
0.0
 40
0.0
 40
0.0
 40
0.015923639
 40
0.0375197021
 40
0.0662667587
 40
0.1026032005
 40
0.1465356677
 40
0.1978499076
 40
0.2561916344
 40
0.3211034861
 40
0.3920453925
 40
0.4684080562
 40
0.5495234005
 40
0.6346736571
 40
0.7230998625
 40
0.8140101302
 40
0.9065878662
 40
1.0
 40
1.0
 40
1.0
 40
1.0
 10
-9.0928981356
 20
-10.0476961498
 30
0.0
 10
-9.0922841971
 20
-10.0503500023
 30
0.0
 10
-9.0886728917
 20
-10.0560243088
 30
0.0
 10
-9.0795825551
 20
-10.0629106571
 30
0.0
 10
-9.0663448664
 20
-10.0697080443
 30
0.0
 10
-9.0488759303
 20
-10.0762988849
 30
0.0
 10
-9.0272758594
 20
-10.0826819814
 30
0.0
 10
-9.0017080023
 20
-10.0887688962
 30
0.0
 10
-8.9723951675
 20
-10.0945030037
 30
0.0
 10
-8.93959963
 20
-10.0998235024
 30
0.0
 10
-8.9036197343
 20
-10.1046782888
 30
0.0
 10
-8.8647845826
 20
-10.1090197289
 30
0.0
 10
-8.8234505286
 20
-10.1128060312
 30
0.0
 10
-8.7799974186
 20
-10.1160009757
 30
0.0
 10
-8.7348249274
 20
-10.1185742086
 30
0.0
 10
-8.6883487009
 20
-10.1205013827
 30
0.0
 10
-8.6409966612
 20
-10.1217643264
 30
0.0
 10
-8.609181843
 20
-10.1221549823
 30
0.0
 10
-8.5932027221
 20
-10.122237241
 30
0.0
 11
-9.0928981356
 21
-10.0476961498
 31
0.0
 11
-9.0889422783
 21
-10.0548466655
 31
0.0
 11
-9.0804195298
 21
-10.0619313087
 31
0.0
 11
-9.067408404
 21
-10.0688848136
 31
0.0
 11
-9.050028763
 21
-10.0756431227
 31
0.0
 11
-9.028440713
 21
-10.0821439764
 31
0.0
 11
-9.0028431291
 21
-10.0883274871
 31
0.0
 11
-8.9734718233
 21
-10.0941366906
 31
0.0
 11
-8.9405973724
 21
-10.0995180709
 31
0.0
 11
-8.904522625
 21
-10.1044220532
 31
0.0
 11
-8.8655799116
 21
-10.1088034606
 31
0.0
 11
-8.8241279836
 21
-10.1126219303
 31
0.0
 11
-8.7805487075
 21
-10.1158422857
 31
0.0
 11
-8.7352435479
 21
-10.1184348598
 31
0.0
 11
-8.6886298686
 21
-10.1203757692
 31
0.0
 11
-8.6411370877
 21
-10.1216471336
 31
0.0
 11
-8.5932027221
 21
-10.122237241
 31
0.0
  0
SPLINE
  5
33F
100
AcDbEntity
  8
0
100
AcDbSpline
 62
253
  6
CONTINUOUS
 70
0
 71
3
 72
24
 73
20
 74
18
 42
0.0000001
 43
0.0000001
 44
0.0000000001
 12
0.2685899298
 22
0.8063822775
 32
0.0
 13
0.0022370123
 23
0.8499340702
 33
0.0
 40
0.0
 40
0.0
 40
0.0
 40
0.0
 40
0.0089137456
 40
0.0253125474
 40
0.0491359441
 40
0.0802419731
 40
0.1184347082
 40
0.163469248
 40
0.215055175
 40
0.2728589497
 40
0.3365068628
 40
0.4055864992
 40
0.47965089
 40
0.558220232
 40
0.6407855899
 40
0.7268120383
 40
0.815743447
 40
0.9070022571
 40
1.0
 40
1.0
 40
1.0
 40
1.0
 10
-8.6095541778
 20
-10.9717845933
 30
0.0
 10
-8.6087561304
 20
-10.9693886311
 30
0.0
 10
-8.6078716533
 20
-10.9622067602
 30
0.0
 10
-8.6064894893
 20
-10.9483969297
 30
0.0
 10
-8.6052482164
 20
-10.9282028829
 30
0.0
 10
-8.6039383385
 20
-10.9018615491
 30
0.0
 10
-8.6026870634
 20
-10.8694898181
 30
0.0
 10
-8.6014674129
 20
-10.8313160507
 30
0.0
 10
-8.6003044605
 20
-10.7875806552
 30
0.0
 10
-8.5992025183
 20
-10.7385693693
 30
0.0
 10
-8.5981712528
 20
-10.684599221
 30
0.0
 10
-8.5972174749
 20
-10.626020223
 30
0.0
 10
-8.5963479268
 20
-10.5632120509
 30
0.0
 10
-8.5955684872
 20
-10.4965817609
 30
0.0
 10
-8.5948844083
 20
-10.4265612599
 30
0.0
 10
-8.5943002876
 20
-10.3536040593
 30
0.0
 10
-8.5938199606
 20
-10.2781830903
 30
0.0
 10
-8.5934467025
 20
-10.2007864421
 30
0.0
 10
-8.5932720678
 20
-10.1485845577
 30
0.0
 10
-8.5932027221
 20
-10.122237241
 30
0.0
 11
-8.6095541778
 21
-10.9717845933
 31
0.0
 11
-8.6081545831
 21
-10.9643388721
 31
0.0
 11
-8.6067700588
 21
-10.9504698597
 31
0.0
 11
-8.6054094201
 21
-10.9302672405
 31
0.0
 11
-8.6040816146
 21
-10.9038624393
 31
0.0
 11
-8.6027951909
 21
-10.8714265201
 31
0.0
 11
-8.6015585062
 21
-10.8331699813
 31
0.0
 11
-8.6003795706
 21
-10.7893410455
 31
0.0
 11
-8.599266026
 21
-10.7402240989
 31
0.0
 11
-8.5982250794
 21
-10.6861373978
 31
0.0
 11
-8.5972634788
 21
-10.6274319329
 31
0.0
 11
-8.5963874457
 21
-10.5644879616
 31
0.0
 11
-8.5956026554
 21
-10.4977135813
 31
0.0
 11
-8.5949141858
 21
-10.4275416048
 31
0.0
 11
-8.5943265015
 21
-10.3544269039
 31
0.0
 11
-8.5938433828
 21
-10.2788423519
 31
0.0
 11
-8.5934679952
 21
-10.2012790197
 31
0.0
 11
-8.5932027221
 21
-10.122237241
 31
0.0
  0
SPLINE
  5
340
100
AcDbEntity
  8
0
100
AcDbSpline
 62
253
  6
CONTINUOUS
 70
0
 71
3
 72
24
 73
20
 74
18
 42
0.0000001
 43
0.0000001
 44
0.0000000001
 12
0.2359406643
 22
0.3541476739
 32
0.0
 13
0.0022405343
 23
0.425539131
 33
0.0
 40
0.0
 40
0.0
 40
0.0
 40
0.0
 40
0.0093427655
 40
0.0259586392
 40
0.0499093424
 40
0.0810900281
 40
0.1193207176
 40
0.1643650495
 40
0.2159378438
 40
0.2737091555
 40
0.3373079655
 40
0.4063240255
 40
0.4803121476
 40
0.5587941037
 40
0.6412624686
 40
0.7271837488
 40
0.8160032134
 40
0.907144645
 40
1.0
 40
1.0
 40
1.0
 40
1.0
 10
-9.1092495913
 20
-10.4724698259
 30
0.0
 10
-9.1085148119
 20
-10.4713669197
 30
0.0
 10
-9.1075412698
 20
-10.4677180696
 30
0.0
 10
-9.1062088599
 20
-10.4608214271
 30
0.0
 10
-9.1049374395
 20
-10.4506912881
 30
0.0
 10
-9.1036378026
 20
-10.4375230348
 30
0.0
 10
-9.1023820583
 20
-10.4213310432
 30
0.0
 10
-9.1011635758
 20
-10.402243082
 30
0.0
 10
-9.1000000255
 20
-10.3803734369
 30
0.0
 10
-9.0988981323
 20
-10.3558664753
 30
0.0
 10
-9.0978667512
 20
-10.3288799918
 30
0.0
 10
-9.0969129333
 20
-10.2995891085
 30
0.0
 10
-9.096043342
 20
-10.2681835903
 30
0.0
 10
-9.0952638713
 20
-10.2348669886
 30
0.0
 10
-9.0945797788
 20
-10.1998552643
 30
0.0
 10
-9.0939956339
 20
-10.1633751852
 30
0.0
 10
-9.0935153289
 20
-10.1256632334
 30
0.0
 10
-9.0931420663
 20
-10.0869664443
 30
0.0
 10
-9.0929674842
 20
-10.0608673455
 30
0.0
 10
-9.0928981356
 20
-10.0476961498
 30
0.0
 11
-9.1092495913
 21
-10.4724698259
 31
0.0
 11
-9.1078503765
 21
-10.4687484116
 31
0.0
 11
-9.1064657621
 21
-10.4618145029
 31
0.0
 11
-9.1051051038
 21
-10.4517136333
 31
0.0
 11
-9.1037772469
 21
-10.4385114565
 31
0.0
 11
-9.1024907836
 21
-10.42229352
 31
0.0
 11
-9.1012540562
 21
-10.4031650663
 31
0.0
 11
-9.1000750809
 21
-10.3812502104
 31
0.0
 11
-9.0989614988
 21
-10.3566911495
 31
0.0
 11
-9.097920518
 21
-10.3296470193
 31
0.0
 11
-9.0969588871
 21
-10.3002933253
 31
0.0
 11
-9.0960828293
 21
-10.268820238
 31
0.0
 11
-9.0952980198
 21
-10.2354318541
 31
0.0
 11
-9.0946095396
 21
-10.2003446053
 31
0.0
 11
-9.0940218458
 21
-10.163785955
 31
0.0
 11
-9.093538736
 21
-10.125992361
 31
0.0
 11
-9.0931633433
 21
-10.0872093945
 31
0.0
 11
-9.0928981356
 21
-10.0476961498
 31
0.0
  0
SPLINE
  5
341
100
AcDbEntity
  8
RACCORDO
100
AcDbSpline
 62
253
  6
CONTINUOUS
 70
0
 71
3
 72
24
 73
20
 74
18
 42
0.0000001
 43
0.0000001
 44
0.0000000001
 12
-0.2498750154
 22
0.0000000277
 32
0.0
 13
-0.2424250812
 23
0.0605607405
 33
0.0
 40
0.0
 40
0.0
 40
0.0
 40
0.0
 40
0.0902519062
 40
0.1797846795
 40
0.2678529052
 40
0.3537361738
 40
0.4367339978
 40
0.5161705145
 40
0.5913968937
 40
0.6617996696
 40
0.7268041989
 40
0.7858808583
 40
0.8385476229
 40
0.8843752391
 40
0.9229899153
 40
0.9540780319
 40
0.9773873145
 40
0.9927312008
 40
1.0
 40
1.0
 40
1.0
 40
1.0
 10
-8.5556966559
 20
10.9375800904
 30
0.0
 10
-8.563213888
 20
10.9375800912
 30
0.0
 10
-8.5781884552
 20
10.9375859719
 30
0.0
 10
-8.6004983581
 20
10.9376124075
 30
0.0
 10
-8.622444362
 20
10.9376562244
 30
0.0
 10
-8.6438460165
 20
10.9377170564
 30
0.0
 10
-8.6645286638
 20
10.9377943911
 30
0.0
 10
-8.6843236062
 20
10.9378875786
 30
0.0
 10
-8.7030693949
 20
10.9379958209
 30
0.0
 10
-8.7206130005
 20
10.9381182154
 30
0.0
 10
-8.7368113484
 20
10.9382536138
 30
0.0
 10
-8.7515322079
 20
10.9384010893
 30
0.0
 10
-8.7646557634
 20
10.9385584016
 30
0.0
 10
-8.7760741866
 20
10.9387267175
 30
0.0
 10
-8.7856965681
 20
10.9388961744
 30
0.0
 10
-8.7934384353
 20
10.9390867868
 30
0.0
 10
-8.7992525047
 20
10.939237458
 30
0.0
 10
-8.8030579212
 20
10.9394687275
 30
0.0
 10
-8.80495693
 20
10.939538918
 30
0.0
 10
-8.8055443098
 20
10.9396856526
 30
0.0
 11
-8.5556966559
 21
10.9375800904
 31
0.0
 11
-8.5782483506
 21
10.937588985
 31
0.0
 11
-8.6006203378
 21
10.9376156034
 31
0.0
 11
-8.6226263428
 21
10.9376597289
 31
0.0
 11
-8.6440863384
 21
10.9377210015
 31
0.0
 11
-8.6648252746
 21
10.9377989212
 31
0.0
 11
-8.6846742532
 21
10.9378928537
 31
0.0
 11
-8.7034711287
 21
10.9380020321
 31
0.0
 11
-8.7210625897
 21
10.938125566
 31
0.0
 11
-8.7373050207
 21
10.9382624468
 31
0.0
 11
-8.7520660487
 21
10.938411559
 31
0.0
 11
-8.7652251832
 21
10.9385716856
 31
0.0
 11
-8.7766751
 21
10.9387415205
 31
0.0
 11
-8.7863222979
 21
10.9389196763
 31
0.0
 11
-8.7940882377
 21
10.9391047021
 31
0.0
 11
-8.7999095325
 21
10.9392950887
 31
0.0
 11
-8.8037386655
 21
10.9394892784
 31
0.0
 11
-8.8055443098
 21
10.9396856526
 31
0.0
  0
SPLINE
  5
342
100
AcDbEntity
  8
RACCORDO
100
AcDbSpline
 62
253
  6
CONTINUOUS
 70
0
 71
3
 72
24
 73
20
 74
18
 42
0.0000001
 43
0.0000001
 44
0.0000000001
 12
-0.2424250813
 22
-0.0605607403
 32
0.0
 13
-0.2498750154
 23
-0.0000000277
 33
0.0
 40
0.0
 40
0.0
 40
0.0
 40
0.0
 40
0.0072687992
 40
0.0226126855
 40
0.0459219681
 40
0.0770100847
 40
0.1156247608
 40
0.1614523771
 40
0.2141191417
 40
0.2731958011
 40
0.3382003304
 40
0.4086031063
 40
0.4838294855
 40
0.5632660021
 40
0.6462638261
 40
0.7321470947
 40
0.8202153205
 40
0.9097480937
 40
1.0
 40
1.0
 40
1.0
 40
1.0
 10
35.0303764903
 20
10.9396856526
 30
0.0
 10
35.0297891106
 20
10.939538918
 30
0.0
 10
35.0278901018
 20
10.9394687275
 30
0.0
 10
35.0240846853
 20
10.939237458
 30
0.0
 10
35.0182706158
 20
10.9390867868
 30
0.0
 10
35.0105287487
 20
10.9388961744
 30
0.0
 10
35.0009063672
 20
10.9387267175
 30
0.0
 10
34.989487944
 20
10.9385584016
 30
0.0
 10
34.9763643884
 20
10.9384010893
 30
0.0
 10
34.961643529
 20
10.9382536138
 30
0.0
 10
34.945445181
 20
10.9381182154
 30
0.0
 10
34.9279015755
 20
10.9379958209
 30
0.0
 10
34.9091557867
 20
10.9378875786
 30
0.0
 10
34.8893608444
 20
10.9377943911
 30
0.0
 10
34.8686781971
 20
10.9377170564
 30
0.0
 10
34.8472765426
 20
10.9376562244
 30
0.0
 10
34.8253305387
 20
10.9376124075
 30
0.0
 10
34.8030206358
 20
10.9375859719
 30
0.0
 10
34.7880460686
 20
10.9375800912
 30
0.0
 10
34.7805288364
 20
10.9375800904
 30
0.0
 11
35.0303764903
 21
10.9396856526
 31
0.0
 11
35.0285708461
 21
10.9394892784
 31
0.0
 11
35.0247417131
 21
10.9392950887
 31
0.0
 11
35.0189204182
 21
10.9391047021
 31
0.0
 11
35.0111544785
 21
10.9389196763
 31
0.0
 11
35.0015072805
 21
10.9387415205
 31
0.0
 11
34.9900573637
 21
10.9385716856
 31
0.0
 11
34.9768982293
 21
10.938411559
 31
0.0
 11
34.9621372013
 21
10.9382624468
 31
0.0
 11
34.9458947703
 21
10.938125566
 31
0.0
 11
34.9283033093
 21
10.9380020321
 31
0.0
 11
34.9095064337
 21
10.9378928537
 31
0.0
 11
34.8896574552
 21
10.9377989212
 31
0.0
 11
34.868918519
 21
10.9377210015
 31
0.0
 11
34.8474585234
 21
10.9376597289
 31
0.0
 11
34.8254525184
 21
10.9376156034
 31
0.0
 11
34.8030805311
 21
10.937588985
 31
0.0
 11
34.7805288364
 21
10.9375800904
 31
0.0
  0
LINE
  5
343
100
AcDbEntity
  8
ASSI
100
AcDbLine
 62
7
  6
CONTINUOUS
 10
17.6624160903
 20
7.286667414
 11
17.6624160902
 21
7.052828964
  0
LINE
  5
344
100
AcDbEntity
  8
ASSI
100
AcDbLine
 62
7
  6
CONTINUOUS
 10
17.6624160902
 20
7.052828964
 11
17.6624160902
 21
6.818991396
  0
LINE
  5
345
100
AcDbEntity
  8
ASSI
100
AcDbLine
 62
7
  6
CONTINUOUS
 10
17.6624160902
 20
6.818991396
 11
17.6624160902
 21
6.5851547611
  0
LINE
  5
346
100
AcDbEntity
  8
ASSI
100
AcDbLine
 62
7
  6
CONTINUOUS
 10
17.6624160902
 20
6.5851547611
 11
17.6624160902
 21
6.3513191106
  0
LINE
  5
347
100
AcDbEntity
  8
ASSI
100
AcDbLine
 62
7
  6
CONTINUOUS
 10
17.6624160902
 20
6.3513191106
 11
17.6624160902
 21
6.1174844956
  0
LINE
  5
348
100
AcDbEntity
  8
ASSI
100
AcDbLine
 62
7
  6
CONTINUOUS
 10
17.6624160902
 20
6.1174844956
 11
17.6624160903
 21
5.8836509671
  0
LINE
  5
349
100
AcDbEntity
  8
ASSI
100
AcDbLine
 62
7
  6
CONTINUOUS
 10
8.5624160903
 20
5.8836509671
 11
8.5624160903
 21
7.286667414
  0
SPLINE
  5
34A
100
AcDbEntity
  8
ASSI
100
AcDbSpline
 62
7
  6
CONTINUOUS
 70
0
 71
3
 72
23
 73
19
 74
17
 42
0.0000001
 43
0.0000001
 44
0.0000000001
 12
-0.6256304749
 22
0.0
 32
0.0
 13
0.0
 23
0.6256304749
 33
0.0
 40
0.0
 40
0.0
 40
0.0
 40
0.0
 40
0.0625348873
 40
0.125302776
 40
0.1879610843
 40
0.2502495145
 40
0.3125069208
 40
0.3750288287
 40
0.4375113249
 40
0.4996701031
 40
0.5618372342
 40
0.6243553179
 40
0.6869429983
 40
0.7492898499
 40
0.811675364
 40
0.8744418063
 40
0.9373328547
 40
1.0
 40
1.0
 40
1.0
 40
1.0
 10
8.9605175467
 20
5.4851591786
 30
0.0
 10
8.947476303
 20
5.4851591786
 30
0.0
 10
8.9213272232
 20
5.4864356148
 30
0.0
 10
8.882491224
 20
5.4921781756
 30
0.0
 10
8.8444526106
 20
5.5016933582
 30
0.0
 10
8.8076315462
 20
5.5148543025
 30
0.0
 10
8.7723004192
 20
5.5315431083
 30
0.0
 10
8.7387429692
 20
5.5516410112
 30
0.0
 10
8.7073434444
 20
5.5749323928
 30
0.0
 10
8.6784382273
 20
5.601144274
 30
0.0
 10
8.6522342774
 20
5.6300666831
 30
0.0
 10
8.6289425635
 20
5.661494442
 30
0.0
 10
8.6088372806
 20
5.6950938707
 30
0.0
 10
8.5921382658
 20
5.7304783933
 30
0.0
 10
8.5789671931
 20
5.767361097
 30
0.0
 10
8.5694431951
 20
5.8054680928
 30
0.0
 10
8.5636941436
 20
5.8443797863
 30
0.0
 10
8.5624160903
 20
5.8705821418
 30
0.0
 10
8.5624160903
 20
5.8836509671
 30
0.0
 11
8.9605175467
 21
5.4851591786
 31
0.0
 11
8.9214404484
 21
5.4870688201
 31
0.0
 11
8.8825934928
 21
5.4928140779
 31
0.0
 11
8.8445646588
 21
5.5023283853
 31
0.0
 11
8.8078690924
 21
5.5154455673
 31
0.0
 11
8.77265067
 21
5.5320821356
 31
0.0
 11
8.7390934949
 21
5.552180569
 31
0.0
 11
8.7076973795
 21
5.5754697639
 31
0.0
 11
8.6788897308
 21
5.6015931068
 31
0.0
 11
8.6527754651
 21
5.6304160366
 31
0.0
 11
8.629486009
 21
5.6618396755
 31
0.0
 11
8.6093792213
 21
5.6954398089
 31
0.0
 11
8.5927307326
 21
5.7307144869
 31
0.0
 11
8.5796034127
 21
5.7674709304
 31
0.0
 11
8.5700803302
 21
5.8055673052
 31
0.0
 11
8.5643283148
 21
5.8444911517
 31
0.0
 11
8.5624160903
 21
5.8836509671
 31
0.0
  0
SPLINE
  5
34B
100
AcDbEntity
  8
ASSI
100
AcDbSpline
 62
7
  6
CONTINUOUS
 70
0
 71
3
 72
23
 73
19
 74
17
 42
0.0000001
 43
0.0000001
 44
0.0000000001
 12
-0.0
 22
0.6260794102
 32
0.0
 13
0.6260794102
 23
0.0
 33
0.0
 40
0.0
 40
0.0
 40
0.0
 40
0.0
 40
0.0625064794
 40
0.125265243
 40
0.1879314833
 40
0.2502417825
 40
0.3125316189
 40
0.3750924245
 40
0.4376158557
 40
0.4998130445
 40
0.5620138933
 40
0.624555553
 40
0.6871533927
 40
0.7494944038
 40
0.8118588393
 40
0.874584964
 40
0.9374149203
 40
1.0
 40
1.0
 40
1.0
 40
1.0
 10
8.5624160903
 20
7.286667414
 30
0.0
 10
8.5624160903
 20
7.2997120873
 30
0.0
 10
8.5636937196
 20
7.3258720881
 30
0.0
 10
8.5694411996
 20
7.3647295952
 30
0.0
 10
8.5789660821
 20
7.4027992389
 30
0.0
 10
8.5921423103
 20
7.4396584343
 30
0.0
 10
8.6088521935
 20
7.4750321307
 30
0.0
 10
8.6289764985
 20
7.5086337996
 30
0.0
 10
8.6522983475
 20
7.5400763818
 30
0.0
 10
8.6785431574
 20
7.5690213903
 30
0.0
 10
8.7074988509
 20
7.595260064
 30
0.0
 10
8.7389579443
 20
7.6185802806
 30
0.0
 10
8.7725839857
 20
7.6387071364
 30
0.0
 10
8.8079885512
 20
7.6554212522
 30
0.0
 10
8.844882858
 20
7.668601657
 30
0.0
 10
8.8829913854
 20
7.6781303118
 30
0.0
 10
8.9218926781
 20
7.6838807946
 30
0.0
 10
8.948083943
 20
7.6851591786
 30
0.0
 10
8.9611450196
 20
7.6851591786
 30
0.0
 11
8.5624160903
 21
7.286667414
 31
0.0
 11
8.5643269125
 21
7.3257547555
 31
0.0
 11
8.5700768798
 21
7.3646237246
 31
0.0
 11
8.5796008106
 21
7.4026842665
 31
0.0
 11
8.5927333004
 21
7.4394185976
 31
0.0
 11
8.6093911512
 21
7.4746803326
 31
0.0
 11
8.6295163996
 21
7.5082825518
 31
0.0
 11
8.6528366201
 21
7.5397224882
 31
0.0
 11
8.678993177
 21
7.5685701514
 31
0.0
 11
8.7078502422
 21
7.5947197478
 31
0.0
 11
8.7393058603
 21
7.6180379806
 31
0.0
 11
8.7729331799
 21
7.6381664429
 31
0.0
 11
8.808227794
 21
7.6548297008
 31
0.0
 11
8.8449966353
 21
7.66796634
 31
0.0
 11
8.8830949209
 21
7.6774938844
 31
0.0
 11
8.9220084727
 21
7.6832470595
 31
0.0
 11
8.9611450196
 21
7.6851591786
 31
0.0
  0
SPLINE
  5
34C
100
AcDbEntity
  8
ASSI
100
AcDbSpline
 62
7
  6
CONTINUOUS
 70
0
 71
3
 72
23
 73
19
 74
17
 42
0.0000001
 43
0.0000001
 44
0.0000000001
 12
0.0
 22
-0.6256304749
 32
0.0
 13
-0.6256304749
 23
0.0
 33
0.0
 40
0.0
 40
0.0
 40
0.0
 40
0.0
 40
0.0626702289
 40
0.1255649537
 40
0.1883377991
 40
0.2507257318
 40
0.3130696196
 40
0.3756555984
 40
0.4381764296
 40
0.5003456957
 40
0.5625023603
 40
0.6249821737
 40
0.6875058217
 40
0.7497661681
 40
0.8120520785
 40
0.8747039402
 40
0.9374681374
 40
1.0
 40
1.0
 40
1.0
 40
1.0
 10
17.6624160903
 20
5.8836509671
 30
0.0
 10
17.6624160903
 20
5.8705814988
 30
0.0
 10
17.661137905
 20
5.8443777307
 30
0.0
 10
17.6553881515
 20
5.8054633551
 30
0.0
 10
17.6458629227
 20
5.7673539615
 30
0.0
 10
17.6326906041
 20
5.7304703982
 30
0.0
 10
17.6159910073
 20
5.6950866765
 30
0.0
 10
17.5958853092
 20
5.6614879676
 30
0.0
 10
17.5725925866
 20
5.6300601215
 30
0.0
 10
17.5463875723
 20
5.6011378899
 30
0.0
 10
17.5174821601
 20
5.5749270585
 30
0.0
 10
17.4860826989
 20
5.5516366729
 30
0.0
 10
17.4525245112
 20
5.5315391822
 30
0.0
 10
17.4171925962
 20
5.5148509726
 30
0.0
 10
17.3803724231
 20
5.5016912898
 30
0.0
 10
17.34233624
 20
5.4921773459
 30
0.0
 10
17.3035029232
 20
5.4864354844
 30
0.0
 10
17.2773552468
 20
5.4851591786
 30
0.0
 10
17.2643146338
 20
5.4851591786
 30
0.0
 11
17.6624160903
 21
5.8836509671
 31
0.0
 11
17.6605036775
 21
5.8444892293
 31
0.0
 11
17.6547510263
 21
5.8055631518
 31
0.0
 11
17.6452263777
 21
5.7674630392
 31
0.0
 11
17.6320977192
 21
5.7307054671
 31
0.0
 11
17.6154492396
 21
5.6954328352
 31
0.0
 11
17.5953423755
 21
5.6618339881
 31
0.0
 11
17.5720512865
 21
5.6304094199
 31
0.0
 11
17.5459354536
 21
5.6015861077
 31
0.0
 11
17.5171281762
 21
5.5754643239
 31
0.0
 11
17.4857329548
 21
5.5521767408
 31
0.0
 11
17.4521744693
 21
5.5320783768
 31
0.0
 11
17.416954011
 21
5.5154418118
 31
0.0
 11
17.3802596313
 21
5.5023259935
 31
0.0
 11
17.3422345614
 21
5.4928132586
 31
0.0
 11
17.3033898466
 21
5.4870686353
 31
0.0
 11
17.2643146338
 21
5.4851591786
 31
0.0
  0
SPLINE
  5
34D
100
AcDbEntity
  8
ASSI
100
AcDbSpline
 62
7
  6
CONTINUOUS
 70
0
 71
3
 72
23
 73
19
 74
17
 42
0.0000001
 43
0.0000001
 44
0.0000000001
 12
0.6260794102
 22
0.0
 32
0.0
 13
-0.0
 23
-0.6260794102
 33
0.0
 40
0.0
 40
0.0
 40
0.0
 40
0.0
 40
0.0625881422
 40
0.1254217627
 40
0.1881542833
 40
0.2505211627
 40
0.3128592232
 40
0.3754553554
 40
0.4379997474
 40
0.5002027209
 40
0.5623977915
 40
0.6249185204
 40
0.6874810527
 40
0.7497738282
 40
0.8120816345
 40
0.8747414598
 40
0.937496554
 40
1.0
 40
1.0
 40
1.0
 40
1.0
 10
17.263687161
 20
7.6851591786
 30
0.0
 10
17.2767488767
 20
7.6851591786
 30
0.0
 10
17.3029415482
 20
7.6838806632
 30
0.0
 10
17.3418455167
 20
7.6781294805
 30
0.0
 10
17.3799564451
 20
7.6685995954
 30
0.0
 10
17.4168516188
 20
7.6554179431
 30
0.0
 10
17.452255389
 20
7.6387032426
 30
0.0
 10
17.4858807088
 20
7.6185759725
 30
0.0
 10
17.5173398848
 20
7.5952547514
 30
0.0
 10
17.5462953972
 20
7.5690150182
 30
0.0
 10
17.5725391535
 20
7.5400698214
 30
0.0
 10
17.5958600038
 20
7.5086273112
 30
0.0
 10
17.6159838962
 20
7.4750249123
 30
0.0
 10
17.632693188
 20
7.4396504269
 30
0.0
 10
17.6458681614
 20
7.4027921134
 30
0.0
 10
17.6553918101
 20
7.3647248855
 30
0.0
 10
17.6611385916
 20
7.3258700534
 30
0.0
 10
17.6624160903
 20
7.2997114542
 30
0.0
 10
17.6624160903
 20
7.286667414
 30
0.0
 11
17.263687161
 21
7.6851591786
 31
0.0
 11
17.3028256184
 21
7.6832468723
 31
0.0
 11
17.3417413954
 21
7.6774930635
 31
0.0
 11
17.3798434175
 21
7.6679639546
 31
0.0
 11
17.4166134035
 21
7.654825972
 31
0.0
 11
17.4519059778
 21
7.6381627203
 31
0.0
 11
17.4855320071
 21
7.618034184
 31
0.0
 11
17.5169885481
 21
7.5947143236
 31
0.0
 11
17.5458459923
 21
7.5685631645
 31
0.0
 11
17.572000989
 21
7.5397158768
 31
0.0
 11
17.5953195917
 21
7.5082768468
 31
0.0
 11
17.6154447699
 21
7.4746733256
 31
0.0
 11
17.6321026213
 21
7.4394095556
 31
0.0
 11
17.6452337557
 21
7.4026763975
 31
0.0
 11
17.6547561191
 21
7.3646196035
 31
0.0
 11
17.6605054536
 21
7.3257528631
 31
0.0
 11
17.6624160903
 21
7.286667414
 31
0.0
  0
SPLINE
  5
34E
100
AcDbEntity
  8
ASSI
100
AcDbSpline
 62
253
  6
CONTINUOUS
 70
0
 71
3
 72
23
 73
19
 74
17
 42
0.0000001
 43
0.0000001
 44
0.0000000001
 12
-0.4390227157
 22
-0.2392018116
 32
0.0
 13
-0.4999583399
 23
-0.0003316598
 33
0.0
 40
0.0
 40
0.0
 40
0.0
 40
0.0
 40
0.008152361
 40
0.0253232964
 40
0.051431694
 40
0.0862550999
 40
0.1294799963
 40
0.180712013
 40
0.2394815731
 40
0.3052489593
 40
0.3774096104
 40
0.4552998516
 40
0.5382030955
 40
0.6253564931
 40
0.7159579915
 40
0.8091737417
 40
0.9041457919
 40
1.0
 40
1.0
 40
1.0
 40
1.0
 10
35.2833674623
 20
1.5946591786
 30
0.0
 10
35.2821744384
 20
1.5940091588
 30
0.0
 10
35.2778221573
 20
1.5936231936
 30
0.0
 10
35.2694253202
 20
1.5925930668
 30
0.0
 10
35.2563660276
 20
1.5918691669
 30
0.0
 10
35.2390560158
 20
1.5909916334
 30
0.0
 10
35.2175154274
 20
1.5902004449
 30
0.0
 10
35.1919950214
 20
1.5894209607
 30
0.0
 10
35.1627103973
 20
1.5886935103
 30
0.0
 10
35.1299374907
 20
1.5880155712
 30
0.0
 10
35.0939759026
 20
1.5873975019
 30
0.0
 10
35.0551573661
 20
1.5868443955
 30
0.0
 10
35.0138390853
 20
1.5863619718
 30
0.0
 10
34.9704015487
 20
1.5859547815
 30
0.0
 10
34.9252446868
 20
1.585626742
 30
0.0
 10
34.8787842863
 20
1.5853809602
 30
0.0
 10
34.8314481341
 20
1.5852197625
 30
0.0
 10
34.7996464191
 20
1.5851697756
 30
0.0
 10
34.7836720488
 20
1.5851591786
 30
0.0
 11
35.2833674623
 21
1.5946591786
 31
0.0
 11
35.279394756
 21
1.5937480854
 31
0.0
 11
35.2708575943
 21
1.5928453813
 31
0.0
 11
35.2578345845
 21
1.591959378
 31
0.0
 11
35.2404456385
 21
1.5910982336
 31
0.0
 11
35.2188508679
 21
1.5902698773
 31
0.0
 11
35.1932491106
 21
1.5894819363
 31
0.0
 11
35.1638760992
 21
1.5887416656
 31
0.0
 11
35.1310022911
 21
1.5880558815
 31
0.0
 11
35.0949303777
 21
1.5874308984
 31
0.0
 11
35.0559924975
 21
1.586872471
 31
0.0
 11
35.0145471782
 21
1.5863857411
 31
0.0
 11
34.9709760348
 21
1.5859751904
 31
0.0
 11
34.9256802565
 21
1.585644599
 31
0.0
 11
34.8790769122
 21
1.585397011
 31
0.0
 11
34.8315951106
 21
1.585234706
 31
0.0
 11
34.7836720488
 21
1.5851591786
 31
0.0
  0
SPLINE
  5
34F
100
AcDbEntity
  8
ASSI
100
AcDbSpline
 62
253
  6
CONTINUOUS
 70
0
 71
3
 72
23
 73
19
 74
17
 42
0.0000001
 43
0.0000001
 44
0.0000000001
 12
-0.1156656166
 22
-0.4999835144
 32
0.0
 13
-0.5131813232
 23
-0.0026417985
 33
0.0
 40
0.0
 40
0.0
 40
0.0
 40
0.0
 40
0.0159236402
 40
0.037519705
 40
0.0662667634
 40
0.1026032067
 40
0.1465356752
 40
0.197849916
 40
0.2561916431
 40
0.3211034949
 40
0.3920454012
 40
0.4684080643
 40
0.5495234077
 40
0.6346736632
 40
0.7230998673
 40
0.8140101335
 40
0.9065878679
 40
1.0
 40
1.0
 40
1.0
 40
1.0
 10
35.3177303162
 20
-10.0476961498
 30
0.0
 10
35.317116377
 20
-10.0503500023
 30
0.0
 10
35.3135050704
 20
-10.0560243086
 30
0.0
 10
35.3044147327
 20
-10.0629106566
 30
0.0
 10
35.291177043
 20
-10.0697080435
 30
0.0
 10
35.273708106
 20
-10.0762988838
 30
0.0
 10
35.2521080345
 20
-10.08268198
 30
0.0
 10
35.226540177
 20
-10.0887688946
 30
0.0
 10
35.197227342
 20
-10.0945030018
 30
0.0
 10
35.1644318046
 20
-10.0998235002
 30
0.0
 10
35.1284519092
 20
-10.1046782864
 30
0.0
 10
35.0896167579
 20
-10.1090197263
 30
0.0
 10
35.0482827046
 20
-10.1128060284
 30
0.0
 10
35.0048295953
 20
-10.1160009727
 30
0.0
 10
34.9596571049
 20
-10.1185742054
 30
0.0
 10
34.9131808793
 20
-10.1205013794
 30
0.0
 10
34.8658288407
 20
-10.1217643231
 30
0.0
 10
34.8340140232
 20
-10.1221549789
 30
0.0
 10
34.8180349027
 20
-10.1222372375
 30
0.0
 11
35.3177303162
 21
-10.0476961498
 31
0.0
 11
35.3137744573
 21
-10.0548466653
 31
0.0
 11
35.3052517075
 21
-10.0619313082
 31
0.0
 11
35.2922405806
 21
-10.0688848129
 31
0.0
 11
35.2748609387
 21
-10.0756431217
 31
0.0
 11
35.2532728881
 21
-10.0821439751
 31
0.0
 11
35.2276753037
 21
-10.0883274856
 31
0.0
 11
35.1983039978
 21
-10.0941366888
 31
0.0
 11
35.1654295469
 21
-10.0995180688
 31
0.0
 11
35.1293547998
 21
-10.1044220508
 31
0.0
 11
35.0904120869
 21
-10.108803458
 31
0.0
 11
35.0489601594
 21
-10.1126219275
 31
0.0
 11
35.0053808841
 21
-10.1158422827
 31
0.0
 11
34.9600757254
 21
-10.1184348567
 31
0.0
 11
34.9134620471
 21
-10.1203757659
 31
0.0
 11
34.8659692672
 21
-10.1216471303
 31
0.0
 11
34.8180349027
 21
-10.1222372375
 31
0.0
  0
SPLINE
  5
350
100
AcDbEntity
  8
ASSI
100
AcDbSpline
 62
253
  6
CONTINUOUS
 70
0
 71
3
 72
24
 73
20
 74
18
 42
0.0000001
 43
0.0000001
 44
0.0000000001
 12
0.0022370123
 22
-0.8499340702
 32
0.0
 13
0.2685899292
 23
-0.8063822777
 33
0.0
 40
0.0
 40
0.0
 40
0.0
 40
0.0
 40
0.0929977429
 40
0.184256553
 40
0.2731879617
 40
0.3592144101
 40
0.441779768
 40
0.52034911
 40
0.5944135008
 40
0.6634931372
 40
0.7271410503
 40
0.784944825
 40
0.836530752
 40
0.8815652918
 40
0.9197580269
 40
0.9508640559
 40
0.9746874526
 40
0.9910862544
 40
1.0
 40
1.0
 40
1.0
 40
1.0
 10
34.8180349027
 20
-10.122237241
 30
0.0
 10
34.8181042484
 20
-10.1485845577
 30
0.0
 10
34.8182788831
 20
-10.2007864421
 30
0.0
 10
34.8186521412
 20
-10.2781830903
 30
0.0
 10
34.8191324681
 20
-10.3536040593
 30
0.0
 10
34.8197165888
 20
-10.4265612599
 30
0.0
 10
34.8204006677
 20
-10.4965817609
 30
0.0
 10
34.8211801074
 20
-10.5632120509
 30
0.0
 10
34.8220496555
 20
-10.626020223
 30
0.0
 10
34.8230034333
 20
-10.684599221
 30
0.0
 10
34.8240346988
 20
-10.7385693693
 30
0.0
 10
34.8251366411
 20
-10.7875806552
 30
0.0
 10
34.8262995935
 20
-10.8313160507
 30
0.0
 10
34.8275192439
 20
-10.8694898181
 30
0.0
 10
34.8287705191
 20
-10.9018615491
 30
0.0
 10
34.830080397
 20
-10.9282028829
 30
0.0
 10
34.8313216699
 20
-10.9483969297
 30
0.0
 10
34.8327038339
 20
-10.9622067602
 30
0.0
 10
34.8335883109
 20
-10.9693886311
 30
0.0
 10
34.8343863584
 20
-10.9717845933
 30
0.0
 11
34.8180349027
 21
-10.122237241
 31
0.0
 11
34.8183001758
 21
-10.2012790197
 31
0.0
 11
34.8186755633
 21
-10.2788423519
 31
0.0
 11
34.8191586821
 21
-10.3544269039
 31
0.0
 11
34.8197463664
 21
-10.4275416048
 31
0.0
 11
34.820434836
 21
-10.4977135813
 31
0.0
 11
34.8212196262
 21
-10.5644879616
 31
0.0
 11
34.8220956594
 21
-10.6274319329
 31
0.0
 11
34.82305726
 21
-10.6861373978
 31
0.0
 11
34.8240982066
 21
-10.7402240989
 31
0.0
 11
34.8252117511
 21
-10.7893410455
 31
0.0
 11
34.8263906867
 21
-10.8331699813
 31
0.0
 11
34.8276273715
 21
-10.8714265201
 31
0.0
 11
34.8289137951
 21
-10.9038624393
 31
0.0
 11
34.8302416006
 21
-10.9302672405
 31
0.0
 11
34.8316022394
 21
-10.9504698597
 31
0.0
 11
34.8329867637
 21
-10.9643388721
 31
0.0
 11
34.8343863584
 21
-10.9717845933
 31
0.0
  0
SPLINE
  5
351
100
AcDbEntity
  8
ASSI
100
AcDbSpline
 62
253
  6
CONTINUOUS
 70
0
 71
3
 72
24
 73
20
 74
18
 42
0.0000001
 43
0.0000001
 44
0.0000000001
 12
0.0022405343
 22
-0.425539131
 32
0.0
 13
0.2359406645
 23
-0.3541476737
 33
0.0
 40
0.0
 40
0.0
 40
0.0
 40
0.0
 40
0.092855355
 40
0.1839967866
 40
0.2728162512
 40
0.3587375314
 40
0.4412058963
 40
0.5196878524
 40
0.5936759745
 40
0.6626920345
 40
0.7262908445
 40
0.7840621562
 40
0.8356349505
 40
0.8806792824
 40
0.9189099719
 40
0.9500906576
 40
0.9740413608
 40
0.9906572345
 40
1.0
 40
1.0
 40
1.0
 40
1.0
 10
35.3177303162
 20
-10.0476961498
 30
0.0
 10
35.3177996647
 20
-10.0608673455
 30
0.0
 10
35.3179742468
 20
-10.0869664443
 30
0.0
 10
35.3183475095
 20
-10.1256632334
 30
0.0
 10
35.3188278145
 20
-10.1633751852
 30
0.0
 10
35.3194119594
 20
-10.1998552643
 30
0.0
 10
35.3200960519
 20
-10.2348669886
 30
0.0
 10
35.3208755225
 20
-10.2681835903
 30
0.0
 10
35.3217451138
 20
-10.2995891085
 30
0.0
 10
35.3226989318
 20
-10.3288799918
 30
0.0
 10
35.3237303128
 20
-10.3558664753
 30
0.0
 10
35.324832206
 20
-10.3803734369
 30
0.0
 10
35.3259957563
 20
-10.402243082
 30
0.0
 10
35.3272142388
 20
-10.4213310432
 30
0.0
 10
35.3284699831
 20
-10.4375230348
 30
0.0
 10
35.3297696201
 20
-10.4506912881
 30
0.0
 10
35.3310410405
 20
-10.4608214271
 30
0.0
 10
35.3323734504
 20
-10.4677180696
 30
0.0
 10
35.3333469924
 20
-10.4713669197
 30
0.0
 10
35.3340817719
 20
-10.4724698259
 30
0.0
 11
35.3177303162
 21
-10.0476961498
 31
0.0
 11
35.3179955239
 21
-10.0872093945
 31
0.0
 11
35.3183709165
 21
-10.125992361
 31
0.0
 11
35.3188540263
 21
-10.163785955
 31
0.0
 11
35.3194417201
 21
-10.2003446053
 31
0.0
 11
35.3201302003
 21
-10.2354318541
 31
0.0
 11
35.3209150099
 21
-10.268820238
 31
0.0
 11
35.3217910677
 21
-10.3002933253
 31
0.0
 11
35.3227526986
 21
-10.3296470193
 31
0.0
 11
35.3237936793
 21
-10.3566911495
 31
0.0
 11
35.3249072615
 21
-10.3812502104
 31
0.0
 11
35.3260862368
 21
-10.4031650663
 31
0.0
 11
35.3273229642
 21
-10.42229352
 31
0.0
 11
35.3286094275
 21
-10.4385114565
 31
0.0
 11
35.3299372843
 21
-10.4517136333
 31
0.0
 11
35.3312979427
 21
-10.4618145029
 31
0.0
 11
35.332682557
 21
-10.4687484116
 31
0.0
 11
35.3340817719
 21
-10.4724698259
 31
0.0
  0
SPLINE
  5
352
100
AcDbEntity
  8
ASSI
100
AcDbSpline
 62
253
  6
CONTINUOUS
 70
0
 71
3
 72
10
 73
6
 74
4
 42
0.0000001
 43
0.0000001
 44
0.0000000001
 12
0.0060355961
 22
9.0950346942
 32
0.0
 13
0.0002514557
 23
9.0950366933
 33
0.0
 40
0.0
 40
0.0
 40
0.0
 40
0.0
 40
0.3333132412
 40
0.6666476321
 40
1.0
 40
1.0
 40
1.0
 40
1.0
 10
-9.0585352818
 20
1.5946591786
 30
0.0
 10
-9.0578647004
 20
2.6051576761
 30
0.0
 10
-9.0567377901
 20
4.6262189393
 30
0.0
 10
-9.0556899969
 20
7.6578976777
 30
0.0
 10
-9.0554200544
 20
9.6790778568
 30
0.0
 10
-9.0553921133
 20
10.6896951961
 30
0.0
 11
-9.0585352818
 21
1.5946591786
 31
0.0
 11
-9.0568449194
 21
4.6261548672
 31
0.0
 11
-9.0557971618
 21
7.6578432041
 31
0.0
 11
-9.0553921133
 21
10.6896951961
 31
0.0
  0
SPLINE
  5
353
100
AcDbEntity
  8
ASSI
100
AcDbSpline
 62
253
  6
CONTINUOUS
 70
0
 71
3
 72
23
 73
19
 74
17
 42
0.0000001
 43
0.0000001
 44
0.0000000001
 12
0.4390227135
 22
-0.2392018158
 32
0.0
 13
0.4999583399
 23
-0.0003316598
 33
0.0
 40
0.0
 40
0.0
 40
0.0
 40
0.0
 40
0.0081523609
 40
0.0253232963
 40
0.0514316938
 40
0.0862550996
 40
0.1294799961
 40
0.1807120127
 40
0.2394815728
 40
0.305248959
 40
0.3774096101
 40
0.4552998514
 40
0.5382030953
 40
0.6253564929
 40
0.7159579914
 40
0.8091737416
 40
0.9041457919
 40
1.0
 40
1.0
 40
1.0
 40
1.0
 10
-9.0585352818
 20
1.5946591786
 30
0.0
 10
-9.0573422579
 20
1.5940091588
 30
0.0
 10
-9.0529899768
 20
1.5936231936
 30
0.0
 10
-9.0445931397
 20
1.5925930668
 30
0.0
 10
-9.0315338472
 20
1.5918691669
 30
0.0
 10
-9.0142238354
 20
1.5909916334
 30
0.0
 10
-8.9926832469
 20
1.5902004448
 30
0.0
 10
-8.967162841
 20
1.5894209607
 30
0.0
 10
-8.9378782169
 20
1.5886935103
 30
0.0
 10
-8.9051053103
 20
1.5880155712
 30
0.0
 10
-8.8691437221
 20
1.5873975019
 30
0.0
 10
-8.8303251857
 20
1.5868443955
 30
0.0
 10
-8.7890069049
 20
1.5863619718
 30
0.0
 10
-8.7455693682
 20
1.5859547815
 30
0.0
 10
-8.7004125063
 20
1.5856267419
 30
0.0
 10
-8.6539521058
 20
1.5853809602
 30
0.0
 10
-8.6066159535
 20
1.5852197625
 30
0.0
 10
-8.5748142385
 20
1.5851697756
 30
0.0
 10
-8.5588398683
 20
1.5851591786
 30
0.0
 11
-9.0585352818
 21
1.5946591786
 31
0.0
 11
-9.0545625755
 21
1.5937480854
 31
0.0
 11
-9.0460254138
 21
1.5928453813
 31
0.0
 11
-9.0330024041
 21
1.591959378
 31
0.0
 11
-9.015613458
 21
1.5910982336
 31
0.0
 11
-8.9940186875
 21
1.5902698773
 31
0.0
 11
-8.9684169302
 21
1.5894819363
 31
0.0
 11
-8.9390439188
 21
1.5887416656
 31
0.0
 11
-8.9061701107
 21
1.5880558815
 31
0.0
 11
-8.8700981972
 21
1.5874308984
 31
0.0
 11
-8.8311603171
 21
1.586872471
 31
0.0
 11
-8.7897149977
 21
1.5863857411
 31
0.0
 11
-8.7461438543
 21
1.5859751904
 31
0.0
 11
-8.700848076
 21
1.585644599
 31
0.0
 11
-8.6542447317
 21
1.585397011
 31
0.0
 11
-8.6067629301
 21
1.585234706
 31
0.0
 11
-8.5588398683
 21
1.5851591786
 31
0.0
  0
SPLINE
  5
354
100
AcDbEntity
  8
ASSI
100
AcDbSpline
 62
253
  6
CONTINUOUS
 70
0
 71
3
 72
24
 73
20
 74
18
 42
0.0000001
 43
0.0000001
 44
0.0000000001
 12
-0.4997144696
 22
0.0000069948
 32
0.0
 13
-0.4951381098
 23
0.0674744651
 33
0.0
 40
0.0
 40
0.0
 40
0.0
 40
0.0
 40
0.0902745285
 40
0.1798119128
 40
0.2678852403
 40
0.3537729599
 40
0.4367747643
 40
0.5162146948
 40
0.5914438862
 40
0.6618488285
 40
0.7268549417
 40
0.7859326743
 40
0.8385998271
 40
0.8844269067
 40
0.9230397915
 40
0.9541242682
 40
0.9774271668
 40
0.9927589096
 40
1.0
 40
1.0
 40
1.0
 40
1.0
 10
-8.5556939727
 20
10.6873907244
 30
0.0
 10
-8.5707311354
 20
10.6873909349
 30
0.0
 10
-8.6006826739
 20
10.6873977701
 30
0.0
 10
-8.6453047091
 20
10.687427249
 30
0.0
 10
-8.6891960102
 20
10.6874756907
 30
0.0
 10
-8.7319986443
 20
10.6875426867
 30
0.0
 10
-8.7733631661
 20
10.6876276749
 30
0.0
 10
-8.8129522361
 20
10.6877299377
 30
0.0
 10
-8.8504429736
 20
10.6878485981
 30
0.0
 10
-8.8855293776
 20
10.6879826661
 30
0.0
 10
-8.9179253377
 20
10.6881308766
 30
0.0
 10
-8.9473665509
 20
10.688292232
 30
0.0
 10
-8.9736130735
 20
10.6884642202
 30
0.0
 10
-8.996450231
 20
10.6886483003
 30
0.0
 10
-9.0156931415
 20
10.6888331408
 30
0.0
 10
-9.0311810981
 20
10.6890421515
 30
0.0
 10
-9.042797649
 20
10.6892046118
 30
0.0
 10
-9.0504271577
 20
10.6894609511
 30
0.0
 10
-9.054197
 20
10.6895323221
 30
0.0
 10
-9.0553921133
 20
10.689695185
 30
0.0
 11
-8.5556939727
 21
10.6873907244
 31
0.0
 11
-8.6008054596
 21
10.6874010627
 31
0.0
 11
-8.6455485763
 21
10.6874307411
 31
0.0
 11
-8.6895600654
 21
10.6874795207
 31
0.0
 11
-8.7324793486
 21
10.6875469996
 31
0.0
 11
-8.7739564628
 21
10.6876326274
 31
0.0
 11
-8.8136536118
 21
10.6877357045
 31
0.0
 11
-8.8512465367
 21
10.6878553878
 31
0.0
 11
-8.8864286449
 21
10.687990699
 31
0.0
 11
-8.9189127948
 21
10.6881405315
 31
0.0
 11
-8.9484343419
 21
10.6883036623
 31
0.0
 11
-8.9747522978
 21
10.688478758
 31
0.0
 11
-8.9976520002
 21
10.6886643882
 31
0.0
 11
-9.0169464356
 21
10.6888590356
 31
0.0
 11
-9.0324784839
 21
10.6890611109
 31
0.0
 11
-9.0441214242
 21
10.6892689714
 31
0.0
 11
-9.0517799863
 21
10.6894808972
 31
0.0
 11
-9.0553921133
 21
10.689695185
 31
0.0
  0
SPLINE
  5
355
100
AcDbEntity
  8
ASSI
100
AcDbSpline
 62
253
  6
CONTINUOUS
 70
0
 71
3
 72
23
 73
19
 74
17
 42
0.0000001
 43
0.0000001
 44
0.0000000001
 12
0.1156655032
 22
-0.499983543
 32
0.0
 13
0.5131813254
 23
-0.0026417988
 33
0.0
 40
0.0
 40
0.0
 40
0.0
 40
0.0
 40
0.015923639
 40
0.0375197021
 40
0.0662667587
 40
0.1026032005
 40
0.1465356677
 40
0.1978499076
 40
0.2561916344
 40
0.3211034861
 40
0.3920453925
 40
0.4684080562
 40
0.5495234005
 40
0.6346736571
 40
0.7230998625
 40
0.8140101302
 40
0.9065878662
 40
1.0
 40
1.0
 40
1.0
 40
1.0
 10
-9.0928981356
 20
-10.0476961498
 30
0.0
 10
-9.0922841971
 20
-10.0503500023
 30
0.0
 10
-9.0886728917
 20
-10.0560243088
 30
0.0
 10
-9.0795825551
 20
-10.0629106571
 30
0.0
 10
-9.0663448664
 20
-10.0697080443
 30
0.0
 10
-9.0488759303
 20
-10.0762988849
 30
0.0
 10
-9.0272758594
 20
-10.0826819814
 30
0.0
 10
-9.0017080023
 20
-10.0887688962
 30
0.0
 10
-8.9723951675
 20
-10.0945030037
 30
0.0
 10
-8.93959963
 20
-10.0998235024
 30
0.0
 10
-8.9036197343
 20
-10.1046782888
 30
0.0
 10
-8.8647845826
 20
-10.1090197289
 30
0.0
 10
-8.8234505286
 20
-10.1128060312
 30
0.0
 10
-8.7799974186
 20
-10.1160009757
 30
0.0
 10
-8.7348249274
 20
-10.1185742086
 30
0.0
 10
-8.6883487009
 20
-10.1205013827
 30
0.0
 10
-8.6409966612
 20
-10.1217643264
 30
0.0
 10
-8.609181843
 20
-10.1221549823
 30
0.0
 10
-8.5932027221
 20
-10.122237241
 30
0.0
 11
-9.0928981356
 21
-10.0476961498
 31
0.0
 11
-9.0889422783
 21
-10.0548466655
 31
0.0
 11
-9.0804195298
 21
-10.0619313087
 31
0.0
 11
-9.067408404
 21
-10.0688848136
 31
0.0
 11
-9.050028763
 21
-10.0756431227
 31
0.0
 11
-9.028440713
 21
-10.0821439764
 31
0.0
 11
-9.0028431291
 21
-10.0883274871
 31
0.0
 11
-8.9734718233
 21
-10.0941366906
 31
0.0
 11
-8.9405973724
 21
-10.0995180709
 31
0.0
 11
-8.904522625
 21
-10.1044220532
 31
0.0
 11
-8.8655799116
 21
-10.1088034606
 31
0.0
 11
-8.8241279836
 21
-10.1126219303
 31
0.0
 11
-8.7805487075
 21
-10.1158422857
 31
0.0
 11
-8.7352435479
 21
-10.1184348598
 31
0.0
 11
-8.6886298686
 21
-10.1203757692
 31
0.0
 11
-8.6411370877
 21
-10.1216471336
 31
0.0
 11
-8.5932027221
 21
-10.122237241
 31
0.0
  0
SPLINE
  5
356
100
AcDbEntity
  8
ASSI
100
AcDbSpline
 62
253
  6
CONTINUOUS
 70
0
 71
3
 72
24
 73
20
 74
18
 42
0.0000001
 43
0.0000001
 44
0.0000000001
 12
0.2685899298
 22
0.8063822775
 32
0.0
 13
0.0022370123
 23
0.8499340702
 33
0.0
 40
0.0
 40
0.0
 40
0.0
 40
0.0
 40
0.0089137456
 40
0.0253125474
 40
0.0491359441
 40
0.0802419731
 40
0.1184347082
 40
0.163469248
 40
0.215055175
 40
0.2728589497
 40
0.3365068628
 40
0.4055864992
 40
0.47965089
 40
0.558220232
 40
0.6407855899
 40
0.7268120383
 40
0.815743447
 40
0.9070022571
 40
1.0
 40
1.0
 40
1.0
 40
1.0
 10
-8.6095541778
 20
-10.9717845933
 30
0.0
 10
-8.6087561304
 20
-10.9693886311
 30
0.0
 10
-8.6078716533
 20
-10.9622067602
 30
0.0
 10
-8.6064894893
 20
-10.9483969297
 30
0.0
 10
-8.6052482164
 20
-10.9282028829
 30
0.0
 10
-8.6039383385
 20
-10.9018615491
 30
0.0
 10
-8.6026870634
 20
-10.8694898181
 30
0.0
 10
-8.6014674129
 20
-10.8313160507
 30
0.0
 10
-8.6003044605
 20
-10.7875806552
 30
0.0
 10
-8.5992025183
 20
-10.7385693693
 30
0.0
 10
-8.5981712528
 20
-10.684599221
 30
0.0
 10
-8.5972174749
 20
-10.626020223
 30
0.0
 10
-8.5963479268
 20
-10.5632120509
 30
0.0
 10
-8.5955684872
 20
-10.4965817609
 30
0.0
 10
-8.5948844083
 20
-10.4265612599
 30
0.0
 10
-8.5943002876
 20
-10.3536040593
 30
0.0
 10
-8.5938199606
 20
-10.2781830903
 30
0.0
 10
-8.5934467025
 20
-10.2007864421
 30
0.0
 10
-8.5932720678
 20
-10.1485845577
 30
0.0
 10
-8.5932027221
 20
-10.122237241
 30
0.0
 11
-8.6095541778
 21
-10.9717845933
 31
0.0
 11
-8.6081545831
 21
-10.9643388721
 31
0.0
 11
-8.6067700588
 21
-10.9504698597
 31
0.0
 11
-8.6054094201
 21
-10.9302672405
 31
0.0
 11
-8.6040816146
 21
-10.9038624393
 31
0.0
 11
-8.6027951909
 21
-10.8714265201
 31
0.0
 11
-8.6015585062
 21
-10.8331699813
 31
0.0
 11
-8.6003795706
 21
-10.7893410455
 31
0.0
 11
-8.599266026
 21
-10.7402240989
 31
0.0
 11
-8.5982250794
 21
-10.6861373978
 31
0.0
 11
-8.5972634788
 21
-10.6274319329
 31
0.0
 11
-8.5963874457
 21
-10.5644879616
 31
0.0
 11
-8.5956026554
 21
-10.4977135813
 31
0.0
 11
-8.5949141858
 21
-10.4275416048
 31
0.0
 11
-8.5943265015
 21
-10.3544269039
 31
0.0
 11
-8.5938433828
 21
-10.2788423519
 31
0.0
 11
-8.5934679952
 21
-10.2012790197
 31
0.0
 11
-8.5932027221
 21
-10.122237241
 31
0.0
  0
SPLINE
  5
357
100
AcDbEntity
  8
ASSI
100
AcDbSpline
 62
253
  6
CONTINUOUS
 70
0
 71
3
 72
24
 73
20
 74
18
 42
0.0000001
 43
0.0000001
 44
0.0000000001
 12
0.2359406643
 22
0.3541476739
 32
0.0
 13
0.0022405343
 23
0.425539131
 33
0.0
 40
0.0
 40
0.0
 40
0.0
 40
0.0
 40
0.0093427655
 40
0.0259586392
 40
0.0499093424
 40
0.0810900281
 40
0.1193207176
 40
0.1643650495
 40
0.2159378438
 40
0.2737091555
 40
0.3373079655
 40
0.4063240255
 40
0.4803121476
 40
0.5587941037
 40
0.6412624686
 40
0.7271837488
 40
0.8160032134
 40
0.907144645
 40
1.0
 40
1.0
 40
1.0
 40
1.0
 10
-9.1092495913
 20
-10.4724698259
 30
0.0
 10
-9.1085148119
 20
-10.4713669197
 30
0.0
 10
-9.1075412698
 20
-10.4677180696
 30
0.0
 10
-9.1062088599
 20
-10.4608214271
 30
0.0
 10
-9.1049374395
 20
-10.4506912881
 30
0.0
 10
-9.1036378026
 20
-10.4375230348
 30
0.0
 10
-9.1023820583
 20
-10.4213310432
 30
0.0
 10
-9.1011635758
 20
-10.402243082
 30
0.0
 10
-9.1000000255
 20
-10.3803734369
 30
0.0
 10
-9.0988981323
 20
-10.3558664753
 30
0.0
 10
-9.0978667512
 20
-10.3288799918
 30
0.0
 10
-9.0969129333
 20
-10.2995891085
 30
0.0
 10
-9.096043342
 20
-10.2681835903
 30
0.0
 10
-9.0952638713
 20
-10.2348669886
 30
0.0
 10
-9.0945797788
 20
-10.1998552643
 30
0.0
 10
-9.0939956339
 20
-10.1633751852
 30
0.0
 10
-9.0935153289
 20
-10.1256632334
 30
0.0
 10
-9.0931420663
 20
-10.0869664443
 30
0.0
 10
-9.0929674842
 20
-10.0608673455
 30
0.0
 10
-9.0928981356
 20
-10.0476961498
 30
0.0
 11
-9.1092495913
 21
-10.4724698259
 31
0.0
 11
-9.1078503765
 21
-10.4687484116
 31
0.0
 11
-9.1064657621
 21
-10.4618145029
 31
0.0
 11
-9.1051051038
 21
-10.4517136333
 31
0.0
 11
-9.1037772469
 21
-10.4385114565
 31
0.0
 11
-9.1024907836
 21
-10.42229352
 31
0.0
 11
-9.1012540562
 21
-10.4031650663
 31
0.0
 11
-9.1000750809
 21
-10.3812502104
 31
0.0
 11
-9.0989614988
 21
-10.3566911495
 31
0.0
 11
-9.097920518
 21
-10.3296470193
 31
0.0
 11
-9.0969588871
 21
-10.3002933253
 31
0.0
 11
-9.0960828293
 21
-10.268820238
 31
0.0
 11
-9.0952980198
 21
-10.2354318541
 31
0.0
 11
-9.0946095396
 21
-10.2003446053
 31
0.0
 11
-9.0940218458
 21
-10.163785955
 31
0.0
 11
-9.093538736
 21
-10.125992361
 31
0.0
 11
-9.0931633433
 21
-10.0872093945
 31
0.0
 11
-9.0928981356
 21
-10.0476961498
 31
0.0
  0
SPLINE
  5
358
100
AcDbEntity
  8
ASSI
100
AcDbSpline
 62
253
  6
CONTINUOUS
 70
0
 71
3
 72
24
 73
20
 74
18
 42
0.0000001
 43
0.0000001
 44
0.0000000001
 12
-0.2498750154
 22
0.0000000277
 32
0.0
 13
-0.2424250812
 23
0.0605607405
 33
0.0
 40
0.0
 40
0.0
 40
0.0
 40
0.0
 40
0.0902519062
 40
0.1797846795
 40
0.2678529052
 40
0.3537361738
 40
0.4367339978
 40
0.5161705145
 40
0.5913968937
 40
0.6617996696
 40
0.7268041989
 40
0.7858808583
 40
0.8385476229
 40
0.8843752391
 40
0.9229899153
 40
0.9540780319
 40
0.9773873145
 40
0.9927312008
 40
1.0
 40
1.0
 40
1.0
 40
1.0
 10
-8.5556966559
 20
10.9375800904
 30
0.0
 10
-8.563213888
 20
10.9375800912
 30
0.0
 10
-8.5781884552
 20
10.9375859719
 30
0.0
 10
-8.6004983581
 20
10.9376124075
 30
0.0
 10
-8.622444362
 20
10.9376562244
 30
0.0
 10
-8.6438460165
 20
10.9377170564
 30
0.0
 10
-8.6645286638
 20
10.9377943911
 30
0.0
 10
-8.6843236062
 20
10.9378875786
 30
0.0
 10
-8.7030693949
 20
10.9379958209
 30
0.0
 10
-8.7206130005
 20
10.9381182154
 30
0.0
 10
-8.7368113484
 20
10.9382536138
 30
0.0
 10
-8.7515322079
 20
10.9384010893
 30
0.0
 10
-8.7646557634
 20
10.9385584016
 30
0.0
 10
-8.7760741866
 20
10.9387267175
 30
0.0
 10
-8.7856965681
 20
10.9388961744
 30
0.0
 10
-8.7934384353
 20
10.9390867868
 30
0.0
 10
-8.7992525047
 20
10.939237458
 30
0.0
 10
-8.8030579212
 20
10.9394687275
 30
0.0
 10
-8.80495693
 20
10.939538918
 30
0.0
 10
-8.8055443098
 20
10.9396856526
 30
0.0
 11
-8.5556966559
 21
10.9375800904
 31
0.0
 11
-8.5782483506
 21
10.937588985
 31
0.0
 11
-8.6006203378
 21
10.9376156034
 31
0.0
 11
-8.6226263428
 21
10.9376597289
 31
0.0
 11
-8.6440863384
 21
10.9377210015
 31
0.0
 11
-8.6648252746
 21
10.9377989212
 31
0.0
 11
-8.6846742532
 21
10.9378928537
 31
0.0
 11
-8.7034711287
 21
10.9380020321
 31
0.0
 11
-8.7210625897
 21
10.938125566
 31
0.0
 11
-8.7373050207
 21
10.9382624468
 31
0.0
 11
-8.7520660487
 21
10.938411559
 31
0.0
 11
-8.7652251832
 21
10.9385716856
 31
0.0
 11
-8.7766751
 21
10.9387415205
 31
0.0
 11
-8.7863222979
 21
10.9389196763
 31
0.0
 11
-8.7940882377
 21
10.9391047021
 31
0.0
 11
-8.7999095325
 21
10.9392950887
 31
0.0
 11
-8.8037386655
 21
10.9394892784
 31
0.0
 11
-8.8055443098
 21
10.9396856526
 31
0.0
  0
SPLINE
  5
359
100
AcDbEntity
  8
ASSI
100
AcDbSpline
 62
253
  6
CONTINUOUS
 70
0
 71
3
 72
24
 73
20
 74
18
 42
0.0000001
 43
0.0000001
 44
0.0000000001
 12
-0.2424250813
 22
-0.0605607403
 32
0.0
 13
-0.2498750154
 23
-0.0000000277
 33
0.0
 40
0.0
 40
0.0
 40
0.0
 40
0.0
 40
0.0072687992
 40
0.0226126855
 40
0.0459219681
 40
0.0770100847
 40
0.1156247608
 40
0.1614523771
 40
0.2141191417
 40
0.2731958011
 40
0.3382003304
 40
0.4086031063
 40
0.4838294855
 40
0.5632660021
 40
0.6462638261
 40
0.7321470947
 40
0.8202153205
 40
0.9097480937
 40
1.0
 40
1.0
 40
1.0
 40
1.0
 10
35.0303764903
 20
10.9396856526
 30
0.0
 10
35.0297891106
 20
10.939538918
 30
0.0
 10
35.0278901018
 20
10.9394687275
 30
0.0
 10
35.0240846853
 20
10.939237458
 30
0.0
 10
35.0182706158
 20
10.9390867868
 30
0.0
 10
35.0105287487
 20
10.9388961744
 30
0.0
 10
35.0009063672
 20
10.9387267175
 30
0.0
 10
34.989487944
 20
10.9385584016
 30
0.0
 10
34.9763643884
 20
10.9384010893
 30
0.0
 10
34.961643529
 20
10.9382536138
 30
0.0
 10
34.945445181
 20
10.9381182154
 30
0.0
 10
34.9279015755
 20
10.9379958209
 30
0.0
 10
34.9091557867
 20
10.9378875786
 30
0.0
 10
34.8893608444
 20
10.9377943911
 30
0.0
 10
34.8686781971
 20
10.9377170564
 30
0.0
 10
34.8472765426
 20
10.9376562244
 30
0.0
 10
34.8253305387
 20
10.9376124075
 30
0.0
 10
34.8030206358
 20
10.9375859719
 30
0.0
 10
34.7880460686
 20
10.9375800912
 30
0.0
 10
34.7805288364
 20
10.9375800904
 30
0.0
 11
35.0303764903
 21
10.9396856526
 31
0.0
 11
35.0285708461
 21
10.9394892784
 31
0.0
 11
35.0247417131
 21
10.9392950887
 31
0.0
 11
35.0189204182
 21
10.9391047021
 31
0.0
 11
35.0111544785
 21
10.9389196763
 31
0.0
 11
35.0015072805
 21
10.9387415205
 31
0.0
 11
34.9900573637
 21
10.9385716856
 31
0.0
 11
34.9768982293
 21
10.938411559
 31
0.0
 11
34.9621372013
 21
10.9382624468
 31
0.0
 11
34.9458947703
 21
10.938125566
 31
0.0
 11
34.9283033093
 21
10.9380020321
 31
0.0
 11
34.9095064337
 21
10.9378928537
 31
0.0
 11
34.8896574552
 21
10.9377989212
 31
0.0
 11
34.868918519
 21
10.9377210015
 31
0.0
 11
34.8474585234
 21
10.9376597289
 31
0.0
 11
34.8254525184
 21
10.9376156034
 31
0.0
 11
34.8030805311
 21
10.937588985
 31
0.0
 11
34.7805288364
 21
10.9375800904
 31
0.0
  0
SPLINE
  5
35A
100
AcDbEntity
  8
ASSI
100
AcDbSpline
 62
253
  6
CONTINUOUS
 70
0
 71
3
 72
10
 73
6
 74
4
 42
0.0000001
 43
0.0000001
 44
0.0000000001
 12
0.0002514557
 22
-9.0950366933
 32
0.0
 13
0.0060355961
 23
-9.0950346942
 33
0.0
 40
0.0
 40
0.0
 40
0.0
 40
0.0
 40
0.3333523679
 40
0.6666867588
 40
1.0
 40
1.0
 40
1.0
 40
1.0
 10
35.2802242939
 20
10.6896951961
 30
0.0
 10
35.280252235
 20
9.6790778568
 30
0.0
 10
35.2805221774
 20
7.6578976777
 30
0.0
 10
35.2815699706
 20
4.6262189393
 30
0.0
 10
35.282696881
 20
2.6051576761
 30
0.0
 10
35.2833674623
 20
1.5946591786
 30
0.0
 11
35.2802242939
 21
10.6896951961
 31
0.0
 11
35.2806293423
 21
7.6578432041
 31
0.0
 11
35.2816771
 21
4.6261548672
 31
0.0
 11
35.2833674623
 21
1.5946591786
 31
0.0
  0
SPLINE
  5
35B
100
AcDbEntity
  8
ASSI
100
AcDbSpline
 62
253
  6
CONTINUOUS
 70
0
 71
3
 72
24
 73
20
 74
18
 42
0.0000001
 43
0.0000001
 44
0.0000000001
 12
-0.4951381098
 22
-0.0674744652
 32
0.0
 13
-0.4997144696
 23
-0.0000069948
 33
0.0
 40
0.0
 40
0.0
 40
0.0
 40
0.0
 40
0.0072410904
 40
0.0225728332
 40
0.0458757318
 40
0.0769602085
 40
0.1155730933
 40
0.1614001728
 40
0.2140673257
 40
0.2731450583
 40
0.3381511715
 40
0.4085561138
 40
0.4837853051
 40
0.5632252357
 40
0.64622704
 40
0.7321147597
 40
0.8201880871
 40
0.9097254715
 40
1.0
 40
1.0
 40
1.0
 40
1.0
 10
35.2802242939
 20
10.689695185
 30
0.0
 10
35.2790291806
 20
10.6895323221
 30
0.0
 10
35.2752593382
 20
10.6894609511
 30
0.0
 10
35.2676298296
 20
10.6892046118
 30
0.0
 10
35.2560132786
 20
10.6890421515
 30
0.0
 10
35.2405253221
 20
10.6888331408
 30
0.0
 10
35.2212824115
 20
10.6886483003
 30
0.0
 10
35.1984452541
 20
10.6884642202
 30
0.0
 10
35.1721987315
 20
10.688292232
 30
0.0
 10
35.1427575182
 20
10.6881308766
 30
0.0
 10
35.1103615582
 20
10.6879826661
 30
0.0
 10
35.0752751542
 20
10.6878485981
 30
0.0
 10
35.0377844167
 20
10.6877299377
 30
0.0
 10
34.9981953467
 20
10.6876276749
 30
0.0
 10
34.9568308249
 20
10.6875426867
 30
0.0
 10
34.9140281908
 20
10.6874756907
 30
0.0
 10
34.8701368897
 20
10.687427249
 30
0.0
 10
34.8255148545
 20
10.6873977701
 30
0.0
 10
34.7955633159
 20
10.6873909349
 30
0.0
 10
34.7805261532
 20
10.6873907244
 30
0.0
 11
35.2802242939
 21
10.689695185
 31
0.0
 11
35.2766121669
 21
10.6894808972
 31
0.0
 11
35.2689536048
 21
10.6892689714
 31
0.0
 11
35.2573106645
 21
10.6890611109
 31
0.0
 11
35.2417786162
 21
10.6888590356
 31
0.0
 11
35.2224841807
 21
10.6886643882
 31
0.0
 11
35.1995844783
 21
10.688478758
 31
0.0
 11
35.1732665224
 21
10.6883036623
 31
0.0
 11
35.1437449754
 21
10.6881405315
 31
0.0
 11
35.1112608255
 21
10.687990699
 31
0.0
 11
35.0760787173
 21
10.6878553878
 31
0.0
 11
35.0384857924
 21
10.6877357045
 31
0.0
 11
34.9987886434
 21
10.6876326274
 31
0.0
 11
34.9573115292
 21
10.6875469996
 31
0.0
 11
34.9143922459
 21
10.6874795207
 31
0.0
 11
34.8703807569
 21
10.6874307411
 31
0.0
 11
34.8256376402
 21
10.6874010627
 31
0.0
 11
34.7805261532
 21
10.6873907244
 31
0.0
  0
SPLINE
  5
35C
100
AcDbEntity
  8
CURVE
100
AcDbSpline
 62
253
  6
CONTINUOUS
 70
0
 71
3
 72
14
 73
10
 74
8
 42
0.0000001
 43
0.0000001
 44
0.0000000001
 12
0.2114550454
 22
1.0942925372
 32
0.0
 13
1.0716009309
 23
0.3107590906
 33
0.0
 40
0.0
 40
0.0
 40
0.0
 40
0.0
 40
0.1428571429
 40
0.2857142857
 40
0.4285714286
 40
0.5714285714
 40
0.7142857143
 40
0.8571428571
 40
1.0
 40
1.0
 40
1.0
 40
1.0
 10
11.7187885547
 20
-0.0582457345
 30
0.0
 10
11.7288578426
 20
-0.0061365661
 30
0.0
 10
11.7570808055
 20
0.0950891411
 30
0.0
 10
11.822539167
 20
0.2399112966
 30
0.0
 10
11.9088322695
 20
0.3729293944
 30
0.0
 10
12.0147600149
 20
0.4912627542
 30
0.0
 10
12.1376963951
 20
0.5916893321
 30
0.0
 10
12.2752608839
 20
0.6722487672
 30
0.0
 10
12.3733159598
 20
0.7101991888
 30
0.0
 10
12.4243445755
 20
0.7249972407
 30
0.0
 11
11.7187885547
 21
-0.0582457345
 31
0.0
 11
11.7609347917
 21
0.0939197402
 31
0.0
 11
11.8260116239
 21
0.2379439537
 31
0.0
 11
11.91210471
 21
0.370481938
 31
0.0
 11
12.0175947874
 21
0.4882782906
 31
0.0
 11
12.1401344132
 21
0.5883781417
 31
0.0
 11
12.2768472381
 21
0.6683098001
 31
0.0
 11
12.4243445755
 21
0.7249972407
 31
0.0
  0
SPLINE
  5
35D
100
AcDbEntity
  8
CURVE
100
AcDbSpline
 62
253
  6
CONTINUOUS
 70
0
 71
3
 72
15
 73
11
 74
9
 42
0.0000001
 43
0.0000001
 44
0.0000000001
 12
1.7251732713
 22
0.2584170781
 32
0.0
 13
0.3310643707
 23
1.7128982658
 33
0.0
 40
0.0
 40
0.0
 40
0.0
 40
0.0
 40
0.125
 40
0.25
 40
0.375
 40
0.5
 40
0.625
 40
0.75
 40
0.875
 40
1.0
 40
1.0
 40
1.0
 40
1.0
 10
13.7747367692
 20
-3.9686039447
 30
0.0
 10
13.8466189888
 20
-3.9578365665
 30
0.0
 10
13.9868457585
 20
-3.9255997301
 30
0.0
 10
14.1890971491
 20
-3.8441363733
 30
0.0
 10
14.3757007123
 20
-3.7326414896
 30
0.0
 10
14.5429745975
 20
-3.593592515
 30
0.0
 10
14.6868172069
 20
-3.4303329366
 30
0.0
 10
14.8039242576
 20
-3.2469935987
 30
0.0
 10
14.8915289219
 20
-3.0474016751
 30
0.0
 10
14.9292611976
 20
-2.9084323472
 30
0.0
 10
14.9430555464
 20
-2.8370615861
 30
0.0
 11
13.7747367692
 21
-3.9686039447
 31
0.0
 11
13.9854976312
 21
-3.920081713
 31
0.0
 11
14.1864891779
 21
-3.8391311188
 31
0.0
 11
14.3724790993
 21
-3.7280491411
 31
0.0
 11
14.5390693849
 21
-3.5895574144
 31
0.0
 11
14.6823612804
 21
-3.42698631
 31
0.0
 11
14.7990071932
 21
-3.2442848344
 31
0.0
 11
14.8863612135
 21
-3.0459246637
 31
0.0
 11
14.9430555464
 21
-2.8370615861
 31
0.0
  0
SPLINE
  5
35E
100
AcDbEntity
  8
CURVE
100
AcDbSpline
 62
253
  6
CONTINUOUS
 70
0
 71
3
 72
15
 73
11
 74
9
 42
0.0000001
 43
0.0000001
 44
0.0000000001
 12
-0.3282796024
 22
1.6992114184
 32
0.0
 13
-1.7124092821
 23
0.2569116686
 33
0.0
 40
0.0
 40
0.0
 40
0.0
 40
0.0
 40
0.125
 40
0.25
 40
0.375
 40
0.5
 40
0.625
 40
0.75
 40
0.875
 40
1.0
 40
1.0
 40
1.0
 40
1.0
 10
14.9405578505
 20
0.0296042583
 30
0.0
 10
14.9268795337
 20
0.1004047341
 30
0.0
 10
14.8889869597
 20
0.2381332827
 30
0.0
 10
14.8007957704
 20
0.4358363039
 30
0.0
 10
14.6832336725
 20
0.6169847596
 30
0.0
 10
14.539298678
 20
0.7782696994
 30
0.0
 10
14.3722163555
 20
0.9156617194
 30
0.0
 10
14.1862467459
 20
1.0258549204
 30
0.0
 10
13.984843568
 20
1.1059062631
 30
0.0
 10
13.8455703913
 20
1.1380396121
 30
0.0
 10
13.7742200045
 20
1.148744265
 30
0.0
 11
14.9405578505
 21
0.0296042583
 31
0.0
 11
14.8837615716
 21
0.2366516491
 31
0.0
 11
14.795900619
 21
0.4330772096
 31
0.0
 11
14.6788381897
 21
0.6136741736
 31
0.0
 11
14.53544079
 21
0.7742875461
 31
0.0
 11
14.3690684743
 21
0.9111285829
 31
0.0
 11
14.1836744845
 21
1.0208312774
 31
0.0
 11
13.9835924701
 21
1.1005977099
 31
0.0
 11
13.7742200045
 21
1.148744265
 31
0.0
  0
SPLINE
  5
35F
100
AcDbEntity
  8
CURVE
100
AcDbSpline
 62
253
  6
CONTINUOUS
 70
0
 71
3
 72
15
 73
11
 74
9
 42
0.0000001
 43
0.0000001
 44
0.0000000001
 12
-1.7239542878
 22
-0.2582344841
 32
0.0
 13
-0.3308392832
 23
-1.7122869253
 33
0.0
 40
0.0
 40
0.0
 40
0.0
 40
0.0
 40
0.125
 40
0.25
 40
0.375
 40
0.5
 40
0.625
 40
0.75
 40
0.875
 40
1.0
 40
1.0
 40
1.0
 40
1.0
 10
12.4941939326
 20
1.148744265
 30
0.0
 10
12.4223625039
 20
1.1379844948
 30
0.0
 10
12.2822065758
 20
1.1057589932
 30
0.0
 10
12.0799392528
 20
1.0244187313
 30
0.0
 10
11.8932706307
 20
0.9129384805
 30
0.0
 10
11.7259907956
 20
0.7737515782
 30
0.0
 10
11.5821773103
 20
0.6103566488
 30
0.0
 10
11.4650933704
 20
0.4269285484
 30
0.0
 10
11.3774217358
 20
0.2273104894
 30
0.0
 10
11.3396601255
 20
0.08837494
 30
0.0
 10
11.3258751554
 20
0.0170296515
 30
0.0
 11
12.4941939326
 21
1.148744265
 31
0.0
 11
12.2835343373
 21
1.1002586583
 31
0.0
 11
12.0825390363
 21
1.0193953998
 31
0.0
 11
11.8965020952
 21
0.9083207052
 31
0.0
 11
11.7299018539
 21
0.769716907
 31
0.0
 11
11.5866322345
 21
0.607017787
 31
0.0
 11
11.4699954213
 21
0.424230222
 31
0.0
 11
11.3825932723
 21
0.2258462786
 31
0.0
 11
11.3258751554
 21
0.0170296515
 31
0.0
  0
SPLINE
  5
360
100
AcDbEntity
  8
CURVE
100
AcDbSpline
 62
253
  6
CONTINUOUS
 70
0
 71
3
 72
15
 73
11
 74
9
 42
0.0000001
 43
0.0000001
 44
0.0000000001
 12
0.3284038539
 22
-1.6993516424
 32
0.0
 13
1.7138321263
 23
-0.2571628884
 33
0.0
 40
0.0
 40
0.0
 40
0.0
 40
0.0
 40
0.125
 40
0.25
 40
0.375
 40
0.5
 40
0.625
 40
0.75
 40
0.875
 40
1.0
 40
1.0
 40
1.0
 40
1.0
 10
11.3283728513
 20
-2.8496361929
 30
0.0
 10
11.3420563452
 20
-2.9204425114
 30
0.0
 10
11.3799643778
 20
-3.0581505787
 30
0.0
 10
11.4681248971
 20
-3.2557126852
 30
0.0
 10
11.585602325
 20
-3.4367201559
 30
0.0
 10
11.7294336306
 20
-3.5979208087
 30
0.0
 10
11.8964521482
 20
-3.7353183327
 30
0.0
 10
12.0824288075
 20
-3.8455779048
 30
0.0
 10
12.2839318834
 20
-3.9257179483
 30
0.0
 10
12.4233010253
 20
-3.9578888244
 30
0.0
 10
12.4947106972
 20
-3.9686039447
 30
0.0
 11
11.3283728513
 21
-2.8496361929
 31
0.0
 11
11.3851807895
 21
-3.0566505796
 31
0.0
 11
11.4730110485
 21
-3.2529535793
 31
0.0
 11
11.589994638
 21
-3.4334190196
 31
0.0
 11
11.733298166
 21
-3.5939536205
 31
0.0
 11
11.8996118385
 21
-3.7307953407
 31
0.0
 11
12.0850165436
 21
-3.8405579834
 31
0.0
 11
12.2851903229
 21
-3.9204039934
 31
0.0
 11
12.4947106972
 21
-3.9686039447
 31
0.0
  0
SPLINE
  5
361
100
AcDbEntity
  8
CURVE
100
AcDbSpline
 62
253
  6
CONTINUOUS
 70
0
 71
3
 72
14
 73
10
 74
8
 42
0.0000001
 43
0.0000001
 44
0.0000000001
 12
-1.2264247312
 22
0.1841402826
 32
0.0
 13
-0.2349456665
 23
1.216278209
 33
0.0
 40
0.0
 40
0.0
 40
0.0
 40
0.0
 40
0.1428571429
 40
0.2857142857
 40
0.4285714286
 40
0.5714285714
 40
0.7142857143
 40
0.8571428571
 40
1.0
 40
1.0
 40
1.0
 40
1.0
 10
12.5517270651
 20
-3.5727622123
 30
0.0
 10
12.4933258875
 20
-3.5639936274
 30
0.0
 10
12.3800803765
 20
-3.5365060023
 30
0.0
 10
12.21813602
 20
-3.4657235734
 30
0.0
 10
12.0718958332
 20
-3.3675030989
 30
0.0
 10
11.9449601422
 20
-3.2451564002
 30
0.0
 10
11.8413540773
 20
-3.1026648712
 30
0.0
 10
11.7643382788
 20
-2.9435596122
 30
0.0
 10
11.7323018846
 20
-2.8315897973
 30
0.0
 10
11.7211139957
 20
-2.7736717874
 30
0.0
 11
12.5517270651
 21
-3.5727622123
 31
0.0
 11
12.3814010282
 21
-3.5315808371
 31
0.0
 11
12.2207533816
 21
-3.4611505658
 31
0.0
 11
12.0751132492
 21
-3.3634820615
 31
0.0
 11
11.9488484132
 21
-3.2417989285
 31
0.0
 11
11.8457857884
 21
-3.0998959162
 31
0.0
 11
11.7691651467
 21
-2.9420847017
 31
0.0
 11
11.7211139957
 21
-2.7736717874
 31
0.0
  0
SPLINE
  5
362
100
AcDbEntity
  8
CURVE
100
AcDbSpline
 62
253
  6
CONTINUOUS
 70
0
 71
3
 72
14
 73
10
 74
8
 42
0.0000001
 43
0.0000001
 44
0.0000000001
 12
-0.237674164
 22
-1.2308839658
 32
0.0
 13
-1.2351737077
 23
-0.1874388117
 33
0.0
 40
0.0
 40
0.0
 40
0.0
 40
0.0
 40
0.1428571429
 40
0.2857142857
 40
0.4285714286
 40
0.5714285714
 40
0.7142857143
 40
0.8571428571
 40
1.0
 40
1.0
 40
1.0
 40
1.0
 10
14.5501421471
 20
-2.7617862001
 30
0.0
 10
14.5388243298
 20
-2.8203997223
 30
0.0
 10
14.5057824797
 20
-2.9334350245
 30
0.0
 10
14.4279866135
 20
-3.0931699076
 30
0.0
 10
14.3254319287
 20
-3.2372575012
 30
0.0
 10
14.199236896
 20
-3.3618067155
 30
0.0
 10
14.053017487
 20
-3.4626529853
 30
0.0
 10
13.8904356076
 20
-3.5360803349
 30
0.0
 10
13.7764520695
 20
-3.5638365546
 30
0.0
 10
13.7176342739
 20
-3.5727622123
 30
0.0
 11
14.5501421471
 21
-2.7617862001
 31
0.0
 11
14.5010769645
 21
-2.9317986795
 31
0.0
 11
14.4238601437
 21
-3.090562026
 31
0.0
 11
14.3214918707
 21
-3.2340011046
 31
0.0
 11
14.1958995
 21
-3.3578562247
 31
0.0
 11
14.0502904086
 21
-3.4580831653
 31
0.0
 11
13.889036703
 21
-3.5307814983
 31
0.0
 11
13.7176342739
 21
-3.5727622123
 31
0.0
  0
SPLINE
  5
363
100
AcDbEntity
  8
CURVE
100
AcDbSpline
 62
253
  6
CONTINUOUS
 70
0
 71
3
 72
14
 73
10
 74
8
 42
0.0000001
 43
0.0000001
 44
0.0000000001
 12
1.2255901884
 22
-0.183548582
 32
0.0
 13
0.2347005779
 23
-1.2158094317
 33
0.0
 40
0.0
 40
0.0
 40
0.0
 40
0.0
 40
0.1428571429
 40
0.2857142857
 40
0.4285714286
 40
0.5714285714
 40
0.7142857143
 40
0.8571428571
 40
1.0
 40
1.0
 40
1.0
 40
1.0
 10
13.7172897641
 20
0.7527302777
 30
0.0
 10
13.7756512016
 20
0.743989869
 30
0.0
 10
13.8888362994
 20
0.7165528758
 30
0.0
 10
14.050750175
 20
0.6458227312
 30
0.0
 10
14.1970003815
 20
0.5476215932
 30
0.0
 10
14.3239651855
 20
0.4252688234
 30
0.0
 10
14.4275959575
 20
0.2827639944
 30
0.0
 10
14.5046206123
 20
0.1236483913
 30
0.0
 10
14.5366404881
 20
0.0117077948
 30
0.0
 10
14.5478167061
 20
-0.0461878924
 30
0.0
 11
13.7172897641
 21
0.7527302777
 31
0.0
 11
13.8875256709
 21
0.7116237667
 31
0.0
 11
14.0481395635
 21
0.6412442323
 31
0.0
 11
14.1937861478
 21
0.5435963212
 31
0.0
 11
14.3200761802
 21
0.4219101469
 31
0.0
 11
14.4231616047
 21
0.2799955321
 31
0.0
 11
14.4997881388
 21
0.1221825094
 31
0.0
 11
14.5478167061
 21
-0.0461878924
 31
0.0
  0
SPLINE
  5
364
100
AcDbEntity
  8
CURVE
100
AcDbSpline
 62
253
  6
CONTINUOUS
 70
0
 71
3
 72
10
 73
6
 74
4
 42
0.0000001
 43
0.0000001
 44
0.0000000001
 12
1.0104650594
 22
0.1325796708
 32
0.0
 13
0.9926218627
 23
-0.1298279882
 33
0.0
 40
0.0
 40
0.0
 40
0.0
 40
0.0
 40
0.3333333333
 40
0.6666666667
 40
1.0
 40
1.0
 40
1.0
 40
1.0
 10
12.6314810782
 20
0.7639268454
 30
0.0
 10
12.7437549737
 20
0.7786579199
 30
0.0
 10
12.9679629346
 20
0.7981655583
 30
0.0
 10
13.3050216907
 20
0.7977221898
 30
0.0
 10
13.5265554134
 20
0.7783521774
 30
0.0
 10
13.6368467314
 20
0.7639268454
 30
0.0
 11
12.6314810782
 21
0.7639268454
 31
0.0
 11
12.9680874037
 21
0.7932147539
 31
0.0
 11
13.304228662
 21
0.7929535815
 31
0.0
 11
13.6368467314
 21
0.7639268454
 31
0.0
  0
SPLINE
  5
365
100
AcDbEntity
  8
RACCORDO
100
AcDbSpline
 62
253
  6
CONTINUOUS
 70
0
 71
3
 72
21
 73
17
 74
15
 42
0.0000001
 43
0.0000001
 44
0.0000000001
 12
-0.0021831839
 22
0.2504731391
 32
0.0
 13
0.2504731158
 23
0.0021858458
 33
0.0
 40
0.0
 40
0.0
 40
0.0
 40
0.0
 40
0.1117254707
 40
0.2220443826
 40
0.3295717424
 40
0.4329577933
 40
0.5309050832
 40
0.6221849176
 40
0.7056530314
 40
0.7802643551
 40
0.8450868632
 40
0.8993147599
 40
0.9422821117
 40
0.9734815232
 40
0.9926137743
 40
1.0
 40
1.0
 40
1.0
 40
1.0
 10
-28.3720664426
 20
10.6896951719
 30
0.0
 10
-28.3721477483
 20
10.6990232483
 30
0.0
 10
-28.3722732382
 20
10.7175623004
 30
0.0
 10
-28.3723509909
 20
10.7450796011
 30
0.0
 10
-28.372316964
 20
10.7719006818
 30
0.0
 10
-28.372171737
 20
10.7976885122
 30
0.0
 10
-28.371917356
 20
10.8221185663
 30
0.0
 10
-28.371557444
 20
10.8448851077
 30
0.0
 10
-28.3710969227
 20
10.8656976843
 30
0.0
 10
-28.370543114
 20
10.8843087249
 30
0.0
 10
-28.3699027942
 20
10.9004417751
 30
0.0
 10
-28.369192341
 20
10.9140202955
 30
0.0
 10
-28.3684123897
 20
10.9245313665
 30
0.0
 10
-28.3676237674
 20
10.9327034855
 30
0.0
 10
-28.3668007687
 20
10.9366932885
 30
0.0
 10
-28.366139886
 20
10.9396802709
 30
0.0
 10
-28.3655232023
 20
10.9396856526
 30
0.0
 11
-28.3720664426
 21
10.6896951719
 31
0.0
 11
-28.3722555246
 21
10.7176798254
 31
0.0
 11
-28.3723325518
 21
10.7453126919
 31
0.0
 11
-28.372296556
 21
10.7722464062
 31
0.0
 11
-28.3721479896
 21
10.7981423924
 31
0.0
 11
-28.3718887202
 21
10.8226751195
 31
0.0
 11
-28.371522007
 21
10.8455361936
 31
0.0
 11
-28.37105246
 21
10.8664382349
 31
0.0
 11
-28.3704859815
 21
10.88511849
 31
0.0
 11
-28.3698296927
 21
10.901342135
 31
0.0
 11
-28.3690918437
 21
10.9149052273
 31
0.0
 11
-28.3682817096
 21
10.9256372695
 31
0.0
 11
-28.3674094745
 21
10.9334033526
 31
0.0
 11
-28.3664861029
 21
10.9381058515
 31
0.0
 11
-28.3655232023
 21
10.9396856526
 31
0.0
  0
LINE
  5
366
100
AcDbEntity
  8
RACCORDO
100
AcDbLine
 62
253
  6
CONTINUOUS
 10
-28.3720636707
 20
10.689695185
 11
-28.8546150228
 21
10.6873907244
  0
SPLINE
  5
367
100
AcDbEntity
  8
0
100
AcDbSpline
 62
253
  6
CONTINUOUS
 70
0
 71
3
 72
23
 73
19
 74
17
 42
0.0000001
 43
0.0000001
 44
0.0000000001
 12
-0.4773642622
 22
-0.0720585592
 32
0.0
 13
0.0719729241
 23
-0.477377181
 33
0.0
 40
0.0
 40
0.0
 40
0.0
 40
0.0
 40
0.0990673877
 40
0.196892917
 40
0.292575418
 40
0.3852334648
 40
0.4740134963
 40
0.5580976811
 40
0.6367114536
 40
0.7091306523
 40
0.7746881962
 40
0.8327802388
 40
0.8828717468
 40
0.9245014633
 40
0.9572862377
 40
0.980924798
 40
0.9952015677
 40
1.0
 40
1.0
 40
1.0
 40
1.0
 10
-27.2980317161
 20
-10.0476961498
 30
0.0
 10
-27.3137954595
 20
-10.0500757008
 30
0.0
 10
-27.3451241636
 20
-10.0548127709
 30
0.0
 10
-27.391673862
 20
-10.061875452
 30
0.0
 10
-27.4372001811
 20
-10.068807278
 30
0.0
 10
-27.4812837502
 20
-10.0755443559
 30
0.0
 10
-27.5235183691
 20
-10.0820246471
 30
0.0
 10
-27.5635152977
 20
-10.0881882198
 30
0.0
 10
-27.6009049647
 20
-10.0939788752
 30
0.0
 10
-27.6353466696
 20
-10.0993410233
 30
0.0
 10
-27.6665110413
 20
-10.1042321035
 30
0.0
 10
-27.6941492568
 20
-10.1085847723
 30
0.0
 10
-27.7178904001
 20
-10.1124256407
 30
0.0
 10
-27.7378538032
 20
-10.1155236866
 30
0.0
 10
-27.7529377347
 20
-10.1183782672
 30
0.0
 10
-27.7652595926
 20
-10.1196583291
 30
0.0
 10
-27.7700631692
 20
-10.1220197591
 30
0.0
 10
-27.7751094683
 20
-10.1214736835
 30
0.0
 10
-27.7749943492
 20
-10.1222372375
 30
0.0
 11
-27.2980317161
 21
-10.0476961498
 31
0.0
 11
-27.3453211543
 21
-10.0548466653
 31
0.0
 11
-27.392014197
 21
-10.0619313082
 31
0.0
 11
-27.4376806948
 21
-10.0688848129
 31
0.0
 11
-27.481899955
 21
-10.0756431217
 31
0.0
 11
-27.5242646177
 21
-10.0821439751
 31
0.0
 11
-27.5643844077
 21
-10.0883274856
 31
0.0
 11
-27.6018897304
 21
-10.0941366888
 31
0.0
 11
-27.6364350761
 21
-10.0995180688
 31
0.0
 11
-27.6677022037
 21
-10.1044220508
 31
0.0
 11
-27.6954030715
 21
-10.108803458
 31
0.0
 11
-27.7192824914
 21
-10.1126219275
 31
0.0
 11
-27.7391204797
 21
-10.1158422827
 31
0.0
 11
-27.7547342831
 21
-10.1184348567
 31
0.0
 11
-27.7659800631
 21
-10.1203757659
 31
0.0
 11
-27.7727542203
 21
-10.1216471303
 31
0.0
 11
-27.7749943492
 21
-10.1222372375
 31
0.0
  0
SPLINE
  5
368
100
AcDbEntity
  8
0
100
AcDbSpline
 62
253
  6
CONTINUOUS
 70
0
 71
3
 72
23
 73
19
 74
17
 42
0.0000001
 43
0.0000001
 44
0.0000000001
 12
-0.0261481723
 22
-0.4995452843
 32
0.0
 13
0.4995436188
 23
-0.0261799717
 33
0.0
 40
0.0
 40
0.0
 40
0.0
 40
0.0
 40
0.0978499016
 40
0.1947432743
 40
0.2897503344
 40
0.3819594947
 40
0.4704861696
 40
0.5544813359
 40
0.6331397783
 40
0.7057079592
 40
0.7714914739
 40
0.8298620941
 40
0.8802645015
 40
0.9222230709
 40
0.9553499014
 40
0.9793587241
 40
0.9941101821
 40
1.0
 40
1.0
 40
1.0
 40
1.0
 10
-26.8297872897
 20
-10.4724698259
 30
0.0
 10
-26.8306401551
 20
-10.4887633116
 30
0.0
 10
-26.8322823635
 20
-10.5211939226
 30
0.0
 10
-26.834559845
 20
-10.569454163
 30
0.0
 10
-26.8366255067
 20
-10.61678251
 30
0.0
 10
-26.8384596294
 20
-10.6627242463
 30
0.0
 10
-26.8400447932
 20
-10.7068379297
 30
0.0
 10
-26.8413660594
 20
-10.7486998981
 30
0.0
 10
-26.8424111954
 20
-10.787907417
 30
0.0
 10
-26.8431707435
 20
-10.8240857036
 30
0.0
 10
-26.8436386649
 20
-10.8568812064
 30
0.0
 10
-26.8438113331
 20
-10.8859982377
 30
0.0
 10
-26.8436922433
 20
-10.9110990151
 30
0.0
 10
-26.8432809381
 20
-10.9321138474
 30
0.0
 10
-26.8426108016
 20
-10.9483800588
 30
0.0
 10
-26.8416681093
 20
-10.9609013691
 30
0.0
 10
-26.8406268943
 20
-10.9672406581
 30
0.0
 10
-26.8394862598
 20
-10.9717331949
 30
0.0
 10
-26.8385055195
 20
-10.9717845933
 30
0.0
 11
-26.8297872897
 21
-10.4724698259
 31
0.0
 11
-26.8322622809
 21
-10.5213545874
 31
0.0
 11
-26.8345458317
 21
-10.5697696551
 31
0.0
 11
-26.8366160011
 21
-10.6172498486
 31
0.0
 11
-26.8384528987
 21
-10.6633389693
 31
0.0
 11
-26.8400388753
 21
-10.7075941847
 31
0.0
 11
-26.8413586924
 21
-10.7495902827
 31
0.0
 11
-26.842399669
 21
-10.7889237572
 31
0.0
 11
-26.8431518033
 21
-10.825216685
 31
0.0
 11
-26.8436078685
 21
-10.8581203571
 31
0.0
 11
-26.8437634828
 21
-10.8873186291
 31
0.0
 11
-26.8436171509
 21
-10.9125309587
 31
0.0
 11
-26.8431702789
 21
-10.9335151011
 31
0.0
 11
-26.8424271604
 21
-10.9500694371
 31
0.0
 11
-26.8413949354
 21
-10.9620349096
 31
0.0
 11
-26.8400835216
 21
-10.969296552
 31
0.0
 11
-26.8385055195
 21
-10.9717845933
 31
0.0
  0
SPLINE
  5
369
100
AcDbEntity
  8
ASSI
100
AcDbSpline
 62
253
  6
CONTINUOUS
 70
0
 71
3
 72
21
 73
17
 74
15
 42
0.0000001
 43
0.0000001
 44
0.0000000001
 12
-0.0021831839
 22
0.2504731391
 32
0.0
 13
0.2504731158
 23
0.0021858458
 33
0.0
 40
0.0
 40
0.0
 40
0.0
 40
0.0
 40
0.1117254707
 40
0.2220443826
 40
0.3295717424
 40
0.4329577933
 40
0.5309050832
 40
0.6221849176
 40
0.7056530314
 40
0.7802643551
 40
0.8450868632
 40
0.8993147599
 40
0.9422821117
 40
0.9734815232
 40
0.9926137743
 40
1.0
 40
1.0
 40
1.0
 40
1.0
 10
-28.3720664426
 20
10.6896951719
 30
0.0
 10
-28.3721477483
 20
10.6990232483
 30
0.0
 10
-28.3722732382
 20
10.7175623004
 30
0.0
 10
-28.3723509909
 20
10.7450796011
 30
0.0
 10
-28.372316964
 20
10.7719006818
 30
0.0
 10
-28.372171737
 20
10.7976885122
 30
0.0
 10
-28.371917356
 20
10.8221185663
 30
0.0
 10
-28.371557444
 20
10.8448851077
 30
0.0
 10
-28.3710969227
 20
10.8656976843
 30
0.0
 10
-28.370543114
 20
10.8843087249
 30
0.0
 10
-28.3699027942
 20
10.9004417751
 30
0.0
 10
-28.369192341
 20
10.9140202955
 30
0.0
 10
-28.3684123897
 20
10.9245313665
 30
0.0
 10
-28.3676237674
 20
10.9327034855
 30
0.0
 10
-28.3668007687
 20
10.9366932885
 30
0.0
 10
-28.366139886
 20
10.9396802709
 30
0.0
 10
-28.3655232023
 20
10.9396856526
 30
0.0
 11
-28.3720664426
 21
10.6896951719
 31
0.0
 11
-28.3722555246
 21
10.7176798254
 31
0.0
 11
-28.3723325518
 21
10.7453126919
 31
0.0
 11
-28.372296556
 21
10.7722464062
 31
0.0
 11
-28.3721479896
 21
10.7981423924
 31
0.0
 11
-28.3718887202
 21
10.8226751195
 31
0.0
 11
-28.371522007
 21
10.8455361936
 31
0.0
 11
-28.37105246
 21
10.8664382349
 31
0.0
 11
-28.3704859815
 21
10.88511849
 31
0.0
 11
-28.3698296927
 21
10.901342135
 31
0.0
 11
-28.3690918437
 21
10.9149052273
 31
0.0
 11
-28.3682817096
 21
10.9256372695
 31
0.0
 11
-28.3674094745
 21
10.9334033526
 31
0.0
 11
-28.3664861029
 21
10.9381058515
 31
0.0
 11
-28.3655232023
 21
10.9396856526
 31
0.0
  0
LINE
  5
36A
100
AcDbEntity
  8
ASSI
100
AcDbLine
 62
253
  6
CONTINUOUS
 10
-28.3720636707
 20
10.689695185
 11
-28.8546150228
 21
10.6873907244
  0
SPLINE
  5
36B
100
AcDbEntity
  8
ASSI
100
AcDbSpline
 62
253
  6
CONTINUOUS
 70
0
 71
3
 72
23
 73
19
 74
17
 42
0.0000001
 43
0.0000001
 44
0.0000000001
 12
-0.4773642622
 22
-0.0720585592
 32
0.0
 13
0.0719729241
 23
-0.477377181
 33
0.0
 40
0.0
 40
0.0
 40
0.0
 40
0.0
 40
0.0990673877
 40
0.196892917
 40
0.292575418
 40
0.3852334648
 40
0.4740134963
 40
0.5580976811
 40
0.6367114536
 40
0.7091306523
 40
0.7746881962
 40
0.8327802388
 40
0.8828717468
 40
0.9245014633
 40
0.9572862377
 40
0.980924798
 40
0.9952015677
 40
1.0
 40
1.0
 40
1.0
 40
1.0
 10
-27.2980317161
 20
-10.0476961498
 30
0.0
 10
-27.3137954595
 20
-10.0500757008
 30
0.0
 10
-27.3451241636
 20
-10.0548127709
 30
0.0
 10
-27.391673862
 20
-10.061875452
 30
0.0
 10
-27.4372001811
 20
-10.068807278
 30
0.0
 10
-27.4812837502
 20
-10.0755443559
 30
0.0
 10
-27.5235183691
 20
-10.0820246471
 30
0.0
 10
-27.5635152977
 20
-10.0881882198
 30
0.0
 10
-27.6009049647
 20
-10.0939788752
 30
0.0
 10
-27.6353466696
 20
-10.0993410233
 30
0.0
 10
-27.6665110413
 20
-10.1042321035
 30
0.0
 10
-27.6941492568
 20
-10.1085847723
 30
0.0
 10
-27.7178904001
 20
-10.1124256407
 30
0.0
 10
-27.7378538032
 20
-10.1155236866
 30
0.0
 10
-27.7529377347
 20
-10.1183782672
 30
0.0
 10
-27.7652595926
 20
-10.1196583291
 30
0.0
 10
-27.7700631692
 20
-10.1220197591
 30
0.0
 10
-27.7751094683
 20
-10.1214736835
 30
0.0
 10
-27.7749943492
 20
-10.1222372375
 30
0.0
 11
-27.2980317161
 21
-10.0476961498
 31
0.0
 11
-27.3453211543
 21
-10.0548466653
 31
0.0
 11
-27.392014197
 21
-10.0619313082
 31
0.0
 11
-27.4376806948
 21
-10.0688848129
 31
0.0
 11
-27.481899955
 21
-10.0756431217
 31
0.0
 11
-27.5242646177
 21
-10.0821439751
 31
0.0
 11
-27.5643844077
 21
-10.0883274856
 31
0.0
 11
-27.6018897304
 21
-10.0941366888
 31
0.0
 11
-27.6364350761
 21
-10.0995180688
 31
0.0
 11
-27.6677022037
 21
-10.1044220508
 31
0.0
 11
-27.6954030715
 21
-10.108803458
 31
0.0
 11
-27.7192824914
 21
-10.1126219275
 31
0.0
 11
-27.7391204797
 21
-10.1158422827
 31
0.0
 11
-27.7547342831
 21
-10.1184348567
 31
0.0
 11
-27.7659800631
 21
-10.1203757659
 31
0.0
 11
-27.7727542203
 21
-10.1216471303
 31
0.0
 11
-27.7749943492
 21
-10.1222372375
 31
0.0
  0
SPLINE
  5
36C
100
AcDbEntity
  8
ASSI
100
AcDbSpline
 62
253
  6
CONTINUOUS
 70
0
 71
3
 72
23
 73
19
 74
17
 42
0.0000001
 43
0.0000001
 44
0.0000000001
 12
-0.0261481723
 22
-0.4995452843
 32
0.0
 13
0.4995436188
 23
-0.0261799717
 33
0.0
 40
0.0
 40
0.0
 40
0.0
 40
0.0
 40
0.0978499016
 40
0.1947432743
 40
0.2897503344
 40
0.3819594947
 40
0.4704861696
 40
0.5544813359
 40
0.6331397783
 40
0.7057079592
 40
0.7714914739
 40
0.8298620941
 40
0.8802645015
 40
0.9222230709
 40
0.9553499014
 40
0.9793587241
 40
0.9941101821
 40
1.0
 40
1.0
 40
1.0
 40
1.0
 10
-26.8297872897
 20
-10.4724698259
 30
0.0
 10
-26.8306401551
 20
-10.4887633116
 30
0.0
 10
-26.8322823635
 20
-10.5211939226
 30
0.0
 10
-26.834559845
 20
-10.569454163
 30
0.0
 10
-26.8366255067
 20
-10.61678251
 30
0.0
 10
-26.8384596294
 20
-10.6627242463
 30
0.0
 10
-26.8400447932
 20
-10.7068379297
 30
0.0
 10
-26.8413660594
 20
-10.7486998981
 30
0.0
 10
-26.8424111954
 20
-10.787907417
 30
0.0
 10
-26.8431707435
 20
-10.8240857036
 30
0.0
 10
-26.8436386649
 20
-10.8568812064
 30
0.0
 10
-26.8438113331
 20
-10.8859982377
 30
0.0
 10
-26.8436922433
 20
-10.9110990151
 30
0.0
 10
-26.8432809381
 20
-10.9321138474
 30
0.0
 10
-26.8426108016
 20
-10.9483800588
 30
0.0
 10
-26.8416681093
 20
-10.9609013691
 30
0.0
 10
-26.8406268943
 20
-10.9672406581
 30
0.0
 10
-26.8394862598
 20
-10.9717331949
 30
0.0
 10
-26.8385055195
 20
-10.9717845933
 30
0.0
 11
-26.8297872897
 21
-10.4724698259
 31
0.0
 11
-26.8322622809
 21
-10.5213545874
 31
0.0
 11
-26.8345458317
 21
-10.5697696551
 31
0.0
 11
-26.8366160011
 21
-10.6172498486
 31
0.0
 11
-26.8384528987
 21
-10.6633389693
 31
0.0
 11
-26.8400388753
 21
-10.7075941847
 31
0.0
 11
-26.8413586924
 21
-10.7495902827
 31
0.0
 11
-26.842399669
 21
-10.7889237572
 31
0.0
 11
-26.8431518033
 21
-10.825216685
 31
0.0
 11
-26.8436078685
 21
-10.8581203571
 31
0.0
 11
-26.8437634828
 21
-10.8873186291
 31
0.0
 11
-26.8436171509
 21
-10.9125309587
 31
0.0
 11
-26.8431702789
 21
-10.9335151011
 31
0.0
 11
-26.8424271604
 21
-10.9500694371
 31
0.0
 11
-26.8413949354
 21
-10.9620349096
 31
0.0
 11
-26.8400835216
 21
-10.969296552
 31
0.0
 11
-26.8385055195
 21
-10.9717845933
 31
0.0
  0
LINE
  5
36D
100
AcDbEntity
  8
CURVE
100
AcDbLine
 62
253
  6
CONTINUOUS
 10
-28.5767158853
 20
-2.7617862001
 11
-28.5680441319
 21
-2.8890072752
  0
LINE
  5
36E
100
AcDbEntity
  8
CURVE
100
AcDbLine
 62
253
  6
CONTINUOUS
 10
-28.6649636901
 20
-1.2688530867
 11
-28.6676777715
 21
-1.2150845513
  0
LINE
  5
36F
100
AcDbEntity
  8
CURVE
100
AcDbLine
 62
253
  6
CONTINUOUS
 10
-28.7170394115
 20
-0.0909812749
 11
-28.7214984459
 21
0.0296042583
  0
LINE
  5
370
100
AcDbEntity
  8
CURVE
100
AcDbLine
 62
253
  6
CONTINUOUS
 10
-28.7210410088
 20
0.0170296515
 11
-28.71703937
 21
-0.0909812733
  0
LINE
  5
371
100
AcDbEntity
  8
CURVE
100
AcDbLine
 62
253
  6
CONTINUOUS
 10
-28.6676458497
 20
-1.2157205605
 11
-28.6654093319
 21
-1.2600680874
  0
LINE
  5
372
100
AcDbEntity
  8
CURVE
100
AcDbLine
 62
253
  6
CONTINUOUS
 10
-28.5707470281
 20
-2.8496361929
 11
-28.5680696468
 21
-2.8886355819
  0
LINE
  5
373
100
AcDbEntity
  8
CURVE
100
AcDbLine
 62
253
  6
CONTINUOUS
 10
-28.5680441744
 20
-2.8890072781
 11
-28.5759133847
 21
-2.7736717874
  0
LINE
  5
374
100
AcDbEntity
  8
CURVE
100
AcDbLine
 62
253
  6
CONTINUOUS
 10
-28.5680696733
 20
-2.8886355837
 11
-28.5716066892
 21
-2.8370615861
  0
ELLIPSE
  5
375
100
AcDbEntity
  8
RACCORDO
100
AcDbEllipse
 62
7
  6
CONTINUOUS
 10
9.1469460364
 20
-11.0967107083
 30
0.0
 11
0.2
 21
-0.0
 31
0.0
 40
0.0524077793
 41
0.5235987756
 42
1.5707963268
  0
ELLIPSE
  5
376
100
AcDbEntity
  8
RACCORDO
100
AcDbEllipse
 62
7
  6
CONTINUOUS
 10
-2.0530539636
 20
-11.0967107083
 30
0.0
 11
0.2
 21
0.0
 31
0.0
 40
0.0524077793
 41
0.5235987756
 42
1.5707963268
  0
ELLIPSE
  5
377
100
AcDbEntity
  8
RACCORDO
100
AcDbEllipse
 62
7
  6
CONTINUOUS
 10
-5.4221138559
 20
-11.0967107083
 30
0.0
 11
0.2
 21
-0.0
 31
0.0
 40
0.0524077793
 41
1.5707963268
 42
2.617993878
  0
ELLIPSE
  5
378
100
AcDbEntity
  8
RACCORDO
100
AcDbEllipse
 62
7
  6
CONTINUOUS
 10
5.7778861441
 20
-11.0967107083
 30
0.0
 11
0.2
 21
0.0
 31
0.0
 40
0.0524077793
 41
1.5707963268
 42
2.617993878
  0
ELLIPSE
  5
379
100
AcDbEntity
  8
RACCORDO
100
AcDbEllipse
 62
7
  6
CONTINUOUS
 10
17.0778861441
 20
-11.0967107083
 30
0.0
 11
0.2
 21
-0.0
 31
0.0
 40
0.0524077793
 41
1.5707963268
 42
2.617993878
  0
ELLIPSE
  5
37A
100
AcDbEntity
  8
RACCORDO
100
AcDbEllipse
 62
7
  6
CONTINUOUS
 10
20.4469460364
 20
-11.0967107083
 30
0.0
 11
0.2
 21
-0.0
 31
0.0
 40
0.0524077793
 41
0.5235987756
 42
1.5707963268
  0
ELLIPSE
  5
37B
100
AcDbEntity
  8
RACCORDO
100
AcDbEllipse
 62
7
  6
CONTINUOUS
 10
31.6469460364
 20
-11.0967107083
 30
0.0
 11
0.2
 21
0.0
 31
0.0
 40
0.0524077793
 41
0.5235987756
 42
1.5707963268
  0
ELLIPSE
  5
37C
100
AcDbEntity
  8
RACCORDO
100
AcDbEllipse
 62
7
  6
CONTINUOUS
 10
28.2778861441
 20
-11.0967107083
 30
0.0
 11
0.2
 21
-0.0
 31
0.0
 40
0.0524077793
 41
1.5707963268
 42
2.617993878
  0
ELLIPSE
  5
37D
100
AcDbEntity
  8
0
100
AcDbEllipse
 62
7
  6
CONTINUOUS
 10
34.93580679
 20
-10.6246778005
 30
0.0
 11
0.4943891341
 21
0.0770133648
 31
0.0
 40
0.9960067742
 41
-1.7259388368
 42
-0.1569690096
  0
ELLIPSE
  5
37E
100
AcDbEntity
  8
0
100
AcDbEllipse
 62
7
  6
CONTINUOUS
 10
-8.7109746094
 20
-10.6246778005
 30
0.0
 11
0.4943891341
 21
-0.0770133648
 31
0.0
 40
0.9960067742
 41
-2.984623644
 42
-1.4156538168
  0
ELLIPSE
  5
37F
100
AcDbEntity
  8
RACCORDO
100
AcDbEllipse
 62
7
  6
CONTINUOUS
 10
35.2122637042
 20
10.735149659
 30
0.0
 11
0.2426981267
 21
0.0606514259
 31
0.0
 40
0.9993528196
 41
-0.2447368254
 42
1.3257549497
  0
ELLIPSE
  5
380
100
AcDbEntity
  8
RACCORDO
100
AcDbEllipse
 62
7
  6
CONTINUOUS
 10
-8.9874315236
 20
10.735149659
 30
0.0
 11
0.2426981267
 21
-0.0606514259
 31
0.0
 40
0.9993528196
 41
1.8158377039
 42
3.386329479
  0
ELLIPSE
  5
381
100
AcDbEntity
  8
ASSI
100
AcDbEllipse
 62
7
  6
CONTINUOUS
 10
9.1469460364
 20
-11.0967107083
 30
0.0
 11
0.2
 21
-0.0
 31
0.0
 40
0.0524077793
 41
0.5235987756
 42
1.5707963268
  0
ELLIPSE
  5
382
100
AcDbEntity
  8
ASSI
100
AcDbEllipse
 62
7
  6
CONTINUOUS
 10
-2.0530539636
 20
-11.0967107083
 30
0.0
 11
0.2
 21
0.0
 31
0.0
 40
0.0524077793
 41
0.5235987756
 42
1.5707963268
  0
ELLIPSE
  5
383
100
AcDbEntity
  8
ASSI
100
AcDbEllipse
 62
7
  6
CONTINUOUS
 10
-5.4221138559
 20
-11.0967107083
 30
0.0
 11
0.2
 21
-0.0
 31
0.0
 40
0.0524077793
 41
1.5707963268
 42
2.617993878
  0
ELLIPSE
  5
384
100
AcDbEntity
  8
ASSI
100
AcDbEllipse
 62
7
  6
CONTINUOUS
 10
5.7778861441
 20
-11.0967107083
 30
0.0
 11
0.2
 21
0.0
 31
0.0
 40
0.0524077793
 41
1.5707963268
 42
2.617993878
  0
ELLIPSE
  5
385
100
AcDbEntity
  8
ASSI
100
AcDbEllipse
 62
7
  6
CONTINUOUS
 10
17.0778861441
 20
-11.0967107083
 30
0.0
 11
0.2
 21
-0.0
 31
0.0
 40
0.0524077793
 41
1.5707963268
 42
2.617993878
  0
ELLIPSE
  5
386
100
AcDbEntity
  8
ASSI
100
AcDbEllipse
 62
7
  6
CONTINUOUS
 10
20.4469460364
 20
-11.0967107083
 30
0.0
 11
0.2
 21
-0.0
 31
0.0
 40
0.0524077793
 41
0.5235987756
 42
1.5707963268
  0
ELLIPSE
  5
387
100
AcDbEntity
  8
ASSI
100
AcDbEllipse
 62
7
  6
CONTINUOUS
 10
31.6469460364
 20
-11.0967107083
 30
0.0
 11
0.2
 21
0.0
 31
0.0
 40
0.0524077793
 41
0.5235987756
 42
1.5707963268
  0
ELLIPSE
  5
388
100
AcDbEntity
  8
ASSI
100
AcDbEllipse
 62
7
  6
CONTINUOUS
 10
28.2778861441
 20
-11.0967107083
 30
0.0
 11
0.2
 21
-0.0
 31
0.0
 40
0.0524077793
 41
1.5707963268
 42
2.617993878
  0
ELLIPSE
  5
389
100
AcDbEntity
  8
ASSI
100
AcDbEllipse
 62
7
  6
CONTINUOUS
 10
34.93580679
 20
-10.6246778005
 30
0.0
 11
0.4943891341
 21
0.0770133648
 31
0.0
 40
0.9960067742
 41
-1.7259388368
 42
-0.1569690096
  0
ELLIPSE
  5
38A
100
AcDbEntity
  8
ASSI
100
AcDbEllipse
 62
7
  6
CONTINUOUS
 10
-8.7109746094
 20
-10.6246778005
 30
0.0
 11
0.4943891341
 21
-0.0770133648
 31
0.0
 40
0.9960067742
 41
-2.984623644
 42
-1.4156538168
  0
ELLIPSE
  5
38B
100
AcDbEntity
  8
ASSI
100
AcDbEllipse
 62
7
  6
CONTINUOUS
 10
35.2122637042
 20
10.735149659
 30
0.0
 11
0.2426981267
 21
0.0606514259
 31
0.0
 40
0.9993528196
 41
-0.2447368254
 42
1.3257549497
  0
ELLIPSE
  5
38C
100
AcDbEntity
  8
ASSI
100
AcDbEllipse
 62
7
  6
CONTINUOUS
 10
-8.9874315236
 20
10.735149659
 30
0.0
 11
0.2426981267
 21
-0.0606514259
 31
0.0
 40
0.9993528196
 41
1.8158377039
 42
3.386329479
  0
ELLIPSE
  5
38D
100
AcDbEntity
  8
CURVE
100
AcDbEllipse
 62
253
  6
CONTINUOUS
 10
61.2192384371
 20
3.2951591786
 30
0.0
 11
12.48310907
 21
89.1300846401
 31
0.0
 40
1.0
 41
-4.5209365411
 42
-4.5193648933
  0
ELLIPSE
  5
38E
100
AcDbEntity
  8
CURVE
100
AcDbEllipse
 62
253
  6
CONTINUOUS
 10
61.2192384371
 20
3.2951591786
 30
0.0
 11
88.9699045242
 21
-13.5777792351
 31
0.0
 40
1.0
 41
-2.9620217066
 42
-2.9618972508
  0
ELLIPSE
  5
38F
100
AcDbEntity
  8
CURVE
100
AcDbEllipse
 62
253
  6
CONTINUOUS
 10
61.2192384371
 20
3.2951591786
 30
0.0
 11
89.5619994001
 21
-8.868385617
 31
0.0
 40
1.0
 41
-2.9620985161
 42
-2.9619679413
  0
ELLIPSE
  5
390
100
AcDbEntity
  8
CURVE
100
AcDbEllipse
 62
253
  6
CONTINUOUS
 10
61.2192384371
 20
3.2951591786
 30
0.0
 11
16.5946099761
 21
88.4568760456
 31
0.0
 40
1.0
 41
-4.4988148231
 42
-4.4986903674
  0
ELLIPSE
  5
391
100
AcDbEntity
  8
CURVE
100
AcDbEllipse
 62
253
  6
CONTINUOUS
 10
61.2192384371
 20
3.2951591786
 30
0.0
 11
83.149157926
 21
34.4415089129
 31
0.0
 40
1.0
 41
2.8011961817
 42
2.802863666
  0
ELLIPSE
  5
392
100
AcDbEntity
  8
CURVE
100
AcDbEllipse
 62
253
  6
CONTINUOUS
 10
61.2192384371
 20
3.2951591786
 30
0.0
 11
90.0
 21
-0.0
 31
0.0
 40
1.0
 41
-3.0908596459
 42
-3.0892900438
  0
ELLIPSE
  5
393
100
AcDbEntity
  8
CURVE
100
AcDbEllipse
 62
253
  6
CONTINUOUS
 10
61.2192384371
 20
3.2951591786
 30
0.0
 11
26.080573382
 21
86.138282384
 31
0.0
 40
1.0
 41
-4.3677524075
 42
-4.3660850688
  0
ELLIPSE
  5
394
100
AcDbEntity
  8
CURVE
100
AcDbEllipse
 62
253
  6
CONTINUOUS
 10
61.2192384371
 20
3.2951591786
 30
0.0
 11
2.72352504
 21
89.9587817356
 31
0.0
 40
1.0
 41
-4.6013266129
 42
-4.6011960381
  0
ELLIPSE
  5
395
100
AcDbEntity
  8
CURVE
100
AcDbEllipse
 62
253
  6
CONTINUOUS
 10
61.2192384371
 20
3.2951591786
 30
0.0
 11
89.0810321076
 21
-12.8284729659
 31
0.0
 40
1.0
 41
-2.922182438
 42
-2.9220595868
  0
ELLIPSE
  5
396
100
AcDbEntity
  8
CURVE
100
AcDbEllipse
 62
253
  6
CONTINUOUS
 10
61.2192384371
 20
3.2951591786
 30
0.0
 11
10.6774094218
 21
89.3643828829
 31
0.0
 40
1.0
 41
-4.5170865219
 42
-4.5169636708
  0
ENDSEC
  0
SECTION
  2
OBJECTS
  0
DICTIONARY
  5
C
100
AcDbDictionary
280
0
281
1
  3
ACAD_GROUP
350
D
  3
ACAD_MLINESTYLE
350
17
  3
ACAD_LAYOUT
350
1A
  3
ACAD_PLOTSETTINGS
350
19
  3
ACAD_PLOTSTYLENAME
350
E
  0
DICTIONARY
  5
D
102
{ACAD_REACTORS
330
C
102
}
100
AcDbDictionary
280
0
281
1
  0
ACDBDICTIONARYWDFLT
  5
E
102
{ACAD_REACTORS
330
C
102
}
100
AcDbDictionary
281
1
  3
Normal
350
F
100
AcDbDictionaryWithDefault
340
F
  0
DICTIONARY
  5
17
102
{ACAD_REACTORS
330
C
102
}
100
AcDbDictionary
280
0
281
1
  3
Standard
350
18
  0
DICTIONARY
  5
19
102
{ACAD_REACTORS
330
C
102
}
100
AcDbDictionary
281
1
  0
DICTIONARY
  5
1A
102
{ACAD_REACTORS
330
C
102
}
100
AcDbDictionary
281
1
  3
Model
350
397
  3
Layout1
350
398
  0
ACDBPLACEHOLDER
  5
F
102
{ACAD_REACTORS
330
E
102
}
  0
MLINESTYLE
  5
18
102
{ACAD_REACTORS
330
17
102
}
100
AcDbMlineStyle
  2
STANDARD
 70
0
  3

 62
256
 51
90.0
 52
90.0
 71
2
 49
0.5
 62
256
  6
BYLAYER
 49
-0.5
 62
256
  6
BYLAYER
  0
LAYOUT
  5
397
102
{ACAD_REACTORS
330
1A
102
}
100
AcDbPlotSettings
  1

  2
none_device
  4
ISO_A4_(297.00_x_210.00_MM)
  6

 40
0.0
 41
0.0
 42
0.0
 43
0.0
 44
297.0
 45
210.0
 46
0.0
 47
0.0
 48
0.0
 49
0.0
140
0.0
141
0.0
142
1.0
143
1.0
 70
1024
 72
1
 73
0
 74
0
  7

 75
0
147
1.0
148
0.0
149
0.0
100
AcDbLayout
  1
Model
 70
0
 71
0
 10
0.0
 20
0.0
 11
297.0
 21
210.0
 12
0.0
 22
0.0
 32
0.0
 14
0.0
 24
0.0
 34
0.0
 15
0.0
 25
0.0
 35
0.0
146
0.0
 13
0.0
 23
0.0
 33
0.0
 16
1.0
 26
0.0
 36
0.0
 17
0.0
 27
1.0
 37
0.0
 76
0
330
218
345
0
346
0
  0
LAYOUT
  5
398
102
{ACAD_REACTORS
330
1A
102
}
100
AcDbPlotSettings
  1

  2
none_device
  4
ISO_A4_(297.00_x_210.00_MM)
  6

 40
0.0
 41
0.0
 42
0.0
 43
0.0
 44
297.0
 45
210.0
 46
0.0
 47
0.0
 48
0.0
 49
0.0
140
0.0
141
0.0
142
1.0
143
1.0
 70
0
 72
1
 73
0
 74
0
  7

 75
0
147
1.0
148
0.0
149
0.0
100
AcDbLayout
  1
Layout1
 70
0
 71
1
 10
0.0
 20
0.0
 11
297.0
 21
210.0
 12
0.0
 22
0.0
 32
0.0
 14
0.0
 24
0.0
 34
0.0
 15
0.0
 25
0.0
 35
0.0
146
0.0
 13
0.0
 23
0.0
 33
0.0
 16
1.0
 26
0.0
 36
0.0
 17
0.0
 27
1.0
 37
0.0
 76
0
330
219
345
0
346
0
  0
ENDSEC
  0
EOF
