  0
SECTION
  2
HEADER
  9
$ACADVER
  1
AC1015
  9
$DWGCODEPAGE
  3
ANSI_1252
  9
$EXTMAX
 10
297.0
 20
210.0
 30
0.0
  9
$EXTMIN
 10
0.0
 20
0.0
 30
0.0
  9
$LIMMIN
 10
0.0
 20
0.0
  9
$LIMMAX
 10
297.0
 20
210.0
  9
$VIEWCTR
 10
148.5
 20
105.0
  9
$VIEWSIZE
 40
210.0
  9
$CLAYER
  8
0
  9
$LTSCALE
 40
16.335
  9
$CELTYPE
  6
BYLAYER
  9
$DIMSCALE
 40
1.0
  9
$DIMASZ
 40
3.0
  9
$DIMEXO
 40
1.85625
  9
$DIMDLI
 40
11.286
  9
$DIMEXE
 40
5.346
  9
$DIMCEN
 40
2.673
  9
$DIMLFAC
 40
1.0
  9
$DIMBLK
  1
_FILLED
  9
$DIMTXT
 40
3.0
  9
$DIMTOL
 70
1
  9
$DIMLIM
 70
0
  9
$DIMTFAC
 40
1.0
  9
$DIMTP
 40
0.01
  9
$DIMTM
 40
0.01
  9
$PDMODE
 70
3
  9
$PDSIZE
 40
3.0
  9
$HANDSEED
  5
34A
  9
$TILEMODE
 70
1
  9
$MEASUREMENT
 70
1
  9
$INSUNITS
 70
4
  0
ENDSEC
  0
SECTION
  2
CLASSES
  0
CLASS
  1
ACDBDICTIONARYWDFLT
  2
AcDbDictionaryWithDefault
  3
AutoCAD 2000
 90
0
280
0
281
0
  0
CLASS
  1
ACDBPLACEHOLDER
  2
AcDbPlaceHolder
  3
AutoCAD 2000
 90
0
280
0
281
0
  0
CLASS
  1
LAYOUT
  2
AcDbLayout
  3
AutoCAD 2000
 90
0
280
0
281
0
  0
ENDSEC
  0
SECTION
  2
TABLES
  0
TABLE
  2
VPORT
  5
8
100
AcDbSymbolTable
 70
2
  0
VPORT
  5
1F4
100
AcDbSymbolTableRecord
100
AcDbViewportTableRecord
  2
*ACTIVE
 70
0
 10
0.0
 20
0.0
 11
1.0
 21
1.0
 12
148.5
 22
105.0
 13
0.0
 23
0.0
 14
1.0
 24
1.0
 15
0.0
 25
0.0
 16
0.0
 26
0.0
 36
1.0
 17
0.0
 27
0.0
 37
0.0
 40
210.0
 41
1.4142857143
 42
50.0
 43
0.0
 44
0.0
 50
0.0
 51
0.0
 71
0
 72
100
 73
1
 74
1
 75
0
 76
0
 77
0
 78
0
  0
ENDTAB
  0
TABLE
  2
LTYPE
  5
5
100
AcDbSymbolTable
 70
6
  0
LTYPE
  5
14
100
AcDbSymbolTableRecord
100
AcDbLinetypeTableRecord
  2
BYBLOCK
 70
0
  3

 72
65
 73
0
 40
0.0
  0
LTYPE
  5
15
100
AcDbSymbolTableRecord
100
AcDbLinetypeTableRecord
  2
BYLAYER
 70
0
  3

 72
65
 73
0
 40
0.0
  0
LTYPE
  5
16
100
AcDbSymbolTableRecord
100
AcDbLinetypeTableRecord
  2
CONTINUOUS
 70
64
  3
Solid line
 72
65
 73
0
 40
0.0
  0
LTYPE
  5
1F5
100
AcDbSymbolTableRecord
100
AcDbLinetypeTableRecord
  2
CENTER
 70
64
  3
____ _ ____ _ ____ _ ____ _ ____ _ ____ _ ____
 72
65
 73
4
 40
0.6
 49
0.375
 74
0
 49
-0.075
 74
0
 49
0.075
 74
0
 49
-0.075
 74
0
  0
LTYPE
  5
1F6
100
AcDbSymbolTableRecord
100
AcDbLinetypeTableRecord
  2
HIDDEN
 70
64
  3
- - - - - - - - - - - - - - - - - - - -
 72
65
 73
2
 40
0.2
 49
0.1
 74
0
 49
-0.1
 74
0
  0
LTYPE
  5
1F7
100
AcDbSymbolTableRecord
100
AcDbLinetypeTableRecord
  2
PHANTOM
 70
64
  3
_____ _ _ _____ _ _ _____ _ _ _____
 72
65
 73
6
 40
0.8
 49
0.45
 74
0
 49
-0.05
 74
0
 49
0.1
 74
0
 49
-0.05
 74
0
 49
0.1
 74
0
 49
-0.05
 74
0
  0
LTYPE
  5
1F8
100
AcDbSymbolTableRecord
100
AcDbLinetypeTableRecord
  2
DOT
 70
64
  3
. . . . . . . . . . . . . . . . . . . .
 72
65
 73
2
 40
0.2
 49
0.1
 74
0
 49
-0.1
 74
0
  0
LTYPE
  5
1F9
100
AcDbSymbolTableRecord
100
AcDbLinetypeTableRecord
  2
DASHED
 70
64
  3
- - - - - - - - - - - - - - - - - - - -
 72
65
 73
2
 40
0.2
 49
0.1
 74
0
 49
-0.1
 74
0
  0
ENDTAB
  0
TABLE
  2
LAYER
  5
2
100
AcDbSymbolTable
 70
36
  0
LAYER
  5
10
100
AcDbSymbolTableRecord
100
AcDbLayerTableRecord
  2
0
 70
0
 62
7
  6
CONTINUOUS
370
-3
390
F
  0
LAYER
  5
1FA
100
AcDbSymbolTableRecord
100
AcDbLayerTableRecord
  2
DEFAULT_1
 70
0
 62
7
  6
CENTER
370
-3
390
F
  0
LAYER
  5
1FB
100
AcDbSymbolTableRecord
100
AcDbLayerTableRecord
  2
DEFAULT_2
 70
0
 62
7
  6
HIDDEN
370
-3
390
F
  0
LAYER
  5
1FC
100
AcDbSymbolTableRecord
100
AcDbLayerTableRecord
  2
DEFAULT_3
 70
0
 62
7
  6
PHANTOM
370
-3
390
F
  0
LAYER
  5
1FD
100
AcDbSymbolTableRecord
100
AcDbLayerTableRecord
  2
ASSI
 70
0
 62
7
  6
CONTINUOUS
370
-3
390
F
  0
LAYER
  5
1FE
100
AcDbSymbolTableRecord
100
AcDbLayerTableRecord
  2
COLOR9
 70
0
 62
7
  6
CONTINUOUS
370
-3
390
F
  0
LAYER
  5
1FF
100
AcDbSymbolTableRecord
100
AcDbLayerTableRecord
  2
COORDINATE
 70
0
 62
7
  6
CONTINUOUS
370
-3
390
F
  0
LAYER
  5
200
100
AcDbSymbolTableRecord
100
AcDbLayerTableRecord
  2
COORD_ORIGINE
 70
0
 62
7
  6
CONTINUOUS
370
-3
390
F
  0
LAYER
  5
201
100
AcDbSymbolTableRecord
100
AcDbLayerTableRecord
  2
COPY_PUBLISH
 70
0
 62
7
  6
CONTINUOUS
370
-3
390
F
  0
LAYER
  5
202
100
AcDbSymbolTableRecord
100
AcDbLayerTableRecord
  2
COSMETIC
 70
0
 62
7
  6
CONTINUOUS
370
-3
390
F
  0
LAYER
  5
203
100
AcDbSymbolTableRecord
100
AcDbLayerTableRecord
  2
CURVE
 70
0
 62
7
  6
CONTINUOUS
370
-3
390
F
  0
LAYER
  5
204
100
AcDbSymbolTableRecord
100
AcDbLayerTableRecord
  2
DRAFT
 70
0
 62
7
  6
CONTINUOUS
370
-3
390
F
  0
LAYER
  5
205
100
AcDbSymbolTableRecord
100
AcDbLayerTableRecord
  2
IGS_SCRITTE
 70
0
 62
7
  6
CONTINUOUS
370
-3
390
F
  0
LAYER
  5
206
100
AcDbSymbolTableRecord
100
AcDbLayerTableRecord
  2
IMPORT_IGES
 70
0
 62
7
  6
CONTINUOUS
370
-3
390
F
  0
LAYER
  5
207
100
AcDbSymbolTableRecord
100
AcDbLayerTableRecord
  2
INTF_15
 70
0
 62
7
  6
CONTINUOUS
370
-3
390
F
  0
LAYER
  5
208
100
AcDbSymbolTableRecord
100
AcDbLayerTableRecord
  2
INTF_3
 70
0
 62
7
  6
CONTINUOUS
370
-3
390
F
  0
LAYER
  5
209
100
AcDbSymbolTableRecord
100
AcDbLayerTableRecord
  2
INTF_4
 70
0
 62
7
  6
CONTINUOUS
370
-3
390
F
  0
LAYER
  5
20A
100
AcDbSymbolTableRecord
100
AcDbLayerTableRecord
  2
INTF_YELLOW
 70
0
 62
7
  6
CONTINUOUS
370
-3
390
F
  0
LAYER
  5
20B
100
AcDbSymbolTableRecord
100
AcDbLayerTableRecord
  2
PIANI
 70
0
 62
7
  6
CONTINUOUS
370
-3
390
F
  0
LAYER
  5
20C
100
AcDbSymbolTableRecord
100
AcDbLayerTableRecord
  2
PIANI_ORIGINE
 70
0
 62
7
  6
CONTINUOUS
370
-3
390
F
  0
LAYER
  5
20D
100
AcDbSymbolTableRecord
100
AcDbLayerTableRecord
  2
PIANI_RIFERIMENTO
 70
0
 62
7
  6
CONTINUOUS
370
-3
390
F
  0
LAYER
  5
20E
100
AcDbSymbolTableRecord
100
AcDbLayerTableRecord
  2
RACCORDO
 70
0
 62
7
  6
CONTINUOUS
370
-3
390
F
  0
LAYER
  5
20F
100
AcDbSymbolTableRecord
100
AcDbLayerTableRecord
  2
SMUSSO
 70
0
 62
7
  6
CONTINUOUS
370
-3
390
F
  0
LAYER
  5
210
100
AcDbSymbolTableRecord
100
AcDbLayerTableRecord
  2
SNAPLINE
 70
0
 62
7
  6
CONTINUOUS
370
-3
390
F
  0
LAYER
  5
211
100
AcDbSymbolTableRecord
100
AcDbLayerTableRecord
  2
SOLIDO
 70
0
 62
7
  6
CONTINUOUS
370
-3
390
F
  0
LAYER
  5
212
100
AcDbSymbolTableRecord
100
AcDbLayerTableRecord
  2
SUPERFICI
 70
0
 62
7
  6
CONTINUOUS
370
-3
390
F
  0
LAYER
  5
213
100
AcDbSymbolTableRecord
100
AcDbLayerTableRecord
  2
TRASH
 70
0
 62
7
  6
CONTINUOUS
370
-3
390
F
  0
LAYER
  5
214
100
AcDbSymbolTableRecord
100
AcDbLayerTableRecord
  2
WHITE
 70
0
 62
7
  6
CONTINUOUS
370
-3
390
F
  0
LAYER
  5
215
100
AcDbSymbolTableRecord
100
AcDbLayerTableRecord
  2
XSEC_DATUMS
 70
0
 62
7
  6
CONTINUOUS
370
-3
390
F
  0
ENDTAB
  0
TABLE
  2
STYLE
  5
3
100
AcDbSymbolTable
 70
1
  0
STYLE
  5
11
100
AcDbSymbolTableRecord
100
AcDbTextStyleTableRecord
  2
STANDARD
 70
0
 40
0.0
 41
0.8
 50
0.0
 71
0
 42
0.2
  3
txt
  4

  0
STYLE
  5
216
100
AcDbSymbolTableRecord
100
AcDbTextStyleTableRecord
  2
TEXTSTYLE_1
 70
0
 40
0.0
 41
0.8
 50
0.0
 71
0
 42
0.2
  3
gdt
  4

  0
ENDTAB
  0
TABLE
  2
VIEW
  5
6
100
AcDbSymbolTable
 70
0
  0
ENDTAB
  0
TABLE
  2
UCS
  5
7
100
AcDbSymbolTable
 70
0
  0
ENDTAB
  0
TABLE
  2
APPID
  5
9
100
AcDbSymbolTable
 70
1
  0
APPID
  5
217
100
AcDbSymbolTableRecord
100
AcDbRegAppTableRecord
  2
ACAD
 70
0
  0
ENDTAB
  0
TABLE
  2
BLOCK_RECORD
  5
1
100
AcDbSymbolTable
 70
0
  0
BLOCK_RECORD
  5
218
100
AcDbSymbolTableRecord
100
AcDbBlockTableRecord
  2
*Model_Space
  0
BLOCK_RECORD
  5
219
100
AcDbSymbolTableRecord
100
AcDbBlockTableRecord
  2
*Paper_Space
  0
BLOCK_RECORD
  5
21A
100
AcDbSymbolTableRecord
100
AcDbBlockTableRecord
  2
_FILLED
  0
BLOCK_RECORD
  5
21B
100
AcDbSymbolTableRecord
100
AcDbBlockTableRecord
  2
*D0
  0
BLOCK_RECORD
  5
21C
100
AcDbSymbolTableRecord
100
AcDbBlockTableRecord
  2
*D1
  0
BLOCK_RECORD
  5
21D
100
AcDbSymbolTableRecord
100
AcDbBlockTableRecord
  2
*D2
  0
ENDTAB
  0
TABLE
  2
DIMSTYLE
  5
A
100
AcDbSymbolTable
 70
1
100
AcDbDimStyleTable
 71
0
  0
DIMSTYLE
105
21E
100
AcDbSymbolTableRecord
100
AcDbDimStyleTableRecord
  2
STANDARD
 70
0
  3

  4

 40
1.0
 41
3.0
 42
0.0625
 43
0.38
 44
0.18
 45
0.0
 46
0.0
 47
0.01
 48
0.01
140
3.0
141
0.09
142
0.0
143
25.4
144
1.0
145
0.0
146
1.0
147
0.09
 71
1.0
 72
0.0
 73
0
 74
0
 75
0
 76
0
 77
1
 78
8
170
0
171
2
172
0
173
0
174
0
175
0
176
0
177
0
178
0
270
2
271
2
272
2
273
2
274
2
275
0
280
0
281
0
282
0
283
1
284
8
285
0
286
0
287
3
288
0
340
11
341
21A
342
21A
343
21A
344
21A
  0
DIMSTYLE
105
21F
100
AcDbSymbolTableRecord
100
AcDbDimStyleTableRecord
  2
DIMSTYLE_1
 70
0
  3

  4

 40
1.0
 41
3.0
 42
0.0625
 43
0.38
 44
0.18
 45
0.0
 46
0.0
 47
0.0
 48
0.0
140
3.0
141
0.09
142
0.0
143
25.4
144
1.0
145
0.0
146
1.0
147
0.09
 71
0.0
 72
0.0
 73
0
 74
0
 75
0
 76
0
 77
1
 78
8
170
0
171
2
172
0
173
0
174
0
175
0
176
0
177
0
178
0
270
2
271
2
272
2
273
2
274
2
275
0
280
0
281
0
282
0
283
1
284
8
285
0
286
0
287
3
288
0
340
11
341
21A
342
21A
343
21A
344
21A
  0
DIMSTYLE
105
220
100
AcDbSymbolTableRecord
100
AcDbDimStyleTableRecord
  2
DIMSTYLE_2
 70
0
  3

  4

 40
1.0
 41
3.0
 42
0.0625
 43
0.38
 44
0.18
 45
0.0
 46
0.0
 47
0.0
 48
0.0
140
3.0
141
0.09
142
0.0
143
25.4
144
1.0
145
0.0
146
1.0
147
0.09
 71
0.0
 72
0.0
 73
0
 74
0
 75
0
 76
0
 77
1
 78
8
170
0
171
2
172
0
173
0
174
0
175
0
176
0
177
0
178
0
270
2
271
1
272
1
273
2
274
2
275
0
280
0
281
0
282
0
283
1
284
8
285
0
286
0
287
3
288
0
340
11
341
21A
342
21A
343
21A
344
21A
  0
ENDTAB
  0
ENDSEC
  0
SECTION
  2
BLOCKS
  0
BLOCK
  5
20
100
AcDbEntity
  8
0
100
AcDbBlockBegin
  2
*Model_Space
 70
0
 10
0.0
 20
0.0
 30
0.0
  3
*Model_Space
  1

  0
ENDBLK
  5
21
100
AcDbEntity
  8
0
100
AcDbBlockEnd
  0
BLOCK
  5
1C
100
AcDbEntity
  8
0
100
AcDbBlockBegin
  2
*Paper_Space
 70
0
 10
0.0
 20
0.0
 30
0.0
  3
*Paper_Space
  1

  0
ENDBLK
  5
1D
100
AcDbEntity
  8
0
100
AcDbBlockEnd
  0
BLOCK
  5
221
100
AcDbEntity
  8
0
100
AcDbBlockBegin
  2
_FILLED
 70
64
 10
0.0
 20
0.0
  3
_FILLED
  1

  0
SOLID
  5
222
100
AcDbEntity
  8
0
  6
BYBLOCK
 62
0
100
AcDbTrace
 10
0.0
 20
0.0
 11
-1.0
 21
0.3166666667
 12
-1.0
 22
-0.3166666667
 13
-1.0
 23
-0.3166666667
  0
ENDBLK
  5
223
100
AcDbEntity
  8
0
  6
BYBLOCK
 62
0
100
AcDbBlockEnd
  0
BLOCK
  5
224
100
AcDbEntity
  8
0
100
AcDbBlockBegin
 62
7
  6
CONTINUOUS
  2
*D0
 70
65
 10
0.0
 20
0.0
  3
*D0
  1

  0
MTEXT
  5
225
100
AcDbEntity
  8
0
100
AcDbMText
 62
7
  6
CONTINUOUS
  7
STANDARD
 71
2
 72
1
 10
12.9457065833
 20
22.7202571592
 30
0.0
 11
1.0
 21
0.0
 31
0.0
 44
0.9
  1
44,7
 40
3.0
 41
8.7857142857
  0
LINE
  5
226
100
AcDbEntity
  8
0
100
AcDbLine
 62
7
  6
CONTINUOUS
 10
35.2957065833
 20
11.2200837804
 11
35.2957065833
 21
20.4702571592
  0
LINE
  5
227
100
AcDbEntity
  8
0
100
AcDbLine
 62
7
  6
CONTINUOUS
 10
-9.4042934167
 20
11.2200837804
 11
-9.4042934167
 21
20.4702571592
  0
LINE
  5
228
100
AcDbEntity
  8
0
100
AcDbLine
 62
7
  6
CONTINUOUS
 10
35.2957065833
 20
18.9702571592
 11
12.9457065833
 21
18.9702571592
  0
LINE
  5
229
100
AcDbEntity
  8
0
100
AcDbLine
 62
7
  6
CONTINUOUS
 10
-9.4042934167
 20
18.9702571592
 11
12.9457065833
 21
18.9702571592
  0
INSERT
  5
22A
100
AcDbEntity
  8
0
100
AcDbBlockReference
 62
7
  6
CONTINUOUS
  2
_FILLED
 10
35.2957065833
 20
18.9702571592
 41
3.0
 42
3.0
 43
3.0
 50
0.0
  0
INSERT
  5
22B
100
AcDbEntity
  8
0
100
AcDbBlockReference
 62
7
  6
CONTINUOUS
  2
_FILLED
 10
-9.4042934167
 20
18.9702571592
 41
3.0
 42
3.0
 43
3.0
 50
180.0
  0
ENDBLK
  5
22C
100
AcDbEntity
  8
0
  6
BYBLOCK
 62
0
100
AcDbBlockEnd
  0
BLOCK
  5
22D
100
AcDbEntity
  8
0
100
AcDbBlockBegin
 62
7
  6
CONTINUOUS
  2
*D1
 70
65
 10
0.0
 20
0.0
  3
*D1
  1

  0
MTEXT
  5
22E
100
AcDbEntity
  8
0
100
AcDbMText
 62
7
  6
CONTINUOUS
  7
STANDARD
 71
2
 72
1
 10
39.5457065833
 20
-0.0841018111
 30
0.0
 11
0.0
 21
1.0
 31
0.0
 44
0.9
  1
22,1
 40
3.0
 41
8.1428571429
  0
LINE
  5
22F
100
AcDbEntity
  8
0
100
AcDbLine
 62
7
  6
CONTINUOUS
 10
35.5456303816
 20
10.9700171592
 11
44.7957065833
 21
10.9700171592
  0
LINE
  5
230
100
AcDbEntity
  8
0
100
AcDbLine
 62
7
  6
CONTINUOUS
 10
35.2684883886
 20
-11.1382207814
 11
44.7957065833
 21
-11.1382207814
  0
LINE
  5
231
100
AcDbEntity
  8
0
100
AcDbLine
 62
7
  6
CONTINUOUS
 10
43.2957065833
 20
10.9700171592
 11
43.2957065833
 21
-0.0841018111
  0
LINE
  5
232
100
AcDbEntity
  8
0
100
AcDbLine
 62
7
  6
CONTINUOUS
 10
43.2957065833
 20
-11.1382207814
 11
43.2957065833
 21
-0.0841018111
  0
INSERT
  5
233
100
AcDbEntity
  8
0
100
AcDbBlockReference
 62
7
  6
CONTINUOUS
  2
_FILLED
 10
43.2957065833
 20
10.9700171592
 41
3.0
 42
3.0
 43
3.0
 50
90.0
  0
INSERT
  5
234
100
AcDbEntity
  8
0
100
AcDbBlockReference
 62
7
  6
CONTINUOUS
  2
_FILLED
 10
43.2957065833
 20
-11.1382207814
 41
3.0
 42
3.0
 43
3.0
 50
270.0
  0
ENDBLK
  5
235
100
AcDbEntity
  8
0
  6
BYBLOCK
 62
0
100
AcDbBlockEnd
  0
BLOCK
  5
236
100
AcDbEntity
  8
0
100
AcDbBlockBegin
 62
7
  6
CONTINUOUS
  2
*D2
 70
65
 10
0.0
 20
0.0
  3
*D2
  1

  0
MTEXT
  5
237
100
AcDbEntity
  8
0
100
AcDbMText
 62
7
  6
CONTINUOUS
  7
STANDARD
 71
2
 72
1
 10
-23.3999590179
 20
22.7202571592
 30
0.0
 11
1.0
 21
0.0
 31
0.0
 44
0.9
  1
5,7
 40
3.0
 41
6.2142857143
  0
LINE
  5
238
100
AcDbEntity
  8
0
100
AcDbLine
 62
7
  6
CONTINUOUS
 10
-20.5500381278
 20
11.2200837804
 11
-20.5500381278
 21
20.4702571592
  0
LINE
  5
239
100
AcDbEntity
  8
0
100
AcDbLine
 62
7
  6
CONTINUOUS
 10
-26.249879908
 20
11.172248706
 11
-26.249879908
 21
20.4702571592
  0
LINE
  5
23A
100
AcDbEntity
  8
0
100
AcDbLine
 62
7
  6
CONTINUOUS
 10
-20.5500381278
 20
18.9702571592
 11
-16.5500381278
 21
18.9702571592
  0
LINE
  5
23B
100
AcDbEntity
  8
0
100
AcDbLine
 62
7
  6
CONTINUOUS
 10
-16.5500381278
 20
18.9702571592
 11
-23.3999590179
 21
18.9702571592
  0
LINE
  5
23C
100
AcDbEntity
  8
0
100
AcDbLine
 62
7
  6
CONTINUOUS
 10
-26.249879908
 20
18.9702571592
 11
-30.249879908
 21
18.9702571592
  0
LINE
  5
23D
100
AcDbEntity
  8
0
100
AcDbLine
 62
7
  6
CONTINUOUS
 10
-30.249879908
 20
18.9702571592
 11
-23.3999590179
 21
18.9702571592
  0
INSERT
  5
23E
100
AcDbEntity
  8
0
100
AcDbBlockReference
 62
7
  6
CONTINUOUS
  2
_FILLED
 10
-20.5500381278
 20
18.9702571592
 41
3.0
 42
3.0
 43
3.0
 50
180.0
  0
INSERT
  5
23F
100
AcDbEntity
  8
0
100
AcDbBlockReference
 62
7
  6
CONTINUOUS
  2
_FILLED
 10
-26.249879908
 20
18.9702571592
 41
3.0
 42
3.0
 43
3.0
  0
ENDBLK
  5
240
100
AcDbEntity
  8
0
  6
BYBLOCK
 62
0
100
AcDbBlockEnd
  0
ENDSEC
  0
SECTION
  2
ENTITIES
  0
DIMENSION
  5
241
100
AcDbEntity
  8
0
100
AcDbDimension
 62
7
  6
CONTINUOUS
  2
*D0
 10
-9.4042934167
 20
18.9702571592
 11
8.5528494405
 21
21.2202571592
 70
160
 71
2
 42
44.7
  3
DIMSTYLE_1
100
AcDbAlignedDimension
 13
35.2957065833
 23
11.2200837804
 14
-9.4042934167
 24
11.2200837804
 50
180.0
100
AcDbRotatedDimension
  0
DIMENSION
  5
242
100
AcDbEntity
  8
0
100
AcDbDimension
 62
7
  6
CONTINUOUS
  2
*D1
 10
43.2957065833
 20
-11.1382207814
 11
42.8700063061
 21
-3.7239453701
 70
160
 71
2
 42
22.1082379406
  3
DIMSTYLE_2
100
AcDbAlignedDimension
 13
35.5456303816
 23
10.9700171592
 14
35.2684883886
 24
-11.1382207814
 50
270.0
100
AcDbRotatedDimension
  0
DIMENSION
  5
243
100
AcDbEntity
  8
0
100
AcDbDimension
 62
7
  6
CONTINUOUS
  2
*D2
 10
-26.249879908
 20
18.9702571592
 11
-26.507101875
 21
21.2202571592
 70
160
 71
2
 42
5.6998417802
  3
DIMSTYLE_1
100
AcDbAlignedDimension
 13
-20.5500381278
 23
11.2200837804
 14
-26.249879908
 24
11.172248706
 50
180.0
100
AcDbRotatedDimension
  0
LINE
  5
244
100
AcDbEntity
  8
0
100
AcDbLine
 62
7
  6
CONTINUOUS
 10
-9.3779861073
 20
-10.6407301486
 11
-9.4042934167
 21
-2.0299828408
  0
LINE
  5
245
100
AcDbEntity
  8
ASSI
100
AcDbLine
 62
7
  6
CONTINUOUS
 10
-9.3779861073
 20
-10.6407301486
 11
-9.4042934167
 21
-2.0299828408
  0
LINE
  5
246
100
AcDbEntity
  8
RACCORDO
100
AcDbLine
 62
7
  6
CONTINUOUS
 10
-9.4042934167
 20
10.7200837804
 11
-9.4042934167
 21
-2.0299828408
  0
LINE
  5
247
100
AcDbEntity
  8
ASSI
100
AcDbLine
 62
7
  6
CONTINUOUS
 10
-9.4042934167
 20
10.7200837804
 11
-9.4042934167
 21
-2.0299828408
  0
LINE
  5
248
100
AcDbEntity
  8
RACCORDO
100
AcDbLine
 62
253
  6
CONTINUOUS
 10
-8.7224061628
 20
10.6722487057
 11
-8.7224061628
 21
10.922438071
  0
LINE
  5
249
100
AcDbEntity
  8
ASSI
100
AcDbLine
 62
253
  6
CONTINUOUS
 10
-8.7255493752
 20
1.5700171592
 11
-8.7224061628
 21
10.922438071
  0
LINE
  5
24A
100
AcDbEntity
  8
0
100
AcDbLine
 62
253
  6
CONTINUOUS
 10
-9.3779861073
 20
-10.6407301486
 11
-9.2759590983
 21
-10.4876118454
  0
LINE
  5
24B
100
AcDbEntity
  8
ASSI
100
AcDbLine
 62
253
  6
CONTINUOUS
 10
-9.3779861073
 20
-10.6407301486
 11
-9.2759590983
 21
-10.4876118454
  0
LINE
  5
24C
100
AcDbEntity
  8
0
100
AcDbLine
 62
253
  6
CONTINUOUS
 10
-8.8770752219
 20
-11.1382207814
 11
-8.7762636848
 21
-10.9869266127
  0
LINE
  5
24D
100
AcDbEntity
  8
ASSI
100
AcDbLine
 62
253
  6
CONTINUOUS
 10
-8.8770752219
 20
-11.1382207814
 11
-8.7762636848
 21
-10.9869266127
  0
LINE
  5
24E
100
AcDbEntity
  8
RACCORDO
100
AcDbLine
 62
7
  6
CONTINUOUS
 10
27.5897528824
 20
-11.1382207814
 11
27.9379715564
 21
-11.1066119498
  0
LINE
  5
24F
100
AcDbEntity
  8
ASSI
100
AcDbLine
 62
7
  6
CONTINUOUS
 10
27.5897528824
 20
-11.1382207814
 11
27.9379715564
 21
-11.1066119498
  0
LINE
  5
250
100
AcDbEntity
  8
RACCORDO
100
AcDbLine
 62
7
  6
CONTINUOUS
 10
-1.6983397158
 20
-11.1382207814
 11
-2.0465583897
 21
-11.1066119498
  0
LINE
  5
251
100
AcDbEntity
  8
ASSI
100
AcDbLine
 62
7
  6
CONTINUOUS
 10
-1.6983397158
 20
-11.1382207814
 11
-2.0465583897
 21
-11.1066119498
  0
LINE
  5
252
100
AcDbEntity
  8
RACCORDO
100
AcDbLine
 62
7
  6
CONTINUOUS
 10
16.3897528824
 20
-11.1382207814
 11
16.7379715564
 21
-11.1066119498
  0
LINE
  5
253
100
AcDbEntity
  8
ASSI
100
AcDbLine
 62
7
  6
CONTINUOUS
 10
16.3897528824
 20
-11.1382207814
 11
16.7379715564
 21
-11.1066119498
  0
LINE
  5
254
100
AcDbEntity
  8
RACCORDO
100
AcDbLine
 62
7
  6
CONTINUOUS
 10
5.0897528824
 20
-11.1382207814
 11
5.4379715564
 21
-11.1066119498
  0
LINE
  5
255
100
AcDbEntity
  8
ASSI
100
AcDbLine
 62
7
  6
CONTINUOUS
 10
5.0897528824
 20
-11.1382207814
 11
5.4379715564
 21
-11.1066119498
  0
LINE
  5
256
100
AcDbEntity
  8
0
100
AcDbLine
 62
7
  6
CONTINUOUS
 10
34.7684883886
 20
-11.1382207814
 11
32.0016602842
 21
-11.1382207814
  0
LINE
  5
257
100
AcDbEntity
  8
ASSI
100
AcDbLine
 62
7
  6
CONTINUOUS
 10
34.7684883886
 20
-11.1382207814
 11
32.0016602842
 21
-11.1382207814
  0
LINE
  5
258
100
AcDbEntity
  8
DRAFT
100
AcDbLine
 62
7
  6
CONTINUOUS
 10
27.5897528824
 20
-11.1382207814
 11
20.8016602842
 21
-11.1382207814
  0
LINE
  5
259
100
AcDbEntity
  8
ASSI
100
AcDbLine
 62
7
  6
CONTINUOUS
 10
27.5897528824
 20
-11.1382207814
 11
20.8016602842
 21
-11.1382207814
  0
LINE
  5
25A
100
AcDbEntity
  8
DRAFT
100
AcDbLine
 62
7
  6
CONTINUOUS
 10
16.3897528824
 20
-11.1382207814
 11
9.5016602842
 21
-11.1382207814
  0
LINE
  5
25B
100
AcDbEntity
  8
ASSI
100
AcDbLine
 62
7
  6
CONTINUOUS
 10
16.3897528824
 20
-11.1382207814
 11
9.5016602842
 21
-11.1382207814
  0
LINE
  5
25C
100
AcDbEntity
  8
DRAFT
100
AcDbLine
 62
7
  6
CONTINUOUS
 10
5.0897528824
 20
-11.1382207814
 11
-1.6983397158
 21
-11.1382207814
  0
LINE
  5
25D
100
AcDbEntity
  8
ASSI
100
AcDbLine
 62
7
  6
CONTINUOUS
 10
5.0897528824
 20
-11.1382207814
 11
-1.6983397158
 21
-11.1382207814
  0
LINE
  5
25E
100
AcDbEntity
  8
0
100
AcDbLine
 62
7
  6
CONTINUOUS
 10
-6.1102471176
 20
-11.1382207814
 11
-8.8770752219
 21
-11.1382207814
  0
LINE
  5
25F
100
AcDbEntity
  8
ASSI
100
AcDbLine
 62
7
  6
CONTINUOUS
 10
-6.1102471176
 20
-11.1382207814
 11
-8.8770752219
 21
-11.1382207814
  0
LINE
  5
260
100
AcDbEntity
  8
RACCORDO
100
AcDbLine
 62
7
  6
CONTINUOUS
 10
31.4802365295
 20
-11.1013711719
 11
28.1111766372
 21
-11.1013711719
  0
LINE
  5
261
100
AcDbEntity
  8
ASSI
100
AcDbLine
 62
7
  6
CONTINUOUS
 10
31.4802365295
 20
-11.1013711719
 11
28.1111766372
 21
-11.1013711719
  0
LINE
  5
262
100
AcDbEntity
  8
RACCORDO
100
AcDbLine
 62
7
  6
CONTINUOUS
 10
20.2802365295
 20
-11.1013711719
 11
16.9111766372
 21
-11.1013711719
  0
LINE
  5
263
100
AcDbEntity
  8
ASSI
100
AcDbLine
 62
7
  6
CONTINUOUS
 10
20.2802365295
 20
-11.1013711719
 11
16.9111766372
 21
-11.1013711719
  0
LINE
  5
264
100
AcDbEntity
  8
RACCORDO
100
AcDbLine
 62
7
  6
CONTINUOUS
 10
8.9802365295
 20
-11.1013711719
 11
5.6111766372
 21
-11.1013711719
  0
LINE
  5
265
100
AcDbEntity
  8
ASSI
100
AcDbLine
 62
7
  6
CONTINUOUS
 10
8.9802365295
 20
-11.1013711719
 11
5.6111766372
 21
-11.1013711719
  0
LINE
  5
266
100
AcDbEntity
  8
RACCORDO
100
AcDbLine
 62
7
  6
CONTINUOUS
 10
-2.2197634705
 20
-11.1013711719
 11
-5.5888233628
 21
-11.1013711719
  0
LINE
  5
267
100
AcDbEntity
  8
ASSI
100
AcDbLine
 62
7
  6
CONTINUOUS
 10
-2.2197634705
 20
-11.1013711719
 11
-5.5888233628
 21
-11.1013711719
  0
LINE
  5
268
100
AcDbEntity
  8
0
100
AcDbLine
 62
253
  6
CONTINUOUS
 10
-8.7762636848
 20
-10.9869266127
 11
34.6676768514
 21
-10.9869266127
  0
LINE
  5
269
100
AcDbEntity
  8
ASSI
100
AcDbLine
 62
253
  6
CONTINUOUS
 10
-8.7762636848
 20
-10.9869266127
 11
34.6676768514
 21
-10.9869266127
  0
LINE
  5
26A
100
AcDbEntity
  8
0
100
AcDbLine
 62
253
  6
CONTINUOUS
 10
-8.7599122291
 20
-10.1373792604
 11
34.6513253957
 21
-10.1373792604
  0
LINE
  5
26B
100
AcDbEntity
  8
ASSI
100
AcDbLine
 62
253
  6
CONTINUOUS
 10
-8.7599122291
 20
-10.1373792604
 11
34.6513253957
 21
-10.1373792604
  0
LINE
  5
26C
100
AcDbEntity
  8
RACCORDO
100
AcDbLine
 62
7
  6
CONTINUOUS
 10
9.5016602842
 20
-11.1382207814
 11
9.1534416103
 21
-11.1066119498
  0
LINE
  5
26D
100
AcDbEntity
  8
ASSI
100
AcDbLine
 62
7
  6
CONTINUOUS
 10
9.5016602842
 20
-11.1382207814
 11
9.1534416103
 21
-11.1066119498
  0
LINE
  5
26E
100
AcDbEntity
  8
RACCORDO
100
AcDbLine
 62
7
  6
CONTINUOUS
 10
20.8016602842
 20
-11.1382207814
 11
20.4534416103
 21
-11.1066119498
  0
LINE
  5
26F
100
AcDbEntity
  8
ASSI
100
AcDbLine
 62
7
  6
CONTINUOUS
 10
20.8016602842
 20
-11.1382207814
 11
20.4534416103
 21
-11.1066119498
  0
LINE
  5
270
100
AcDbEntity
  8
RACCORDO
100
AcDbLine
 62
7
  6
CONTINUOUS
 10
-6.1102471176
 20
-11.1382207814
 11
-5.7620284436
 21
-11.1066119498
  0
LINE
  5
271
100
AcDbEntity
  8
ASSI
100
AcDbLine
 62
7
  6
CONTINUOUS
 10
-6.1102471176
 20
-11.1382207814
 11
-5.7620284436
 21
-11.1066119498
  0
LINE
  5
272
100
AcDbEntity
  8
RACCORDO
100
AcDbLine
 62
7
  6
CONTINUOUS
 10
32.0016602842
 20
-11.1382207814
 11
31.6534416103
 21
-11.1066119498
  0
LINE
  5
273
100
AcDbEntity
  8
ASSI
100
AcDbLine
 62
7
  6
CONTINUOUS
 10
32.0016602842
 20
-11.1382207814
 11
31.6534416103
 21
-11.1066119498
  0
LINE
  5
274
100
AcDbEntity
  8
CURVE
100
AcDbLine
 62
253
  6
CONTINUOUS
 10
12.7457065833
 20
-3.6299828408
 11
12.7457065833
 21
0.7700171976
  0
LINE
  5
275
100
AcDbEntity
  8
CURVE
100
AcDbLine
 62
253
  6
CONTINUOUS
 10
13.1457065833
 20
0.7700171592
 11
13.1457065833
 21
-3.6299828791
  0
LINE
  5
276
100
AcDbEntity
  8
0
100
AcDbLine
 62
253
  6
CONTINUOUS
 10
34.6169625419
 20
1.5700171592
 11
-8.7255493752
 21
1.5700171592
  0
LINE
  5
277
100
AcDbEntity
  8
ASSI
100
AcDbLine
 62
253
  6
CONTINUOUS
 10
34.6169625419
 20
1.5700171592
 11
-8.7255493752
 21
1.5700171592
  0
LINE
  5
278
100
AcDbEntity
  8
RACCORDO
100
AcDbLine
 62
253
  6
CONTINUOUS
 10
35.2957065833
 20
10.7200837804
 11
35.1135147869
 21
10.6745531766
  0
LINE
  5
279
100
AcDbEntity
  8
ASSI
100
AcDbLine
 62
253
  6
CONTINUOUS
 10
35.2957065833
 20
10.7200837804
 11
35.1135147869
 21
10.6745531766
  0
LINE
  5
27A
100
AcDbEntity
  8
RACCORDO
100
AcDbLine
 62
253
  6
CONTINUOUS
 10
-9.2221016203
 20
10.6745531766
 11
-9.4042934167
 21
10.7200837804
  0
LINE
  5
27B
100
AcDbEntity
  8
ASSI
100
AcDbLine
 62
253
  6
CONTINUOUS
 10
-9.2221016203
 20
10.6745531766
 11
-9.4042934167
 21
10.7200837804
  0
LINE
  5
27C
100
AcDbEntity
  8
RACCORDO
100
AcDbLine
 62
253
  6
CONTINUOUS
 10
35.0456303816
 20
10.9700171592
 11
34.8636669834
 21
10.9245436332
  0
LINE
  5
27D
100
AcDbEntity
  8
ASSI
100
AcDbLine
 62
253
  6
CONTINUOUS
 10
35.0456303816
 20
10.9700171592
 11
34.8636669834
 21
10.9245436332
  0
LINE
  5
27E
100
AcDbEntity
  8
RACCORDO
100
AcDbLine
 62
7
  6
CONTINUOUS
 10
17.0976051269
 20
5.4700171592
 11
8.7938080398
 21
5.4700171592
  0
LINE
  5
27F
100
AcDbEntity
  8
ASSI
100
AcDbLine
 62
7
  6
CONTINUOUS
 10
17.0976051269
 20
5.4700171592
 11
8.7938080398
 21
5.4700171592
  0
LINE
  5
280
100
AcDbEntity
  8
SUPERFICI
100
AcDbLine
 62
7
  6
CONTINUOUS
 10
8.7938080398
 20
5.4700171592
 11
17.0976051269
 21
5.4700171592
  0
LINE
  5
281
100
AcDbEntity
  8
RACCORDO
100
AcDbLine
 62
253
  6
CONTINUOUS
 10
-8.9722538167
 20
10.9245436332
 11
-9.1542172149
 21
10.9700171592
  0
LINE
  5
282
100
AcDbEntity
  8
ASSI
100
AcDbLine
 62
253
  6
CONTINUOUS
 10
-8.9722538167
 20
10.9245436332
 11
-9.1542172149
 21
10.9700171592
  0
LINE
  5
283
100
AcDbEntity
  8
RACCORDO
100
AcDbLine
 62
7
  6
CONTINUOUS
 10
17.0969776541
 20
7.6700171592
 11
8.7944355126
 21
7.6700171592
  0
LINE
  5
284
100
AcDbEntity
  8
ASSI
100
AcDbLine
 62
7
  6
CONTINUOUS
 10
17.0969776541
 20
7.6700171592
 11
8.7944355126
 21
7.6700171592
  0
LINE
  5
285
100
AcDbEntity
  8
SUPERFICI
100
AcDbLine
 62
7
  6
CONTINUOUS
 10
8.7944355126
 20
7.6700171592
 11
17.0969776541
 21
7.6700171592
  0
LINE
  5
286
100
AcDbEntity
  8
DRAFT
100
AcDbLine
 62
7
  6
CONTINUOUS
 10
32.7081725739
 20
10.9700171592
 11
32.4457065833
 21
10.9438365558
  0
LINE
  5
287
100
AcDbEntity
  8
ASSI
100
AcDbLine
 62
7
  6
CONTINUOUS
 10
32.7081725739
 20
10.9700171592
 11
32.4457065833
 21
10.9438365558
  0
LINE
  5
288
100
AcDbEntity
  8
DRAFT
100
AcDbLine
 62
7
  6
CONTINUOUS
 10
-6.8167594072
 20
10.9700171592
 11
-6.5542934167
 21
10.9438365558
  0
LINE
  5
289
100
AcDbEntity
  8
ASSI
100
AcDbLine
 62
7
  6
CONTINUOUS
 10
-6.8167594072
 20
10.9700171592
 11
-6.5542934167
 21
10.9438365558
  0
LINE
  5
28A
100
AcDbEntity
  8
RACCORDO
100
AcDbLine
 62
253
  6
CONTINUOUS
 10
34.6138166463
 20
10.6722487057
 11
-8.7224034796
 21
10.6722487057
  0
LINE
  5
28B
100
AcDbEntity
  8
ASSI
100
AcDbLine
 62
253
  6
CONTINUOUS
 10
34.6138166463
 20
10.6722487057
 11
-8.7224034796
 21
10.6722487057
  0
LINE
  5
28C
100
AcDbEntity
  8
RACCORDO
100
AcDbLine
 62
253
  6
CONTINUOUS
 10
34.6138193295
 20
10.922438071
 11
-8.7224061628
 21
10.922438071
  0
LINE
  5
28D
100
AcDbEntity
  8
ASSI
100
AcDbLine
 62
7
  6
CONTINUOUS
 10
34.6138193295
 20
10.922438071
 11
-8.7224061628
 21
10.922438071
  0
LINE
  5
28E
100
AcDbEntity
  8
DRAFT
100
AcDbLine
 62
7
  6
CONTINUOUS
 10
32.4457065833
 20
10.9438365558
 11
-6.5542934167
 21
10.9438365558
  0
LINE
  5
28F
100
AcDbEntity
  8
ASSI
100
AcDbLine
 62
7
  6
CONTINUOUS
 10
32.4457065833
 20
10.9438365558
 11
-6.5542934167
 21
10.9438365558
  0
LINE
  5
290
100
AcDbEntity
  8
RACCORDO
100
AcDbLine
 62
7
  6
CONTINUOUS
 10
35.0456303816
 20
10.9700171592
 11
32.7081725739
 21
10.9700171592
  0
LINE
  5
291
100
AcDbEntity
  8
ASSI
100
AcDbLine
 62
7
  6
CONTINUOUS
 10
35.0456303816
 20
10.9700171592
 11
32.7081725739
 21
10.9700171592
  0
LINE
  5
292
100
AcDbEntity
  8
RACCORDO
100
AcDbLine
 62
7
  6
CONTINUOUS
 10
-6.8167594072
 20
10.9700171592
 11
-9.1542172149
 21
10.9700171592
  0
LINE
  5
293
100
AcDbEntity
  8
ASSI
100
AcDbLine
 62
7
  6
CONTINUOUS
 10
-6.8167594072
 20
10.9700171592
 11
-9.1542172149
 21
10.9700171592
  0
LINE
  5
294
100
AcDbEntity
  8
0
100
AcDbLine
 62
253
  6
CONTINUOUS
 10
34.6676768514
 20
-10.9869266127
 11
34.7684883886
 21
-11.1382207814
  0
LINE
  5
295
100
AcDbEntity
  8
ASSI
100
AcDbLine
 62
253
  6
CONTINUOUS
 10
34.6676768514
 20
-10.9869266127
 11
34.7684883886
 21
-11.1382207814
  0
LINE
  5
296
100
AcDbEntity
  8
0
100
AcDbLine
 62
253
  6
CONTINUOUS
 10
35.1673722649
 20
-10.4876118454
 11
35.269399274
 21
-10.6407301486
  0
LINE
  5
297
100
AcDbEntity
  8
ASSI
100
AcDbLine
 62
253
  6
CONTINUOUS
 10
35.1673722649
 20
-10.4876118454
 11
35.269399274
 21
-10.6407301486
  0
LINE
  5
298
100
AcDbEntity
  8
RACCORDO
100
AcDbLine
 62
253
  6
CONTINUOUS
 10
34.6138193295
 20
10.6722487057
 11
34.6138193295
 21
10.922438071
  0
LINE
  5
299
100
AcDbEntity
  8
ASSI
100
AcDbLine
 62
253
  6
CONTINUOUS
 10
34.6169625419
 20
1.5700171592
 11
34.6138193295
 21
10.922438071
  0
LINE
  5
29A
100
AcDbEntity
  8
RACCORDO
100
AcDbLine
 62
7
  6
CONTINUOUS
 10
35.2957065833
 20
10.7200837804
 11
35.2957065833
 21
-2.0299828408
  0
LINE
  5
29B
100
AcDbEntity
  8
ASSI
100
AcDbLine
 62
7
  6
CONTINUOUS
 10
35.2957065833
 20
10.7200837804
 11
35.2957065833
 21
-2.0299828408
  0
LINE
  5
29C
100
AcDbEntity
  8
0
100
AcDbLine
 62
7
  6
CONTINUOUS
 10
35.269399274
 20
-10.6407301486
 11
35.2957065833
 21
-2.0299828408
  0
LINE
  5
29D
100
AcDbEntity
  8
ASSI
100
AcDbLine
 62
7
  6
CONTINUOUS
 10
35.269399274
 20
-10.6407301486
 11
35.2957065833
 21
-2.0299828408
  0
LINE
  5
29E
100
AcDbEntity
  8
0
100
AcDbLine
 62
7
  6
CONTINUOUS
 10
-24.2337704042
 20
-10.9869266127
 11
-21.3469056923
 21
-11.1382207814
  0
LINE
  5
29F
100
AcDbEntity
  8
ASSI
100
AcDbLine
 62
7
  6
CONTINUOUS
 10
-24.2337704042
 20
-10.9869266127
 11
-21.3469056923
 21
-11.1382207814
  0
LINE
  5
2A0
100
AcDbEntity
  8
0
100
AcDbLine
 62
253
  6
CONTINUOUS
 10
-24.2250521744
 20
-10.4876118454
 11
-21.3033809017
 21
-10.6407301486
  0
LINE
  5
2A1
100
AcDbEntity
  8
ASSI
100
AcDbLine
 62
253
  6
CONTINUOUS
 10
-24.2250521744
 20
-10.4876118454
 11
-21.3033809017
 21
-10.6407301486
  0
LINE
  5
2A2
100
AcDbEntity
  8
RACCORDO
100
AcDbLine
 62
253
  6
CONTINUOUS
 10
-20.9729138481
 20
-6.863474442
 11
-20.9500381278
 21
-6.863474442
  0
LINE
  5
2A3
100
AcDbEntity
  8
ASSI
100
AcDbLine
 62
253
  6
CONTINUOUS
 10
-20.9729138481
 20
-6.863474442
 11
-20.9500381278
 21
-6.863474442
  0
LINE
  5
2A4
100
AcDbEntity
  8
CURVE
100
AcDbLine
 62
253
  6
CONTINUOUS
 10
-25.9103671428
 20
-3.6299828408
 11
-25.8947418808
 21
-3.8299829134
  0
LINE
  5
2A5
100
AcDbEntity
  8
CURVE
100
AcDbLine
 62
253
  6
CONTINUOUS
 10
-26.1410190836
 20
0.7700171592
 11
-26.1463765647
 21
0.9700171997
  0
LINE
  5
2A6
100
AcDbEntity
  8
RACCORDO
100
AcDbLine
 62
7
  6
CONTINUOUS
 10
-20.9500381278
 20
-6.863474442
 11
-20.9500381278
 21
-6.6020037619
  0
LINE
  5
2A7
100
AcDbEntity
  8
ASSI
100
AcDbLine
 62
7
  6
CONTINUOUS
 10
-20.9500381278
 20
-6.863474442
 11
-20.9500381278
 21
-6.6020037619
  0
LINE
  5
2A8
100
AcDbEntity
  8
RACCORDO
100
AcDbLine
 62
7
  6
CONTINUOUS
 10
-20.5500381278
 20
10.9700171592
 11
-20.5500381278
 21
-2.0299828408
  0
LINE
  5
2A9
100
AcDbEntity
  8
ASSI
100
AcDbLine
 62
7
  6
CONTINUOUS
 10
-20.5500381278
 20
10.9700171592
 11
-20.5500381278
 21
-2.0299828408
  0
LINE
  5
2AA
100
AcDbEntity
  8
0
100
AcDbLine
 62
253
  6
CONTINUOUS
 10
-25.6773199877
 20
1.5795171592
 11
-26.1597799809
 21
1.5700171592
  0
LINE
  5
2AB
100
AcDbEntity
  8
ASSI
100
AcDbLine
 62
253
  6
CONTINUOUS
 10
-25.6773199877
 20
1.5795171592
 11
-26.1597799809
 21
1.5700171592
  0
LINE
  5
2AC
100
AcDbEntity
  8
0
100
AcDbLine
 62
7
  6
CONTINUOUS
 10
-21.3469056923
 20
-11.1382207814
 11
-20.5500381278
 21
-2.0299828408
  0
LINE
  5
2AD
100
AcDbEntity
  8
ASSI
100
AcDbLine
 62
7
  6
CONTINUOUS
 10
-21.3469056923
 20
-11.1382207814
 11
-20.5500381278
 21
-2.0299828408
  0
LINE
  5
2AE
100
AcDbEntity
  8
RACCORDO
100
AcDbLine
 62
253
  6
CONTINUOUS
 10
-20.5500381278
 20
10.7200837804
 11
-25.7673285554
 21
10.6745531766
  0
LINE
  5
2AF
100
AcDbEntity
  8
ASSI
100
AcDbLine
 62
253
  6
CONTINUOUS
 10
-20.5500381278
 20
10.7200837804
 11
-25.7673285554
 21
10.6745531766
  0
LINE
  5
2B0
100
AcDbEntity
  8
RACCORDO
100
AcDbLine
 62
7
  6
CONTINUOUS
 10
-20.5500381278
 20
10.9700171592
 11
-26.0020616208
 21
10.922438071
  0
LINE
  5
2B1
100
AcDbEntity
  8
ASSI
100
AcDbLine
 62
7
  6
CONTINUOUS
 10
-20.5500381278
 20
10.9700171592
 11
-26.0020616208
 21
10.922438071
  0
ARC
  5
2B2
100
AcDbEntity
  8
0
100
AcDbCircle
 62
253
  6
CONTINUOUS
 10
-2572.1078181971
 20
3.2361971101
 40
2563.3828049403
100
AcDbArc
 50
359.7010774351
 51
359.9627581626
  0
ARC
  5
2B3
100
AcDbEntity
  8
ASSI
100
AcDbCircle
 62
253
  6
CONTINUOUS
 10
-2572.1078181971
 20
3.2361971101
 40
2563.3828049403
100
AcDbArc
 50
359.7010774351
 51
359.9627581626
  0
ARC
  5
2B4
100
AcDbEntity
  8
0
100
AcDbCircle
 62
253
  6
CONTINUOUS
 10
2593.9595375859
 20
3.224344377
 40
2559.343098297
100
AcDbArc
 50
180.0370352743
 51
180.2991290428
  0
ARC
  5
2B5
100
AcDbEntity
  8
ASSI
100
AcDbCircle
 62
253
  6
CONTINUOUS
 10
2593.9595375859
 20
3.224344377
 40
2559.343098297
100
AcDbArc
 50
180.0370352743
 51
180.2991290428
  0
ARC
  5
2B6
100
AcDbEntity
  8
0
100
AcDbCircle
 62
253
  6
CONTINUOUS
 10
-2544.204978204
 20
3.2364412695
 40
2534.9802695343
100
AcDbArc
 50
359.6994074901
 51
359.9625500971
  0
ARC
  5
2B7
100
AcDbEntity
  8
ASSI
100
AcDbCircle
 62
253
  6
CONTINUOUS
 10
-2544.204978204
 20
3.2364412695
 40
2534.9802695343
100
AcDbArc
 50
359.6994074901
 51
359.9625500971
  0
ARC
  5
2B8
100
AcDbEntity
  8
0
100
AcDbCircle
 62
253
  6
CONTINUOUS
 10
2566.1015117548
 20
3.224654345
 40
2530.9853770525
100
AcDbArc
 50
180.0372421842
 51
180.300800134
  0
ARC
  5
2B9
100
AcDbEntity
  8
ASSI
100
AcDbCircle
 62
253
  6
CONTINUOUS
 10
2566.1015117548
 20
3.224654345
 40
2530.9853770525
100
AcDbArc
 50
180.0372421842
 51
180.300800134
  0
ARC
  5
2BA
100
AcDbEntity
  8
0
100
AcDbCircle
 62
253
  6
CONTINUOUS
 10
-8.7753696635
 20
-10.4862831205
 40
0.5006295736
100
AcDbArc
 50
180.1520810084
 51
269.8976844934
  0
ARC
  5
2BB
100
AcDbEntity
  8
ASSI
100
AcDbCircle
 62
253
  6
CONTINUOUS
 10
-8.7753696635
 20
-10.4862831205
 40
0.5006295736
100
AcDbArc
 50
180.1520810084
 51
269.8976844934
  0
ARC
  5
2BC
100
AcDbEntity
  8
0
100
AcDbCircle
 62
253
  6
CONTINUOUS
 10
34.6667828289
 20
-10.4862831195
 40
0.5006295559
100
AcDbArc
 50
270.1023156484
 51
359.8479188778
  0
ARC
  5
2BD
100
AcDbEntity
  8
ASSI
100
AcDbCircle
 62
253
  6
CONTINUOUS
 10
34.6667828289
 20
-10.4862831195
 40
0.5006295559
100
AcDbArc
 50
270.1023156484
 51
359.8479188778
  0
ARC
  5
2BE
100
AcDbEntity
  8
SUPERFICI
100
AcDbCircle
 62
7
  6
CONTINUOUS
 10
8.7977558893
 20
5.8685122384
 40
0.402049306
100
AcDbArc
 50
180.0004689369
 51
183.7309092605
  0
ARC
  5
2BF
100
AcDbEntity
  8
SUPERFICI
100
AcDbCircle
 62
7
  6
CONTINUOUS
 10
17.0936572941
 20
5.8685122418
 40
0.4020492893
100
AcDbArc
 50
356.2680323005
 51
359.9995305818
  0
ARC
  5
2C0
100
AcDbEntity
  8
SUPERFICI
100
AcDbCircle
 62
7
  6
CONTINUOUS
 10
8.7944394307
 20
7.2684222067
 40
0.4015949525
100
AcDbArc
 50
90.000558983
 51
93.7325289332
  0
ARC
  5
2C1
100
AcDbEntity
  8
SUPERFICI
100
AcDbCircle
 62
7
  6
CONTINUOUS
 10
17.096973732
 20
7.2684222073
 40
0.4015949519
100
AcDbArc
 50
86.2663923291
 51
89.9994404664
  0
ARC
  5
2C2
100
AcDbEntity
  8
SUPERFICI
100
AcDbCircle
 62
7
  6
CONTINUOUS
 10
17.0976018035
 20
5.8709129436
 40
0.4008957844
100
AcDbArc
 50
270.0004749669
 51
273.7335044273
  0
ARC
  5
2C3
100
AcDbEntity
  8
SUPERFICI
100
AcDbCircle
 62
7
  6
CONTINUOUS
 10
8.7938113668
 20
5.8709129274
 40
0.4008957683
100
AcDbArc
 50
266.2654016501
 51
269.9995245205
  0
ARC
  5
2C4
100
AcDbEntity
  8
SUPERFICI
100
AcDbCircle
 62
7
  6
CONTINUOUS
 10
8.7965654885
 20
7.271521363
 40
0.4008589051
100
AcDbArc
 50
176.2644402398
 51
179.999423772
  0
ARC
  5
2C5
100
AcDbEntity
  8
SUPERFICI
100
AcDbCircle
 62
7
  6
CONTINUOUS
 10
17.0948476807
 20
7.271521367
 40
0.4008589027
100
AcDbArc
 50
0.0005756542
 51
3.7344650533
  0
ARC
  5
2C6
100
AcDbEntity
  8
RACCORDO
100
AcDbCircle
 62
253
  6
CONTINUOUS
 10
34.863493444
 20
10.6745419123
 40
0.2500124135
100
AcDbArc
 50
0.0025758279
 51
89.9602279774
  0
ARC
  5
2C7
100
AcDbEntity
  8
ASSI
100
AcDbCircle
 62
253
  6
CONTINUOUS
 10
34.863493444
 20
10.6745419123
 40
0.2500124135
100
AcDbArc
 50
0.0025758279
 51
89.9602279774
  0
ARC
  5
2C8
100
AcDbEntity
  8
RACCORDO
100
AcDbCircle
 62
253
  6
CONTINUOUS
 10
-8.9720813785
 20
10.6745430128
 40
0.2500110379
100
AcDbArc
 50
90.0395198306
 51
179.9976763465
  0
ARC
  5
2C9
100
AcDbEntity
  8
ASSI
100
AcDbCircle
 62
253
  6
CONTINUOUS
 10
-8.9720813785
 20
10.6745430128
 40
0.2500110379
100
AcDbArc
 50
90.0395198306
 51
179.9976763465
  0
ARC
  5
2CA
100
AcDbEntity
  8
CURVE
100
AcDbCircle
 62
253
  6
CONTINUOUS
 10
12.9457065833
 20
-3.6299828408
 40
0.2
100
AcDbArc
 50
180.0
 51
360.0
  0
ARC
  5
2CB
100
AcDbEntity
  8
CURVE
100
AcDbCircle
 62
253
  6
CONTINUOUS
 10
12.9457065833
 20
0.7700171592
 40
0.2
100
AcDbArc
 50
0.0
 51
180.0
  0
ARC
  5
2CC
100
AcDbEntity
  8
0
100
AcDbCircle
 62
7
  6
CONTINUOUS
 10
-24.1814344479
 20
-9.988297078
 40
1.0
100
AcDbArc
 50
188.5737414447
 51
267.0
  0
ARC
  5
2CD
100
AcDbEntity
  8
ASSI
100
AcDbCircle
 62
7
  6
CONTINUOUS
 10
-24.1814344479
 20
-9.988297078
 40
1.0
100
AcDbArc
 50
188.5737414447
 51
267.0
  0
ARC
  5
2CE
100
AcDbEntity
  8
0
100
AcDbCircle
 62
253
  6
CONTINUOUS
 10
-24.198884195
 20
-9.9882970766
 40
0.5000000015
100
AcDbArc
 50
188.5737415857
 51
266.9999998591
  0
ARC
  5
2CF
100
AcDbEntity
  8
ASSI
100
AcDbCircle
 62
253
  6
CONTINUOUS
 10
-24.198884195
 20
-9.9882970766
 40
0.5000000015
100
AcDbArc
 50
188.5737415857
 51
266.9999998591
  0
ARC
  5
2D0
100
AcDbEntity
  8
RACCORDO
100
AcDbCircle
 62
7
  6
CONTINUOUS
 10
-21.2500381278
 20
-6.863474442
 40
0.3
100
AcDbArc
 50
334.9996147864
 51
360.0
  0
ARC
  5
2D1
100
AcDbEntity
  8
ASSI
100
AcDbCircle
 62
7
  6
CONTINUOUS
 10
-21.2500381278
 20
-6.863474442
 40
0.3
100
AcDbArc
 50
335.0
 51
360.0
  0
ARC
  5
2D2
100
AcDbEntity
  8
RACCORDO
100
AcDbCircle
 62
7
  6
CONTINUOUS
 10
-25.9998799568
 20
10.6724475905
 40
0.25
100
AcDbArc
 50
90.5000068928
 51
180.0455810216
  0
ARC
  5
2D3
100
AcDbEntity
  8
ASSI
100
AcDbCircle
 62
7
  6
CONTINUOUS
 10
-25.9998799568
 20
10.6724475905
 40
0.25
100
AcDbArc
 50
90.5000068928
 51
180.0455810216
  0
ARC
  5
2D4
100
AcDbEntity
  8
0
100
AcDbCircle
 62
7
  6
CONTINUOUS
 10
63.8239735524
 20
3.2800171592
 40
90.0
100
AcDbArc
 50
181.08868532
 51
188.5737414447
  0
ARC
  5
2D5
100
AcDbEntity
  8
ASSI
100
AcDbCircle
 62
7
  6
CONTINUOUS
 10
63.8239735524
 20
3.2800171592
 40
90.0
100
AcDbArc
 50
181.08868532
 51
188.5737414447
  0
ARC
  5
2D6
100
AcDbEntity
  8
CURVE
100
AcDbCircle
 62
253
  6
CONTINUOUS
 10
63.8239735524
 20
3.2800171592
 40
90.0
100
AcDbArc
 50
181.5981228417
 51
181.874132418
  0
ARC
  5
2D7
100
AcDbEntity
  8
CURVE
100
AcDbCircle
 62
253
  6
CONTINUOUS
 10
63.8239735524
 20
3.2800171592
 40
90.0
100
AcDbArc
 50
182.4091610057
 51
184.4033760648
  0
ARC
  5
2D8
100
AcDbEntity
  8
0
100
AcDbCircle
 62
253
  6
CONTINUOUS
 10
63.8065238059
 20
3.2800171593
 40
89.5000000019
100
AcDbArc
 50
181.0886853201
 51
188.5737414446
  0
ARC
  5
2D9
100
AcDbEntity
  8
ASSI
100
AcDbCircle
 62
253
  6
CONTINUOUS
 10
63.8065238059
 20
3.2800171593
 40
89.5000000019
100
AcDbArc
 50
181.0886853201
 51
188.5737414446
  0
ARC
  5
2DA
100
AcDbEntity
  8
RACCORDO
100
AcDbCircle
 62
7
  6
CONTINUOUS
 10
473.7499618722
 20
11.0700171592
 40
500.0
100
AcDbArc
 50
180.045580912
 51
181.08868532
  0
ARC
  5
2DB
100
AcDbEntity
  8
ASSI
100
AcDbCircle
 62
7
  6
CONTINUOUS
 10
473.7499618722
 20
11.0700171592
 40
500.0
100
AcDbArc
 50
180.045580912
 51
181.08868532
  0
ARC
  5
2DC
100
AcDbEntity
  8
RACCORDO
100
AcDbCircle
 62
253
  6
CONTINUOUS
 10
473.7074401564
 20
11.0696320136
 40
499.4749253344
100
AcDbArc
 50
180.0453202977
 51
181.0886957922
  0
ARC
  5
2DD
100
AcDbEntity
  8
ASSI
100
AcDbCircle
 62
253
  6
CONTINUOUS
 10
473.7074401564
 20
11.0696320136
 40
499.4749253344
100
AcDbArc
 50
180.0453202977
 51
181.0886957922
  0
SPLINE
  5
2DE
100
AcDbEntity
  8
SUPERFICI
100
AcDbSpline
 62
7
  6
CONTINUOUS
 70
0
 71
3
 72
23
 73
19
 74
17
 42
0.0000001
 43
0.0000001
 44
0.0000000001
 12
-0.0373933977
 22
0.5728934317
 32
0.0
 13
-0.5728938165
 23
0.0373849722
 33
0.0
 40
0.0
 40
0.0
 40
0.0
 40
0.0
 40
0.0227624385
 40
0.0912783971
 40
0.1596589011
 40
0.2276200343
 40
0.2955485644
 40
0.3637816853
 40
0.431984831
 40
0.4998306796
 40
0.5676700012
 40
0.6358795281
 40
0.7041611229
 40
0.7721606806
 40
0.840172955
 40
0.9086013743
 40
0.9772044438
 40
1.0
 40
1.0
 40
1.0
 40
1.0
 10
17.4948554074
 20
7.2976303381
 30
0.0
 10
17.4945716858
 20
7.3019771553
 30
0.0
 10
17.4931496944
 20
7.3193901548
 30
0.0
 10
17.488670473
 20
7.3496451875
 30
0.0
 10
17.4791382729
 20
7.3877170275
 30
0.0
 10
17.4659599876
 20
7.4245641531
 30
0.0
 10
17.4492534489
 20
7.4599207524
 30
0.0
 10
17.4291347167
 20
7.4935082082
 30
0.0
 10
17.4058186678
 20
7.5249407627
 30
0.0
 10
17.3795814472
 20
7.5538768414
 30
0.0
 10
17.3506369686
 20
7.5801065624
 30
0.0
 10
17.3191910996
 20
7.6034201099
 30
0.0
 10
17.2855783525
 20
7.6235435281
 30
0.0
 10
17.2501884971
 20
7.6402561987
 30
0.0
 10
17.2133082713
 20
7.6534384613
 30
0.0
 10
17.1752008327
 20
7.6629748524
 30
0.0
 10
17.1449137485
 20
7.6674572347
 30
0.0
 10
17.1274777916
 20
7.6688807413
 30
0.0
 10
17.1231246472
 20
7.6691648118
 30
0.0
 11
17.4948554074
 21
7.2976303381
 31
0.0
 11
17.493791651
 21
7.3106546367
 31
0.0
 11
17.488033099
 21
7.3495456031
 31
0.0
 11
17.47850202
 21
7.3876076743
 31
0.0
 11
17.4653688075
 21
7.4243262718
 31
0.0
 11
17.4487158443
 21
7.4595676785
 31
0.0
 11
17.4285963142
 21
7.4931554417
 31
0.0
 11
17.4052804827
 21
7.5245872531
 31
0.0
 11
17.3791303029
 21
7.5534273258
 31
0.0
 11
17.3502856521
 21
7.5795668787
 31
0.0
 11
17.3188451021
 21
7.6028770738
 31
0.0
 11
17.2852289649
 21
7.6230033616
 31
0.0
 11
17.2499470942
 21
7.6396660855
 31
0.0
 11
17.213198433
 21
7.6528023772
 31
0.0
 11
17.1751086081
 21
7.6623358088
 31
0.0
 11
17.1361679132
 21
7.6680997735
 31
0.0
 11
17.1231246472
 21
7.6691648118
 31
0.0
  0
LINE
  5
2DF
100
AcDbEntity
  8
SUPERFICI
100
AcDbLine
 62
7
  6
CONTINUOUS
 10
17.4957065833
 20
5.8685089478
 11
17.4957065833
 21
6.0763609731
  0
LINE
  5
2E0
100
AcDbEntity
  8
SUPERFICI
100
AcDbLine
 62
7
  6
CONTINUOUS
 10
17.4957065833
 20
6.0763609731
 11
17.4957065833
 21
6.1283241019
  0
LINE
  5
2E1
100
AcDbEntity
  8
SUPERFICI
100
AcDbLine
 62
7
  6
CONTINUOUS
 10
17.4957065833
 20
6.1283241019
 11
17.4957065833
 21
6.3361770933
  0
LINE
  5
2E2
100
AcDbEntity
  8
SUPERFICI
100
AcDbLine
 62
7
  6
CONTINUOUS
 10
17.4957065833
 20
6.3361770933
 11
17.4957065833
 21
6.5440310039
  0
LINE
  5
2E3
100
AcDbEntity
  8
SUPERFICI
100
AcDbLine
 62
7
  6
CONTINUOUS
 10
17.4957065833
 20
6.5440310039
 11
17.4957065833
 21
6.5959945888
  0
LINE
  5
2E4
100
AcDbEntity
  8
SUPERFICI
100
AcDbLine
 62
7
  6
CONTINUOUS
 10
17.4957065833
 20
6.5959945888
 11
17.4957065833
 21
6.8038493712
  0
LINE
  5
2E5
100
AcDbEntity
  8
SUPERFICI
100
AcDbLine
 62
7
  6
CONTINUOUS
 10
17.4957065833
 20
6.8038493712
 11
17.4957065833
 21
7.0117049905
  0
LINE
  5
2E6
100
AcDbEntity
  8
SUPERFICI
100
AcDbLine
 62
7
  6
CONTINUOUS
 10
17.4957065833
 20
7.0117049905
 11
17.4957065833
 21
7.0636689947
  0
LINE
  5
2E7
100
AcDbEntity
  8
SUPERFICI
100
AcDbLine
 62
7
  6
CONTINUOUS
 10
17.4957065833
 20
7.0636689947
 11
17.4957065833
 21
7.2715253945
  0
SPLINE
  5
2E8
100
AcDbEntity
  8
SUPERFICI
100
AcDbSpline
 62
7
  6
CONTINUOUS
 70
0
 71
3
 72
23
 73
19
 74
17
 42
0.0000001
 43
0.0000001
 44
0.0000000001
 12
0.5724305079
 22
0.0373545532
 32
0.0
 13
0.0373392303
 23
0.5724312226
 33
0.0
 40
0.0
 40
0.0
 40
0.0
 40
0.0
 40
0.0227734797
 40
0.0913061118
 40
0.1596825666
 40
0.2276240875
 40
0.2955224771
 40
0.363719376
 40
0.4318847397
 40
0.4996959305
 40
0.5675057766
 40
0.635696583
 40
0.7039733749
 40
0.7719844587
 40
0.8400235209
 40
0.9084995609
 40
0.9771748682
 40
1.0
 40
1.0
 40
1.0
 40
1.0
 10
17.1237064696
 20
5.4708679756
 30
0.0
 10
17.1280518811
 20
5.47115154
 30
0.0
 10
17.1454561003
 20
5.4725724786
 30
0.0
 10
17.1756913036
 20
5.4770476114
 30
0.0
 10
17.2137314574
 20
5.4865701705
 30
0.0
 10
17.2505395818
 20
5.4997329828
 30
0.0
 10
17.2858530871
 20
5.5164182325
 30
0.0
 10
17.3193962665
 20
5.5365105332
 30
0.0
 10
17.3507860082
 20
5.5597963226
 30
0.0
 10
17.3796826479
 20
5.586001026
 30
0.0
 10
17.4058779277
 20
5.614912723
 30
0.0
 10
17.4291630466
 20
5.6463276611
 30
0.0
 10
17.4492646909
 20
5.6799138563
 30
0.0
 10
17.4659618194
 20
5.7152831419
 30
0.0
 10
17.4791342814
 20
5.7521506795
 30
0.0
 10
17.488665806
 20
5.7902554853
 30
0.0
 10
17.493146605
 20
5.8205466518
 30
0.0
 10
17.4945699299
 20
5.837987952
 30
0.0
 10
17.4948540208
 20
5.8423432247
 30
0.0
 11
17.1237064696
 21
5.4708679756
 31
0.0
 11
17.1367265632
 21
5.4719311488
 31
0.0
 11
17.1755957075
 21
5.4776852731
 31
0.0
 11
17.2136250891
 21
5.4872067059
 31
0.0
 11
17.2503038227
 21
5.5003243388
 31
0.0
 11
17.2855014058
 21
5.5169558137
 31
0.0
 11
17.3190441142
 21
5.5370485271
 31
0.0
 11
17.3504323869
 21
5.5603335691
 31
0.0
 11
17.3792328429
 21
5.5864509874
 31
0.0
 11
17.405337399
 21
5.6152620617
 31
0.0
 11
17.428618935
 21
5.6466710947
 31
0.0
 11
17.4487233827
 21
5.6802601668
 31
0.0
 11
17.4653709184
 21
5.7155216211
 31
0.0
 11
17.4784973513
 21
5.7522565995
 31
0.0
 11
17.4880260158
 21
5.7903430287
 31
0.0
 11
17.4937889131
 21
5.8292935676
 31
0.0
 11
17.4948540208
 21
5.8423432247
 31
0.0
  0
SPLINE
  5
2E9
100
AcDbEntity
  8
SUPERFICI
100
AcDbSpline
 62
7
  6
CONTINUOUS
 70
0
 71
3
 72
23
 73
19
 74
17
 42
0.0000001
 43
0.0000001
 44
0.0000000001
 12
0.0373286304
 22
-0.5724315295
 32
0.0
 13
0.5724297311
 23
-0.0373654784
 33
0.0
 40
0.0
 40
0.0
 40
0.0
 40
0.0
 40
0.0228206867
 40
0.0914901968
 40
0.1599901218
 40
0.228039051
 40
0.2960313262
 40
0.364298113
 40
0.432505487
 40
0.5003281624
 40
0.5681263596
 40
0.6362752733
 40
0.7044822265
 40
0.7723992521
 40
0.8403304486
 40
0.90868309
 40
0.977221832
 40
1.0
 40
1.0
 40
1.0
 40
1.0
 10
8.3965586625
 20
5.8423506316
 30
0.0
 10
8.3968426175
 20
5.8379962047
 30
0.0
 10
8.3982654043
 20
5.8205568387
 30
0.0
 10
8.4027457003
 20
5.7902629803
 30
0.0
 10
8.412277913
 20
5.7521527956
 30
0.0
 10
8.4254516352
 20
5.7152826663
 30
0.0
 10
8.4421472477
 20
5.6799167356
 30
0.0
 10
8.4622470205
 20
5.6463321943
 30
0.0
 10
8.4855339008
 20
5.614913918
 30
0.0
 10
8.5117314874
 20
5.5860000599
 30
0.0
 10
8.5406259097
 20
5.5597977077
 30
0.0
 10
8.5720122834
 20
5.5365136907
 30
0.0
 10
8.6055570837
 20
5.5164195264
 30
0.0
 10
8.6408738082
 20
5.4997328065
 30
0.0
 10
8.6776791984
 20
5.4865712682
 30
0.0
 10
8.7157139175
 20
5.47704936
 30
0.0
 10
8.7459465191
 20
5.4725736771
 30
0.0
 10
8.7633527637
 20
5.4711521798
 30
0.0
 10
8.7676990639
 20
5.4708684741
 30
0.0
 11
8.3965586625
 21
5.8423506316
 31
0.0
 11
8.3976232795
 21
5.8293035012
 31
0.0
 11
8.4033845555
 21
5.7903560981
 31
0.0
 11
8.4129159229
 21
5.7522562447
 31
0.0
 11
8.4260445486
 21
5.7155160587
 31
0.0
 11
8.4426875279
 21
5.6802643955
 31
0.0
 11
8.4627883734
 21
5.6466798707
 31
0.0
 11
8.4860750974
 21
5.6152628786
 31
0.0
 11
8.5121847722
 21
5.5864465371
 31
0.0
 11
8.5409798665
 21
5.5603343191
 31
0.0
 11
8.5723602051
 21
5.537054438
 31
0.0
 11
8.6059074525
 21
5.5169581142
 31
0.0
 11
8.6411147014
 21
5.5003221214
 31
0.0
 11
8.67778794
 21
5.4872067476
 31
0.0
 11
8.7158038954
 21
5.4776879688
 31
0.0
 11
8.7546763156
 21
5.4719321584
 31
0.0
 11
8.7676990639
 21
5.4708684741
 31
0.0
  0
LINE
  5
2EA
100
AcDbEntity
  8
SUPERFICI
100
AcDbLine
 62
7
  6
CONTINUOUS
 10
8.3957065833
 20
7.2715253944
 11
8.3957065834
 21
7.0636689945
  0
LINE
  5
2EB
100
AcDbEntity
  8
SUPERFICI
100
AcDbLine
 62
7
  6
CONTINUOUS
 10
8.3957065834
 20
7.0636689945
 11
8.3957065834
 21
7.0117049907
  0
LINE
  5
2EC
100
AcDbEntity
  8
SUPERFICI
100
AcDbLine
 62
7
  6
CONTINUOUS
 10
8.3957065834
 20
7.0117049907
 11
8.3957065834
 21
6.8038493873
  0
LINE
  5
2ED
100
AcDbEntity
  8
SUPERFICI
100
AcDbLine
 62
7
  6
CONTINUOUS
 10
8.3957065834
 20
6.8038493873
 11
8.3957065834
 21
6.595994589
  0
LINE
  5
2EE
100
AcDbEntity
  8
SUPERFICI
100
AcDbLine
 62
7
  6
CONTINUOUS
 10
8.3957065834
 20
6.595994589
 11
8.3957065834
 21
6.544031004
  0
LINE
  5
2EF
100
AcDbEntity
  8
SUPERFICI
100
AcDbLine
 62
7
  6
CONTINUOUS
 10
8.3957065834
 20
6.544031004
 11
8.3957065834
 21
6.3361770966
  0
LINE
  5
2F0
100
AcDbEntity
  8
SUPERFICI
100
AcDbLine
 62
7
  6
CONTINUOUS
 10
8.3957065834
 20
6.3361770966
 11
8.3957065834
 21
6.128324102
  0
LINE
  5
2F1
100
AcDbEntity
  8
SUPERFICI
100
AcDbLine
 62
7
  6
CONTINUOUS
 10
8.3957065834
 20
6.128324102
 11
8.3957065834
 21
6.0763609729
  0
LINE
  5
2F2
100
AcDbEntity
  8
SUPERFICI
100
AcDbLine
 62
7
  6
CONTINUOUS
 10
8.3957065834
 20
6.0763609729
 11
8.3957065833
 21
5.8685089478
  0
SPLINE
  5
2F3
100
AcDbEntity
  8
SUPERFICI
100
AcDbSpline
 62
7
  6
CONTINUOUS
 70
0
 71
3
 72
23
 73
19
 74
17
 42
0.0000001
 43
0.0000001
 44
0.0000000001
 12
-0.5728942614
 22
-0.0373741694
 32
0.0
 13
-0.0374043475
 23
-0.5728927836
 33
0.0
 40
0.0
 40
0.0
 40
0.0
 40
0.0
 40
0.0227908498
 40
0.0913877727
 40
0.1598399068
 40
0.2278622464
 40
0.2958431797
 40
0.3641148304
 40
0.4323409186
 40
0.5001930816
 40
0.568025988
 40
0.6362126247
 40
0.7044557186
 40
0.7724027938
 40
0.8403536431
 40
0.90871048
 40
0.9772327384
 40
1.0
 40
1.0
 40
1.0
 40
1.0
 10
8.7682960606
 20
7.669165304
 30
0.0
 10
8.7639438116
 20
7.6688813743
 30
0.0
 10
8.7465099023
 20
7.6674584245
 30
0.0
 10
8.7162202613
 20
7.6629765949
 30
0.0
 10
8.6781074787
 20
7.6534395763
 30
0.0
 10
8.6412245961
 20
7.6402560811
 30
0.0
 10
8.6058379972
 20
7.6235449215
 30
0.0
 10
8.5722268432
 20
7.6034233735
 30
0.0
 10
8.5407776002
 20
7.5801080713
 30
0.0
 10
8.5118309269
 20
7.5538760474
 30
0.0
 10
8.4855960356
 20
7.5249421963
 30
0.0
 10
8.4622817475
 20
7.4935130327
 30
0.0
 10
8.4421611467
 20
7.4599239983
 30
0.0
 10
8.4254531168
 20
7.424564205
 30
0.0
 10
8.4122760689
 20
7.3877198001
 30
0.0
 10
8.4027444777
 20
7.3496533262
 30
0.0
 10
8.3982646809
 20
7.3194008025
 30
0.0
 10
8.396842123
 20
7.3019857101
 30
0.0
 10
8.3965582581
 20
7.2976379768
 30
0.0
 11
8.7682960606
 21
7.669165304
 31
0.0
 11
8.7552554692
 21
7.6681007757
 31
0.0
 11
8.7163180968
 21
7.6623384984
 31
0.0
 11
8.678214911
 21
7.652802431
 31
0.0
 11
8.6414609067
 21
7.6396639484
 31
0.0
 11
8.6061887152
 21
7.6230057702
 31
0.0
 11
8.5725770759
 21
7.6028830907
 31
0.0
 11
8.5411285409
 21
7.579567721
 31
0.0
 11
8.5122785901
 21
7.5534230534
 31
0.0
 11
8.4861335717
 21
7.5245883342
 31
0.0
 11
8.4628229019
 21
7.4931644969
 31
0.0
 11
8.4426997562
 21
7.4595722366
 31
0.0
 11
8.4260422633
 21
7.4243212081
 31
0.0
 11
8.4129112728
 21
7.3876080901
 31
0.0
 11
8.4033828046
 21
7.3495593717
 31
0.0
 11
8.3976225341
 21
7.3106650122
 31
0.0
 11
8.3965582581
 21
7.2976379768
 31
0.0
  0
LINE
  5
2F4
100
AcDbEntity
  8
RACCORDO
100
AcDbLine
 62
7
  6
CONTINUOUS
 10
17.4957065833
 20
7.2715253946
 11
17.4957065833
 21
7.0376869445
  0
LINE
  5
2F5
100
AcDbEntity
  8
RACCORDO
100
AcDbLine
 62
7
  6
CONTINUOUS
 10
17.4957065833
 20
7.0376869445
 11
17.4957065833
 21
6.8038493765
  0
LINE
  5
2F6
100
AcDbEntity
  8
RACCORDO
100
AcDbLine
 62
7
  6
CONTINUOUS
 10
17.4957065833
 20
6.8038493765
 11
17.4957065833
 21
6.5700127417
  0
LINE
  5
2F7
100
AcDbEntity
  8
RACCORDO
100
AcDbLine
 62
7
  6
CONTINUOUS
 10
17.4957065833
 20
6.5700127417
 11
17.4957065833
 21
6.3361770912
  0
LINE
  5
2F8
100
AcDbEntity
  8
RACCORDO
100
AcDbLine
 62
7
  6
CONTINUOUS
 10
17.4957065833
 20
6.3361770912
 11
17.4957065833
 21
6.1023424761
  0
LINE
  5
2F9
100
AcDbEntity
  8
RACCORDO
100
AcDbLine
 62
7
  6
CONTINUOUS
 10
17.4957065833
 20
6.1023424761
 11
17.4957065833
 21
5.8685089477
  0
LINE
  5
2FA
100
AcDbEntity
  8
RACCORDO
100
AcDbLine
 62
7
  6
CONTINUOUS
 10
8.3957065833
 20
5.8685089477
 11
8.3957065833
 21
7.2715253946
  0
SPLINE
  5
2FB
100
AcDbEntity
  8
RACCORDO
100
AcDbSpline
 62
7
  6
CONTINUOUS
 70
0
 71
3
 72
23
 73
19
 74
17
 42
0.0000001
 43
0.0000001
 44
0.0000000001
 12
-0.6256304749
 22
0.0
 32
0.0
 13
0.0
 23
0.6256304749
 33
0.0
 40
0.0
 40
0.0
 40
0.0
 40
0.0
 40
0.0625348873
 40
0.125302776
 40
0.1879610843
 40
0.2502495145
 40
0.3125069208
 40
0.3750288287
 40
0.4375113249
 40
0.4996701031
 40
0.5618372342
 40
0.6243553179
 40
0.6869429983
 40
0.7492898499
 40
0.811675364
 40
0.8744418063
 40
0.9373328547
 40
1.0
 40
1.0
 40
1.0
 40
1.0
 10
8.7938080398
 20
5.4700171592
 30
0.0
 10
8.780766796
 20
5.4700171592
 30
0.0
 10
8.7546177162
 20
5.4712935953
 30
0.0
 10
8.715781717
 20
5.4770361562
 30
0.0
 10
8.6777431037
 20
5.4865513387
 30
0.0
 10
8.6409220392
 20
5.499712283
 30
0.0
 10
8.6055909122
 20
5.5164010889
 30
0.0
 10
8.5720334622
 20
5.5364989917
 30
0.0
 10
8.5406339374
 20
5.5597903733
 30
0.0
 10
8.5117287204
 20
5.5860022545
 30
0.0
 10
8.4855247705
 20
5.6149246637
 30
0.0
 10
8.4622330565
 20
5.6463524225
 30
0.0
 10
8.4421277737
 20
5.6799518512
 30
0.0
 10
8.4254287589
 20
5.7153363739
 30
0.0
 10
8.4122576861
 20
5.7522190775
 30
0.0
 10
8.4027336882
 20
5.7903260733
 30
0.0
 10
8.3969846367
 20
5.8292377669
 30
0.0
 10
8.3957065833
 20
5.8554401224
 30
0.0
 10
8.3957065833
 20
5.8685089477
 30
0.0
 11
8.7938080398
 21
5.4700171592
 31
0.0
 11
8.7547309414
 21
5.4719268006
 31
0.0
 11
8.7158839858
 21
5.4776720584
 31
0.0
 11
8.6778551519
 21
5.4871863659
 31
0.0
 11
8.6411595854
 21
5.5003035479
 31
0.0
 11
8.605941163
 21
5.5169401162
 31
0.0
 11
8.572383988
 21
5.5370385495
 31
0.0
 11
8.5409878726
 21
5.5603277445
 31
0.0
 11
8.5121802238
 21
5.5864510874
 31
0.0
 11
8.4860659582
 21
5.6152740171
 31
0.0
 11
8.462776502
 21
5.646697656
 31
0.0
 11
8.4426697144
 21
5.6802977894
 31
0.0
 11
8.4260212257
 21
5.7155724675
 31
0.0
 11
8.4128939058
 21
5.7523289109
 31
0.0
 11
8.4033708233
 21
5.7904252857
 31
0.0
 11
8.3976188079
 21
5.8293491322
 31
0.0
 11
8.3957065833
 21
5.8685089477
 31
0.0
  0
SPLINE
  5
2FC
100
AcDbEntity
  8
RACCORDO
100
AcDbSpline
 62
7
  6
CONTINUOUS
 70
0
 71
3
 72
23
 73
19
 74
17
 42
0.0000001
 43
0.0000001
 44
0.0000000001
 12
-0.0
 22
0.6260794102
 32
0.0
 13
0.6260794102
 23
0.0
 33
0.0
 40
0.0
 40
0.0
 40
0.0
 40
0.0
 40
0.0625064794
 40
0.125265243
 40
0.1879314833
 40
0.2502417825
 40
0.3125316189
 40
0.3750924245
 40
0.4376158557
 40
0.4998130445
 40
0.5620138933
 40
0.624555553
 40
0.6871533927
 40
0.7494944038
 40
0.8118588393
 40
0.874584964
 40
0.9374149203
 40
1.0
 40
1.0
 40
1.0
 40
1.0
 10
8.3957065833
 20
7.2715253946
 30
0.0
 10
8.3957065833
 20
7.2845700678
 30
0.0
 10
8.3969842126
 20
7.3107300686
 30
0.0
 10
8.4027316926
 20
7.3495875757
 30
0.0
 10
8.4122565751
 20
7.3876572195
 30
0.0
 10
8.4254328034
 20
7.4245164149
 30
0.0
 10
8.4421426865
 20
7.4598901113
 30
0.0
 10
8.4622669915
 20
7.4934917802
 30
0.0
 10
8.4855888406
 20
7.5249343623
 30
0.0
 10
8.5118336504
 20
7.5538793708
 30
0.0
 10
8.540789344
 20
7.5801180445
 30
0.0
 10
8.5722484374
 20
7.6034382611
 30
0.0
 10
8.6058744788
 20
7.623565117
 30
0.0
 10
8.6412790443
 20
7.6402792327
 30
0.0
 10
8.6781733511
 20
7.6534596376
 30
0.0
 10
8.7162818784
 20
7.6629882924
 30
0.0
 10
8.7551831712
 20
7.6687387751
 30
0.0
 10
8.781374436
 20
7.6700171592
 30
0.0
 10
8.7944355126
 20
7.6700171592
 30
0.0
 11
8.3957065833
 21
7.2715253946
 31
0.0
 11
8.3976174055
 21
7.3106127361
 31
0.0
 11
8.4033673729
 21
7.3494817051
 31
0.0
 11
8.4128913036
 21
7.3875422471
 31
0.0
 11
8.4260237935
 21
7.4242765781
 31
0.0
 11
8.4426816443
 21
7.4595383132
 31
0.0
 11
8.4628068927
 21
7.4931405323
 31
0.0
 11
8.4861271132
 21
7.5245804687
 31
0.0
 11
8.5122836701
 21
7.5534281319
 31
0.0
 11
8.5411407352
 21
7.5795777284
 31
0.0
 11
8.5725963533
 21
7.6028959612
 31
0.0
 11
8.6062236729
 21
7.6230244235
 31
0.0
 11
8.6415182871
 21
7.6396876813
 31
0.0
 11
8.6782871284
 21
7.6528243205
 31
0.0
 11
8.716385414
 21
7.662351865
 31
0.0
 11
8.7552989658
 21
7.66810504
 31
0.0
 11
8.7944355126
 21
7.6700171592
 31
0.0
  0
SPLINE
  5
2FD
100
AcDbEntity
  8
RACCORDO
100
AcDbSpline
 62
7
  6
CONTINUOUS
 70
0
 71
3
 72
23
 73
19
 74
17
 42
0.0000001
 43
0.0000001
 44
0.0000000001
 12
0.0
 22
-0.6256304749
 32
0.0
 13
-0.6256304749
 23
0.0
 33
0.0
 40
0.0
 40
0.0
 40
0.0
 40
0.0
 40
0.0626702289
 40
0.1255649537
 40
0.1883377991
 40
0.2507257318
 40
0.3130696196
 40
0.3756555984
 40
0.4381764296
 40
0.5003456957
 40
0.5625023603
 40
0.6249821737
 40
0.6875058217
 40
0.7497661681
 40
0.8120520785
 40
0.8747039402
 40
0.9374681374
 40
1.0
 40
1.0
 40
1.0
 40
1.0
 10
17.4957065833
 20
5.8685089477
 30
0.0
 10
17.4957065833
 20
5.8554394793
 30
0.0
 10
17.4944283981
 20
5.8292357113
 30
0.0
 10
17.4886786446
 20
5.7903213356
 30
0.0
 10
17.4791534158
 20
5.7522119421
 30
0.0
 10
17.4659810971
 20
5.7153283787
 30
0.0
 10
17.4492815004
 20
5.6799446571
 30
0.0
 10
17.4291758023
 20
5.6463459481
 30
0.0
 10
17.4058830797
 20
5.6149181021
 30
0.0
 10
17.3796780654
 20
5.5859958705
 30
0.0
 10
17.3507726531
 20
5.5597850391
 30
0.0
 10
17.319373192
 20
5.5364946534
 30
0.0
 10
17.2858150042
 20
5.5163971628
 30
0.0
 10
17.2504830892
 20
5.4997089531
 30
0.0
 10
17.2136629162
 20
5.4865492703
 30
0.0
 10
17.175626733
 20
5.4770353264
 30
0.0
 10
17.1367934163
 20
5.471293465
 30
0.0
 10
17.1106457398
 20
5.4700171592
 30
0.0
 10
17.0976051269
 20
5.4700171592
 30
0.0
 11
17.4957065833
 21
5.8685089477
 31
0.0
 11
17.4937941705
 21
5.8293472099
 31
0.0
 11
17.4880415194
 21
5.7904211323
 31
0.0
 11
17.4785168707
 21
5.7523210198
 31
0.0
 11
17.4653882123
 21
5.7155634476
 31
0.0
 11
17.4487397326
 21
5.6802908157
 31
0.0
 11
17.4286328686
 21
5.6466919687
 31
0.0
 11
17.4053417796
 21
5.6152674004
 31
0.0
 11
17.3792259466
 21
5.5864440882
 31
0.0
 11
17.3504186692
 21
5.5603223044
 31
0.0
 11
17.3190234479
 21
5.5370347214
 31
0.0
 11
17.2854649623
 21
5.5169363574
 31
0.0
 11
17.2502445041
 21
5.5002997924
 31
0.0
 11
17.2135501244
 21
5.487183974
 31
0.0
 11
17.1755250544
 21
5.4776712392
 31
0.0
 11
17.1366803396
 21
5.4719266158
 31
0.0
 11
17.0976051269
 21
5.4700171592
 31
0.0
  0
SPLINE
  5
2FE
100
AcDbEntity
  8
RACCORDO
100
AcDbSpline
 62
7
  6
CONTINUOUS
 70
0
 71
3
 72
23
 73
19
 74
17
 42
0.0000001
 43
0.0000001
 44
0.0000000001
 12
0.6260794102
 22
0.0
 32
0.0
 13
-0.0
 23
-0.6260794102
 33
0.0
 40
0.0
 40
0.0
 40
0.0
 40
0.0
 40
0.0625881422
 40
0.1254217627
 40
0.1881542833
 40
0.2505211627
 40
0.3128592232
 40
0.3754553554
 40
0.4379997474
 40
0.5002027209
 40
0.5623977915
 40
0.6249185204
 40
0.6874810527
 40
0.7497738282
 40
0.8120816345
 40
0.8747414598
 40
0.937496554
 40
1.0
 40
1.0
 40
1.0
 40
1.0
 10
17.0969776541
 20
7.6700171592
 30
0.0
 10
17.1100393698
 20
7.6700171592
 30
0.0
 10
17.1362320412
 20
7.6687386438
 30
0.0
 10
17.1751360098
 20
7.6629874611
 30
0.0
 10
17.2132469381
 20
7.653457576
 30
0.0
 10
17.2501421118
 20
7.6402759236
 30
0.0
 10
17.2855458821
 20
7.6235612232
 30
0.0
 10
17.3191712019
 20
7.603433953
 30
0.0
 10
17.3506303778
 20
7.5801127319
 30
0.0
 10
17.3795858902
 20
7.5538729987
 30
0.0
 10
17.4058296466
 20
7.5249278019
 30
0.0
 10
17.4291504968
 20
7.4934852918
 30
0.0
 10
17.4492743892
 20
7.4598828928
 30
0.0
 10
17.4659836811
 20
7.4245084075
 30
0.0
 10
17.4791586545
 20
7.387650094
 30
0.0
 10
17.4886823032
 20
7.3495828661
 30
0.0
 10
17.4944290846
 20
7.310728034
 30
0.0
 10
17.4957065833
 20
7.2845694348
 30
0.0
 10
17.4957065833
 20
7.2715253946
 30
0.0
 11
17.0969776541
 21
7.6700171592
 31
0.0
 11
17.1361161114
 21
7.6681048528
 31
0.0
 11
17.1750318885
 21
7.6623510441
 31
0.0
 11
17.2131339105
 21
7.6528219351
 31
0.0
 11
17.2499038966
 21
7.6396839525
 31
0.0
 11
17.2851964709
 21
7.6230207009
 31
0.0
 11
17.3188225002
 21
7.6028921646
 31
0.0
 11
17.3502790412
 21
7.5795723042
 31
0.0
 11
17.3791364854
 21
7.553421145
 31
0.0
 11
17.405291482
 21
7.5245738573
 31
0.0
 11
17.4286100848
 21
7.4931348273
 31
0.0
 11
17.448735263
 21
7.4595313061
 31
0.0
 11
17.4653931144
 21
7.4242675362
 31
0.0
 11
17.4785242488
 21
7.3875343781
 31
0.0
 11
17.4880466122
 21
7.349477584
 31
0.0
 11
17.4937959467
 21
7.3106108437
 31
0.0
 11
17.4957065833
 21
7.2715253946
 31
0.0
  0
SPLINE
  5
2FF
100
AcDbEntity
  8
RACCORDO
100
AcDbSpline
 62
253
  6
CONTINUOUS
 70
0
 71
3
 72
10
 73
6
 74
4
 42
0.0000001
 43
0.0000001
 44
0.0000000001
 12
0.0002526151
 22
-9.1022322221
 32
0.0
 13
0.0060343306
 23
-9.1022302254
 33
0.0
 40
0.0
 40
0.0
 40
0.0
 40
0.0
 40
0.3333526791
 40
0.6666869147
 40
1.0
 40
1.0
 40
1.0
 40
1.0
 10
34.6138166463
 20
10.6722487057
 30
0.0
 10
34.6138447162
 20
9.6608308735
 30
0.0
 10
34.6141189041
 20
7.6380511675
 30
0.0
 10
34.6151650122
 20
4.6039739193
 30
0.0
 10
34.6162921014
 20
2.581314639
 30
0.0
 10
34.6169625419
 20
1.5700171592
 30
0.0
 11
34.6138166463
 21
10.6722487057
 31
0.0
 11
34.6142247272
 21
7.6379952354
 31
0.0
 11
34.6152724672
 21
4.6039097947
 31
0.0
 11
34.6169625419
 21
1.5700171592
 31
0.0
  0
SPLINE
  5
300
100
AcDbEntity
  8
RACCORDO
100
AcDbSpline
 62
253
  6
CONTINUOUS
 70
0
 71
3
 72
10
 73
6
 74
4
 42
0.0000001
 43
0.0000001
 44
0.0000000001
 12
0.0002514557
 22
-9.0950366933
 32
0.0
 13
0.0060355961
 23
-9.0950346942
 33
0.0
 40
0.0
 40
0.0
 40
0.0
 40
0.0
 40
0.3333523679
 40
0.6666867588
 40
1.0
 40
1.0
 40
1.0
 40
1.0
 10
35.1135147869
 20
10.6745531766
 30
0.0
 10
35.1135427281
 20
9.6639358373
 30
0.0
 10
35.1138126705
 20
7.6427556582
 30
0.0
 10
35.1148604637
 20
4.6110769199
 30
0.0
 10
35.115987374
 20
2.5900156566
 30
0.0
 10
35.1166579554
 20
1.5795171592
 30
0.0
 11
35.1135147869
 21
10.6745531766
 31
0.0
 11
35.1139198354
 21
7.6427011846
 31
0.0
 11
35.114967593
 21
4.6110128478
 31
0.0
 11
35.1166579554
 21
1.5795171592
 31
0.0
  0
SPLINE
  5
301
100
AcDbEntity
  8
RACCORDO
100
AcDbSpline
 62
253
  6
CONTINUOUS
 70
0
 71
3
 72
24
 73
20
 74
18
 42
0.0000001
 43
0.0000001
 44
0.0000000001
 12
-0.4951381098
 22
-0.0674744652
 32
0.0
 13
-0.4997144696
 23
-0.0000069948
 33
0.0
 40
0.0
 40
0.0
 40
0.0
 40
0.0
 40
0.0072410904
 40
0.0225728332
 40
0.0458757318
 40
0.0769602085
 40
0.1155730933
 40
0.1614001728
 40
0.2140673257
 40
0.2731450583
 40
0.3381511715
 40
0.4085561138
 40
0.4837853051
 40
0.5632252357
 40
0.64622704
 40
0.7321147597
 40
0.8201880871
 40
0.9097254715
 40
1.0
 40
1.0
 40
1.0
 40
1.0
 10
35.1135147869
 20
10.6745531656
 30
0.0
 10
35.1123196737
 20
10.6743903027
 30
0.0
 10
35.1085498313
 20
10.6743189316
 30
0.0
 10
35.1009203227
 20
10.6740625923
 30
0.0
 10
35.0893037717
 20
10.6739001321
 30
0.0
 10
35.0738158151
 20
10.6736911214
 30
0.0
 10
35.0545729046
 20
10.6735062808
 30
0.0
 10
35.0317357472
 20
10.6733222008
 30
0.0
 10
35.0054892246
 20
10.6731502126
 30
0.0
 10
34.9760480113
 20
10.6729888572
 30
0.0
 10
34.9436520512
 20
10.6728406466
 30
0.0
 10
34.9085656473
 20
10.6727065786
 30
0.0
 10
34.8710749097
 20
10.6725879182
 30
0.0
 10
34.8314858397
 20
10.6724856555
 30
0.0
 10
34.790121318
 20
10.6724006672
 30
0.0
 10
34.7473186838
 20
10.6723336713
 30
0.0
 10
34.7034273827
 20
10.6722852295
 30
0.0
 10
34.6588053475
 20
10.6722557506
 30
0.0
 10
34.628853809
 20
10.6722489154
 30
0.0
 10
34.6138166463
 20
10.672248705
 30
0.0
 11
35.1135147869
 21
10.6745531656
 31
0.0
 11
35.10990266
 21
10.6743388778
 31
0.0
 11
35.1022440979
 21
10.6741269519
 31
0.0
 11
35.0906011575
 21
10.6739190914
 31
0.0
 11
35.0750691092
 21
10.6737170162
 31
0.0
 11
35.0557746738
 21
10.6735223688
 31
0.0
 11
35.0328749714
 21
10.6733367385
 31
0.0
 11
35.0065570155
 21
10.6731616428
 31
0.0
 11
34.9770354684
 21
10.6729985121
 31
0.0
 11
34.9445513186
 21
10.6728486796
 31
0.0
 11
34.9093692104
 21
10.6727133684
 31
0.0
 11
34.8717762854
 21
10.6725936851
 31
0.0
 11
34.8320791365
 21
10.6724906079
 31
0.0
 11
34.7906020222
 21
10.6724049801
 31
0.0
 11
34.747682739
 21
10.6723375012
 31
0.0
 11
34.7036712499
 21
10.6722887217
 31
0.0
 11
34.6589281332
 21
10.6722590432
 31
0.0
 11
34.6138166463
 21
10.672248705
 31
0.0
  0
SPLINE
  5
302
100
AcDbEntity
  8
0
100
AcDbSpline
 62
253
  6
CONTINUOUS
 70
0
 71
3
 72
23
 73
19
 74
17
 42
0.0000001
 43
0.0000001
 44
0.0000000001
 12
-0.4390227157
 22
-0.2392018116
 32
0.0
 13
-0.4999583399
 23
-0.0003316598
 33
0.0
 40
0.0
 40
0.0
 40
0.0
 40
0.0
 40
0.008152361
 40
0.0253232964
 40
0.051431694
 40
0.0862550999
 40
0.1294799963
 40
0.180712013
 40
0.2394815731
 40
0.3052489593
 40
0.3774096104
 40
0.4552998516
 40
0.5382030955
 40
0.6253564931
 40
0.7159579915
 40
0.8091737417
 40
0.9041457919
 40
1.0
 40
1.0
 40
1.0
 40
1.0
 10
35.1166579554
 20
1.5795171592
 30
0.0
 10
35.1154649315
 20
1.5788671393
 30
0.0
 10
35.1111126503
 20
1.5784811742
 30
0.0
 10
35.1027158132
 20
1.5774510473
 30
0.0
 10
35.0896565207
 20
1.5767271475
 30
0.0
 10
35.0723465089
 20
1.575849614
 30
0.0
 10
35.0508059204
 20
1.5750584254
 30
0.0
 10
35.0252855144
 20
1.5742789412
 30
0.0
 10
34.9960008904
 20
1.5735514909
 30
0.0
 10
34.9632279838
 20
1.5728735518
 30
0.0
 10
34.9272663956
 20
1.5722554824
 30
0.0
 10
34.8884478592
 20
1.5717023761
 30
0.0
 10
34.8471295784
 20
1.5712199524
 30
0.0
 10
34.8036920417
 20
1.5708127621
 30
0.0
 10
34.7585351799
 20
1.5704847225
 30
0.0
 10
34.7120747793
 20
1.5702389407
 30
0.0
 10
34.6647386271
 20
1.570077743
 30
0.0
 10
34.6329369121
 20
1.5700277562
 30
0.0
 10
34.6169625419
 20
1.5700171592
 30
0.0
 11
35.1166579554
 21
1.5795171592
 31
0.0
 11
35.1126852491
 21
1.578606066
 31
0.0
 11
35.1041480874
 21
1.5777033618
 31
0.0
 11
35.0911250776
 21
1.5768173586
 31
0.0
 11
35.0737361315
 21
1.5759562142
 31
0.0
 11
35.052141361
 21
1.5751278579
 31
0.0
 11
35.0265396036
 21
1.5743399168
 31
0.0
 11
34.9971665923
 21
1.5735996461
 31
0.0
 11
34.9642927842
 21
1.572913862
 31
0.0
 11
34.9282208707
 21
1.5722888789
 31
0.0
 11
34.8892829906
 21
1.5717304515
 31
0.0
 11
34.8478376712
 21
1.5712437217
 31
0.0
 11
34.8042665279
 21
1.5708331709
 31
0.0
 11
34.7589707495
 21
1.5705025796
 31
0.0
 11
34.7123674053
 21
1.5702549915
 31
0.0
 11
34.6648856036
 21
1.5700926866
 31
0.0
 11
34.6169625419
 21
1.5700171592
 31
0.0
  0
SPLINE
  5
303
100
AcDbEntity
  8
0
100
AcDbSpline
 62
253
  6
CONTINUOUS
 70
0
 71
3
 72
23
 73
19
 74
17
 42
0.0000001
 43
0.0000001
 44
0.0000000001
 12
-0.1156656166
 22
-0.4999835144
 32
0.0
 13
-0.5131813232
 23
-0.0026417985
 33
0.0
 40
0.0
 40
0.0
 40
0.0
 40
0.0
 40
0.0159236402
 40
0.037519705
 40
0.0662667634
 40
0.1026032067
 40
0.1465356752
 40
0.197849916
 40
0.2561916431
 40
0.3211034949
 40
0.3920454012
 40
0.4684080643
 40
0.5495234077
 40
0.6346736632
 40
0.7230998673
 40
0.8140101335
 40
0.9065878679
 40
1.0
 40
1.0
 40
1.0
 40
1.0
 10
35.1510208093
 20
-10.0628381692
 30
0.0
 10
35.15040687
 20
-10.0654920217
 30
0.0
 10
35.1467955634
 20
-10.071166328
 30
0.0
 10
35.1377052258
 20
-10.078052676
 30
0.0
 10
35.124467536
 20
-10.0848500629
 30
0.0
 10
35.1069985991
 20
-10.0914409032
 30
0.0
 10
35.0853985275
 20
-10.0978239995
 30
0.0
 10
35.0598306701
 20
-10.1039109141
 30
0.0
 10
35.0305178351
 20
-10.1096450212
 30
0.0
 10
34.9977222977
 20
-10.1149655197
 30
0.0
 10
34.9617424023
 20
-10.1198203059
 30
0.0
 10
34.922907251
 20
-10.1241617458
 30
0.0
 10
34.8815731976
 20
-10.1279480478
 30
0.0
 10
34.8381200883
 20
-10.1311429922
 30
0.0
 10
34.792947598
 20
-10.1337162249
 30
0.0
 10
34.7464713724
 20
-10.1356433989
 30
0.0
 10
34.6991193337
 20
-10.1369063425
 30
0.0
 10
34.6673045163
 20
-10.1372969983
 30
0.0
 10
34.6513253957
 20
-10.137379257
 30
0.0
 11
35.1510208093
 21
-10.0628381692
 31
0.0
 11
35.1470649504
 21
-10.0699886847
 31
0.0
 11
35.1385422005
 21
-10.0770733277
 31
0.0
 11
35.1255310736
 21
-10.0840268323
 31
0.0
 11
35.1081514318
 21
-10.0907851411
 31
0.0
 11
35.0865633811
 21
-10.0972859946
 31
0.0
 11
35.0609657968
 21
-10.103469505
 31
0.0
 11
35.0315944909
 21
-10.1092787082
 31
0.0
 11
34.99872004
 21
-10.1146600882
 31
0.0
 11
34.9626452928
 21
-10.1195640702
 31
0.0
 11
34.9237025799
 21
-10.1239454774
 31
0.0
 11
34.8822506525
 21
-10.127763947
 31
0.0
 11
34.8386713772
 21
-10.1309843021
 31
0.0
 11
34.7933662185
 21
-10.1335768761
 31
0.0
 11
34.7467525401
 21
-10.1355177854
 31
0.0
 11
34.6992597603
 21
-10.1367891497
 31
0.0
 11
34.6513253957
 21
-10.137379257
 31
0.0
  0
SPLINE
  5
304
100
AcDbEntity
  8
0
100
AcDbSpline
 62
253
  6
CONTINUOUS
 70
0
 71
3
 72
24
 73
20
 74
18
 42
0.0000001
 43
0.0000001
 44
0.0000000001
 12
0.0022370123
 22
-0.8499340702
 32
0.0
 13
0.2685899292
 23
-0.8063822777
 33
0.0
 40
0.0
 40
0.0
 40
0.0
 40
0.0
 40
0.0929977429
 40
0.184256553
 40
0.2731879617
 40
0.3592144101
 40
0.441779768
 40
0.52034911
 40
0.5944135008
 40
0.6634931372
 40
0.7271410503
 40
0.784944825
 40
0.836530752
 40
0.8815652918
 40
0.9197580269
 40
0.9508640559
 40
0.9746874526
 40
0.9910862544
 40
1.0
 40
1.0
 40
1.0
 40
1.0
 10
34.6513253957
 20
-10.1373792604
 30
0.0
 10
34.6513947414
 20
-10.1637265771
 30
0.0
 10
34.6515693761
 20
-10.2159284616
 30
0.0
 10
34.6519426342
 20
-10.2933251097
 30
0.0
 10
34.6524229612
 20
-10.3687460787
 30
0.0
 10
34.6530070819
 20
-10.4417032793
 30
0.0
 10
34.6536911608
 20
-10.5117237803
 30
0.0
 10
34.6544706004
 20
-10.5783540704
 30
0.0
 10
34.6553401485
 20
-10.6411622424
 30
0.0
 10
34.6562939264
 20
-10.6997412404
 30
0.0
 10
34.6573251919
 20
-10.7537113887
 30
0.0
 10
34.6584271342
 20
-10.8027226746
 30
0.0
 10
34.6595900865
 20
-10.8464580701
 30
0.0
 10
34.660809737
 20
-10.8846318375
 30
0.0
 10
34.6620610121
 20
-10.9170035686
 30
0.0
 10
34.66337089
 20
-10.9433449024
 30
0.0
 10
34.6646121629
 20
-10.9635389492
 30
0.0
 10
34.6659943269
 20
-10.9773487796
 30
0.0
 10
34.666878804
 20
-10.9845306506
 30
0.0
 10
34.6676768514
 20
-10.9869266127
 30
0.0
 11
34.6513253957
 21
-10.1373792604
 31
0.0
 11
34.6515906689
 21
-10.2164210392
 31
0.0
 11
34.6519660564
 21
-10.2939843714
 31
0.0
 11
34.6524491751
 21
-10.3695689234
 31
0.0
 11
34.6530368594
 21
-10.4426836242
 31
0.0
 11
34.653725329
 21
-10.5128556007
 31
0.0
 11
34.6545101193
 21
-10.579629981
 31
0.0
 11
34.6553861524
 21
-10.6425739523
 31
0.0
 11
34.656347753
 21
-10.7012794172
 31
0.0
 11
34.6573886996
 21
-10.7553661184
 31
0.0
 11
34.6585022442
 21
-10.804483065
 31
0.0
 11
34.6596811798
 21
-10.8483120007
 31
0.0
 11
34.6609178645
 21
-10.8865685396
 31
0.0
 11
34.6622042882
 21
-10.9190044588
 31
0.0
 11
34.6635320937
 21
-10.9454092599
 31
0.0
 11
34.6648927324
 21
-10.9656118792
 31
0.0
 11
34.6662772567
 21
-10.9794808915
 31
0.0
 11
34.6676768514
 21
-10.9869266127
 31
0.0
  0
SPLINE
  5
305
100
AcDbEntity
  8
0
100
AcDbSpline
 62
253
  6
CONTINUOUS
 70
0
 71
3
 72
24
 73
20
 74
18
 42
0.0000001
 43
0.0000001
 44
0.0000000001
 12
0.0022405343
 22
-0.425539131
 32
0.0
 13
0.2359406645
 23
-0.3541476737
 33
0.0
 40
0.0
 40
0.0
 40
0.0
 40
0.0
 40
0.092855355
 40
0.1839967866
 40
0.2728162512
 40
0.3587375314
 40
0.4412058963
 40
0.5196878524
 40
0.5936759745
 40
0.6626920345
 40
0.7262908445
 40
0.7840621562
 40
0.8356349505
 40
0.8806792824
 40
0.9189099719
 40
0.9500906576
 40
0.9740413608
 40
0.9906572345
 40
1.0
 40
1.0
 40
1.0
 40
1.0
 10
35.1510208093
 20
-10.0628381692
 30
0.0
 10
35.1510901578
 20
-10.0760093649
 30
0.0
 10
35.1512647399
 20
-10.1021084637
 30
0.0
 10
35.1516380025
 20
-10.1408052529
 30
0.0
 10
35.1521183075
 20
-10.1785172046
 30
0.0
 10
35.1527024524
 20
-10.2149972837
 30
0.0
 10
35.153386545
 20
-10.250009008
 30
0.0
 10
35.1541660156
 20
-10.2833256098
 30
0.0
 10
35.1550356069
 20
-10.3147311279
 30
0.0
 10
35.1559894249
 20
-10.3440220112
 30
0.0
 10
35.1570208059
 20
-10.3710084948
 30
0.0
 10
35.1581226991
 20
-10.3955154564
 30
0.0
 10
35.1592862494
 20
-10.4173851014
 30
0.0
 10
35.1605047319
 20
-10.4364730626
 30
0.0
 10
35.1617604762
 20
-10.4526650543
 30
0.0
 10
35.1630601131
 20
-10.4658333076
 30
0.0
 10
35.1643315335
 20
-10.4759634465
 30
0.0
 10
35.1656639434
 20
-10.482860089
 30
0.0
 10
35.1666374855
 20
-10.4865089392
 30
0.0
 10
35.1673722649
 20
-10.4876118454
 30
0.0
 11
35.1510208093
 21
-10.0628381692
 31
0.0
 11
35.151286017
 21
-10.102351414
 31
0.0
 11
35.1516614096
 21
-10.1411343804
 31
0.0
 11
35.1521445194
 21
-10.1789279744
 31
0.0
 11
35.1527322132
 21
-10.2154866248
 31
0.0
 11
35.1534206934
 21
-10.2505738735
 31
0.0
 11
35.154205503
 21
-10.2839622574
 31
0.0
 11
35.1550815608
 21
-10.3154353448
 31
0.0
 11
35.1560431916
 21
-10.3447890387
 31
0.0
 11
35.1570841724
 21
-10.3718331689
 31
0.0
 11
35.1581977545
 21
-10.3963922298
 31
0.0
 11
35.1593767298
 21
-10.4183070857
 31
0.0
 11
35.1606134573
 21
-10.4374355394
 31
0.0
 11
35.1618999206
 21
-10.4536534759
 31
0.0
 11
35.1632277774
 21
-10.4668556527
 31
0.0
 11
35.1645884358
 21
-10.4769565223
 31
0.0
 11
35.1659730501
 21
-10.4838904311
 31
0.0
 11
35.1673722649
 21
-10.4876118454
 31
0.0
  0
SPLINE
  5
306
100
AcDbEntity
  8
RACCORDO
100
AcDbSpline
 62
253
  6
CONTINUOUS
 70
0
 71
3
 72
10
 73
6
 74
4
 42
0.0000001
 43
0.0000001
 44
0.0000000001
 12
0.0060355961
 22
9.0950346942
 32
0.0
 13
0.0002514557
 23
9.0950366933
 33
0.0
 40
0.0
 40
0.0
 40
0.0
 40
0.0
 40
0.3333132412
 40
0.6666476321
 40
1.0
 40
1.0
 40
1.0
 40
1.0
 10
-9.2252447887
 20
1.5795171592
 30
0.0
 10
-9.2245742073
 20
2.5900156566
 30
0.0
 10
-9.223447297
 20
4.6110769199
 30
0.0
 10
-9.2223995038
 20
7.6427556582
 30
0.0
 10
-9.2221295614
 20
9.6639358373
 30
0.0
 10
-9.2221016203
 20
10.6745531766
 30
0.0
 11
-9.2252447887
 21
1.5795171592
 31
0.0
 11
-9.2235544263
 21
4.6110128478
 31
0.0
 11
-9.2225066687
 21
7.6427011846
 31
0.0
 11
-9.2221016203
 21
10.6745531766
 31
0.0
  0
SPLINE
  5
307
100
AcDbEntity
  8
0
100
AcDbSpline
 62
253
  6
CONTINUOUS
 70
0
 71
3
 72
23
 73
19
 74
17
 42
0.0000001
 43
0.0000001
 44
0.0000000001
 12
0.4390227135
 22
-0.2392018158
 32
0.0
 13
0.4999583399
 23
-0.0003316598
 33
0.0
 40
0.0
 40
0.0
 40
0.0
 40
0.0
 40
0.0081523609
 40
0.0253232963
 40
0.0514316938
 40
0.0862550996
 40
0.1294799961
 40
0.1807120127
 40
0.2394815728
 40
0.305248959
 40
0.3774096101
 40
0.4552998514
 40
0.5382030953
 40
0.6253564929
 40
0.7159579914
 40
0.8091737416
 40
0.9041457919
 40
1.0
 40
1.0
 40
1.0
 40
1.0
 10
-9.2252447887
 20
1.5795171592
 30
0.0
 10
-9.2240517648
 20
1.5788671393
 30
0.0
 10
-9.2196994837
 20
1.5784811742
 30
0.0
 10
-9.2113026466
 20
1.5774510473
 30
0.0
 10
-9.1982433541
 20
1.5767271475
 30
0.0
 10
-9.1809333423
 20
1.575849614
 30
0.0
 10
-9.1593927539
 20
1.5750584254
 30
0.0
 10
-9.1338723479
 20
1.5742789412
 30
0.0
 10
-9.1045877238
 20
1.5735514909
 30
0.0
 10
-9.0718148173
 20
1.5728735518
 30
0.0
 10
-9.0358532291
 20
1.5722554824
 30
0.0
 10
-8.9970346926
 20
1.5717023761
 30
0.0
 10
-8.9557164118
 20
1.5712199524
 30
0.0
 10
-8.9122788752
 20
1.5708127621
 30
0.0
 10
-8.8671220133
 20
1.5704847225
 30
0.0
 10
-8.8206616127
 20
1.5702389407
 30
0.0
 10
-8.7733254605
 20
1.570077743
 30
0.0
 10
-8.7415237455
 20
1.5700277562
 30
0.0
 10
-8.7255493752
 20
1.5700171592
 30
0.0
 11
-9.2252447887
 21
1.5795171592
 31
0.0
 11
-9.2212720825
 21
1.578606066
 31
0.0
 11
-9.2127349207
 21
1.5777033618
 31
0.0
 11
-9.199711911
 21
1.5768173586
 31
0.0
 11
-9.182322965
 21
1.5759562142
 31
0.0
 11
-9.1607281944
 21
1.5751278579
 31
0.0
 11
-9.1351264371
 21
1.5743399168
 31
0.0
 11
-9.1057534257
 21
1.5735996461
 31
0.0
 11
-9.0728796176
 21
1.572913862
 31
0.0
 11
-9.0368077042
 21
1.5722888789
 31
0.0
 11
-8.997869824
 21
1.5717304515
 31
0.0
 11
-8.9564245047
 21
1.5712437217
 31
0.0
 11
-8.9128533613
 21
1.5708331709
 31
0.0
 11
-8.8675575829
 21
1.5705025796
 31
0.0
 11
-8.8209542386
 21
1.5702549915
 31
0.0
 11
-8.773472437
 21
1.5700926866
 31
0.0
 11
-8.7255493752
 21
1.5700171592
 31
0.0
  0
SPLINE
  5
308
100
AcDbEntity
  8
RACCORDO
100
AcDbSpline
 62
253
  6
CONTINUOUS
 70
0
 71
3
 72
10
 73
6
 74
4
 42
0.0000001
 43
0.0000001
 44
0.0000000001
 12
0.0060343306
 22
9.1022302254
 32
0.0
 13
0.0002526151
 23
9.1022322221
 33
0.0
 40
0.0
 40
0.0
 40
0.0
 40
0.0
 40
0.3333130853
 40
0.6666473209
 40
1.0
 40
1.0
 40
1.0
 40
1.0
 10
-8.7255493752
 20
1.5700171592
 30
0.0
 10
-8.7248789348
 20
2.581314639
 30
0.0
 10
-8.7237518455
 20
4.6039739193
 30
0.0
 10
-8.7227057374
 20
7.6380511675
 30
0.0
 10
-8.7224315496
 20
9.6608308735
 30
0.0
 10
-8.7224034796
 20
10.6722487057
 30
0.0
 11
-8.7255493752
 21
1.5700171592
 31
0.0
 11
-8.7238593005
 21
4.6039097947
 31
0.0
 11
-8.7228115605
 21
7.6379952354
 31
0.0
 11
-8.7224034796
 21
10.6722487057
 31
0.0
  0
SPLINE
  5
309
100
AcDbEntity
  8
RACCORDO
100
AcDbSpline
 62
253
  6
CONTINUOUS
 70
0
 71
3
 72
24
 73
20
 74
18
 42
0.0000001
 43
0.0000001
 44
0.0000000001
 12
-0.4997144696
 22
0.0000069948
 32
0.0
 13
-0.4951381098
 23
0.0674744651
 33
0.0
 40
0.0
 40
0.0
 40
0.0
 40
0.0
 40
0.0902745285
 40
0.1798119128
 40
0.2678852403
 40
0.3537729599
 40
0.4367747643
 40
0.5162146948
 40
0.5914438862
 40
0.6618488285
 40
0.7268549417
 40
0.7859326743
 40
0.8385998271
 40
0.8844269067
 40
0.9230397915
 40
0.9541242682
 40
0.9774271668
 40
0.9927589096
 40
1.0
 40
1.0
 40
1.0
 40
1.0
 10
-8.7224034796
 20
10.672248705
 30
0.0
 10
-8.7374406423
 20
10.6722489154
 30
0.0
 10
-8.7673921808
 20
10.6722557506
 30
0.0
 10
-8.812014216
 20
10.6722852295
 30
0.0
 10
-8.8559055171
 20
10.6723336713
 30
0.0
 10
-8.8987081513
 20
10.6724006672
 30
0.0
 10
-8.940072673
 20
10.6724856555
 30
0.0
 10
-8.9796617431
 20
10.6725879182
 30
0.0
 10
-9.0171524806
 20
10.6727065786
 30
0.0
 10
-9.0522388846
 20
10.6728406466
 30
0.0
 10
-9.0846348446
 20
10.6729888572
 30
0.0
 10
-9.1140760579
 20
10.6731502126
 30
0.0
 10
-9.1403225805
 20
10.6733222008
 30
0.0
 10
-9.1631597379
 20
10.6735062808
 30
0.0
 10
-9.1824026485
 20
10.6736911214
 30
0.0
 10
-9.197890605
 20
10.6739001321
 30
0.0
 10
-9.209507156
 20
10.6740625923
 30
0.0
 10
-9.2171366646
 20
10.6743189316
 30
0.0
 10
-9.220906507
 20
10.6743903027
 30
0.0
 10
-9.2221016203
 20
10.6745531656
 30
0.0
 11
-8.7224034796
 21
10.672248705
 31
0.0
 11
-8.7675149665
 21
10.6722590432
 31
0.0
 11
-8.8122580832
 21
10.6722887217
 31
0.0
 11
-8.8562695723
 21
10.6723375012
 31
0.0
 11
-8.8991888555
 21
10.6724049801
 31
0.0
 11
-8.9406659698
 21
10.6724906079
 31
0.0
 11
-8.9803631187
 21
10.6725936851
 31
0.0
 11
-9.0179560437
 21
10.6727133684
 31
0.0
 11
-9.0531381519
 21
10.6728486796
 31
0.0
 11
-9.0856223017
 21
10.6729985121
 31
0.0
 11
-9.1151438488
 21
10.6731616428
 31
0.0
 11
-9.1414618047
 21
10.6733367385
 31
0.0
 11
-9.1643615071
 21
10.6735223688
 31
0.0
 11
-9.1836559426
 21
10.6737170162
 31
0.0
 11
-9.1991879909
 21
10.6739190914
 31
0.0
 11
-9.2108309312
 21
10.6741269519
 31
0.0
 11
-9.2184894933
 21
10.6743388778
 31
0.0
 11
-9.2221016203
 21
10.6745531656
 31
0.0
  0
SPLINE
  5
30A
100
AcDbEntity
  8
0
100
AcDbSpline
 62
253
  6
CONTINUOUS
 70
0
 71
3
 72
23
 73
19
 74
17
 42
0.0000001
 43
0.0000001
 44
0.0000000001
 12
0.1156655032
 22
-0.499983543
 32
0.0
 13
0.5131813254
 23
-0.0026417988
 33
0.0
 40
0.0
 40
0.0
 40
0.0
 40
0.0
 40
0.015923639
 40
0.0375197021
 40
0.0662667587
 40
0.1026032005
 40
0.1465356677
 40
0.1978499076
 40
0.2561916344
 40
0.3211034861
 40
0.3920453925
 40
0.4684080562
 40
0.5495234005
 40
0.6346736571
 40
0.7230998625
 40
0.8140101302
 40
0.9065878662
 40
1.0
 40
1.0
 40
1.0
 40
1.0
 10
-9.2596076426
 20
-10.0628381692
 30
0.0
 10
-9.258993704
 20
-10.0654920217
 30
0.0
 10
-9.2553823986
 20
-10.0711663283
 30
0.0
 10
-9.2462920621
 20
-10.0780526766
 30
0.0
 10
-9.2330543734
 20
-10.0848500637
 30
0.0
 10
-9.2155854372
 20
-10.0914409043
 30
0.0
 10
-9.1939853663
 20
-10.0978240008
 30
0.0
 10
-9.1684175092
 20
-10.1039109157
 30
0.0
 10
-9.1391046744
 20
-10.1096450231
 30
0.0
 10
-9.1063091369
 20
-10.1149655218
 30
0.0
 10
-9.0703292413
 20
-10.1198203083
 30
0.0
 10
-9.0314940896
 20
-10.1241617484
 30
0.0
 10
-8.9901600356
 20
-10.1279480506
 30
0.0
 10
-8.9467069255
 20
-10.1311429952
 30
0.0
 10
-8.9015344344
 20
-10.133716228
 30
0.0
 10
-8.8550582078
 20
-10.1356434022
 30
0.0
 10
-8.8077061681
 20
-10.1369063459
 30
0.0
 10
-8.77589135
 20
-10.1372970017
 30
0.0
 10
-8.7599122291
 20
-10.1373792604
 30
0.0
 11
-9.2596076426
 21
-10.0628381692
 31
0.0
 11
-9.2556517853
 21
-10.069988685
 31
0.0
 11
-9.2471290368
 21
-10.0770733281
 31
0.0
 11
-9.234117911
 21
-10.0840268331
 31
0.0
 11
-9.21673827
 21
-10.0907851421
 31
0.0
 11
-9.19515022
 21
-10.0972859959
 31
0.0
 11
-9.169552636
 21
-10.1034695066
 31
0.0
 11
-9.1401813303
 21
-10.1092787101
 31
0.0
 11
-9.1073068793
 21
-10.1146600903
 31
0.0
 11
-9.0712321319
 21
-10.1195640726
 31
0.0
 11
-9.0322894186
 21
-10.12394548
 31
0.0
 11
-8.9908374905
 21
-10.1277639498
 31
0.0
 11
-8.9472582145
 21
-10.1309843051
 31
0.0
 11
-8.9019530549
 21
-10.1335768793
 31
0.0
 11
-8.8553393756
 21
-10.1355177887
 31
0.0
 11
-8.8078465947
 21
-10.1367891531
 31
0.0
 11
-8.7599122291
 21
-10.1373792604
 31
0.0
  0
SPLINE
  5
30B
100
AcDbEntity
  8
0
100
AcDbSpline
 62
253
  6
CONTINUOUS
 70
0
 71
3
 72
24
 73
20
 74
18
 42
0.0000001
 43
0.0000001
 44
0.0000000001
 12
0.2685899298
 22
0.8063822775
 32
0.0
 13
0.0022370123
 23
0.8499340702
 33
0.0
 40
0.0
 40
0.0
 40
0.0
 40
0.0
 40
0.0089137456
 40
0.0253125474
 40
0.0491359441
 40
0.0802419731
 40
0.1184347082
 40
0.163469248
 40
0.215055175
 40
0.2728589497
 40
0.3365068628
 40
0.4055864992
 40
0.47965089
 40
0.558220232
 40
0.6407855899
 40
0.7268120383
 40
0.815743447
 40
0.9070022571
 40
1.0
 40
1.0
 40
1.0
 40
1.0
 10
-8.7762636848
 20
-10.9869266127
 30
0.0
 10
-8.7754656373
 20
-10.9845306506
 30
0.0
 10
-8.7745811602
 20
-10.9773487796
 30
0.0
 10
-8.7731989962
 20
-10.9635389492
 30
0.0
 10
-8.7719577234
 20
-10.9433449024
 30
0.0
 10
-8.7706478454
 20
-10.9170035686
 30
0.0
 10
-8.7693965703
 20
-10.8846318375
 30
0.0
 10
-8.7681769199
 20
-10.8464580701
 30
0.0
 10
-8.7670139675
 20
-10.8027226746
 30
0.0
 10
-8.7659120252
 20
-10.7537113887
 30
0.0
 10
-8.7648807597
 20
-10.6997412404
 30
0.0
 10
-8.7639269819
 20
-10.6411622424
 30
0.0
 10
-8.7630574338
 20
-10.5783540704
 30
0.0
 10
-8.7622779941
 20
-10.5117237803
 30
0.0
 10
-8.7615939152
 20
-10.4417032793
 30
0.0
 10
-8.7610097945
 20
-10.3687460787
 30
0.0
 10
-8.7605294676
 20
-10.2933251097
 30
0.0
 10
-8.7601562095
 20
-10.2159284616
 30
0.0
 10
-8.7599815748
 20
-10.1637265771
 30
0.0
 10
-8.7599122291
 20
-10.1373792604
 30
0.0
 11
-8.7762636848
 21
-10.9869266127
 31
0.0
 11
-8.7748640901
 21
-10.9794808915
 31
0.0
 11
-8.7734795658
 21
-10.9656118792
 31
0.0
 11
-8.772118927
 21
-10.9454092599
 31
0.0
 11
-8.7707911215
 21
-10.9190044588
 31
0.0
 11
-8.7695046979
 21
-10.8865685396
 31
0.0
 11
-8.7682680131
 21
-10.8483120007
 31
0.0
 11
-8.7670890775
 21
-10.804483065
 31
0.0
 11
-8.7659755329
 21
-10.7553661184
 31
0.0
 11
-8.7649345864
 21
-10.7012794172
 31
0.0
 11
-8.7639729858
 21
-10.6425739523
 31
0.0
 11
-8.7630969526
 21
-10.579629981
 31
0.0
 11
-8.7623121624
 21
-10.5128556007
 31
0.0
 11
-8.7616236928
 21
-10.4426836242
 31
0.0
 11
-8.7610360085
 21
-10.3695689234
 31
0.0
 11
-8.7605528897
 21
-10.2939843714
 31
0.0
 11
-8.7601775022
 21
-10.2164210392
 31
0.0
 11
-8.7599122291
 21
-10.1373792604
 31
0.0
  0
SPLINE
  5
30C
100
AcDbEntity
  8
0
100
AcDbSpline
 62
253
  6
CONTINUOUS
 70
0
 71
3
 72
24
 73
20
 74
18
 42
0.0000001
 43
0.0000001
 44
0.0000000001
 12
0.2359406643
 22
0.3541476739
 32
0.0
 13
0.0022405343
 23
0.425539131
 33
0.0
 40
0.0
 40
0.0
 40
0.0
 40
0.0
 40
0.0093427655
 40
0.0259586392
 40
0.0499093424
 40
0.0810900281
 40
0.1193207176
 40
0.1643650495
 40
0.2159378438
 40
0.2737091555
 40
0.3373079655
 40
0.4063240255
 40
0.4803121476
 40
0.5587941037
 40
0.6412624686
 40
0.7271837488
 40
0.8160032134
 40
0.907144645
 40
1.0
 40
1.0
 40
1.0
 40
1.0
 10
-9.2759590983
 20
-10.4876118454
 30
0.0
 10
-9.2752243188
 20
-10.4865089392
 30
0.0
 10
-9.2742507767
 20
-10.482860089
 30
0.0
 10
-9.2729183668
 20
-10.4759634465
 30
0.0
 10
-9.2716469465
 20
-10.4658333076
 30
0.0
 10
-9.2703473095
 20
-10.4526650543
 30
0.0
 10
-9.2690915652
 20
-10.4364730626
 30
0.0
 10
-9.2678730827
 20
-10.4173851014
 30
0.0
 10
-9.2667095324
 20
-10.3955154564
 30
0.0
 10
-9.2656076392
 20
-10.3710084948
 30
0.0
 10
-9.2645762582
 20
-10.3440220112
 30
0.0
 10
-9.2636224402
 20
-10.3147311279
 30
0.0
 10
-9.2627528489
 20
-10.2833256098
 30
0.0
 10
-9.2619733783
 20
-10.250009008
 30
0.0
 10
-9.2612892858
 20
-10.2149972837
 30
0.0
 10
-9.2607051409
 20
-10.1785172046
 30
0.0
 10
-9.2602248359
 20
-10.1408052529
 30
0.0
 10
-9.2598515732
 20
-10.1021084637
 30
0.0
 10
-9.2596769911
 20
-10.0760093649
 30
0.0
 10
-9.2596076426
 20
-10.0628381692
 30
0.0
 11
-9.2759590983
 21
-10.4876118454
 31
0.0
 11
-9.2745598834
 21
-10.4838904311
 31
0.0
 11
-9.2731752691
 21
-10.4769565223
 31
0.0
 11
-9.2718146107
 21
-10.4668556527
 31
0.0
 11
-9.2704867539
 21
-10.4536534759
 31
0.0
 11
-9.2692002906
 21
-10.4374355394
 31
0.0
 11
-9.2679635632
 21
-10.4183070857
 31
0.0
 11
-9.2667845879
 21
-10.3963922298
 31
0.0
 11
-9.2656710057
 21
-10.3718331689
 31
0.0
 11
-9.264630025
 21
-10.3447890387
 31
0.0
 11
-9.2636683941
 21
-10.3154353448
 31
0.0
 11
-9.2627923363
 21
-10.2839622574
 31
0.0
 11
-9.2620075267
 21
-10.2505738735
 31
0.0
 11
-9.2613190465
 21
-10.2154866248
 31
0.0
 11
-9.2607313527
 21
-10.1789279744
 31
0.0
 11
-9.2602482429
 21
-10.1411343804
 31
0.0
 11
-9.2598728503
 21
-10.102351414
 31
0.0
 11
-9.2596076426
 21
-10.0628381692
 31
0.0
  0
SPLINE
  5
30D
100
AcDbEntity
  8
RACCORDO
100
AcDbSpline
 62
253
  6
CONTINUOUS
 70
0
 71
3
 72
24
 73
20
 74
18
 42
0.0000001
 43
0.0000001
 44
0.0000000001
 12
-0.2498750154
 22
0.0000000277
 32
0.0
 13
-0.2424250812
 23
0.0605607405
 33
0.0
 40
0.0
 40
0.0
 40
0.0
 40
0.0
 40
0.0902519062
 40
0.1797846795
 40
0.2678529052
 40
0.3537361738
 40
0.4367339978
 40
0.5161705145
 40
0.5913968937
 40
0.6617996696
 40
0.7268041989
 40
0.7858808583
 40
0.8385476229
 40
0.8843752391
 40
0.9229899153
 40
0.9540780319
 40
0.9773873145
 40
0.9927312008
 40
1.0
 40
1.0
 40
1.0
 40
1.0
 10
-8.7224061628
 20
10.922438071
 30
0.0
 10
-8.729923395
 20
10.9224380718
 30
0.0
 10
-8.7448979622
 20
10.9224439525
 30
0.0
 10
-8.767207865
 20
10.922470388
 30
0.0
 10
-8.789153869
 20
10.9225142049
 30
0.0
 10
-8.8105555235
 20
10.922575037
 30
0.0
 10
-8.8312381708
 20
10.9226523716
 30
0.0
 10
-8.8510331131
 20
10.9227455591
 30
0.0
 10
-8.8697789018
 20
10.9228538014
 30
0.0
 10
-8.8873225074
 20
10.922976196
 30
0.0
 10
-8.9035208554
 20
10.9231115943
 30
0.0
 10
-8.9182417148
 20
10.9232590699
 30
0.0
 10
-8.9313652704
 20
10.9234163821
 30
0.0
 10
-8.9427836936
 20
10.923584698
 30
0.0
 10
-8.9524060751
 20
10.923754155
 30
0.0
 10
-8.9601479422
 20
10.9239447674
 30
0.0
 10
-8.9659620117
 20
10.9240954386
 30
0.0
 10
-8.9697674282
 20
10.9243267081
 30
0.0
 10
-8.971666437
 20
10.9243968986
 30
0.0
 10
-8.9722538167
 20
10.9245436332
 30
0.0
 11
-8.7224061628
 21
10.922438071
 31
0.0
 11
-8.7449578575
 21
10.9224469655
 31
0.0
 11
-8.7673298448
 21
10.9224735839
 31
0.0
 11
-8.7893358498
 21
10.9225177094
 31
0.0
 11
-8.8107958454
 21
10.9225789821
 31
0.0
 11
-8.8315347815
 21
10.9226569018
 31
0.0
 11
-8.8513837601
 21
10.9227508343
 31
0.0
 11
-8.8701806357
 21
10.9228600127
 31
0.0
 11
-8.8877720967
 21
10.9229835465
 31
0.0
 11
-8.9040145277
 21
10.9231204274
 31
0.0
 11
-8.9187755557
 21
10.9232695396
 31
0.0
 11
-8.9319346901
 21
10.9234296661
 31
0.0
 11
-8.9433846069
 21
10.923599501
 31
0.0
 11
-8.9530318048
 21
10.9237776569
 31
0.0
 11
-8.9607977446
 21
10.9239626827
 31
0.0
 11
-8.9666190395
 21
10.9241530693
 31
0.0
 11
-8.9704481724
 21
10.924347259
 31
0.0
 11
-8.9722538167
 21
10.9245436332
 31
0.0
  0
SPLINE
  5
30E
100
AcDbEntity
  8
RACCORDO
100
AcDbSpline
 62
253
  6
CONTINUOUS
 70
0
 71
3
 72
24
 73
20
 74
18
 42
0.0000001
 43
0.0000001
 44
0.0000000001
 12
-0.2424250813
 22
-0.0605607403
 32
0.0
 13
-0.2498750154
 23
-0.0000000277
 33
0.0
 40
0.0
 40
0.0
 40
0.0
 40
0.0
 40
0.0072687992
 40
0.0226126855
 40
0.0459219681
 40
0.0770100847
 40
0.1156247608
 40
0.1614523771
 40
0.2141191417
 40
0.2731958011
 40
0.3382003304
 40
0.4086031063
 40
0.4838294855
 40
0.5632660021
 40
0.6462638261
 40
0.7321470947
 40
0.8202153205
 40
0.9097480937
 40
1.0
 40
1.0
 40
1.0
 40
1.0
 10
34.8636669834
 20
10.9245436332
 30
0.0
 10
34.8630796036
 20
10.9243968986
 30
0.0
 10
34.8611805948
 20
10.9243267081
 30
0.0
 10
34.8573751783
 20
10.9240954386
 30
0.0
 10
34.8515611089
 20
10.9239447674
 30
0.0
 10
34.8438192418
 20
10.923754155
 30
0.0
 10
34.8341968603
 20
10.923584698
 30
0.0
 10
34.8227784371
 20
10.9234163821
 30
0.0
 10
34.8096548815
 20
10.9232590699
 30
0.0
 10
34.794934022
 20
10.9231115943
 30
0.0
 10
34.7787356741
 20
10.922976196
 30
0.0
 10
34.7611920685
 20
10.9228538014
 30
0.0
 10
34.7424462798
 20
10.9227455591
 30
0.0
 10
34.7226513374
 20
10.9226523716
 30
0.0
 10
34.7019686901
 20
10.922575037
 30
0.0
 10
34.6805670356
 20
10.9225142049
 30
0.0
 10
34.6586210317
 20
10.922470388
 30
0.0
 10
34.6363111288
 20
10.9224439525
 30
0.0
 10
34.6213365616
 20
10.9224380718
 30
0.0
 10
34.6138193295
 20
10.922438071
 30
0.0
 11
34.8636669834
 21
10.9245436332
 31
0.0
 11
34.8618613391
 21
10.924347259
 31
0.0
 11
34.8580322062
 21
10.9241530693
 31
0.0
 11
34.8522109113
 21
10.9239626827
 31
0.0
 11
34.8444449715
 21
10.9237776569
 31
0.0
 11
34.8347977736
 21
10.923599501
 31
0.0
 11
34.8233478568
 21
10.9234296661
 31
0.0
 11
34.8101887224
 21
10.9232695396
 31
0.0
 11
34.7954276943
 21
10.9231204274
 31
0.0
 11
34.7791852633
 21
10.9229835465
 31
0.0
 11
34.7615938024
 21
10.9228600127
 31
0.0
 11
34.7427969268
 21
10.9227508343
 31
0.0
 11
34.7229479482
 21
10.9226569018
 31
0.0
 11
34.702209012
 21
10.9225789821
 31
0.0
 11
34.6807490165
 21
10.9225177094
 31
0.0
 11
34.6587430114
 21
10.9224735839
 31
0.0
 11
34.6363710242
 21
10.9224469655
 31
0.0
 11
34.6138193295
 21
10.922438071
 31
0.0
  0
LINE
  5
30F
100
AcDbEntity
  8
ASSI
100
AcDbLine
 62
7
  6
CONTINUOUS
 10
17.4957065833
 20
7.2715253946
 11
17.4957065833
 21
7.0376869445
  0
LINE
  5
310
100
AcDbEntity
  8
ASSI
100
AcDbLine
 62
7
  6
CONTINUOUS
 10
17.4957065833
 20
7.0376869445
 11
17.4957065833
 21
6.8038493765
  0
LINE
  5
311
100
AcDbEntity
  8
ASSI
100
AcDbLine
 62
7
  6
CONTINUOUS
 10
17.4957065833
 20
6.8038493765
 11
17.4957065833
 21
6.5700127417
  0
LINE
  5
312
100
AcDbEntity
  8
ASSI
100
AcDbLine
 62
7
  6
CONTINUOUS
 10
17.4957065833
 20
6.5700127417
 11
17.4957065833
 21
6.3361770912
  0
LINE
  5
313
100
AcDbEntity
  8
ASSI
100
AcDbLine
 62
7
  6
CONTINUOUS
 10
17.4957065833
 20
6.3361770912
 11
17.4957065833
 21
6.1023424761
  0
LINE
  5
314
100
AcDbEntity
  8
ASSI
100
AcDbLine
 62
7
  6
CONTINUOUS
 10
17.4957065833
 20
6.1023424761
 11
17.4957065833
 21
5.8685089477
  0
LINE
  5
315
100
AcDbEntity
  8
ASSI
100
AcDbLine
 62
7
  6
CONTINUOUS
 10
8.3957065833
 20
5.8685089477
 11
8.3957065833
 21
7.2715253946
  0
SPLINE
  5
316
100
AcDbEntity
  8
ASSI
100
AcDbSpline
 62
7
  6
CONTINUOUS
 70
0
 71
3
 72
23
 73
19
 74
17
 42
0.0000001
 43
0.0000001
 44
0.0000000001
 12
-0.6256304749
 22
0.0
 32
0.0
 13
0.0
 23
0.6256304749
 33
0.0
 40
0.0
 40
0.0
 40
0.0
 40
0.0
 40
0.0625348873
 40
0.125302776
 40
0.1879610843
 40
0.2502495145
 40
0.3125069208
 40
0.3750288287
 40
0.4375113249
 40
0.4996701031
 40
0.5618372342
 40
0.6243553179
 40
0.6869429983
 40
0.7492898499
 40
0.811675364
 40
0.8744418063
 40
0.9373328547
 40
1.0
 40
1.0
 40
1.0
 40
1.0
 10
8.7938080398
 20
5.4700171592
 30
0.0
 10
8.780766796
 20
5.4700171592
 30
0.0
 10
8.7546177162
 20
5.4712935953
 30
0.0
 10
8.715781717
 20
5.4770361562
 30
0.0
 10
8.6777431037
 20
5.4865513387
 30
0.0
 10
8.6409220392
 20
5.499712283
 30
0.0
 10
8.6055909122
 20
5.5164010889
 30
0.0
 10
8.5720334622
 20
5.5364989917
 30
0.0
 10
8.5406339374
 20
5.5597903733
 30
0.0
 10
8.5117287204
 20
5.5860022545
 30
0.0
 10
8.4855247705
 20
5.6149246637
 30
0.0
 10
8.4622330565
 20
5.6463524225
 30
0.0
 10
8.4421277737
 20
5.6799518512
 30
0.0
 10
8.4254287589
 20
5.7153363739
 30
0.0
 10
8.4122576861
 20
5.7522190775
 30
0.0
 10
8.4027336882
 20
5.7903260733
 30
0.0
 10
8.3969846367
 20
5.8292377669
 30
0.0
 10
8.3957065833
 20
5.8554401224
 30
0.0
 10
8.3957065833
 20
5.8685089477
 30
0.0
 11
8.7938080398
 21
5.4700171592
 31
0.0
 11
8.7547309414
 21
5.4719268006
 31
0.0
 11
8.7158839858
 21
5.4776720584
 31
0.0
 11
8.6778551519
 21
5.4871863659
 31
0.0
 11
8.6411595854
 21
5.5003035479
 31
0.0
 11
8.605941163
 21
5.5169401162
 31
0.0
 11
8.572383988
 21
5.5370385495
 31
0.0
 11
8.5409878726
 21
5.5603277445
 31
0.0
 11
8.5121802238
 21
5.5864510874
 31
0.0
 11
8.4860659582
 21
5.6152740171
 31
0.0
 11
8.462776502
 21
5.646697656
 31
0.0
 11
8.4426697144
 21
5.6802977894
 31
0.0
 11
8.4260212257
 21
5.7155724675
 31
0.0
 11
8.4128939058
 21
5.7523289109
 31
0.0
 11
8.4033708233
 21
5.7904252857
 31
0.0
 11
8.3976188079
 21
5.8293491322
 31
0.0
 11
8.3957065833
 21
5.8685089477
 31
0.0
  0
SPLINE
  5
317
100
AcDbEntity
  8
ASSI
100
AcDbSpline
 62
7
  6
CONTINUOUS
 70
0
 71
3
 72
23
 73
19
 74
17
 42
0.0000001
 43
0.0000001
 44
0.0000000001
 12
-0.0
 22
0.6260794102
 32
0.0
 13
0.6260794102
 23
0.0
 33
0.0
 40
0.0
 40
0.0
 40
0.0
 40
0.0
 40
0.0625064794
 40
0.125265243
 40
0.1879314833
 40
0.2502417825
 40
0.3125316189
 40
0.3750924245
 40
0.4376158557
 40
0.4998130445
 40
0.5620138933
 40
0.624555553
 40
0.6871533927
 40
0.7494944038
 40
0.8118588393
 40
0.874584964
 40
0.9374149203
 40
1.0
 40
1.0
 40
1.0
 40
1.0
 10
8.3957065833
 20
7.2715253946
 30
0.0
 10
8.3957065833
 20
7.2845700678
 30
0.0
 10
8.3969842126
 20
7.3107300686
 30
0.0
 10
8.4027316926
 20
7.3495875757
 30
0.0
 10
8.4122565751
 20
7.3876572195
 30
0.0
 10
8.4254328034
 20
7.4245164149
 30
0.0
 10
8.4421426865
 20
7.4598901113
 30
0.0
 10
8.4622669915
 20
7.4934917802
 30
0.0
 10
8.4855888406
 20
7.5249343623
 30
0.0
 10
8.5118336504
 20
7.5538793708
 30
0.0
 10
8.540789344
 20
7.5801180445
 30
0.0
 10
8.5722484374
 20
7.6034382611
 30
0.0
 10
8.6058744788
 20
7.623565117
 30
0.0
 10
8.6412790443
 20
7.6402792327
 30
0.0
 10
8.6781733511
 20
7.6534596376
 30
0.0
 10
8.7162818784
 20
7.6629882924
 30
0.0
 10
8.7551831712
 20
7.6687387751
 30
0.0
 10
8.781374436
 20
7.6700171592
 30
0.0
 10
8.7944355126
 20
7.6700171592
 30
0.0
 11
8.3957065833
 21
7.2715253946
 31
0.0
 11
8.3976174055
 21
7.3106127361
 31
0.0
 11
8.4033673729
 21
7.3494817051
 31
0.0
 11
8.4128913036
 21
7.3875422471
 31
0.0
 11
8.4260237935
 21
7.4242765781
 31
0.0
 11
8.4426816443
 21
7.4595383132
 31
0.0
 11
8.4628068927
 21
7.4931405323
 31
0.0
 11
8.4861271132
 21
7.5245804687
 31
0.0
 11
8.5122836701
 21
7.5534281319
 31
0.0
 11
8.5411407352
 21
7.5795777284
 31
0.0
 11
8.5725963533
 21
7.6028959612
 31
0.0
 11
8.6062236729
 21
7.6230244235
 31
0.0
 11
8.6415182871
 21
7.6396876813
 31
0.0
 11
8.6782871284
 21
7.6528243205
 31
0.0
 11
8.716385414
 21
7.662351865
 31
0.0
 11
8.7552989658
 21
7.66810504
 31
0.0
 11
8.7944355126
 21
7.6700171592
 31
0.0
  0
SPLINE
  5
318
100
AcDbEntity
  8
ASSI
100
AcDbSpline
 62
7
  6
CONTINUOUS
 70
0
 71
3
 72
23
 73
19
 74
17
 42
0.0000001
 43
0.0000001
 44
0.0000000001
 12
0.0
 22
-0.6256304749
 32
0.0
 13
-0.6256304749
 23
0.0
 33
0.0
 40
0.0
 40
0.0
 40
0.0
 40
0.0
 40
0.0626702289
 40
0.1255649537
 40
0.1883377991
 40
0.2507257318
 40
0.3130696196
 40
0.3756555984
 40
0.4381764296
 40
0.5003456957
 40
0.5625023603
 40
0.6249821737
 40
0.6875058217
 40
0.7497661681
 40
0.8120520785
 40
0.8747039402
 40
0.9374681374
 40
1.0
 40
1.0
 40
1.0
 40
1.0
 10
17.4957065833
 20
5.8685089477
 30
0.0
 10
17.4957065833
 20
5.8554394793
 30
0.0
 10
17.4944283981
 20
5.8292357113
 30
0.0
 10
17.4886786446
 20
5.7903213356
 30
0.0
 10
17.4791534158
 20
5.7522119421
 30
0.0
 10
17.4659810971
 20
5.7153283787
 30
0.0
 10
17.4492815004
 20
5.6799446571
 30
0.0
 10
17.4291758023
 20
5.6463459481
 30
0.0
 10
17.4058830797
 20
5.6149181021
 30
0.0
 10
17.3796780654
 20
5.5859958705
 30
0.0
 10
17.3507726531
 20
5.5597850391
 30
0.0
 10
17.319373192
 20
5.5364946534
 30
0.0
 10
17.2858150042
 20
5.5163971628
 30
0.0
 10
17.2504830892
 20
5.4997089531
 30
0.0
 10
17.2136629162
 20
5.4865492703
 30
0.0
 10
17.175626733
 20
5.4770353264
 30
0.0
 10
17.1367934163
 20
5.471293465
 30
0.0
 10
17.1106457398
 20
5.4700171592
 30
0.0
 10
17.0976051269
 20
5.4700171592
 30
0.0
 11
17.4957065833
 21
5.8685089477
 31
0.0
 11
17.4937941705
 21
5.8293472099
 31
0.0
 11
17.4880415194
 21
5.7904211323
 31
0.0
 11
17.4785168707
 21
5.7523210198
 31
0.0
 11
17.4653882123
 21
5.7155634476
 31
0.0
 11
17.4487397326
 21
5.6802908157
 31
0.0
 11
17.4286328686
 21
5.6466919687
 31
0.0
 11
17.4053417796
 21
5.6152674004
 31
0.0
 11
17.3792259466
 21
5.5864440882
 31
0.0
 11
17.3504186692
 21
5.5603223044
 31
0.0
 11
17.3190234479
 21
5.5370347214
 31
0.0
 11
17.2854649623
 21
5.5169363574
 31
0.0
 11
17.2502445041
 21
5.5002997924
 31
0.0
 11
17.2135501244
 21
5.487183974
 31
0.0
 11
17.1755250544
 21
5.4776712392
 31
0.0
 11
17.1366803396
 21
5.4719266158
 31
0.0
 11
17.0976051269
 21
5.4700171592
 31
0.0
  0
SPLINE
  5
319
100
AcDbEntity
  8
ASSI
100
AcDbSpline
 62
7
  6
CONTINUOUS
 70
0
 71
3
 72
23
 73
19
 74
17
 42
0.0000001
 43
0.0000001
 44
0.0000000001
 12
0.6260794102
 22
0.0
 32
0.0
 13
-0.0
 23
-0.6260794102
 33
0.0
 40
0.0
 40
0.0
 40
0.0
 40
0.0
 40
0.0625881422
 40
0.1254217627
 40
0.1881542833
 40
0.2505211627
 40
0.3128592232
 40
0.3754553554
 40
0.4379997474
 40
0.5002027209
 40
0.5623977915
 40
0.6249185204
 40
0.6874810527
 40
0.7497738282
 40
0.8120816345
 40
0.8747414598
 40
0.937496554
 40
1.0
 40
1.0
 40
1.0
 40
1.0
 10
17.0969776541
 20
7.6700171592
 30
0.0
 10
17.1100393698
 20
7.6700171592
 30
0.0
 10
17.1362320412
 20
7.6687386438
 30
0.0
 10
17.1751360098
 20
7.6629874611
 30
0.0
 10
17.2132469381
 20
7.653457576
 30
0.0
 10
17.2501421118
 20
7.6402759236
 30
0.0
 10
17.2855458821
 20
7.6235612232
 30
0.0
 10
17.3191712019
 20
7.603433953
 30
0.0
 10
17.3506303778
 20
7.5801127319
 30
0.0
 10
17.3795858902
 20
7.5538729987
 30
0.0
 10
17.4058296466
 20
7.5249278019
 30
0.0
 10
17.4291504968
 20
7.4934852918
 30
0.0
 10
17.4492743892
 20
7.4598828928
 30
0.0
 10
17.4659836811
 20
7.4245084075
 30
0.0
 10
17.4791586545
 20
7.387650094
 30
0.0
 10
17.4886823032
 20
7.3495828661
 30
0.0
 10
17.4944290846
 20
7.310728034
 30
0.0
 10
17.4957065833
 20
7.2845694348
 30
0.0
 10
17.4957065833
 20
7.2715253946
 30
0.0
 11
17.0969776541
 21
7.6700171592
 31
0.0
 11
17.1361161114
 21
7.6681048528
 31
0.0
 11
17.1750318885
 21
7.6623510441
 31
0.0
 11
17.2131339105
 21
7.6528219351
 31
0.0
 11
17.2499038966
 21
7.6396839525
 31
0.0
 11
17.2851964709
 21
7.6230207009
 31
0.0
 11
17.3188225002
 21
7.6028921646
 31
0.0
 11
17.3502790412
 21
7.5795723042
 31
0.0
 11
17.3791364854
 21
7.553421145
 31
0.0
 11
17.405291482
 21
7.5245738573
 31
0.0
 11
17.4286100848
 21
7.4931348273
 31
0.0
 11
17.448735263
 21
7.4595313061
 31
0.0
 11
17.4653931144
 21
7.4242675362
 31
0.0
 11
17.4785242488
 21
7.3875343781
 31
0.0
 11
17.4880466122
 21
7.349477584
 31
0.0
 11
17.4937959467
 21
7.3106108437
 31
0.0
 11
17.4957065833
 21
7.2715253946
 31
0.0
  0
SPLINE
  5
31A
100
AcDbEntity
  8
ASSI
100
AcDbSpline
 62
253
  6
CONTINUOUS
 70
0
 71
3
 72
10
 73
6
 74
4
 42
0.0000001
 43
0.0000001
 44
0.0000000001
 12
0.0002514557
 22
-9.0950366933
 32
0.0
 13
0.0060355961
 23
-9.0950346942
 33
0.0
 40
0.0
 40
0.0
 40
0.0
 40
0.0
 40
0.3333523679
 40
0.6666867588
 40
1.0
 40
1.0
 40
1.0
 40
1.0
 10
35.1135147869
 20
10.6745531766
 30
0.0
 10
35.1135427281
 20
9.6639358373
 30
0.0
 10
35.1138126705
 20
7.6427556582
 30
0.0
 10
35.1148604637
 20
4.6110769199
 30
0.0
 10
35.115987374
 20
2.5900156566
 30
0.0
 10
35.1166579554
 20
1.5795171592
 30
0.0
 11
35.1135147869
 21
10.6745531766
 31
0.0
 11
35.1139198354
 21
7.6427011846
 31
0.0
 11
35.114967593
 21
4.6110128478
 31
0.0
 11
35.1166579554
 21
1.5795171592
 31
0.0
  0
SPLINE
  5
31B
100
AcDbEntity
  8
ASSI
100
AcDbSpline
 62
253
  6
CONTINUOUS
 70
0
 71
3
 72
24
 73
20
 74
18
 42
0.0000001
 43
0.0000001
 44
0.0000000001
 12
-0.4951381098
 22
-0.0674744652
 32
0.0
 13
-0.4997144696
 23
-0.0000069948
 33
0.0
 40
0.0
 40
0.0
 40
0.0
 40
0.0
 40
0.0072410904
 40
0.0225728332
 40
0.0458757318
 40
0.0769602085
 40
0.1155730933
 40
0.1614001728
 40
0.2140673257
 40
0.2731450583
 40
0.3381511715
 40
0.4085561138
 40
0.4837853051
 40
0.5632252357
 40
0.64622704
 40
0.7321147597
 40
0.8201880871
 40
0.9097254715
 40
1.0
 40
1.0
 40
1.0
 40
1.0
 10
35.1135147869
 20
10.6745531656
 30
0.0
 10
35.1123196737
 20
10.6743903027
 30
0.0
 10
35.1085498313
 20
10.6743189316
 30
0.0
 10
35.1009203227
 20
10.6740625923
 30
0.0
 10
35.0893037717
 20
10.6739001321
 30
0.0
 10
35.0738158151
 20
10.6736911214
 30
0.0
 10
35.0545729046
 20
10.6735062808
 30
0.0
 10
35.0317357472
 20
10.6733222008
 30
0.0
 10
35.0054892246
 20
10.6731502126
 30
0.0
 10
34.9760480113
 20
10.6729888572
 30
0.0
 10
34.9436520512
 20
10.6728406466
 30
0.0
 10
34.9085656473
 20
10.6727065786
 30
0.0
 10
34.8710749097
 20
10.6725879182
 30
0.0
 10
34.8314858397
 20
10.6724856555
 30
0.0
 10
34.790121318
 20
10.6724006672
 30
0.0
 10
34.7473186838
 20
10.6723336713
 30
0.0
 10
34.7034273827
 20
10.6722852295
 30
0.0
 10
34.6588053475
 20
10.6722557506
 30
0.0
 10
34.628853809
 20
10.6722489154
 30
0.0
 10
34.6138166463
 20
10.672248705
 30
0.0
 11
35.1135147869
 21
10.6745531656
 31
0.0
 11
35.10990266
 21
10.6743388778
 31
0.0
 11
35.1022440979
 21
10.6741269519
 31
0.0
 11
35.0906011575
 21
10.6739190914
 31
0.0
 11
35.0750691092
 21
10.6737170162
 31
0.0
 11
35.0557746738
 21
10.6735223688
 31
0.0
 11
35.0328749714
 21
10.6733367385
 31
0.0
 11
35.0065570155
 21
10.6731616428
 31
0.0
 11
34.9770354684
 21
10.6729985121
 31
0.0
 11
34.9445513186
 21
10.6728486796
 31
0.0
 11
34.9093692104
 21
10.6727133684
 31
0.0
 11
34.8717762854
 21
10.6725936851
 31
0.0
 11
34.8320791365
 21
10.6724906079
 31
0.0
 11
34.7906020222
 21
10.6724049801
 31
0.0
 11
34.747682739
 21
10.6723375012
 31
0.0
 11
34.7036712499
 21
10.6722887217
 31
0.0
 11
34.6589281332
 21
10.6722590432
 31
0.0
 11
34.6138166463
 21
10.672248705
 31
0.0
  0
SPLINE
  5
31C
100
AcDbEntity
  8
ASSI
100
AcDbSpline
 62
253
  6
CONTINUOUS
 70
0
 71
3
 72
23
 73
19
 74
17
 42
0.0000001
 43
0.0000001
 44
0.0000000001
 12
-0.4390227157
 22
-0.2392018116
 32
0.0
 13
-0.4999583399
 23
-0.0003316598
 33
0.0
 40
0.0
 40
0.0
 40
0.0
 40
0.0
 40
0.008152361
 40
0.0253232964
 40
0.051431694
 40
0.0862550999
 40
0.1294799963
 40
0.180712013
 40
0.2394815731
 40
0.3052489593
 40
0.3774096104
 40
0.4552998516
 40
0.5382030955
 40
0.6253564931
 40
0.7159579915
 40
0.8091737417
 40
0.9041457919
 40
1.0
 40
1.0
 40
1.0
 40
1.0
 10
35.1166579554
 20
1.5795171592
 30
0.0
 10
35.1154649315
 20
1.5788671393
 30
0.0
 10
35.1111126503
 20
1.5784811742
 30
0.0
 10
35.1027158132
 20
1.5774510473
 30
0.0
 10
35.0896565207
 20
1.5767271475
 30
0.0
 10
35.0723465089
 20
1.575849614
 30
0.0
 10
35.0508059204
 20
1.5750584254
 30
0.0
 10
35.0252855144
 20
1.5742789412
 30
0.0
 10
34.9960008904
 20
1.5735514909
 30
0.0
 10
34.9632279838
 20
1.5728735518
 30
0.0
 10
34.9272663956
 20
1.5722554824
 30
0.0
 10
34.8884478592
 20
1.5717023761
 30
0.0
 10
34.8471295784
 20
1.5712199524
 30
0.0
 10
34.8036920417
 20
1.5708127621
 30
0.0
 10
34.7585351799
 20
1.5704847225
 30
0.0
 10
34.7120747793
 20
1.5702389407
 30
0.0
 10
34.6647386271
 20
1.570077743
 30
0.0
 10
34.6329369121
 20
1.5700277562
 30
0.0
 10
34.6169625419
 20
1.5700171592
 30
0.0
 11
35.1166579554
 21
1.5795171592
 31
0.0
 11
35.1126852491
 21
1.578606066
 31
0.0
 11
35.1041480874
 21
1.5777033618
 31
0.0
 11
35.0911250776
 21
1.5768173586
 31
0.0
 11
35.0737361315
 21
1.5759562142
 31
0.0
 11
35.052141361
 21
1.5751278579
 31
0.0
 11
35.0265396036
 21
1.5743399168
 31
0.0
 11
34.9971665923
 21
1.5735996461
 31
0.0
 11
34.9642927842
 21
1.572913862
 31
0.0
 11
34.9282208707
 21
1.5722888789
 31
0.0
 11
34.8892829906
 21
1.5717304515
 31
0.0
 11
34.8478376712
 21
1.5712437217
 31
0.0
 11
34.8042665279
 21
1.5708331709
 31
0.0
 11
34.7589707495
 21
1.5705025796
 31
0.0
 11
34.7123674053
 21
1.5702549915
 31
0.0
 11
34.6648856036
 21
1.5700926866
 31
0.0
 11
34.6169625419
 21
1.5700171592
 31
0.0
  0
SPLINE
  5
31D
100
AcDbEntity
  8
ASSI
100
AcDbSpline
 62
253
  6
CONTINUOUS
 70
0
 71
3
 72
23
 73
19
 74
17
 42
0.0000001
 43
0.0000001
 44
0.0000000001
 12
-0.1156656166
 22
-0.4999835144
 32
0.0
 13
-0.5131813232
 23
-0.0026417985
 33
0.0
 40
0.0
 40
0.0
 40
0.0
 40
0.0
 40
0.0159236402
 40
0.037519705
 40
0.0662667634
 40
0.1026032067
 40
0.1465356752
 40
0.197849916
 40
0.2561916431
 40
0.3211034949
 40
0.3920454012
 40
0.4684080643
 40
0.5495234077
 40
0.6346736632
 40
0.7230998673
 40
0.8140101335
 40
0.9065878679
 40
1.0
 40
1.0
 40
1.0
 40
1.0
 10
35.1510208093
 20
-10.0628381692
 30
0.0
 10
35.15040687
 20
-10.0654920217
 30
0.0
 10
35.1467955634
 20
-10.071166328
 30
0.0
 10
35.1377052258
 20
-10.078052676
 30
0.0
 10
35.124467536
 20
-10.0848500629
 30
0.0
 10
35.1069985991
 20
-10.0914409032
 30
0.0
 10
35.0853985275
 20
-10.0978239995
 30
0.0
 10
35.0598306701
 20
-10.1039109141
 30
0.0
 10
35.0305178351
 20
-10.1096450212
 30
0.0
 10
34.9977222977
 20
-10.1149655197
 30
0.0
 10
34.9617424023
 20
-10.1198203059
 30
0.0
 10
34.922907251
 20
-10.1241617458
 30
0.0
 10
34.8815731976
 20
-10.1279480478
 30
0.0
 10
34.8381200883
 20
-10.1311429922
 30
0.0
 10
34.792947598
 20
-10.1337162249
 30
0.0
 10
34.7464713724
 20
-10.1356433989
 30
0.0
 10
34.6991193337
 20
-10.1369063425
 30
0.0
 10
34.6673045163
 20
-10.1372969983
 30
0.0
 10
34.6513253957
 20
-10.137379257
 30
0.0
 11
35.1510208093
 21
-10.0628381692
 31
0.0
 11
35.1470649504
 21
-10.0699886847
 31
0.0
 11
35.1385422005
 21
-10.0770733277
 31
0.0
 11
35.1255310736
 21
-10.0840268323
 31
0.0
 11
35.1081514318
 21
-10.0907851411
 31
0.0
 11
35.0865633811
 21
-10.0972859946
 31
0.0
 11
35.0609657968
 21
-10.103469505
 31
0.0
 11
35.0315944909
 21
-10.1092787082
 31
0.0
 11
34.99872004
 21
-10.1146600882
 31
0.0
 11
34.9626452928
 21
-10.1195640702
 31
0.0
 11
34.9237025799
 21
-10.1239454774
 31
0.0
 11
34.8822506525
 21
-10.127763947
 31
0.0
 11
34.8386713772
 21
-10.1309843021
 31
0.0
 11
34.7933662185
 21
-10.1335768761
 31
0.0
 11
34.7467525401
 21
-10.1355177854
 31
0.0
 11
34.6992597603
 21
-10.1367891497
 31
0.0
 11
34.6513253957
 21
-10.137379257
 31
0.0
  0
SPLINE
  5
31E
100
AcDbEntity
  8
ASSI
100
AcDbSpline
 62
253
  6
CONTINUOUS
 70
0
 71
3
 72
24
 73
20
 74
18
 42
0.0000001
 43
0.0000001
 44
0.0000000001
 12
0.0022370123
 22
-0.8499340702
 32
0.0
 13
0.2685899292
 23
-0.8063822777
 33
0.0
 40
0.0
 40
0.0
 40
0.0
 40
0.0
 40
0.0929977429
 40
0.184256553
 40
0.2731879617
 40
0.3592144101
 40
0.441779768
 40
0.52034911
 40
0.5944135008
 40
0.6634931372
 40
0.7271410503
 40
0.784944825
 40
0.836530752
 40
0.8815652918
 40
0.9197580269
 40
0.9508640559
 40
0.9746874526
 40
0.9910862544
 40
1.0
 40
1.0
 40
1.0
 40
1.0
 10
34.6513253957
 20
-10.1373792604
 30
0.0
 10
34.6513947414
 20
-10.1637265771
 30
0.0
 10
34.6515693761
 20
-10.2159284616
 30
0.0
 10
34.6519426342
 20
-10.2933251097
 30
0.0
 10
34.6524229612
 20
-10.3687460787
 30
0.0
 10
34.6530070819
 20
-10.4417032793
 30
0.0
 10
34.6536911608
 20
-10.5117237803
 30
0.0
 10
34.6544706004
 20
-10.5783540704
 30
0.0
 10
34.6553401485
 20
-10.6411622424
 30
0.0
 10
34.6562939264
 20
-10.6997412404
 30
0.0
 10
34.6573251919
 20
-10.7537113887
 30
0.0
 10
34.6584271342
 20
-10.8027226746
 30
0.0
 10
34.6595900865
 20
-10.8464580701
 30
0.0
 10
34.660809737
 20
-10.8846318375
 30
0.0
 10
34.6620610121
 20
-10.9170035686
 30
0.0
 10
34.66337089
 20
-10.9433449024
 30
0.0
 10
34.6646121629
 20
-10.9635389492
 30
0.0
 10
34.6659943269
 20
-10.9773487796
 30
0.0
 10
34.666878804
 20
-10.9845306506
 30
0.0
 10
34.6676768514
 20
-10.9869266127
 30
0.0
 11
34.6513253957
 21
-10.1373792604
 31
0.0
 11
34.6515906689
 21
-10.2164210392
 31
0.0
 11
34.6519660564
 21
-10.2939843714
 31
0.0
 11
34.6524491751
 21
-10.3695689234
 31
0.0
 11
34.6530368594
 21
-10.4426836242
 31
0.0
 11
34.653725329
 21
-10.5128556007
 31
0.0
 11
34.6545101193
 21
-10.579629981
 31
0.0
 11
34.6553861524
 21
-10.6425739523
 31
0.0
 11
34.656347753
 21
-10.7012794172
 31
0.0
 11
34.6573886996
 21
-10.7553661184
 31
0.0
 11
34.6585022442
 21
-10.804483065
 31
0.0
 11
34.6596811798
 21
-10.8483120007
 31
0.0
 11
34.6609178645
 21
-10.8865685396
 31
0.0
 11
34.6622042882
 21
-10.9190044588
 31
0.0
 11
34.6635320937
 21
-10.9454092599
 31
0.0
 11
34.6648927324
 21
-10.9656118792
 31
0.0
 11
34.6662772567
 21
-10.9794808915
 31
0.0
 11
34.6676768514
 21
-10.9869266127
 31
0.0
  0
SPLINE
  5
31F
100
AcDbEntity
  8
ASSI
100
AcDbSpline
 62
253
  6
CONTINUOUS
 70
0
 71
3
 72
24
 73
20
 74
18
 42
0.0000001
 43
0.0000001
 44
0.0000000001
 12
0.0022405343
 22
-0.425539131
 32
0.0
 13
0.2359406645
 23
-0.3541476737
 33
0.0
 40
0.0
 40
0.0
 40
0.0
 40
0.0
 40
0.092855355
 40
0.1839967866
 40
0.2728162512
 40
0.3587375314
 40
0.4412058963
 40
0.5196878524
 40
0.5936759745
 40
0.6626920345
 40
0.7262908445
 40
0.7840621562
 40
0.8356349505
 40
0.8806792824
 40
0.9189099719
 40
0.9500906576
 40
0.9740413608
 40
0.9906572345
 40
1.0
 40
1.0
 40
1.0
 40
1.0
 10
35.1510208093
 20
-10.0628381692
 30
0.0
 10
35.1510901578
 20
-10.0760093649
 30
0.0
 10
35.1512647399
 20
-10.1021084637
 30
0.0
 10
35.1516380025
 20
-10.1408052529
 30
0.0
 10
35.1521183075
 20
-10.1785172046
 30
0.0
 10
35.1527024524
 20
-10.2149972837
 30
0.0
 10
35.153386545
 20
-10.250009008
 30
0.0
 10
35.1541660156
 20
-10.2833256098
 30
0.0
 10
35.1550356069
 20
-10.3147311279
 30
0.0
 10
35.1559894249
 20
-10.3440220112
 30
0.0
 10
35.1570208059
 20
-10.3710084948
 30
0.0
 10
35.1581226991
 20
-10.3955154564
 30
0.0
 10
35.1592862494
 20
-10.4173851014
 30
0.0
 10
35.1605047319
 20
-10.4364730626
 30
0.0
 10
35.1617604762
 20
-10.4526650543
 30
0.0
 10
35.1630601131
 20
-10.4658333076
 30
0.0
 10
35.1643315335
 20
-10.4759634465
 30
0.0
 10
35.1656639434
 20
-10.482860089
 30
0.0
 10
35.1666374855
 20
-10.4865089392
 30
0.0
 10
35.1673722649
 20
-10.4876118454
 30
0.0
 11
35.1510208093
 21
-10.0628381692
 31
0.0
 11
35.151286017
 21
-10.102351414
 31
0.0
 11
35.1516614096
 21
-10.1411343804
 31
0.0
 11
35.1521445194
 21
-10.1789279744
 31
0.0
 11
35.1527322132
 21
-10.2154866248
 31
0.0
 11
35.1534206934
 21
-10.2505738735
 31
0.0
 11
35.154205503
 21
-10.2839622574
 31
0.0
 11
35.1550815608
 21
-10.3154353448
 31
0.0
 11
35.1560431916
 21
-10.3447890387
 31
0.0
 11
35.1570841724
 21
-10.3718331689
 31
0.0
 11
35.1581977545
 21
-10.3963922298
 31
0.0
 11
35.1593767298
 21
-10.4183070857
 31
0.0
 11
35.1606134573
 21
-10.4374355394
 31
0.0
 11
35.1618999206
 21
-10.4536534759
 31
0.0
 11
35.1632277774
 21
-10.4668556527
 31
0.0
 11
35.1645884358
 21
-10.4769565223
 31
0.0
 11
35.1659730501
 21
-10.4838904311
 31
0.0
 11
35.1673722649
 21
-10.4876118454
 31
0.0
  0
SPLINE
  5
320
100
AcDbEntity
  8
ASSI
100
AcDbSpline
 62
253
  6
CONTINUOUS
 70
0
 71
3
 72
10
 73
6
 74
4
 42
0.0000001
 43
0.0000001
 44
0.0000000001
 12
0.0060355961
 22
9.0950346942
 32
0.0
 13
0.0002514557
 23
9.0950366933
 33
0.0
 40
0.0
 40
0.0
 40
0.0
 40
0.0
 40
0.3333132412
 40
0.6666476321
 40
1.0
 40
1.0
 40
1.0
 40
1.0
 10
-9.2252447887
 20
1.5795171592
 30
0.0
 10
-9.2245742073
 20
2.5900156566
 30
0.0
 10
-9.223447297
 20
4.6110769199
 30
0.0
 10
-9.2223995038
 20
7.6427556582
 30
0.0
 10
-9.2221295614
 20
9.6639358373
 30
0.0
 10
-9.2221016203
 20
10.6745531766
 30
0.0
 11
-9.2252447887
 21
1.5795171592
 31
0.0
 11
-9.2235544263
 21
4.6110128478
 31
0.0
 11
-9.2225066687
 21
7.6427011846
 31
0.0
 11
-9.2221016203
 21
10.6745531766
 31
0.0
  0
SPLINE
  5
321
100
AcDbEntity
  8
ASSI
100
AcDbSpline
 62
253
  6
CONTINUOUS
 70
0
 71
3
 72
23
 73
19
 74
17
 42
0.0000001
 43
0.0000001
 44
0.0000000001
 12
0.4390227135
 22
-0.2392018158
 32
0.0
 13
0.4999583399
 23
-0.0003316598
 33
0.0
 40
0.0
 40
0.0
 40
0.0
 40
0.0
 40
0.0081523609
 40
0.0253232963
 40
0.0514316938
 40
0.0862550996
 40
0.1294799961
 40
0.1807120127
 40
0.2394815728
 40
0.305248959
 40
0.3774096101
 40
0.4552998514
 40
0.5382030953
 40
0.6253564929
 40
0.7159579914
 40
0.8091737416
 40
0.9041457919
 40
1.0
 40
1.0
 40
1.0
 40
1.0
 10
-9.2252447887
 20
1.5795171592
 30
0.0
 10
-9.2240517648
 20
1.5788671393
 30
0.0
 10
-9.2196994837
 20
1.5784811742
 30
0.0
 10
-9.2113026466
 20
1.5774510473
 30
0.0
 10
-9.1982433541
 20
1.5767271475
 30
0.0
 10
-9.1809333423
 20
1.575849614
 30
0.0
 10
-9.1593927539
 20
1.5750584254
 30
0.0
 10
-9.1338723479
 20
1.5742789412
 30
0.0
 10
-9.1045877238
 20
1.5735514909
 30
0.0
 10
-9.0718148173
 20
1.5728735518
 30
0.0
 10
-9.0358532291
 20
1.5722554824
 30
0.0
 10
-8.9970346926
 20
1.5717023761
 30
0.0
 10
-8.9557164118
 20
1.5712199524
 30
0.0
 10
-8.9122788752
 20
1.5708127621
 30
0.0
 10
-8.8671220133
 20
1.5704847225
 30
0.0
 10
-8.8206616127
 20
1.5702389407
 30
0.0
 10
-8.7733254605
 20
1.570077743
 30
0.0
 10
-8.7415237455
 20
1.5700277562
 30
0.0
 10
-8.7255493752
 20
1.5700171592
 30
0.0
 11
-9.2252447887
 21
1.5795171592
 31
0.0
 11
-9.2212720825
 21
1.578606066
 31
0.0
 11
-9.2127349207
 21
1.5777033618
 31
0.0
 11
-9.199711911
 21
1.5768173586
 31
0.0
 11
-9.182322965
 21
1.5759562142
 31
0.0
 11
-9.1607281944
 21
1.5751278579
 31
0.0
 11
-9.1351264371
 21
1.5743399168
 31
0.0
 11
-9.1057534257
 21
1.5735996461
 31
0.0
 11
-9.0728796176
 21
1.572913862
 31
0.0
 11
-9.0368077042
 21
1.5722888789
 31
0.0
 11
-8.997869824
 21
1.5717304515
 31
0.0
 11
-8.9564245047
 21
1.5712437217
 31
0.0
 11
-8.9128533613
 21
1.5708331709
 31
0.0
 11
-8.8675575829
 21
1.5705025796
 31
0.0
 11
-8.8209542386
 21
1.5702549915
 31
0.0
 11
-8.773472437
 21
1.5700926866
 31
0.0
 11
-8.7255493752
 21
1.5700171592
 31
0.0
  0
SPLINE
  5
322
100
AcDbEntity
  8
ASSI
100
AcDbSpline
 62
253
  6
CONTINUOUS
 70
0
 71
3
 72
24
 73
20
 74
18
 42
0.0000001
 43
0.0000001
 44
0.0000000001
 12
-0.4997144696
 22
0.0000069948
 32
0.0
 13
-0.4951381098
 23
0.0674744651
 33
0.0
 40
0.0
 40
0.0
 40
0.0
 40
0.0
 40
0.0902745285
 40
0.1798119128
 40
0.2678852403
 40
0.3537729599
 40
0.4367747643
 40
0.5162146948
 40
0.5914438862
 40
0.6618488285
 40
0.7268549417
 40
0.7859326743
 40
0.8385998271
 40
0.8844269067
 40
0.9230397915
 40
0.9541242682
 40
0.9774271668
 40
0.9927589096
 40
1.0
 40
1.0
 40
1.0
 40
1.0
 10
-8.7224034796
 20
10.672248705
 30
0.0
 10
-8.7374406423
 20
10.6722489154
 30
0.0
 10
-8.7673921808
 20
10.6722557506
 30
0.0
 10
-8.812014216
 20
10.6722852295
 30
0.0
 10
-8.8559055171
 20
10.6723336713
 30
0.0
 10
-8.8987081513
 20
10.6724006672
 30
0.0
 10
-8.940072673
 20
10.6724856555
 30
0.0
 10
-8.9796617431
 20
10.6725879182
 30
0.0
 10
-9.0171524806
 20
10.6727065786
 30
0.0
 10
-9.0522388846
 20
10.6728406466
 30
0.0
 10
-9.0846348446
 20
10.6729888572
 30
0.0
 10
-9.1140760579
 20
10.6731502126
 30
0.0
 10
-9.1403225805
 20
10.6733222008
 30
0.0
 10
-9.1631597379
 20
10.6735062808
 30
0.0
 10
-9.1824026485
 20
10.6736911214
 30
0.0
 10
-9.197890605
 20
10.6739001321
 30
0.0
 10
-9.209507156
 20
10.6740625923
 30
0.0
 10
-9.2171366646
 20
10.6743189316
 30
0.0
 10
-9.220906507
 20
10.6743903027
 30
0.0
 10
-9.2221016203
 20
10.6745531656
 30
0.0
 11
-8.7224034796
 21
10.672248705
 31
0.0
 11
-8.7675149665
 21
10.6722590432
 31
0.0
 11
-8.8122580832
 21
10.6722887217
 31
0.0
 11
-8.8562695723
 21
10.6723375012
 31
0.0
 11
-8.8991888555
 21
10.6724049801
 31
0.0
 11
-8.9406659698
 21
10.6724906079
 31
0.0
 11
-8.9803631187
 21
10.6725936851
 31
0.0
 11
-9.0179560437
 21
10.6727133684
 31
0.0
 11
-9.0531381519
 21
10.6728486796
 31
0.0
 11
-9.0856223017
 21
10.6729985121
 31
0.0
 11
-9.1151438488
 21
10.6731616428
 31
0.0
 11
-9.1414618047
 21
10.6733367385
 31
0.0
 11
-9.1643615071
 21
10.6735223688
 31
0.0
 11
-9.1836559426
 21
10.6737170162
 31
0.0
 11
-9.1991879909
 21
10.6739190914
 31
0.0
 11
-9.2108309312
 21
10.6741269519
 31
0.0
 11
-9.2184894933
 21
10.6743388778
 31
0.0
 11
-9.2221016203
 21
10.6745531656
 31
0.0
  0
SPLINE
  5
323
100
AcDbEntity
  8
ASSI
100
AcDbSpline
 62
253
  6
CONTINUOUS
 70
0
 71
3
 72
23
 73
19
 74
17
 42
0.0000001
 43
0.0000001
 44
0.0000000001
 12
0.1156655032
 22
-0.499983543
 32
0.0
 13
0.5131813254
 23
-0.0026417988
 33
0.0
 40
0.0
 40
0.0
 40
0.0
 40
0.0
 40
0.015923639
 40
0.0375197021
 40
0.0662667587
 40
0.1026032005
 40
0.1465356677
 40
0.1978499076
 40
0.2561916344
 40
0.3211034861
 40
0.3920453925
 40
0.4684080562
 40
0.5495234005
 40
0.6346736571
 40
0.7230998625
 40
0.8140101302
 40
0.9065878662
 40
1.0
 40
1.0
 40
1.0
 40
1.0
 10
-9.2596076426
 20
-10.0628381692
 30
0.0
 10
-9.258993704
 20
-10.0654920217
 30
0.0
 10
-9.2553823986
 20
-10.0711663283
 30
0.0
 10
-9.2462920621
 20
-10.0780526766
 30
0.0
 10
-9.2330543734
 20
-10.0848500637
 30
0.0
 10
-9.2155854372
 20
-10.0914409043
 30
0.0
 10
-9.1939853663
 20
-10.0978240008
 30
0.0
 10
-9.1684175092
 20
-10.1039109157
 30
0.0
 10
-9.1391046744
 20
-10.1096450231
 30
0.0
 10
-9.1063091369
 20
-10.1149655218
 30
0.0
 10
-9.0703292413
 20
-10.1198203083
 30
0.0
 10
-9.0314940896
 20
-10.1241617484
 30
0.0
 10
-8.9901600356
 20
-10.1279480506
 30
0.0
 10
-8.9467069255
 20
-10.1311429952
 30
0.0
 10
-8.9015344344
 20
-10.133716228
 30
0.0
 10
-8.8550582078
 20
-10.1356434022
 30
0.0
 10
-8.8077061681
 20
-10.1369063459
 30
0.0
 10
-8.77589135
 20
-10.1372970017
 30
0.0
 10
-8.7599122291
 20
-10.1373792604
 30
0.0
 11
-9.2596076426
 21
-10.0628381692
 31
0.0
 11
-9.2556517853
 21
-10.069988685
 31
0.0
 11
-9.2471290368
 21
-10.0770733281
 31
0.0
 11
-9.234117911
 21
-10.0840268331
 31
0.0
 11
-9.21673827
 21
-10.0907851421
 31
0.0
 11
-9.19515022
 21
-10.0972859959
 31
0.0
 11
-9.169552636
 21
-10.1034695066
 31
0.0
 11
-9.1401813303
 21
-10.1092787101
 31
0.0
 11
-9.1073068793
 21
-10.1146600903
 31
0.0
 11
-9.0712321319
 21
-10.1195640726
 31
0.0
 11
-9.0322894186
 21
-10.12394548
 31
0.0
 11
-8.9908374905
 21
-10.1277639498
 31
0.0
 11
-8.9472582145
 21
-10.1309843051
 31
0.0
 11
-8.9019530549
 21
-10.1335768793
 31
0.0
 11
-8.8553393756
 21
-10.1355177887
 31
0.0
 11
-8.8078465947
 21
-10.1367891531
 31
0.0
 11
-8.7599122291
 21
-10.1373792604
 31
0.0
  0
SPLINE
  5
324
100
AcDbEntity
  8
ASSI
100
AcDbSpline
 62
253
  6
CONTINUOUS
 70
0
 71
3
 72
24
 73
20
 74
18
 42
0.0000001
 43
0.0000001
 44
0.0000000001
 12
-0.2498750154
 22
0.0000000277
 32
0.0
 13
-0.2424250812
 23
0.0605607405
 33
0.0
 40
0.0
 40
0.0
 40
0.0
 40
0.0
 40
0.0902519062
 40
0.1797846795
 40
0.2678529052
 40
0.3537361738
 40
0.4367339978
 40
0.5161705145
 40
0.5913968937
 40
0.6617996696
 40
0.7268041989
 40
0.7858808583
 40
0.8385476229
 40
0.8843752391
 40
0.9229899153
 40
0.9540780319
 40
0.9773873145
 40
0.9927312008
 40
1.0
 40
1.0
 40
1.0
 40
1.0
 10
-8.7224061628
 20
10.922438071
 30
0.0
 10
-8.729923395
 20
10.9224380718
 30
0.0
 10
-8.7448979622
 20
10.9224439525
 30
0.0
 10
-8.767207865
 20
10.922470388
 30
0.0
 10
-8.789153869
 20
10.9225142049
 30
0.0
 10
-8.8105555235
 20
10.922575037
 30
0.0
 10
-8.8312381708
 20
10.9226523716
 30
0.0
 10
-8.8510331131
 20
10.9227455591
 30
0.0
 10
-8.8697789018
 20
10.9228538014
 30
0.0
 10
-8.8873225074
 20
10.922976196
 30
0.0
 10
-8.9035208554
 20
10.9231115943
 30
0.0
 10
-8.9182417148
 20
10.9232590699
 30
0.0
 10
-8.9313652704
 20
10.9234163821
 30
0.0
 10
-8.9427836936
 20
10.923584698
 30
0.0
 10
-8.9524060751
 20
10.923754155
 30
0.0
 10
-8.9601479422
 20
10.9239447674
 30
0.0
 10
-8.9659620117
 20
10.9240954386
 30
0.0
 10
-8.9697674282
 20
10.9243267081
 30
0.0
 10
-8.971666437
 20
10.9243968986
 30
0.0
 10
-8.9722538167
 20
10.9245436332
 30
0.0
 11
-8.7224061628
 21
10.922438071
 31
0.0
 11
-8.7449578575
 21
10.9224469655
 31
0.0
 11
-8.7673298448
 21
10.9224735839
 31
0.0
 11
-8.7893358498
 21
10.9225177094
 31
0.0
 11
-8.8107958454
 21
10.9225789821
 31
0.0
 11
-8.8315347815
 21
10.9226569018
 31
0.0
 11
-8.8513837601
 21
10.9227508343
 31
0.0
 11
-8.8701806357
 21
10.9228600127
 31
0.0
 11
-8.8877720967
 21
10.9229835465
 31
0.0
 11
-8.9040145277
 21
10.9231204274
 31
0.0
 11
-8.9187755557
 21
10.9232695396
 31
0.0
 11
-8.9319346901
 21
10.9234296661
 31
0.0
 11
-8.9433846069
 21
10.923599501
 31
0.0
 11
-8.9530318048
 21
10.9237776569
 31
0.0
 11
-8.9607977446
 21
10.9239626827
 31
0.0
 11
-8.9666190395
 21
10.9241530693
 31
0.0
 11
-8.9704481724
 21
10.924347259
 31
0.0
 11
-8.9722538167
 21
10.9245436332
 31
0.0
  0
SPLINE
  5
325
100
AcDbEntity
  8
ASSI
100
AcDbSpline
 62
253
  6
CONTINUOUS
 70
0
 71
3
 72
24
 73
20
 74
18
 42
0.0000001
 43
0.0000001
 44
0.0000000001
 12
-0.2424250813
 22
-0.0605607403
 32
0.0
 13
-0.2498750154
 23
-0.0000000277
 33
0.0
 40
0.0
 40
0.0
 40
0.0
 40
0.0
 40
0.0072687992
 40
0.0226126855
 40
0.0459219681
 40
0.0770100847
 40
0.1156247608
 40
0.1614523771
 40
0.2141191417
 40
0.2731958011
 40
0.3382003304
 40
0.4086031063
 40
0.4838294855
 40
0.5632660021
 40
0.6462638261
 40
0.7321470947
 40
0.8202153205
 40
0.9097480937
 40
1.0
 40
1.0
 40
1.0
 40
1.0
 10
34.8636669834
 20
10.9245436332
 30
0.0
 10
34.8630796036
 20
10.9243968986
 30
0.0
 10
34.8611805948
 20
10.9243267081
 30
0.0
 10
34.8573751783
 20
10.9240954386
 30
0.0
 10
34.8515611089
 20
10.9239447674
 30
0.0
 10
34.8438192418
 20
10.923754155
 30
0.0
 10
34.8341968603
 20
10.923584698
 30
0.0
 10
34.8227784371
 20
10.9234163821
 30
0.0
 10
34.8096548815
 20
10.9232590699
 30
0.0
 10
34.794934022
 20
10.9231115943
 30
0.0
 10
34.7787356741
 20
10.922976196
 30
0.0
 10
34.7611920685
 20
10.9228538014
 30
0.0
 10
34.7424462798
 20
10.9227455591
 30
0.0
 10
34.7226513374
 20
10.9226523716
 30
0.0
 10
34.7019686901
 20
10.922575037
 30
0.0
 10
34.6805670356
 20
10.9225142049
 30
0.0
 10
34.6586210317
 20
10.922470388
 30
0.0
 10
34.6363111288
 20
10.9224439525
 30
0.0
 10
34.6213365616
 20
10.9224380718
 30
0.0
 10
34.6138193295
 20
10.922438071
 30
0.0
 11
34.8636669834
 21
10.9245436332
 31
0.0
 11
34.8618613391
 21
10.924347259
 31
0.0
 11
34.8580322062
 21
10.9241530693
 31
0.0
 11
34.8522109113
 21
10.9239626827
 31
0.0
 11
34.8444449715
 21
10.9237776569
 31
0.0
 11
34.8347977736
 21
10.923599501
 31
0.0
 11
34.8233478568
 21
10.9234296661
 31
0.0
 11
34.8101887224
 21
10.9232695396
 31
0.0
 11
34.7954276943
 21
10.9231204274
 31
0.0
 11
34.7791852633
 21
10.9229835465
 31
0.0
 11
34.7615938024
 21
10.9228600127
 31
0.0
 11
34.7427969268
 21
10.9227508343
 31
0.0
 11
34.7229479482
 21
10.9226569018
 31
0.0
 11
34.702209012
 21
10.9225789821
 31
0.0
 11
34.6807490165
 21
10.9225177094
 31
0.0
 11
34.6587430114
 21
10.9224735839
 31
0.0
 11
34.6363710242
 21
10.9224469655
 31
0.0
 11
34.6138193295
 21
10.922438071
 31
0.0
  0
SPLINE
  5
326
100
AcDbEntity
  8
ASSI
100
AcDbSpline
 62
253
  6
CONTINUOUS
 70
0
 71
3
 72
24
 73
20
 74
18
 42
0.0000001
 43
0.0000001
 44
0.0000000001
 12
0.2685899298
 22
0.8063822775
 32
0.0
 13
0.0022370123
 23
0.8499340702
 33
0.0
 40
0.0
 40
0.0
 40
0.0
 40
0.0
 40
0.0089137456
 40
0.0253125474
 40
0.0491359441
 40
0.0802419731
 40
0.1184347082
 40
0.163469248
 40
0.215055175
 40
0.2728589497
 40
0.3365068628
 40
0.4055864992
 40
0.47965089
 40
0.558220232
 40
0.6407855899
 40
0.7268120383
 40
0.815743447
 40
0.9070022571
 40
1.0
 40
1.0
 40
1.0
 40
1.0
 10
-8.7762636848
 20
-10.9869266127
 30
0.0
 10
-8.7754656373
 20
-10.9845306506
 30
0.0
 10
-8.7745811602
 20
-10.9773487796
 30
0.0
 10
-8.7731989962
 20
-10.9635389492
 30
0.0
 10
-8.7719577234
 20
-10.9433449024
 30
0.0
 10
-8.7706478454
 20
-10.9170035686
 30
0.0
 10
-8.7693965703
 20
-10.8846318375
 30
0.0
 10
-8.7681769199
 20
-10.8464580701
 30
0.0
 10
-8.7670139675
 20
-10.8027226746
 30
0.0
 10
-8.7659120252
 20
-10.7537113887
 30
0.0
 10
-8.7648807597
 20
-10.6997412404
 30
0.0
 10
-8.7639269819
 20
-10.6411622424
 30
0.0
 10
-8.7630574338
 20
-10.5783540704
 30
0.0
 10
-8.7622779941
 20
-10.5117237803
 30
0.0
 10
-8.7615939152
 20
-10.4417032793
 30
0.0
 10
-8.7610097945
 20
-10.3687460787
 30
0.0
 10
-8.7605294676
 20
-10.2933251097
 30
0.0
 10
-8.7601562095
 20
-10.2159284616
 30
0.0
 10
-8.7599815748
 20
-10.1637265771
 30
0.0
 10
-8.7599122291
 20
-10.1373792604
 30
0.0
 11
-8.7762636848
 21
-10.9869266127
 31
0.0
 11
-8.7748640901
 21
-10.9794808915
 31
0.0
 11
-8.7734795658
 21
-10.9656118792
 31
0.0
 11
-8.772118927
 21
-10.9454092599
 31
0.0
 11
-8.7707911215
 21
-10.9190044588
 31
0.0
 11
-8.7695046979
 21
-10.8865685396
 31
0.0
 11
-8.7682680131
 21
-10.8483120007
 31
0.0
 11
-8.7670890775
 21
-10.804483065
 31
0.0
 11
-8.7659755329
 21
-10.7553661184
 31
0.0
 11
-8.7649345864
 21
-10.7012794172
 31
0.0
 11
-8.7639729858
 21
-10.6425739523
 31
0.0
 11
-8.7630969526
 21
-10.579629981
 31
0.0
 11
-8.7623121624
 21
-10.5128556007
 31
0.0
 11
-8.7616236928
 21
-10.4426836242
 31
0.0
 11
-8.7610360085
 21
-10.3695689234
 31
0.0
 11
-8.7605528897
 21
-10.2939843714
 31
0.0
 11
-8.7601775022
 21
-10.2164210392
 31
0.0
 11
-8.7599122291
 21
-10.1373792604
 31
0.0
  0
SPLINE
  5
327
100
AcDbEntity
  8
ASSI
100
AcDbSpline
 62
253
  6
CONTINUOUS
 70
0
 71
3
 72
24
 73
20
 74
18
 42
0.0000001
 43
0.0000001
 44
0.0000000001
 12
0.2359406643
 22
0.3541476739
 32
0.0
 13
0.0022405343
 23
0.425539131
 33
0.0
 40
0.0
 40
0.0
 40
0.0
 40
0.0
 40
0.0093427655
 40
0.0259586392
 40
0.0499093424
 40
0.0810900281
 40
0.1193207176
 40
0.1643650495
 40
0.2159378438
 40
0.2737091555
 40
0.3373079655
 40
0.4063240255
 40
0.4803121476
 40
0.5587941037
 40
0.6412624686
 40
0.7271837488
 40
0.8160032134
 40
0.907144645
 40
1.0
 40
1.0
 40
1.0
 40
1.0
 10
-9.2759590983
 20
-10.4876118454
 30
0.0
 10
-9.2752243188
 20
-10.4865089392
 30
0.0
 10
-9.2742507767
 20
-10.482860089
 30
0.0
 10
-9.2729183668
 20
-10.4759634465
 30
0.0
 10
-9.2716469465
 20
-10.4658333076
 30
0.0
 10
-9.2703473095
 20
-10.4526650543
 30
0.0
 10
-9.2690915652
 20
-10.4364730626
 30
0.0
 10
-9.2678730827
 20
-10.4173851014
 30
0.0
 10
-9.2667095324
 20
-10.3955154564
 30
0.0
 10
-9.2656076392
 20
-10.3710084948
 30
0.0
 10
-9.2645762582
 20
-10.3440220112
 30
0.0
 10
-9.2636224402
 20
-10.3147311279
 30
0.0
 10
-9.2627528489
 20
-10.2833256098
 30
0.0
 10
-9.2619733783
 20
-10.250009008
 30
0.0
 10
-9.2612892858
 20
-10.2149972837
 30
0.0
 10
-9.2607051409
 20
-10.1785172046
 30
0.0
 10
-9.2602248359
 20
-10.1408052529
 30
0.0
 10
-9.2598515732
 20
-10.1021084637
 30
0.0
 10
-9.2596769911
 20
-10.0760093649
 30
0.0
 10
-9.2596076426
 20
-10.0628381692
 30
0.0
 11
-9.2759590983
 21
-10.4876118454
 31
0.0
 11
-9.2745598834
 21
-10.4838904311
 31
0.0
 11
-9.2731752691
 21
-10.4769565223
 31
0.0
 11
-9.2718146107
 21
-10.4668556527
 31
0.0
 11
-9.2704867539
 21
-10.4536534759
 31
0.0
 11
-9.2692002906
 21
-10.4374355394
 31
0.0
 11
-9.2679635632
 21
-10.4183070857
 31
0.0
 11
-9.2667845879
 21
-10.3963922298
 31
0.0
 11
-9.2656710057
 21
-10.3718331689
 31
0.0
 11
-9.264630025
 21
-10.3447890387
 31
0.0
 11
-9.2636683941
 21
-10.3154353448
 31
0.0
 11
-9.2627923363
 21
-10.2839622574
 31
0.0
 11
-9.2620075267
 21
-10.2505738735
 31
0.0
 11
-9.2613190465
 21
-10.2154866248
 31
0.0
 11
-9.2607313527
 21
-10.1789279744
 31
0.0
 11
-9.2602482429
 21
-10.1411343804
 31
0.0
 11
-9.2598728503
 21
-10.102351414
 31
0.0
 11
-9.2596076426
 21
-10.0628381692
 31
0.0
  0
SPLINE
  5
328
100
AcDbEntity
  8
RACCORDO
100
AcDbSpline
 62
253
  6
CONTINUOUS
 70
0
 71
3
 72
21
 73
17
 74
15
 42
0.0000001
 43
0.0000001
 44
0.0000000001
 12
-0.0021831839
 22
0.2504731391
 32
0.0
 13
0.2504731158
 23
0.0021858458
 33
0.0
 40
0.0
 40
0.0
 40
0.0
 40
0.0
 40
0.1117254707
 40
0.2220443826
 40
0.3295717424
 40
0.4329577933
 40
0.5309050832
 40
0.6221849176
 40
0.7056530314
 40
0.7802643551
 40
0.8450868632
 40
0.8993147599
 40
0.9422821117
 40
0.9734815232
 40
0.9926137743
 40
1.0
 40
1.0
 40
1.0
 40
1.0
 10
-25.7673313273
 20
10.6745531524
 30
0.0
 10
-25.7674126331
 20
10.6838812289
 30
0.0
 10
-25.7675381229
 20
10.702420281
 30
0.0
 10
-25.7676158757
 20
10.7299375816
 30
0.0
 10
-25.7675818488
 20
10.7567586624
 30
0.0
 10
-25.7674366217
 20
10.7825464928
 30
0.0
 10
-25.7671822407
 20
10.8069765469
 30
0.0
 10
-25.7668223287
 20
10.8297430883
 30
0.0
 10
-25.7663618074
 20
10.8505556649
 30
0.0
 10
-25.7658079988
 20
10.8691667054
 30
0.0
 10
-25.7651676789
 20
10.8852997557
 30
0.0
 10
-25.7644572257
 20
10.898878276
 30
0.0
 10
-25.7636772744
 20
10.9093893471
 30
0.0
 10
-25.7628886521
 20
10.917561466
 30
0.0
 10
-25.7620656534
 20
10.9215512691
 30
0.0
 10
-25.7614047707
 20
10.9245382515
 30
0.0
 10
-25.760788087
 20
10.9245436332
 30
0.0
 11
-25.7673313273
 21
10.6745531524
 31
0.0
 11
-25.7675204093
 21
10.702537806
 31
0.0
 11
-25.7675974365
 21
10.7301706724
 31
0.0
 11
-25.7675614407
 21
10.7571043868
 31
0.0
 11
-25.7674128743
 21
10.783000373
 31
0.0
 11
-25.7671536049
 21
10.8075331001
 31
0.0
 11
-25.7667868918
 21
10.8303941742
 31
0.0
 11
-25.7663173447
 21
10.8512962155
 31
0.0
 11
-25.7657508662
 21
10.8699764705
 31
0.0
 11
-25.7650945775
 21
10.8862001155
 31
0.0
 11
-25.7643567284
 21
10.8997632078
 31
0.0
 11
-25.7635465943
 21
10.9104952501
 31
0.0
 11
-25.7626743592
 21
10.9182613331
 31
0.0
 11
-25.7617509876
 21
10.922963832
 31
0.0
 11
-25.760788087
 21
10.9245436332
 31
0.0
  0
LINE
  5
329
100
AcDbEntity
  8
RACCORDO
100
AcDbLine
 62
253
  6
CONTINUOUS
 10
-25.7673285554
 20
10.6745531656
 11
-26.2498799075
 21
10.672248705
  0
SPLINE
  5
32A
100
AcDbEntity
  8
0
100
AcDbSpline
 62
253
  6
CONTINUOUS
 70
0
 71
3
 72
23
 73
19
 74
17
 42
0.0000001
 43
0.0000001
 44
0.0000000001
 12
-0.4773642622
 22
-0.0720585592
 32
0.0
 13
0.0719729241
 23
-0.477377181
 33
0.0
 40
0.0
 40
0.0
 40
0.0
 40
0.0
 40
0.0990673877
 40
0.196892917
 40
0.292575418
 40
0.3852334648
 40
0.4740134963
 40
0.5580976811
 40
0.6367114536
 40
0.7091306523
 40
0.7746881962
 40
0.8327802388
 40
0.8828717468
 40
0.9245014633
 40
0.9572862377
 40
0.980924798
 40
0.9952015677
 40
1.0
 40
1.0
 40
1.0
 40
1.0
 10
-24.6932966008
 20
-10.0628381692
 30
0.0
 10
-24.7090603443
 20
-10.0652177203
 30
0.0
 10
-24.7403890484
 20
-10.0699547903
 30
0.0
 10
-24.7869387467
 20
-10.0770174714
 30
0.0
 10
-24.8324650658
 20
-10.0839492974
 30
0.0
 10
-24.8765486349
 20
-10.0906863753
 30
0.0
 10
-24.9187832539
 20
-10.0971666665
 30
0.0
 10
-24.9587801825
 20
-10.1033302392
 30
0.0
 10
-24.9961698494
 20
-10.1091208946
 30
0.0
 10
-25.0306115543
 20
-10.1144830427
 30
0.0
 10
-25.061775926
 20
-10.1193741229
 30
0.0
 10
-25.0894141415
 20
-10.1237267917
 30
0.0
 10
-25.1131552848
 20
-10.1275676602
 30
0.0
 10
-25.1331186879
 20
-10.130665706
 30
0.0
 10
-25.1482026195
 20
-10.1335202866
 30
0.0
 10
-25.1605244773
 20
-10.1348003485
 30
0.0
 10
-25.1653280539
 20
-10.1371617786
 30
0.0
 10
-25.170374353
 20
-10.1366157029
 30
0.0
 10
-25.170259234
 20
-10.137379257
 30
0.0
 11
-24.6932966008
 21
-10.0628381692
 31
0.0
 11
-24.7405860391
 21
-10.0699886847
 31
0.0
 11
-24.7872790817
 21
-10.0770733277
 31
0.0
 11
-24.8329455795
 21
-10.0840268323
 31
0.0
 11
-24.8771648398
 21
-10.0907851411
 31
0.0
 11
-24.9195295025
 21
-10.0972859946
 31
0.0
 11
-24.9596492925
 21
-10.103469505
 31
0.0
 11
-24.9971546151
 21
-10.1092787082
 31
0.0
 11
-25.0316999608
 21
-10.1146600882
 31
0.0
 11
-25.0629670884
 21
-10.1195640702
 31
0.0
 11
-25.0906679562
 21
-10.1239454774
 31
0.0
 11
-25.1145473762
 21
-10.127763947
 31
0.0
 11
-25.1343853644
 21
-10.1309843021
 31
0.0
 11
-25.1499991679
 21
-10.1335768761
 31
0.0
 11
-25.1612449478
 21
-10.1355177854
 31
0.0
 11
-25.168019105
 21
-10.1367891497
 31
0.0
 11
-25.170259234
 21
-10.137379257
 31
0.0
  0
SPLINE
  5
32B
100
AcDbEntity
  8
0
100
AcDbSpline
 62
253
  6
CONTINUOUS
 70
0
 71
3
 72
23
 73
19
 74
17
 42
0.0000001
 43
0.0000001
 44
0.0000000001
 12
-0.0261481723
 22
-0.4995452843
 32
0.0
 13
0.4995436188
 23
-0.0261799717
 33
0.0
 40
0.0
 40
0.0
 40
0.0
 40
0.0
 40
0.0978499016
 40
0.1947432743
 40
0.2897503344
 40
0.3819594947
 40
0.4704861696
 40
0.5544813359
 40
0.6331397783
 40
0.7057079592
 40
0.7714914739
 40
0.8298620941
 40
0.8802645015
 40
0.9222230709
 40
0.9553499014
 40
0.9793587241
 40
0.9941101821
 40
1.0
 40
1.0
 40
1.0
 40
1.0
 10
-24.2250521744
 20
-10.4876118454
 30
0.0
 10
-24.2259050398
 20
-10.503905331
 30
0.0
 10
-24.2275472483
 20
-10.5363359421
 30
0.0
 10
-24.2298247298
 20
-10.5845961824
 30
0.0
 10
-24.2318903914
 20
-10.6319245294
 30
0.0
 10
-24.2337245141
 20
-10.6778662658
 30
0.0
 10
-24.2353096779
 20
-10.7219799491
 30
0.0
 10
-24.2366309441
 20
-10.7638419175
 30
0.0
 10
-24.2376760801
 20
-10.8030494364
 30
0.0
 10
-24.2384356282
 20
-10.8392277231
 30
0.0
 10
-24.2389035496
 20
-10.8720232259
 30
0.0
 10
-24.2390762178
 20
-10.9011402572
 30
0.0
 10
-24.238957128
 20
-10.9262410346
 30
0.0
 10
-24.2385458228
 20
-10.9472558668
 30
0.0
 10
-24.2378756863
 20
-10.9635220782
 30
0.0
 10
-24.2369329941
 20
-10.9760433886
 30
0.0
 10
-24.235891779
 20
-10.9823826775
 30
0.0
 10
-24.2347511445
 20
-10.9868752143
 30
0.0
 10
-24.2337704042
 20
-10.9869266127
 30
0.0
 11
-24.2250521744
 21
-10.4876118454
 31
0.0
 11
-24.2275271657
 21
-10.5364966068
 31
0.0
 11
-24.2298107164
 21
-10.5849116746
 31
0.0
 11
-24.2318808858
 21
-10.632391868
 31
0.0
 11
-24.2337177835
 21
-10.6784809887
 31
0.0
 11
-24.23530376
 21
-10.7227362042
 31
0.0
 11
-24.2366235771
 21
-10.7647323022
 31
0.0
 11
-24.2376645537
 21
-10.8040657767
 31
0.0
 11
-24.238416688
 21
-10.8403587045
 31
0.0
 11
-24.2388727532
 21
-10.8732623766
 31
0.0
 11
-24.2390283675
 21
-10.9024606486
 31
0.0
 11
-24.2388820357
 21
-10.9276729781
 31
0.0
 11
-24.2384351637
 21
-10.9486571206
 31
0.0
 11
-24.2376920451
 21
-10.9652114566
 31
0.0
 11
-24.2366598201
 21
-10.977176929
 31
0.0
 11
-24.2353484063
 21
-10.9844385715
 31
0.0
 11
-24.2337704042
 21
-10.9869266127
 31
0.0
  0
SPLINE
  5
32C
100
AcDbEntity
  8
ASSI
100
AcDbSpline
 62
253
  6
CONTINUOUS
 70
0
 71
3
 72
21
 73
17
 74
15
 42
0.0000001
 43
0.0000001
 44
0.0000000001
 12
-0.0021831839
 22
0.2504731391
 32
0.0
 13
0.2504731158
 23
0.0021858458
 33
0.0
 40
0.0
 40
0.0
 40
0.0
 40
0.0
 40
0.1117254707
 40
0.2220443826
 40
0.3295717424
 40
0.4329577933
 40
0.5309050832
 40
0.6221849176
 40
0.7056530314
 40
0.7802643551
 40
0.8450868632
 40
0.8993147599
 40
0.9422821117
 40
0.9734815232
 40
0.9926137743
 40
1.0
 40
1.0
 40
1.0
 40
1.0
 10
-25.7673313273
 20
10.6745531524
 30
0.0
 10
-25.7674126331
 20
10.6838812289
 30
0.0
 10
-25.7675381229
 20
10.702420281
 30
0.0
 10
-25.7676158757
 20
10.7299375816
 30
0.0
 10
-25.7675818488
 20
10.7567586624
 30
0.0
 10
-25.7674366217
 20
10.7825464928
 30
0.0
 10
-25.7671822407
 20
10.8069765469
 30
0.0
 10
-25.7668223287
 20
10.8297430883
 30
0.0
 10
-25.7663618074
 20
10.8505556649
 30
0.0
 10
-25.7658079988
 20
10.8691667054
 30
0.0
 10
-25.7651676789
 20
10.8852997557
 30
0.0
 10
-25.7644572257
 20
10.898878276
 30
0.0
 10
-25.7636772744
 20
10.9093893471
 30
0.0
 10
-25.7628886521
 20
10.917561466
 30
0.0
 10
-25.7620656534
 20
10.9215512691
 30
0.0
 10
-25.7614047707
 20
10.9245382515
 30
0.0
 10
-25.760788087
 20
10.9245436332
 30
0.0
 11
-25.7673313273
 21
10.6745531524
 31
0.0
 11
-25.7675204093
 21
10.702537806
 31
0.0
 11
-25.7675974365
 21
10.7301706724
 31
0.0
 11
-25.7675614407
 21
10.7571043868
 31
0.0
 11
-25.7674128743
 21
10.783000373
 31
0.0
 11
-25.7671536049
 21
10.8075331001
 31
0.0
 11
-25.7667868918
 21
10.8303941742
 31
0.0
 11
-25.7663173447
 21
10.8512962155
 31
0.0
 11
-25.7657508662
 21
10.8699764705
 31
0.0
 11
-25.7650945775
 21
10.8862001155
 31
0.0
 11
-25.7643567284
 21
10.8997632078
 31
0.0
 11
-25.7635465943
 21
10.9104952501
 31
0.0
 11
-25.7626743592
 21
10.9182613331
 31
0.0
 11
-25.7617509876
 21
10.922963832
 31
0.0
 11
-25.760788087
 21
10.9245436332
 31
0.0
  0
LINE
  5
32D
100
AcDbEntity
  8
ASSI
100
AcDbLine
 62
253
  6
CONTINUOUS
 10
-25.7673285554
 20
10.6745531656
 11
-26.2498799075
 21
10.672248705
  0
SPLINE
  5
32E
100
AcDbEntity
  8
ASSI
100
AcDbSpline
 62
253
  6
CONTINUOUS
 70
0
 71
3
 72
23
 73
19
 74
17
 42
0.0000001
 43
0.0000001
 44
0.0000000001
 12
-0.4773642622
 22
-0.0720585592
 32
0.0
 13
0.0719729241
 23
-0.477377181
 33
0.0
 40
0.0
 40
0.0
 40
0.0
 40
0.0
 40
0.0990673877
 40
0.196892917
 40
0.292575418
 40
0.3852334648
 40
0.4740134963
 40
0.5580976811
 40
0.6367114536
 40
0.7091306523
 40
0.7746881962
 40
0.8327802388
 40
0.8828717468
 40
0.9245014633
 40
0.9572862377
 40
0.980924798
 40
0.9952015677
 40
1.0
 40
1.0
 40
1.0
 40
1.0
 10
-24.6932966008
 20
-10.0628381692
 30
0.0
 10
-24.7090603443
 20
-10.0652177203
 30
0.0
 10
-24.7403890484
 20
-10.0699547903
 30
0.0
 10
-24.7869387467
 20
-10.0770174714
 30
0.0
 10
-24.8324650658
 20
-10.0839492974
 30
0.0
 10
-24.8765486349
 20
-10.0906863753
 30
0.0
 10
-24.9187832539
 20
-10.0971666665
 30
0.0
 10
-24.9587801825
 20
-10.1033302392
 30
0.0
 10
-24.9961698494
 20
-10.1091208946
 30
0.0
 10
-25.0306115543
 20
-10.1144830427
 30
0.0
 10
-25.061775926
 20
-10.1193741229
 30
0.0
 10
-25.0894141415
 20
-10.1237267917
 30
0.0
 10
-25.1131552848
 20
-10.1275676602
 30
0.0
 10
-25.1331186879
 20
-10.130665706
 30
0.0
 10
-25.1482026195
 20
-10.1335202866
 30
0.0
 10
-25.1605244773
 20
-10.1348003485
 30
0.0
 10
-25.1653280539
 20
-10.1371617786
 30
0.0
 10
-25.170374353
 20
-10.1366157029
 30
0.0
 10
-25.170259234
 20
-10.137379257
 30
0.0
 11
-24.6932966008
 21
-10.0628381692
 31
0.0
 11
-24.7405860391
 21
-10.0699886847
 31
0.0
 11
-24.7872790817
 21
-10.0770733277
 31
0.0
 11
-24.8329455795
 21
-10.0840268323
 31
0.0
 11
-24.8771648398
 21
-10.0907851411
 31
0.0
 11
-24.9195295025
 21
-10.0972859946
 31
0.0
 11
-24.9596492925
 21
-10.103469505
 31
0.0
 11
-24.9971546151
 21
-10.1092787082
 31
0.0
 11
-25.0316999608
 21
-10.1146600882
 31
0.0
 11
-25.0629670884
 21
-10.1195640702
 31
0.0
 11
-25.0906679562
 21
-10.1239454774
 31
0.0
 11
-25.1145473762
 21
-10.127763947
 31
0.0
 11
-25.1343853644
 21
-10.1309843021
 31
0.0
 11
-25.1499991679
 21
-10.1335768761
 31
0.0
 11
-25.1612449478
 21
-10.1355177854
 31
0.0
 11
-25.168019105
 21
-10.1367891497
 31
0.0
 11
-25.170259234
 21
-10.137379257
 31
0.0
  0
SPLINE
  5
32F
100
AcDbEntity
  8
ASSI
100
AcDbSpline
 62
253
  6
CONTINUOUS
 70
0
 71
3
 72
23
 73
19
 74
17
 42
0.0000001
 43
0.0000001
 44
0.0000000001
 12
-0.0261481723
 22
-0.4995452843
 32
0.0
 13
0.4995436188
 23
-0.0261799717
 33
0.0
 40
0.0
 40
0.0
 40
0.0
 40
0.0
 40
0.0978499016
 40
0.1947432743
 40
0.2897503344
 40
0.3819594947
 40
0.4704861696
 40
0.5544813359
 40
0.6331397783
 40
0.7057079592
 40
0.7714914739
 40
0.8298620941
 40
0.8802645015
 40
0.9222230709
 40
0.9553499014
 40
0.9793587241
 40
0.9941101821
 40
1.0
 40
1.0
 40
1.0
 40
1.0
 10
-24.2250521744
 20
-10.4876118454
 30
0.0
 10
-24.2259050398
 20
-10.503905331
 30
0.0
 10
-24.2275472483
 20
-10.5363359421
 30
0.0
 10
-24.2298247298
 20
-10.5845961824
 30
0.0
 10
-24.2318903914
 20
-10.6319245294
 30
0.0
 10
-24.2337245141
 20
-10.6778662658
 30
0.0
 10
-24.2353096779
 20
-10.7219799491
 30
0.0
 10
-24.2366309441
 20
-10.7638419175
 30
0.0
 10
-24.2376760801
 20
-10.8030494364
 30
0.0
 10
-24.2384356282
 20
-10.8392277231
 30
0.0
 10
-24.2389035496
 20
-10.8720232259
 30
0.0
 10
-24.2390762178
 20
-10.9011402572
 30
0.0
 10
-24.238957128
 20
-10.9262410346
 30
0.0
 10
-24.2385458228
 20
-10.9472558668
 30
0.0
 10
-24.2378756863
 20
-10.9635220782
 30
0.0
 10
-24.2369329941
 20
-10.9760433886
 30
0.0
 10
-24.235891779
 20
-10.9823826775
 30
0.0
 10
-24.2347511445
 20
-10.9868752143
 30
0.0
 10
-24.2337704042
 20
-10.9869266127
 30
0.0
 11
-24.2250521744
 21
-10.4876118454
 31
0.0
 11
-24.2275271657
 21
-10.5364966068
 31
0.0
 11
-24.2298107164
 21
-10.5849116746
 31
0.0
 11
-24.2318808858
 21
-10.632391868
 31
0.0
 11
-24.2337177835
 21
-10.6784809887
 31
0.0
 11
-24.23530376
 21
-10.7227362042
 31
0.0
 11
-24.2366235771
 21
-10.7647323022
 31
0.0
 11
-24.2376645537
 21
-10.8040657767
 31
0.0
 11
-24.238416688
 21
-10.8403587045
 31
0.0
 11
-24.2388727532
 21
-10.8732623766
 31
0.0
 11
-24.2390283675
 21
-10.9024606486
 31
0.0
 11
-24.2388820357
 21
-10.9276729781
 31
0.0
 11
-24.2384351637
 21
-10.9486571206
 31
0.0
 11
-24.2376920451
 21
-10.9652114566
 31
0.0
 11
-24.2366598201
 21
-10.977176929
 31
0.0
 11
-24.2353484063
 21
-10.9844385715
 31
0.0
 11
-24.2337704042
 21
-10.9869266127
 31
0.0
  0
ELLIPSE
  5
330
100
AcDbEntity
  8
RACCORDO
100
AcDbEllipse
 62
7
  6
CONTINUOUS
 10
8.9802365295
 20
-11.1118527278
 30
0.0
 11
0.2
 21
-0.0
 31
0.0
 40
0.0524077793
 41
0.5235987756
 42
1.5707963268
  0
ELLIPSE
  5
331
100
AcDbEntity
  8
RACCORDO
100
AcDbEllipse
 62
7
  6
CONTINUOUS
 10
-2.2197634705
 20
-11.1118527278
 30
0.0
 11
0.2
 21
0.0
 31
0.0
 40
0.0524077793
 41
0.5235987756
 42
1.5707963268
  0
ELLIPSE
  5
332
100
AcDbEntity
  8
RACCORDO
100
AcDbEllipse
 62
7
  6
CONTINUOUS
 10
-5.5888233628
 20
-11.1118527278
 30
0.0
 11
0.2
 21
-0.0
 31
0.0
 40
0.0524077793
 41
1.5707963268
 42
2.617993878
  0
ELLIPSE
  5
333
100
AcDbEntity
  8
RACCORDO
100
AcDbEllipse
 62
7
  6
CONTINUOUS
 10
5.6111766372
 20
-11.1118527278
 30
0.0
 11
0.2
 21
0.0
 31
0.0
 40
0.0524077793
 41
1.5707963268
 42
2.617993878
  0
ELLIPSE
  5
334
100
AcDbEntity
  8
RACCORDO
100
AcDbEllipse
 62
7
  6
CONTINUOUS
 10
16.9111766372
 20
-11.1118527278
 30
0.0
 11
0.2
 21
0.0
 31
0.0
 40
0.0524077793
 41
1.5707963268
 42
2.617993878
  0
ELLIPSE
  5
335
100
AcDbEntity
  8
RACCORDO
100
AcDbEllipse
 62
7
  6
CONTINUOUS
 10
20.2802365295
 20
-11.1118527278
 30
0.0
 11
0.2
 21
0.0
 31
0.0
 40
0.0524077793
 41
0.5235987756
 42
1.5707963268
  0
ELLIPSE
  5
336
100
AcDbEntity
  8
RACCORDO
100
AcDbEllipse
 62
7
  6
CONTINUOUS
 10
31.4802365295
 20
-11.1118527278
 30
0.0
 11
0.2
 21
0.0
 31
0.0
 40
0.0524077793
 41
0.5235987756
 42
1.5707963268
  0
ELLIPSE
  5
337
100
AcDbEntity
  8
RACCORDO
100
AcDbEllipse
 62
7
  6
CONTINUOUS
 10
28.1111766372
 20
-11.1118527278
 30
0.0
 11
0.2
 21
0.0
 31
0.0
 40
0.0524077793
 41
1.5707963268
 42
2.617993878
  0
ELLIPSE
  5
338
100
AcDbEntity
  8
0
100
AcDbEllipse
 62
7
  6
CONTINUOUS
 10
34.769097283
 20
-10.6398198199
 30
0.0
 11
0.4943891341
 21
0.0770133648
 31
0.0
 40
0.9960067742
 41
-1.7259388368
 42
-0.1569690096
  0
ELLIPSE
  5
339
100
AcDbEntity
  8
0
100
AcDbEllipse
 62
7
  6
CONTINUOUS
 10
-8.8776841164
 20
-10.6398198199
 30
0.0
 11
0.4943891341
 21
-0.0770133648
 31
0.0
 40
0.9960067742
 41
-2.984623644
 42
-1.4156538168
  0
ELLIPSE
  5
33A
100
AcDbEntity
  8
RACCORDO
100
AcDbEllipse
 62
7
  6
CONTINUOUS
 10
35.0455541973
 20
10.7200076396
 30
0.0
 11
0.2426981267
 21
0.0606514259
 31
0.0
 40
0.9993528196
 41
-0.2447368254
 42
1.3257549497
  0
ELLIPSE
  5
33B
100
AcDbEntity
  8
RACCORDO
100
AcDbEllipse
 62
7
  6
CONTINUOUS
 10
-9.1541410306
 20
10.7200076396
 30
0.0
 11
0.2426981267
 21
-0.0606514259
 31
0.0
 40
0.9993528196
 41
1.8158377039
 42
3.386329479
  0
ELLIPSE
  5
33C
100
AcDbEntity
  8
ASSI
100
AcDbEllipse
 62
7
  6
CONTINUOUS
 10
8.9802365295
 20
-11.1118527278
 30
0.0
 11
0.2
 21
-0.0
 31
0.0
 40
0.0524077793
 41
0.5235987756
 42
1.5707963268
  0
ELLIPSE
  5
33D
100
AcDbEntity
  8
ASSI
100
AcDbEllipse
 62
7
  6
CONTINUOUS
 10
-2.2197634705
 20
-11.1118527278
 30
0.0
 11
0.2
 21
0.0
 31
0.0
 40
0.0524077793
 41
0.5235987756
 42
1.5707963268
  0
ELLIPSE
  5
33E
100
AcDbEntity
  8
ASSI
100
AcDbEllipse
 62
7
  6
CONTINUOUS
 10
-5.5888233628
 20
-11.1118527278
 30
0.0
 11
0.2
 21
-0.0
 31
0.0
 40
0.0524077793
 41
1.5707963268
 42
2.617993878
  0
ELLIPSE
  5
33F
100
AcDbEntity
  8
ASSI
100
AcDbEllipse
 62
7
  6
CONTINUOUS
 10
5.6111766372
 20
-11.1118527278
 30
0.0
 11
0.2
 21
0.0
 31
0.0
 40
0.0524077793
 41
1.5707963268
 42
2.617993878
  0
ELLIPSE
  5
340
100
AcDbEntity
  8
ASSI
100
AcDbEllipse
 62
7
  6
CONTINUOUS
 10
16.9111766372
 20
-11.1118527278
 30
0.0
 11
0.2
 21
0.0
 31
0.0
 40
0.0524077793
 41
1.5707963268
 42
2.617993878
  0
ELLIPSE
  5
341
100
AcDbEntity
  8
ASSI
100
AcDbEllipse
 62
7
  6
CONTINUOUS
 10
20.2802365295
 20
-11.1118527278
 30
0.0
 11
0.2
 21
0.0
 31
0.0
 40
0.0524077793
 41
0.5235987756
 42
1.5707963268
  0
ELLIPSE
  5
342
100
AcDbEntity
  8
ASSI
100
AcDbEllipse
 62
7
  6
CONTINUOUS
 10
31.4802365295
 20
-11.1118527278
 30
0.0
 11
0.2
 21
0.0
 31
0.0
 40
0.0524077793
 41
0.5235987756
 42
1.5707963268
  0
ELLIPSE
  5
343
100
AcDbEntity
  8
ASSI
100
AcDbEllipse
 62
7
  6
CONTINUOUS
 10
28.1111766372
 20
-11.1118527278
 30
0.0
 11
0.2
 21
0.0
 31
0.0
 40
0.0524077793
 41
1.5707963268
 42
2.617993878
  0
ELLIPSE
  5
344
100
AcDbEntity
  8
ASSI
100
AcDbEllipse
 62
7
  6
CONTINUOUS
 10
34.769097283
 20
-10.6398198199
 30
0.0
 11
0.4943891341
 21
0.0770133648
 31
0.0
 40
0.9960067742
 41
-1.7259388368
 42
-0.1569690096
  0
ELLIPSE
  5
345
100
AcDbEntity
  8
ASSI
100
AcDbEllipse
 62
7
  6
CONTINUOUS
 10
-8.8776841164
 20
-10.6398198199
 30
0.0
 11
0.4943891341
 21
-0.0770133648
 31
0.0
 40
0.9960067742
 41
-2.984623644
 42
-1.4156538168
  0
ELLIPSE
  5
346
100
AcDbEntity
  8
ASSI
100
AcDbEllipse
 62
7
  6
CONTINUOUS
 10
35.0455541973
 20
10.7200076396
 30
0.0
 11
0.2426981267
 21
0.0606514259
 31
0.0
 40
0.9993528196
 41
-0.2447368254
 42
1.3257549497
  0
ELLIPSE
  5
347
100
AcDbEntity
  8
ASSI
100
AcDbEllipse
 62
7
  6
CONTINUOUS
 10
-9.1541410306
 20
10.7200076396
 30
0.0
 11
0.2426981267
 21
-0.0606514259
 31
0.0
 40
0.9993528196
 41
1.8158377039
 42
3.386329479
  0
ENDSEC
  0
SECTION
  2
OBJECTS
  0
DICTIONARY
  5
C
100
AcDbDictionary
280
0
281
1
  3
ACAD_GROUP
350
D
  3
ACAD_MLINESTYLE
350
17
  3
ACAD_LAYOUT
350
1A
  3
ACAD_PLOTSETTINGS
350
19
  3
ACAD_PLOTSTYLENAME
350
E
  0
DICTIONARY
  5
D
102
{ACAD_REACTORS
330
C
102
}
100
AcDbDictionary
280
0
281
1
  0
ACDBDICTIONARYWDFLT
  5
E
102
{ACAD_REACTORS
330
C
102
}
100
AcDbDictionary
281
1
  3
Normal
350
F
100
AcDbDictionaryWithDefault
340
F
  0
DICTIONARY
  5
17
102
{ACAD_REACTORS
330
C
102
}
100
AcDbDictionary
280
0
281
1
  3
Standard
350
18
  0
DICTIONARY
  5
19
102
{ACAD_REACTORS
330
C
102
}
100
AcDbDictionary
281
1
  0
DICTIONARY
  5
1A
102
{ACAD_REACTORS
330
C
102
}
100
AcDbDictionary
281
1
  3
Model
350
348
  3
Layout1
350
349
  0
ACDBPLACEHOLDER
  5
F
102
{ACAD_REACTORS
330
E
102
}
  0
MLINESTYLE
  5
18
102
{ACAD_REACTORS
330
17
102
}
100
AcDbMlineStyle
  2
STANDARD
 70
0
  3

 62
256
 51
90.0
 52
90.0
 71
2
 49
0.5
 62
256
  6
BYLAYER
 49
-0.5
 62
256
  6
BYLAYER
  0
LAYOUT
  5
348
102
{ACAD_REACTORS
330
1A
102
}
100
AcDbPlotSettings
  1

  2
none_device
  4
ISO_A4_(297.00_x_210.00_MM)
  6

 40
0.0
 41
0.0
 42
0.0
 43
0.0
 44
297.0
 45
210.0
 46
0.0
 47
0.0
 48
0.0
 49
0.0
140
0.0
141
0.0
142
1.0
143
1.0
 70
1024
 72
1
 73
0
 74
0
  7

 75
0
147
1.0
148
0.0
149
0.0
100
AcDbLayout
  1
Model
 70
0
 71
0
 10
0.0
 20
0.0
 11
297.0
 21
210.0
 12
0.0
 22
0.0
 32
0.0
 14
0.0
 24
0.0
 34
0.0
 15
0.0
 25
0.0
 35
0.0
146
0.0
 13
0.0
 23
0.0
 33
0.0
 16
1.0
 26
0.0
 36
0.0
 17
0.0
 27
1.0
 37
0.0
 76
0
330
218
345
0
346
0
  0
LAYOUT
  5
349
102
{ACAD_REACTORS
330
1A
102
}
100
AcDbPlotSettings
  1

  2
none_device
  4
ISO_A4_(297.00_x_210.00_MM)
  6

 40
0.0
 41
0.0
 42
0.0
 43
0.0
 44
297.0
 45
210.0
 46
0.0
 47
0.0
 48
0.0
 49
0.0
140
0.0
141
0.0
142
1.0
143
1.0
 70
0
 72
1
 73
0
 74
0
  7

 75
0
147
1.0
148
0.0
149
0.0
100
AcDbLayout
  1
Layout1
 70
0
 71
1
 10
0.0
 20
0.0
 11
297.0
 21
210.0
 12
0.0
 22
0.0
 32
0.0
 14
0.0
 24
0.0
 34
0.0
 15
0.0
 25
0.0
 35
0.0
146
0.0
 13
0.0
 23
0.0
 33
0.0
 16
1.0
 26
0.0
 36
0.0
 17
0.0
 27
1.0
 37
0.0
 76
0
330
219
345
0
346
0
  0
ENDSEC
  0
EOF
