  0
SECTION
  2
HEADER
  9
$ACADVER
  1
AC1015
  9
$DWGCODEPAGE
  3
ANSI_1252
  9
$EXTMAX
 10
297.0
 20
210.0
 30
0.0
  9
$EXTMIN
 10
0.0
 20
0.0
 30
0.0
  9
$LIMMIN
 10
0.0
 20
0.0
  9
$LIMMAX
 10
297.0
 20
210.0
  9
$VIEWCTR
 10
148.5
 20
105.0
  9
$VIEWSIZE
 40
210.0
  9
$CLAYER
  8
0
  9
$LTSCALE
 40
16.335
  9
$CELTYPE
  6
BYLAYER
  9
$DIMSCALE
 40
1.0
  9
$DIMASZ
 40
3.0
  9
$DIMEXO
 40
1.85625
  9
$DIMDLI
 40
11.286
  9
$DIMEXE
 40
5.346
  9
$DIMCEN
 40
2.673
  9
$DIMLFAC
 40
1.0
  9
$DIMBLK
  1
_FILLED
  9
$DIMTXT
 40
3.0
  9
$DIMTOL
 70
1
  9
$DIMLIM
 70
0
  9
$DIMTFAC
 40
1.0
  9
$DIMTP
 40
0.01
  9
$DIMTM
 40
0.01
  9
$PDMODE
 70
3
  9
$PDSIZE
 40
3.0
  9
$HANDSEED
  5
36A
  9
$TILEMODE
 70
1
  9
$MEASUREMENT
 70
1
  9
$INSUNITS
 70
4
  0
ENDSEC
  0
SECTION
  2
CLASSES
  0
CLASS
  1
ACDBDICTIONARYWDFLT
  2
AcDbDictionaryWithDefault
  3
AutoCAD 2000
 90
0
280
0
281
0
  0
CLASS
  1
ACDBPLACEHOLDER
  2
AcDbPlaceHolder
  3
AutoCAD 2000
 90
0
280
0
281
0
  0
CLASS
  1
LAYOUT
  2
AcDbLayout
  3
AutoCAD 2000
 90
0
280
0
281
0
  0
ENDSEC
  0
SECTION
  2
TABLES
  0
TABLE
  2
VPORT
  5
8
100
AcDbSymbolTable
 70
2
  0
VPORT
  5
1F4
100
AcDbSymbolTableRecord
100
AcDbViewportTableRecord
  2
*ACTIVE
 70
0
 10
0.0
 20
0.0
 11
1.0
 21
1.0
 12
148.5
 22
105.0
 13
0.0
 23
0.0
 14
1.0
 24
1.0
 15
0.0
 25
0.0
 16
0.0
 26
0.0
 36
1.0
 17
0.0
 27
0.0
 37
0.0
 40
210.0
 41
1.4142857143
 42
50.0
 43
0.0
 44
0.0
 50
0.0
 51
0.0
 71
0
 72
100
 73
1
 74
1
 75
0
 76
0
 77
0
 78
0
  0
ENDTAB
  0
TABLE
  2
LTYPE
  5
5
100
AcDbSymbolTable
 70
6
  0
LTYPE
  5
14
100
AcDbSymbolTableRecord
100
AcDbLinetypeTableRecord
  2
BYBLOCK
 70
0
  3

 72
65
 73
0
 40
0.0
  0
LTYPE
  5
15
100
AcDbSymbolTableRecord
100
AcDbLinetypeTableRecord
  2
BYLAYER
 70
0
  3

 72
65
 73
0
 40
0.0
  0
LTYPE
  5
16
100
AcDbSymbolTableRecord
100
AcDbLinetypeTableRecord
  2
CONTINUOUS
 70
64
  3
Solid line
 72
65
 73
0
 40
0.0
  0
LTYPE
  5
1F5
100
AcDbSymbolTableRecord
100
AcDbLinetypeTableRecord
  2
CENTER
 70
64
  3
____ _ ____ _ ____ _ ____ _ ____ _ ____ _ ____
 72
65
 73
4
 40
0.6
 49
0.375
 74
0
 49
-0.075
 74
0
 49
0.075
 74
0
 49
-0.075
 74
0
  0
LTYPE
  5
1F6
100
AcDbSymbolTableRecord
100
AcDbLinetypeTableRecord
  2
HIDDEN
 70
64
  3
- - - - - - - - - - - - - - - - - - - -
 72
65
 73
2
 40
0.2
 49
0.1
 74
0
 49
-0.1
 74
0
  0
LTYPE
  5
1F7
100
AcDbSymbolTableRecord
100
AcDbLinetypeTableRecord
  2
PHANTOM
 70
64
  3
_____ _ _ _____ _ _ _____ _ _ _____
 72
65
 73
6
 40
0.8
 49
0.45
 74
0
 49
-0.05
 74
0
 49
0.1
 74
0
 49
-0.05
 74
0
 49
0.1
 74
0
 49
-0.05
 74
0
  0
LTYPE
  5
1F8
100
AcDbSymbolTableRecord
100
AcDbLinetypeTableRecord
  2
DOT
 70
64
  3
. . . . . . . . . . . . . . . . . . . .
 72
65
 73
2
 40
0.2
 49
0.1
 74
0
 49
-0.1
 74
0
  0
LTYPE
  5
1F9
100
AcDbSymbolTableRecord
100
AcDbLinetypeTableRecord
  2
DASHED
 70
64
  3
- - - - - - - - - - - - - - - - - - - -
 72
65
 73
2
 40
0.2
 49
0.1
 74
0
 49
-0.1
 74
0
  0
ENDTAB
  0
TABLE
  2
LAYER
  5
2
100
AcDbSymbolTable
 70
36
  0
LAYER
  5
10
100
AcDbSymbolTableRecord
100
AcDbLayerTableRecord
  2
0
 70
0
 62
7
  6
CONTINUOUS
370
-3
390
F
  0
LAYER
  5
1FA
100
AcDbSymbolTableRecord
100
AcDbLayerTableRecord
  2
DEFAULT_1
 70
0
 62
7
  6
CENTER
370
-3
390
F
  0
LAYER
  5
1FB
100
AcDbSymbolTableRecord
100
AcDbLayerTableRecord
  2
DEFAULT_2
 70
0
 62
7
  6
HIDDEN
370
-3
390
F
  0
LAYER
  5
1FC
100
AcDbSymbolTableRecord
100
AcDbLayerTableRecord
  2
DEFAULT_3
 70
0
 62
7
  6
PHANTOM
370
-3
390
F
  0
LAYER
  5
1FD
100
AcDbSymbolTableRecord
100
AcDbLayerTableRecord
  2
ASSI
 70
0
 62
7
  6
CONTINUOUS
370
-3
390
F
  0
LAYER
  5
1FE
100
AcDbSymbolTableRecord
100
AcDbLayerTableRecord
  2
COLOR9
 70
0
 62
7
  6
CONTINUOUS
370
-3
390
F
  0
LAYER
  5
1FF
100
AcDbSymbolTableRecord
100
AcDbLayerTableRecord
  2
COORDINATE
 70
0
 62
7
  6
CONTINUOUS
370
-3
390
F
  0
LAYER
  5
200
100
AcDbSymbolTableRecord
100
AcDbLayerTableRecord
  2
COORD_ORIGINE
 70
0
 62
7
  6
CONTINUOUS
370
-3
390
F
  0
LAYER
  5
201
100
AcDbSymbolTableRecord
100
AcDbLayerTableRecord
  2
COPY_PUBLISH
 70
0
 62
7
  6
CONTINUOUS
370
-3
390
F
  0
LAYER
  5
202
100
AcDbSymbolTableRecord
100
AcDbLayerTableRecord
  2
COSMETIC
 70
0
 62
7
  6
CONTINUOUS
370
-3
390
F
  0
LAYER
  5
203
100
AcDbSymbolTableRecord
100
AcDbLayerTableRecord
  2
CURVE
 70
0
 62
7
  6
CONTINUOUS
370
-3
390
F
  0
LAYER
  5
204
100
AcDbSymbolTableRecord
100
AcDbLayerTableRecord
  2
DRAFT
 70
0
 62
7
  6
CONTINUOUS
370
-3
390
F
  0
LAYER
  5
205
100
AcDbSymbolTableRecord
100
AcDbLayerTableRecord
  2
IGS_SCRITTE
 70
0
 62
7
  6
CONTINUOUS
370
-3
390
F
  0
LAYER
  5
206
100
AcDbSymbolTableRecord
100
AcDbLayerTableRecord
  2
IMPORT_IGES
 70
0
 62
7
  6
CONTINUOUS
370
-3
390
F
  0
LAYER
  5
207
100
AcDbSymbolTableRecord
100
AcDbLayerTableRecord
  2
INTF_15
 70
0
 62
7
  6
CONTINUOUS
370
-3
390
F
  0
LAYER
  5
208
100
AcDbSymbolTableRecord
100
AcDbLayerTableRecord
  2
INTF_3
 70
0
 62
7
  6
CONTINUOUS
370
-3
390
F
  0
LAYER
  5
209
100
AcDbSymbolTableRecord
100
AcDbLayerTableRecord
  2
INTF_4
 70
0
 62
7
  6
CONTINUOUS
370
-3
390
F
  0
LAYER
  5
20A
100
AcDbSymbolTableRecord
100
AcDbLayerTableRecord
  2
INTF_YELLOW
 70
0
 62
7
  6
CONTINUOUS
370
-3
390
F
  0
LAYER
  5
20B
100
AcDbSymbolTableRecord
100
AcDbLayerTableRecord
  2
PIANI
 70
0
 62
7
  6
CONTINUOUS
370
-3
390
F
  0
LAYER
  5
20C
100
AcDbSymbolTableRecord
100
AcDbLayerTableRecord
  2
PIANI_ORIGINE
 70
0
 62
7
  6
CONTINUOUS
370
-3
390
F
  0
LAYER
  5
20D
100
AcDbSymbolTableRecord
100
AcDbLayerTableRecord
  2
PIANI_RIFERIMENTO
 70
0
 62
7
  6
CONTINUOUS
370
-3
390
F
  0
LAYER
  5
20E
100
AcDbSymbolTableRecord
100
AcDbLayerTableRecord
  2
RACCORDO
 70
0
 62
7
  6
CONTINUOUS
370
-3
390
F
  0
LAYER
  5
20F
100
AcDbSymbolTableRecord
100
AcDbLayerTableRecord
  2
SMUSSO
 70
0
 62
7
  6
CONTINUOUS
370
-3
390
F
  0
LAYER
  5
210
100
AcDbSymbolTableRecord
100
AcDbLayerTableRecord
  2
SNAPLINE
 70
0
 62
7
  6
CONTINUOUS
370
-3
390
F
  0
LAYER
  5
211
100
AcDbSymbolTableRecord
100
AcDbLayerTableRecord
  2
SOLIDO
 70
0
 62
7
  6
CONTINUOUS
370
-3
390
F
  0
LAYER
  5
212
100
AcDbSymbolTableRecord
100
AcDbLayerTableRecord
  2
SUPERFICI
 70
0
 62
7
  6
CONTINUOUS
370
-3
390
F
  0
LAYER
  5
213
100
AcDbSymbolTableRecord
100
AcDbLayerTableRecord
  2
TRASH
 70
0
 62
7
  6
CONTINUOUS
370
-3
390
F
  0
LAYER
  5
214
100
AcDbSymbolTableRecord
100
AcDbLayerTableRecord
  2
WHITE
 70
0
 62
7
  6
CONTINUOUS
370
-3
390
F
  0
LAYER
  5
215
100
AcDbSymbolTableRecord
100
AcDbLayerTableRecord
  2
XSEC_DATUMS
 70
0
 62
7
  6
CONTINUOUS
370
-3
390
F
  0
ENDTAB
  0
TABLE
  2
STYLE
  5
3
100
AcDbSymbolTable
 70
1
  0
STYLE
  5
11
100
AcDbSymbolTableRecord
100
AcDbTextStyleTableRecord
  2
STANDARD
 70
0
 40
0.0
 41
0.8
 50
0.0
 71
0
 42
0.2
  3
txt
  4

  0
STYLE
  5
216
100
AcDbSymbolTableRecord
100
AcDbTextStyleTableRecord
  2
TEXTSTYLE_1
 70
0
 40
0.0
 41
0.8
 50
0.0
 71
0
 42
0.2
  3
gdt
  4

  0
ENDTAB
  0
TABLE
  2
VIEW
  5
6
100
AcDbSymbolTable
 70
0
  0
ENDTAB
  0
TABLE
  2
UCS
  5
7
100
AcDbSymbolTable
 70
0
  0
ENDTAB
  0
TABLE
  2
APPID
  5
9
100
AcDbSymbolTable
 70
1
  0
APPID
  5
217
100
AcDbSymbolTableRecord
100
AcDbRegAppTableRecord
  2
ACAD
 70
0
  0
ENDTAB
  0
TABLE
  2
BLOCK_RECORD
  5
1
100
AcDbSymbolTable
 70
0
  0
BLOCK_RECORD
  5
218
100
AcDbSymbolTableRecord
100
AcDbBlockTableRecord
  2
*Model_Space
  0
BLOCK_RECORD
  5
219
100
AcDbSymbolTableRecord
100
AcDbBlockTableRecord
  2
*Paper_Space
  0
BLOCK_RECORD
  5
21A
100
AcDbSymbolTableRecord
100
AcDbBlockTableRecord
  2
_FILLED
  0
BLOCK_RECORD
  5
21B
100
AcDbSymbolTableRecord
100
AcDbBlockTableRecord
  2
*D0
  0
BLOCK_RECORD
  5
21C
100
AcDbSymbolTableRecord
100
AcDbBlockTableRecord
  2
*D1
  0
BLOCK_RECORD
  5
21D
100
AcDbSymbolTableRecord
100
AcDbBlockTableRecord
  2
*D2
  0
ENDTAB
  0
TABLE
  2
DIMSTYLE
  5
A
100
AcDbSymbolTable
 70
1
100
AcDbDimStyleTable
 71
0
  0
DIMSTYLE
105
21E
100
AcDbSymbolTableRecord
100
AcDbDimStyleTableRecord
  2
STANDARD
 70
0
  3

  4

 40
1.0
 41
3.0
 42
0.0625
 43
0.38
 44
0.18
 45
0.0
 46
0.0
 47
0.01
 48
0.01
140
3.0
141
0.09
142
0.0
143
25.4
144
1.0
145
0.0
146
1.0
147
0.09
 71
1.0
 72
0.0
 73
0
 74
0
 75
0
 76
0
 77
1
 78
8
170
0
171
2
172
0
173
0
174
0
175
0
176
0
177
0
178
0
270
2
271
2
272
2
273
2
274
2
275
0
280
0
281
0
282
0
283
1
284
8
285
0
286
0
287
3
288
0
340
11
341
21A
342
21A
343
21A
344
21A
  0
DIMSTYLE
105
21F
100
AcDbSymbolTableRecord
100
AcDbDimStyleTableRecord
  2
DIMSTYLE_1
 70
0
  3

  4

 40
1.0
 41
3.0
 42
0.0625
 43
0.38
 44
0.18
 45
0.0
 46
0.0
 47
0.0
 48
0.0
140
3.0
141
0.09
142
0.0
143
25.4
144
1.0
145
0.0
146
1.0
147
0.09
 71
0.0
 72
0.0
 73
0
 74
0
 75
0
 76
0
 77
1
 78
8
170
0
171
2
172
0
173
0
174
0
175
0
176
0
177
0
178
0
270
2
271
2
272
2
273
2
274
2
275
0
280
0
281
0
282
0
283
1
284
8
285
0
286
0
287
3
288
0
340
11
341
21A
342
21A
343
21A
344
21A
  0
DIMSTYLE
105
220
100
AcDbSymbolTableRecord
100
AcDbDimStyleTableRecord
  2
DIMSTYLE_2
 70
0
  3

  4

 40
1.0
 41
3.0
 42
0.0625
 43
0.38
 44
0.18
 45
0.0
 46
0.0
 47
0.0
 48
0.0
140
3.0
141
0.09
142
0.0
143
25.4
144
1.0
145
0.0
146
1.0
147
0.09
 71
0.0
 72
0.0
 73
0
 74
0
 75
0
 76
0
 77
1
 78
8
170
0
171
2
172
0
173
0
174
0
175
0
176
0
177
0
178
0
270
2
271
1
272
1
273
2
274
2
275
0
280
0
281
0
282
0
283
1
284
8
285
0
286
0
287
3
288
0
340
11
341
21A
342
21A
343
21A
344
21A
  0
ENDTAB
  0
ENDSEC
  0
SECTION
  2
BLOCKS
  0
BLOCK
  5
20
100
AcDbEntity
  8
0
100
AcDbBlockBegin
  2
*Model_Space
 70
0
 10
0.0
 20
0.0
 30
0.0
  3
*Model_Space
  1

  0
ENDBLK
  5
21
100
AcDbEntity
  8
0
100
AcDbBlockEnd
  0
BLOCK
  5
1C
100
AcDbEntity
  8
0
100
AcDbBlockBegin
  2
*Paper_Space
 70
0
 10
0.0
 20
0.0
 30
0.0
  3
*Paper_Space
  1

  0
ENDBLK
  5
1D
100
AcDbEntity
  8
0
100
AcDbBlockEnd
  0
BLOCK
  5
221
100
AcDbEntity
  8
0
100
AcDbBlockBegin
  2
_FILLED
 70
64
 10
0.0
 20
0.0
  3
_FILLED
  1

  0
SOLID
  5
222
100
AcDbEntity
  8
0
  6
BYBLOCK
 62
0
100
AcDbTrace
 10
0.0
 20
0.0
 11
-1.0
 21
0.3166666667
 12
-1.0
 22
-0.3166666667
 13
-1.0
 23
-0.3166666667
  0
ENDBLK
  5
223
100
AcDbEntity
  8
0
  6
BYBLOCK
 62
0
100
AcDbBlockEnd
  0
BLOCK
  5
224
100
AcDbEntity
  8
0
100
AcDbBlockBegin
 62
7
  6
CONTINUOUS
  2
*D0
 70
65
 10
0.0
 20
0.0
  3
*D0
  1

  0
MTEXT
  5
225
100
AcDbEntity
  8
0
100
AcDbMText
 62
7
  6
CONTINUOUS
  7
STANDARD
 71
2
 72
1
 10
-18.9185124665
 20
22.6813316578
 30
0.0
 11
1.0
 21
0.0
 31
0.0
 44
0.9
  1
5,7
 40
3.0
 41
6.2142857143
  0
LINE
  5
226
100
AcDbEntity
  8
0
100
AcDbLine
 62
7
  6
CONTINUOUS
 10
-16.0685915764
 20
11.181158279
 11
-16.0685915764
 21
20.4313316578
  0
LINE
  5
227
100
AcDbEntity
  8
0
100
AcDbLine
 62
7
  6
CONTINUOUS
 10
-21.7684333566
 20
11.1333232046
 11
-21.7684333566
 21
20.4313316578
  0
LINE
  5
228
100
AcDbEntity
  8
0
100
AcDbLine
 62
7
  6
CONTINUOUS
 10
-16.0685915764
 20
18.9313316578
 11
-12.0685915764
 21
18.9313316578
  0
LINE
  5
229
100
AcDbEntity
  8
0
100
AcDbLine
 62
7
  6
CONTINUOUS
 10
-12.0685915764
 20
18.9313316578
 11
-18.9185124665
 21
18.9313316578
  0
LINE
  5
22A
100
AcDbEntity
  8
0
100
AcDbLine
 62
7
  6
CONTINUOUS
 10
-21.7684333566
 20
18.9313316578
 11
-25.7684333566
 21
18.9313316578
  0
LINE
  5
22B
100
AcDbEntity
  8
0
100
AcDbLine
 62
7
  6
CONTINUOUS
 10
-25.7684333566
 20
18.9313316578
 11
-18.9185124665
 21
18.9313316578
  0
INSERT
  5
22C
100
AcDbEntity
  8
0
100
AcDbBlockReference
 62
7
  6
CONTINUOUS
  2
_FILLED
 10
-16.0685915764
 20
18.9313316578
 41
3.0
 42
3.0
 43
3.0
 50
180.0
  0
INSERT
  5
22D
100
AcDbEntity
  8
0
100
AcDbBlockReference
 62
7
  6
CONTINUOUS
  2
_FILLED
 10
-21.7684333566
 20
18.9313316578
 41
3.0
 42
3.0
 43
3.0
  0
ENDBLK
  5
22E
100
AcDbEntity
  8
0
  6
BYBLOCK
 62
0
100
AcDbBlockEnd
  0
BLOCK
  5
22F
100
AcDbEntity
  8
0
100
AcDbBlockBegin
 62
7
  6
CONTINUOUS
  2
*D1
 70
65
 10
0.0
 20
0.0
  3
*D1
  1

  0
MTEXT
  5
230
100
AcDbEntity
  8
0
100
AcDbMText
 62
7
  6
CONTINUOUS
  7
STANDARD
 71
2
 72
1
 10
17.4251506458
 20
22.6813316578
 30
0.0
 11
1.0
 21
0.0
 31
0.0
 44
0.9
  1
44,7
 40
3.0
 41
8.7857142857
  0
LINE
  5
231
100
AcDbEntity
  8
0
100
AcDbLine
 62
7
  6
CONTINUOUS
 10
-4.9248493542
 20
11.181158279
 11
-4.9248493542
 21
20.4313316578
  0
LINE
  5
232
100
AcDbEntity
  8
0
100
AcDbLine
 62
7
  6
CONTINUOUS
 10
39.7751506458
 20
11.181158279
 11
39.7751506458
 21
20.4313316578
  0
LINE
  5
233
100
AcDbEntity
  8
0
100
AcDbLine
 62
7
  6
CONTINUOUS
 10
-4.9248493542
 20
18.9313316578
 11
17.4251506458
 21
18.9313316578
  0
LINE
  5
234
100
AcDbEntity
  8
0
100
AcDbLine
 62
7
  6
CONTINUOUS
 10
39.7751506458
 20
18.9313316578
 11
17.4251506458
 21
18.9313316578
  0
INSERT
  5
235
100
AcDbEntity
  8
0
100
AcDbBlockReference
 62
7
  6
CONTINUOUS
  2
_FILLED
 10
-4.9248493542
 20
18.9313316578
 41
3.0
 42
3.0
 43
3.0
 50
180.0
  0
INSERT
  5
236
100
AcDbEntity
  8
0
100
AcDbBlockReference
 62
7
  6
CONTINUOUS
  2
_FILLED
 10
39.7751506458
 20
18.9313316578
 41
3.0
 42
3.0
 43
3.0
 50
0.0
  0
ENDBLK
  5
237
100
AcDbEntity
  8
0
  6
BYBLOCK
 62
0
100
AcDbBlockEnd
  0
BLOCK
  5
238
100
AcDbEntity
  8
0
100
AcDbBlockBegin
 62
7
  6
CONTINUOUS
  2
*D2
 70
65
 10
0.0
 20
0.0
  3
*D2
  1

  0
MTEXT
  5
239
100
AcDbEntity
  8
0
100
AcDbMText
 62
7
  6
CONTINUOUS
  7
STANDARD
 71
2
 72
1
 10
44.0251506458
 20
-0.1230273125
 30
0.0
 11
0.0
 21
1.0
 31
0.0
 44
0.9
  1
22,1
 40
3.0
 41
8.1428571429
  0
LINE
  5
23A
100
AcDbEntity
  8
0
100
AcDbLine
 62
7
  6
CONTINUOUS
 10
40.0250744441
 20
10.9310916578
 11
49.2751506458
 21
10.9310916578
  0
LINE
  5
23B
100
AcDbEntity
  8
0
100
AcDbLine
 62
7
  6
CONTINUOUS
 10
39.7479324511
 20
-11.1771462828
 11
49.2751506458
 21
-11.1771462828
  0
LINE
  5
23C
100
AcDbEntity
  8
0
100
AcDbLine
 62
7
  6
CONTINUOUS
 10
47.7751506458
 20
10.9310916578
 11
47.7751506458
 21
-0.1230273125
  0
LINE
  5
23D
100
AcDbEntity
  8
0
100
AcDbLine
 62
7
  6
CONTINUOUS
 10
47.7751506458
 20
-11.1771462828
 11
47.7751506458
 21
-0.1230273125
  0
INSERT
  5
23E
100
AcDbEntity
  8
0
100
AcDbBlockReference
 62
7
  6
CONTINUOUS
  2
_FILLED
 10
47.7751506458
 20
10.9310916578
 41
3.0
 42
3.0
 43
3.0
 50
90.0
  0
INSERT
  5
23F
100
AcDbEntity
  8
0
100
AcDbBlockReference
 62
7
  6
CONTINUOUS
  2
_FILLED
 10
47.7751506458
 20
-11.1771462828
 41
3.0
 42
3.0
 43
3.0
 50
270.0
  0
ENDBLK
  5
240
100
AcDbEntity
  8
0
  6
BYBLOCK
 62
0
100
AcDbBlockEnd
  0
ENDSEC
  0
SECTION
  2
ENTITIES
  0
DIMENSION
  5
241
100
AcDbEntity
  8
0
100
AcDbDimension
 62
7
  6
CONTINUOUS
  2
*D0
 10
-21.7684333566
 20
18.9313316578
 11
-22.0256553236
 21
21.1813316578
 70
160
 71
2
 42
5.6998417802
  3
DIMSTYLE_1
100
AcDbAlignedDimension
 13
-16.0685915764
 23
11.181158279
 14
-21.7684333566
 24
11.1333232046
 50
180.0
100
AcDbRotatedDimension
  0
DIMENSION
  5
242
100
AcDbEntity
  8
0
100
AcDbDimension
 62
7
  6
CONTINUOUS
  2
*D1
 10
39.7751506458
 20
18.9313316578
 11
13.032293503
 21
21.1813316578
 70
160
 71
2
 42
44.7
  3
DIMSTYLE_1
100
AcDbAlignedDimension
 13
-4.9248493542
 23
11.181158279
 14
39.7751506458
 24
11.181158279
100
AcDbRotatedDimension
  0
DIMENSION
  5
243
100
AcDbEntity
  8
0
100
AcDbDimension
 62
7
  6
CONTINUOUS
  2
*D2
 10
47.7751506458
 20
-11.1771462828
 11
47.3494503686
 21
-3.7628708714
 70
160
 71
2
 42
22.1082379406
  3
DIMSTYLE_2
100
AcDbAlignedDimension
 13
40.0250744441
 23
10.9310916578
 14
39.7479324511
 24
-11.1771462828
 50
270.0
100
AcDbRotatedDimension
  0
LINE
  5
244
100
AcDbEntity
  8
0
100
AcDbLine
 62
7
  6
CONTINUOUS
 10
-4.8985420448
 20
-10.67965565
 11
-4.9248493542
 21
-2.0689083422
  0
LINE
  5
245
100
AcDbEntity
  8
ASSI
100
AcDbLine
 62
7
  6
CONTINUOUS
 10
-4.8985420448
 20
-10.67965565
 11
-4.9248493542
 21
-2.0689083422
  0
LINE
  5
246
100
AcDbEntity
  8
RACCORDO
100
AcDbLine
 62
7
  6
CONTINUOUS
 10
-4.9248493542
 20
10.681158279
 11
-4.9248493542
 21
-2.0689083422
  0
LINE
  5
247
100
AcDbEntity
  8
ASSI
100
AcDbLine
 62
7
  6
CONTINUOUS
 10
-4.9248493542
 20
10.681158279
 11
-4.9248493542
 21
-2.0689083422
  0
LINE
  5
248
100
AcDbEntity
  8
RACCORDO
100
AcDbLine
 62
253
  6
CONTINUOUS
 10
-4.2429621003
 20
10.6333232043
 11
-4.2429621003
 21
10.8835125696
  0
LINE
  5
249
100
AcDbEntity
  8
ASSI
100
AcDbLine
 62
253
  6
CONTINUOUS
 10
-4.2461053127
 20
1.5310916578
 11
-4.2429621003
 21
10.8835125696
  0
LINE
  5
24A
100
AcDbEntity
  8
0
100
AcDbLine
 62
253
  6
CONTINUOUS
 10
-4.8985420448
 20
-10.67965565
 11
-4.7965150358
 21
-10.5265373468
  0
LINE
  5
24B
100
AcDbEntity
  8
ASSI
100
AcDbLine
 62
253
  6
CONTINUOUS
 10
-4.8985420448
 20
-10.67965565
 11
-4.7965150358
 21
-10.5265373468
  0
LINE
  5
24C
100
AcDbEntity
  8
0
100
AcDbLine
 62
253
  6
CONTINUOUS
 10
-4.3976311594
 20
-11.1771462828
 11
-4.2968196223
 21
-11.0258521141
  0
LINE
  5
24D
100
AcDbEntity
  8
ASSI
100
AcDbLine
 62
253
  6
CONTINUOUS
 10
-4.3976311594
 20
-11.1771462828
 11
-4.2968196223
 21
-11.0258521141
  0
LINE
  5
24E
100
AcDbEntity
  8
RACCORDO
100
AcDbLine
 62
7
  6
CONTINUOUS
 10
32.0691969449
 20
-11.1771462828
 11
32.4174156189
 21
-11.1455374512
  0
LINE
  5
24F
100
AcDbEntity
  8
ASSI
100
AcDbLine
 62
7
  6
CONTINUOUS
 10
32.0691969449
 20
-11.1771462828
 11
32.4174156189
 21
-11.1455374512
  0
LINE
  5
250
100
AcDbEntity
  8
RACCORDO
100
AcDbLine
 62
7
  6
CONTINUOUS
 10
2.7811043467
 20
-11.1771462828
 11
2.4328856728
 21
-11.1455374512
  0
LINE
  5
251
100
AcDbEntity
  8
ASSI
100
AcDbLine
 62
7
  6
CONTINUOUS
 10
2.7811043467
 20
-11.1771462828
 11
2.4328856728
 21
-11.1455374512
  0
LINE
  5
252
100
AcDbEntity
  8
RACCORDO
100
AcDbLine
 62
7
  6
CONTINUOUS
 10
20.8691969449
 20
-11.1771462828
 11
21.2174156189
 21
-11.1455374512
  0
LINE
  5
253
100
AcDbEntity
  8
ASSI
100
AcDbLine
 62
7
  6
CONTINUOUS
 10
20.8691969449
 20
-11.1771462828
 11
21.2174156189
 21
-11.1455374512
  0
LINE
  5
254
100
AcDbEntity
  8
RACCORDO
100
AcDbLine
 62
7
  6
CONTINUOUS
 10
9.5691969449
 20
-11.1771462828
 11
9.9174156189
 21
-11.1455374512
  0
LINE
  5
255
100
AcDbEntity
  8
ASSI
100
AcDbLine
 62
7
  6
CONTINUOUS
 10
9.5691969449
 20
-11.1771462828
 11
9.9174156189
 21
-11.1455374512
  0
LINE
  5
256
100
AcDbEntity
  8
0
100
AcDbLine
 62
7
  6
CONTINUOUS
 10
39.2479324511
 20
-11.1771462828
 11
36.4811043467
 21
-11.1771462828
  0
LINE
  5
257
100
AcDbEntity
  8
ASSI
100
AcDbLine
 62
7
  6
CONTINUOUS
 10
39.2479324511
 20
-11.1771462828
 11
36.4811043467
 21
-11.1771462828
  0
LINE
  5
258
100
AcDbEntity
  8
DRAFT
100
AcDbLine
 62
7
  6
CONTINUOUS
 10
32.0691969449
 20
-11.1771462828
 11
25.2811043467
 21
-11.1771462828
  0
LINE
  5
259
100
AcDbEntity
  8
ASSI
100
AcDbLine
 62
7
  6
CONTINUOUS
 10
32.0691969449
 20
-11.1771462828
 11
25.2811043467
 21
-11.1771462828
  0
LINE
  5
25A
100
AcDbEntity
  8
DRAFT
100
AcDbLine
 62
7
  6
CONTINUOUS
 10
20.8691969449
 20
-11.1771462828
 11
13.9811043467
 21
-11.1771462828
  0
LINE
  5
25B
100
AcDbEntity
  8
ASSI
100
AcDbLine
 62
7
  6
CONTINUOUS
 10
20.8691969449
 20
-11.1771462828
 11
13.9811043467
 21
-11.1771462828
  0
LINE
  5
25C
100
AcDbEntity
  8
DRAFT
100
AcDbLine
 62
7
  6
CONTINUOUS
 10
9.5691969449
 20
-11.1771462828
 11
2.7811043467
 21
-11.1771462828
  0
LINE
  5
25D
100
AcDbEntity
  8
ASSI
100
AcDbLine
 62
7
  6
CONTINUOUS
 10
9.5691969449
 20
-11.1771462828
 11
2.7811043467
 21
-11.1771462828
  0
LINE
  5
25E
100
AcDbEntity
  8
0
100
AcDbLine
 62
7
  6
CONTINUOUS
 10
-1.6308030551
 20
-11.1771462828
 11
-4.3976311594
 21
-11.1771462828
  0
LINE
  5
25F
100
AcDbEntity
  8
ASSI
100
AcDbLine
 62
7
  6
CONTINUOUS
 10
-1.6308030551
 20
-11.1771462828
 11
-4.3976311594
 21
-11.1771462828
  0
LINE
  5
260
100
AcDbEntity
  8
RACCORDO
100
AcDbLine
 62
7
  6
CONTINUOUS
 10
35.959680592
 20
-11.1402966733
 11
32.5906206997
 21
-11.1402966733
  0
LINE
  5
261
100
AcDbEntity
  8
ASSI
100
AcDbLine
 62
7
  6
CONTINUOUS
 10
35.959680592
 20
-11.1402966733
 11
32.5906206997
 21
-11.1402966733
  0
LINE
  5
262
100
AcDbEntity
  8
RACCORDO
100
AcDbLine
 62
7
  6
CONTINUOUS
 10
24.759680592
 20
-11.1402966733
 11
21.3906206997
 21
-11.1402966733
  0
LINE
  5
263
100
AcDbEntity
  8
ASSI
100
AcDbLine
 62
7
  6
CONTINUOUS
 10
24.759680592
 20
-11.1402966733
 11
21.3906206997
 21
-11.1402966733
  0
LINE
  5
264
100
AcDbEntity
  8
RACCORDO
100
AcDbLine
 62
7
  6
CONTINUOUS
 10
13.459680592
 20
-11.1402966733
 11
10.0906206997
 21
-11.1402966733
  0
LINE
  5
265
100
AcDbEntity
  8
ASSI
100
AcDbLine
 62
7
  6
CONTINUOUS
 10
13.459680592
 20
-11.1402966733
 11
10.0906206997
 21
-11.1402966733
  0
LINE
  5
266
100
AcDbEntity
  8
RACCORDO
100
AcDbLine
 62
7
  6
CONTINUOUS
 10
2.259680592
 20
-11.1402966733
 11
-1.1093793003
 21
-11.1402966733
  0
LINE
  5
267
100
AcDbEntity
  8
ASSI
100
AcDbLine
 62
7
  6
CONTINUOUS
 10
2.259680592
 20
-11.1402966733
 11
-1.1093793003
 21
-11.1402966733
  0
LINE
  5
268
100
AcDbEntity
  8
0
100
AcDbLine
 62
253
  6
CONTINUOUS
 10
-4.2968196223
 20
-11.0258521141
 11
39.1471209139
 21
-11.0258521141
  0
LINE
  5
269
100
AcDbEntity
  8
ASSI
100
AcDbLine
 62
253
  6
CONTINUOUS
 10
-4.2968196223
 20
-11.0258521141
 11
39.1471209139
 21
-11.0258521141
  0
LINE
  5
26A
100
AcDbEntity
  8
0
100
AcDbLine
 62
253
  6
CONTINUOUS
 10
-4.2804681666
 20
-10.1763047618
 11
39.1307694582
 21
-10.1763047618
  0
LINE
  5
26B
100
AcDbEntity
  8
ASSI
100
AcDbLine
 62
253
  6
CONTINUOUS
 10
-4.2804681666
 20
-10.1763047618
 11
39.1307694582
 21
-10.1763047618
  0
LINE
  5
26C
100
AcDbEntity
  8
RACCORDO
100
AcDbLine
 62
7
  6
CONTINUOUS
 10
13.9811043467
 20
-11.1771462828
 11
13.6328856728
 21
-11.1455374512
  0
LINE
  5
26D
100
AcDbEntity
  8
ASSI
100
AcDbLine
 62
7
  6
CONTINUOUS
 10
13.9811043467
 20
-11.1771462828
 11
13.6328856728
 21
-11.1455374512
  0
LINE
  5
26E
100
AcDbEntity
  8
RACCORDO
100
AcDbLine
 62
7
  6
CONTINUOUS
 10
25.2811043467
 20
-11.1771462828
 11
24.9328856728
 21
-11.1455374512
  0
LINE
  5
26F
100
AcDbEntity
  8
ASSI
100
AcDbLine
 62
7
  6
CONTINUOUS
 10
25.2811043467
 20
-11.1771462828
 11
24.9328856728
 21
-11.1455374512
  0
LINE
  5
270
100
AcDbEntity
  8
RACCORDO
100
AcDbLine
 62
7
  6
CONTINUOUS
 10
-1.6308030551
 20
-11.1771462828
 11
-1.2825843811
 21
-11.1455374512
  0
LINE
  5
271
100
AcDbEntity
  8
ASSI
100
AcDbLine
 62
7
  6
CONTINUOUS
 10
-1.6308030551
 20
-11.1771462828
 11
-1.2825843811
 21
-11.1455374512
  0
LINE
  5
272
100
AcDbEntity
  8
RACCORDO
100
AcDbLine
 62
7
  6
CONTINUOUS
 10
36.4811043467
 20
-11.1771462828
 11
36.1328856728
 21
-11.1455374512
  0
LINE
  5
273
100
AcDbEntity
  8
ASSI
100
AcDbLine
 62
7
  6
CONTINUOUS
 10
36.4811043467
 20
-11.1771462828
 11
36.1328856728
 21
-11.1455374512
  0
LINE
  5
274
100
AcDbEntity
  8
CURVE
100
AcDbLine
 62
253
  6
CONTINUOUS
 10
17.2547016994
 20
-0.2943153649
 11
17.2547016994
 21
-2.7196641219
  0
LINE
  5
275
100
AcDbEntity
  8
CURVE
100
AcDbLine
 62
253
  6
CONTINUOUS
 10
17.6546775491
 20
-2.7196641865
 11
17.6546775491
 21
-0.2943154296
  0
LINE
  5
276
100
AcDbEntity
  8
0
100
AcDbLine
 62
253
  6
CONTINUOUS
 10
39.0964066044
 20
1.5310916578
 11
-4.2461053127
 21
1.5310916578
  0
LINE
  5
277
100
AcDbEntity
  8
ASSI
100
AcDbLine
 62
253
  6
CONTINUOUS
 10
39.0964066044
 20
1.5310916578
 11
-4.2461053127
 21
1.5310916578
  0
LINE
  5
278
100
AcDbEntity
  8
RACCORDO
100
AcDbLine
 62
253
  6
CONTINUOUS
 10
39.7751506458
 20
10.681158279
 11
39.5929588494
 21
10.6356276752
  0
LINE
  5
279
100
AcDbEntity
  8
ASSI
100
AcDbLine
 62
253
  6
CONTINUOUS
 10
39.7751506458
 20
10.681158279
 11
39.5929588494
 21
10.6356276752
  0
LINE
  5
27A
100
AcDbEntity
  8
RACCORDO
100
AcDbLine
 62
253
  6
CONTINUOUS
 10
-4.7426575578
 20
10.6356276752
 11
-4.9248493542
 21
10.681158279
  0
LINE
  5
27B
100
AcDbEntity
  8
ASSI
100
AcDbLine
 62
253
  6
CONTINUOUS
 10
-4.7426575578
 20
10.6356276752
 11
-4.9248493542
 21
10.681158279
  0
LINE
  5
27C
100
AcDbEntity
  8
RACCORDO
100
AcDbLine
 62
253
  6
CONTINUOUS
 10
39.5250744441
 20
10.9310916578
 11
39.3431110459
 21
10.8856181318
  0
LINE
  5
27D
100
AcDbEntity
  8
ASSI
100
AcDbLine
 62
253
  6
CONTINUOUS
 10
39.5250744441
 20
10.9310916578
 11
39.3431110459
 21
10.8856181318
  0
LINE
  5
27E
100
AcDbEntity
  8
RACCORDO
100
AcDbLine
 62
7
  6
CONTINUOUS
 10
21.5770491894
 20
5.4310916578
 11
13.2732521023
 21
5.4310916578
  0
LINE
  5
27F
100
AcDbEntity
  8
ASSI
100
AcDbLine
 62
7
  6
CONTINUOUS
 10
21.5770491894
 20
5.4310916578
 11
13.2732521023
 21
5.4310916578
  0
LINE
  5
280
100
AcDbEntity
  8
SUPERFICI
100
AcDbLine
 62
7
  6
CONTINUOUS
 10
13.2732521023
 20
5.4310916578
 11
21.5770491894
 21
5.4310916578
  0
LINE
  5
281
100
AcDbEntity
  8
RACCORDO
100
AcDbLine
 62
253
  6
CONTINUOUS
 10
-4.4928097542
 20
10.8856181318
 11
-4.6747731524
 21
10.9310916578
  0
LINE
  5
282
100
AcDbEntity
  8
ASSI
100
AcDbLine
 62
253
  6
CONTINUOUS
 10
-4.4928097542
 20
10.8856181318
 11
-4.6747731524
 21
10.9310916578
  0
LINE
  5
283
100
AcDbEntity
  8
RACCORDO
100
AcDbLine
 62
7
  6
CONTINUOUS
 10
21.5764217166
 20
7.6310916578
 11
13.2738795751
 21
7.6310916578
  0
LINE
  5
284
100
AcDbEntity
  8
ASSI
100
AcDbLine
 62
7
  6
CONTINUOUS
 10
21.5764217166
 20
7.6310916578
 11
13.2738795751
 21
7.6310916578
  0
LINE
  5
285
100
AcDbEntity
  8
SUPERFICI
100
AcDbLine
 62
7
  6
CONTINUOUS
 10
13.2738795751
 20
7.6310916578
 11
21.5764217166
 21
7.6310916578
  0
LINE
  5
286
100
AcDbEntity
  8
DRAFT
100
AcDbLine
 62
7
  6
CONTINUOUS
 10
37.1876166364
 20
10.9310916578
 11
36.9251506458
 21
10.9049110544
  0
LINE
  5
287
100
AcDbEntity
  8
ASSI
100
AcDbLine
 62
7
  6
CONTINUOUS
 10
37.1876166364
 20
10.9310916578
 11
36.9251506458
 21
10.9049110544
  0
LINE
  5
288
100
AcDbEntity
  8
DRAFT
100
AcDbLine
 62
7
  6
CONTINUOUS
 10
-2.3373153447
 20
10.9310916578
 11
-2.0748493542
 21
10.9049110544
  0
LINE
  5
289
100
AcDbEntity
  8
ASSI
100
AcDbLine
 62
7
  6
CONTINUOUS
 10
-2.3373153447
 20
10.9310916578
 11
-2.0748493542
 21
10.9049110544
  0
LINE
  5
28A
100
AcDbEntity
  8
RACCORDO
100
AcDbLine
 62
253
  6
CONTINUOUS
 10
39.0932607088
 20
10.6333232043
 11
-4.2429594171
 21
10.6333232043
  0
LINE
  5
28B
100
AcDbEntity
  8
ASSI
100
AcDbLine
 62
253
  6
CONTINUOUS
 10
39.0932607088
 20
10.6333232043
 11
-4.2429594171
 21
10.6333232043
  0
LINE
  5
28C
100
AcDbEntity
  8
RACCORDO
100
AcDbLine
 62
253
  6
CONTINUOUS
 10
39.093263392
 20
10.8835125696
 11
-4.2429621003
 21
10.8835125696
  0
LINE
  5
28D
100
AcDbEntity
  8
ASSI
100
AcDbLine
 62
7
  6
CONTINUOUS
 10
39.093263392
 20
10.8835125696
 11
-4.2429621003
 21
10.8835125696
  0
LINE
  5
28E
100
AcDbEntity
  8
DRAFT
100
AcDbLine
 62
7
  6
CONTINUOUS
 10
36.9251506458
 20
10.9049110544
 11
-2.0748493542
 21
10.9049110544
  0
LINE
  5
28F
100
AcDbEntity
  8
ASSI
100
AcDbLine
 62
7
  6
CONTINUOUS
 10
36.9251506458
 20
10.9049110544
 11
-2.0748493542
 21
10.9049110544
  0
LINE
  5
290
100
AcDbEntity
  8
RACCORDO
100
AcDbLine
 62
7
  6
CONTINUOUS
 10
39.5250744441
 20
10.9310916578
 11
37.1876166364
 21
10.9310916578
  0
LINE
  5
291
100
AcDbEntity
  8
ASSI
100
AcDbLine
 62
7
  6
CONTINUOUS
 10
39.5250744441
 20
10.9310916578
 11
37.1876166364
 21
10.9310916578
  0
LINE
  5
292
100
AcDbEntity
  8
RACCORDO
100
AcDbLine
 62
7
  6
CONTINUOUS
 10
-2.3373153447
 20
10.9310916578
 11
-4.6747731524
 21
10.9310916578
  0
LINE
  5
293
100
AcDbEntity
  8
ASSI
100
AcDbLine
 62
7
  6
CONTINUOUS
 10
-2.3373153447
 20
10.9310916578
 11
-4.6747731524
 21
10.9310916578
  0
LINE
  5
294
100
AcDbEntity
  8
0
100
AcDbLine
 62
253
  6
CONTINUOUS
 10
39.1471209139
 20
-11.0258521141
 11
39.2479324511
 21
-11.1771462828
  0
LINE
  5
295
100
AcDbEntity
  8
ASSI
100
AcDbLine
 62
253
  6
CONTINUOUS
 10
39.1471209139
 20
-11.0258521141
 11
39.2479324511
 21
-11.1771462828
  0
LINE
  5
296
100
AcDbEntity
  8
0
100
AcDbLine
 62
253
  6
CONTINUOUS
 10
39.6468163274
 20
-10.5265373468
 11
39.7488433365
 21
-10.67965565
  0
LINE
  5
297
100
AcDbEntity
  8
ASSI
100
AcDbLine
 62
253
  6
CONTINUOUS
 10
39.6468163274
 20
-10.5265373468
 11
39.7488433365
 21
-10.67965565
  0
LINE
  5
298
100
AcDbEntity
  8
RACCORDO
100
AcDbLine
 62
253
  6
CONTINUOUS
 10
39.093263392
 20
10.6333232043
 11
39.093263392
 21
10.8835125696
  0
LINE
  5
299
100
AcDbEntity
  8
ASSI
100
AcDbLine
 62
253
  6
CONTINUOUS
 10
39.0964066044
 20
1.5310916578
 11
39.093263392
 21
10.8835125696
  0
LINE
  5
29A
100
AcDbEntity
  8
RACCORDO
100
AcDbLine
 62
7
  6
CONTINUOUS
 10
39.7751506458
 20
10.681158279
 11
39.7751506458
 21
-2.0689083422
  0
LINE
  5
29B
100
AcDbEntity
  8
ASSI
100
AcDbLine
 62
7
  6
CONTINUOUS
 10
39.7751506458
 20
10.681158279
 11
39.7751506458
 21
-2.0689083422
  0
LINE
  5
29C
100
AcDbEntity
  8
0
100
AcDbLine
 62
7
  6
CONTINUOUS
 10
39.7488433365
 20
-10.67965565
 11
39.7751506458
 21
-2.0689083422
  0
LINE
  5
29D
100
AcDbEntity
  8
ASSI
100
AcDbLine
 62
7
  6
CONTINUOUS
 10
39.7488433365
 20
-10.67965565
 11
39.7751506458
 21
-2.0689083422
  0
LINE
  5
29E
100
AcDbEntity
  8
0
100
AcDbLine
 62
7
  6
CONTINUOUS
 10
-19.7523238528
 20
-11.0258521141
 11
-16.8654591409
 21
-11.1771462828
  0
LINE
  5
29F
100
AcDbEntity
  8
ASSI
100
AcDbLine
 62
7
  6
CONTINUOUS
 10
-19.7523238528
 20
-11.0258521141
 11
-16.8654591409
 21
-11.1771462828
  0
LINE
  5
2A0
100
AcDbEntity
  8
0
100
AcDbLine
 62
253
  6
CONTINUOUS
 10
-19.743605623
 20
-10.5265373468
 11
-16.8219343503
 21
-10.67965565
  0
LINE
  5
2A1
100
AcDbEntity
  8
ASSI
100
AcDbLine
 62
253
  6
CONTINUOUS
 10
-19.743605623
 20
-10.5265373468
 11
-16.8219343503
 21
-10.67965565
  0
LINE
  5
2A2
100
AcDbEntity
  8
RACCORDO
100
AcDbLine
 62
253
  6
CONTINUOUS
 10
-16.4914672967
 20
-6.9023999434
 11
-16.4685915764
 21
-6.9023999434
  0
LINE
  5
2A3
100
AcDbEntity
  8
ASSI
100
AcDbLine
 62
253
  6
CONTINUOUS
 10
-16.4914672967
 20
-6.9023999434
 11
-16.4685915764
 21
-6.9023999434
  0
LINE
  5
2A4
100
AcDbEntity
  8
CURVE
100
AcDbLine
 62
253
  6
CONTINUOUS
 10
-21.3979748437
 20
-4.0596581353
 11
-21.381691767
 21
-4.257039061
  0
LINE
  5
2A5
100
AcDbEntity
  8
CURVE
100
AcDbLine
 62
253
  6
CONTINUOUS
 10
-21.4417953291
 20
-3.4996306086
 11
-21.4142332472
 21
-3.8570632143
  0
LINE
  5
2A6
100
AcDbEntity
  8
CURVE
100
AcDbLine
 62
253
  6
CONTINUOUS
 10
-21.4819910998
 20
-2.9411968682
 11
-21.4817063471
 21
-2.945330862
  0
LINE
  5
2A7
100
AcDbEntity
  8
CURVE
100
AcDbLine
 62
253
  6
CONTINUOUS
 10
-21.496970676
 20
-2.7196641865
 11
-21.4834727792
 21
-2.9196488517
  0
LINE
  5
2A8
100
AcDbEntity
  8
CURVE
100
AcDbLine
 62
253
  6
CONTINUOUS
 10
-21.5184258162
 20
-2.3871095782
 11
-21.5187629255
 21
-2.3817253738
  0
LINE
  5
2A9
100
AcDbEntity
  8
CURVE
100
AcDbLine
 62
253
  6
CONTINUOUS
 10
-21.5520223995
 20
-1.8225367026
 11
-21.5516638074
 21
-1.8288957039
  0
LINE
  5
2AA
100
AcDbEntity
  8
CURVE
100
AcDbLine
 62
253
  6
CONTINUOUS
 10
-21.581473988
 20
-1.2696250396
 11
-21.5817806388
 21
-1.2635106185
  0
LINE
  5
2AB
100
AcDbEntity
  8
CURVE
100
AcDbLine
 62
253
  6
CONTINUOUS
 10
-21.6501399255
 20
0.413156248
 11
-21.6626227308
 21
0.8429114075
  0
LINE
  5
2AC
100
AcDbEntity
  8
CURVE
100
AcDbLine
 62
253
  6
CONTINUOUS
 10
-21.6723986492
 20
1.2430595096
 11
-21.6659888488
 21
0.972697749
  0
LINE
  5
2AD
100
AcDbEntity
  8
RACCORDO
100
AcDbLine
 62
7
  6
CONTINUOUS
 10
-16.4685915764
 20
-6.9023999434
 11
-16.4685915764
 21
-6.6409292633
  0
LINE
  5
2AE
100
AcDbEntity
  8
ASSI
100
AcDbLine
 62
7
  6
CONTINUOUS
 10
-16.4685915764
 20
-6.9023999434
 11
-16.4685915764
 21
-6.6409292633
  0
LINE
  5
2AF
100
AcDbEntity
  8
RACCORDO
100
AcDbLine
 62
7
  6
CONTINUOUS
 10
-16.0685915764
 20
10.9310916578
 11
-16.0685915764
 21
-2.0689083422
  0
LINE
  5
2B0
100
AcDbEntity
  8
ASSI
100
AcDbLine
 62
7
  6
CONTINUOUS
 10
-16.0685915764
 20
10.9310916578
 11
-16.0685915764
 21
-2.0689083422
  0
LINE
  5
2B1
100
AcDbEntity
  8
0
100
AcDbLine
 62
253
  6
CONTINUOUS
 10
-21.1958734364
 20
1.5405916578
 11
-21.6783334295
 21
1.5310916578
  0
LINE
  5
2B2
100
AcDbEntity
  8
ASSI
100
AcDbLine
 62
253
  6
CONTINUOUS
 10
-21.1958734364
 20
1.5405916578
 11
-21.6783334295
 21
1.5310916578
  0
LINE
  5
2B3
100
AcDbEntity
  8
0
100
AcDbLine
 62
7
  6
CONTINUOUS
 10
-16.8654591409
 20
-11.1771462828
 11
-16.0685915764
 21
-2.0689083422
  0
LINE
  5
2B4
100
AcDbEntity
  8
ASSI
100
AcDbLine
 62
7
  6
CONTINUOUS
 10
-16.8654591409
 20
-11.1771462828
 11
-16.0685915764
 21
-2.0689083422
  0
LINE
  5
2B5
100
AcDbEntity
  8
RACCORDO
100
AcDbLine
 62
253
  6
CONTINUOUS
 10
-16.0685915764
 20
10.681158279
 11
-21.285882004
 21
10.6356276752
  0
LINE
  5
2B6
100
AcDbEntity
  8
ASSI
100
AcDbLine
 62
253
  6
CONTINUOUS
 10
-16.0685915764
 20
10.681158279
 11
-21.285882004
 21
10.6356276752
  0
LINE
  5
2B7
100
AcDbEntity
  8
RACCORDO
100
AcDbLine
 62
7
  6
CONTINUOUS
 10
-16.0685915764
 20
10.9310916578
 11
-21.5206150694
 21
10.8835125696
  0
LINE
  5
2B8
100
AcDbEntity
  8
ASSI
100
AcDbLine
 62
7
  6
CONTINUOUS
 10
-16.0685915764
 20
10.9310916578
 11
-21.5206150694
 21
10.8835125696
  0
ARC
  5
2B9
100
AcDbEntity
  8
0
100
AcDbCircle
 62
253
  6
CONTINUOUS
 10
-2567.6283741346
 20
3.1972716087
 40
2563.3828049403
100
AcDbArc
 50
359.7010774351
 51
359.9627581626
  0
ARC
  5
2BA
100
AcDbEntity
  8
ASSI
100
AcDbCircle
 62
253
  6
CONTINUOUS
 10
-2567.6283741346
 20
3.1972716087
 40
2563.3828049403
100
AcDbArc
 50
359.7010774351
 51
359.9627581626
  0
ARC
  5
2BB
100
AcDbEntity
  8
0
100
AcDbCircle
 62
253
  6
CONTINUOUS
 10
2598.4389816471
 20
3.1854188647
 40
2559.3430982956
100
AcDbArc
 50
180.0370352741
 51
180.2991290426
  0
ARC
  5
2BC
100
AcDbEntity
  8
ASSI
100
AcDbCircle
 62
253
  6
CONTINUOUS
 10
2598.4389816471
 20
3.1854188647
 40
2559.3430982956
100
AcDbArc
 50
180.0370352741
 51
180.2991290426
  0
ARC
  5
2BD
100
AcDbEntity
  8
0
100
AcDbCircle
 62
253
  6
CONTINUOUS
 10
-2539.7255341415
 20
3.1975157681
 40
2534.9802695343
100
AcDbArc
 50
359.6994074901
 51
359.9625500971
  0
ARC
  5
2BE
100
AcDbEntity
  8
ASSI
100
AcDbCircle
 62
253
  6
CONTINUOUS
 10
-2539.7255341415
 20
3.1975157681
 40
2534.9802695343
100
AcDbArc
 50
359.6994074901
 51
359.9625500971
  0
ARC
  5
2BF
100
AcDbEntity
  8
0
100
AcDbCircle
 62
253
  6
CONTINUOUS
 10
2570.5809558156
 20
3.1857289096
 40
2530.9853770512
100
AcDbArc
 50
180.0372421857
 51
180.3008001355
  0
ARC
  5
2C0
100
AcDbEntity
  8
ASSI
100
AcDbCircle
 62
253
  6
CONTINUOUS
 10
2570.5809558156
 20
3.1857289096
 40
2530.9853770512
100
AcDbArc
 50
180.0372421857
 51
180.3008001355
  0
ARC
  5
2C1
100
AcDbEntity
  8
0
100
AcDbCircle
 62
253
  6
CONTINUOUS
 10
-4.295925601
 20
-10.525208622
 40
0.5006295735
100
AcDbArc
 50
180.1520810054
 51
269.8976844966
  0
ARC
  5
2C2
100
AcDbEntity
  8
ASSI
100
AcDbCircle
 62
253
  6
CONTINUOUS
 10
-4.295925601
 20
-10.525208622
 40
0.5006295735
100
AcDbArc
 50
180.1520810054
 51
269.8976844966
  0
ARC
  5
2C3
100
AcDbEntity
  8
0
100
AcDbCircle
 62
253
  6
CONTINUOUS
 10
39.1462268914
 20
-10.525208621
 40
0.5006295559
100
AcDbArc
 50
270.102315643
 51
359.8479188859
  0
ARC
  5
2C4
100
AcDbEntity
  8
ASSI
100
AcDbCircle
 62
253
  6
CONTINUOUS
 10
39.1462268914
 20
-10.525208621
 40
0.5006295559
100
AcDbArc
 50
270.102315643
 51
359.8479188859
  0
ARC
  5
2C5
100
AcDbEntity
  8
SUPERFICI
100
AcDbCircle
 62
7
  6
CONTINUOUS
 10
13.2771999518
 20
5.829586737
 40
0.402049306
100
AcDbArc
 50
180.0004689369
 51
183.7309092605
  0
ARC
  5
2C6
100
AcDbEntity
  8
SUPERFICI
100
AcDbCircle
 62
7
  6
CONTINUOUS
 10
21.5731013566
 20
5.8295867404
 40
0.4020492893
100
AcDbArc
 50
356.2680323005
 51
359.9995305818
  0
ARC
  5
2C7
100
AcDbEntity
  8
SUPERFICI
100
AcDbCircle
 62
7
  6
CONTINUOUS
 10
13.2738834932
 20
7.2294967053
 40
0.4015949525
100
AcDbArc
 50
90.000558983
 51
93.7325289332
  0
ARC
  5
2C8
100
AcDbEntity
  8
SUPERFICI
100
AcDbCircle
 62
7
  6
CONTINUOUS
 10
21.5764177945
 20
7.2294967059
 40
0.4015949519
100
AcDbArc
 50
86.266392329
 51
89.9994404664
  0
ARC
  5
2C9
100
AcDbEntity
  8
SUPERFICI
100
AcDbCircle
 62
7
  6
CONTINUOUS
 10
21.577045866
 20
5.8319874422
 40
0.4008957844
100
AcDbArc
 50
270.0004749669
 51
273.7335044273
  0
ARC
  5
2CA
100
AcDbEntity
  8
SUPERFICI
100
AcDbCircle
 62
7
  6
CONTINUOUS
 10
13.2732554293
 20
5.831987426
 40
0.4008957683
100
AcDbArc
 50
266.2654016501
 51
269.9995245205
  0
ARC
  5
2CB
100
AcDbEntity
  8
SUPERFICI
100
AcDbCircle
 62
7
  6
CONTINUOUS
 10
13.276009551
 20
7.2325958616
 40
0.4008589051
100
AcDbArc
 50
176.2644402398
 51
179.999423772
  0
ARC
  5
2CC
100
AcDbEntity
  8
SUPERFICI
100
AcDbCircle
 62
7
  6
CONTINUOUS
 10
21.5742917432
 20
7.2325958656
 40
0.4008589027
100
AcDbArc
 50
0.0005756542
 51
3.7344650532
  0
ARC
  5
2CD
100
AcDbEntity
  8
RACCORDO
100
AcDbCircle
 62
253
  6
CONTINUOUS
 10
39.3429375065
 20
10.6356164109
 40
0.2500124135
100
AcDbArc
 50
0.0025758274
 51
89.9602279768
  0
ARC
  5
2CE
100
AcDbEntity
  8
ASSI
100
AcDbCircle
 62
253
  6
CONTINUOUS
 10
39.3429375065
 20
10.6356164109
 40
0.2500124135
100
AcDbArc
 50
0.0025758274
 51
89.9602279768
  0
ARC
  5
2CF
100
AcDbEntity
  8
RACCORDO
100
AcDbCircle
 62
253
  6
CONTINUOUS
 10
-4.492637316
 20
10.6356175114
 40
0.2500110379
100
AcDbArc
 50
90.0395198316
 51
179.9976763475
  0
ARC
  5
2D0
100
AcDbEntity
  8
ASSI
100
AcDbCircle
 62
253
  6
CONTINUOUS
 10
-4.492637316
 20
10.6356175114
 40
0.2500110379
100
AcDbArc
 50
90.0395198316
 51
179.9976763475
  0
ARC
  5
2D1
100
AcDbEntity
  8
0
100
AcDbCircle
 62
7
  6
CONTINUOUS
 10
-19.6999878966
 20
-10.0272225794
 40
1.0
100
AcDbArc
 50
188.5737414447
 51
267.0
  0
ARC
  5
2D2
100
AcDbEntity
  8
ASSI
100
AcDbCircle
 62
7
  6
CONTINUOUS
 10
-19.6999878966
 20
-10.0272225794
 40
1.0
100
AcDbArc
 50
188.5737414447
 51
267.0
  0
ARC
  5
2D3
100
AcDbEntity
  8
0
100
AcDbCircle
 62
253
  6
CONTINUOUS
 10
-19.7174376436
 20
-10.0272225779
 40
0.5000000015
100
AcDbArc
 50
188.5737415857
 51
266.9999998591
  0
ARC
  5
2D4
100
AcDbEntity
  8
ASSI
100
AcDbCircle
 62
253
  6
CONTINUOUS
 10
-19.7174376436
 20
-10.0272225779
 40
0.5000000015
100
AcDbArc
 50
188.5737415857
 51
266.9999998591
  0
ARC
  5
2D5
100
AcDbEntity
  8
RACCORDO
100
AcDbCircle
 62
7
  6
CONTINUOUS
 10
-16.7685915764
 20
-6.9023999434
 40
0.3
100
AcDbArc
 50
334.9996147864
 51
360.0
  0
ARC
  5
2D6
100
AcDbEntity
  8
ASSI
100
AcDbCircle
 62
7
  6
CONTINUOUS
 10
-16.7685915764
 20
-6.9023999434
 40
0.3
100
AcDbArc
 50
334.9996147859
 51
360.0
  0
ARC
  5
2D7
100
AcDbEntity
  8
RACCORDO
100
AcDbCircle
 62
7
  6
CONTINUOUS
 10
-21.5184334054
 20
10.6335220891
 40
0.25
100
AcDbArc
 50
90.5000068928
 51
180.0455810216
  0
ARC
  5
2D8
100
AcDbEntity
  8
ASSI
100
AcDbCircle
 62
7
  6
CONTINUOUS
 10
-21.5184334054
 20
10.6335220891
 40
0.25
100
AcDbArc
 50
90.5000068928
 51
180.0455810216
  0
ARC
  5
2D9
100
AcDbEntity
  8
CURVE
100
AcDbCircle
 62
253
  6
CONTINUOUS
 10
68.0888612153
 20
3.2267293767
 40
89.7829656975
100
AcDbArc
 50
183.5860315658
 51
183.940180045
  0
ARC
  5
2DA
100
AcDbEntity
  8
CURVE
100
AcDbCircle
 62
253
  6
CONTINUOUS
 10
68.0818315221
 20
3.2262541534
 40
89.7759199934
100
AcDbArc
 50
183.5860504948
 51
183.9402437015
  0
ARC
  5
2DB
100
AcDbEntity
  8
CURVE
100
AcDbCircle
 62
253
  6
CONTINUOUS
 10
68.0737172221
 20
3.2318288272
 40
89.7681124439
100
AcDbArc
 50
182.1589824496
 51
182.5136201242
  0
ARC
  5
2DC
100
AcDbEntity
  8
CURVE
100
AcDbCircle
 62
253
  6
CONTINUOUS
 10
68.0497707795
 20
3.2274858239
 40
89.7439888943
100
AcDbArc
 50
182.8726981612
 51
183.2267017036
  0
ARC
  5
2DD
100
AcDbEntity
  8
CURVE
100
AcDbCircle
 62
253
  6
CONTINUOUS
 10
68.0448859029
 20
3.225595943
 40
89.7390054443
100
AcDbArc
 50
183.2257673373
 51
183.5819428464
  0
ARC
  5
2DE
100
AcDbEntity
  8
CURVE
100
AcDbCircle
 62
253
  6
CONTINUOUS
 10
68.0440753962
 20
3.2255321593
 40
89.7381925895
100
AcDbArc
 50
183.2256609907
 51
183.5819764469
  0
ARC
  5
2DF
100
AcDbEntity
  8
CURVE
100
AcDbCircle
 62
253
  6
CONTINUOUS
 10
67.828356795
 20
3.20983563
 40
89.5219154465
100
AcDbArc
 50
183.584492336
 51
183.9398931549
  0
ARC
  5
2E0
100
AcDbEntity
  8
CURVE
100
AcDbCircle
 62
253
  6
CONTINUOUS
 10
67.7647694632
 20
3.2192421627
 40
89.4589095499
100
AcDbArc
 50
182.1583737987
 51
182.5142505788
  0
ARC
  5
2E1
100
AcDbEntity
  8
CURVE
100
AcDbCircle
 62
253
  6
CONTINUOUS
 10
68.1604873583
 20
3.2316184972
 40
89.8547583157
100
AcDbArc
 50
183.5851196679
 51
183.9391909305
  0
ARC
  5
2E2
100
AcDbEntity
  8
CURVE
100
AcDbCircle
 62
253
  6
CONTINUOUS
 10
68.148163263
 20
3.2320303858
 40
89.8424841154
100
AcDbArc
 50
183.0237198749
 51
183.2251808071
  0
ARC
  5
2E3
100
AcDbEntity
  8
CURVE
100
AcDbCircle
 62
253
  6
CONTINUOUS
 10
68.1455960318
 20
3.2318836796
 40
89.8399127207
100
AcDbArc
 50
183.0236395795
 51
183.2251806363
  0
ARC
  5
2E4
100
AcDbEntity
  8
CURVE
100
AcDbCircle
 62
253
  6
CONTINUOUS
 10
68.4940401282
 20
3.2558784195
 40
90.1891981306
100
AcDbArc
 50
184.298521425
 51
184.6525567046
  0
ARC
  5
2E5
100
AcDbEntity
  8
CURVE
100
AcDbCircle
 62
253
  6
CONTINUOUS
 10
68.412878714
 20
3.2472474792
 40
90.1076337255
100
AcDbArc
 50
182.8732997095
 51
183.0245034657
  0
ARC
  5
2E6
100
AcDbEntity
  8
CURVE
100
AcDbCircle
 62
253
  6
CONTINUOUS
 10
68.4117316271
 20
3.2471794085
 40
90.1064846442
100
AcDbArc
 50
182.873300123
 51
183.024425716
  0
ARC
  5
2E7
100
AcDbEntity
  8
CURVE
100
AcDbCircle
 62
253
  6
CONTINUOUS
 10
68.3790963003
 20
3.2439967872
 40
90.0737309246
100
AcDbArc
 50
182.5128334483
 51
182.8684174726
  0
ARC
  5
2E8
100
AcDbEntity
  8
CURVE
100
AcDbCircle
 62
253
  6
CONTINUOUS
 10
68.3625708422
 20
3.2451218281
 40
90.0572922561
100
AcDbArc
 50
183.9415656326
 51
184.296107147
  0
ARC
  5
2E9
100
AcDbEntity
  8
CURVE
100
AcDbCircle
 62
253
  6
CONTINUOUS
 10
68.3343777625
 20
3.2419524426
 40
90.0289703783
100
AcDbArc
 50
181.4443411909
 51
181.7998588913
  0
ARC
  5
2EA
100
AcDbEntity
  8
CURVE
100
AcDbCircle
 62
253
  6
CONTINUOUS
 10
68.3333249867
 20
3.2430533061
 40
90.0279735215
100
AcDbArc
 50
183.9398535833
 51
184.2952140673
  0
ARC
  5
2EB
100
AcDbEntity
  8
CURVE
100
AcDbCircle
 62
253
  6
CONTINUOUS
 10
68.3219663528
 20
3.2423951014
 40
90.0165974956
100
AcDbArc
 50
184.2981621139
 51
184.6528868473
  0
ARC
  5
2EC
100
AcDbEntity
  8
0
100
AcDbCircle
 62
7
  6
CONTINUOUS
 10
68.3054201038
 20
3.2410916578
 40
90.0
100
AcDbArc
 50
181.08868532
 51
188.5737414447
  0
ARC
  5
2ED
100
AcDbEntity
  8
ASSI
100
AcDbCircle
 62
7
  6
CONTINUOUS
 10
68.3054201038
 20
3.2410916578
 40
90.0
100
AcDbArc
 50
181.08868532
 51
188.5737414447
  0
ARC
  5
2EE
100
AcDbEntity
  8
CURVE
100
AcDbCircle
 62
253
  6
CONTINUOUS
 10
68.3054201038
 20
3.2410916578
 40
90.0
100
AcDbArc
 50
182.5121431757
 51
183.7975147837
  0
ARC
  5
2EF
100
AcDbEntity
  8
CURVE
100
AcDbCircle
 62
253
  6
CONTINUOUS
 10
68.2435570435
 20
3.2365392609
 40
89.9379697867
100
AcDbArc
 50
183.9413109351
 51
184.2963406008
  0
ARC
  5
2F0
100
AcDbEntity
  8
CURVE
100
AcDbCircle
 62
253
  6
CONTINUOUS
 10
68.2323771185
 20
3.2390464909
 40
89.926928701
100
AcDbArc
 50
181.4441276846
 51
181.8000636574
  0
ARC
  5
2F1
100
AcDbEntity
  8
CURVE
100
AcDbCircle
 62
253
  6
CONTINUOUS
 10
68.2004085173
 20
3.2334778866
 40
89.894713097
100
AcDbArc
 50
183.9396436331
 51
184.2954782666
  0
ARC
  5
2F2
100
AcDbEntity
  8
0
100
AcDbCircle
 62
253
  6
CONTINUOUS
 10
68.2879703573
 20
3.2410916579
 40
89.5000000019
100
AcDbArc
 50
181.0886853201
 51
188.5737414446
  0
ARC
  5
2F3
100
AcDbEntity
  8
ASSI
100
AcDbCircle
 62
253
  6
CONTINUOUS
 10
68.2879703573
 20
3.2410916579
 40
89.5000000019
100
AcDbArc
 50
181.0886853201
 51
188.5737414446
  0
ARC
  5
2F4
100
AcDbEntity
  8
RACCORDO
100
AcDbCircle
 62
7
  6
CONTINUOUS
 10
478.2314084236
 20
11.0310916578
 40
500.0
100
AcDbArc
 50
180.045580912
 51
181.08868532
  0
ARC
  5
2F5
100
AcDbEntity
  8
ASSI
100
AcDbCircle
 62
7
  6
CONTINUOUS
 10
478.2314084236
 20
11.0310916578
 40
500.0
100
AcDbArc
 50
180.045580912
 51
181.08868532
  0
ARC
  5
2F6
100
AcDbEntity
  8
RACCORDO
100
AcDbCircle
 62
253
  6
CONTINUOUS
 10
478.1888867078
 20
11.0307065122
 40
499.4749253344
100
AcDbArc
 50
180.0453202977
 51
181.0886957922
  0
ARC
  5
2F7
100
AcDbEntity
  8
ASSI
100
AcDbCircle
 62
253
  6
CONTINUOUS
 10
478.1888867078
 20
11.0307065122
 40
499.4749253344
100
AcDbArc
 50
180.0453202977
 51
181.0886957922
  0
SPLINE
  5
2F8
100
AcDbEntity
  8
SUPERFICI
100
AcDbSpline
 62
7
  6
CONTINUOUS
 70
0
 71
3
 72
23
 73
19
 74
17
 42
0.0000001
 43
0.0000001
 44
0.0000000001
 12
-0.0373933977
 22
0.5728934317
 32
0.0
 13
-0.5728938165
 23
0.0373849722
 33
0.0
 40
0.0
 40
0.0
 40
0.0
 40
0.0
 40
0.0227624385
 40
0.0912783971
 40
0.1596589011
 40
0.2276200343
 40
0.2955485644
 40
0.3637816853
 40
0.431984831
 40
0.4998306796
 40
0.5676700012
 40
0.6358795281
 40
0.7041611229
 40
0.7721606806
 40
0.840172955
 40
0.9086013743
 40
0.9772044438
 40
1.0
 40
1.0
 40
1.0
 40
1.0
 10
21.9742994699
 20
7.2587048367
 30
0.0
 10
21.9740157483
 20
7.2630516539
 30
0.0
 10
21.9725937569
 20
7.2804646534
 30
0.0
 10
21.9681145355
 20
7.3107196861
 30
0.0
 10
21.9585823354
 20
7.3487915261
 30
0.0
 10
21.9454040501
 20
7.3856386518
 30
0.0
 10
21.9286975114
 20
7.4209952511
 30
0.0
 10
21.9085787792
 20
7.4545827068
 30
0.0
 10
21.8852627303
 20
7.4860152613
 30
0.0
 10
21.8590255097
 20
7.51495134
 30
0.0
 10
21.8300810311
 20
7.541181061
 30
0.0
 10
21.7986351621
 20
7.5644946085
 30
0.0
 10
21.765022415
 20
7.5846180267
 30
0.0
 10
21.7296325596
 20
7.6013306973
 30
0.0
 10
21.6927523338
 20
7.6145129599
 30
0.0
 10
21.6546448952
 20
7.624049351
 30
0.0
 10
21.624357811
 20
7.6285317333
 30
0.0
 10
21.6069218541
 20
7.62995524
 30
0.0
 10
21.6025687097
 20
7.6302393104
 30
0.0
 11
21.9742994699
 21
7.2587048367
 31
0.0
 11
21.9732357135
 21
7.2717291353
 31
0.0
 11
21.9674771615
 21
7.3106201018
 31
0.0
 11
21.9579460825
 21
7.3486821729
 31
0.0
 11
21.94481287
 21
7.3854007704
 31
0.0
 11
21.9281599068
 21
7.4206421771
 31
0.0
 11
21.9080403767
 21
7.4542299403
 31
0.0
 11
21.8847245452
 21
7.4856617517
 31
0.0
 11
21.8585743654
 21
7.5145018244
 31
0.0
 11
21.8297297146
 21
7.5406413773
 31
0.0
 11
21.7982891646
 21
7.5639515724
 31
0.0
 11
21.7646730274
 21
7.5840778602
 31
0.0
 11
21.7293911567
 21
7.6007405841
 31
0.0
 11
21.6926424955
 21
7.6138768758
 31
0.0
 11
21.6545526706
 21
7.6234103074
 31
0.0
 11
21.6156119757
 21
7.6291742721
 31
0.0
 11
21.6025687097
 21
7.6302393104
 31
0.0
  0
LINE
  5
2F9
100
AcDbEntity
  8
SUPERFICI
100
AcDbLine
 62
7
  6
CONTINUOUS
 10
21.9751506458
 20
5.8295834464
 11
21.9751506458
 21
6.0374354717
  0
LINE
  5
2FA
100
AcDbEntity
  8
SUPERFICI
100
AcDbLine
 62
7
  6
CONTINUOUS
 10
21.9751506458
 20
6.0374354717
 11
21.9751506458
 21
6.0893986005
  0
LINE
  5
2FB
100
AcDbEntity
  8
SUPERFICI
100
AcDbLine
 62
7
  6
CONTINUOUS
 10
21.9751506458
 20
6.0893986005
 11
21.9751506458
 21
6.2972515919
  0
LINE
  5
2FC
100
AcDbEntity
  8
SUPERFICI
100
AcDbLine
 62
7
  6
CONTINUOUS
 10
21.9751506458
 20
6.2972515919
 11
21.9751506458
 21
6.5051055025
  0
LINE
  5
2FD
100
AcDbEntity
  8
SUPERFICI
100
AcDbLine
 62
7
  6
CONTINUOUS
 10
21.9751506458
 20
6.5051055025
 11
21.9751506458
 21
6.5570690874
  0
LINE
  5
2FE
100
AcDbEntity
  8
SUPERFICI
100
AcDbLine
 62
7
  6
CONTINUOUS
 10
21.9751506458
 20
6.5570690874
 11
21.9751506458
 21
6.7649238698
  0
LINE
  5
2FF
100
AcDbEntity
  8
SUPERFICI
100
AcDbLine
 62
7
  6
CONTINUOUS
 10
21.9751506458
 20
6.7649238698
 11
21.9751506458
 21
6.9727794891
  0
LINE
  5
300
100
AcDbEntity
  8
SUPERFICI
100
AcDbLine
 62
7
  6
CONTINUOUS
 10
21.9751506458
 20
6.9727794891
 11
21.9751506458
 21
7.0247434933
  0
LINE
  5
301
100
AcDbEntity
  8
SUPERFICI
100
AcDbLine
 62
7
  6
CONTINUOUS
 10
21.9751506458
 20
7.0247434933
 11
21.9751506458
 21
7.2325998931
  0
SPLINE
  5
302
100
AcDbEntity
  8
SUPERFICI
100
AcDbSpline
 62
7
  6
CONTINUOUS
 70
0
 71
3
 72
23
 73
19
 74
17
 42
0.0000001
 43
0.0000001
 44
0.0000000001
 12
0.5724305079
 22
0.0373545532
 32
0.0
 13
0.0373392303
 23
0.5724312226
 33
0.0
 40
0.0
 40
0.0
 40
0.0
 40
0.0
 40
0.0227734797
 40
0.0913061118
 40
0.1596825666
 40
0.2276240875
 40
0.2955224771
 40
0.363719376
 40
0.4318847397
 40
0.4996959305
 40
0.5675057766
 40
0.635696583
 40
0.7039733749
 40
0.7719844587
 40
0.8400235209
 40
0.9084995609
 40
0.9771748682
 40
1.0
 40
1.0
 40
1.0
 40
1.0
 10
21.6031505321
 20
5.4319424742
 30
0.0
 10
21.6074959436
 20
5.4322260386
 30
0.0
 10
21.6249001628
 20
5.4336469773
 30
0.0
 10
21.6551353661
 20
5.4381221101
 30
0.0
 10
21.6931755199
 20
5.4476446692
 30
0.0
 10
21.7299836443
 20
5.4608074814
 30
0.0
 10
21.7652971496
 20
5.4774927311
 30
0.0
 10
21.798840329
 20
5.4975850318
 30
0.0
 10
21.8302300707
 20
5.5208708212
 30
0.0
 10
21.8591267104
 20
5.5470755247
 30
0.0
 10
21.8853219902
 20
5.5759872216
 30
0.0
 10
21.9086071091
 20
5.6074021597
 30
0.0
 10
21.9287087534
 20
5.6409883549
 30
0.0
 10
21.9454058819
 20
5.6763576405
 30
0.0
 10
21.9585783439
 20
5.7132251781
 30
0.0
 10
21.9681098685
 20
5.7513299839
 30
0.0
 10
21.9725906675
 20
5.7816211505
 30
0.0
 10
21.9740139924
 20
5.7990624506
 30
0.0
 10
21.9742980833
 20
5.8034177233
 30
0.0
 11
21.6031505321
 21
5.4319424742
 31
0.0
 11
21.6161706257
 21
5.4330056474
 31
0.0
 11
21.65503977
 21
5.4387597717
 31
0.0
 11
21.6930691516
 21
5.4482812045
 31
0.0
 11
21.7297478852
 21
5.4613988374
 31
0.0
 11
21.7649454683
 21
5.4780303123
 31
0.0
 11
21.7984881767
 21
5.4981230257
 31
0.0
 11
21.8298764494
 21
5.5214080677
 31
0.0
 11
21.8586769054
 21
5.547525486
 31
0.0
 11
21.8847814615
 21
5.5763365603
 31
0.0
 11
21.9080629975
 21
5.6077455933
 31
0.0
 11
21.9281674452
 21
5.6413346654
 31
0.0
 11
21.9448149809
 21
5.6765961197
 31
0.0
 11
21.9579414138
 21
5.7133310981
 31
0.0
 11
21.9674700783
 21
5.7514175273
 31
0.0
 11
21.9732329756
 21
5.7903680663
 31
0.0
 11
21.9742980833
 21
5.8034177233
 31
0.0
  0
SPLINE
  5
303
100
AcDbEntity
  8
SUPERFICI
100
AcDbSpline
 62
7
  6
CONTINUOUS
 70
0
 71
3
 72
23
 73
19
 74
17
 42
0.0000001
 43
0.0000001
 44
0.0000000001
 12
0.0373286304
 22
-0.5724315295
 32
0.0
 13
0.5724297311
 23
-0.0373654784
 33
0.0
 40
0.0
 40
0.0
 40
0.0
 40
0.0
 40
0.0228206867
 40
0.0914901968
 40
0.1599901218
 40
0.228039051
 40
0.2960313262
 40
0.364298113
 40
0.432505487
 40
0.5003281624
 40
0.5681263596
 40
0.6362752733
 40
0.7044822265
 40
0.7723992521
 40
0.8403304486
 40
0.90868309
 40
0.977221832
 40
1.0
 40
1.0
 40
1.0
 40
1.0
 10
12.876002725
 20
5.8034251302
 30
0.0
 10
12.87628668
 20
5.7990707034
 30
0.0
 10
12.8777094668
 20
5.7816313373
 30
0.0
 10
12.8821897628
 20
5.7513374789
 30
0.0
 10
12.8917219755
 20
5.7132272942
 30
0.0
 10
12.9048956977
 20
5.6763571649
 30
0.0
 10
12.9215913102
 20
5.6409912342
 30
0.0
 10
12.941691083
 20
5.6074066929
 30
0.0
 10
12.9649779633
 20
5.5759884166
 30
0.0
 10
12.9911755499
 20
5.5470745585
 30
0.0
 10
13.0200699722
 20
5.5208722064
 30
0.0
 10
13.0514563459
 20
5.4975881893
 30
0.0
 10
13.0850011462
 20
5.477494025
 30
0.0
 10
13.1203178707
 20
5.4608073051
 30
0.0
 10
13.1571232609
 20
5.4476457668
 30
0.0
 10
13.19515798
 20
5.4381238586
 30
0.0
 10
13.2253905816
 20
5.4336481758
 30
0.0
 10
13.2427968262
 20
5.4322266784
 30
0.0
 10
13.2471431264
 20
5.4319429727
 30
0.0
 11
12.876002725
 21
5.8034251302
 31
0.0
 11
12.877067342
 21
5.7903779998
 31
0.0
 11
12.882828618
 21
5.7514305967
 31
0.0
 11
12.8923599854
 21
5.7133307433
 31
0.0
 11
12.9054886111
 21
5.6765905573
 31
0.0
 11
12.9221315904
 21
5.6413388941
 31
0.0
 11
12.9422324359
 21
5.6077543693
 31
0.0
 11
12.9655191599
 21
5.5763373772
 31
0.0
 11
12.9916288347
 21
5.5475210357
 31
0.0
 11
13.020423929
 21
5.5214088177
 31
0.0
 11
13.0518042676
 21
5.4981289366
 31
0.0
 11
13.085351515
 21
5.4780326128
 31
0.0
 11
13.1205587639
 21
5.46139662
 31
0.0
 11
13.1572320025
 21
5.4482812462
 31
0.0
 11
13.1952479579
 21
5.4387624674
 31
0.0
 11
13.2341203781
 21
5.433006657
 31
0.0
 11
13.2471431264
 21
5.4319429727
 31
0.0
  0
LINE
  5
304
100
AcDbEntity
  8
SUPERFICI
100
AcDbLine
 62
7
  6
CONTINUOUS
 10
12.8751506458
 20
7.232599893
 11
12.8751506459
 21
7.0247434931
  0
LINE
  5
305
100
AcDbEntity
  8
SUPERFICI
100
AcDbLine
 62
7
  6
CONTINUOUS
 10
12.8751506459
 20
7.0247434931
 11
12.8751506459
 21
6.9727794893
  0
LINE
  5
306
100
AcDbEntity
  8
SUPERFICI
100
AcDbLine
 62
7
  6
CONTINUOUS
 10
12.8751506459
 20
6.9727794893
 11
12.8751506459
 21
6.7649238859
  0
LINE
  5
307
100
AcDbEntity
  8
SUPERFICI
100
AcDbLine
 62
7
  6
CONTINUOUS
 10
12.8751506459
 20
6.7649238859
 11
12.8751506459
 21
6.5570690877
  0
LINE
  5
308
100
AcDbEntity
  8
SUPERFICI
100
AcDbLine
 62
7
  6
CONTINUOUS
 10
12.8751506459
 20
6.5570690877
 11
12.8751506459
 21
6.5051055026
  0
LINE
  5
309
100
AcDbEntity
  8
SUPERFICI
100
AcDbLine
 62
7
  6
CONTINUOUS
 10
12.8751506459
 20
6.5051055026
 11
12.8751506459
 21
6.2972515952
  0
LINE
  5
30A
100
AcDbEntity
  8
SUPERFICI
100
AcDbLine
 62
7
  6
CONTINUOUS
 10
12.8751506459
 20
6.2972515952
 11
12.8751506459
 21
6.0893986006
  0
LINE
  5
30B
100
AcDbEntity
  8
SUPERFICI
100
AcDbLine
 62
7
  6
CONTINUOUS
 10
12.8751506459
 20
6.0893986006
 11
12.8751506459
 21
6.0374354715
  0
LINE
  5
30C
100
AcDbEntity
  8
SUPERFICI
100
AcDbLine
 62
7
  6
CONTINUOUS
 10
12.8751506459
 20
6.0374354715
 11
12.8751506458
 21
5.8295834464
  0
SPLINE
  5
30D
100
AcDbEntity
  8
SUPERFICI
100
AcDbSpline
 62
7
  6
CONTINUOUS
 70
0
 71
3
 72
23
 73
19
 74
17
 42
0.0000001
 43
0.0000001
 44
0.0000000001
 12
-0.5728942614
 22
-0.0373741694
 32
0.0
 13
-0.0374043475
 23
-0.5728927836
 33
0.0
 40
0.0
 40
0.0
 40
0.0
 40
0.0
 40
0.0227908498
 40
0.0913877727
 40
0.1598399068
 40
0.2278622464
 40
0.2958431797
 40
0.3641148304
 40
0.4323409186
 40
0.5001930816
 40
0.568025988
 40
0.6362126247
 40
0.7044557186
 40
0.7724027938
 40
0.8403536431
 40
0.90871048
 40
0.9772327384
 40
1.0
 40
1.0
 40
1.0
 40
1.0
 10
13.2477401231
 20
7.6302398026
 30
0.0
 10
13.2433878741
 20
7.629955873
 30
0.0
 10
13.2259539648
 20
7.6285329231
 30
0.0
 10
13.1956643238
 20
7.6240510935
 30
0.0
 10
13.1575515412
 20
7.6145140749
 30
0.0
 10
13.1206686586
 20
7.6013305797
 30
0.0
 10
13.0852820597
 20
7.5846194201
 30
0.0
 10
13.0516709057
 20
7.5644978721
 30
0.0
 10
13.0202216627
 20
7.54118257
 30
0.0
 10
12.9912749894
 20
7.514950546
 30
0.0
 10
12.9650400981
 20
7.4860166949
 30
0.0
 10
12.94172581
 20
7.4545875313
 30
0.0
 10
12.9216052092
 20
7.4209984969
 30
0.0
 10
12.9048971793
 20
7.3856387036
 30
0.0
 10
12.8917201314
 20
7.3487942987
 30
0.0
 10
12.8821885402
 20
7.3107278248
 30
0.0
 10
12.8777087434
 20
7.2804753011
 30
0.0
 10
12.8762861855
 20
7.2630602088
 30
0.0
 10
12.8760023206
 20
7.2587124755
 30
0.0
 11
13.2477401231
 21
7.6302398026
 31
0.0
 11
13.2346995317
 21
7.6291752743
 31
0.0
 11
13.1957621593
 21
7.623412997
 31
0.0
 11
13.1576589735
 21
7.6138769296
 31
0.0
 11
13.1209049692
 21
7.600738447
 31
0.0
 11
13.0856327777
 21
7.5840802688
 31
0.0
 11
13.0520211384
 21
7.5639575894
 31
0.0
 11
13.0205726034
 21
7.5406422196
 31
0.0
 11
12.9917226526
 21
7.514497552
 31
0.0
 11
12.9655776342
 21
7.4856628328
 31
0.0
 11
12.9422669644
 21
7.4542389955
 31
0.0
 11
12.9221438187
 21
7.4206467352
 31
0.0
 11
12.9054863258
 21
7.3853957067
 31
0.0
 11
12.8923553353
 21
7.3486825887
 31
0.0
 11
12.8828268671
 21
7.3106338703
 31
0.0
 11
12.8770665966
 21
7.2717395108
 31
0.0
 11
12.8760023206
 21
7.2587124755
 31
0.0
  0
LINE
  5
30E
100
AcDbEntity
  8
RACCORDO
100
AcDbLine
 62
7
  6
CONTINUOUS
 10
21.9751506458
 20
7.2325998932
 11
21.9751506458
 21
6.9987614432
  0
LINE
  5
30F
100
AcDbEntity
  8
RACCORDO
100
AcDbLine
 62
7
  6
CONTINUOUS
 10
21.9751506458
 20
6.9987614432
 11
21.9751506458
 21
6.7649238751
  0
LINE
  5
310
100
AcDbEntity
  8
RACCORDO
100
AcDbLine
 62
7
  6
CONTINUOUS
 10
21.9751506458
 20
6.7649238751
 11
21.9751506458
 21
6.5310872403
  0
LINE
  5
311
100
AcDbEntity
  8
RACCORDO
100
AcDbLine
 62
7
  6
CONTINUOUS
 10
21.9751506458
 20
6.5310872403
 11
21.9751506458
 21
6.2972515898
  0
LINE
  5
312
100
AcDbEntity
  8
RACCORDO
100
AcDbLine
 62
7
  6
CONTINUOUS
 10
21.9751506458
 20
6.2972515898
 11
21.9751506458
 21
6.0634169747
  0
LINE
  5
313
100
AcDbEntity
  8
RACCORDO
100
AcDbLine
 62
7
  6
CONTINUOUS
 10
21.9751506458
 20
6.0634169747
 11
21.9751506458
 21
5.8295834463
  0
LINE
  5
314
100
AcDbEntity
  8
RACCORDO
100
AcDbLine
 62
7
  6
CONTINUOUS
 10
12.8751506458
 20
5.8295834463
 11
12.8751506458
 21
7.2325998932
  0
SPLINE
  5
315
100
AcDbEntity
  8
RACCORDO
100
AcDbSpline
 62
7
  6
CONTINUOUS
 70
0
 71
3
 72
23
 73
19
 74
17
 42
0.0000001
 43
0.0000001
 44
0.0000000001
 12
-0.6256304749
 22
0.0
 32
0.0
 13
0.0
 23
0.6256304749
 33
0.0
 40
0.0
 40
0.0
 40
0.0
 40
0.0
 40
0.0625348873
 40
0.125302776
 40
0.1879610843
 40
0.2502495145
 40
0.3125069208
 40
0.3750288287
 40
0.4375113249
 40
0.4996701031
 40
0.5618372342
 40
0.6243553179
 40
0.6869429983
 40
0.7492898499
 40
0.811675364
 40
0.8744418063
 40
0.9373328547
 40
1.0
 40
1.0
 40
1.0
 40
1.0
 10
13.2732521023
 20
5.4310916578
 30
0.0
 10
13.2602108585
 20
5.4310916578
 30
0.0
 10
13.2340617787
 20
5.4323680939
 30
0.0
 10
13.1952257795
 20
5.4381106548
 30
0.0
 10
13.1571871662
 20
5.4476258374
 30
0.0
 10
13.1203661017
 20
5.4607867816
 30
0.0
 10
13.0850349747
 20
5.4774755875
 30
0.0
 10
13.0514775247
 20
5.4975734904
 30
0.0
 10
13.0200779999
 20
5.520864872
 30
0.0
 10
12.9911727829
 20
5.5470767531
 30
0.0
 10
12.964968833
 20
5.5759991623
 30
0.0
 10
12.941677119
 20
5.6074269211
 30
0.0
 10
12.9215718362
 20
5.6410263498
 30
0.0
 10
12.9048728214
 20
5.6764108725
 30
0.0
 10
12.8917017486
 20
5.7132935761
 30
0.0
 10
12.8821777507
 20
5.7514005719
 30
0.0
 10
12.8764286992
 20
5.7903122655
 30
0.0
 10
12.8751506458
 20
5.816514621
 30
0.0
 10
12.8751506458
 20
5.8295834463
 30
0.0
 11
13.2732521023
 21
5.4310916578
 31
0.0
 11
13.2341750039
 21
5.4330012993
 31
0.0
 11
13.1953280483
 21
5.4387465571
 31
0.0
 11
13.1572992144
 21
5.4482608645
 31
0.0
 11
13.1206036479
 21
5.4613780465
 31
0.0
 11
13.0853852255
 21
5.4780146148
 31
0.0
 11
13.0518280505
 21
5.4981130481
 31
0.0
 11
13.0204319351
 21
5.5214022431
 31
0.0
 11
12.9916242863
 21
5.547525586
 31
0.0
 11
12.9655100207
 21
5.5763485157
 31
0.0
 11
12.9422205645
 21
5.6077721546
 31
0.0
 11
12.9221137769
 21
5.641372288
 31
0.0
 11
12.9054652882
 21
5.6766469661
 31
0.0
 11
12.8923379683
 21
5.7134034095
 31
0.0
 11
12.8828148858
 21
5.7514997844
 31
0.0
 11
12.8770628704
 21
5.7904236308
 31
0.0
 11
12.8751506458
 21
5.8295834463
 31
0.0
  0
SPLINE
  5
316
100
AcDbEntity
  8
RACCORDO
100
AcDbSpline
 62
7
  6
CONTINUOUS
 70
0
 71
3
 72
23
 73
19
 74
17
 42
0.0000001
 43
0.0000001
 44
0.0000000001
 12
-0.0
 22
0.6260794102
 32
0.0
 13
0.6260794102
 23
0.0
 33
0.0
 40
0.0
 40
0.0
 40
0.0
 40
0.0
 40
0.0625064794
 40
0.125265243
 40
0.1879314833
 40
0.2502417825
 40
0.3125316189
 40
0.3750924245
 40
0.4376158557
 40
0.4998130445
 40
0.5620138933
 40
0.624555553
 40
0.6871533927
 40
0.7494944038
 40
0.8118588393
 40
0.874584964
 40
0.9374149203
 40
1.0
 40
1.0
 40
1.0
 40
1.0
 10
12.8751506458
 20
7.2325998932
 30
0.0
 10
12.8751506458
 20
7.2456445665
 30
0.0
 10
12.8764282751
 20
7.2718045673
 30
0.0
 10
12.8821757551
 20
7.3106620743
 30
0.0
 10
12.8917006376
 20
7.3487317181
 30
0.0
 10
12.9048768659
 20
7.3855909135
 30
0.0
 10
12.921586749
 20
7.4209646099
 30
0.0
 10
12.941711054
 20
7.4545662788
 30
0.0
 10
12.9650329031
 20
7.4860088609
 30
0.0
 10
12.9912777129
 20
7.5149538694
 30
0.0
 10
13.0202334065
 20
7.5411925432
 30
0.0
 10
13.0516924999
 20
7.5645127597
 30
0.0
 10
13.0853185413
 20
7.5846396156
 30
0.0
 10
13.1207231068
 20
7.6013537314
 30
0.0
 10
13.1576174136
 20
7.6145341362
 30
0.0
 10
13.1957259409
 20
7.624062791
 30
0.0
 10
13.2346272337
 20
7.6298132737
 30
0.0
 10
13.2608184985
 20
7.6310916578
 30
0.0
 10
13.2738795751
 20
7.6310916578
 30
0.0
 11
12.8751506458
 21
7.2325998932
 31
0.0
 11
12.877061468
 21
7.2716872347
 31
0.0
 11
12.8828114354
 21
7.3105562037
 31
0.0
 11
12.8923353661
 21
7.3486167457
 31
0.0
 11
12.905467856
 21
7.3853510767
 31
0.0
 11
12.9221257068
 21
7.4206128118
 31
0.0
 11
12.9422509552
 21
7.4542150309
 31
0.0
 11
12.9655711757
 21
7.4856549673
 31
0.0
 11
12.9917277326
 21
7.5145026305
 31
0.0
 11
13.0205847977
 21
7.540652227
 31
0.0
 11
13.0520404158
 21
7.5639704598
 31
0.0
 11
13.0856677354
 21
7.5840989221
 31
0.0
 11
13.1209623496
 21
7.6007621799
 31
0.0
 11
13.1577311909
 21
7.6138988191
 31
0.0
 11
13.1958294765
 21
7.6234263636
 31
0.0
 11
13.2347430283
 21
7.6291795386
 31
0.0
 11
13.2738795751
 21
7.6310916578
 31
0.0
  0
SPLINE
  5
317
100
AcDbEntity
  8
RACCORDO
100
AcDbSpline
 62
7
  6
CONTINUOUS
 70
0
 71
3
 72
23
 73
19
 74
17
 42
0.0000001
 43
0.0000001
 44
0.0000000001
 12
0.0
 22
-0.6256304749
 32
0.0
 13
-0.6256304749
 23
0.0
 33
0.0
 40
0.0
 40
0.0
 40
0.0
 40
0.0
 40
0.0626702289
 40
0.1255649537
 40
0.1883377991
 40
0.2507257318
 40
0.3130696196
 40
0.3756555984
 40
0.4381764296
 40
0.5003456957
 40
0.5625023603
 40
0.6249821737
 40
0.6875058217
 40
0.7497661681
 40
0.8120520785
 40
0.8747039402
 40
0.9374681374
 40
1.0
 40
1.0
 40
1.0
 40
1.0
 10
21.9751506458
 20
5.8295834463
 30
0.0
 10
21.9751506458
 20
5.8165139779
 30
0.0
 10
21.9738724606
 20
5.7903102099
 30
0.0
 10
21.9681227071
 20
5.7513958342
 30
0.0
 10
21.9585974783
 20
5.7132864407
 30
0.0
 10
21.9454251596
 20
5.6764028774
 30
0.0
 10
21.9287255629
 20
5.6410191557
 30
0.0
 10
21.9086198648
 20
5.6074204468
 30
0.0
 10
21.8853271422
 20
5.5759926007
 30
0.0
 10
21.8591221279
 20
5.5470703691
 30
0.0
 10
21.8302167156
 20
5.5208595377
 30
0.0
 10
21.7988172545
 20
5.497569152
 30
0.0
 10
21.7652590667
 20
5.4774716614
 30
0.0
 10
21.7299271517
 20
5.4607834517
 30
0.0
 10
21.6931069787
 20
5.4476237689
 30
0.0
 10
21.6550707955
 20
5.438109825
 30
0.0
 10
21.6162374788
 20
5.4323679636
 30
0.0
 10
21.5900898023
 20
5.4310916578
 30
0.0
 10
21.5770491894
 20
5.4310916578
 30
0.0
 11
21.9751506458
 21
5.8295834463
 31
0.0
 11
21.973238233
 21
5.7904217085
 31
0.0
 11
21.9674855819
 21
5.7514956309
 31
0.0
 11
21.9579609332
 21
5.7133955184
 31
0.0
 11
21.9448322748
 21
5.6766379462
 31
0.0
 11
21.9281837951
 21
5.6413653143
 31
0.0
 11
21.9080769311
 21
5.6077664673
 31
0.0
 11
21.8847858421
 21
5.576341899
 31
0.0
 11
21.8586700091
 21
5.5475185869
 31
0.0
 11
21.8298627317
 21
5.521396803
 31
0.0
 11
21.7984675104
 21
5.49810922
 31
0.0
 11
21.7649090248
 21
5.478010856
 31
0.0
 11
21.7296885666
 21
5.461374291
 31
0.0
 11
21.6929941869
 21
5.4482584726
 31
0.0
 11
21.6549691169
 21
5.4387457378
 31
0.0
 11
21.6161244021
 21
5.4330011145
 31
0.0
 11
21.5770491894
 21
5.4310916578
 31
0.0
  0
SPLINE
  5
318
100
AcDbEntity
  8
RACCORDO
100
AcDbSpline
 62
7
  6
CONTINUOUS
 70
0
 71
3
 72
23
 73
19
 74
17
 42
0.0000001
 43
0.0000001
 44
0.0000000001
 12
0.6260794102
 22
0.0
 32
0.0
 13
-0.0
 23
-0.6260794102
 33
0.0
 40
0.0
 40
0.0
 40
0.0
 40
0.0
 40
0.0625881422
 40
0.1254217627
 40
0.1881542833
 40
0.2505211627
 40
0.3128592232
 40
0.3754553554
 40
0.4379997474
 40
0.5002027209
 40
0.5623977915
 40
0.6249185204
 40
0.6874810527
 40
0.7497738282
 40
0.8120816345
 40
0.8747414598
 40
0.937496554
 40
1.0
 40
1.0
 40
1.0
 40
1.0
 10
21.5764217166
 20
7.6310916578
 30
0.0
 10
21.5894834323
 20
7.6310916578
 30
0.0
 10
21.6156761037
 20
7.6298131424
 30
0.0
 10
21.6545800723
 20
7.6240619597
 30
0.0
 10
21.6926910006
 20
7.6145320746
 30
0.0
 10
21.7295861743
 20
7.6013504222
 30
0.0
 10
21.7649899446
 20
7.5846357218
 30
0.0
 10
21.7986152644
 20
7.5645084517
 30
0.0
 10
21.8300744403
 20
7.5411872305
 30
0.0
 10
21.8590299527
 20
7.5149474973
 30
0.0
 10
21.8852737091
 20
7.4860023006
 30
0.0
 10
21.9085945593
 20
7.4545597904
 30
0.0
 10
21.9287184517
 20
7.4209573914
 30
0.0
 10
21.9454277436
 20
7.3855829061
 30
0.0
 10
21.958602717
 20
7.3487245926
 30
0.0
 10
21.9681263657
 20
7.3106573647
 30
0.0
 10
21.9738731471
 20
7.2718025326
 30
0.0
 10
21.9751506458
 20
7.2456439334
 30
0.0
 10
21.9751506458
 20
7.2325998932
 30
0.0
 11
21.5764217166
 21
7.6310916578
 31
0.0
 11
21.6155601739
 21
7.6291793514
 31
0.0
 11
21.654475951
 21
7.6234255427
 31
0.0
 11
21.692577973
 21
7.6138964337
 31
0.0
 11
21.7293479591
 21
7.6007584511
 31
0.0
 11
21.7646405334
 21
7.5840951995
 31
0.0
 11
21.7982665627
 21
7.5639666632
 31
0.0
 11
21.8297231037
 21
7.5406468028
 31
0.0
 11
21.8585805479
 21
7.5144956437
 31
0.0
 11
21.8847355445
 21
7.4856483559
 31
0.0
 11
21.9080541473
 21
7.4542093259
 31
0.0
 11
21.9281793255
 21
7.4206058048
 31
0.0
 11
21.9448371769
 21
7.3853420348
 31
0.0
 11
21.9579683113
 21
7.3486088767
 31
0.0
 11
21.9674906747
 21
7.3105520826
 31
0.0
 11
21.9732400092
 21
7.2716853423
 31
0.0
 11
21.9751506458
 21
7.2325998932
 31
0.0
  0
SPLINE
  5
319
100
AcDbEntity
  8
RACCORDO
100
AcDbSpline
 62
253
  6
CONTINUOUS
 70
0
 71
3
 72
10
 73
6
 74
4
 42
0.0000001
 43
0.0000001
 44
0.0000000001
 12
0.0002526151
 22
-9.1022322221
 32
0.0
 13
0.0060343306
 23
-9.1022302254
 33
0.0
 40
0.0
 40
0.0
 40
0.0
 40
0.0
 40
0.3333526791
 40
0.6666869147
 40
1.0
 40
1.0
 40
1.0
 40
1.0
 10
39.0932607088
 20
10.6333232043
 30
0.0
 10
39.0932887787
 20
9.6219053721
 30
0.0
 10
39.0935629666
 20
7.5991256661
 30
0.0
 10
39.0946090747
 20
4.5650484179
 30
0.0
 10
39.0957361639
 20
2.5423891377
 30
0.0
 10
39.0964066044
 20
1.5310916578
 30
0.0
 11
39.0932607088
 21
10.6333232043
 31
0.0
 11
39.0936687897
 21
7.599069734
 31
0.0
 11
39.0947165297
 21
4.5649842934
 31
0.0
 11
39.0964066044
 21
1.5310916578
 31
0.0
  0
SPLINE
  5
31A
100
AcDbEntity
  8
RACCORDO
100
AcDbSpline
 62
253
  6
CONTINUOUS
 70
0
 71
3
 72
10
 73
6
 74
4
 42
0.0000001
 43
0.0000001
 44
0.0000000001
 12
0.0002514557
 22
-9.0950366933
 32
0.0
 13
0.0060355961
 23
-9.0950346942
 33
0.0
 40
0.0
 40
0.0
 40
0.0
 40
0.0
 40
0.3333523679
 40
0.6666867588
 40
1.0
 40
1.0
 40
1.0
 40
1.0
 10
39.5929588494
 20
10.6356276752
 30
0.0
 10
39.5929867906
 20
9.6250103359
 30
0.0
 10
39.593256733
 20
7.6038301568
 30
0.0
 10
39.5943045262
 20
4.5721514185
 30
0.0
 10
39.5954314365
 20
2.5510901552
 30
0.0
 10
39.5961020179
 20
1.5405916578
 30
0.0
 11
39.5929588494
 21
10.6356276752
 31
0.0
 11
39.5933638979
 21
7.6037756832
 31
0.0
 11
39.5944116555
 21
4.5720873464
 31
0.0
 11
39.5961020179
 21
1.5405916578
 31
0.0
  0
SPLINE
  5
31B
100
AcDbEntity
  8
RACCORDO
100
AcDbSpline
 62
253
  6
CONTINUOUS
 70
0
 71
3
 72
24
 73
20
 74
18
 42
0.0000001
 43
0.0000001
 44
0.0000000001
 12
-0.4951381098
 22
-0.0674744652
 32
0.0
 13
-0.4997144696
 23
-0.0000069948
 33
0.0
 40
0.0
 40
0.0
 40
0.0
 40
0.0
 40
0.0072410904
 40
0.0225728332
 40
0.0458757318
 40
0.0769602085
 40
0.1155730933
 40
0.1614001728
 40
0.2140673257
 40
0.2731450583
 40
0.3381511715
 40
0.4085561138
 40
0.4837853051
 40
0.5632252357
 40
0.64622704
 40
0.7321147597
 40
0.8201880871
 40
0.9097254715
 40
1.0
 40
1.0
 40
1.0
 40
1.0
 10
39.5929588494
 20
10.6356276642
 30
0.0
 10
39.5917637362
 20
10.6354648013
 30
0.0
 10
39.5879938938
 20
10.6353934302
 30
0.0
 10
39.5803643852
 20
10.6351370909
 30
0.0
 10
39.5687478342
 20
10.6349746307
 30
0.0
 10
39.5532598776
 20
10.63476562
 30
0.0
 10
39.5340169671
 20
10.6345807794
 30
0.0
 10
39.5111798097
 20
10.6343966994
 30
0.0
 10
39.4849332871
 20
10.6342247112
 30
0.0
 10
39.4554920738
 20
10.6340633558
 30
0.0
 10
39.4230961137
 20
10.6339151452
 30
0.0
 10
39.3880097098
 20
10.6337810772
 30
0.0
 10
39.3505189722
 20
10.6336624168
 30
0.0
 10
39.3109299022
 20
10.6335601541
 30
0.0
 10
39.2695653805
 20
10.6334751658
 30
0.0
 10
39.2267627463
 20
10.6334081699
 30
0.0
 10
39.1828714452
 20
10.6333597281
 30
0.0
 10
39.13824941
 20
10.6333302492
 30
0.0
 10
39.1082978715
 20
10.6333234141
 30
0.0
 10
39.0932607088
 20
10.6333232036
 30
0.0
 11
39.5929588494
 21
10.6356276642
 31
0.0
 11
39.5893467225
 21
10.6354133764
 31
0.0
 11
39.5816881604
 21
10.6352014505
 31
0.0
 11
39.57004522
 21
10.63499359
 31
0.0
 11
39.5545131717
 21
10.6347915148
 31
0.0
 11
39.5352187363
 21
10.6345968674
 31
0.0
 11
39.5123190339
 21
10.6344112371
 31
0.0
 11
39.486001078
 21
10.6342361414
 31
0.0
 11
39.4564795309
 21
10.6340730107
 31
0.0
 11
39.4239953811
 21
10.6339231782
 31
0.0
 11
39.3888132729
 21
10.633787867
 31
0.0
 11
39.3512203479
 21
10.6336681837
 31
0.0
 11
39.311523199
 21
10.6335651066
 31
0.0
 11
39.2700460847
 21
10.6334794788
 31
0.0
 11
39.2271268015
 21
10.6334119998
 31
0.0
 11
39.1831153124
 21
10.6333632203
 31
0.0
 11
39.1383721957
 21
10.6333335418
 31
0.0
 11
39.0932607088
 21
10.6333232036
 31
0.0
  0
SPLINE
  5
31C
100
AcDbEntity
  8
0
100
AcDbSpline
 62
253
  6
CONTINUOUS
 70
0
 71
3
 72
23
 73
19
 74
17
 42
0.0000001
 43
0.0000001
 44
0.0000000001
 12
-0.4390227157
 22
-0.2392018116
 32
0.0
 13
-0.4999583399
 23
-0.0003316598
 33
0.0
 40
0.0
 40
0.0
 40
0.0
 40
0.0
 40
0.008152361
 40
0.0253232964
 40
0.051431694
 40
0.0862550999
 40
0.1294799963
 40
0.180712013
 40
0.2394815731
 40
0.3052489593
 40
0.3774096104
 40
0.4552998516
 40
0.5382030955
 40
0.6253564931
 40
0.7159579915
 40
0.8091737417
 40
0.9041457919
 40
1.0
 40
1.0
 40
1.0
 40
1.0
 10
39.5961020179
 20
1.5405916578
 30
0.0
 10
39.594908994
 20
1.5399416379
 30
0.0
 10
39.5905567128
 20
1.5395556728
 30
0.0
 10
39.5821598757
 20
1.5385255459
 30
0.0
 10
39.5691005832
 20
1.5378016461
 30
0.0
 10
39.5517905714
 20
1.5369241126
 30
0.0
 10
39.5302499829
 20
1.536132924
 30
0.0
 10
39.5047295769
 20
1.5353534398
 30
0.0
 10
39.4754449529
 20
1.5346259895
 30
0.0
 10
39.4426720463
 20
1.5339480504
 30
0.0
 10
39.4067104581
 20
1.533329981
 30
0.0
 10
39.3678919217
 20
1.5327768747
 30
0.0
 10
39.3265736409
 20
1.532294451
 30
0.0
 10
39.2831361042
 20
1.5318872607
 30
0.0
 10
39.2379792424
 20
1.5315592211
 30
0.0
 10
39.1915188418
 20
1.5313134393
 30
0.0
 10
39.1441826896
 20
1.5311522416
 30
0.0
 10
39.1123809746
 20
1.5311022548
 30
0.0
 10
39.0964066044
 20
1.5310916578
 30
0.0
 11
39.5961020179
 21
1.5405916578
 31
0.0
 11
39.5921293116
 21
1.5396805646
 31
0.0
 11
39.5835921499
 21
1.5387778605
 31
0.0
 11
39.5705691401
 21
1.5378918572
 31
0.0
 11
39.553180194
 21
1.5370307128
 31
0.0
 11
39.5315854235
 21
1.5362023565
 31
0.0
 11
39.5059836661
 21
1.5354144154
 31
0.0
 11
39.4766106548
 21
1.5346741447
 31
0.0
 11
39.4437368467
 21
1.5339883606
 31
0.0
 11
39.4076649332
 21
1.5333633776
 31
0.0
 11
39.3687270531
 21
1.5328049502
 31
0.0
 11
39.3272817337
 21
1.5323182203
 31
0.0
 11
39.2837105904
 21
1.5319076695
 31
0.0
 11
39.238414812
 21
1.5315770782
 31
0.0
 11
39.1918114678
 21
1.5313294902
 31
0.0
 11
39.1443296661
 21
1.5311671852
 31
0.0
 11
39.0964066044
 21
1.5310916578
 31
0.0
  0
SPLINE
  5
31D
100
AcDbEntity
  8
0
100
AcDbSpline
 62
253
  6
CONTINUOUS
 70
0
 71
3
 72
23
 73
19
 74
17
 42
0.0000001
 43
0.0000001
 44
0.0000000001
 12
-0.1156656166
 22
-0.4999835144
 32
0.0
 13
-0.5131813232
 23
-0.0026417985
 33
0.0
 40
0.0
 40
0.0
 40
0.0
 40
0.0
 40
0.0159236402
 40
0.037519705
 40
0.0662667634
 40
0.1026032067
 40
0.1465356752
 40
0.197849916
 40
0.2561916431
 40
0.3211034949
 40
0.3920454012
 40
0.4684080643
 40
0.5495234077
 40
0.6346736632
 40
0.7230998673
 40
0.8140101335
 40
0.9065878679
 40
1.0
 40
1.0
 40
1.0
 40
1.0
 10
39.6304648718
 20
-10.1017636706
 30
0.0
 10
39.6298509325
 20
-10.1044175231
 30
0.0
 10
39.6262396259
 20
-10.1100918294
 30
0.0
 10
39.6171492883
 20
-10.1169781774
 30
0.0
 10
39.6039115985
 20
-10.1237755643
 30
0.0
 10
39.5864426616
 20
-10.1303664046
 30
0.0
 10
39.56484259
 20
-10.1367495009
 30
0.0
 10
39.5392747326
 20
-10.1428364154
 30
0.0
 10
39.5099618976
 20
-10.1485705226
 30
0.0
 10
39.4771663602
 20
-10.1538910211
 30
0.0
 10
39.4411864648
 20
-10.1587458073
 30
0.0
 10
39.4023513135
 20
-10.1630872471
 30
0.0
 10
39.3610172601
 20
-10.1668735492
 30
0.0
 10
39.3175641508
 20
-10.1700684935
 30
0.0
 10
39.2723916605
 20
-10.1726417262
 30
0.0
 10
39.2259154349
 20
-10.1745689003
 30
0.0
 10
39.1785633962
 20
-10.1758318439
 30
0.0
 10
39.1467485788
 20
-10.1762224997
 30
0.0
 10
39.1307694582
 20
-10.1763047584
 30
0.0
 11
39.6304648718
 21
-10.1017636706
 31
0.0
 11
39.6265090129
 21
-10.1089141861
 31
0.0
 11
39.617986263
 21
-10.1159988291
 31
0.0
 11
39.6049751361
 21
-10.1229523337
 31
0.0
 11
39.5875954943
 21
-10.1297106425
 31
0.0
 11
39.5660074436
 21
-10.1362114959
 31
0.0
 11
39.5404098593
 21
-10.1423950064
 31
0.0
 11
39.5110385534
 21
-10.1482042096
 31
0.0
 11
39.4781641025
 21
-10.1535855896
 31
0.0
 11
39.4420893553
 21
-10.1584895716
 31
0.0
 11
39.4031466424
 21
-10.1628709788
 31
0.0
 11
39.361694715
 21
-10.1666894484
 31
0.0
 11
39.3181154397
 21
-10.1699098035
 31
0.0
 11
39.272810281
 21
-10.1725023775
 31
0.0
 11
39.2261966026
 21
-10.1744432868
 31
0.0
 11
39.1787038228
 21
-10.1757146511
 31
0.0
 11
39.1307694582
 21
-10.1763047584
 31
0.0
  0
SPLINE
  5
31E
100
AcDbEntity
  8
0
100
AcDbSpline
 62
253
  6
CONTINUOUS
 70
0
 71
3
 72
24
 73
20
 74
18
 42
0.0000001
 43
0.0000001
 44
0.0000000001
 12
0.0022370123
 22
-0.8499340702
 32
0.0
 13
0.2685899292
 23
-0.8063822777
 33
0.0
 40
0.0
 40
0.0
 40
0.0
 40
0.0
 40
0.0929977429
 40
0.184256553
 40
0.2731879617
 40
0.3592144101
 40
0.441779768
 40
0.52034911
 40
0.5944135008
 40
0.6634931372
 40
0.7271410503
 40
0.784944825
 40
0.836530752
 40
0.8815652918
 40
0.9197580269
 40
0.9508640559
 40
0.9746874526
 40
0.9910862544
 40
1.0
 40
1.0
 40
1.0
 40
1.0
 10
39.1307694582
 20
-10.1763047618
 30
0.0
 10
39.1308388039
 20
-10.2026520785
 30
0.0
 10
39.1310134386
 20
-10.254853963
 30
0.0
 10
39.1313866967
 20
-10.3322506111
 30
0.0
 10
39.1318670237
 20
-10.4076715801
 30
0.0
 10
39.1324511444
 20
-10.4806287807
 30
0.0
 10
39.1331352233
 20
-10.5506492817
 30
0.0
 10
39.1339146629
 20
-10.6172795718
 30
0.0
 10
39.134784211
 20
-10.6800877438
 30
0.0
 10
39.1357379889
 20
-10.7386667418
 30
0.0
 10
39.1367692544
 20
-10.7926368901
 30
0.0
 10
39.1378711967
 20
-10.841648176
 30
0.0
 10
39.139034149
 20
-10.8853835715
 30
0.0
 10
39.1402537995
 20
-10.9235573389
 30
0.0
 10
39.1415050746
 20
-10.9559290699
 30
0.0
 10
39.1428149525
 20
-10.9822704037
 30
0.0
 10
39.1440562254
 20
-11.0024644506
 30
0.0
 10
39.1454383894
 20
-11.016274281
 30
0.0
 10
39.1463228665
 20
-11.023456152
 30
0.0
 10
39.1471209139
 20
-11.0258521141
 30
0.0
 11
39.1307694582
 21
-10.1763047618
 31
0.0
 11
39.1310347314
 21
-10.2553465406
 31
0.0
 11
39.1314101189
 21
-10.3329098728
 31
0.0
 11
39.1318932376
 21
-10.4084944248
 31
0.0
 11
39.1324809219
 21
-10.4816091256
 31
0.0
 11
39.1331693915
 21
-10.5517811021
 31
0.0
 11
39.1339541818
 21
-10.6185554824
 31
0.0
 11
39.1348302149
 21
-10.6814994537
 31
0.0
 11
39.1357918155
 21
-10.7402049186
 31
0.0
 11
39.1368327621
 21
-10.7942916198
 31
0.0
 11
39.1379463067
 21
-10.8434085663
 31
0.0
 11
39.1391252423
 21
-10.8872375021
 31
0.0
 11
39.140361927
 21
-10.925494041
 31
0.0
 11
39.1416483507
 21
-10.9579299602
 31
0.0
 11
39.1429761562
 21
-10.9843347613
 31
0.0
 11
39.1443367949
 21
-11.0045373806
 31
0.0
 11
39.1457213192
 21
-11.0184063929
 31
0.0
 11
39.1471209139
 21
-11.0258521141
 31
0.0
  0
SPLINE
  5
31F
100
AcDbEntity
  8
0
100
AcDbSpline
 62
253
  6
CONTINUOUS
 70
0
 71
3
 72
24
 73
20
 74
18
 42
0.0000001
 43
0.0000001
 44
0.0000000001
 12
0.0022405343
 22
-0.425539131
 32
0.0
 13
0.2359406645
 23
-0.3541476737
 33
0.0
 40
0.0
 40
0.0
 40
0.0
 40
0.0
 40
0.092855355
 40
0.1839967866
 40
0.2728162512
 40
0.3587375314
 40
0.4412058963
 40
0.5196878524
 40
0.5936759745
 40
0.6626920345
 40
0.7262908445
 40
0.7840621562
 40
0.8356349505
 40
0.8806792824
 40
0.9189099719
 40
0.9500906576
 40
0.9740413608
 40
0.9906572345
 40
1.0
 40
1.0
 40
1.0
 40
1.0
 10
39.6304648718
 20
-10.1017636706
 30
0.0
 10
39.6305342203
 20
-10.1149348663
 30
0.0
 10
39.6307088024
 20
-10.1410339651
 30
0.0
 10
39.631082065
 20
-10.1797307542
 30
0.0
 10
39.63156237
 20
-10.217442706
 30
0.0
 10
39.6321465149
 20
-10.2539227851
 30
0.0
 10
39.6328306075
 20
-10.2889345094
 30
0.0
 10
39.6336100781
 20
-10.3222511112
 30
0.0
 10
39.6344796694
 20
-10.3536566293
 30
0.0
 10
39.6354334874
 20
-10.3829475126
 30
0.0
 10
39.6364648684
 20
-10.4099339961
 30
0.0
 10
39.6375667616
 20
-10.4344409578
 30
0.0
 10
39.6387303119
 20
-10.4563106028
 30
0.0
 10
39.6399487944
 20
-10.475398564
 30
0.0
 10
39.6412045387
 20
-10.4915905557
 30
0.0
 10
39.6425041756
 20
-10.5047588089
 30
0.0
 10
39.643775596
 20
-10.5148889479
 30
0.0
 10
39.6451080059
 20
-10.5217855904
 30
0.0
 10
39.646081548
 20
-10.5254344405
 30
0.0
 10
39.6468163274
 20
-10.5265373468
 30
0.0
 11
39.6304648718
 21
-10.1017636706
 31
0.0
 11
39.6307300795
 21
-10.1412769154
 31
0.0
 11
39.6311054721
 21
-10.1800598818
 31
0.0
 11
39.6315885819
 21
-10.2178534758
 31
0.0
 11
39.6321762757
 21
-10.2544121262
 31
0.0
 11
39.6328647559
 21
-10.2894993749
 31
0.0
 11
39.6336495655
 21
-10.3228877588
 31
0.0
 11
39.6345256233
 21
-10.3543608462
 31
0.0
 11
39.6354872541
 21
-10.3837145401
 31
0.0
 11
39.6365282349
 21
-10.4107586703
 31
0.0
 11
39.637641817
 21
-10.4353177312
 31
0.0
 11
39.6388207923
 21
-10.4572325871
 31
0.0
 11
39.6400575198
 21
-10.4763610408
 31
0.0
 11
39.6413439831
 21
-10.4925789773
 31
0.0
 11
39.6426718399
 21
-10.5057811541
 31
0.0
 11
39.6440324983
 21
-10.5158820237
 31
0.0
 11
39.6454171126
 21
-10.5228159325
 31
0.0
 11
39.6468163274
 21
-10.5265373468
 31
0.0
  0
SPLINE
  5
320
100
AcDbEntity
  8
RACCORDO
100
AcDbSpline
 62
253
  6
CONTINUOUS
 70
0
 71
3
 72
10
 73
6
 74
4
 42
0.0000001
 43
0.0000001
 44
0.0000000001
 12
0.0060355961
 22
9.0950346942
 32
0.0
 13
0.0002514557
 23
9.0950366933
 33
0.0
 40
0.0
 40
0.0
 40
0.0
 40
0.0
 40
0.3333132412
 40
0.6666476321
 40
1.0
 40
1.0
 40
1.0
 40
1.0
 10
-4.7458007262
 20
1.5405916578
 30
0.0
 10
-4.7451301448
 20
2.5510901552
 30
0.0
 10
-4.7440032345
 20
4.5721514185
 30
0.0
 10
-4.7429554413
 20
7.6038301568
 30
0.0
 10
-4.7426854989
 20
9.6250103359
 30
0.0
 10
-4.7426575578
 20
10.6356276752
 30
0.0
 11
-4.7458007262
 21
1.5405916578
 31
0.0
 11
-4.7441103638
 21
4.5720873464
 31
0.0
 11
-4.7430626062
 21
7.6037756832
 31
0.0
 11
-4.7426575578
 21
10.6356276752
 31
0.0
  0
SPLINE
  5
321
100
AcDbEntity
  8
0
100
AcDbSpline
 62
253
  6
CONTINUOUS
 70
0
 71
3
 72
23
 73
19
 74
17
 42
0.0000001
 43
0.0000001
 44
0.0000000001
 12
0.4390227135
 22
-0.2392018158
 32
0.0
 13
0.4999583399
 23
-0.0003316598
 33
0.0
 40
0.0
 40
0.0
 40
0.0
 40
0.0
 40
0.0081523609
 40
0.0253232963
 40
0.0514316938
 40
0.0862550996
 40
0.1294799961
 40
0.1807120127
 40
0.2394815728
 40
0.305248959
 40
0.3774096101
 40
0.4552998514
 40
0.5382030953
 40
0.6253564929
 40
0.7159579914
 40
0.8091737416
 40
0.9041457919
 40
1.0
 40
1.0
 40
1.0
 40
1.0
 10
-4.7458007262
 20
1.5405916578
 30
0.0
 10
-4.7446077023
 20
1.5399416379
 30
0.0
 10
-4.7402554212
 20
1.5395556728
 30
0.0
 10
-4.7318585841
 20
1.5385255459
 30
0.0
 10
-4.7187992916
 20
1.5378016461
 30
0.0
 10
-4.7014892798
 20
1.5369241126
 30
0.0
 10
-4.6799486914
 20
1.536132924
 30
0.0
 10
-4.6544282854
 20
1.5353534398
 30
0.0
 10
-4.6251436613
 20
1.5346259895
 30
0.0
 10
-4.5923707548
 20
1.5339480504
 30
0.0
 10
-4.5564091666
 20
1.533329981
 30
0.0
 10
-4.5175906301
 20
1.5327768747
 30
0.0
 10
-4.4762723493
 20
1.532294451
 30
0.0
 10
-4.4328348127
 20
1.5318872607
 30
0.0
 10
-4.3876779508
 20
1.5315592211
 30
0.0
 10
-4.3412175502
 20
1.5313134393
 30
0.0
 10
-4.293881398
 20
1.5311522416
 30
0.0
 10
-4.262079683
 20
1.5311022548
 30
0.0
 10
-4.2461053127
 20
1.5310916578
 30
0.0
 11
-4.7458007262
 21
1.5405916578
 31
0.0
 11
-4.74182802
 21
1.5396805646
 31
0.0
 11
-4.7332908582
 21
1.5387778605
 31
0.0
 11
-4.7202678485
 21
1.5378918572
 31
0.0
 11
-4.7028789025
 21
1.5370307128
 31
0.0
 11
-4.6812841319
 21
1.5362023565
 31
0.0
 11
-4.6556823746
 21
1.5354144154
 31
0.0
 11
-4.6263093632
 21
1.5346741447
 31
0.0
 11
-4.5934355551
 21
1.5339883606
 31
0.0
 11
-4.5573636417
 21
1.5333633775
 31
0.0
 11
-4.5184257615
 21
1.5328049502
 31
0.0
 11
-4.4769804422
 21
1.5323182203
 31
0.0
 11
-4.4334092988
 21
1.5319076695
 31
0.0
 11
-4.3881135204
 21
1.5315770782
 31
0.0
 11
-4.3415101761
 21
1.5313294902
 31
0.0
 11
-4.2940283745
 21
1.5311671852
 31
0.0
 11
-4.2461053127
 21
1.5310916578
 31
0.0
  0
SPLINE
  5
322
100
AcDbEntity
  8
RACCORDO
100
AcDbSpline
 62
253
  6
CONTINUOUS
 70
0
 71
3
 72
10
 73
6
 74
4
 42
0.0000001
 43
0.0000001
 44
0.0000000001
 12
0.0060343306
 22
9.1022302254
 32
0.0
 13
0.0002526151
 23
9.1022322221
 33
0.0
 40
0.0
 40
0.0
 40
0.0
 40
0.0
 40
0.3333130853
 40
0.6666473209
 40
1.0
 40
1.0
 40
1.0
 40
1.0
 10
-4.2461053127
 20
1.5310916578
 30
0.0
 10
-4.2454348723
 20
2.5423891377
 30
0.0
 10
-4.244307783
 20
4.5650484179
 30
0.0
 10
-4.2432616749
 20
7.5991256661
 30
0.0
 10
-4.2429874871
 20
9.6219053721
 30
0.0
 10
-4.2429594171
 20
10.6333232043
 30
0.0
 11
-4.2461053127
 21
1.5310916578
 31
0.0
 11
-4.244415238
 21
4.5649842934
 31
0.0
 11
-4.243367498
 21
7.599069734
 31
0.0
 11
-4.2429594171
 21
10.6333232043
 31
0.0
  0
SPLINE
  5
323
100
AcDbEntity
  8
RACCORDO
100
AcDbSpline
 62
253
  6
CONTINUOUS
 70
0
 71
3
 72
24
 73
20
 74
18
 42
0.0000001
 43
0.0000001
 44
0.0000000001
 12
-0.4997144696
 22
0.0000069948
 32
0.0
 13
-0.4951381098
 23
0.0674744651
 33
0.0
 40
0.0
 40
0.0
 40
0.0
 40
0.0
 40
0.0902745285
 40
0.1798119128
 40
0.2678852403
 40
0.3537729599
 40
0.4367747643
 40
0.5162146948
 40
0.5914438862
 40
0.6618488285
 40
0.7268549417
 40
0.7859326743
 40
0.8385998271
 40
0.8844269067
 40
0.9230397915
 40
0.9541242682
 40
0.9774271668
 40
0.9927589096
 40
1.0
 40
1.0
 40
1.0
 40
1.0
 10
-4.2429594171
 20
10.6333232036
 30
0.0
 10
-4.2579965798
 20
10.6333234141
 30
0.0
 10
-4.2879481183
 20
10.6333302492
 30
0.0
 10
-4.3325701535
 20
10.6333597281
 30
0.0
 10
-4.3764614546
 20
10.6334081699
 30
0.0
 10
-4.4192640888
 20
10.6334751658
 30
0.0
 10
-4.4606286105
 20
10.6335601541
 30
0.0
 10
-4.5002176806
 20
10.6336624168
 30
0.0
 10
-4.5377084181
 20
10.6337810772
 30
0.0
 10
-4.5727948221
 20
10.6339151452
 30
0.0
 10
-4.6051907821
 20
10.6340633558
 30
0.0
 10
-4.6346319954
 20
10.6342247112
 30
0.0
 10
-4.660878518
 20
10.6343966994
 30
0.0
 10
-4.6837156754
 20
10.6345807794
 30
0.0
 10
-4.702958586
 20
10.63476562
 30
0.0
 10
-4.7184465425
 20
10.6349746307
 30
0.0
 10
-4.7300630935
 20
10.6351370909
 30
0.0
 10
-4.7376926021
 20
10.6353934302
 30
0.0
 10
-4.7414624445
 20
10.6354648013
 30
0.0
 10
-4.7426575578
 20
10.6356276642
 30
0.0
 11
-4.2429594171
 21
10.6333232036
 31
0.0
 11
-4.288070904
 21
10.6333335418
 31
0.0
 11
-4.3328140207
 21
10.6333632203
 31
0.0
 11
-4.3768255098
 21
10.6334119998
 31
0.0
 11
-4.419744793
 21
10.6334794788
 31
0.0
 11
-4.4612219073
 21
10.6335651066
 31
0.0
 11
-4.5009190562
 21
10.6336681837
 31
0.0
 11
-4.5385119812
 21
10.633787867
 31
0.0
 11
-4.5736940894
 21
10.6339231782
 31
0.0
 11
-4.6061782392
 21
10.6340730107
 31
0.0
 11
-4.6356997863
 21
10.6342361414
 31
0.0
 11
-4.6620177422
 21
10.6344112371
 31
0.0
 11
-4.6849174446
 21
10.6345968674
 31
0.0
 11
-4.7042118801
 21
10.6347915148
 31
0.0
 11
-4.7197439284
 21
10.63499359
 31
0.0
 11
-4.7313868687
 21
10.6352014505
 31
0.0
 11
-4.7390454308
 21
10.6354133764
 31
0.0
 11
-4.7426575578
 21
10.6356276642
 31
0.0
  0
SPLINE
  5
324
100
AcDbEntity
  8
0
100
AcDbSpline
 62
253
  6
CONTINUOUS
 70
0
 71
3
 72
23
 73
19
 74
17
 42
0.0000001
 43
0.0000001
 44
0.0000000001
 12
0.1156655032
 22
-0.499983543
 32
0.0
 13
0.5131813254
 23
-0.0026417988
 33
0.0
 40
0.0
 40
0.0
 40
0.0
 40
0.0
 40
0.015923639
 40
0.0375197021
 40
0.0662667587
 40
0.1026032005
 40
0.1465356677
 40
0.1978499076
 40
0.2561916344
 40
0.3211034861
 40
0.3920453925
 40
0.4684080562
 40
0.5495234005
 40
0.6346736571
 40
0.7230998625
 40
0.8140101302
 40
0.9065878662
 40
1.0
 40
1.0
 40
1.0
 40
1.0
 10
-4.7801635801
 20
-10.1017636706
 30
0.0
 10
-4.7795496415
 20
-10.1044175231
 30
0.0
 10
-4.7759383361
 20
-10.1100918297
 30
0.0
 10
-4.7668479996
 20
-10.116978178
 30
0.0
 10
-4.7536103109
 20
-10.1237755651
 30
0.0
 10
-4.7361413747
 20
-10.1303664057
 30
0.0
 10
-4.7145413038
 20
-10.1367495022
 30
0.0
 10
-4.6889734467
 20
-10.1428364171
 30
0.0
 10
-4.6596606119
 20
-10.1485705245
 30
0.0
 10
-4.6268650744
 20
-10.1538910232
 30
0.0
 10
-4.5908851788
 20
-10.1587458096
 30
0.0
 10
-4.5520500271
 20
-10.1630872498
 30
0.0
 10
-4.5107159731
 20
-10.166873552
 30
0.0
 10
-4.467262863
 20
-10.1700684966
 30
0.0
 10
-4.4220903719
 20
-10.1726417294
 30
0.0
 10
-4.3756141453
 20
-10.1745689036
 30
0.0
 10
-4.3282621056
 20
-10.1758318473
 30
0.0
 10
-4.2964472875
 20
-10.1762225031
 30
0.0
 10
-4.2804681666
 20
-10.1763047618
 30
0.0
 11
-4.7801635801
 21
-10.1017636706
 31
0.0
 11
-4.7762077228
 21
-10.1089141863
 31
0.0
 11
-4.7676849743
 21
-10.1159988295
 31
0.0
 11
-4.7546738485
 21
-10.1229523345
 31
0.0
 11
-4.7372942075
 21
-10.1297106435
 31
0.0
 11
-4.7157061575
 21
-10.1362114972
 31
0.0
 11
-4.6901085735
 21
-10.142395008
 31
0.0
 11
-4.6607372678
 21
-10.1482042115
 31
0.0
 11
-4.6278628168
 21
-10.1535855917
 31
0.0
 11
-4.5917880694
 21
-10.158489574
 31
0.0
 11
-4.5528453561
 21
-10.1628709814
 31
0.0
 11
-4.511393428
 21
-10.1666894512
 31
0.0
 11
-4.467814152
 21
-10.1699098065
 31
0.0
 11
-4.4225089924
 21
-10.1725023807
 31
0.0
 11
-4.3758953131
 21
-10.17444329
 31
0.0
 11
-4.3284025322
 21
-10.1757146545
 31
0.0
 11
-4.2804681666
 21
-10.1763047618
 31
0.0
  0
SPLINE
  5
325
100
AcDbEntity
  8
0
100
AcDbSpline
 62
253
  6
CONTINUOUS
 70
0
 71
3
 72
24
 73
20
 74
18
 42
0.0000001
 43
0.0000001
 44
0.0000000001
 12
0.2685899298
 22
0.8063822775
 32
0.0
 13
0.0022370123
 23
0.8499340702
 33
0.0
 40
0.0
 40
0.0
 40
0.0
 40
0.0
 40
0.0089137456
 40
0.0253125474
 40
0.0491359441
 40
0.0802419731
 40
0.1184347082
 40
0.163469248
 40
0.215055175
 40
0.2728589497
 40
0.3365068628
 40
0.4055864992
 40
0.47965089
 40
0.558220232
 40
0.6407855899
 40
0.7268120383
 40
0.815743447
 40
0.9070022571
 40
1.0
 40
1.0
 40
1.0
 40
1.0
 10
-4.2968196223
 20
-11.0258521141
 30
0.0
 10
-4.2960215748
 20
-11.023456152
 30
0.0
 10
-4.2951370977
 20
-11.016274281
 30
0.0
 10
-4.2937549337
 20
-11.0024644506
 30
0.0
 10
-4.2925136609
 20
-10.9822704037
 30
0.0
 10
-4.2912037829
 20
-10.9559290699
 30
0.0
 10
-4.2899525078
 20
-10.9235573389
 30
0.0
 10
-4.2887328574
 20
-10.8853835715
 30
0.0
 10
-4.287569905
 20
-10.841648176
 30
0.0
 10
-4.2864679627
 20
-10.7926368901
 30
0.0
 10
-4.2854366972
 20
-10.7386667418
 30
0.0
 10
-4.2844829194
 20
-10.6800877438
 30
0.0
 10
-4.2836133713
 20
-10.6172795718
 30
0.0
 10
-4.2828339316
 20
-10.5506492817
 30
0.0
 10
-4.2821498527
 20
-10.4806287807
 30
0.0
 10
-4.281565732
 20
-10.4076715801
 30
0.0
 10
-4.2810854051
 20
-10.3322506111
 30
0.0
 10
-4.280712147
 20
-10.254853963
 30
0.0
 10
-4.2805375123
 20
-10.2026520785
 30
0.0
 10
-4.2804681666
 20
-10.1763047618
 30
0.0
 11
-4.2968196223
 21
-11.0258521141
 31
0.0
 11
-4.2954200276
 21
-11.0184063929
 31
0.0
 11
-4.2940355033
 21
-11.0045373806
 31
0.0
 11
-4.2926748645
 21
-10.9843347613
 31
0.0
 11
-4.291347059
 21
-10.9579299602
 31
0.0
 11
-4.2900606354
 21
-10.925494041
 31
0.0
 11
-4.2888239506
 21
-10.8872375021
 31
0.0
 11
-4.287645015
 21
-10.8434085663
 31
0.0
 11
-4.2865314704
 21
-10.7942916198
 31
0.0
 11
-4.2854905239
 21
-10.7402049186
 31
0.0
 11
-4.2845289233
 21
-10.6814994537
 31
0.0
 11
-4.2836528901
 21
-10.6185554824
 31
0.0
 11
-4.2828680999
 21
-10.5517811021
 31
0.0
 11
-4.2821796303
 21
-10.4816091256
 31
0.0
 11
-4.281591946
 21
-10.4084944248
 31
0.0
 11
-4.2811088272
 21
-10.3329098728
 31
0.0
 11
-4.2807334397
 21
-10.2553465406
 31
0.0
 11
-4.2804681666
 21
-10.1763047618
 31
0.0
  0
SPLINE
  5
326
100
AcDbEntity
  8
0
100
AcDbSpline
 62
253
  6
CONTINUOUS
 70
0
 71
3
 72
24
 73
20
 74
18
 42
0.0000001
 43
0.0000001
 44
0.0000000001
 12
0.2359406643
 22
0.3541476739
 32
0.0
 13
0.0022405343
 23
0.425539131
 33
0.0
 40
0.0
 40
0.0
 40
0.0
 40
0.0
 40
0.0093427655
 40
0.0259586392
 40
0.0499093424
 40
0.0810900281
 40
0.1193207176
 40
0.1643650495
 40
0.2159378438
 40
0.2737091555
 40
0.3373079655
 40
0.4063240255
 40
0.4803121476
 40
0.5587941037
 40
0.6412624686
 40
0.7271837488
 40
0.8160032134
 40
0.907144645
 40
1.0
 40
1.0
 40
1.0
 40
1.0
 10
-4.7965150358
 20
-10.5265373468
 30
0.0
 10
-4.7957802563
 20
-10.5254344405
 30
0.0
 10
-4.7948067142
 20
-10.5217855904
 30
0.0
 10
-4.7934743043
 20
-10.5148889479
 30
0.0
 10
-4.792202884
 20
-10.5047588089
 30
0.0
 10
-4.790903247
 20
-10.4915905557
 30
0.0
 10
-4.7896475027
 20
-10.475398564
 30
0.0
 10
-4.7884290202
 20
-10.4563106028
 30
0.0
 10
-4.7872654699
 20
-10.4344409578
 30
0.0
 10
-4.7861635767
 20
-10.4099339961
 30
0.0
 10
-4.7851321957
 20
-10.3829475126
 30
0.0
 10
-4.7841783777
 20
-10.3536566293
 30
0.0
 10
-4.7833087864
 20
-10.3222511112
 30
0.0
 10
-4.7825293158
 20
-10.2889345094
 30
0.0
 10
-4.7818452233
 20
-10.2539227851
 30
0.0
 10
-4.7812610784
 20
-10.217442706
 30
0.0
 10
-4.7807807734
 20
-10.1797307542
 30
0.0
 10
-4.7804075107
 20
-10.1410339651
 30
0.0
 10
-4.7802329286
 20
-10.1149348663
 30
0.0
 10
-4.7801635801
 20
-10.1017636706
 30
0.0
 11
-4.7965150358
 21
-10.5265373468
 31
0.0
 11
-4.7951158209
 21
-10.5228159325
 31
0.0
 11
-4.7937312066
 21
-10.5158820237
 31
0.0
 11
-4.7923705482
 21
-10.5057811541
 31
0.0
 11
-4.7910426914
 21
-10.4925789773
 31
0.0
 11
-4.7897562281
 21
-10.4763610408
 31
0.0
 11
-4.7885195007
 21
-10.4572325871
 31
0.0
 11
-4.7873405254
 21
-10.4353177312
 31
0.0
 11
-4.7862269432
 21
-10.4107586703
 31
0.0
 11
-4.7851859625
 21
-10.3837145401
 31
0.0
 11
-4.7842243316
 21
-10.3543608462
 31
0.0
 11
-4.7833482738
 21
-10.3228877588
 31
0.0
 11
-4.7825634642
 21
-10.2894993749
 31
0.0
 11
-4.781874984
 21
-10.2544121262
 31
0.0
 11
-4.7812872902
 21
-10.2178534758
 31
0.0
 11
-4.7808041804
 21
-10.1800598818
 31
0.0
 11
-4.7804287878
 21
-10.1412769154
 31
0.0
 11
-4.7801635801
 21
-10.1017636706
 31
0.0
  0
SPLINE
  5
327
100
AcDbEntity
  8
RACCORDO
100
AcDbSpline
 62
253
  6
CONTINUOUS
 70
0
 71
3
 72
24
 73
20
 74
18
 42
0.0000001
 43
0.0000001
 44
0.0000000001
 12
-0.2498750154
 22
0.0000000277
 32
0.0
 13
-0.2424250812
 23
0.0605607405
 33
0.0
 40
0.0
 40
0.0
 40
0.0
 40
0.0
 40
0.0902519062
 40
0.1797846795
 40
0.2678529052
 40
0.3537361738
 40
0.4367339978
 40
0.5161705145
 40
0.5913968937
 40
0.6617996696
 40
0.7268041989
 40
0.7858808583
 40
0.8385476229
 40
0.8843752391
 40
0.9229899153
 40
0.9540780319
 40
0.9773873145
 40
0.9927312008
 40
1.0
 40
1.0
 40
1.0
 40
1.0
 10
-4.2429621003
 20
10.8835125696
 30
0.0
 10
-4.2504793325
 20
10.8835125704
 30
0.0
 10
-4.2654538997
 20
10.8835184511
 30
0.0
 10
-4.2877638025
 20
10.8835448866
 30
0.0
 10
-4.3097098065
 20
10.8835887036
 30
0.0
 10
-4.331111461
 20
10.8836495356
 30
0.0
 10
-4.3517941083
 20
10.8837268702
 30
0.0
 10
-4.3715890506
 20
10.8838200578
 30
0.0
 10
-4.3903348393
 20
10.8839283
 30
0.0
 10
-4.4078784449
 20
10.8840506946
 30
0.0
 10
-4.4240767929
 20
10.8841860929
 30
0.0
 10
-4.4387976523
 20
10.8843335685
 30
0.0
 10
-4.4519212079
 20
10.8844908808
 30
0.0
 10
-4.4633396311
 20
10.8846591966
 30
0.0
 10
-4.4729620126
 20
10.8848286536
 30
0.0
 10
-4.4807038797
 20
10.885019266
 30
0.0
 10
-4.4865179492
 20
10.8851699372
 30
0.0
 10
-4.4903233657
 20
10.8854012067
 30
0.0
 10
-4.4922223745
 20
10.8854713972
 30
0.0
 10
-4.4928097542
 20
10.8856181318
 30
0.0
 11
-4.2429621003
 21
10.8835125696
 31
0.0
 11
-4.265513795
 21
10.8835214642
 31
0.0
 11
-4.2878857823
 21
10.8835480825
 31
0.0
 11
-4.3098917873
 21
10.883592208
 31
0.0
 11
-4.3313517829
 21
10.8836534807
 31
0.0
 11
-4.352090719
 21
10.8837314004
 31
0.0
 11
-4.3719396976
 21
10.8838253329
 31
0.0
 11
-4.3907365732
 21
10.8839345113
 31
0.0
 11
-4.4083280342
 21
10.8840580451
 31
0.0
 11
-4.4245704652
 21
10.884194926
 31
0.0
 11
-4.4393314932
 21
10.8843440382
 31
0.0
 11
-4.4524906276
 21
10.8845041647
 31
0.0
 11
-4.4639405444
 21
10.8846739996
 31
0.0
 11
-4.4735877423
 21
10.8848521555
 31
0.0
 11
-4.4813536821
 21
10.8850371813
 31
0.0
 11
-4.487174977
 21
10.8852275679
 31
0.0
 11
-4.4910041099
 21
10.8854217576
 31
0.0
 11
-4.4928097542
 21
10.8856181318
 31
0.0
  0
SPLINE
  5
328
100
AcDbEntity
  8
RACCORDO
100
AcDbSpline
 62
253
  6
CONTINUOUS
 70
0
 71
3
 72
24
 73
20
 74
18
 42
0.0000001
 43
0.0000001
 44
0.0000000001
 12
-0.2424250813
 22
-0.0605607403
 32
0.0
 13
-0.2498750154
 23
-0.0000000277
 33
0.0
 40
0.0
 40
0.0
 40
0.0
 40
0.0
 40
0.0072687992
 40
0.0226126855
 40
0.0459219681
 40
0.0770100847
 40
0.1156247608
 40
0.1614523771
 40
0.2141191417
 40
0.2731958011
 40
0.3382003304
 40
0.4086031063
 40
0.4838294855
 40
0.5632660021
 40
0.6462638261
 40
0.7321470947
 40
0.8202153205
 40
0.9097480937
 40
1.0
 40
1.0
 40
1.0
 40
1.0
 10
39.3431110459
 20
10.8856181318
 30
0.0
 10
39.3425236661
 20
10.8854713972
 30
0.0
 10
39.3406246573
 20
10.8854012067
 30
0.0
 10
39.3368192408
 20
10.8851699372
 30
0.0
 10
39.3310051714
 20
10.885019266
 30
0.0
 10
39.3232633043
 20
10.8848286536
 30
0.0
 10
39.3136409228
 20
10.8846591966
 30
0.0
 10
39.3022224996
 20
10.8844908808
 30
0.0
 10
39.289098944
 20
10.8843335685
 30
0.0
 10
39.2743780845
 20
10.8841860929
 30
0.0
 10
39.2581797366
 20
10.8840506946
 30
0.0
 10
39.240636131
 20
10.8839283
 30
0.0
 10
39.2218903423
 20
10.8838200578
 30
0.0
 10
39.2020953999
 20
10.8837268702
 30
0.0
 10
39.1814127526
 20
10.8836495356
 30
0.0
 10
39.1600110981
 20
10.8835887036
 30
0.0
 10
39.1380650942
 20
10.8835448866
 30
0.0
 10
39.1157551913
 20
10.8835184511
 30
0.0
 10
39.1007806241
 20
10.8835125704
 30
0.0
 10
39.093263392
 20
10.8835125696
 30
0.0
 11
39.3431110459
 21
10.8856181318
 31
0.0
 11
39.3413054016
 21
10.8854217576
 31
0.0
 11
39.3374762687
 21
10.8852275679
 31
0.0
 11
39.3316549738
 21
10.8850371813
 31
0.0
 11
39.323889034
 21
10.8848521555
 31
0.0
 11
39.3142418361
 21
10.8846739996
 31
0.0
 11
39.3027919193
 21
10.8845041647
 31
0.0
 11
39.2896327849
 21
10.8843440382
 31
0.0
 11
39.2748717568
 21
10.884194926
 31
0.0
 11
39.2586293258
 21
10.8840580451
 31
0.0
 11
39.2410378649
 21
10.8839345113
 31
0.0
 11
39.2222409893
 21
10.8838253329
 31
0.0
 11
39.2023920107
 21
10.8837314004
 31
0.0
 11
39.1816530745
 21
10.8836534807
 31
0.0
 11
39.160193079
 21
10.883592208
 31
0.0
 11
39.1381870739
 21
10.8835480825
 31
0.0
 11
39.1158150867
 21
10.8835214642
 31
0.0
 11
39.093263392
 21
10.8835125696
 31
0.0
  0
LINE
  5
329
100
AcDbEntity
  8
ASSI
100
AcDbLine
 62
7
  6
CONTINUOUS
 10
21.9751506458
 20
7.2325998932
 11
21.9751506458
 21
6.9987614432
  0
LINE
  5
32A
100
AcDbEntity
  8
ASSI
100
AcDbLine
 62
7
  6
CONTINUOUS
 10
21.9751506458
 20
6.9987614432
 11
21.9751506458
 21
6.7649238751
  0
LINE
  5
32B
100
AcDbEntity
  8
ASSI
100
AcDbLine
 62
7
  6
CONTINUOUS
 10
21.9751506458
 20
6.7649238751
 11
21.9751506458
 21
6.5310872403
  0
LINE
  5
32C
100
AcDbEntity
  8
ASSI
100
AcDbLine
 62
7
  6
CONTINUOUS
 10
21.9751506458
 20
6.5310872403
 11
21.9751506458
 21
6.2972515898
  0
LINE
  5
32D
100
AcDbEntity
  8
ASSI
100
AcDbLine
 62
7
  6
CONTINUOUS
 10
21.9751506458
 20
6.2972515898
 11
21.9751506458
 21
6.0634169747
  0
LINE
  5
32E
100
AcDbEntity
  8
ASSI
100
AcDbLine
 62
7
  6
CONTINUOUS
 10
21.9751506458
 20
6.0634169747
 11
21.9751506458
 21
5.8295834463
  0
LINE
  5
32F
100
AcDbEntity
  8
ASSI
100
AcDbLine
 62
7
  6
CONTINUOUS
 10
12.8751506458
 20
5.8295834463
 11
12.8751506458
 21
7.2325998932
  0
SPLINE
  5
330
100
AcDbEntity
  8
ASSI
100
AcDbSpline
 62
7
  6
CONTINUOUS
 70
0
 71
3
 72
23
 73
19
 74
17
 42
0.0000001
 43
0.0000001
 44
0.0000000001
 12
-0.6256304749
 22
0.0
 32
0.0
 13
0.0
 23
0.6256304749
 33
0.0
 40
0.0
 40
0.0
 40
0.0
 40
0.0
 40
0.0625348873
 40
0.125302776
 40
0.1879610843
 40
0.2502495145
 40
0.3125069208
 40
0.3750288287
 40
0.4375113249
 40
0.4996701031
 40
0.5618372342
 40
0.6243553179
 40
0.6869429983
 40
0.7492898499
 40
0.811675364
 40
0.8744418063
 40
0.9373328547
 40
1.0
 40
1.0
 40
1.0
 40
1.0
 10
13.2732521023
 20
5.4310916578
 30
0.0
 10
13.2602108585
 20
5.4310916578
 30
0.0
 10
13.2340617787
 20
5.4323680939
 30
0.0
 10
13.1952257795
 20
5.4381106548
 30
0.0
 10
13.1571871662
 20
5.4476258374
 30
0.0
 10
13.1203661017
 20
5.4607867816
 30
0.0
 10
13.0850349747
 20
5.4774755875
 30
0.0
 10
13.0514775247
 20
5.4975734904
 30
0.0
 10
13.0200779999
 20
5.520864872
 30
0.0
 10
12.9911727829
 20
5.5470767531
 30
0.0
 10
12.964968833
 20
5.5759991623
 30
0.0
 10
12.941677119
 20
5.6074269211
 30
0.0
 10
12.9215718362
 20
5.6410263498
 30
0.0
 10
12.9048728214
 20
5.6764108725
 30
0.0
 10
12.8917017486
 20
5.7132935761
 30
0.0
 10
12.8821777507
 20
5.7514005719
 30
0.0
 10
12.8764286992
 20
5.7903122655
 30
0.0
 10
12.8751506458
 20
5.816514621
 30
0.0
 10
12.8751506458
 20
5.8295834463
 30
0.0
 11
13.2732521023
 21
5.4310916578
 31
0.0
 11
13.2341750039
 21
5.4330012993
 31
0.0
 11
13.1953280483
 21
5.4387465571
 31
0.0
 11
13.1572992144
 21
5.4482608645
 31
0.0
 11
13.1206036479
 21
5.4613780465
 31
0.0
 11
13.0853852255
 21
5.4780146148
 31
0.0
 11
13.0518280505
 21
5.4981130481
 31
0.0
 11
13.0204319351
 21
5.5214022431
 31
0.0
 11
12.9916242863
 21
5.547525586
 31
0.0
 11
12.9655100207
 21
5.5763485157
 31
0.0
 11
12.9422205645
 21
5.6077721546
 31
0.0
 11
12.9221137769
 21
5.641372288
 31
0.0
 11
12.9054652882
 21
5.6766469661
 31
0.0
 11
12.8923379683
 21
5.7134034095
 31
0.0
 11
12.8828148858
 21
5.7514997844
 31
0.0
 11
12.8770628704
 21
5.7904236308
 31
0.0
 11
12.8751506458
 21
5.8295834463
 31
0.0
  0
SPLINE
  5
331
100
AcDbEntity
  8
ASSI
100
AcDbSpline
 62
7
  6
CONTINUOUS
 70
0
 71
3
 72
23
 73
19
 74
17
 42
0.0000001
 43
0.0000001
 44
0.0000000001
 12
-0.0
 22
0.6260794102
 32
0.0
 13
0.6260794102
 23
0.0
 33
0.0
 40
0.0
 40
0.0
 40
0.0
 40
0.0
 40
0.0625064794
 40
0.125265243
 40
0.1879314833
 40
0.2502417825
 40
0.3125316189
 40
0.3750924245
 40
0.4376158557
 40
0.4998130445
 40
0.5620138933
 40
0.624555553
 40
0.6871533927
 40
0.7494944038
 40
0.8118588393
 40
0.874584964
 40
0.9374149203
 40
1.0
 40
1.0
 40
1.0
 40
1.0
 10
12.8751506458
 20
7.2325998932
 30
0.0
 10
12.8751506458
 20
7.2456445665
 30
0.0
 10
12.8764282751
 20
7.2718045673
 30
0.0
 10
12.8821757551
 20
7.3106620743
 30
0.0
 10
12.8917006376
 20
7.3487317181
 30
0.0
 10
12.9048768659
 20
7.3855909135
 30
0.0
 10
12.921586749
 20
7.4209646099
 30
0.0
 10
12.941711054
 20
7.4545662788
 30
0.0
 10
12.9650329031
 20
7.4860088609
 30
0.0
 10
12.9912777129
 20
7.5149538694
 30
0.0
 10
13.0202334065
 20
7.5411925432
 30
0.0
 10
13.0516924999
 20
7.5645127597
 30
0.0
 10
13.0853185413
 20
7.5846396156
 30
0.0
 10
13.1207231068
 20
7.6013537314
 30
0.0
 10
13.1576174136
 20
7.6145341362
 30
0.0
 10
13.1957259409
 20
7.624062791
 30
0.0
 10
13.2346272337
 20
7.6298132737
 30
0.0
 10
13.2608184985
 20
7.6310916578
 30
0.0
 10
13.2738795751
 20
7.6310916578
 30
0.0
 11
12.8751506458
 21
7.2325998932
 31
0.0
 11
12.877061468
 21
7.2716872347
 31
0.0
 11
12.8828114354
 21
7.3105562037
 31
0.0
 11
12.8923353661
 21
7.3486167457
 31
0.0
 11
12.905467856
 21
7.3853510767
 31
0.0
 11
12.9221257068
 21
7.4206128118
 31
0.0
 11
12.9422509552
 21
7.4542150309
 31
0.0
 11
12.9655711757
 21
7.4856549673
 31
0.0
 11
12.9917277326
 21
7.5145026305
 31
0.0
 11
13.0205847977
 21
7.540652227
 31
0.0
 11
13.0520404158
 21
7.5639704598
 31
0.0
 11
13.0856677354
 21
7.5840989221
 31
0.0
 11
13.1209623496
 21
7.6007621799
 31
0.0
 11
13.1577311909
 21
7.6138988191
 31
0.0
 11
13.1958294765
 21
7.6234263636
 31
0.0
 11
13.2347430283
 21
7.6291795386
 31
0.0
 11
13.2738795751
 21
7.6310916578
 31
0.0
  0
SPLINE
  5
332
100
AcDbEntity
  8
ASSI
100
AcDbSpline
 62
7
  6
CONTINUOUS
 70
0
 71
3
 72
23
 73
19
 74
17
 42
0.0000001
 43
0.0000001
 44
0.0000000001
 12
0.0
 22
-0.6256304749
 32
0.0
 13
-0.6256304749
 23
0.0
 33
0.0
 40
0.0
 40
0.0
 40
0.0
 40
0.0
 40
0.0626702289
 40
0.1255649537
 40
0.1883377991
 40
0.2507257318
 40
0.3130696196
 40
0.3756555984
 40
0.4381764296
 40
0.5003456957
 40
0.5625023603
 40
0.6249821737
 40
0.6875058217
 40
0.7497661681
 40
0.8120520785
 40
0.8747039402
 40
0.9374681374
 40
1.0
 40
1.0
 40
1.0
 40
1.0
 10
21.9751506458
 20
5.8295834463
 30
0.0
 10
21.9751506458
 20
5.8165139779
 30
0.0
 10
21.9738724606
 20
5.7903102099
 30
0.0
 10
21.9681227071
 20
5.7513958342
 30
0.0
 10
21.9585974783
 20
5.7132864407
 30
0.0
 10
21.9454251596
 20
5.6764028774
 30
0.0
 10
21.9287255629
 20
5.6410191557
 30
0.0
 10
21.9086198648
 20
5.6074204468
 30
0.0
 10
21.8853271422
 20
5.5759926007
 30
0.0
 10
21.8591221279
 20
5.5470703691
 30
0.0
 10
21.8302167156
 20
5.5208595377
 30
0.0
 10
21.7988172545
 20
5.497569152
 30
0.0
 10
21.7652590667
 20
5.4774716614
 30
0.0
 10
21.7299271517
 20
5.4607834517
 30
0.0
 10
21.6931069787
 20
5.4476237689
 30
0.0
 10
21.6550707955
 20
5.438109825
 30
0.0
 10
21.6162374788
 20
5.4323679636
 30
0.0
 10
21.5900898023
 20
5.4310916578
 30
0.0
 10
21.5770491894
 20
5.4310916578
 30
0.0
 11
21.9751506458
 21
5.8295834463
 31
0.0
 11
21.973238233
 21
5.7904217085
 31
0.0
 11
21.9674855819
 21
5.7514956309
 31
0.0
 11
21.9579609332
 21
5.7133955184
 31
0.0
 11
21.9448322748
 21
5.6766379462
 31
0.0
 11
21.9281837951
 21
5.6413653143
 31
0.0
 11
21.9080769311
 21
5.6077664673
 31
0.0
 11
21.8847858421
 21
5.576341899
 31
0.0
 11
21.8586700091
 21
5.5475185869
 31
0.0
 11
21.8298627317
 21
5.521396803
 31
0.0
 11
21.7984675104
 21
5.49810922
 31
0.0
 11
21.7649090248
 21
5.478010856
 31
0.0
 11
21.7296885666
 21
5.461374291
 31
0.0
 11
21.6929941869
 21
5.4482584726
 31
0.0
 11
21.6549691169
 21
5.4387457378
 31
0.0
 11
21.6161244021
 21
5.4330011145
 31
0.0
 11
21.5770491894
 21
5.4310916578
 31
0.0
  0
SPLINE
  5
333
100
AcDbEntity
  8
ASSI
100
AcDbSpline
 62
7
  6
CONTINUOUS
 70
0
 71
3
 72
23
 73
19
 74
17
 42
0.0000001
 43
0.0000001
 44
0.0000000001
 12
0.6260794102
 22
0.0
 32
0.0
 13
-0.0
 23
-0.6260794102
 33
0.0
 40
0.0
 40
0.0
 40
0.0
 40
0.0
 40
0.0625881422
 40
0.1254217627
 40
0.1881542833
 40
0.2505211627
 40
0.3128592232
 40
0.3754553554
 40
0.4379997474
 40
0.5002027209
 40
0.5623977915
 40
0.6249185204
 40
0.6874810527
 40
0.7497738282
 40
0.8120816345
 40
0.8747414598
 40
0.937496554
 40
1.0
 40
1.0
 40
1.0
 40
1.0
 10
21.5764217166
 20
7.6310916578
 30
0.0
 10
21.5894834323
 20
7.6310916578
 30
0.0
 10
21.6156761037
 20
7.6298131424
 30
0.0
 10
21.6545800723
 20
7.6240619597
 30
0.0
 10
21.6926910006
 20
7.6145320746
 30
0.0
 10
21.7295861743
 20
7.6013504222
 30
0.0
 10
21.7649899446
 20
7.5846357218
 30
0.0
 10
21.7986152644
 20
7.5645084517
 30
0.0
 10
21.8300744403
 20
7.5411872305
 30
0.0
 10
21.8590299527
 20
7.5149474973
 30
0.0
 10
21.8852737091
 20
7.4860023006
 30
0.0
 10
21.9085945593
 20
7.4545597904
 30
0.0
 10
21.9287184517
 20
7.4209573914
 30
0.0
 10
21.9454277436
 20
7.3855829061
 30
0.0
 10
21.958602717
 20
7.3487245926
 30
0.0
 10
21.9681263657
 20
7.3106573647
 30
0.0
 10
21.9738731471
 20
7.2718025326
 30
0.0
 10
21.9751506458
 20
7.2456439334
 30
0.0
 10
21.9751506458
 20
7.2325998932
 30
0.0
 11
21.5764217166
 21
7.6310916578
 31
0.0
 11
21.6155601739
 21
7.6291793514
 31
0.0
 11
21.654475951
 21
7.6234255427
 31
0.0
 11
21.692577973
 21
7.6138964337
 31
0.0
 11
21.7293479591
 21
7.6007584511
 31
0.0
 11
21.7646405334
 21
7.5840951995
 31
0.0
 11
21.7982665627
 21
7.5639666632
 31
0.0
 11
21.8297231037
 21
7.5406468028
 31
0.0
 11
21.8585805479
 21
7.5144956437
 31
0.0
 11
21.8847355445
 21
7.4856483559
 31
0.0
 11
21.9080541473
 21
7.4542093259
 31
0.0
 11
21.9281793255
 21
7.4206058048
 31
0.0
 11
21.9448371769
 21
7.3853420348
 31
0.0
 11
21.9579683113
 21
7.3486088767
 31
0.0
 11
21.9674906747
 21
7.3105520826
 31
0.0
 11
21.9732400092
 21
7.2716853423
 31
0.0
 11
21.9751506458
 21
7.2325998932
 31
0.0
  0
SPLINE
  5
334
100
AcDbEntity
  8
ASSI
100
AcDbSpline
 62
253
  6
CONTINUOUS
 70
0
 71
3
 72
10
 73
6
 74
4
 42
0.0000001
 43
0.0000001
 44
0.0000000001
 12
0.0002514557
 22
-9.0950366933
 32
0.0
 13
0.0060355961
 23
-9.0950346942
 33
0.0
 40
0.0
 40
0.0
 40
0.0
 40
0.0
 40
0.3333523679
 40
0.6666867588
 40
1.0
 40
1.0
 40
1.0
 40
1.0
 10
39.5929588494
 20
10.6356276752
 30
0.0
 10
39.5929867906
 20
9.6250103359
 30
0.0
 10
39.593256733
 20
7.6038301568
 30
0.0
 10
39.5943045262
 20
4.5721514185
 30
0.0
 10
39.5954314365
 20
2.5510901552
 30
0.0
 10
39.5961020179
 20
1.5405916578
 30
0.0
 11
39.5929588494
 21
10.6356276752
 31
0.0
 11
39.5933638979
 21
7.6037756832
 31
0.0
 11
39.5944116555
 21
4.5720873464
 31
0.0
 11
39.5961020179
 21
1.5405916578
 31
0.0
  0
SPLINE
  5
335
100
AcDbEntity
  8
ASSI
100
AcDbSpline
 62
253
  6
CONTINUOUS
 70
0
 71
3
 72
24
 73
20
 74
18
 42
0.0000001
 43
0.0000001
 44
0.0000000001
 12
-0.4951381098
 22
-0.0674744652
 32
0.0
 13
-0.4997144696
 23
-0.0000069948
 33
0.0
 40
0.0
 40
0.0
 40
0.0
 40
0.0
 40
0.0072410904
 40
0.0225728332
 40
0.0458757318
 40
0.0769602085
 40
0.1155730933
 40
0.1614001728
 40
0.2140673257
 40
0.2731450583
 40
0.3381511715
 40
0.4085561138
 40
0.4837853051
 40
0.5632252357
 40
0.64622704
 40
0.7321147597
 40
0.8201880871
 40
0.9097254715
 40
1.0
 40
1.0
 40
1.0
 40
1.0
 10
39.5929588494
 20
10.6356276642
 30
0.0
 10
39.5917637362
 20
10.6354648013
 30
0.0
 10
39.5879938938
 20
10.6353934302
 30
0.0
 10
39.5803643852
 20
10.6351370909
 30
0.0
 10
39.5687478342
 20
10.6349746307
 30
0.0
 10
39.5532598776
 20
10.63476562
 30
0.0
 10
39.5340169671
 20
10.6345807794
 30
0.0
 10
39.5111798097
 20
10.6343966994
 30
0.0
 10
39.4849332871
 20
10.6342247112
 30
0.0
 10
39.4554920738
 20
10.6340633558
 30
0.0
 10
39.4230961137
 20
10.6339151452
 30
0.0
 10
39.3880097098
 20
10.6337810772
 30
0.0
 10
39.3505189722
 20
10.6336624168
 30
0.0
 10
39.3109299022
 20
10.6335601541
 30
0.0
 10
39.2695653805
 20
10.6334751658
 30
0.0
 10
39.2267627463
 20
10.6334081699
 30
0.0
 10
39.1828714452
 20
10.6333597281
 30
0.0
 10
39.13824941
 20
10.6333302492
 30
0.0
 10
39.1082978715
 20
10.6333234141
 30
0.0
 10
39.0932607088
 20
10.6333232036
 30
0.0
 11
39.5929588494
 21
10.6356276642
 31
0.0
 11
39.5893467225
 21
10.6354133764
 31
0.0
 11
39.5816881604
 21
10.6352014505
 31
0.0
 11
39.57004522
 21
10.63499359
 31
0.0
 11
39.5545131717
 21
10.6347915148
 31
0.0
 11
39.5352187363
 21
10.6345968674
 31
0.0
 11
39.5123190339
 21
10.6344112371
 31
0.0
 11
39.486001078
 21
10.6342361414
 31
0.0
 11
39.4564795309
 21
10.6340730107
 31
0.0
 11
39.4239953811
 21
10.6339231782
 31
0.0
 11
39.3888132729
 21
10.633787867
 31
0.0
 11
39.3512203479
 21
10.6336681837
 31
0.0
 11
39.311523199
 21
10.6335651066
 31
0.0
 11
39.2700460847
 21
10.6334794788
 31
0.0
 11
39.2271268015
 21
10.6334119998
 31
0.0
 11
39.1831153124
 21
10.6333632203
 31
0.0
 11
39.1383721957
 21
10.6333335418
 31
0.0
 11
39.0932607088
 21
10.6333232036
 31
0.0
  0
SPLINE
  5
336
100
AcDbEntity
  8
ASSI
100
AcDbSpline
 62
253
  6
CONTINUOUS
 70
0
 71
3
 72
23
 73
19
 74
17
 42
0.0000001
 43
0.0000001
 44
0.0000000001
 12
-0.4390227157
 22
-0.2392018116
 32
0.0
 13
-0.4999583399
 23
-0.0003316598
 33
0.0
 40
0.0
 40
0.0
 40
0.0
 40
0.0
 40
0.008152361
 40
0.0253232964
 40
0.051431694
 40
0.0862550999
 40
0.1294799963
 40
0.180712013
 40
0.2394815731
 40
0.3052489593
 40
0.3774096104
 40
0.4552998516
 40
0.5382030955
 40
0.6253564931
 40
0.7159579915
 40
0.8091737417
 40
0.9041457919
 40
1.0
 40
1.0
 40
1.0
 40
1.0
 10
39.5961020179
 20
1.5405916578
 30
0.0
 10
39.594908994
 20
1.5399416379
 30
0.0
 10
39.5905567128
 20
1.5395556728
 30
0.0
 10
39.5821598757
 20
1.5385255459
 30
0.0
 10
39.5691005832
 20
1.5378016461
 30
0.0
 10
39.5517905714
 20
1.5369241126
 30
0.0
 10
39.5302499829
 20
1.536132924
 30
0.0
 10
39.5047295769
 20
1.5353534398
 30
0.0
 10
39.4754449529
 20
1.5346259895
 30
0.0
 10
39.4426720463
 20
1.5339480504
 30
0.0
 10
39.4067104581
 20
1.533329981
 30
0.0
 10
39.3678919217
 20
1.5327768747
 30
0.0
 10
39.3265736409
 20
1.532294451
 30
0.0
 10
39.2831361042
 20
1.5318872607
 30
0.0
 10
39.2379792424
 20
1.5315592211
 30
0.0
 10
39.1915188418
 20
1.5313134393
 30
0.0
 10
39.1441826896
 20
1.5311522416
 30
0.0
 10
39.1123809746
 20
1.5311022548
 30
0.0
 10
39.0964066044
 20
1.5310916578
 30
0.0
 11
39.5961020179
 21
1.5405916578
 31
0.0
 11
39.5921293116
 21
1.5396805646
 31
0.0
 11
39.5835921499
 21
1.5387778605
 31
0.0
 11
39.5705691401
 21
1.5378918572
 31
0.0
 11
39.553180194
 21
1.5370307128
 31
0.0
 11
39.5315854235
 21
1.5362023565
 31
0.0
 11
39.5059836661
 21
1.5354144154
 31
0.0
 11
39.4766106548
 21
1.5346741447
 31
0.0
 11
39.4437368467
 21
1.5339883606
 31
0.0
 11
39.4076649332
 21
1.5333633776
 31
0.0
 11
39.3687270531
 21
1.5328049502
 31
0.0
 11
39.3272817337
 21
1.5323182203
 31
0.0
 11
39.2837105904
 21
1.5319076695
 31
0.0
 11
39.238414812
 21
1.5315770782
 31
0.0
 11
39.1918114678
 21
1.5313294902
 31
0.0
 11
39.1443296661
 21
1.5311671852
 31
0.0
 11
39.0964066044
 21
1.5310916578
 31
0.0
  0
SPLINE
  5
337
100
AcDbEntity
  8
ASSI
100
AcDbSpline
 62
253
  6
CONTINUOUS
 70
0
 71
3
 72
23
 73
19
 74
17
 42
0.0000001
 43
0.0000001
 44
0.0000000001
 12
-0.1156656166
 22
-0.4999835144
 32
0.0
 13
-0.5131813232
 23
-0.0026417985
 33
0.0
 40
0.0
 40
0.0
 40
0.0
 40
0.0
 40
0.0159236402
 40
0.037519705
 40
0.0662667634
 40
0.1026032067
 40
0.1465356752
 40
0.197849916
 40
0.2561916431
 40
0.3211034949
 40
0.3920454012
 40
0.4684080643
 40
0.5495234077
 40
0.6346736632
 40
0.7230998673
 40
0.8140101335
 40
0.9065878679
 40
1.0
 40
1.0
 40
1.0
 40
1.0
 10
39.6304648718
 20
-10.1017636706
 30
0.0
 10
39.6298509325
 20
-10.1044175231
 30
0.0
 10
39.6262396259
 20
-10.1100918294
 30
0.0
 10
39.6171492883
 20
-10.1169781774
 30
0.0
 10
39.6039115985
 20
-10.1237755643
 30
0.0
 10
39.5864426616
 20
-10.1303664046
 30
0.0
 10
39.56484259
 20
-10.1367495009
 30
0.0
 10
39.5392747326
 20
-10.1428364154
 30
0.0
 10
39.5099618976
 20
-10.1485705226
 30
0.0
 10
39.4771663602
 20
-10.1538910211
 30
0.0
 10
39.4411864648
 20
-10.1587458073
 30
0.0
 10
39.4023513135
 20
-10.1630872471
 30
0.0
 10
39.3610172601
 20
-10.1668735492
 30
0.0
 10
39.3175641508
 20
-10.1700684935
 30
0.0
 10
39.2723916605
 20
-10.1726417262
 30
0.0
 10
39.2259154349
 20
-10.1745689003
 30
0.0
 10
39.1785633962
 20
-10.1758318439
 30
0.0
 10
39.1467485788
 20
-10.1762224997
 30
0.0
 10
39.1307694582
 20
-10.1763047584
 30
0.0
 11
39.6304648718
 21
-10.1017636706
 31
0.0
 11
39.6265090129
 21
-10.1089141861
 31
0.0
 11
39.617986263
 21
-10.1159988291
 31
0.0
 11
39.6049751361
 21
-10.1229523337
 31
0.0
 11
39.5875954943
 21
-10.1297106425
 31
0.0
 11
39.5660074436
 21
-10.1362114959
 31
0.0
 11
39.5404098593
 21
-10.1423950064
 31
0.0
 11
39.5110385534
 21
-10.1482042096
 31
0.0
 11
39.4781641025
 21
-10.1535855896
 31
0.0
 11
39.4420893553
 21
-10.1584895716
 31
0.0
 11
39.4031466424
 21
-10.1628709788
 31
0.0
 11
39.361694715
 21
-10.1666894484
 31
0.0
 11
39.3181154397
 21
-10.1699098035
 31
0.0
 11
39.272810281
 21
-10.1725023775
 31
0.0
 11
39.2261966026
 21
-10.1744432868
 31
0.0
 11
39.1787038228
 21
-10.1757146511
 31
0.0
 11
39.1307694582
 21
-10.1763047584
 31
0.0
  0
SPLINE
  5
338
100
AcDbEntity
  8
ASSI
100
AcDbSpline
 62
253
  6
CONTINUOUS
 70
0
 71
3
 72
24
 73
20
 74
18
 42
0.0000001
 43
0.0000001
 44
0.0000000001
 12
0.0022370123
 22
-0.8499340702
 32
0.0
 13
0.2685899292
 23
-0.8063822777
 33
0.0
 40
0.0
 40
0.0
 40
0.0
 40
0.0
 40
0.0929977429
 40
0.184256553
 40
0.2731879617
 40
0.3592144101
 40
0.441779768
 40
0.52034911
 40
0.5944135008
 40
0.6634931372
 40
0.7271410503
 40
0.784944825
 40
0.836530752
 40
0.8815652918
 40
0.9197580269
 40
0.9508640559
 40
0.9746874526
 40
0.9910862544
 40
1.0
 40
1.0
 40
1.0
 40
1.0
 10
39.1307694582
 20
-10.1763047618
 30
0.0
 10
39.1308388039
 20
-10.2026520785
 30
0.0
 10
39.1310134386
 20
-10.254853963
 30
0.0
 10
39.1313866967
 20
-10.3322506111
 30
0.0
 10
39.1318670237
 20
-10.4076715801
 30
0.0
 10
39.1324511444
 20
-10.4806287807
 30
0.0
 10
39.1331352233
 20
-10.5506492817
 30
0.0
 10
39.1339146629
 20
-10.6172795718
 30
0.0
 10
39.134784211
 20
-10.6800877438
 30
0.0
 10
39.1357379889
 20
-10.7386667418
 30
0.0
 10
39.1367692544
 20
-10.7926368901
 30
0.0
 10
39.1378711967
 20
-10.841648176
 30
0.0
 10
39.139034149
 20
-10.8853835715
 30
0.0
 10
39.1402537995
 20
-10.9235573389
 30
0.0
 10
39.1415050746
 20
-10.9559290699
 30
0.0
 10
39.1428149525
 20
-10.9822704037
 30
0.0
 10
39.1440562254
 20
-11.0024644506
 30
0.0
 10
39.1454383894
 20
-11.016274281
 30
0.0
 10
39.1463228665
 20
-11.023456152
 30
0.0
 10
39.1471209139
 20
-11.0258521141
 30
0.0
 11
39.1307694582
 21
-10.1763047618
 31
0.0
 11
39.1310347314
 21
-10.2553465406
 31
0.0
 11
39.1314101189
 21
-10.3329098728
 31
0.0
 11
39.1318932376
 21
-10.4084944248
 31
0.0
 11
39.1324809219
 21
-10.4816091256
 31
0.0
 11
39.1331693915
 21
-10.5517811021
 31
0.0
 11
39.1339541818
 21
-10.6185554824
 31
0.0
 11
39.1348302149
 21
-10.6814994537
 31
0.0
 11
39.1357918155
 21
-10.7402049186
 31
0.0
 11
39.1368327621
 21
-10.7942916198
 31
0.0
 11
39.1379463067
 21
-10.8434085663
 31
0.0
 11
39.1391252423
 21
-10.8872375021
 31
0.0
 11
39.140361927
 21
-10.925494041
 31
0.0
 11
39.1416483507
 21
-10.9579299602
 31
0.0
 11
39.1429761562
 21
-10.9843347613
 31
0.0
 11
39.1443367949
 21
-11.0045373806
 31
0.0
 11
39.1457213192
 21
-11.0184063929
 31
0.0
 11
39.1471209139
 21
-11.0258521141
 31
0.0
  0
SPLINE
  5
339
100
AcDbEntity
  8
ASSI
100
AcDbSpline
 62
253
  6
CONTINUOUS
 70
0
 71
3
 72
24
 73
20
 74
18
 42
0.0000001
 43
0.0000001
 44
0.0000000001
 12
0.0022405343
 22
-0.425539131
 32
0.0
 13
0.2359406645
 23
-0.3541476737
 33
0.0
 40
0.0
 40
0.0
 40
0.0
 40
0.0
 40
0.092855355
 40
0.1839967866
 40
0.2728162512
 40
0.3587375314
 40
0.4412058963
 40
0.5196878524
 40
0.5936759745
 40
0.6626920345
 40
0.7262908445
 40
0.7840621562
 40
0.8356349505
 40
0.8806792824
 40
0.9189099719
 40
0.9500906576
 40
0.9740413608
 40
0.9906572345
 40
1.0
 40
1.0
 40
1.0
 40
1.0
 10
39.6304648718
 20
-10.1017636706
 30
0.0
 10
39.6305342203
 20
-10.1149348663
 30
0.0
 10
39.6307088024
 20
-10.1410339651
 30
0.0
 10
39.631082065
 20
-10.1797307542
 30
0.0
 10
39.63156237
 20
-10.217442706
 30
0.0
 10
39.6321465149
 20
-10.2539227851
 30
0.0
 10
39.6328306075
 20
-10.2889345094
 30
0.0
 10
39.6336100781
 20
-10.3222511112
 30
0.0
 10
39.6344796694
 20
-10.3536566293
 30
0.0
 10
39.6354334874
 20
-10.3829475126
 30
0.0
 10
39.6364648684
 20
-10.4099339961
 30
0.0
 10
39.6375667616
 20
-10.4344409578
 30
0.0
 10
39.6387303119
 20
-10.4563106028
 30
0.0
 10
39.6399487944
 20
-10.475398564
 30
0.0
 10
39.6412045387
 20
-10.4915905557
 30
0.0
 10
39.6425041756
 20
-10.5047588089
 30
0.0
 10
39.643775596
 20
-10.5148889479
 30
0.0
 10
39.6451080059
 20
-10.5217855904
 30
0.0
 10
39.646081548
 20
-10.5254344405
 30
0.0
 10
39.6468163274
 20
-10.5265373468
 30
0.0
 11
39.6304648718
 21
-10.1017636706
 31
0.0
 11
39.6307300795
 21
-10.1412769154
 31
0.0
 11
39.6311054721
 21
-10.1800598818
 31
0.0
 11
39.6315885819
 21
-10.2178534758
 31
0.0
 11
39.6321762757
 21
-10.2544121262
 31
0.0
 11
39.6328647559
 21
-10.2894993749
 31
0.0
 11
39.6336495655
 21
-10.3228877588
 31
0.0
 11
39.6345256233
 21
-10.3543608462
 31
0.0
 11
39.6354872541
 21
-10.3837145401
 31
0.0
 11
39.6365282349
 21
-10.4107586703
 31
0.0
 11
39.637641817
 21
-10.4353177312
 31
0.0
 11
39.6388207923
 21
-10.4572325871
 31
0.0
 11
39.6400575198
 21
-10.4763610408
 31
0.0
 11
39.6413439831
 21
-10.4925789773
 31
0.0
 11
39.6426718399
 21
-10.5057811541
 31
0.0
 11
39.6440324983
 21
-10.5158820237
 31
0.0
 11
39.6454171126
 21
-10.5228159325
 31
0.0
 11
39.6468163274
 21
-10.5265373468
 31
0.0
  0
SPLINE
  5
33A
100
AcDbEntity
  8
ASSI
100
AcDbSpline
 62
253
  6
CONTINUOUS
 70
0
 71
3
 72
10
 73
6
 74
4
 42
0.0000001
 43
0.0000001
 44
0.0000000001
 12
0.0060355961
 22
9.0950346942
 32
0.0
 13
0.0002514557
 23
9.0950366933
 33
0.0
 40
0.0
 40
0.0
 40
0.0
 40
0.0
 40
0.3333132412
 40
0.6666476321
 40
1.0
 40
1.0
 40
1.0
 40
1.0
 10
-4.7458007262
 20
1.5405916578
 30
0.0
 10
-4.7451301448
 20
2.5510901552
 30
0.0
 10
-4.7440032345
 20
4.5721514185
 30
0.0
 10
-4.7429554413
 20
7.6038301568
 30
0.0
 10
-4.7426854989
 20
9.6250103359
 30
0.0
 10
-4.7426575578
 20
10.6356276752
 30
0.0
 11
-4.7458007262
 21
1.5405916578
 31
0.0
 11
-4.7441103638
 21
4.5720873464
 31
0.0
 11
-4.7430626062
 21
7.6037756832
 31
0.0
 11
-4.7426575578
 21
10.6356276752
 31
0.0
  0
SPLINE
  5
33B
100
AcDbEntity
  8
ASSI
100
AcDbSpline
 62
253
  6
CONTINUOUS
 70
0
 71
3
 72
23
 73
19
 74
17
 42
0.0000001
 43
0.0000001
 44
0.0000000001
 12
0.4390227135
 22
-0.2392018158
 32
0.0
 13
0.4999583399
 23
-0.0003316598
 33
0.0
 40
0.0
 40
0.0
 40
0.0
 40
0.0
 40
0.0081523609
 40
0.0253232963
 40
0.0514316938
 40
0.0862550996
 40
0.1294799961
 40
0.1807120127
 40
0.2394815728
 40
0.305248959
 40
0.3774096101
 40
0.4552998514
 40
0.5382030953
 40
0.6253564929
 40
0.7159579914
 40
0.8091737416
 40
0.9041457919
 40
1.0
 40
1.0
 40
1.0
 40
1.0
 10
-4.7458007262
 20
1.5405916578
 30
0.0
 10
-4.7446077023
 20
1.5399416379
 30
0.0
 10
-4.7402554212
 20
1.5395556728
 30
0.0
 10
-4.7318585841
 20
1.5385255459
 30
0.0
 10
-4.7187992916
 20
1.5378016461
 30
0.0
 10
-4.7014892798
 20
1.5369241126
 30
0.0
 10
-4.6799486914
 20
1.536132924
 30
0.0
 10
-4.6544282854
 20
1.5353534398
 30
0.0
 10
-4.6251436613
 20
1.5346259895
 30
0.0
 10
-4.5923707548
 20
1.5339480504
 30
0.0
 10
-4.5564091666
 20
1.533329981
 30
0.0
 10
-4.5175906301
 20
1.5327768747
 30
0.0
 10
-4.4762723493
 20
1.532294451
 30
0.0
 10
-4.4328348127
 20
1.5318872607
 30
0.0
 10
-4.3876779508
 20
1.5315592211
 30
0.0
 10
-4.3412175502
 20
1.5313134393
 30
0.0
 10
-4.293881398
 20
1.5311522416
 30
0.0
 10
-4.262079683
 20
1.5311022548
 30
0.0
 10
-4.2461053127
 20
1.5310916578
 30
0.0
 11
-4.7458007262
 21
1.5405916578
 31
0.0
 11
-4.74182802
 21
1.5396805646
 31
0.0
 11
-4.7332908582
 21
1.5387778605
 31
0.0
 11
-4.7202678485
 21
1.5378918572
 31
0.0
 11
-4.7028789025
 21
1.5370307128
 31
0.0
 11
-4.6812841319
 21
1.5362023565
 31
0.0
 11
-4.6556823746
 21
1.5354144154
 31
0.0
 11
-4.6263093632
 21
1.5346741447
 31
0.0
 11
-4.5934355551
 21
1.5339883606
 31
0.0
 11
-4.5573636417
 21
1.5333633775
 31
0.0
 11
-4.5184257615
 21
1.5328049502
 31
0.0
 11
-4.4769804422
 21
1.5323182203
 31
0.0
 11
-4.4334092988
 21
1.5319076695
 31
0.0
 11
-4.3881135204
 21
1.5315770782
 31
0.0
 11
-4.3415101761
 21
1.5313294902
 31
0.0
 11
-4.2940283745
 21
1.5311671852
 31
0.0
 11
-4.2461053127
 21
1.5310916578
 31
0.0
  0
SPLINE
  5
33C
100
AcDbEntity
  8
ASSI
100
AcDbSpline
 62
253
  6
CONTINUOUS
 70
0
 71
3
 72
24
 73
20
 74
18
 42
0.0000001
 43
0.0000001
 44
0.0000000001
 12
-0.2498750154
 22
0.0000000277
 32
0.0
 13
-0.2424250812
 23
0.0605607405
 33
0.0
 40
0.0
 40
0.0
 40
0.0
 40
0.0
 40
0.0902519062
 40
0.1797846795
 40
0.2678529052
 40
0.3537361738
 40
0.4367339978
 40
0.5161705145
 40
0.5913968937
 40
0.6617996696
 40
0.7268041989
 40
0.7858808583
 40
0.8385476229
 40
0.8843752391
 40
0.9229899153
 40
0.9540780319
 40
0.9773873145
 40
0.9927312008
 40
1.0
 40
1.0
 40
1.0
 40
1.0
 10
-4.2429621003
 20
10.8835125696
 30
0.0
 10
-4.2504793325
 20
10.8835125704
 30
0.0
 10
-4.2654538997
 20
10.8835184511
 30
0.0
 10
-4.2877638025
 20
10.8835448866
 30
0.0
 10
-4.3097098065
 20
10.8835887036
 30
0.0
 10
-4.331111461
 20
10.8836495356
 30
0.0
 10
-4.3517941083
 20
10.8837268702
 30
0.0
 10
-4.3715890506
 20
10.8838200578
 30
0.0
 10
-4.3903348393
 20
10.8839283
 30
0.0
 10
-4.4078784449
 20
10.8840506946
 30
0.0
 10
-4.4240767929
 20
10.8841860929
 30
0.0
 10
-4.4387976523
 20
10.8843335685
 30
0.0
 10
-4.4519212079
 20
10.8844908808
 30
0.0
 10
-4.4633396311
 20
10.8846591966
 30
0.0
 10
-4.4729620126
 20
10.8848286536
 30
0.0
 10
-4.4807038797
 20
10.885019266
 30
0.0
 10
-4.4865179492
 20
10.8851699372
 30
0.0
 10
-4.4903233657
 20
10.8854012067
 30
0.0
 10
-4.4922223745
 20
10.8854713972
 30
0.0
 10
-4.4928097542
 20
10.8856181318
 30
0.0
 11
-4.2429621003
 21
10.8835125696
 31
0.0
 11
-4.265513795
 21
10.8835214642
 31
0.0
 11
-4.2878857823
 21
10.8835480825
 31
0.0
 11
-4.3098917873
 21
10.883592208
 31
0.0
 11
-4.3313517829
 21
10.8836534807
 31
0.0
 11
-4.352090719
 21
10.8837314004
 31
0.0
 11
-4.3719396976
 21
10.8838253329
 31
0.0
 11
-4.3907365732
 21
10.8839345113
 31
0.0
 11
-4.4083280342
 21
10.8840580451
 31
0.0
 11
-4.4245704652
 21
10.884194926
 31
0.0
 11
-4.4393314932
 21
10.8843440382
 31
0.0
 11
-4.4524906276
 21
10.8845041647
 31
0.0
 11
-4.4639405444
 21
10.8846739996
 31
0.0
 11
-4.4735877423
 21
10.8848521555
 31
0.0
 11
-4.4813536821
 21
10.8850371813
 31
0.0
 11
-4.487174977
 21
10.8852275679
 31
0.0
 11
-4.4910041099
 21
10.8854217576
 31
0.0
 11
-4.4928097542
 21
10.8856181318
 31
0.0
  0
SPLINE
  5
33D
100
AcDbEntity
  8
ASSI
100
AcDbSpline
 62
253
  6
CONTINUOUS
 70
0
 71
3
 72
24
 73
20
 74
18
 42
0.0000001
 43
0.0000001
 44
0.0000000001
 12
-0.4997144696
 22
0.0000069948
 32
0.0
 13
-0.4951381098
 23
0.0674744651
 33
0.0
 40
0.0
 40
0.0
 40
0.0
 40
0.0
 40
0.0902745285
 40
0.1798119128
 40
0.2678852403
 40
0.3537729599
 40
0.4367747643
 40
0.5162146948
 40
0.5914438862
 40
0.6618488285
 40
0.7268549417
 40
0.7859326743
 40
0.8385998271
 40
0.8844269067
 40
0.9230397915
 40
0.9541242682
 40
0.9774271668
 40
0.9927589096
 40
1.0
 40
1.0
 40
1.0
 40
1.0
 10
-4.2429594171
 20
10.6333232036
 30
0.0
 10
-4.2579965798
 20
10.6333234141
 30
0.0
 10
-4.2879481183
 20
10.6333302492
 30
0.0
 10
-4.3325701535
 20
10.6333597281
 30
0.0
 10
-4.3764614546
 20
10.6334081699
 30
0.0
 10
-4.4192640888
 20
10.6334751658
 30
0.0
 10
-4.4606286105
 20
10.6335601541
 30
0.0
 10
-4.5002176806
 20
10.6336624168
 30
0.0
 10
-4.5377084181
 20
10.6337810772
 30
0.0
 10
-4.5727948221
 20
10.6339151452
 30
0.0
 10
-4.6051907821
 20
10.6340633558
 30
0.0
 10
-4.6346319954
 20
10.6342247112
 30
0.0
 10
-4.660878518
 20
10.6343966994
 30
0.0
 10
-4.6837156754
 20
10.6345807794
 30
0.0
 10
-4.702958586
 20
10.63476562
 30
0.0
 10
-4.7184465425
 20
10.6349746307
 30
0.0
 10
-4.7300630935
 20
10.6351370909
 30
0.0
 10
-4.7376926021
 20
10.6353934302
 30
0.0
 10
-4.7414624445
 20
10.6354648013
 30
0.0
 10
-4.7426575578
 20
10.6356276642
 30
0.0
 11
-4.2429594171
 21
10.6333232036
 31
0.0
 11
-4.288070904
 21
10.6333335418
 31
0.0
 11
-4.3328140207
 21
10.6333632203
 31
0.0
 11
-4.3768255098
 21
10.6334119998
 31
0.0
 11
-4.419744793
 21
10.6334794788
 31
0.0
 11
-4.4612219073
 21
10.6335651066
 31
0.0
 11
-4.5009190562
 21
10.6336681837
 31
0.0
 11
-4.5385119812
 21
10.633787867
 31
0.0
 11
-4.5736940894
 21
10.6339231782
 31
0.0
 11
-4.6061782392
 21
10.6340730107
 31
0.0
 11
-4.6356997863
 21
10.6342361414
 31
0.0
 11
-4.6620177422
 21
10.6344112371
 31
0.0
 11
-4.6849174446
 21
10.6345968674
 31
0.0
 11
-4.7042118801
 21
10.6347915148
 31
0.0
 11
-4.7197439284
 21
10.63499359
 31
0.0
 11
-4.7313868687
 21
10.6352014505
 31
0.0
 11
-4.7390454308
 21
10.6354133764
 31
0.0
 11
-4.7426575578
 21
10.6356276642
 31
0.0
  0
SPLINE
  5
33E
100
AcDbEntity
  8
ASSI
100
AcDbSpline
 62
253
  6
CONTINUOUS
 70
0
 71
3
 72
24
 73
20
 74
18
 42
0.0000001
 43
0.0000001
 44
0.0000000001
 12
-0.2424250813
 22
-0.0605607403
 32
0.0
 13
-0.2498750154
 23
-0.0000000277
 33
0.0
 40
0.0
 40
0.0
 40
0.0
 40
0.0
 40
0.0072687992
 40
0.0226126855
 40
0.0459219681
 40
0.0770100847
 40
0.1156247608
 40
0.1614523771
 40
0.2141191417
 40
0.2731958011
 40
0.3382003304
 40
0.4086031063
 40
0.4838294855
 40
0.5632660021
 40
0.6462638261
 40
0.7321470947
 40
0.8202153205
 40
0.9097480937
 40
1.0
 40
1.0
 40
1.0
 40
1.0
 10
39.3431110459
 20
10.8856181318
 30
0.0
 10
39.3425236661
 20
10.8854713972
 30
0.0
 10
39.3406246573
 20
10.8854012067
 30
0.0
 10
39.3368192408
 20
10.8851699372
 30
0.0
 10
39.3310051714
 20
10.885019266
 30
0.0
 10
39.3232633043
 20
10.8848286536
 30
0.0
 10
39.3136409228
 20
10.8846591966
 30
0.0
 10
39.3022224996
 20
10.8844908808
 30
0.0
 10
39.289098944
 20
10.8843335685
 30
0.0
 10
39.2743780845
 20
10.8841860929
 30
0.0
 10
39.2581797366
 20
10.8840506946
 30
0.0
 10
39.240636131
 20
10.8839283
 30
0.0
 10
39.2218903423
 20
10.8838200578
 30
0.0
 10
39.2020953999
 20
10.8837268702
 30
0.0
 10
39.1814127526
 20
10.8836495356
 30
0.0
 10
39.1600110981
 20
10.8835887036
 30
0.0
 10
39.1380650942
 20
10.8835448866
 30
0.0
 10
39.1157551913
 20
10.8835184511
 30
0.0
 10
39.1007806241
 20
10.8835125704
 30
0.0
 10
39.093263392
 20
10.8835125696
 30
0.0
 11
39.3431110459
 21
10.8856181318
 31
0.0
 11
39.3413054016
 21
10.8854217576
 31
0.0
 11
39.3374762687
 21
10.8852275679
 31
0.0
 11
39.3316549738
 21
10.8850371813
 31
0.0
 11
39.323889034
 21
10.8848521555
 31
0.0
 11
39.3142418361
 21
10.8846739996
 31
0.0
 11
39.3027919193
 21
10.8845041647
 31
0.0
 11
39.2896327849
 21
10.8843440382
 31
0.0
 11
39.2748717568
 21
10.884194926
 31
0.0
 11
39.2586293258
 21
10.8840580451
 31
0.0
 11
39.2410378649
 21
10.8839345113
 31
0.0
 11
39.2222409893
 21
10.8838253329
 31
0.0
 11
39.2023920107
 21
10.8837314004
 31
0.0
 11
39.1816530745
 21
10.8836534807
 31
0.0
 11
39.160193079
 21
10.883592208
 31
0.0
 11
39.1381870739
 21
10.8835480825
 31
0.0
 11
39.1158150867
 21
10.8835214642
 31
0.0
 11
39.093263392
 21
10.8835125696
 31
0.0
  0
SPLINE
  5
33F
100
AcDbEntity
  8
ASSI
100
AcDbSpline
 62
253
  6
CONTINUOUS
 70
0
 71
3
 72
23
 73
19
 74
17
 42
0.0000001
 43
0.0000001
 44
0.0000000001
 12
0.1156655032
 22
-0.499983543
 32
0.0
 13
0.5131813254
 23
-0.0026417988
 33
0.0
 40
0.0
 40
0.0
 40
0.0
 40
0.0
 40
0.015923639
 40
0.0375197021
 40
0.0662667587
 40
0.1026032005
 40
0.1465356677
 40
0.1978499076
 40
0.2561916344
 40
0.3211034861
 40
0.3920453925
 40
0.4684080562
 40
0.5495234005
 40
0.6346736571
 40
0.7230998625
 40
0.8140101302
 40
0.9065878662
 40
1.0
 40
1.0
 40
1.0
 40
1.0
 10
-4.7801635801
 20
-10.1017636706
 30
0.0
 10
-4.7795496415
 20
-10.1044175231
 30
0.0
 10
-4.7759383361
 20
-10.1100918297
 30
0.0
 10
-4.7668479996
 20
-10.116978178
 30
0.0
 10
-4.7536103109
 20
-10.1237755651
 30
0.0
 10
-4.7361413747
 20
-10.1303664057
 30
0.0
 10
-4.7145413038
 20
-10.1367495022
 30
0.0
 10
-4.6889734467
 20
-10.1428364171
 30
0.0
 10
-4.6596606119
 20
-10.1485705245
 30
0.0
 10
-4.6268650744
 20
-10.1538910232
 30
0.0
 10
-4.5908851788
 20
-10.1587458096
 30
0.0
 10
-4.5520500271
 20
-10.1630872498
 30
0.0
 10
-4.5107159731
 20
-10.166873552
 30
0.0
 10
-4.467262863
 20
-10.1700684966
 30
0.0
 10
-4.4220903719
 20
-10.1726417294
 30
0.0
 10
-4.3756141453
 20
-10.1745689036
 30
0.0
 10
-4.3282621056
 20
-10.1758318473
 30
0.0
 10
-4.2964472875
 20
-10.1762225031
 30
0.0
 10
-4.2804681666
 20
-10.1763047618
 30
0.0
 11
-4.7801635801
 21
-10.1017636706
 31
0.0
 11
-4.7762077228
 21
-10.1089141863
 31
0.0
 11
-4.7676849743
 21
-10.1159988295
 31
0.0
 11
-4.7546738485
 21
-10.1229523345
 31
0.0
 11
-4.7372942075
 21
-10.1297106435
 31
0.0
 11
-4.7157061575
 21
-10.1362114972
 31
0.0
 11
-4.6901085735
 21
-10.142395008
 31
0.0
 11
-4.6607372678
 21
-10.1482042115
 31
0.0
 11
-4.6278628168
 21
-10.1535855917
 31
0.0
 11
-4.5917880694
 21
-10.158489574
 31
0.0
 11
-4.5528453561
 21
-10.1628709814
 31
0.0
 11
-4.511393428
 21
-10.1666894512
 31
0.0
 11
-4.467814152
 21
-10.1699098065
 31
0.0
 11
-4.4225089924
 21
-10.1725023807
 31
0.0
 11
-4.3758953131
 21
-10.17444329
 31
0.0
 11
-4.3284025322
 21
-10.1757146545
 31
0.0
 11
-4.2804681666
 21
-10.1763047618
 31
0.0
  0
SPLINE
  5
340
100
AcDbEntity
  8
ASSI
100
AcDbSpline
 62
253
  6
CONTINUOUS
 70
0
 71
3
 72
24
 73
20
 74
18
 42
0.0000001
 43
0.0000001
 44
0.0000000001
 12
0.2685899298
 22
0.8063822775
 32
0.0
 13
0.0022370123
 23
0.8499340702
 33
0.0
 40
0.0
 40
0.0
 40
0.0
 40
0.0
 40
0.0089137456
 40
0.0253125474
 40
0.0491359441
 40
0.0802419731
 40
0.1184347082
 40
0.163469248
 40
0.215055175
 40
0.2728589497
 40
0.3365068628
 40
0.4055864992
 40
0.47965089
 40
0.558220232
 40
0.6407855899
 40
0.7268120383
 40
0.815743447
 40
0.9070022571
 40
1.0
 40
1.0
 40
1.0
 40
1.0
 10
-4.2968196223
 20
-11.0258521141
 30
0.0
 10
-4.2960215748
 20
-11.023456152
 30
0.0
 10
-4.2951370977
 20
-11.016274281
 30
0.0
 10
-4.2937549337
 20
-11.0024644506
 30
0.0
 10
-4.2925136609
 20
-10.9822704037
 30
0.0
 10
-4.2912037829
 20
-10.9559290699
 30
0.0
 10
-4.2899525078
 20
-10.9235573389
 30
0.0
 10
-4.2887328574
 20
-10.8853835715
 30
0.0
 10
-4.287569905
 20
-10.841648176
 30
0.0
 10
-4.2864679627
 20
-10.7926368901
 30
0.0
 10
-4.2854366972
 20
-10.7386667418
 30
0.0
 10
-4.2844829194
 20
-10.6800877438
 30
0.0
 10
-4.2836133713
 20
-10.6172795718
 30
0.0
 10
-4.2828339316
 20
-10.5506492817
 30
0.0
 10
-4.2821498527
 20
-10.4806287807
 30
0.0
 10
-4.281565732
 20
-10.4076715801
 30
0.0
 10
-4.2810854051
 20
-10.3322506111
 30
0.0
 10
-4.280712147
 20
-10.254853963
 30
0.0
 10
-4.2805375123
 20
-10.2026520785
 30
0.0
 10
-4.2804681666
 20
-10.1763047618
 30
0.0
 11
-4.2968196223
 21
-11.0258521141
 31
0.0
 11
-4.2954200276
 21
-11.0184063929
 31
0.0
 11
-4.2940355033
 21
-11.0045373806
 31
0.0
 11
-4.2926748645
 21
-10.9843347613
 31
0.0
 11
-4.291347059
 21
-10.9579299602
 31
0.0
 11
-4.2900606354
 21
-10.925494041
 31
0.0
 11
-4.2888239506
 21
-10.8872375021
 31
0.0
 11
-4.287645015
 21
-10.8434085663
 31
0.0
 11
-4.2865314704
 21
-10.7942916198
 31
0.0
 11
-4.2854905239
 21
-10.7402049186
 31
0.0
 11
-4.2845289233
 21
-10.6814994537
 31
0.0
 11
-4.2836528901
 21
-10.6185554824
 31
0.0
 11
-4.2828680999
 21
-10.5517811021
 31
0.0
 11
-4.2821796303
 21
-10.4816091256
 31
0.0
 11
-4.281591946
 21
-10.4084944248
 31
0.0
 11
-4.2811088272
 21
-10.3329098728
 31
0.0
 11
-4.2807334397
 21
-10.2553465406
 31
0.0
 11
-4.2804681666
 21
-10.1763047618
 31
0.0
  0
SPLINE
  5
341
100
AcDbEntity
  8
ASSI
100
AcDbSpline
 62
253
  6
CONTINUOUS
 70
0
 71
3
 72
24
 73
20
 74
18
 42
0.0000001
 43
0.0000001
 44
0.0000000001
 12
0.2359406643
 22
0.3541476739
 32
0.0
 13
0.0022405343
 23
0.425539131
 33
0.0
 40
0.0
 40
0.0
 40
0.0
 40
0.0
 40
0.0093427655
 40
0.0259586392
 40
0.0499093424
 40
0.0810900281
 40
0.1193207176
 40
0.1643650495
 40
0.2159378438
 40
0.2737091555
 40
0.3373079655
 40
0.4063240255
 40
0.4803121476
 40
0.5587941037
 40
0.6412624686
 40
0.7271837488
 40
0.8160032134
 40
0.907144645
 40
1.0
 40
1.0
 40
1.0
 40
1.0
 10
-4.7965150358
 20
-10.5265373468
 30
0.0
 10
-4.7957802563
 20
-10.5254344405
 30
0.0
 10
-4.7948067142
 20
-10.5217855904
 30
0.0
 10
-4.7934743043
 20
-10.5148889479
 30
0.0
 10
-4.792202884
 20
-10.5047588089
 30
0.0
 10
-4.790903247
 20
-10.4915905557
 30
0.0
 10
-4.7896475027
 20
-10.475398564
 30
0.0
 10
-4.7884290202
 20
-10.4563106028
 30
0.0
 10
-4.7872654699
 20
-10.4344409578
 30
0.0
 10
-4.7861635767
 20
-10.4099339961
 30
0.0
 10
-4.7851321957
 20
-10.3829475126
 30
0.0
 10
-4.7841783777
 20
-10.3536566293
 30
0.0
 10
-4.7833087864
 20
-10.3222511112
 30
0.0
 10
-4.7825293158
 20
-10.2889345094
 30
0.0
 10
-4.7818452233
 20
-10.2539227851
 30
0.0
 10
-4.7812610784
 20
-10.217442706
 30
0.0
 10
-4.7807807734
 20
-10.1797307542
 30
0.0
 10
-4.7804075107
 20
-10.1410339651
 30
0.0
 10
-4.7802329286
 20
-10.1149348663
 30
0.0
 10
-4.7801635801
 20
-10.1017636706
 30
0.0
 11
-4.7965150358
 21
-10.5265373468
 31
0.0
 11
-4.7951158209
 21
-10.5228159325
 31
0.0
 11
-4.7937312066
 21
-10.5158820237
 31
0.0
 11
-4.7923705482
 21
-10.5057811541
 31
0.0
 11
-4.7910426914
 21
-10.4925789773
 31
0.0
 11
-4.7897562281
 21
-10.4763610408
 31
0.0
 11
-4.7885195007
 21
-10.4572325871
 31
0.0
 11
-4.7873405254
 21
-10.4353177312
 31
0.0
 11
-4.7862269432
 21
-10.4107586703
 31
0.0
 11
-4.7851859625
 21
-10.3837145401
 31
0.0
 11
-4.7842243316
 21
-10.3543608462
 31
0.0
 11
-4.7833482738
 21
-10.3228877588
 31
0.0
 11
-4.7825634642
 21
-10.2894993749
 31
0.0
 11
-4.781874984
 21
-10.2544121262
 31
0.0
 11
-4.7812872902
 21
-10.2178534758
 31
0.0
 11
-4.7808041804
 21
-10.1800598818
 31
0.0
 11
-4.7804287878
 21
-10.1412769154
 31
0.0
 11
-4.7801635801
 21
-10.1017636706
 31
0.0
  0
SPLINE
  5
342
100
AcDbEntity
  8
CURVE
100
AcDbSpline
 62
253
  6
CONTINUOUS
 70
0
 71
3
 72
23
 73
19
 74
17
 42
0.0000001
 43
0.0000001
 44
0.0000000001
 12
0.0000000826
 22
-7.4589328196
 32
0.0
 13
-0.0003580381
 23
7.4610688848
 33
0.0
 40
0.0
 40
0.0
 40
0.0
 40
0.0
 40
0.0625
 40
0.125
 40
0.1875
 40
0.25
 40
0.3125
 40
0.375
 40
0.4375
 40
0.5
 40
0.5625
 40
0.625
 40
0.6875
 40
0.75
 40
0.8125
 40
0.875
 40
0.9375
 40
1.0
 40
1.0
 40
1.0
 40
1.0
 10
19.8047630599
 20
-1.5069897757
 30
0.0
 10
19.8047630616
 20
-1.6623842094
 30
0.0
 10
19.7752326085
 20
-1.9667549765
 30
0.0
 10
19.6404367953
 20
-2.413144679
 30
0.0
 10
19.4208519624
 20
-2.8221132619
 30
0.0
 10
19.1260340595
 20
-3.1804647589
 30
0.0
 10
18.7679330612
 20
-3.4743526605
 30
0.0
 10
18.3597805728
 20
-3.6929626864
 30
0.0
 10
17.915777008
 20
-3.8274248537
 30
0.0
 10
17.4542347418
 20
-3.8719264113
 30
0.0
 10
16.9927752814
 20
-3.8272485252
 30
0.0
 10
16.549067527
 20
-3.692728349
 30
0.0
 10
16.1410333569
 20
-3.474072125
 30
0.0
 10
15.7830543667
 20
-3.1801665194
 30
0.0
 10
15.4883736156
 20
-2.8218587129
 30
0.0
 10
15.2689325078
 20
-2.4130721939
 30
0.0
 10
15.1341921721
 20
-1.9669438702
 30
0.0
 10
15.1046236506
 20
-1.6625433722
 30
0.0
 10
15.1046161914
 20
-1.5071044371
 30
0.0
 11
19.8047630599
 21
-1.5069897757
 31
0.0
 11
19.7601492529
 21
-1.9650605685
 31
0.0
 11
19.626305292
 21
-2.4069078257
 31
0.0
 11
19.4083131174
 21
-2.8136770809
 31
0.0
 11
19.115486877
 21
-3.1697208264
 31
0.0
 11
18.7595911462
 21
-3.4618063479
 31
0.0
 11
18.3538053934
 21
-3.6789380433
 31
0.0
 11
17.9128538911
 21
-3.8124314187
 31
0.0
 11
17.4542485428
 21
-3.8570631707
 31
0.0
 11
16.995733899
 21
-3.8122748102
 31
0.0
 11
16.5550131244
 21
-3.6787056743
 31
0.0
 11
16.1493758869
 21
-3.4615305614
 31
0.0
 11
15.7936040732
 21
-3.1694328192
 31
0.0
 11
15.5009135561
 21
-2.8134455942
 31
0.0
 11
15.2830493031
 21
-2.4068485598
 31
0.0
 11
15.1492567643
 21
-1.9651984663
 31
0.0
 11
15.1046161914
 21
-1.5071044371
 31
0.0
  0
SPLINE
  5
343
100
AcDbEntity
  8
CURVE
100
AcDbSpline
 62
253
  6
CONTINUOUS
 70
0
 71
3
 72
23
 73
19
 74
17
 42
0.0000001
 43
0.0000001
 44
0.0000000001
 12
-0.0003575112
 22
7.4500897313
 32
0.0
 13
0.0000000826
 23
-7.4524445173
 33
0.0
 40
0.0
 40
0.0
 40
0.0
 40
0.0
 40
0.0625
 40
0.125
 40
0.1875
 40
0.25
 40
0.3125
 40
0.375
 40
0.4375
 40
0.5
 40
0.5625
 40
0.625
 40
0.6875
 40
0.75
 40
0.8125
 40
0.875
 40
0.9375
 40
1.0
 40
1.0
 40
1.0
 40
1.0
 10
15.1046161914
 20
-1.5071044371
 30
0.0
 10
15.1046087433
 20
-1.3518942343
 30
0.0
 10
15.1340575926
 20
-1.0478258338
 30
0.0
 10
15.2685775183
 20
-0.6017906954
 30
0.0
 10
15.4878851945
 20
-0.1928829067
 30
0.0
 10
15.7826286926
 20
0.1657128979
 30
0.0
 10
16.140949514
 20
0.4599603491
 30
0.0
 10
16.5494751607
 20
0.6788046084
 30
0.0
 10
16.9935699026
 20
0.8132710074
 30
0.0
 10
17.4550966674
 20
0.8577711836
 30
0.0
 10
17.9165582729
 20
0.8131124919
 30
0.0
 10
18.3604063268
 20
0.6785855419
 30
0.0
 10
18.768846351
 20
0.4596794736
 30
0.0
 10
19.1270468391
 20
0.165405776
 30
0.0
 10
19.4216516736
 20
-0.1931324111
 30
0.0
 10
19.6408045081
 20
-0.6018512495
 30
0.0
 10
19.7752733087
 20
-1.0476259216
 30
0.0
 10
19.8047630582
 20
-1.3517305149
 30
0.0
 10
19.8047630599
 20
-1.5069897757
 30
0.0
 11
15.1046161914
 21
-1.5071044371
 31
0.0
 11
15.1491153679
 21
-1.0495037442
 31
0.0
 11
15.28270881
 21
-0.607978587
 31
0.0
 11
15.5004578315
 21
-0.2012682374
 31
0.0
 11
15.7932249131
 21
0.1549881723
 31
0.0
 11
16.1493169849
 21
0.4473931505
 31
0.0
 11
16.5554033432
 21
0.6647416317
 31
0.0
 11
16.9964752397
 21
0.7982766369
 31
0.0
 11
17.4550858075
 21
0.8429113722
 31
0.0
 11
17.9136226809
 21
0.7981344488
 31
0.0
 11
18.3545049885
 21
0.6645223555
 31
0.0
 11
18.760473095
 21
0.4471182021
 31
0.0
 11
19.1164475635
 21
0.1546950278
 31
0.0
 11
19.4090763402
 21
-0.201495853
 31
0.0
 11
19.6266905024
 21
-0.6080272218
 31
0.0
 11
19.7602342793
 21
-1.0493562912
 31
0.0
 11
19.8047630599
 21
-1.5069897757
 31
0.0
  0
SPLINE
  5
344
100
AcDbEntity
  8
CURVE
100
AcDbSpline
 62
253
  6
CONTINUOUS
 70
0
 71
3
 72
28
 73
24
 74
22
 42
0.0000001
 43
0.0000001
 44
0.0000000001
 12
0.0
 22
0.8549446318
 32
0.0
 13
0.0
 23
-0.5301967531
 33
0.0
 40
0.0
 40
0.0
 40
0.0
 40
0.0
 40
0.0454545455
 40
0.0909090909
 40
0.1136363636
 40
0.1363636364
 40
0.1590909091
 40
0.1818181818
 40
0.2045454545
 40
0.2272727273
 40
0.2727272727
 40
0.3181818182
 40
0.3636363636
 40
0.4545454545
 40
0.5454545455
 40
0.6363636364
 40
0.7272727273
 40
0.7727272727
 40
0.8181818182
 40
0.8636363636
 40
0.9090909091
 40
0.9545454545
 40
1.0
 40
1.0
 40
1.0
 40
1.0
 10
17.6546775491
 20
-0.2943153649
 30
0.0
 10
17.6546775491
 20
-0.2813616584
 30
0.0
 10
17.6528067207
 20
-0.2569707302
 30
0.0
 10
17.6458655295
 20
-0.2277673295
 30
0.0
 10
17.637428535
 20
-0.2059838786
 30
0.0
 10
17.6296118317
 20
-0.1904401246
 30
0.0
 10
17.6204067785
 20
-0.1757904242
 30
0.0
 10
17.6099419033
 20
-0.1621651993
 30
0.0
 10
17.5980801853
 20
-0.1494151643
 30
0.0
 10
17.580284143
 20
-0.1337664627
 30
0.0
 10
17.5557512885
 20
-0.1179324545
 30
0.0
 10
17.5239106134
 20
-0.1044937834
 30
0.0
 10
17.4800110917
 20
-0.0938276073
 30
0.0
 10
17.4274923664
 20
-0.0933567129
 30
0.0
 10
17.3732334805
 20
-0.1076363207
 30
0.0
 10
17.3303735514
 20
-0.1312641435
 30
0.0
 10
17.3027287294
 20
-0.1571056586
 30
0.0
 10
17.2845888066
 20
-0.1819887396
 30
0.0
 10
17.273410025
 20
-0.2022543633
 30
0.0
 10
17.2647840248
 20
-0.2241914866
 30
0.0
 10
17.2588373173
 20
-0.2472154445
 30
0.0
 10
17.255441596
 20
-0.2705721937
 30
0.0
 10
17.2547016994
 20
-0.2862820808
 30
0.0
 10
17.2547016994
 20
-0.2943153649
 30
0.0
 11
17.6546775491
 21
-0.2943153649
 31
0.0
 11
17.6518861896
 21
-0.2572277821
 31
0.0
 11
17.6435159441
 21
-0.2224530726
 31
0.0
 11
17.6371803754
 21
-0.2061161843
 31
0.0
 11
17.62938044
 21
-0.1905891335
 31
0.0
 11
17.6201968081
 21
-0.1759611701
 31
0.0
 11
17.6097090961
 21
-0.1623110643
 31
0.0
 11
17.597832633
 21
-0.1495840825
 31
0.0
 11
17.5845806334
 21
-0.1379270961
 31
0.0
 11
17.5553510802
 21
-0.1188594776
 31
0.0
 11
17.5237299524
 21
-0.1054002899
 31
0.0
 11
17.4911430173
 21
-0.0973516064
 31
0.0
 11
17.4289529638
 21
-0.0958308264
 31
0.0
 11
17.3751333066
 21
-0.1091943565
 31
0.0
 11
17.3319879085
 21
-0.132494476
 31
0.0
 11
17.2985250766
 21
-0.1636772513
 31
0.0
 11
17.2849931667
 21
-0.1822559584
 31
0.0
 11
17.2738354886
 21
-0.2025329466
 31
0.0
 11
17.2652305736
 21
-0.2243726257
 31
0.0
 11
17.2592624817
 21
-0.2472709097
 31
0.0
 11
17.2558225754
 21
-0.2706068739
 31
0.0
 11
17.2547016994
 21
-0.2943153649
 31
0.0
  0
SPLINE
  5
345
100
AcDbEntity
  8
CURVE
100
AcDbSpline
 62
253
  6
CONTINUOUS
 70
0
 71
3
 72
28
 73
24
 74
22
 42
0.0000001
 43
0.0000001
 44
0.0000000001
 12
0.0
 22
-0.8544170161
 32
0.0
 13
0.0
 23
0.5299285184
 33
0.0
 40
0.0
 40
0.0
 40
0.0
 40
0.0
 40
0.0454545455
 40
0.0909090909
 40
0.1136363636
 40
0.1363636364
 40
0.1590909091
 40
0.1818181818
 40
0.2045454545
 40
0.2272727273
 40
0.2727272727
 40
0.3181818182
 40
0.3636363636
 40
0.4545454545
 40
0.5454545455
 40
0.6363636364
 40
0.7272727273
 40
0.7727272727
 40
0.8181818182
 40
0.8636363636
 40
0.9090909091
 40
0.9545454545
 40
1.0
 40
1.0
 40
1.0
 40
1.0
 10
17.2547016994
 20
-2.7196641865
 30
0.0
 10
17.2547016994
 20
-2.7326098989
 30
0.0
 10
17.2565705098
 20
-2.7569884677
 30
0.0
 10
17.2635032281
 20
-2.7861743653
 30
0.0
 10
17.2719293081
 20
-2.8079465096
 30
0.0
 10
17.2797360036
 20
-2.8234830243
 30
0.0
 10
17.2889299019
 20
-2.8381273818
 30
0.0
 10
17.2993832162
 20
-2.8517499137
 30
0.0
 10
17.3112331854
 20
-2.8644998455
 30
0.0
 10
17.329013292
 20
-2.8801518356
 30
0.0
 10
17.3535306472
 20
-2.8959955936
 30
0.0
 10
17.3853635846
 20
-2.909451326
 30
0.0
 10
17.4292674108
 20
-2.9201420533
 30
0.0
 10
17.481833479
 20
-2.9206357431
 30
0.0
 10
17.536159927
 20
-2.9063422786
 30
0.0
 10
17.5790426564
 20
-2.8826905899
 30
0.0
 10
17.6066836071
 20
-2.856837028
 30
0.0
 10
17.6248153258
 20
-2.8319514347
 30
0.0
 10
17.6359865598
 20
-2.8116875902
 30
0.0
 10
17.6446047953
 20
-2.7897569103
 30
0.0
 10
17.6505458443
 20
-2.7667424642
 30
0.0
 10
17.6539383509
 20
-2.7433963349
 30
0.0
 10
17.6546775491
 20
-2.7276934065
 30
0.0
 10
17.6546775491
 20
-2.7196641865
 30
0.0
 11
17.2547016994
 21
-2.7196641865
 31
0.0
 11
17.2574898509
 21
-2.756731005
 31
0.0
 11
17.2658497402
 21
-2.7914860202
 31
0.0
 11
17.272177164
 21
-2.8078144107
 31
0.0
 11
17.2799672041
 21
-2.8233343314
 31
0.0
 11
17.2891398045
 21
-2.8379570775
 31
0.0
 11
17.299615992
 21
-2.8516044803
 31
0.0
 11
17.3114807038
 21
-2.8643313556
 31
0.0
 11
17.3247210801
 21
-2.8759907561
 31
0.0
 11
17.3539326657
 21
-2.8950694641
 31
0.0
 11
17.3855460733
 21
-2.9085450448
 31
0.0
 11
17.4181372067
 21
-2.9166113902
 31
0.0
 11
17.4803746734
 21
-2.9181547611
 31
0.0
 11
17.5342526406
 21
-2.9047825746
 31
0.0
 11
17.577423725
 21
-2.8814618256
 31
0.0
 11
17.6108847832
 21
-2.850265401
 31
0.0
 11
17.6244107333
 21
-2.8316848265
 31
0.0
 11
17.63556106
 21
-2.8114097843
 31
0.0
 11
17.6441585975
 21
-2.7895762826
 31
0.0
 11
17.6501210872
 21
-2.7666871836
 31
0.0
 11
17.6535577327
 21
-2.7433616244
 31
0.0
 11
17.6546775491
 21
-2.7196641865
 31
0.0
  0
SPLINE
  5
346
100
AcDbEntity
  8
CURVE
100
AcDbSpline
 62
253
  6
CONTINUOUS
 70
0
 71
3
 72
23
 73
19
 74
17
 42
0.0000001
 43
0.0000001
 44
0.0000000001
 12
-8.7264120797
 22
-0.0
 32
0.0
 13
8.7323237353
 23
-0.0
 33
0.0
 40
0.0
 40
0.0
 40
0.0
 40
0.0
 40
0.0625
 40
0.125
 40
0.1875
 40
0.25
 40
0.3125
 40
0.375
 40
0.4375
 40
0.5
 40
0.5625
 40
0.625
 40
0.6875
 40
0.75
 40
0.8125
 40
0.875
 40
0.9375
 40
1.0
 40
1.0
 40
1.0
 40
1.0
 10
17.4546896243
 20
1.2430595096
 30
0.0
 10
17.2728893726
 20
1.2430595096
 30
0.0
 10
16.9168132571
 20
1.2085060382
 30
0.0
 10
16.3947852645
 20
1.0509156531
 30
0.0
 10
15.9163043951
 20
0.7941462669
 30
0.0
 10
15.4967172989
 20
0.449117436
 30
0.0
 10
15.15239422
 20
0.0296398358
 30
0.0
 10
14.8964171268
 20
-0.4484875145
 30
0.0
 10
14.7392371979
 20
-0.9679859462
 30
0.0
 10
14.6872482796
 20
-1.5078811794
 30
0.0
 10
14.7396126368
 20
-2.047987937
 30
0.0
 10
14.8972570181
 20
-2.5675648894
 30
0.0
 10
15.1537966973
 20
-3.0457273303
 30
0.0
 10
15.4983989343
 20
-3.464738742
 30
0.0
 10
15.917724422
 20
-3.8090006135
 30
0.0
 10
16.3953963416
 20
-4.0650740017
 30
0.0
 10
16.9166382998
 20
-4.2224249864
 30
0.0
 10
17.2727662131
 20
-4.257039061
 30
0.0
 10
17.4546896243
 20
-4.257039061
 30
0.0
 11
17.4546896243
 21
1.2430595096
 31
0.0
 11
16.9188276205
 21
1.1908793419
 31
0.0
 11
16.4020431184
 21
1.0343858196
 31
0.0
 11
15.9261200239
 21
0.7794363594
 31
0.0
 11
15.5092613018
 21
0.4367093078
 31
0.0
 11
15.1671185509
 21
0.0198648775
 31
0.0
 11
14.9128833208
 21
-0.4553826948
 31
0.0
 11
14.756769033
 21
-0.9713854131
 31
0.0
 11
14.7046404922
 21
-1.5079164335
 31
0.0
 11
14.7571593075
 21
-2.0445663028
 31
0.0
 11
14.9137395678
 21
-2.5606624708
 31
0.0
 11
15.1684737902
 21
-3.0358688255
 31
0.0
 11
15.5108528094
 21
-3.4522804853
 31
0.0
 11
15.9274488273
 21
-3.7943025329
 31
0.0
 11
16.4026580147
 21
-4.0486202678
 31
0.0
 11
16.9187966184
 21
-4.2048533409
 31
0.0
 11
17.4546896243
 21
-4.257039061
 31
0.0
  0
SPLINE
  5
347
100
AcDbEntity
  8
CURVE
100
AcDbSpline
 62
253
  6
CONTINUOUS
 70
0
 71
3
 72
23
 73
19
 74
17
 42
0.0000001
 43
0.0000001
 44
0.0000000001
 12
8.7277367191
 22
-0.0
 32
0.0
 13
-8.73034353
 23
-0.0
 33
0.0
 40
0.0
 40
0.0
 40
0.0
 40
0.0
 40
0.0625
 40
0.125
 40
0.1875
 40
0.25
 40
0.3125
 40
0.375
 40
0.4375
 40
0.5
 40
0.5625
 40
0.625
 40
0.6875
 40
0.75
 40
0.8125
 40
0.875
 40
0.9375
 40
1.0
 40
1.0
 40
1.0
 40
1.0
 10
17.4546896243
 20
-4.257039061
 30
0.0
 10
17.6365174726
 20
-4.257039061
 30
0.0
 10
17.9925415138
 20
-4.2224700677
 30
0.0
 10
18.5140492387
 20
-4.0650693602
 30
0.0
 10
18.991928865
 20
-3.8088332802
 30
0.0
 10
19.4113284309
 20
-3.4644019278
 30
0.0
 10
19.7558867705
 20
-3.0452723323
 30
0.0
 10
20.0123317019
 20
-2.5670730361
 30
0.0
 10
20.1699026916
 20
-2.047329554
 30
0.0
 10
20.2221303879
 20
-1.507205381
 30
0.0
 10
20.1700091422
 20
-0.9673448807
 30
0.0
 10
20.0127588728
 20
-0.4480061248
 30
0.0
 10
19.756670945
 20
0.0301154623
 30
0.0
 10
19.4122689572
 20
0.4495029074
 30
0.0
 10
18.9927278207
 20
0.7943634103
 30
0.0
 10
18.5144526515
 20
1.0509492486
 30
0.0
 10
17.9927283032
 20
1.2084654055
 30
0.0
 10
17.6365717812
 20
1.2430595096
 30
0.0
 10
17.4546896243
 20
1.2430595096
 30
0.0
 11
17.4546896243
 21
-4.257039061
 31
0.0
 11
17.9904534577
 21
-4.2048788647
 31
0.0
 11
18.506777889
 21
-4.0485967981
 31
0.0
 11
18.9821821883
 21
-3.7941340681
 31
0.0
 11
19.3988548932
 21
-3.4519522206
 31
0.0
 11
19.7412012025
 21
-3.0354273822
 31
0.0
 11
19.9958527116
 21
-2.5601490051
 31
0.0
 11
20.1523454761
 21
-2.0439327722
 31
0.0
 11
20.2047388976
 21
-1.5072493264
 31
0.0
 11
20.1524876382
 21
-0.9707651714
 31
0.0
 11
19.9962859298
 21
-0.4548756529
 31
0.0
 11
19.741951935
 21
0.0203264387
 31
0.0
 11
19.3997457657
 21
0.4370817504
 31
0.0
 11
18.9829388153
 21
0.7796509662
 31
0.0
 11
18.5072111217
 21
1.0344376351
 31
0.0
 11
17.9906432308
 21
1.1908612387
 31
0.0
 11
17.4546896243
 21
1.2430595096
 31
0.0
  0
SPLINE
  5
348
100
AcDbEntity
  8
RACCORDO
100
AcDbSpline
 62
253
  6
CONTINUOUS
 70
0
 71
3
 72
21
 73
17
 74
15
 42
0.0000001
 43
0.0000001
 44
0.0000000001
 12
-0.0021831839
 22
0.2504731391
 32
0.0
 13
0.2504731158
 23
0.0021858458
 33
0.0
 40
0.0
 40
0.0
 40
0.0
 40
0.0
 40
0.1117254707
 40
0.2220443826
 40
0.3295717424
 40
0.4329577933
 40
0.5309050832
 40
0.6221849176
 40
0.7056530314
 40
0.7802643551
 40
0.8450868632
 40
0.8993147599
 40
0.9422821117
 40
0.9734815232
 40
0.9926137743
 40
1.0
 40
1.0
 40
1.0
 40
1.0
 10
-21.2858847759
 20
10.635627651
 30
0.0
 10
-21.2859660817
 20
10.6449557275
 30
0.0
 10
-21.2860915715
 20
10.6634947796
 30
0.0
 10
-21.2861693243
 20
10.6910120802
 30
0.0
 10
-21.2861352974
 20
10.717833161
 30
0.0
 10
-21.2859900703
 20
10.7436209914
 30
0.0
 10
-21.2857356893
 20
10.7680510455
 30
0.0
 10
-21.2853757773
 20
10.7908175869
 30
0.0
 10
-21.284915256
 20
10.8116301635
 30
0.0
 10
-21.2843614474
 20
10.830241204
 30
0.0
 10
-21.2837211276
 20
10.8463742543
 30
0.0
 10
-21.2830106743
 20
10.8599527746
 30
0.0
 10
-21.282230723
 20
10.8704638457
 30
0.0
 10
-21.2814421007
 20
10.8786359647
 30
0.0
 10
-21.280619102
 20
10.8826257677
 30
0.0
 10
-21.2799582193
 20
10.8856127501
 30
0.0
 10
-21.2793415356
 20
10.8856181318
 30
0.0
 11
-21.2858847759
 21
10.635627651
 31
0.0
 11
-21.2860738579
 21
10.6636123046
 31
0.0
 11
-21.2861508852
 21
10.691245171
 31
0.0
 11
-21.2861148893
 21
10.7181788854
 31
0.0
 11
-21.2859663229
 21
10.7440748716
 31
0.0
 11
-21.2857070535
 21
10.7686075987
 31
0.0
 11
-21.2853403404
 21
10.7914686728
 31
0.0
 11
-21.2848707933
 21
10.8123707141
 31
0.0
 11
-21.2843043148
 21
10.8310509692
 31
0.0
 11
-21.2836480261
 21
10.8472746141
 31
0.0
 11
-21.282910177
 21
10.8608377065
 31
0.0
 11
-21.2821000429
 21
10.8715697487
 31
0.0
 11
-21.2812278078
 21
10.8793358317
 31
0.0
 11
-21.2803044362
 21
10.8840383306
 31
0.0
 11
-21.2793415356
 21
10.8856181318
 31
0.0
  0
LINE
  5
349
100
AcDbEntity
  8
RACCORDO
100
AcDbLine
 62
253
  6
CONTINUOUS
 10
-21.285882004
 20
10.6356276642
 11
-21.7684333562
 21
10.6333232036
  0
SPLINE
  5
34A
100
AcDbEntity
  8
0
100
AcDbSpline
 62
253
  6
CONTINUOUS
 70
0
 71
3
 72
23
 73
19
 74
17
 42
0.0000001
 43
0.0000001
 44
0.0000000001
 12
-0.4773642622
 22
-0.0720585592
 32
0.0
 13
0.0719729241
 23
-0.477377181
 33
0.0
 40
0.0
 40
0.0
 40
0.0
 40
0.0
 40
0.0990673877
 40
0.196892917
 40
0.292575418
 40
0.3852334648
 40
0.4740134963
 40
0.5580976811
 40
0.6367114536
 40
0.7091306523
 40
0.7746881962
 40
0.8327802388
 40
0.8828717468
 40
0.9245014633
 40
0.9572862377
 40
0.980924798
 40
0.9952015677
 40
1.0
 40
1.0
 40
1.0
 40
1.0
 10
-20.2118500494
 20
-10.1017636706
 30
0.0
 10
-20.2276137929
 20
-10.1041432217
 30
0.0
 10
-20.258942497
 20
-10.1088802917
 30
0.0
 10
-20.3054921953
 20
-10.1159429728
 30
0.0
 10
-20.3510185144
 20
-10.1228747988
 30
0.0
 10
-20.3951020835
 20
-10.1296118767
 30
0.0
 10
-20.4373367025
 20
-10.1360921679
 30
0.0
 10
-20.4773336311
 20
-10.1422557406
 30
0.0
 10
-20.514723298
 20
-10.148046396
 30
0.0
 10
-20.5491650029
 20
-10.1534085441
 30
0.0
 10
-20.5803293746
 20
-10.1582996243
 30
0.0
 10
-20.6079675901
 20
-10.1626522931
 30
0.0
 10
-20.6317087334
 20
-10.1664931615
 30
0.0
 10
-20.6516721365
 20
-10.1695912074
 30
0.0
 10
-20.6667560681
 20
-10.172445788
 30
0.0
 10
-20.679077926
 20
-10.1737258499
 30
0.0
 10
-20.6838815025
 20
-10.1760872799
 30
0.0
 10
-20.6889278016
 20
-10.1755412043
 30
0.0
 10
-20.6888126826
 20
-10.1763047584
 30
0.0
 11
-20.2118500494
 21
-10.1017636706
 31
0.0
 11
-20.2591394877
 21
-10.1089141861
 31
0.0
 11
-20.3058325303
 21
-10.1159988291
 31
0.0
 11
-20.3514990281
 21
-10.1229523337
 31
0.0
 11
-20.3957182884
 21
-10.1297106425
 31
0.0
 11
-20.4380829511
 21
-10.1362114959
 31
0.0
 11
-20.4782027411
 21
-10.1423950064
 31
0.0
 11
-20.5157080637
 21
-10.1482042096
 31
0.0
 11
-20.5502534095
 21
-10.1535855896
 31
0.0
 11
-20.581520537
 21
-10.1584895716
 31
0.0
 11
-20.6092214048
 21
-10.1628709788
 31
0.0
 11
-20.6331008248
 21
-10.1666894484
 31
0.0
 11
-20.652938813
 21
-10.1699098035
 31
0.0
 11
-20.6685526165
 21
-10.1725023775
 31
0.0
 11
-20.6797983964
 21
-10.1744432868
 31
0.0
 11
-20.6865725536
 21
-10.1757146511
 31
0.0
 11
-20.6888126826
 21
-10.1763047584
 31
0.0
  0
SPLINE
  5
34B
100
AcDbEntity
  8
0
100
AcDbSpline
 62
253
  6
CONTINUOUS
 70
0
 71
3
 72
23
 73
19
 74
17
 42
0.0000001
 43
0.0000001
 44
0.0000000001
 12
-0.0261481723
 22
-0.4995452843
 32
0.0
 13
0.4995436188
 23
-0.0261799717
 33
0.0
 40
0.0
 40
0.0
 40
0.0
 40
0.0
 40
0.0978499016
 40
0.1947432743
 40
0.2897503344
 40
0.3819594947
 40
0.4704861696
 40
0.5544813359
 40
0.6331397783
 40
0.7057079592
 40
0.7714914739
 40
0.8298620941
 40
0.8802645015
 40
0.9222230709
 40
0.9553499014
 40
0.9793587241
 40
0.9941101821
 40
1.0
 40
1.0
 40
1.0
 40
1.0
 10
-19.743605623
 20
-10.5265373468
 30
0.0
 10
-19.7444584884
 20
-10.5428308324
 30
0.0
 10
-19.7461006969
 20
-10.5752614435
 30
0.0
 10
-19.7483781784
 20
-10.6235216838
 30
0.0
 10
-19.75044384
 20
-10.6708500308
 30
0.0
 10
-19.7522779627
 20
-10.7167917672
 30
0.0
 10
-19.7538631266
 20
-10.7609054505
 30
0.0
 10
-19.7551843927
 20
-10.8027674189
 30
0.0
 10
-19.7562295287
 20
-10.8419749378
 30
0.0
 10
-19.7569890769
 20
-10.8781532245
 30
0.0
 10
-19.7574569983
 20
-10.9109487273
 30
0.0
 10
-19.7576296664
 20
-10.9400657586
 30
0.0
 10
-19.7575105766
 20
-10.965166536
 30
0.0
 10
-19.7570992714
 20
-10.9861813682
 30
0.0
 10
-19.7564291349
 20
-11.0024475796
 30
0.0
 10
-19.7554864427
 20
-11.01496889
 30
0.0
 10
-19.7544452276
 20
-11.0213081789
 30
0.0
 10
-19.7533045931
 20
-11.0258007157
 30
0.0
 10
-19.7523238528
 20
-11.0258521141
 30
0.0
 11
-19.743605623
 21
-10.5265373468
 31
0.0
 11
-19.7460806143
 21
-10.5754221082
 31
0.0
 11
-19.748364165
 21
-10.623837176
 31
0.0
 11
-19.7504343344
 21
-10.6713173694
 31
0.0
 11
-19.7522712321
 21
-10.7174064901
 31
0.0
 11
-19.7538572086
 21
-10.7616617056
 31
0.0
 11
-19.7551770257
 21
-10.8036578036
 31
0.0
 11
-19.7562180023
 21
-10.8429912781
 31
0.0
 11
-19.7569701366
 21
-10.8792842059
 31
0.0
 11
-19.7574262018
 21
-10.912187878
 31
0.0
 11
-19.7575818161
 21
-10.9413861499
 31
0.0
 11
-19.7574354843
 21
-10.9665984795
 31
0.0
 11
-19.7569886123
 21
-10.987582622
 31
0.0
 11
-19.7562454937
 21
-11.004136958
 31
0.0
 11
-19.7552132687
 21
-11.0161024304
 31
0.0
 11
-19.7539018549
 21
-11.0233640728
 31
0.0
 11
-19.7523238528
 21
-11.0258521141
 31
0.0
  0
SPLINE
  5
34C
100
AcDbEntity
  8
ASSI
100
AcDbSpline
 62
253
  6
CONTINUOUS
 70
0
 71
3
 72
21
 73
17
 74
15
 42
0.0000001
 43
0.0000001
 44
0.0000000001
 12
-0.0021831839
 22
0.2504731391
 32
0.0
 13
0.2504731158
 23
0.0021858458
 33
0.0
 40
0.0
 40
0.0
 40
0.0
 40
0.0
 40
0.1117254707
 40
0.2220443826
 40
0.3295717424
 40
0.4329577933
 40
0.5309050832
 40
0.6221849176
 40
0.7056530314
 40
0.7802643551
 40
0.8450868632
 40
0.8993147599
 40
0.9422821117
 40
0.9734815232
 40
0.9926137743
 40
1.0
 40
1.0
 40
1.0
 40
1.0
 10
-21.2858847759
 20
10.635627651
 30
0.0
 10
-21.2859660817
 20
10.6449557275
 30
0.0
 10
-21.2860915715
 20
10.6634947796
 30
0.0
 10
-21.2861693243
 20
10.6910120802
 30
0.0
 10
-21.2861352974
 20
10.717833161
 30
0.0
 10
-21.2859900703
 20
10.7436209914
 30
0.0
 10
-21.2857356893
 20
10.7680510455
 30
0.0
 10
-21.2853757773
 20
10.7908175869
 30
0.0
 10
-21.284915256
 20
10.8116301635
 30
0.0
 10
-21.2843614474
 20
10.830241204
 30
0.0
 10
-21.2837211276
 20
10.8463742543
 30
0.0
 10
-21.2830106743
 20
10.8599527746
 30
0.0
 10
-21.282230723
 20
10.8704638457
 30
0.0
 10
-21.2814421007
 20
10.8786359647
 30
0.0
 10
-21.280619102
 20
10.8826257677
 30
0.0
 10
-21.2799582193
 20
10.8856127501
 30
0.0
 10
-21.2793415356
 20
10.8856181318
 30
0.0
 11
-21.2858847759
 21
10.635627651
 31
0.0
 11
-21.2860738579
 21
10.6636123046
 31
0.0
 11
-21.2861508852
 21
10.691245171
 31
0.0
 11
-21.2861148893
 21
10.7181788854
 31
0.0
 11
-21.2859663229
 21
10.7440748716
 31
0.0
 11
-21.2857070535
 21
10.7686075987
 31
0.0
 11
-21.2853403404
 21
10.7914686728
 31
0.0
 11
-21.2848707933
 21
10.8123707141
 31
0.0
 11
-21.2843043148
 21
10.8310509692
 31
0.0
 11
-21.2836480261
 21
10.8472746141
 31
0.0
 11
-21.282910177
 21
10.8608377065
 31
0.0
 11
-21.2821000429
 21
10.8715697487
 31
0.0
 11
-21.2812278078
 21
10.8793358317
 31
0.0
 11
-21.2803044362
 21
10.8840383306
 31
0.0
 11
-21.2793415356
 21
10.8856181318
 31
0.0
  0
LINE
  5
34D
100
AcDbEntity
  8
ASSI
100
AcDbLine
 62
253
  6
CONTINUOUS
 10
-21.285882004
 20
10.6356276642
 11
-21.7684333562
 21
10.6333232036
  0
SPLINE
  5
34E
100
AcDbEntity
  8
ASSI
100
AcDbSpline
 62
253
  6
CONTINUOUS
 70
0
 71
3
 72
23
 73
19
 74
17
 42
0.0000001
 43
0.0000001
 44
0.0000000001
 12
-0.4773642622
 22
-0.0720585592
 32
0.0
 13
0.0719729241
 23
-0.477377181
 33
0.0
 40
0.0
 40
0.0
 40
0.0
 40
0.0
 40
0.0990673877
 40
0.196892917
 40
0.292575418
 40
0.3852334648
 40
0.4740134963
 40
0.5580976811
 40
0.6367114536
 40
0.7091306523
 40
0.7746881962
 40
0.8327802388
 40
0.8828717468
 40
0.9245014633
 40
0.9572862377
 40
0.980924798
 40
0.9952015677
 40
1.0
 40
1.0
 40
1.0
 40
1.0
 10
-20.2118500494
 20
-10.1017636706
 30
0.0
 10
-20.2276137929
 20
-10.1041432217
 30
0.0
 10
-20.258942497
 20
-10.1088802917
 30
0.0
 10
-20.3054921953
 20
-10.1159429728
 30
0.0
 10
-20.3510185144
 20
-10.1228747988
 30
0.0
 10
-20.3951020835
 20
-10.1296118767
 30
0.0
 10
-20.4373367025
 20
-10.1360921679
 30
0.0
 10
-20.4773336311
 20
-10.1422557406
 30
0.0
 10
-20.514723298
 20
-10.148046396
 30
0.0
 10
-20.5491650029
 20
-10.1534085441
 30
0.0
 10
-20.5803293746
 20
-10.1582996243
 30
0.0
 10
-20.6079675901
 20
-10.1626522931
 30
0.0
 10
-20.6317087334
 20
-10.1664931615
 30
0.0
 10
-20.6516721365
 20
-10.1695912074
 30
0.0
 10
-20.6667560681
 20
-10.172445788
 30
0.0
 10
-20.679077926
 20
-10.1737258499
 30
0.0
 10
-20.6838815025
 20
-10.1760872799
 30
0.0
 10
-20.6889278016
 20
-10.1755412043
 30
0.0
 10
-20.6888126826
 20
-10.1763047584
 30
0.0
 11
-20.2118500494
 21
-10.1017636706
 31
0.0
 11
-20.2591394877
 21
-10.1089141861
 31
0.0
 11
-20.3058325303
 21
-10.1159988291
 31
0.0
 11
-20.3514990281
 21
-10.1229523337
 31
0.0
 11
-20.3957182884
 21
-10.1297106425
 31
0.0
 11
-20.4380829511
 21
-10.1362114959
 31
0.0
 11
-20.4782027411
 21
-10.1423950064
 31
0.0
 11
-20.5157080637
 21
-10.1482042096
 31
0.0
 11
-20.5502534095
 21
-10.1535855896
 31
0.0
 11
-20.581520537
 21
-10.1584895716
 31
0.0
 11
-20.6092214048
 21
-10.1628709788
 31
0.0
 11
-20.6331008248
 21
-10.1666894484
 31
0.0
 11
-20.652938813
 21
-10.1699098035
 31
0.0
 11
-20.6685526165
 21
-10.1725023775
 31
0.0
 11
-20.6797983964
 21
-10.1744432868
 31
0.0
 11
-20.6865725536
 21
-10.1757146511
 31
0.0
 11
-20.6888126826
 21
-10.1763047584
 31
0.0
  0
SPLINE
  5
34F
100
AcDbEntity
  8
ASSI
100
AcDbSpline
 62
253
  6
CONTINUOUS
 70
0
 71
3
 72
23
 73
19
 74
17
 42
0.0000001
 43
0.0000001
 44
0.0000000001
 12
-0.0261481723
 22
-0.4995452843
 32
0.0
 13
0.4995436188
 23
-0.0261799717
 33
0.0
 40
0.0
 40
0.0
 40
0.0
 40
0.0
 40
0.0978499016
 40
0.1947432743
 40
0.2897503344
 40
0.3819594947
 40
0.4704861696
 40
0.5544813359
 40
0.6331397783
 40
0.7057079592
 40
0.7714914739
 40
0.8298620941
 40
0.8802645015
 40
0.9222230709
 40
0.9553499014
 40
0.9793587241
 40
0.9941101821
 40
1.0
 40
1.0
 40
1.0
 40
1.0
 10
-19.743605623
 20
-10.5265373468
 30
0.0
 10
-19.7444584884
 20
-10.5428308324
 30
0.0
 10
-19.7461006969
 20
-10.5752614435
 30
0.0
 10
-19.7483781784
 20
-10.6235216838
 30
0.0
 10
-19.75044384
 20
-10.6708500308
 30
0.0
 10
-19.7522779627
 20
-10.7167917672
 30
0.0
 10
-19.7538631266
 20
-10.7609054505
 30
0.0
 10
-19.7551843927
 20
-10.8027674189
 30
0.0
 10
-19.7562295287
 20
-10.8419749378
 30
0.0
 10
-19.7569890769
 20
-10.8781532245
 30
0.0
 10
-19.7574569983
 20
-10.9109487273
 30
0.0
 10
-19.7576296664
 20
-10.9400657586
 30
0.0
 10
-19.7575105766
 20
-10.965166536
 30
0.0
 10
-19.7570992714
 20
-10.9861813682
 30
0.0
 10
-19.7564291349
 20
-11.0024475796
 30
0.0
 10
-19.7554864427
 20
-11.01496889
 30
0.0
 10
-19.7544452276
 20
-11.0213081789
 30
0.0
 10
-19.7533045931
 20
-11.0258007157
 30
0.0
 10
-19.7523238528
 20
-11.0258521141
 30
0.0
 11
-19.743605623
 21
-10.5265373468
 31
0.0
 11
-19.7460806143
 21
-10.5754221082
 31
0.0
 11
-19.748364165
 21
-10.623837176
 31
0.0
 11
-19.7504343344
 21
-10.6713173694
 31
0.0
 11
-19.7522712321
 21
-10.7174064901
 31
0.0
 11
-19.7538572086
 21
-10.7616617056
 31
0.0
 11
-19.7551770257
 21
-10.8036578036
 31
0.0
 11
-19.7562180023
 21
-10.8429912781
 31
0.0
 11
-19.7569701366
 21
-10.8792842059
 31
0.0
 11
-19.7574262018
 21
-10.912187878
 31
0.0
 11
-19.7575818161
 21
-10.9413861499
 31
0.0
 11
-19.7574354843
 21
-10.9665984795
 31
0.0
 11
-19.7569886123
 21
-10.987582622
 31
0.0
 11
-19.7562454937
 21
-11.004136958
 31
0.0
 11
-19.7552132687
 21
-11.0161024304
 31
0.0
 11
-19.7539018549
 21
-11.0233640728
 31
0.0
 11
-19.7523238528
 21
-11.0258521141
 31
0.0
  0
ELLIPSE
  5
350
100
AcDbEntity
  8
RACCORDO
100
AcDbEllipse
 62
7
  6
CONTINUOUS
 10
13.459680592
 20
-11.1507782292
 30
0.0
 11
0.2
 21
0.0
 31
0.0
 40
0.0524077793
 41
0.5235987756
 42
1.5707963268
  0
ELLIPSE
  5
351
100
AcDbEntity
  8
RACCORDO
100
AcDbEllipse
 62
7
  6
CONTINUOUS
 10
2.259680592
 20
-11.1507782292
 30
0.0
 11
0.2
 21
0.0
 31
0.0
 40
0.0524077793
 41
0.5235987756
 42
1.5707963268
  0
ELLIPSE
  5
352
100
AcDbEntity
  8
RACCORDO
100
AcDbEllipse
 62
7
  6
CONTINUOUS
 10
-1.1093793003
 20
-11.1507782292
 30
0.0
 11
0.2
 21
-0.0
 31
0.0
 40
0.0524077793
 41
1.5707963268
 42
2.617993878
  0
ELLIPSE
  5
353
100
AcDbEntity
  8
RACCORDO
100
AcDbEllipse
 62
7
  6
CONTINUOUS
 10
10.0906206997
 20
-11.1507782292
 30
0.0
 11
0.2
 21
0.0
 31
0.0
 40
0.0524077793
 41
1.5707963268
 42
2.617993878
  0
ELLIPSE
  5
354
100
AcDbEntity
  8
RACCORDO
100
AcDbEllipse
 62
7
  6
CONTINUOUS
 10
21.3906206997
 20
-11.1507782292
 30
0.0
 11
0.2
 21
-0.0
 31
0.0
 40
0.0524077793
 41
1.5707963268
 42
2.617993878
  0
ELLIPSE
  5
355
100
AcDbEntity
  8
RACCORDO
100
AcDbEllipse
 62
7
  6
CONTINUOUS
 10
24.759680592
 20
-11.1507782292
 30
0.0
 11
0.2
 21
0.0
 31
0.0
 40
0.0524077793
 41
0.5235987756
 42
1.5707963268
  0
ELLIPSE
  5
356
100
AcDbEntity
  8
RACCORDO
100
AcDbEllipse
 62
7
  6
CONTINUOUS
 10
35.959680592
 20
-11.1507782292
 30
0.0
 11
0.2
 21
-0.0
 31
0.0
 40
0.0524077793
 41
0.5235987756
 42
1.5707963268
  0
ELLIPSE
  5
357
100
AcDbEntity
  8
RACCORDO
100
AcDbEllipse
 62
7
  6
CONTINUOUS
 10
32.5906206997
 20
-11.1507782292
 30
0.0
 11
0.2
 21
0.0
 31
0.0
 40
0.0524077793
 41
1.5707963268
 42
2.617993878
  0
ELLIPSE
  5
358
100
AcDbEntity
  8
0
100
AcDbEllipse
 62
7
  6
CONTINUOUS
 10
39.2485413455
 20
-10.6787453213
 30
0.0
 11
0.4943891341
 21
0.0770133648
 31
0.0
 40
0.9960067742
 41
-1.7259388368
 42
-0.1569690096
  0
ELLIPSE
  5
359
100
AcDbEntity
  8
0
100
AcDbEllipse
 62
7
  6
CONTINUOUS
 10
-4.3982400539
 20
-10.6787453213
 30
0.0
 11
0.4943891341
 21
-0.0770133648
 31
0.0
 40
0.9960067742
 41
-2.984623644
 42
-1.4156538168
  0
ELLIPSE
  5
35A
100
AcDbEntity
  8
RACCORDO
100
AcDbEllipse
 62
7
  6
CONTINUOUS
 10
39.5249982598
 20
10.6810821382
 30
0.0
 11
0.2426981267
 21
0.0606514259
 31
0.0
 40
0.9993528196
 41
-0.2447368254
 42
1.3257549497
  0
ELLIPSE
  5
35B
100
AcDbEntity
  8
RACCORDO
100
AcDbEllipse
 62
7
  6
CONTINUOUS
 10
-4.6746969681
 20
10.6810821382
 30
0.0
 11
0.2426981267
 21
-0.0606514259
 31
0.0
 40
0.9993528196
 41
1.8158377039
 42
3.386329479
  0
ELLIPSE
  5
35C
100
AcDbEntity
  8
ASSI
100
AcDbEllipse
 62
7
  6
CONTINUOUS
 10
13.459680592
 20
-11.1507782292
 30
0.0
 11
0.2
 21
0.0
 31
0.0
 40
0.0524077793
 41
0.5235987756
 42
1.5707963268
  0
ELLIPSE
  5
35D
100
AcDbEntity
  8
ASSI
100
AcDbEllipse
 62
7
  6
CONTINUOUS
 10
2.259680592
 20
-11.1507782292
 30
0.0
 11
0.2
 21
0.0
 31
0.0
 40
0.0524077793
 41
0.5235987756
 42
1.5707963268
  0
ELLIPSE
  5
35E
100
AcDbEntity
  8
ASSI
100
AcDbEllipse
 62
7
  6
CONTINUOUS
 10
-1.1093793003
 20
-11.1507782292
 30
0.0
 11
0.2
 21
-0.0
 31
0.0
 40
0.0524077793
 41
1.5707963268
 42
2.617993878
  0
ELLIPSE
  5
35F
100
AcDbEntity
  8
ASSI
100
AcDbEllipse
 62
7
  6
CONTINUOUS
 10
10.0906206997
 20
-11.1507782292
 30
0.0
 11
0.2
 21
0.0
 31
0.0
 40
0.0524077793
 41
1.5707963268
 42
2.617993878
  0
ELLIPSE
  5
360
100
AcDbEntity
  8
ASSI
100
AcDbEllipse
 62
7
  6
CONTINUOUS
 10
21.3906206997
 20
-11.1507782292
 30
0.0
 11
0.2
 21
-0.0
 31
0.0
 40
0.0524077793
 41
1.5707963268
 42
2.617993878
  0
ELLIPSE
  5
361
100
AcDbEntity
  8
ASSI
100
AcDbEllipse
 62
7
  6
CONTINUOUS
 10
24.759680592
 20
-11.1507782292
 30
0.0
 11
0.2
 21
0.0
 31
0.0
 40
0.0524077793
 41
0.5235987756
 42
1.5707963268
  0
ELLIPSE
  5
362
100
AcDbEntity
  8
ASSI
100
AcDbEllipse
 62
7
  6
CONTINUOUS
 10
35.959680592
 20
-11.1507782292
 30
0.0
 11
0.2
 21
-0.0
 31
0.0
 40
0.0524077793
 41
0.5235987756
 42
1.5707963268
  0
ELLIPSE
  5
363
100
AcDbEntity
  8
ASSI
100
AcDbEllipse
 62
7
  6
CONTINUOUS
 10
32.5906206997
 20
-11.1507782292
 30
0.0
 11
0.2
 21
0.0
 31
0.0
 40
0.0524077793
 41
1.5707963268
 42
2.617993878
  0
ELLIPSE
  5
364
100
AcDbEntity
  8
ASSI
100
AcDbEllipse
 62
7
  6
CONTINUOUS
 10
39.2485413455
 20
-10.6787453213
 30
0.0
 11
0.4943891341
 21
0.0770133648
 31
0.0
 40
0.9960067742
 41
-1.7259388368
 42
-0.1569690096
  0
ELLIPSE
  5
365
100
AcDbEntity
  8
ASSI
100
AcDbEllipse
 62
7
  6
CONTINUOUS
 10
-4.3982400539
 20
-10.6787453213
 30
0.0
 11
0.4943891341
 21
-0.0770133648
 31
0.0
 40
0.9960067742
 41
-2.984623644
 42
-1.4156538168
  0
ELLIPSE
  5
366
100
AcDbEntity
  8
ASSI
100
AcDbEllipse
 62
7
  6
CONTINUOUS
 10
39.5249982598
 20
10.6810821382
 30
0.0
 11
0.2426981267
 21
0.0606514259
 31
0.0
 40
0.9993528196
 41
-0.2447368254
 42
1.3257549497
  0
ELLIPSE
  5
367
100
AcDbEntity
  8
ASSI
100
AcDbEllipse
 62
7
  6
CONTINUOUS
 10
-4.6746969681
 20
10.6810821382
 30
0.0
 11
0.2426981267
 21
-0.0606514259
 31
0.0
 40
0.9993528196
 41
1.8158377039
 42
3.386329479
  0
ENDSEC
  0
SECTION
  2
OBJECTS
  0
DICTIONARY
  5
C
100
AcDbDictionary
280
0
281
1
  3
ACAD_GROUP
350
D
  3
ACAD_MLINESTYLE
350
17
  3
ACAD_LAYOUT
350
1A
  3
ACAD_PLOTSETTINGS
350
19
  3
ACAD_PLOTSTYLENAME
350
E
  0
DICTIONARY
  5
D
102
{ACAD_REACTORS
330
C
102
}
100
AcDbDictionary
280
0
281
1
  0
ACDBDICTIONARYWDFLT
  5
E
102
{ACAD_REACTORS
330
C
102
}
100
AcDbDictionary
281
1
  3
Normal
350
F
100
AcDbDictionaryWithDefault
340
F
  0
DICTIONARY
  5
17
102
{ACAD_REACTORS
330
C
102
}
100
AcDbDictionary
280
0
281
1
  3
Standard
350
18
  0
DICTIONARY
  5
19
102
{ACAD_REACTORS
330
C
102
}
100
AcDbDictionary
281
1
  0
DICTIONARY
  5
1A
102
{ACAD_REACTORS
330
C
102
}
100
AcDbDictionary
281
1
  3
Model
350
368
  3
Layout1
350
369
  0
ACDBPLACEHOLDER
  5
F
102
{ACAD_REACTORS
330
E
102
}
  0
MLINESTYLE
  5
18
102
{ACAD_REACTORS
330
17
102
}
100
AcDbMlineStyle
  2
STANDARD
 70
0
  3

 62
256
 51
90.0
 52
90.0
 71
2
 49
0.5
 62
256
  6
BYLAYER
 49
-0.5
 62
256
  6
BYLAYER
  0
LAYOUT
  5
368
102
{ACAD_REACTORS
330
1A
102
}
100
AcDbPlotSettings
  1

  2
none_device
  4
ISO_A4_(297.00_x_210.00_MM)
  6

 40
0.0
 41
0.0
 42
0.0
 43
0.0
 44
297.0
 45
210.0
 46
0.0
 47
0.0
 48
0.0
 49
0.0
140
0.0
141
0.0
142
1.0
143
1.0
 70
1024
 72
1
 73
0
 74
0
  7

 75
0
147
1.0
148
0.0
149
0.0
100
AcDbLayout
  1
Model
 70
0
 71
0
 10
0.0
 20
0.0
 11
297.0
 21
210.0
 12
0.0
 22
0.0
 32
0.0
 14
0.0
 24
0.0
 34
0.0
 15
0.0
 25
0.0
 35
0.0
146
0.0
 13
0.0
 23
0.0
 33
0.0
 16
1.0
 26
0.0
 36
0.0
 17
0.0
 27
1.0
 37
0.0
 76
0
330
218
345
0
346
0
  0
LAYOUT
  5
369
102
{ACAD_REACTORS
330
1A
102
}
100
AcDbPlotSettings
  1

  2
none_device
  4
ISO_A4_(297.00_x_210.00_MM)
  6

 40
0.0
 41
0.0
 42
0.0
 43
0.0
 44
297.0
 45
210.0
 46
0.0
 47
0.0
 48
0.0
 49
0.0
140
0.0
141
0.0
142
1.0
143
1.0
 70
0
 72
1
 73
0
 74
0
  7

 75
0
147
1.0
148
0.0
149
0.0
100
AcDbLayout
  1
Layout1
 70
0
 71
1
 10
0.0
 20
0.0
 11
297.0
 21
210.0
 12
0.0
 22
0.0
 32
0.0
 14
0.0
 24
0.0
 34
0.0
 15
0.0
 25
0.0
 35
0.0
146
0.0
 13
0.0
 23
0.0
 33
0.0
 16
1.0
 26
0.0
 36
0.0
 17
0.0
 27
1.0
 37
0.0
 76
0
330
219
345
0
346
0
  0
ENDSEC
  0
EOF
