  0
SECTION
  2
HEADER
  9
$ACADVER
  1
AC1015
  9
$DWGCODEPAGE
  3
ANSI_1252
  9
$EXTMAX
 10
297.0
 20
210.0
 30
0.0
  9
$EXTMIN
 10
0.0
 20
0.0
 30
0.0
  9
$LIMMIN
 10
0.0
 20
0.0
  9
$LIMMAX
 10
297.0
 20
210.0
  9
$VIEWCTR
 10
148.5
 20
105.0
  9
$VIEWSIZE
 40
210.0
  9
$CLAYER
  8
0
  9
$LTSCALE
 40
16.335
  9
$CELTYPE
  6
BYLAYER
  9
$DIMSCALE
 40
1.0
  9
$DIMASZ
 40
3.0
  9
$DIMEXO
 40
1.85625
  9
$DIMDLI
 40
11.286
  9
$DIMEXE
 40
5.346
  9
$DIMCEN
 40
2.673
  9
$DIMLFAC
 40
1.0
  9
$DIMBLK
  1
_FILLED
  9
$DIMTXT
 40
3.0
  9
$DIMTOL
 70
1
  9
$DIMLIM
 70
0
  9
$DIMTFAC
 40
1.0
  9
$DIMTP
 40
0.01
  9
$DIMTM
 40
0.01
  9
$PDMODE
 70
3
  9
$PDSIZE
 40
3.0
  9
$HANDSEED
  5
365
  9
$TILEMODE
 70
1
  9
$MEASUREMENT
 70
1
  9
$INSUNITS
 70
4
  0
ENDSEC
  0
SECTION
  2
CLASSES
  0
CLASS
  1
ACDBDICTIONARYWDFLT
  2
AcDbDictionaryWithDefault
  3
AutoCAD 2000
 90
0
280
0
281
0
  0
CLASS
  1
ACDBPLACEHOLDER
  2
AcDbPlaceHolder
  3
AutoCAD 2000
 90
0
280
0
281
0
  0
CLASS
  1
LAYOUT
  2
AcDbLayout
  3
AutoCAD 2000
 90
0
280
0
281
0
  0
ENDSEC
  0
SECTION
  2
TABLES
  0
TABLE
  2
VPORT
  5
8
100
AcDbSymbolTable
 70
2
  0
VPORT
  5
1F4
100
AcDbSymbolTableRecord
100
AcDbViewportTableRecord
  2
*ACTIVE
 70
0
 10
0.0
 20
0.0
 11
1.0
 21
1.0
 12
148.5
 22
105.0
 13
0.0
 23
0.0
 14
1.0
 24
1.0
 15
0.0
 25
0.0
 16
0.0
 26
0.0
 36
1.0
 17
0.0
 27
0.0
 37
0.0
 40
210.0
 41
1.4142857143
 42
50.0
 43
0.0
 44
0.0
 50
0.0
 51
0.0
 71
0
 72
100
 73
1
 74
1
 75
0
 76
0
 77
0
 78
0
  0
ENDTAB
  0
TABLE
  2
LTYPE
  5
5
100
AcDbSymbolTable
 70
6
  0
LTYPE
  5
14
100
AcDbSymbolTableRecord
100
AcDbLinetypeTableRecord
  2
BYBLOCK
 70
0
  3

 72
65
 73
0
 40
0.0
  0
LTYPE
  5
15
100
AcDbSymbolTableRecord
100
AcDbLinetypeTableRecord
  2
BYLAYER
 70
0
  3

 72
65
 73
0
 40
0.0
  0
LTYPE
  5
16
100
AcDbSymbolTableRecord
100
AcDbLinetypeTableRecord
  2
CONTINUOUS
 70
64
  3
Solid line
 72
65
 73
0
 40
0.0
  0
LTYPE
  5
1F5
100
AcDbSymbolTableRecord
100
AcDbLinetypeTableRecord
  2
CENTER
 70
64
  3
____ _ ____ _ ____ _ ____ _ ____ _ ____ _ ____
 72
65
 73
4
 40
0.6
 49
0.375
 74
0
 49
-0.075
 74
0
 49
0.075
 74
0
 49
-0.075
 74
0
  0
LTYPE
  5
1F6
100
AcDbSymbolTableRecord
100
AcDbLinetypeTableRecord
  2
HIDDEN
 70
64
  3
- - - - - - - - - - - - - - - - - - - -
 72
65
 73
2
 40
0.2
 49
0.1
 74
0
 49
-0.1
 74
0
  0
LTYPE
  5
1F7
100
AcDbSymbolTableRecord
100
AcDbLinetypeTableRecord
  2
PHANTOM
 70
64
  3
_____ _ _ _____ _ _ _____ _ _ _____
 72
65
 73
6
 40
0.8
 49
0.45
 74
0
 49
-0.05
 74
0
 49
0.1
 74
0
 49
-0.05
 74
0
 49
0.1
 74
0
 49
-0.05
 74
0
  0
LTYPE
  5
1F8
100
AcDbSymbolTableRecord
100
AcDbLinetypeTableRecord
  2
DOT
 70
64
  3
. . . . . . . . . . . . . . . . . . . .
 72
65
 73
2
 40
0.2
 49
0.1
 74
0
 49
-0.1
 74
0
  0
LTYPE
  5
1F9
100
AcDbSymbolTableRecord
100
AcDbLinetypeTableRecord
  2
DASHED
 70
64
  3
- - - - - - - - - - - - - - - - - - - -
 72
65
 73
2
 40
0.2
 49
0.1
 74
0
 49
-0.1
 74
0
  0
ENDTAB
  0
TABLE
  2
LAYER
  5
2
100
AcDbSymbolTable
 70
36
  0
LAYER
  5
10
100
AcDbSymbolTableRecord
100
AcDbLayerTableRecord
  2
0
 70
0
 62
7
  6
CONTINUOUS
370
-3
390
F
  0
LAYER
  5
1FA
100
AcDbSymbolTableRecord
100
AcDbLayerTableRecord
  2
DEFAULT_1
 70
0
 62
7
  6
CENTER
370
-3
390
F
  0
LAYER
  5
1FB
100
AcDbSymbolTableRecord
100
AcDbLayerTableRecord
  2
DEFAULT_2
 70
0
 62
7
  6
HIDDEN
370
-3
390
F
  0
LAYER
  5
1FC
100
AcDbSymbolTableRecord
100
AcDbLayerTableRecord
  2
DEFAULT_3
 70
0
 62
7
  6
PHANTOM
370
-3
390
F
  0
LAYER
  5
1FD
100
AcDbSymbolTableRecord
100
AcDbLayerTableRecord
  2
ASSI
 70
0
 62
7
  6
CONTINUOUS
370
-3
390
F
  0
LAYER
  5
1FE
100
AcDbSymbolTableRecord
100
AcDbLayerTableRecord
  2
COLOR9
 70
0
 62
7
  6
CONTINUOUS
370
-3
390
F
  0
LAYER
  5
1FF
100
AcDbSymbolTableRecord
100
AcDbLayerTableRecord
  2
COORDINATE
 70
0
 62
7
  6
CONTINUOUS
370
-3
390
F
  0
LAYER
  5
200
100
AcDbSymbolTableRecord
100
AcDbLayerTableRecord
  2
COORD_ORIGINE
 70
0
 62
7
  6
CONTINUOUS
370
-3
390
F
  0
LAYER
  5
201
100
AcDbSymbolTableRecord
100
AcDbLayerTableRecord
  2
COPY_PUBLISH
 70
0
 62
7
  6
CONTINUOUS
370
-3
390
F
  0
LAYER
  5
202
100
AcDbSymbolTableRecord
100
AcDbLayerTableRecord
  2
COSMETIC
 70
0
 62
7
  6
CONTINUOUS
370
-3
390
F
  0
LAYER
  5
203
100
AcDbSymbolTableRecord
100
AcDbLayerTableRecord
  2
CURVE
 70
0
 62
7
  6
CONTINUOUS
370
-3
390
F
  0
LAYER
  5
204
100
AcDbSymbolTableRecord
100
AcDbLayerTableRecord
  2
DRAFT
 70
0
 62
7
  6
CONTINUOUS
370
-3
390
F
  0
LAYER
  5
205
100
AcDbSymbolTableRecord
100
AcDbLayerTableRecord
  2
IGS_SCRITTE
 70
0
 62
7
  6
CONTINUOUS
370
-3
390
F
  0
LAYER
  5
206
100
AcDbSymbolTableRecord
100
AcDbLayerTableRecord
  2
IMPORT_IGES
 70
0
 62
7
  6
CONTINUOUS
370
-3
390
F
  0
LAYER
  5
207
100
AcDbSymbolTableRecord
100
AcDbLayerTableRecord
  2
INTF_15
 70
0
 62
7
  6
CONTINUOUS
370
-3
390
F
  0
LAYER
  5
208
100
AcDbSymbolTableRecord
100
AcDbLayerTableRecord
  2
INTF_3
 70
0
 62
7
  6
CONTINUOUS
370
-3
390
F
  0
LAYER
  5
209
100
AcDbSymbolTableRecord
100
AcDbLayerTableRecord
  2
INTF_4
 70
0
 62
7
  6
CONTINUOUS
370
-3
390
F
  0
LAYER
  5
20A
100
AcDbSymbolTableRecord
100
AcDbLayerTableRecord
  2
INTF_YELLOW
 70
0
 62
7
  6
CONTINUOUS
370
-3
390
F
  0
LAYER
  5
20B
100
AcDbSymbolTableRecord
100
AcDbLayerTableRecord
  2
PIANI
 70
0
 62
7
  6
CONTINUOUS
370
-3
390
F
  0
LAYER
  5
20C
100
AcDbSymbolTableRecord
100
AcDbLayerTableRecord
  2
PIANI_ORIGINE
 70
0
 62
7
  6
CONTINUOUS
370
-3
390
F
  0
LAYER
  5
20D
100
AcDbSymbolTableRecord
100
AcDbLayerTableRecord
  2
PIANI_RIFERIMENTO
 70
0
 62
7
  6
CONTINUOUS
370
-3
390
F
  0
LAYER
  5
20E
100
AcDbSymbolTableRecord
100
AcDbLayerTableRecord
  2
RACCORDO
 70
0
 62
7
  6
CONTINUOUS
370
-3
390
F
  0
LAYER
  5
20F
100
AcDbSymbolTableRecord
100
AcDbLayerTableRecord
  2
SMUSSO
 70
0
 62
7
  6
CONTINUOUS
370
-3
390
F
  0
LAYER
  5
210
100
AcDbSymbolTableRecord
100
AcDbLayerTableRecord
  2
SNAPLINE
 70
0
 62
7
  6
CONTINUOUS
370
-3
390
F
  0
LAYER
  5
211
100
AcDbSymbolTableRecord
100
AcDbLayerTableRecord
  2
SOLIDO
 70
0
 62
7
  6
CONTINUOUS
370
-3
390
F
  0
LAYER
  5
212
100
AcDbSymbolTableRecord
100
AcDbLayerTableRecord
  2
SUPERFICI
 70
0
 62
7
  6
CONTINUOUS
370
-3
390
F
  0
LAYER
  5
213
100
AcDbSymbolTableRecord
100
AcDbLayerTableRecord
  2
TRASH
 70
0
 62
7
  6
CONTINUOUS
370
-3
390
F
  0
LAYER
  5
214
100
AcDbSymbolTableRecord
100
AcDbLayerTableRecord
  2
WHITE
 70
0
 62
7
  6
CONTINUOUS
370
-3
390
F
  0
LAYER
  5
215
100
AcDbSymbolTableRecord
100
AcDbLayerTableRecord
  2
XSEC_DATUMS
 70
0
 62
7
  6
CONTINUOUS
370
-3
390
F
  0
ENDTAB
  0
TABLE
  2
STYLE
  5
3
100
AcDbSymbolTable
 70
1
  0
STYLE
  5
11
100
AcDbSymbolTableRecord
100
AcDbTextStyleTableRecord
  2
STANDARD
 70
0
 40
0.0
 41
0.8
 50
0.0
 71
0
 42
0.2
  3
txt
  4

  0
STYLE
  5
216
100
AcDbSymbolTableRecord
100
AcDbTextStyleTableRecord
  2
TEXTSTYLE_1
 70
0
 40
0.0
 41
0.8
 50
0.0
 71
0
 42
0.2
  3
gdt
  4

  0
ENDTAB
  0
TABLE
  2
VIEW
  5
6
100
AcDbSymbolTable
 70
0
  0
ENDTAB
  0
TABLE
  2
UCS
  5
7
100
AcDbSymbolTable
 70
0
  0
ENDTAB
  0
TABLE
  2
APPID
  5
9
100
AcDbSymbolTable
 70
1
  0
APPID
  5
217
100
AcDbSymbolTableRecord
100
AcDbRegAppTableRecord
  2
ACAD
 70
0
  0
ENDTAB
  0
TABLE
  2
BLOCK_RECORD
  5
1
100
AcDbSymbolTable
 70
0
  0
BLOCK_RECORD
  5
218
100
AcDbSymbolTableRecord
100
AcDbBlockTableRecord
  2
*Model_Space
  0
BLOCK_RECORD
  5
219
100
AcDbSymbolTableRecord
100
AcDbBlockTableRecord
  2
*Paper_Space
  0
BLOCK_RECORD
  5
21A
100
AcDbSymbolTableRecord
100
AcDbBlockTableRecord
  2
_FILLED
  0
BLOCK_RECORD
  5
21B
100
AcDbSymbolTableRecord
100
AcDbBlockTableRecord
  2
*D0
  0
BLOCK_RECORD
  5
21C
100
AcDbSymbolTableRecord
100
AcDbBlockTableRecord
  2
*D1
  0
BLOCK_RECORD
  5
21D
100
AcDbSymbolTableRecord
100
AcDbBlockTableRecord
  2
*D2
  0
ENDTAB
  0
TABLE
  2
DIMSTYLE
  5
A
100
AcDbSymbolTable
 70
1
100
AcDbDimStyleTable
 71
0
  0
DIMSTYLE
105
21E
100
AcDbSymbolTableRecord
100
AcDbDimStyleTableRecord
  2
STANDARD
 70
0
  3

  4

 40
1.0
 41
3.0
 42
0.0625
 43
0.38
 44
0.18
 45
0.0
 46
0.0
 47
0.01
 48
0.01
140
3.0
141
0.09
142
0.0
143
25.4
144
1.0
145
0.0
146
1.0
147
0.09
 71
1.0
 72
0.0
 73
0
 74
0
 75
0
 76
0
 77
1
 78
8
170
0
171
2
172
0
173
0
174
0
175
0
176
0
177
0
178
0
270
2
271
2
272
2
273
2
274
2
275
0
280
0
281
0
282
0
283
1
284
8
285
0
286
0
287
3
288
0
340
11
341
21A
342
21A
343
21A
344
21A
  0
DIMSTYLE
105
21F
100
AcDbSymbolTableRecord
100
AcDbDimStyleTableRecord
  2
DIMSTYLE_1
 70
0
  3

  4

 40
1.0
 41
3.0
 42
0.0625
 43
0.38
 44
0.18
 45
0.0
 46
0.0
 47
0.0
 48
0.0
140
3.0
141
0.09
142
0.0
143
25.4
144
1.0
145
0.0
146
1.0
147
0.09
 71
0.0
 72
0.0
 73
0
 74
0
 75
0
 76
0
 77
1
 78
8
170
0
171
2
172
0
173
0
174
0
175
0
176
0
177
0
178
0
270
2
271
2
272
2
273
2
274
2
275
0
280
0
281
0
282
0
283
1
284
8
285
0
286
0
287
3
288
0
340
11
341
21A
342
21A
343
21A
344
21A
  0
DIMSTYLE
105
220
100
AcDbSymbolTableRecord
100
AcDbDimStyleTableRecord
  2
DIMSTYLE_2
 70
0
  3

  4

 40
1.0
 41
3.0
 42
0.0625
 43
0.38
 44
0.18
 45
0.0
 46
0.0
 47
0.0
 48
0.0
140
3.0
141
0.09
142
0.0
143
25.4
144
1.0
145
0.0
146
1.0
147
0.09
 71
0.0
 72
0.0
 73
0
 74
0
 75
0
 76
0
 77
1
 78
8
170
0
171
2
172
0
173
0
174
0
175
0
176
0
177
0
178
0
270
2
271
1
272
1
273
2
274
2
275
0
280
0
281
0
282
0
283
1
284
8
285
0
286
0
287
3
288
0
340
11
341
21A
342
21A
343
21A
344
21A
  0
ENDTAB
  0
ENDSEC
  0
SECTION
  2
BLOCKS
  0
BLOCK
  5
20
100
AcDbEntity
  8
0
100
AcDbBlockBegin
  2
*Model_Space
 70
0
 10
0.0
 20
0.0
 30
0.0
  3
*Model_Space
  1

  0
ENDBLK
  5
21
100
AcDbEntity
  8
0
100
AcDbBlockEnd
  0
BLOCK
  5
1C
100
AcDbEntity
  8
0
100
AcDbBlockBegin
  2
*Paper_Space
 70
0
 10
0.0
 20
0.0
 30
0.0
  3
*Paper_Space
  1

  0
ENDBLK
  5
1D
100
AcDbEntity
  8
0
100
AcDbBlockEnd
  0
BLOCK
  5
221
100
AcDbEntity
  8
0
100
AcDbBlockBegin
  2
_FILLED
 70
64
 10
0.0
 20
0.0
  3
_FILLED
  1

  0
SOLID
  5
222
100
AcDbEntity
  8
0
  6
BYBLOCK
 62
0
100
AcDbTrace
 10
0.0
 20
0.0
 11
-1.0
 21
0.3166666667
 12
-1.0
 22
-0.3166666667
 13
-1.0
 23
-0.3166666667
  0
ENDBLK
  5
223
100
AcDbEntity
  8
0
  6
BYBLOCK
 62
0
100
AcDbBlockEnd
  0
BLOCK
  5
224
100
AcDbEntity
  8
0
100
AcDbBlockBegin
 62
7
  6
CONTINUOUS
  2
*D0
 70
65
 10
0.0
 20
0.0
  3
*D0
  1

  0
MTEXT
  5
225
100
AcDbEntity
  8
0
100
AcDbMText
 62
7
  6
CONTINUOUS
  7
STANDARD
 71
2
 72
1
 10
15.7736284444
 20
22.6567349703
 30
0.0
 11
1.0
 21
0.0
 31
0.0
 44
0.9
  1
44,7
 40
3.0
 41
8.7857142857
  0
LINE
  5
226
100
AcDbEntity
  8
0
100
AcDbLine
 62
7
  6
CONTINUOUS
 10
38.1236284444
 20
11.1565615915
 11
38.1236284444
 21
20.4067349703
  0
LINE
  5
227
100
AcDbEntity
  8
0
100
AcDbLine
 62
7
  6
CONTINUOUS
 10
-6.5763715556
 20
11.1565615915
 11
-6.5763715556
 21
20.4067349703
  0
LINE
  5
228
100
AcDbEntity
  8
0
100
AcDbLine
 62
7
  6
CONTINUOUS
 10
38.1236284444
 20
18.9067349703
 11
15.7736284444
 21
18.9067349703
  0
LINE
  5
229
100
AcDbEntity
  8
0
100
AcDbLine
 62
7
  6
CONTINUOUS
 10
-6.5763715556
 20
18.9067349703
 11
15.7736284444
 21
18.9067349703
  0
INSERT
  5
22A
100
AcDbEntity
  8
0
100
AcDbBlockReference
 62
7
  6
CONTINUOUS
  2
_FILLED
 10
38.1236284444
 20
18.9067349703
 41
3.0
 42
3.0
 43
3.0
  0
INSERT
  5
22B
100
AcDbEntity
  8
0
100
AcDbBlockReference
 62
7
  6
CONTINUOUS
  2
_FILLED
 10
-6.5763715556
 20
18.9067349703
 41
3.0
 42
3.0
 43
3.0
 50
180.0
  0
ENDBLK
  5
22C
100
AcDbEntity
  8
0
  6
BYBLOCK
 62
0
100
AcDbBlockEnd
  0
BLOCK
  5
22D
100
AcDbEntity
  8
0
100
AcDbBlockBegin
 62
7
  6
CONTINUOUS
  2
*D1
 70
65
 10
0.0
 20
0.0
  3
*D1
  1

  0
MTEXT
  5
22E
100
AcDbEntity
  8
0
100
AcDbMText
 62
7
  6
CONTINUOUS
  7
STANDARD
 71
2
 72
1
 10
42.3736284444
 20
-0.147624
 30
0.0
 11
0.0
 21
1.0
 31
0.0
 44
0.9
  1
22,1
 40
3.0
 41
8.1428571429
  0
LINE
  5
22F
100
AcDbEntity
  8
0
100
AcDbLine
 62
7
  6
CONTINUOUS
 10
38.3735522427
 20
10.9064949703
 11
47.6236284444
 21
10.9064949703
  0
LINE
  5
230
100
AcDbEntity
  8
0
100
AcDbLine
 62
7
  6
CONTINUOUS
 10
38.0964102497
 20
-11.2017429703
 11
47.6236284444
 21
-11.2017429703
  0
LINE
  5
231
100
AcDbEntity
  8
0
100
AcDbLine
 62
7
  6
CONTINUOUS
 10
46.1236284444
 20
10.9064949703
 11
46.1236284444
 21
-0.147624
  0
LINE
  5
232
100
AcDbEntity
  8
0
100
AcDbLine
 62
7
  6
CONTINUOUS
 10
46.1236284444
 20
-11.2017429703
 11
46.1236284444
 21
-0.147624
  0
INSERT
  5
233
100
AcDbEntity
  8
0
100
AcDbBlockReference
 62
7
  6
CONTINUOUS
  2
_FILLED
 10
46.1236284444
 20
10.9064949703
 41
3.0
 42
3.0
 43
3.0
 50
90.0
  0
INSERT
  5
234
100
AcDbEntity
  8
0
100
AcDbBlockReference
 62
7
  6
CONTINUOUS
  2
_FILLED
 10
46.1236284444
 20
-11.2017429703
 41
3.0
 42
3.0
 43
3.0
 50
270.0
  0
ENDBLK
  5
235
100
AcDbEntity
  8
0
  6
BYBLOCK
 62
0
100
AcDbBlockEnd
  0
BLOCK
  5
236
100
AcDbEntity
  8
0
100
AcDbBlockBegin
 62
7
  6
CONTINUOUS
  2
*D2
 70
65
 10
0.0
 20
0.0
  3
*D2
  1

  0
MTEXT
  5
237
100
AcDbEntity
  8
0
100
AcDbMText
 62
7
  6
CONTINUOUS
  7
STANDARD
 71
2
 72
1
 10
-24.514937779
 20
22.6567349703
 30
0.0
 11
1.0
 21
0.0
 31
0.0
 44
0.9
  1
5,7
 40
3.0
 41
6.2142857143
  0
LINE
  5
238
100
AcDbEntity
  8
0
100
AcDbLine
 62
7
  6
CONTINUOUS
 10
-21.6650168889
 20
11.1565615915
 11
-21.6650168889
 21
20.4067349703
  0
LINE
  5
239
100
AcDbEntity
  8
0
100
AcDbLine
 62
7
  6
CONTINUOUS
 10
-27.3648586691
 20
11.1087265171
 11
-27.3648586691
 21
20.4067349703
  0
LINE
  5
23A
100
AcDbEntity
  8
0
100
AcDbLine
 62
7
  6
CONTINUOUS
 10
-21.6650168889
 20
18.9067349703
 11
-17.6650168889
 21
18.9067349703
  0
LINE
  5
23B
100
AcDbEntity
  8
0
100
AcDbLine
 62
7
  6
CONTINUOUS
 10
-17.6650168889
 20
18.9067349703
 11
-24.514937779
 21
18.9067349703
  0
LINE
  5
23C
100
AcDbEntity
  8
0
100
AcDbLine
 62
7
  6
CONTINUOUS
 10
-27.3648586691
 20
18.9067349703
 11
-31.3648586691
 21
18.9067349703
  0
LINE
  5
23D
100
AcDbEntity
  8
0
100
AcDbLine
 62
7
  6
CONTINUOUS
 10
-31.3648586691
 20
18.9067349703
 11
-24.514937779
 21
18.9067349703
  0
INSERT
  5
23E
100
AcDbEntity
  8
0
100
AcDbBlockReference
 62
7
  6
CONTINUOUS
  2
_FILLED
 10
-21.6650168889
 20
18.9067349703
 41
3.0
 42
3.0
 43
3.0
 50
180.0
  0
INSERT
  5
23F
100
AcDbEntity
  8
0
100
AcDbBlockReference
 62
7
  6
CONTINUOUS
  2
_FILLED
 10
-27.3648586691
 20
18.9067349703
 41
3.0
 42
3.0
 43
3.0
  0
ENDBLK
  5
240
100
AcDbEntity
  8
0
  6
BYBLOCK
 62
0
100
AcDbBlockEnd
  0
ENDSEC
  0
SECTION
  2
ENTITIES
  0
DIMENSION
  5
241
100
AcDbEntity
  8
0
100
AcDbDimension
 62
7
  6
CONTINUOUS
  2
*D0
 10
-6.5763715556
 20
18.9067349703
 11
11.3807713016
 21
21.1567349703
 70
160
 71
2
 42
44.7
  3
DIMSTYLE_1
100
AcDbAlignedDimension
 13
38.1236284444
 23
11.1565615915
 14
-6.5763715556
 24
11.1565615915
 50
180.0
100
AcDbRotatedDimension
  0
DIMENSION
  5
242
100
AcDbEntity
  8
0
100
AcDbDimension
 62
7
  6
CONTINUOUS
  2
*D1
 10
46.1236284444
 20
-11.2017429703
 11
45.6979281673
 21
-3.7874675589
 70
160
 71
2
 42
22.1082379406
  3
DIMSTYLE_2
100
AcDbAlignedDimension
 13
38.3735522427
 23
10.9064949703
 14
38.0964102497
 24
-11.2017429703
 50
270.0
100
AcDbRotatedDimension
  0
DIMENSION
  5
243
100
AcDbEntity
  8
0
100
AcDbDimension
 62
7
  6
CONTINUOUS
  2
*D2
 10
-27.3648586691
 20
18.9067349703
 11
-27.6220806361
 21
21.1567349703
 70
160
 71
2
 42
5.6998417802
  3
DIMSTYLE_1
100
AcDbAlignedDimension
 13
-21.6650168889
 23
11.1565615915
 14
-27.3648586691
 24
11.1087265171
 50
180.0
100
AcDbRotatedDimension
  0
LINE
  5
244
100
AcDbEntity
  8
0
100
AcDbLine
 62
7
  6
CONTINUOUS
 10
-6.5500642462
 20
-10.7042523375
 11
-6.5763715556
 21
-2.0935050297
  0
LINE
  5
245
100
AcDbEntity
  8
ASSI
100
AcDbLine
 62
7
  6
CONTINUOUS
 10
-6.5500642462
 20
-10.7042523375
 11
-6.5763715556
 21
-2.0935050297
  0
LINE
  5
246
100
AcDbEntity
  8
RACCORDO
100
AcDbLine
 62
7
  6
CONTINUOUS
 10
-6.5763715556
 20
10.6565615915
 11
-6.5763715556
 21
-2.0935050297
  0
LINE
  5
247
100
AcDbEntity
  8
ASSI
100
AcDbLine
 62
7
  6
CONTINUOUS
 10
-6.5763715556
 20
10.6565615915
 11
-6.5763715556
 21
-2.0935050297
  0
LINE
  5
248
100
AcDbEntity
  8
RACCORDO
100
AcDbLine
 62
253
  6
CONTINUOUS
 10
-5.8944843017
 20
10.6087265168
 11
-5.8944843017
 21
10.8589158821
  0
LINE
  5
249
100
AcDbEntity
  8
ASSI
100
AcDbLine
 62
253
  6
CONTINUOUS
 10
-5.8976275141
 20
1.5064949703
 11
-5.8944843017
 21
10.8589158821
  0
LINE
  5
24A
100
AcDbEntity
  8
0
100
AcDbLine
 62
253
  6
CONTINUOUS
 10
-6.5500642462
 20
-10.7042523375
 11
-6.4480372372
 21
-10.5511340343
  0
LINE
  5
24B
100
AcDbEntity
  8
ASSI
100
AcDbLine
 62
253
  6
CONTINUOUS
 10
-6.5500642462
 20
-10.7042523375
 11
-6.4480372372
 21
-10.5511340343
  0
LINE
  5
24C
100
AcDbEntity
  8
0
100
AcDbLine
 62
253
  6
CONTINUOUS
 10
-6.0491533608
 20
-11.2017429703
 11
-5.9483418236
 21
-11.0504488016
  0
LINE
  5
24D
100
AcDbEntity
  8
ASSI
100
AcDbLine
 62
253
  6
CONTINUOUS
 10
-6.0491533608
 20
-11.2017429703
 11
-5.9483418236
 21
-11.0504488016
  0
LINE
  5
24E
100
AcDbEntity
  8
RACCORDO
100
AcDbLine
 62
7
  6
CONTINUOUS
 10
30.4176747435
 20
-11.2017429703
 11
30.7658934175
 21
-11.1701341387
  0
LINE
  5
24F
100
AcDbEntity
  8
ASSI
100
AcDbLine
 62
7
  6
CONTINUOUS
 10
30.4176747435
 20
-11.2017429703
 11
30.7658934175
 21
-11.1701341387
  0
LINE
  5
250
100
AcDbEntity
  8
RACCORDO
100
AcDbLine
 62
7
  6
CONTINUOUS
 10
1.1295821454
 20
-11.2017429703
 11
0.7813634714
 21
-11.1701341387
  0
LINE
  5
251
100
AcDbEntity
  8
ASSI
100
AcDbLine
 62
7
  6
CONTINUOUS
 10
1.1295821454
 20
-11.2017429703
 11
0.7813634714
 21
-11.1701341387
  0
LINE
  5
252
100
AcDbEntity
  8
RACCORDO
100
AcDbLine
 62
7
  6
CONTINUOUS
 10
19.2176747435
 20
-11.2017429703
 11
19.5658934175
 21
-11.1701341387
  0
LINE
  5
253
100
AcDbEntity
  8
ASSI
100
AcDbLine
 62
7
  6
CONTINUOUS
 10
19.2176747435
 20
-11.2017429703
 11
19.5658934175
 21
-11.1701341387
  0
LINE
  5
254
100
AcDbEntity
  8
RACCORDO
100
AcDbLine
 62
7
  6
CONTINUOUS
 10
7.9176747435
 20
-11.2017429703
 11
8.2658934175
 21
-11.1701341387
  0
LINE
  5
255
100
AcDbEntity
  8
ASSI
100
AcDbLine
 62
7
  6
CONTINUOUS
 10
7.9176747435
 20
-11.2017429703
 11
8.2658934175
 21
-11.1701341387
  0
LINE
  5
256
100
AcDbEntity
  8
0
100
AcDbLine
 62
7
  6
CONTINUOUS
 10
37.5964102497
 20
-11.2017429703
 11
34.8295821454
 21
-11.2017429703
  0
LINE
  5
257
100
AcDbEntity
  8
ASSI
100
AcDbLine
 62
7
  6
CONTINUOUS
 10
37.5964102497
 20
-11.2017429703
 11
34.8295821454
 21
-11.2017429703
  0
LINE
  5
258
100
AcDbEntity
  8
DRAFT
100
AcDbLine
 62
7
  6
CONTINUOUS
 10
30.4176747435
 20
-11.2017429703
 11
23.6295821454
 21
-11.2017429703
  0
LINE
  5
259
100
AcDbEntity
  8
ASSI
100
AcDbLine
 62
7
  6
CONTINUOUS
 10
30.4176747435
 20
-11.2017429703
 11
23.6295821454
 21
-11.2017429703
  0
LINE
  5
25A
100
AcDbEntity
  8
DRAFT
100
AcDbLine
 62
7
  6
CONTINUOUS
 10
19.2176747435
 20
-11.2017429703
 11
12.3295821454
 21
-11.2017429703
  0
LINE
  5
25B
100
AcDbEntity
  8
ASSI
100
AcDbLine
 62
7
  6
CONTINUOUS
 10
19.2176747435
 20
-11.2017429703
 11
12.3295821454
 21
-11.2017429703
  0
LINE
  5
25C
100
AcDbEntity
  8
DRAFT
100
AcDbLine
 62
7
  6
CONTINUOUS
 10
7.9176747435
 20
-11.2017429703
 11
1.1295821454
 21
-11.2017429703
  0
LINE
  5
25D
100
AcDbEntity
  8
ASSI
100
AcDbLine
 62
7
  6
CONTINUOUS
 10
7.9176747435
 20
-11.2017429703
 11
1.1295821454
 21
-11.2017429703
  0
LINE
  5
25E
100
AcDbEntity
  8
0
100
AcDbLine
 62
7
  6
CONTINUOUS
 10
-3.2823252565
 20
-11.2017429703
 11
-6.0491533608
 21
-11.2017429703
  0
LINE
  5
25F
100
AcDbEntity
  8
ASSI
100
AcDbLine
 62
7
  6
CONTINUOUS
 10
-3.2823252565
 20
-11.2017429703
 11
-6.0491533608
 21
-11.2017429703
  0
LINE
  5
260
100
AcDbEntity
  8
RACCORDO
100
AcDbLine
 62
7
  6
CONTINUOUS
 10
34.3081583906
 20
-11.1648933608
 11
30.9390984983
 21
-11.1648933608
  0
LINE
  5
261
100
AcDbEntity
  8
ASSI
100
AcDbLine
 62
7
  6
CONTINUOUS
 10
34.3081583906
 20
-11.1648933608
 11
30.9390984983
 21
-11.1648933608
  0
LINE
  5
262
100
AcDbEntity
  8
RACCORDO
100
AcDbLine
 62
7
  6
CONTINUOUS
 10
23.1081583906
 20
-11.1648933608
 11
19.7390984983
 21
-11.1648933608
  0
LINE
  5
263
100
AcDbEntity
  8
ASSI
100
AcDbLine
 62
7
  6
CONTINUOUS
 10
23.1081583906
 20
-11.1648933608
 11
19.7390984983
 21
-11.1648933608
  0
LINE
  5
264
100
AcDbEntity
  8
RACCORDO
100
AcDbLine
 62
7
  6
CONTINUOUS
 10
11.8081583906
 20
-11.1648933608
 11
8.4390984983
 21
-11.1648933608
  0
LINE
  5
265
100
AcDbEntity
  8
ASSI
100
AcDbLine
 62
7
  6
CONTINUOUS
 10
11.8081583906
 20
-11.1648933608
 11
8.4390984983
 21
-11.1648933608
  0
LINE
  5
266
100
AcDbEntity
  8
RACCORDO
100
AcDbLine
 62
7
  6
CONTINUOUS
 10
0.6081583906
 20
-11.1648933608
 11
-2.7609015017
 21
-11.1648933608
  0
LINE
  5
267
100
AcDbEntity
  8
ASSI
100
AcDbLine
 62
7
  6
CONTINUOUS
 10
0.6081583906
 20
-11.1648933608
 11
-2.7609015017
 21
-11.1648933608
  0
LINE
  5
268
100
AcDbEntity
  8
0
100
AcDbLine
 62
253
  6
CONTINUOUS
 10
-5.9483418236
 20
-11.0504488016
 11
37.4955987125
 21
-11.0504488016
  0
LINE
  5
269
100
AcDbEntity
  8
ASSI
100
AcDbLine
 62
253
  6
CONTINUOUS
 10
-5.9483418236
 20
-11.0504488016
 11
37.4955987125
 21
-11.0504488016
  0
LINE
  5
26A
100
AcDbEntity
  8
0
100
AcDbLine
 62
253
  6
CONTINUOUS
 10
-5.931990368
 20
-10.2009014493
 11
37.4792472569
 21
-10.2009014493
  0
LINE
  5
26B
100
AcDbEntity
  8
ASSI
100
AcDbLine
 62
253
  6
CONTINUOUS
 10
-5.931990368
 20
-10.2009014493
 11
37.4792472569
 21
-10.2009014493
  0
LINE
  5
26C
100
AcDbEntity
  8
RACCORDO
100
AcDbLine
 62
7
  6
CONTINUOUS
 10
12.3295821454
 20
-11.2017429703
 11
11.9813634714
 21
-11.1701341387
  0
LINE
  5
26D
100
AcDbEntity
  8
ASSI
100
AcDbLine
 62
7
  6
CONTINUOUS
 10
12.3295821454
 20
-11.2017429703
 11
11.9813634714
 21
-11.1701341387
  0
LINE
  5
26E
100
AcDbEntity
  8
RACCORDO
100
AcDbLine
 62
7
  6
CONTINUOUS
 10
23.6295821454
 20
-11.2017429703
 11
23.2813634714
 21
-11.1701341387
  0
LINE
  5
26F
100
AcDbEntity
  8
ASSI
100
AcDbLine
 62
7
  6
CONTINUOUS
 10
23.6295821454
 20
-11.2017429703
 11
23.2813634714
 21
-11.1701341387
  0
LINE
  5
270
100
AcDbEntity
  8
RACCORDO
100
AcDbLine
 62
7
  6
CONTINUOUS
 10
-3.2823252565
 20
-11.2017429703
 11
-2.9341065825
 21
-11.1701341387
  0
LINE
  5
271
100
AcDbEntity
  8
ASSI
100
AcDbLine
 62
7
  6
CONTINUOUS
 10
-3.2823252565
 20
-11.2017429703
 11
-2.9341065825
 21
-11.1701341387
  0
LINE
  5
272
100
AcDbEntity
  8
RACCORDO
100
AcDbLine
 62
7
  6
CONTINUOUS
 10
34.8295821454
 20
-11.2017429703
 11
34.4813634714
 21
-11.1701341387
  0
LINE
  5
273
100
AcDbEntity
  8
ASSI
100
AcDbLine
 62
7
  6
CONTINUOUS
 10
34.8295821454
 20
-11.2017429703
 11
34.4813634714
 21
-11.1701341387
  0
LINE
  5
274
100
AcDbEntity
  8
CURVE
100
AcDbLine
 62
253
  6
CONTINUOUS
 10
15.6322070882
 20
-3.534926386
 11
12.4322070882
 21
-0.334926386
  0
LINE
  5
275
100
AcDbEntity
  8
CURVE
100
AcDbLine
 62
253
  6
CONTINUOUS
 10
13.0564711569
 20
-0.3935050297
 11
15.7736284444
 21
-3.1106623172
  0
LINE
  5
276
100
AcDbEntity
  8
CURVE
100
AcDbLine
 62
253
  6
CONTINUOUS
 10
18.490785732
 20
-0.3935050297
 11
13.0564711569
 21
-0.3935050297
  0
LINE
  5
277
100
AcDbEntity
  8
CURVE
100
AcDbLine
 62
253
  6
CONTINUOUS
 10
12.5736284444
 20
0.0064949703
 11
18.9736284444
 21
0.0064949703
  0
LINE
  5
278
100
AcDbEntity
  8
0
100
AcDbLine
 62
253
  6
CONTINUOUS
 10
37.444884403
 20
1.5064949703
 11
-5.8976275141
 21
1.5064949703
  0
LINE
  5
279
100
AcDbEntity
  8
ASSI
100
AcDbLine
 62
253
  6
CONTINUOUS
 10
37.444884403
 20
1.5064949703
 11
-5.8976275141
 21
1.5064949703
  0
LINE
  5
27A
100
AcDbEntity
  8
CURVE
100
AcDbLine
 62
253
  6
CONTINUOUS
 10
15.7736284444
 20
-3.1106623172
 11
18.490785732
 21
-0.3935050297
  0
LINE
  5
27B
100
AcDbEntity
  8
CURVE
100
AcDbLine
 62
253
  6
CONTINUOUS
 10
19.1150498007
 20
-0.334926386
 11
15.9150498007
 21
-3.534926386
  0
LINE
  5
27C
100
AcDbEntity
  8
RACCORDO
100
AcDbLine
 62
253
  6
CONTINUOUS
 10
38.1236284444
 20
10.6565615915
 11
37.941436648
 21
10.6110309877
  0
LINE
  5
27D
100
AcDbEntity
  8
ASSI
100
AcDbLine
 62
253
  6
CONTINUOUS
 10
38.1236284444
 20
10.6565615915
 11
37.941436648
 21
10.6110309877
  0
LINE
  5
27E
100
AcDbEntity
  8
RACCORDO
100
AcDbLine
 62
253
  6
CONTINUOUS
 10
-6.3941797592
 20
10.6110309877
 11
-6.5763715556
 21
10.6565615915
  0
LINE
  5
27F
100
AcDbEntity
  8
ASSI
100
AcDbLine
 62
253
  6
CONTINUOUS
 10
-6.3941797592
 20
10.6110309877
 11
-6.5763715556
 21
10.6565615915
  0
LINE
  5
280
100
AcDbEntity
  8
RACCORDO
100
AcDbLine
 62
253
  6
CONTINUOUS
 10
37.8735522427
 20
10.9064949703
 11
37.6915888445
 21
10.8610214443
  0
LINE
  5
281
100
AcDbEntity
  8
ASSI
100
AcDbLine
 62
253
  6
CONTINUOUS
 10
37.8735522427
 20
10.9064949703
 11
37.6915888445
 21
10.8610214443
  0
LINE
  5
282
100
AcDbEntity
  8
RACCORDO
100
AcDbLine
 62
7
  6
CONTINUOUS
 10
19.925526988
 20
5.4064949703
 11
11.6217299009
 21
5.4064949703
  0
LINE
  5
283
100
AcDbEntity
  8
ASSI
100
AcDbLine
 62
7
  6
CONTINUOUS
 10
19.925526988
 20
5.4064949703
 11
11.6217299009
 21
5.4064949703
  0
LINE
  5
284
100
AcDbEntity
  8
SUPERFICI
100
AcDbLine
 62
7
  6
CONTINUOUS
 10
11.6217299009
 20
5.4064949703
 11
19.925526988
 21
5.4064949703
  0
LINE
  5
285
100
AcDbEntity
  8
RACCORDO
100
AcDbLine
 62
253
  6
CONTINUOUS
 10
-6.1443319556
 20
10.8610214443
 11
-6.3262953538
 21
10.9064949703
  0
LINE
  5
286
100
AcDbEntity
  8
ASSI
100
AcDbLine
 62
253
  6
CONTINUOUS
 10
-6.1443319556
 20
10.8610214443
 11
-6.3262953538
 21
10.9064949703
  0
LINE
  5
287
100
AcDbEntity
  8
RACCORDO
100
AcDbLine
 62
7
  6
CONTINUOUS
 10
19.9248995152
 20
7.6064949703
 11
11.6223573737
 21
7.6064949703
  0
LINE
  5
288
100
AcDbEntity
  8
ASSI
100
AcDbLine
 62
7
  6
CONTINUOUS
 10
19.9248995152
 20
7.6064949703
 11
11.6223573737
 21
7.6064949703
  0
LINE
  5
289
100
AcDbEntity
  8
SUPERFICI
100
AcDbLine
 62
7
  6
CONTINUOUS
 10
11.6223573737
 20
7.6064949703
 11
19.9248995152
 21
7.6064949703
  0
LINE
  5
28A
100
AcDbEntity
  8
DRAFT
100
AcDbLine
 62
7
  6
CONTINUOUS
 10
35.536094435
 20
10.9064949703
 11
35.2736284444
 21
10.8803143669
  0
LINE
  5
28B
100
AcDbEntity
  8
ASSI
100
AcDbLine
 62
7
  6
CONTINUOUS
 10
35.536094435
 20
10.9064949703
 11
35.2736284444
 21
10.8803143669
  0
LINE
  5
28C
100
AcDbEntity
  8
DRAFT
100
AcDbLine
 62
7
  6
CONTINUOUS
 10
-3.9888375461
 20
10.9064949703
 11
-3.7263715556
 21
10.8803143669
  0
LINE
  5
28D
100
AcDbEntity
  8
ASSI
100
AcDbLine
 62
7
  6
CONTINUOUS
 10
-3.9888375461
 20
10.9064949703
 11
-3.7263715556
 21
10.8803143669
  0
LINE
  5
28E
100
AcDbEntity
  8
RACCORDO
100
AcDbLine
 62
253
  6
CONTINUOUS
 10
37.4417385074
 20
10.6087265168
 11
-5.8944816185
 21
10.6087265168
  0
LINE
  5
28F
100
AcDbEntity
  8
ASSI
100
AcDbLine
 62
253
  6
CONTINUOUS
 10
37.4417385074
 20
10.6087265168
 11
-5.8944816185
 21
10.6087265168
  0
LINE
  5
290
100
AcDbEntity
  8
RACCORDO
100
AcDbLine
 62
253
  6
CONTINUOUS
 10
37.4417411906
 20
10.8589158821
 11
-5.8944843017
 21
10.8589158821
  0
LINE
  5
291
100
AcDbEntity
  8
ASSI
100
AcDbLine
 62
7
  6
CONTINUOUS
 10
37.4417411906
 20
10.8589158821
 11
-5.8944843017
 21
10.8589158821
  0
LINE
  5
292
100
AcDbEntity
  8
DRAFT
100
AcDbLine
 62
7
  6
CONTINUOUS
 10
35.2736284444
 20
10.8803143669
 11
-3.7263715556
 21
10.8803143669
  0
LINE
  5
293
100
AcDbEntity
  8
ASSI
100
AcDbLine
 62
7
  6
CONTINUOUS
 10
35.2736284444
 20
10.8803143669
 11
-3.7263715556
 21
10.8803143669
  0
LINE
  5
294
100
AcDbEntity
  8
RACCORDO
100
AcDbLine
 62
7
  6
CONTINUOUS
 10
37.8735522427
 20
10.9064949703
 11
35.536094435
 21
10.9064949703
  0
LINE
  5
295
100
AcDbEntity
  8
ASSI
100
AcDbLine
 62
7
  6
CONTINUOUS
 10
37.8735522427
 20
10.9064949703
 11
35.536094435
 21
10.9064949703
  0
LINE
  5
296
100
AcDbEntity
  8
RACCORDO
100
AcDbLine
 62
7
  6
CONTINUOUS
 10
-3.9888375461
 20
10.9064949703
 11
-6.3262953538
 21
10.9064949703
  0
LINE
  5
297
100
AcDbEntity
  8
ASSI
100
AcDbLine
 62
7
  6
CONTINUOUS
 10
-3.9888375461
 20
10.9064949703
 11
-6.3262953538
 21
10.9064949703
  0
LINE
  5
298
100
AcDbEntity
  8
0
100
AcDbLine
 62
253
  6
CONTINUOUS
 10
37.4955987125
 20
-11.0504488016
 11
37.5964102497
 21
-11.2017429703
  0
LINE
  5
299
100
AcDbEntity
  8
ASSI
100
AcDbLine
 62
253
  6
CONTINUOUS
 10
37.4955987125
 20
-11.0504488016
 11
37.5964102497
 21
-11.2017429703
  0
LINE
  5
29A
100
AcDbEntity
  8
0
100
AcDbLine
 62
253
  6
CONTINUOUS
 10
37.995294126
 20
-10.5511340343
 11
38.0973211351
 21
-10.7042523375
  0
LINE
  5
29B
100
AcDbEntity
  8
ASSI
100
AcDbLine
 62
253
  6
CONTINUOUS
 10
37.995294126
 20
-10.5511340343
 11
38.0973211351
 21
-10.7042523375
  0
LINE
  5
29C
100
AcDbEntity
  8
RACCORDO
100
AcDbLine
 62
253
  6
CONTINUOUS
 10
37.4417411906
 20
10.6087265168
 11
37.4417411906
 21
10.8589158821
  0
LINE
  5
29D
100
AcDbEntity
  8
ASSI
100
AcDbLine
 62
253
  6
CONTINUOUS
 10
37.444884403
 20
1.5064949703
 11
37.4417411906
 21
10.8589158821
  0
LINE
  5
29E
100
AcDbEntity
  8
RACCORDO
100
AcDbLine
 62
7
  6
CONTINUOUS
 10
38.1236284444
 20
10.6565615915
 11
38.1236284444
 21
-2.0935050297
  0
LINE
  5
29F
100
AcDbEntity
  8
ASSI
100
AcDbLine
 62
7
  6
CONTINUOUS
 10
38.1236284444
 20
10.6565615915
 11
38.1236284444
 21
-2.0935050297
  0
LINE
  5
2A0
100
AcDbEntity
  8
0
100
AcDbLine
 62
7
  6
CONTINUOUS
 10
38.0973211351
 20
-10.7042523375
 11
38.1236284444
 21
-2.0935050297
  0
LINE
  5
2A1
100
AcDbEntity
  8
ASSI
100
AcDbLine
 62
7
  6
CONTINUOUS
 10
38.0973211351
 20
-10.7042523375
 11
38.1236284444
 21
-2.0935050297
  0
LINE
  5
2A2
100
AcDbEntity
  8
0
100
AcDbLine
 62
7
  6
CONTINUOUS
 10
-25.3487491653
 20
-11.0504488016
 11
-22.4618844534
 21
-11.2017429703
  0
LINE
  5
2A3
100
AcDbEntity
  8
ASSI
100
AcDbLine
 62
7
  6
CONTINUOUS
 10
-25.3487491653
 20
-11.0504488016
 11
-22.4618844534
 21
-11.2017429703
  0
LINE
  5
2A4
100
AcDbEntity
  8
0
100
AcDbLine
 62
253
  6
CONTINUOUS
 10
-25.3400309355
 20
-10.5511340343
 11
-22.4183596628
 21
-10.7042523375
  0
LINE
  5
2A5
100
AcDbEntity
  8
ASSI
100
AcDbLine
 62
253
  6
CONTINUOUS
 10
-25.3400309355
 20
-10.5511340343
 11
-22.4183596628
 21
-10.7042523375
  0
LINE
  5
2A6
100
AcDbEntity
  8
RACCORDO
100
AcDbLine
 62
253
  6
CONTINUOUS
 10
-22.0878926092
 20
-6.9269966309
 11
-22.0650168889
 21
-6.9269966309
  0
LINE
  5
2A7
100
AcDbEntity
  8
ASSI
100
AcDbLine
 62
253
  6
CONTINUOUS
 10
-22.0878926092
 20
-6.9269966309
 11
-22.0650168889
 21
-6.9269966309
  0
LINE
  5
2A8
100
AcDbEntity
  8
CURVE
100
AcDbLine
 62
253
  6
CONTINUOUS
 10
-27.0377777661
 20
-3.530120147
 11
-27.0329903662
 21
-3.5935050297
  0
LINE
  5
2A9
100
AcDbEntity
  8
RACCORDO
100
AcDbLine
 62
7
  6
CONTINUOUS
 10
-22.0650168889
 20
-6.9269966309
 11
-22.0650168889
 21
-6.6655259508
  0
LINE
  5
2AA
100
AcDbEntity
  8
ASSI
100
AcDbLine
 62
7
  6
CONTINUOUS
 10
-22.0650168889
 20
-6.9269966309
 11
-22.0650168889
 21
-6.6655259508
  0
LINE
  5
2AB
100
AcDbEntity
  8
RACCORDO
100
AcDbLine
 62
7
  6
CONTINUOUS
 10
-21.6650168889
 20
10.9064949703
 11
-21.6650168889
 21
-2.0935050297
  0
LINE
  5
2AC
100
AcDbEntity
  8
ASSI
100
AcDbLine
 62
7
  6
CONTINUOUS
 10
-21.6650168889
 20
10.9064949703
 11
-21.6650168889
 21
-2.0935050297
  0
LINE
  5
2AD
100
AcDbEntity
  8
0
100
AcDbLine
 62
253
  6
CONTINUOUS
 10
-26.7922987489
 20
1.5159949703
 11
-27.274758742
 21
1.5064949703
  0
LINE
  5
2AE
100
AcDbEntity
  8
ASSI
100
AcDbLine
 62
253
  6
CONTINUOUS
 10
-26.7922987489
 20
1.5159949703
 11
-27.274758742
 21
1.5064949703
  0
LINE
  5
2AF
100
AcDbEntity
  8
0
100
AcDbLine
 62
7
  6
CONTINUOUS
 10
-22.4618844534
 20
-11.2017429703
 11
-21.6650168889
 21
-2.0935050297
  0
LINE
  5
2B0
100
AcDbEntity
  8
ASSI
100
AcDbLine
 62
7
  6
CONTINUOUS
 10
-22.4618844534
 20
-11.2017429703
 11
-21.6650168889
 21
-2.0935050297
  0
LINE
  5
2B1
100
AcDbEntity
  8
RACCORDO
100
AcDbLine
 62
253
  6
CONTINUOUS
 10
-21.6650168889
 20
10.6565615915
 11
-26.8823073165
 21
10.6110309877
  0
LINE
  5
2B2
100
AcDbEntity
  8
ASSI
100
AcDbLine
 62
253
  6
CONTINUOUS
 10
-21.6650168889
 20
10.6565615915
 11
-26.8823073165
 21
10.6110309877
  0
LINE
  5
2B3
100
AcDbEntity
  8
RACCORDO
100
AcDbLine
 62
7
  6
CONTINUOUS
 10
-21.6650168889
 20
10.9064949703
 11
-27.1170403819
 21
10.8589158821
  0
LINE
  5
2B4
100
AcDbEntity
  8
ASSI
100
AcDbLine
 62
7
  6
CONTINUOUS
 10
-21.6650168889
 20
10.9064949703
 11
-27.1170403819
 21
10.8589158821
  0
ARC
  5
2B5
100
AcDbEntity
  8
0
100
AcDbCircle
 62
253
  6
CONTINUOUS
 10
-2569.2798963357
 20
3.1726750554
 40
2563.3828049403
100
AcDbArc
 50
359.7010774321
 51
359.9627581596
  0
ARC
  5
2B6
100
AcDbEntity
  8
ASSI
100
AcDbCircle
 62
253
  6
CONTINUOUS
 10
-2569.2798963357
 20
3.1726750554
 40
2563.3828049403
100
AcDbArc
 50
359.7010774321
 51
359.9627581596
  0
ARC
  5
2B7
100
AcDbEntity
  8
0
100
AcDbCircle
 62
253
  6
CONTINUOUS
 10
2596.787459449
 20
3.1608221312
 40
2559.3430982989
100
AcDbArc
 50
180.037035273
 51
180.2991290416
  0
ARC
  5
2B8
100
AcDbEntity
  8
ASSI
100
AcDbCircle
 62
253
  6
CONTINUOUS
 10
2596.787459449
 20
3.1608221312
 40
2559.3430982989
100
AcDbArc
 50
180.037035273
 51
180.2991290416
  0
ARC
  5
2B9
100
AcDbEntity
  8
0
100
AcDbCircle
 62
253
  6
CONTINUOUS
 10
-2541.3770563428
 20
3.1729190986
 40
2534.9802695343
100
AcDbArc
 50
359.6994074897
 51
359.9625500967
  0
ARC
  5
2BA
100
AcDbEntity
  8
ASSI
100
AcDbCircle
 62
253
  6
CONTINUOUS
 10
-2541.3770563428
 20
3.1729190986
 40
2534.9802695343
100
AcDbArc
 50
359.6994074897
 51
359.9625500967
  0
ARC
  5
2BB
100
AcDbEntity
  8
0
100
AcDbCircle
 62
253
  6
CONTINUOUS
 10
2568.9294336142
 20
3.161132222
 40
2530.9853770512
100
AcDbArc
 50
180.0372421857
 51
180.3008001355
  0
ARC
  5
2BC
100
AcDbEntity
  8
ASSI
100
AcDbCircle
 62
253
  6
CONTINUOUS
 10
2568.9294336142
 20
3.161132222
 40
2530.9853770512
100
AcDbArc
 50
180.0372421857
 51
180.3008001355
  0
ARC
  5
2BD
100
AcDbEntity
  8
0
100
AcDbCircle
 62
253
  6
CONTINUOUS
 10
-5.9474478023
 20
-10.5498053094
 40
0.5006295736
100
AcDbArc
 50
180.1520810105
 51
269.8976844911
  0
ARC
  5
2BE
100
AcDbEntity
  8
ASSI
100
AcDbCircle
 62
253
  6
CONTINUOUS
 10
-5.9474478023
 20
-10.5498053094
 40
0.5006295736
100
AcDbArc
 50
180.1520810105
 51
269.8976844911
  0
ARC
  5
2BF
100
AcDbEntity
  8
0
100
AcDbCircle
 62
253
  6
CONTINUOUS
 10
37.4947046901
 20
-10.5498053085
 40
0.5006295558
100
AcDbArc
 50
270.1023156416
 51
359.8479188886
  0
ARC
  5
2C0
100
AcDbEntity
  8
ASSI
100
AcDbCircle
 62
253
  6
CONTINUOUS
 10
37.4947046901
 20
-10.5498053085
 40
0.5006295558
100
AcDbArc
 50
270.1023156416
 51
359.8479188886
  0
ARC
  5
2C1
100
AcDbEntity
  8
SUPERFICI
100
AcDbCircle
 62
7
  6
CONTINUOUS
 10
11.6256777504
 20
5.8049900495
 40
0.402049306
100
AcDbArc
 50
180.0004689369
 51
183.7309092605
  0
ARC
  5
2C2
100
AcDbEntity
  8
SUPERFICI
100
AcDbCircle
 62
7
  6
CONTINUOUS
 10
19.9215791552
 20
5.8049900529
 40
0.4020492893
100
AcDbArc
 50
356.2680323005
 51
359.9995305818
  0
ARC
  5
2C3
100
AcDbEntity
  8
SUPERFICI
100
AcDbCircle
 62
7
  6
CONTINUOUS
 10
11.6223612918
 20
7.2049000178
 40
0.4015949525
100
AcDbArc
 50
90.000558983
 51
93.7325289333
  0
ARC
  5
2C4
100
AcDbEntity
  8
SUPERFICI
100
AcDbCircle
 62
7
  6
CONTINUOUS
 10
19.9248955932
 20
7.2049000184
 40
0.4015949519
100
AcDbArc
 50
86.266392329
 51
89.9994404664
  0
ARC
  5
2C5
100
AcDbEntity
  8
SUPERFICI
100
AcDbCircle
 62
7
  6
CONTINUOUS
 10
19.9255236646
 20
5.8073907547
 40
0.4008957844
100
AcDbArc
 50
270.0004749669
 51
273.7335044273
  0
ARC
  5
2C6
100
AcDbEntity
  8
SUPERFICI
100
AcDbCircle
 62
7
  6
CONTINUOUS
 10
11.6217332279
 20
5.8073907385
 40
0.4008957682
100
AcDbArc
 50
266.2654016501
 51
269.9995245206
  0
ARC
  5
2C7
100
AcDbEntity
  8
SUPERFICI
100
AcDbCircle
 62
7
  6
CONTINUOUS
 10
11.6244873496
 20
7.2079991741
 40
0.4008589051
100
AcDbArc
 50
176.2644402398
 51
179.999423772
  0
ARC
  5
2C8
100
AcDbEntity
  8
SUPERFICI
100
AcDbCircle
 62
7
  6
CONTINUOUS
 10
19.9227695418
 20
7.2079991781
 40
0.4008589027
100
AcDbArc
 50
0.0005756541
 51
3.7344650533
  0
ARC
  5
2C9
100
AcDbEntity
  8
RACCORDO
100
AcDbCircle
 62
253
  6
CONTINUOUS
 10
37.6914153051
 20
10.6110197234
 40
0.2500124136
100
AcDbArc
 50
0.0025758307
 51
89.9602279709
  0
ARC
  5
2CA
100
AcDbEntity
  8
ASSI
100
AcDbCircle
 62
253
  6
CONTINUOUS
 10
37.6914153051
 20
10.6110197234
 40
0.2500124136
100
AcDbArc
 50
0.0025758307
 51
89.9602279709
  0
ARC
  5
2CB
100
AcDbEntity
  8
RACCORDO
100
AcDbCircle
 62
253
  6
CONTINUOUS
 10
-6.1441595174
 20
10.6110208239
 40
0.2500110379
100
AcDbArc
 50
90.0395198318
 51
179.9976763478
  0
ARC
  5
2CC
100
AcDbEntity
  8
ASSI
100
AcDbCircle
 62
253
  6
CONTINUOUS
 10
-6.1441595174
 20
10.6110208239
 40
0.2500110379
100
AcDbArc
 50
90.0395198318
 51
179.9976763478
  0
ARC
  5
2CD
100
AcDbEntity
  8
CURVE
100
AcDbCircle
 62
253
  6
CONTINUOUS
 10
12.5736284444
 20
-0.1935050297
 40
0.2
100
AcDbArc
 50
90.0
 51
225.0
  0
ARC
  5
2CE
100
AcDbEntity
  8
CURVE
100
AcDbCircle
 62
253
  6
CONTINUOUS
 10
15.7736284444
 20
-3.3935050297
 40
0.2
100
AcDbArc
 50
225.0
 51
315.0
  0
ARC
  5
2CF
100
AcDbEntity
  8
CURVE
100
AcDbCircle
 62
253
  6
CONTINUOUS
 10
18.9736284444
 20
-0.1935050297
 40
0.2
100
AcDbArc
 50
315.0
 51
90.0
  0
ARC
  5
2D0
100
AcDbEntity
  8
0
100
AcDbCircle
 62
7
  6
CONTINUOUS
 10
-25.2964132091
 20
-10.0518192669
 40
1.0
100
AcDbArc
 50
188.5737414447
 51
267.0
  0
ARC
  5
2D1
100
AcDbEntity
  8
ASSI
100
AcDbCircle
 62
7
  6
CONTINUOUS
 10
-25.2964132091
 20
-10.0518192669
 40
1.0
100
AcDbArc
 50
188.5737414447
 51
267.0
  0
ARC
  5
2D2
100
AcDbEntity
  8
0
100
AcDbCircle
 62
253
  6
CONTINUOUS
 10
-25.3138629561
 20
-10.0518192654
 40
0.5000000015
100
AcDbArc
 50
188.5737415857
 51
266.9999998591
  0
ARC
  5
2D3
100
AcDbEntity
  8
ASSI
100
AcDbCircle
 62
253
  6
CONTINUOUS
 10
-25.3138629561
 20
-10.0518192654
 40
0.5000000015
100
AcDbArc
 50
188.5737415857
 51
266.9999998591
  0
ARC
  5
2D4
100
AcDbEntity
  8
RACCORDO
100
AcDbCircle
 62
7
  6
CONTINUOUS
 10
-22.3650168889
 20
-6.9269966309
 40
0.3
100
AcDbArc
 50
334.9996147864
 51
360.0
  0
ARC
  5
2D5
100
AcDbEntity
  8
ASSI
100
AcDbCircle
 62
7
  6
CONTINUOUS
 10
-22.3650168889
 20
-6.9269966309
 40
0.3
100
AcDbArc
 50
335.0
 51
360.0
  0
ARC
  5
2D6
100
AcDbEntity
  8
0
100
AcDbCircle
 62
7
  6
CONTINUOUS
 10
62.7089947913
 20
3.2164949703
 40
90.0
100
AcDbArc
 50
181.08868532
 51
188.5737414447
  0
ARC
  5
2D7
100
AcDbEntity
  8
ASSI
100
AcDbCircle
 62
7
  6
CONTINUOUS
 10
62.7089947913
 20
3.2164949703
 40
90.0
100
AcDbArc
 50
181.08868532
 51
188.5737414447
  0
ARC
  5
2D8
100
AcDbEntity
  8
0
100
AcDbCircle
 62
253
  6
CONTINUOUS
 10
62.6915450448
 20
3.2164949704
 40
89.5000000019
100
AcDbArc
 50
181.0886853201
 51
188.5737414446
  0
ARC
  5
2D9
100
AcDbEntity
  8
ASSI
100
AcDbCircle
 62
253
  6
CONTINUOUS
 10
62.6915450448
 20
3.2164949704
 40
89.5000000019
100
AcDbArc
 50
181.0886853201
 51
188.5737414446
  0
ARC
  5
2DA
100
AcDbEntity
  8
RACCORDO
100
AcDbCircle
 62
7
  6
CONTINUOUS
 10
-27.1148587179
 20
10.6089254016
 40
0.25
100
AcDbArc
 50
90.5000068928
 51
180.0455810216
  0
ARC
  5
2DB
100
AcDbEntity
  8
ASSI
100
AcDbCircle
 62
7
  6
CONTINUOUS
 10
-27.1148587179
 20
10.6089254016
 40
0.25
100
AcDbArc
 50
90.5000068928
 51
180.0455810216
  0
ARC
  5
2DC
100
AcDbEntity
  8
RACCORDO
100
AcDbCircle
 62
7
  6
CONTINUOUS
 10
472.6349831111
 20
11.0064949703
 40
500.0
100
AcDbArc
 50
180.045580912
 51
181.08868532
  0
ARC
  5
2DD
100
AcDbEntity
  8
ASSI
100
AcDbCircle
 62
7
  6
CONTINUOUS
 10
472.6349831111
 20
11.0064949703
 40
500.0
100
AcDbArc
 50
180.045580912
 51
181.08868532
  0
ARC
  5
2DE
100
AcDbEntity
  8
RACCORDO
100
AcDbCircle
 62
253
  6
CONTINUOUS
 10
472.5924613952
 20
11.0061098248
 40
499.4749253343
100
AcDbArc
 50
180.0453202977
 51
181.0886957922
  0
ARC
  5
2DF
100
AcDbEntity
  8
ASSI
100
AcDbCircle
 62
253
  6
CONTINUOUS
 10
472.5924613952
 20
11.0061098248
 40
499.4749253343
100
AcDbArc
 50
180.0453202977
 51
181.0886957922
  0
SPLINE
  5
2E0
100
AcDbEntity
  8
SUPERFICI
100
AcDbSpline
 62
7
  6
CONTINUOUS
 70
0
 71
3
 72
23
 73
19
 74
17
 42
0.0000001
 43
0.0000001
 44
0.0000000001
 12
-0.0373933977
 22
0.5728934317
 32
0.0
 13
-0.5728938165
 23
0.0373849722
 33
0.0
 40
0.0
 40
0.0
 40
0.0
 40
0.0
 40
0.0227624385
 40
0.0912783971
 40
0.1596589011
 40
0.2276200343
 40
0.2955485644
 40
0.3637816853
 40
0.431984831
 40
0.4998306796
 40
0.5676700012
 40
0.6358795281
 40
0.7041611229
 40
0.7721606806
 40
0.840172955
 40
0.9086013743
 40
0.9772044438
 40
1.0
 40
1.0
 40
1.0
 40
1.0
 10
20.3227772686
 20
7.2341081492
 30
0.0
 10
20.3224935469
 20
7.2384549664
 30
0.0
 10
20.3210715555
 20
7.2558679659
 30
0.0
 10
20.3165923341
 20
7.2861229986
 30
0.0
 10
20.307060134
 20
7.3241948386
 30
0.0
 10
20.2938818487
 20
7.3610419643
 30
0.0
 10
20.27717531
 20
7.3963985636
 30
0.0
 10
20.2570565778
 20
7.4299860193
 30
0.0
 10
20.2337405289
 20
7.4614185738
 30
0.0
 10
20.2075033083
 20
7.4903546525
 30
0.0
 10
20.1785588297
 20
7.5165843735
 30
0.0
 10
20.1471129607
 20
7.539897921
 30
0.0
 10
20.1135002136
 20
7.5600213392
 30
0.0
 10
20.0781103582
 20
7.5767340098
 30
0.0
 10
20.0412301324
 20
7.5899162724
 30
0.0
 10
20.0031226938
 20
7.5994526635
 30
0.0
 10
19.9728356096
 20
7.6039350458
 30
0.0
 10
19.9553996527
 20
7.6053585525
 30
0.0
 10
19.9510465083
 20
7.6056426229
 30
0.0
 11
20.3227772686
 21
7.2341081492
 31
0.0
 11
20.3217135121
 21
7.2471324478
 31
0.0
 11
20.3159549601
 21
7.2860234143
 31
0.0
 11
20.3064238811
 21
7.3240854854
 31
0.0
 11
20.2932906686
 21
7.3608040829
 31
0.0
 11
20.2766377054
 21
7.3960454896
 31
0.0
 11
20.2565181753
 21
7.4296332528
 31
0.0
 11
20.2332023438
 21
7.4610650642
 31
0.0
 11
20.207052164
 21
7.4899051369
 31
0.0
 11
20.1782075132
 21
7.5160446898
 31
0.0
 11
20.1467669632
 21
7.5393548849
 31
0.0
 11
20.113150826
 21
7.5594811727
 31
0.0
 11
20.0778689553
 21
7.5761438966
 31
0.0
 11
20.0411202941
 21
7.5892801883
 31
0.0
 11
20.0030304692
 21
7.5988136199
 31
0.0
 11
19.9640897743
 21
7.6045775846
 31
0.0
 11
19.9510465083
 21
7.6056426229
 31
0.0
  0
LINE
  5
2E1
100
AcDbEntity
  8
SUPERFICI
100
AcDbLine
 62
7
  6
CONTINUOUS
 10
20.3236284444
 20
5.8049867589
 11
20.3236284444
 21
6.0128387842
  0
LINE
  5
2E2
100
AcDbEntity
  8
SUPERFICI
100
AcDbLine
 62
7
  6
CONTINUOUS
 10
20.3236284444
 20
6.0128387842
 11
20.3236284444
 21
6.064801913
  0
LINE
  5
2E3
100
AcDbEntity
  8
SUPERFICI
100
AcDbLine
 62
7
  6
CONTINUOUS
 10
20.3236284444
 20
6.064801913
 11
20.3236284444
 21
6.2726549044
  0
LINE
  5
2E4
100
AcDbEntity
  8
SUPERFICI
100
AcDbLine
 62
7
  6
CONTINUOUS
 10
20.3236284444
 20
6.2726549044
 11
20.3236284444
 21
6.480508815
  0
LINE
  5
2E5
100
AcDbEntity
  8
SUPERFICI
100
AcDbLine
 62
7
  6
CONTINUOUS
 10
20.3236284444
 20
6.480508815
 11
20.3236284444
 21
6.5324723999
  0
LINE
  5
2E6
100
AcDbEntity
  8
SUPERFICI
100
AcDbLine
 62
7
  6
CONTINUOUS
 10
20.3236284444
 20
6.5324723999
 11
20.3236284444
 21
6.7403271823
  0
LINE
  5
2E7
100
AcDbEntity
  8
SUPERFICI
100
AcDbLine
 62
7
  6
CONTINUOUS
 10
20.3236284444
 20
6.7403271823
 11
20.3236284444
 21
6.9481828016
  0
LINE
  5
2E8
100
AcDbEntity
  8
SUPERFICI
100
AcDbLine
 62
7
  6
CONTINUOUS
 10
20.3236284444
 20
6.9481828016
 11
20.3236284444
 21
7.0001468058
  0
LINE
  5
2E9
100
AcDbEntity
  8
SUPERFICI
100
AcDbLine
 62
7
  6
CONTINUOUS
 10
20.3236284444
 20
7.0001468058
 11
20.3236284444
 21
7.2080032056
  0
SPLINE
  5
2EA
100
AcDbEntity
  8
SUPERFICI
100
AcDbSpline
 62
7
  6
CONTINUOUS
 70
0
 71
3
 72
23
 73
19
 74
17
 42
0.0000001
 43
0.0000001
 44
0.0000000001
 12
0.5724305079
 22
0.0373545532
 32
0.0
 13
0.0373392303
 23
0.5724312226
 33
0.0
 40
0.0
 40
0.0
 40
0.0
 40
0.0
 40
0.0227734797
 40
0.0913061118
 40
0.1596825666
 40
0.2276240875
 40
0.2955224771
 40
0.363719376
 40
0.4318847397
 40
0.4996959305
 40
0.5675057766
 40
0.635696583
 40
0.7039733749
 40
0.7719844587
 40
0.8400235209
 40
0.9084995609
 40
0.9771748682
 40
1.0
 40
1.0
 40
1.0
 40
1.0
 10
19.9516283307
 20
5.4073457867
 30
0.0
 10
19.9559737422
 20
5.4076293511
 30
0.0
 10
19.9733779614
 20
5.4090502898
 30
0.0
 10
20.0036131647
 20
5.4135254226
 30
0.0
 10
20.0416533185
 20
5.4230479817
 30
0.0
 10
20.0784614429
 20
5.4362107939
 30
0.0
 10
20.1137749482
 20
5.4528960436
 30
0.0
 10
20.1473181276
 20
5.4729883443
 30
0.0
 10
20.1787078693
 20
5.4962741337
 30
0.0
 10
20.207604509
 20
5.5224788372
 30
0.0
 10
20.2337997888
 20
5.5513905341
 30
0.0
 10
20.2570849077
 20
5.5828054722
 30
0.0
 10
20.277186552
 20
5.6163916674
 30
0.0
 10
20.2938836805
 20
5.651760953
 30
0.0
 10
20.3070561425
 20
5.6886284906
 30
0.0
 10
20.3165876671
 20
5.7267332964
 30
0.0
 10
20.3210684661
 20
5.757024463
 30
0.0
 10
20.322491791
 20
5.7744657631
 30
0.0
 10
20.3227758819
 20
5.7788210358
 30
0.0
 11
19.9516283307
 21
5.4073457867
 31
0.0
 11
19.9646484243
 21
5.4084089599
 31
0.0
 11
20.0035175687
 21
5.4141630842
 31
0.0
 11
20.0415469502
 21
5.423684517
 31
0.0
 11
20.0782256838
 21
5.4368021499
 31
0.0
 11
20.1134232669
 21
5.4534336248
 31
0.0
 11
20.1469659753
 21
5.4735263382
 31
0.0
 11
20.178354248
 21
5.4968113802
 31
0.0
 11
20.207154704
 21
5.5229287985
 31
0.0
 11
20.2332592601
 21
5.5517398728
 31
0.0
 11
20.2565407961
 21
5.5831489058
 31
0.0
 11
20.2766452438
 21
5.6167379779
 31
0.0
 11
20.2932927795
 21
5.6519994322
 31
0.0
 11
20.3064192125
 21
5.6887344106
 31
0.0
 11
20.3159478769
 21
5.7268208398
 31
0.0
 11
20.3217107742
 21
5.7657713788
 31
0.0
 11
20.3227758819
 21
5.7788210358
 31
0.0
  0
SPLINE
  5
2EB
100
AcDbEntity
  8
SUPERFICI
100
AcDbSpline
 62
7
  6
CONTINUOUS
 70
0
 71
3
 72
23
 73
19
 74
17
 42
0.0000001
 43
0.0000001
 44
0.0000000001
 12
0.0373286304
 22
-0.5724315295
 32
0.0
 13
0.5724297311
 23
-0.0373654784
 33
0.0
 40
0.0
 40
0.0
 40
0.0
 40
0.0
 40
0.0228206867
 40
0.0914901968
 40
0.1599901218
 40
0.228039051
 40
0.2960313262
 40
0.364298113
 40
0.432505487
 40
0.5003281624
 40
0.5681263596
 40
0.6362752733
 40
0.7044822265
 40
0.7723992521
 40
0.8403304486
 40
0.90868309
 40
0.977221832
 40
1.0
 40
1.0
 40
1.0
 40
1.0
 10
11.2244805237
 20
5.7788284427
 30
0.0
 10
11.2247644786
 20
5.7744740159
 30
0.0
 10
11.2261872654
 20
5.7570346498
 30
0.0
 10
11.2306675614
 20
5.7267407914
 30
0.0
 10
11.2401997741
 20
5.6886306067
 30
0.0
 10
11.2533734963
 20
5.6517604774
 30
0.0
 10
11.2700691088
 20
5.6163945467
 30
0.0
 10
11.2901688817
 20
5.5828100054
 30
0.0
 10
11.3134557619
 20
5.5513917291
 30
0.0
 10
11.3396533485
 20
5.522477871
 30
0.0
 10
11.3685477709
 20
5.4962755189
 30
0.0
 10
11.3999341445
 20
5.4729915018
 30
0.0
 10
11.4334789448
 20
5.4528973375
 30
0.0
 10
11.4687956693
 20
5.4362106176
 30
0.0
 10
11.5056010596
 20
5.4230490793
 30
0.0
 10
11.5436357786
 20
5.4135271711
 30
0.0
 10
11.5738683802
 20
5.4090514883
 30
0.0
 10
11.5912746248
 20
5.4076299909
 30
0.0
 10
11.595620925
 20
5.4073462852
 30
0.0
 11
11.2244805237
 21
5.7788284427
 31
0.0
 11
11.2255451406
 21
5.7657813123
 31
0.0
 11
11.2313064166
 21
5.7268339092
 31
0.0
 11
11.240837784
 21
5.6887340558
 31
0.0
 11
11.2539664097
 21
5.6519938698
 31
0.0
 11
11.270609389
 21
5.6167422066
 31
0.0
 11
11.2907102345
 21
5.5831576818
 31
0.0
 11
11.3139969585
 21
5.5517406897
 31
0.0
 11
11.3401066333
 21
5.5229243482
 31
0.0
 11
11.3689017276
 21
5.4968121302
 31
0.0
 11
11.4002820662
 21
5.4735322491
 31
0.0
 11
11.4338293136
 21
5.4534359253
 31
0.0
 11
11.4690365625
 21
5.4367999325
 31
0.0
 11
11.5057098011
 21
5.4236845587
 31
0.0
 11
11.5437257565
 21
5.4141657799
 31
0.0
 11
11.5825981767
 21
5.4084099695
 31
0.0
 11
11.595620925
 21
5.4073462852
 31
0.0
  0
LINE
  5
2EC
100
AcDbEntity
  8
SUPERFICI
100
AcDbLine
 62
7
  6
CONTINUOUS
 10
11.2236284445
 20
7.2080032055
 11
11.2236284445
 21
7.0001468056
  0
LINE
  5
2ED
100
AcDbEntity
  8
SUPERFICI
100
AcDbLine
 62
7
  6
CONTINUOUS
 10
11.2236284445
 20
7.0001468056
 11
11.2236284445
 21
6.9481828018
  0
LINE
  5
2EE
100
AcDbEntity
  8
SUPERFICI
100
AcDbLine
 62
7
  6
CONTINUOUS
 10
11.2236284445
 20
6.9481828018
 11
11.2236284445
 21
6.7403271984
  0
LINE
  5
2EF
100
AcDbEntity
  8
SUPERFICI
100
AcDbLine
 62
7
  6
CONTINUOUS
 10
11.2236284445
 20
6.7403271984
 11
11.2236284445
 21
6.5324724002
  0
LINE
  5
2F0
100
AcDbEntity
  8
SUPERFICI
100
AcDbLine
 62
7
  6
CONTINUOUS
 10
11.2236284445
 20
6.5324724002
 11
11.2236284445
 21
6.4805088151
  0
LINE
  5
2F1
100
AcDbEntity
  8
SUPERFICI
100
AcDbLine
 62
7
  6
CONTINUOUS
 10
11.2236284445
 20
6.4805088151
 11
11.2236284445
 21
6.2726549077
  0
LINE
  5
2F2
100
AcDbEntity
  8
SUPERFICI
100
AcDbLine
 62
7
  6
CONTINUOUS
 10
11.2236284445
 20
6.2726549077
 11
11.2236284445
 21
6.0648019131
  0
LINE
  5
2F3
100
AcDbEntity
  8
SUPERFICI
100
AcDbLine
 62
7
  6
CONTINUOUS
 10
11.2236284445
 20
6.0648019131
 11
11.2236284445
 21
6.012838784
  0
LINE
  5
2F4
100
AcDbEntity
  8
SUPERFICI
100
AcDbLine
 62
7
  6
CONTINUOUS
 10
11.2236284445
 20
6.012838784
 11
11.2236284445
 21
5.8049867589
  0
SPLINE
  5
2F5
100
AcDbEntity
  8
SUPERFICI
100
AcDbSpline
 62
7
  6
CONTINUOUS
 70
0
 71
3
 72
23
 73
19
 74
17
 42
0.0000001
 43
0.0000001
 44
0.0000000001
 12
-0.5728942614
 22
-0.0373741694
 32
0.0
 13
-0.0374043475
 23
-0.5728927836
 33
0.0
 40
0.0
 40
0.0
 40
0.0
 40
0.0
 40
0.0227908498
 40
0.0913877727
 40
0.1598399068
 40
0.2278622464
 40
0.2958431797
 40
0.3641148304
 40
0.4323409186
 40
0.5001930816
 40
0.568025988
 40
0.6362126247
 40
0.7044557186
 40
0.7724027938
 40
0.8403536431
 40
0.90871048
 40
0.9772327384
 40
1.0
 40
1.0
 40
1.0
 40
1.0
 10
11.5962179217
 20
7.6056431151
 30
0.0
 10
11.5918656727
 20
7.6053591855
 30
0.0
 10
11.5744317634
 20
7.6039362356
 30
0.0
 10
11.5441421224
 20
7.599454406
 30
0.0
 10
11.5060293398
 20
7.5899173874
 30
0.0
 10
11.4691464572
 20
7.5767338922
 30
0.0
 10
11.4337598583
 20
7.5600227326
 30
0.0
 10
11.4001487043
 20
7.5399011846
 30
0.0
 10
11.3686994613
 20
7.5165858825
 30
0.0
 10
11.339752788
 20
7.4903538585
 30
0.0
 10
11.3135178967
 20
7.4614200074
 30
0.0
 10
11.2902036086
 20
7.4299908438
 30
0.0
 10
11.2700830078
 20
7.3964018094
 30
0.0
 10
11.2533749779
 20
7.3610420161
 30
0.0
 10
11.2401979301
 20
7.3241976112
 30
0.0
 10
11.2306663388
 20
7.2861311373
 30
0.0
 10
11.226186542
 20
7.2558786136
 30
0.0
 10
11.2247639841
 20
7.2384635213
 30
0.0
 10
11.2244801193
 20
7.234115788
 30
0.0
 11
11.5962179217
 21
7.6056431151
 31
0.0
 11
11.5831773303
 21
7.6045785868
 31
0.0
 11
11.5442399579
 21
7.5988163095
 31
0.0
 11
11.5061367722
 21
7.5892802421
 31
0.0
 11
11.4693827678
 21
7.5761417595
 31
0.0
 11
11.4341105763
 21
7.5594835813
 31
0.0
 11
11.400498937
 21
7.5393609019
 31
0.0
 11
11.369050402
 21
7.5160455321
 31
0.0
 11
11.3402004512
 21
7.4899008645
 31
0.0
 11
11.3140554328
 21
7.4610661453
 31
0.0
 11
11.2907447631
 21
7.429642308
 31
0.0
 11
11.2706216174
 21
7.3960500477
 31
0.0
 11
11.2539641244
 21
7.3607990192
 31
0.0
 11
11.2408331339
 21
7.3240859012
 31
0.0
 11
11.2313046657
 21
7.2860371828
 31
0.0
 11
11.2255443952
 21
7.2471428233
 31
0.0
 11
11.2244801193
 21
7.234115788
 31
0.0
  0
LINE
  5
2F6
100
AcDbEntity
  8
RACCORDO
100
AcDbLine
 62
7
  6
CONTINUOUS
 10
20.3236284444
 20
7.2080032057
 11
20.3236284444
 21
6.9741647557
  0
LINE
  5
2F7
100
AcDbEntity
  8
RACCORDO
100
AcDbLine
 62
7
  6
CONTINUOUS
 10
20.3236284444
 20
6.9741647557
 11
20.3236284444
 21
6.7403271876
  0
LINE
  5
2F8
100
AcDbEntity
  8
RACCORDO
100
AcDbLine
 62
7
  6
CONTINUOUS
 10
20.3236284444
 20
6.7403271876
 11
20.3236284444
 21
6.5064905528
  0
LINE
  5
2F9
100
AcDbEntity
  8
RACCORDO
100
AcDbLine
 62
7
  6
CONTINUOUS
 10
20.3236284444
 20
6.5064905528
 11
20.3236284444
 21
6.2726549023
  0
LINE
  5
2FA
100
AcDbEntity
  8
RACCORDO
100
AcDbLine
 62
7
  6
CONTINUOUS
 10
20.3236284444
 20
6.2726549023
 11
20.3236284444
 21
6.0388202872
  0
LINE
  5
2FB
100
AcDbEntity
  8
RACCORDO
100
AcDbLine
 62
7
  6
CONTINUOUS
 10
20.3236284444
 20
6.0388202872
 11
20.3236284444
 21
5.8049867588
  0
LINE
  5
2FC
100
AcDbEntity
  8
RACCORDO
100
AcDbLine
 62
7
  6
CONTINUOUS
 10
11.2236284445
 20
5.8049867588
 11
11.2236284445
 21
7.2080032057
  0
SPLINE
  5
2FD
100
AcDbEntity
  8
RACCORDO
100
AcDbSpline
 62
7
  6
CONTINUOUS
 70
0
 71
3
 72
23
 73
19
 74
17
 42
0.0000001
 43
0.0000001
 44
0.0000000001
 12
-0.6256304749
 22
0.0
 32
0.0
 13
0.0
 23
0.6256304749
 33
0.0
 40
0.0
 40
0.0
 40
0.0
 40
0.0
 40
0.0625348873
 40
0.125302776
 40
0.1879610843
 40
0.2502495145
 40
0.3125069208
 40
0.3750288287
 40
0.4375113249
 40
0.4996701031
 40
0.5618372342
 40
0.6243553179
 40
0.6869429983
 40
0.7492898499
 40
0.811675364
 40
0.8744418063
 40
0.9373328547
 40
1.0
 40
1.0
 40
1.0
 40
1.0
 10
11.6217299009
 20
5.4064949703
 30
0.0
 10
11.6086886571
 20
5.4064949703
 30
0.0
 10
11.5825395773
 20
5.4077714064
 30
0.0
 10
11.5437035781
 20
5.4135139673
 30
0.0
 10
11.5056649648
 20
5.4230291499
 30
0.0
 10
11.4688439003
 20
5.4361900941
 30
0.0
 10
11.4335127734
 20
5.4528789
 30
0.0
 10
11.3999553233
 20
5.4729768029
 30
0.0
 10
11.3685557985
 20
5.4962681845
 30
0.0
 10
11.3396505815
 20
5.5224800656
 30
0.0
 10
11.3134466316
 20
5.5514024748
 30
0.0
 10
11.2901549176
 20
5.5828302336
 30
0.0
 10
11.2700496348
 20
5.6164296623
 30
0.0
 10
11.25335062
 20
5.651814185
 30
0.0
 10
11.2401795472
 20
5.6886968886
 30
0.0
 10
11.2306555493
 20
5.7268038844
 30
0.0
 10
11.2249064978
 20
5.765715578
 30
0.0
 10
11.2236284445
 20
5.7919179335
 30
0.0
 10
11.2236284445
 20
5.8049867588
 30
0.0
 11
11.6217299009
 21
5.4064949703
 31
0.0
 11
11.5826528025
 21
5.4084046118
 31
0.0
 11
11.5438058469
 21
5.4141498696
 31
0.0
 11
11.505777013
 21
5.423664177
 31
0.0
 11
11.4690814465
 21
5.436781359
 31
0.0
 11
11.4338630242
 21
5.4534179273
 31
0.0
 11
11.4003058491
 21
5.4735163606
 31
0.0
 11
11.3689097337
 21
5.4968055556
 31
0.0
 11
11.3401020849
 21
5.5229288985
 31
0.0
 11
11.3139878193
 21
5.5517518282
 31
0.0
 11
11.2906983631
 21
5.5831754671
 31
0.0
 11
11.2705915755
 21
5.6167756005
 31
0.0
 11
11.2539430868
 21
5.6520502786
 31
0.0
 11
11.2408157669
 21
5.688806722
 31
0.0
 11
11.2312926844
 21
5.7269030969
 31
0.0
 11
11.225540669
 21
5.7658269433
 31
0.0
 11
11.2236284445
 21
5.8049867588
 31
0.0
  0
SPLINE
  5
2FE
100
AcDbEntity
  8
RACCORDO
100
AcDbSpline
 62
7
  6
CONTINUOUS
 70
0
 71
3
 72
23
 73
19
 74
17
 42
0.0000001
 43
0.0000001
 44
0.0000000001
 12
-0.0
 22
0.6260794102
 32
0.0
 13
0.6260794102
 23
0.0
 33
0.0
 40
0.0
 40
0.0
 40
0.0
 40
0.0
 40
0.0625064794
 40
0.125265243
 40
0.1879314833
 40
0.2502417825
 40
0.3125316189
 40
0.3750924245
 40
0.4376158557
 40
0.4998130445
 40
0.5620138933
 40
0.624555553
 40
0.6871533927
 40
0.7494944038
 40
0.8118588393
 40
0.874584964
 40
0.9374149203
 40
1.0
 40
1.0
 40
1.0
 40
1.0
 10
11.2236284445
 20
7.2080032057
 30
0.0
 10
11.2236284445
 20
7.221047879
 30
0.0
 10
11.2249060738
 20
7.2472078798
 30
0.0
 10
11.2306535537
 20
7.2860653868
 30
0.0
 10
11.2401784362
 20
7.3241350306
 30
0.0
 10
11.2533546645
 20
7.360994226
 30
0.0
 10
11.2700645476
 20
7.3963679224
 30
0.0
 10
11.2901888526
 20
7.4299695913
 30
0.0
 10
11.3135107017
 20
7.4614121734
 30
0.0
 10
11.3397555115
 20
7.4903571819
 30
0.0
 10
11.3687112051
 20
7.5165958557
 30
0.0
 10
11.4001702985
 20
7.5399160722
 30
0.0
 10
11.4337963399
 20
7.5600429281
 30
0.0
 10
11.4692009054
 20
7.5767570439
 30
0.0
 10
11.5060952122
 20
7.5899374487
 30
0.0
 10
11.5442037395
 20
7.5994661035
 30
0.0
 10
11.5831050323
 20
7.6052165862
 30
0.0
 10
11.6092962971
 20
7.6064949703
 30
0.0
 10
11.6223573737
 20
7.6064949703
 30
0.0
 11
11.2236284445
 21
7.2080032057
 31
0.0
 11
11.2255392666
 21
7.2470905472
 31
0.0
 11
11.231289234
 21
7.2859595162
 31
0.0
 11
11.2408131647
 21
7.3240200582
 31
0.0
 11
11.2539456546
 21
7.3607543892
 31
0.0
 11
11.2706035054
 21
7.3960161243
 31
0.0
 11
11.2907287538
 21
7.4296183434
 31
0.0
 11
11.3140489743
 21
7.4610582798
 31
0.0
 11
11.3402055312
 21
7.489905943
 31
0.0
 11
11.3690625964
 21
7.5160555395
 31
0.0
 11
11.4005182145
 21
7.5393737723
 31
0.0
 11
11.434145534
 21
7.5595022346
 31
0.0
 11
11.4694401482
 21
7.5761654924
 31
0.0
 11
11.5062089895
 21
7.5893021316
 31
0.0
 11
11.5443072751
 21
7.5988296761
 31
0.0
 11
11.5832208269
 21
7.6045828511
 31
0.0
 11
11.6223573737
 21
7.6064949703
 31
0.0
  0
SPLINE
  5
2FF
100
AcDbEntity
  8
RACCORDO
100
AcDbSpline
 62
7
  6
CONTINUOUS
 70
0
 71
3
 72
23
 73
19
 74
17
 42
0.0000001
 43
0.0000001
 44
0.0000000001
 12
0.0
 22
-0.6256304749
 32
0.0
 13
-0.6256304749
 23
0.0
 33
0.0
 40
0.0
 40
0.0
 40
0.0
 40
0.0
 40
0.0626702289
 40
0.1255649537
 40
0.1883377991
 40
0.2507257318
 40
0.3130696196
 40
0.3756555984
 40
0.4381764296
 40
0.5003456957
 40
0.5625023603
 40
0.6249821737
 40
0.6875058217
 40
0.7497661681
 40
0.8120520785
 40
0.8747039402
 40
0.9374681374
 40
1.0
 40
1.0
 40
1.0
 40
1.0
 10
20.3236284444
 20
5.8049867588
 30
0.0
 10
20.3236284444
 20
5.7919172904
 30
0.0
 10
20.3223502592
 20
5.7657135224
 30
0.0
 10
20.3166005057
 20
5.7267991467
 30
0.0
 10
20.3070752769
 20
5.6886897532
 30
0.0
 10
20.2939029583
 20
5.6518061899
 30
0.0
 10
20.2772033615
 20
5.6164224682
 30
0.0
 10
20.2570976634
 20
5.5828237593
 30
0.0
 10
20.2338049408
 20
5.5513959132
 30
0.0
 10
20.2075999265
 20
5.5224736816
 30
0.0
 10
20.1786945142
 20
5.4962628502
 30
0.0
 10
20.1472950531
 20
5.4729724645
 30
0.0
 10
20.1137368653
 20
5.4528749739
 30
0.0
 10
20.0784049503
 20
5.4361867642
 30
0.0
 10
20.0415847773
 20
5.4230270814
 30
0.0
 10
20.0035485942
 20
5.4135131375
 30
0.0
 10
19.9647152774
 20
5.4077712761
 30
0.0
 10
19.938567601
 20
5.4064949703
 30
0.0
 10
19.925526988
 20
5.4064949703
 30
0.0
 11
20.3236284444
 21
5.8049867588
 31
0.0
 11
20.3217160316
 21
5.765825021
 31
0.0
 11
20.3159633805
 21
5.7268989434
 31
0.0
 11
20.3064387318
 21
5.6887988309
 31
0.0
 11
20.2933100734
 21
5.6520412587
 31
0.0
 11
20.2766615937
 21
5.6167686268
 31
0.0
 11
20.2565547297
 21
5.5831697798
 31
0.0
 11
20.2332636407
 21
5.5517452115
 31
0.0
 11
20.2071478077
 21
5.5229218994
 31
0.0
 11
20.1783405303
 21
5.4968001155
 31
0.0
 11
20.146945309
 21
5.4735125325
 31
0.0
 11
20.1133868234
 21
5.4534141685
 31
0.0
 11
20.0781663652
 21
5.4367776035
 31
0.0
 11
20.0414719855
 21
5.4236617851
 31
0.0
 11
20.0034469155
 21
5.4141490503
 31
0.0
 11
19.9646022008
 21
5.408404427
 31
0.0
 11
19.925526988
 21
5.4064949703
 31
0.0
  0
SPLINE
  5
300
100
AcDbEntity
  8
RACCORDO
100
AcDbSpline
 62
7
  6
CONTINUOUS
 70
0
 71
3
 72
23
 73
19
 74
17
 42
0.0000001
 43
0.0000001
 44
0.0000000001
 12
0.6260794102
 22
0.0
 32
0.0
 13
-0.0
 23
-0.6260794102
 33
0.0
 40
0.0
 40
0.0
 40
0.0
 40
0.0
 40
0.0625881422
 40
0.1254217627
 40
0.1881542833
 40
0.2505211627
 40
0.3128592232
 40
0.3754553554
 40
0.4379997474
 40
0.5002027209
 40
0.5623977915
 40
0.6249185204
 40
0.6874810527
 40
0.7497738282
 40
0.8120816345
 40
0.8747414598
 40
0.937496554
 40
1.0
 40
1.0
 40
1.0
 40
1.0
 10
19.9248995152
 20
7.6064949703
 30
0.0
 10
19.9379612309
 20
7.6064949703
 30
0.0
 10
19.9641539023
 20
7.6052164549
 30
0.0
 10
20.0030578709
 20
7.5994652722
 30
0.0
 10
20.0411687992
 20
7.5899353871
 30
0.0
 10
20.0780639729
 20
7.5767537347
 30
0.0
 10
20.1134677432
 20
7.5600390343
 30
0.0
 10
20.147093063
 20
7.5399117642
 30
0.0
 10
20.1785522389
 20
7.516590543
 30
0.0
 10
20.2075077513
 20
7.4903508098
 30
0.0
 10
20.2337515077
 20
7.4614056131
 30
0.0
 10
20.2570723579
 20
7.4299631029
 30
0.0
 10
20.2771962504
 20
7.3963607039
 30
0.0
 10
20.2939055422
 20
7.3609862186
 30
0.0
 10
20.3070805156
 20
7.3241279051
 30
0.0
 10
20.3166041643
 20
7.2860606772
 30
0.0
 10
20.3223509457
 20
7.2472058451
 30
0.0
 10
20.3236284444
 20
7.2210472459
 30
0.0
 10
20.3236284444
 20
7.2080032057
 30
0.0
 11
19.9248995152
 21
7.6064949703
 31
0.0
 11
19.9640379725
 21
7.6045826639
 31
0.0
 11
20.0029537496
 21
7.5988288552
 31
0.0
 11
20.0410557717
 21
7.5892997462
 31
0.0
 11
20.0778257577
 21
7.5761617636
 31
0.0
 11
20.113118332
 21
7.559498512
 31
0.0
 11
20.1467443613
 21
7.5393699757
 31
0.0
 11
20.1782009023
 21
7.5160501153
 31
0.0
 11
20.2070583465
 21
7.4898989562
 31
0.0
 11
20.2332133431
 21
7.4610516684
 31
0.0
 11
20.2565319459
 21
7.4296126384
 31
0.0
 11
20.2766571241
 21
7.3960091173
 31
0.0
 11
20.2933149755
 21
7.3607453473
 31
0.0
 11
20.3064461099
 21
7.3240121892
 31
0.0
 11
20.3159684733
 21
7.2859553951
 31
0.0
 11
20.3217178078
 21
7.2470886548
 31
0.0
 11
20.3236284444
 21
7.2080032057
 31
0.0
  0
SPLINE
  5
301
100
AcDbEntity
  8
RACCORDO
100
AcDbSpline
 62
253
  6
CONTINUOUS
 70
0
 71
3
 72
10
 73
6
 74
4
 42
0.0000001
 43
0.0000001
 44
0.0000000001
 12
0.0002526151
 22
-9.1022322221
 32
0.0
 13
0.0060343306
 23
-9.1022302254
 33
0.0
 40
0.0
 40
0.0
 40
0.0
 40
0.0
 40
0.3333526791
 40
0.6666869147
 40
1.0
 40
1.0
 40
1.0
 40
1.0
 10
37.4417385074
 20
10.6087265168
 30
0.0
 10
37.4417665773
 20
9.5973086846
 30
0.0
 10
37.4420407652
 20
7.5745289786
 30
0.0
 10
37.4430868733
 20
4.5404517304
 30
0.0
 10
37.4442139625
 20
2.5177924502
 30
0.0
 10
37.444884403
 20
1.5064949703
 30
0.0
 11
37.4417385074
 21
10.6087265168
 31
0.0
 11
37.4421465883
 21
7.5744730465
 31
0.0
 11
37.4431943283
 21
4.5403876059
 31
0.0
 11
37.444884403
 21
1.5064949703
 31
0.0
  0
SPLINE
  5
302
100
AcDbEntity
  8
RACCORDO
100
AcDbSpline
 62
253
  6
CONTINUOUS
 70
0
 71
3
 72
10
 73
6
 74
4
 42
0.0000001
 43
0.0000001
 44
0.0000000001
 12
0.0002514557
 22
-9.0950366933
 32
0.0
 13
0.0060355961
 23
-9.0950346942
 33
0.0
 40
0.0
 40
0.0
 40
0.0
 40
0.0
 40
0.3333523679
 40
0.6666867588
 40
1.0
 40
1.0
 40
1.0
 40
1.0
 10
37.941436648
 20
10.6110309877
 30
0.0
 10
37.9414645892
 20
9.6004136484
 30
0.0
 10
37.9417345316
 20
7.5792334693
 30
0.0
 10
37.9427823248
 20
4.547554731
 30
0.0
 10
37.9439092351
 20
2.5264934677
 30
0.0
 10
37.9445798165
 20
1.5159949703
 30
0.0
 11
37.941436648
 21
10.6110309877
 31
0.0
 11
37.9418416965
 21
7.5791789957
 31
0.0
 11
37.9428894541
 21
4.5474906589
 31
0.0
 11
37.9445798165
 21
1.5159949703
 31
0.0
  0
SPLINE
  5
303
100
AcDbEntity
  8
RACCORDO
100
AcDbSpline
 62
253
  6
CONTINUOUS
 70
0
 71
3
 72
24
 73
20
 74
18
 42
0.0000001
 43
0.0000001
 44
0.0000000001
 12
-0.4951381098
 22
-0.0674744652
 32
0.0
 13
-0.4997144696
 23
-0.0000069948
 33
0.0
 40
0.0
 40
0.0
 40
0.0
 40
0.0
 40
0.0072410904
 40
0.0225728332
 40
0.0458757318
 40
0.0769602085
 40
0.1155730933
 40
0.1614001728
 40
0.2140673257
 40
0.2731450583
 40
0.3381511715
 40
0.4085561138
 40
0.4837853051
 40
0.5632252357
 40
0.64622704
 40
0.7321147597
 40
0.8201880871
 40
0.9097254715
 40
1.0
 40
1.0
 40
1.0
 40
1.0
 10
37.941436648
 20
10.6110309767
 30
0.0
 10
37.9402415348
 20
10.6108681138
 30
0.0
 10
37.9364716924
 20
10.6107967427
 30
0.0
 10
37.9288421838
 20
10.6105404034
 30
0.0
 10
37.9172256328
 20
10.6103779432
 30
0.0
 10
37.9017376763
 20
10.6101689325
 30
0.0
 10
37.8824947657
 20
10.6099840919
 30
0.0
 10
37.8596576083
 20
10.6098000119
 30
0.0
 10
37.8334110857
 20
10.6096280237
 30
0.0
 10
37.8039698724
 20
10.6094666683
 30
0.0
 10
37.7715739124
 20
10.6093184577
 30
0.0
 10
37.7364875084
 20
10.6091843897
 30
0.0
 10
37.6989967709
 20
10.6090657293
 30
0.0
 10
37.6594077008
 20
10.6089634666
 30
0.0
 10
37.6180431791
 20
10.6088784783
 30
0.0
 10
37.5752405449
 20
10.6088114824
 30
0.0
 10
37.5313492438
 20
10.6087630406
 30
0.0
 10
37.4867272086
 20
10.6087335617
 30
0.0
 10
37.4567756701
 20
10.6087267266
 30
0.0
 10
37.4417385074
 20
10.6087265161
 30
0.0
 11
37.941436648
 21
10.6110309767
 31
0.0
 11
37.9378245211
 21
10.6108166889
 31
0.0
 11
37.930165959
 21
10.610604763
 31
0.0
 11
37.9185230187
 21
10.6103969025
 31
0.0
 11
37.9029909704
 21
10.6101948273
 31
0.0
 11
37.8836965349
 21
10.6100001799
 31
0.0
 11
37.8607968325
 21
10.6098145496
 31
0.0
 11
37.8344788766
 21
10.6096394539
 31
0.0
 11
37.8049573295
 21
10.6094763232
 31
0.0
 11
37.7724731797
 21
10.6093264907
 31
0.0
 11
37.7372910715
 21
10.6091911795
 31
0.0
 11
37.6996981465
 21
10.6090714962
 31
0.0
 11
37.6600009976
 21
10.6089684191
 31
0.0
 11
37.6185238833
 21
10.6088827913
 31
0.0
 11
37.5756046001
 21
10.6088153123
 31
0.0
 11
37.531593111
 21
10.6087665328
 31
0.0
 11
37.4868499943
 21
10.6087368543
 31
0.0
 11
37.4417385074
 21
10.6087265161
 31
0.0
  0
SPLINE
  5
304
100
AcDbEntity
  8
0
100
AcDbSpline
 62
253
  6
CONTINUOUS
 70
0
 71
3
 72
23
 73
19
 74
17
 42
0.0000001
 43
0.0000001
 44
0.0000000001
 12
-0.4390227157
 22
-0.2392018116
 32
0.0
 13
-0.4999583399
 23
-0.0003316598
 33
0.0
 40
0.0
 40
0.0
 40
0.0
 40
0.0
 40
0.008152361
 40
0.0253232964
 40
0.051431694
 40
0.0862550999
 40
0.1294799963
 40
0.180712013
 40
0.2394815731
 40
0.3052489593
 40
0.3774096104
 40
0.4552998516
 40
0.5382030955
 40
0.6253564931
 40
0.7159579915
 40
0.8091737417
 40
0.9041457919
 40
1.0
 40
1.0
 40
1.0
 40
1.0
 10
37.9445798165
 20
1.5159949703
 30
0.0
 10
37.9433867926
 20
1.5153449504
 30
0.0
 10
37.9390345115
 20
1.5149589853
 30
0.0
 10
37.9306376743
 20
1.5139288584
 30
0.0
 10
37.9175783818
 20
1.5132049586
 30
0.0
 10
37.90026837
 20
1.5123274251
 30
0.0
 10
37.8787277815
 20
1.5115362365
 30
0.0
 10
37.8532073756
 20
1.5107567523
 30
0.0
 10
37.8239227515
 20
1.510029302
 30
0.0
 10
37.7911498449
 20
1.5093513629
 30
0.0
 10
37.7551882567
 20
1.5087332935
 30
0.0
 10
37.7163697203
 20
1.5081801872
 30
0.0
 10
37.6750514395
 20
1.5076977635
 30
0.0
 10
37.6316139028
 20
1.5072905732
 30
0.0
 10
37.586457041
 20
1.5069625336
 30
0.0
 10
37.5399966404
 20
1.5067167518
 30
0.0
 10
37.4926604882
 20
1.5065555541
 30
0.0
 10
37.4608587732
 20
1.5065055673
 30
0.0
 10
37.444884403
 20
1.5064949703
 30
0.0
 11
37.9445798165
 21
1.5159949703
 31
0.0
 11
37.9406071102
 21
1.5150838771
 31
0.0
 11
37.9320699485
 21
1.514181173
 31
0.0
 11
37.9190469387
 21
1.5132951697
 31
0.0
 11
37.9016579926
 21
1.5124340253
 31
0.0
 11
37.8800632221
 21
1.511605669
 31
0.0
 11
37.8544614647
 21
1.5108177279
 31
0.0
 11
37.8250884534
 21
1.5100774572
 31
0.0
 11
37.7922146453
 21
1.5093916731
 31
0.0
 11
37.7561427318
 21
1.5087666901
 31
0.0
 11
37.7172048517
 21
1.5082082627
 31
0.0
 11
37.6757595324
 21
1.5077215328
 31
0.0
 11
37.632188389
 21
1.507310982
 31
0.0
 11
37.5868926107
 21
1.5069803907
 31
0.0
 11
37.5402892664
 21
1.5067328027
 31
0.0
 11
37.4928074648
 21
1.5065704977
 31
0.0
 11
37.444884403
 21
1.5064949703
 31
0.0
  0
SPLINE
  5
305
100
AcDbEntity
  8
0
100
AcDbSpline
 62
253
  6
CONTINUOUS
 70
0
 71
3
 72
23
 73
19
 74
17
 42
0.0000001
 43
0.0000001
 44
0.0000000001
 12
-0.1156656166
 22
-0.4999835144
 32
0.0
 13
-0.5131813232
 23
-0.0026417985
 33
0.0
 40
0.0
 40
0.0
 40
0.0
 40
0.0
 40
0.0159236402
 40
0.037519705
 40
0.0662667634
 40
0.1026032067
 40
0.1465356752
 40
0.197849916
 40
0.2561916431
 40
0.3211034949
 40
0.3920454012
 40
0.4684080643
 40
0.5495234077
 40
0.6346736632
 40
0.7230998673
 40
0.8140101335
 40
0.9065878679
 40
1.0
 40
1.0
 40
1.0
 40
1.0
 10
37.9789426704
 20
-10.1263603581
 30
0.0
 10
37.9783287311
 20
-10.1290142106
 30
0.0
 10
37.9747174245
 20
-10.1346885169
 30
0.0
 10
37.9656270869
 20
-10.1415748649
 30
0.0
 10
37.9523893971
 20
-10.1483722518
 30
0.0
 10
37.9349204602
 20
-10.1549630921
 30
0.0
 10
37.9133203887
 20
-10.1613461884
 30
0.0
 10
37.8877525312
 20
-10.1674331029
 30
0.0
 10
37.8584396962
 20
-10.1731672101
 30
0.0
 10
37.8256441588
 20
-10.1784877086
 30
0.0
 10
37.7896642634
 20
-10.1833424948
 30
0.0
 10
37.7508291121
 20
-10.1876839346
 30
0.0
 10
37.7094950587
 20
-10.1914702367
 30
0.0
 10
37.6660419494
 20
-10.194665181
 30
0.0
 10
37.6208694591
 20
-10.1972384137
 30
0.0
 10
37.5743932335
 20
-10.1991655878
 30
0.0
 10
37.5270411949
 20
-10.2004285314
 30
0.0
 10
37.4952263774
 20
-10.2008191872
 30
0.0
 10
37.4792472569
 20
-10.2009014459
 30
0.0
 11
37.9789426704
 21
-10.1263603581
 31
0.0
 11
37.9749868115
 21
-10.1335108736
 31
0.0
 11
37.9664640617
 21
-10.1405955166
 31
0.0
 11
37.9534529347
 21
-10.1475490212
 31
0.0
 11
37.9360732929
 21
-10.15430733
 31
0.0
 11
37.9144852422
 21
-10.1608081834
 31
0.0
 11
37.8888876579
 21
-10.1669916939
 31
0.0
 11
37.859516352
 21
-10.1728008971
 31
0.0
 11
37.8266419011
 21
-10.1781822771
 31
0.0
 11
37.7905671539
 21
-10.1830862591
 31
0.0
 11
37.7516244411
 21
-10.1874676663
 31
0.0
 11
37.7101725136
 21
-10.1912861359
 31
0.0
 11
37.6665932383
 21
-10.194506491
 31
0.0
 11
37.6212880796
 21
-10.197099065
 31
0.0
 11
37.5746744012
 21
-10.1990399743
 31
0.0
 11
37.5271816214
 21
-10.2003113386
 31
0.0
 11
37.4792472569
 21
-10.2009014459
 31
0.0
  0
SPLINE
  5
306
100
AcDbEntity
  8
0
100
AcDbSpline
 62
253
  6
CONTINUOUS
 70
0
 71
3
 72
24
 73
20
 74
18
 42
0.0000001
 43
0.0000001
 44
0.0000000001
 12
0.0022370123
 22
-0.8499340702
 32
0.0
 13
0.2685899292
 23
-0.8063822777
 33
0.0
 40
0.0
 40
0.0
 40
0.0
 40
0.0
 40
0.0929977429
 40
0.184256553
 40
0.2731879617
 40
0.3592144101
 40
0.441779768
 40
0.52034911
 40
0.5944135008
 40
0.6634931372
 40
0.7271410503
 40
0.784944825
 40
0.836530752
 40
0.8815652918
 40
0.9197580269
 40
0.9508640559
 40
0.9746874526
 40
0.9910862544
 40
1.0
 40
1.0
 40
1.0
 40
1.0
 10
37.4792472569
 20
-10.2009014493
 30
0.0
 10
37.4793166026
 20
-10.227248766
 30
0.0
 10
37.4794912372
 20
-10.2794506505
 30
0.0
 10
37.4798644953
 20
-10.3568472986
 30
0.0
 10
37.4803448223
 20
-10.4322682676
 30
0.0
 10
37.480928943
 20
-10.5052254682
 30
0.0
 10
37.4816130219
 20
-10.5752459692
 30
0.0
 10
37.4823924615
 20
-10.6418762593
 30
0.0
 10
37.4832620096
 20
-10.7046844313
 30
0.0
 10
37.4842157875
 20
-10.7632634293
 30
0.0
 10
37.485247053
 20
-10.8172335776
 30
0.0
 10
37.4863489953
 20
-10.8662448635
 30
0.0
 10
37.4875119476
 20
-10.909980259
 30
0.0
 10
37.4887315981
 20
-10.9481540264
 30
0.0
 10
37.4899828732
 20
-10.9805257574
 30
0.0
 10
37.4912927512
 20
-11.0068670912
 30
0.0
 10
37.492534024
 20
-11.0270611381
 30
0.0
 10
37.493916188
 20
-11.0408709685
 30
0.0
 10
37.4948006651
 20
-11.0480528395
 30
0.0
 10
37.4955987125
 20
-11.0504488016
 30
0.0
 11
37.4792472569
 21
-10.2009014493
 31
0.0
 11
37.47951253
 21
-10.2799432281
 31
0.0
 11
37.4798879175
 21
-10.3575065603
 31
0.0
 11
37.4803710362
 21
-10.4330911123
 31
0.0
 11
37.4809587206
 21
-10.5062058131
 31
0.0
 11
37.4816471901
 21
-10.5763777896
 31
0.0
 11
37.4824319804
 21
-10.6431521699
 31
0.0
 11
37.4833080135
 21
-10.7060961412
 31
0.0
 11
37.4842696141
 21
-10.7648016061
 31
0.0
 11
37.4853105607
 21
-10.8188883073
 31
0.0
 11
37.4864241053
 21
-10.8680052538
 31
0.0
 11
37.4876030409
 21
-10.9118341896
 31
0.0
 11
37.4888397257
 21
-10.9500907285
 31
0.0
 11
37.4901261493
 21
-10.9825266477
 31
0.0
 11
37.4914539548
 21
-11.0089314488
 31
0.0
 11
37.4928145935
 21
-11.0291340681
 31
0.0
 11
37.4941991179
 21
-11.0430030804
 31
0.0
 11
37.4955987125
 21
-11.0504488016
 31
0.0
  0
SPLINE
  5
307
100
AcDbEntity
  8
0
100
AcDbSpline
 62
253
  6
CONTINUOUS
 70
0
 71
3
 72
24
 73
20
 74
18
 42
0.0000001
 43
0.0000001
 44
0.0000000001
 12
0.0022405343
 22
-0.425539131
 32
0.0
 13
0.2359406645
 23
-0.3541476737
 33
0.0
 40
0.0
 40
0.0
 40
0.0
 40
0.0
 40
0.092855355
 40
0.1839967866
 40
0.2728162512
 40
0.3587375314
 40
0.4412058963
 40
0.5196878524
 40
0.5936759745
 40
0.6626920345
 40
0.7262908445
 40
0.7840621562
 40
0.8356349505
 40
0.8806792824
 40
0.9189099719
 40
0.9500906576
 40
0.9740413608
 40
0.9906572345
 40
1.0
 40
1.0
 40
1.0
 40
1.0
 10
37.9789426704
 20
-10.1263603581
 30
0.0
 10
37.9790120189
 20
-10.1395315538
 30
0.0
 10
37.979186601
 20
-10.1656306526
 30
0.0
 10
37.9795598636
 20
-10.2043274417
 30
0.0
 10
37.9800401686
 20
-10.2420393935
 30
0.0
 10
37.9806243136
 20
-10.2785194726
 30
0.0
 10
37.9813084061
 20
-10.3135311969
 30
0.0
 10
37.9820878767
 20
-10.3468477987
 30
0.0
 10
37.982957468
 20
-10.3782533168
 30
0.0
 10
37.983911286
 20
-10.4075442001
 30
0.0
 10
37.984942667
 20
-10.4345306836
 30
0.0
 10
37.9860445602
 20
-10.4590376453
 30
0.0
 10
37.9872081105
 20
-10.4809072903
 30
0.0
 10
37.988426593
 20
-10.4999952515
 30
0.0
 10
37.9896823373
 20
-10.5161872432
 30
0.0
 10
37.9909819742
 20
-10.5293554964
 30
0.0
 10
37.9922533946
 20
-10.5394856354
 30
0.0
 10
37.9935858045
 20
-10.5463822779
 30
0.0
 10
37.9945593466
 20
-10.550031128
 30
0.0
 10
37.995294126
 20
-10.5511340343
 30
0.0
 11
37.9789426704
 21
-10.1263603581
 31
0.0
 11
37.9792078781
 21
-10.1658736029
 31
0.0
 11
37.9795832707
 21
-10.2046565693
 31
0.0
 11
37.9800663805
 21
-10.2424501633
 31
0.0
 11
37.9806540743
 21
-10.2790088137
 31
0.0
 11
37.9813425545
 21
-10.3140960624
 31
0.0
 11
37.9821273641
 21
-10.3474844463
 31
0.0
 11
37.9830034219
 21
-10.3789575337
 31
0.0
 11
37.9839650527
 21
-10.4083112276
 31
0.0
 11
37.9850060335
 21
-10.4353553578
 31
0.0
 11
37.9861196156
 21
-10.4599144187
 31
0.0
 11
37.9872985909
 21
-10.4818292746
 31
0.0
 11
37.9885353184
 21
-10.5009577283
 31
0.0
 11
37.9898217817
 21
-10.5171756648
 31
0.0
 11
37.9911496385
 21
-10.5303778416
 31
0.0
 11
37.9925102969
 21
-10.5404787112
 31
0.0
 11
37.9938949112
 21
-10.54741262
 31
0.0
 11
37.995294126
 21
-10.5511340343
 31
0.0
  0
SPLINE
  5
308
100
AcDbEntity
  8
RACCORDO
100
AcDbSpline
 62
253
  6
CONTINUOUS
 70
0
 71
3
 72
10
 73
6
 74
4
 42
0.0000001
 43
0.0000001
 44
0.0000000001
 12
0.0060355961
 22
9.0950346942
 32
0.0
 13
0.0002514557
 23
9.0950366933
 33
0.0
 40
0.0
 40
0.0
 40
0.0
 40
0.0
 40
0.3333132412
 40
0.6666476321
 40
1.0
 40
1.0
 40
1.0
 40
1.0
 10
-6.3973229276
 20
1.5159949703
 30
0.0
 10
-6.3966523462
 20
2.5264934677
 30
0.0
 10
-6.3955254359
 20
4.547554731
 30
0.0
 10
-6.3944776427
 20
7.5792334693
 30
0.0
 10
-6.3942077003
 20
9.6004136484
 30
0.0
 10
-6.3941797592
 20
10.6110309877
 30
0.0
 11
-6.3973229276
 21
1.5159949703
 31
0.0
 11
-6.3956325652
 21
4.5474906589
 31
0.0
 11
-6.3945848076
 21
7.5791789957
 31
0.0
 11
-6.3941797592
 21
10.6110309877
 31
0.0
  0
SPLINE
  5
309
100
AcDbEntity
  8
0
100
AcDbSpline
 62
253
  6
CONTINUOUS
 70
0
 71
3
 72
23
 73
19
 74
17
 42
0.0000001
 43
0.0000001
 44
0.0000000001
 12
0.4390227135
 22
-0.2392018158
 32
0.0
 13
0.4999583399
 23
-0.0003316598
 33
0.0
 40
0.0
 40
0.0
 40
0.0
 40
0.0
 40
0.0081523609
 40
0.0253232963
 40
0.0514316938
 40
0.0862550996
 40
0.1294799961
 40
0.1807120127
 40
0.2394815728
 40
0.305248959
 40
0.3774096101
 40
0.4552998514
 40
0.5382030953
 40
0.6253564929
 40
0.7159579914
 40
0.8091737416
 40
0.9041457919
 40
1.0
 40
1.0
 40
1.0
 40
1.0
 10
-6.3973229276
 20
1.5159949703
 30
0.0
 10
-6.3961299037
 20
1.5153449504
 30
0.0
 10
-6.3917776226
 20
1.5149589853
 30
0.0
 10
-6.3833807855
 20
1.5139288584
 30
0.0
 10
-6.370321493
 20
1.5132049586
 30
0.0
 10
-6.3530114812
 20
1.5123274251
 30
0.0
 10
-6.3314708928
 20
1.5115362365
 30
0.0
 10
-6.3059504868
 20
1.5107567523
 30
0.0
 10
-6.2766658627
 20
1.510029302
 30
0.0
 10
-6.2438929562
 20
1.5093513629
 30
0.0
 10
-6.207931368
 20
1.5087332935
 30
0.0
 10
-6.1691128315
 20
1.5081801872
 30
0.0
 10
-6.1277945507
 20
1.5076977635
 30
0.0
 10
-6.084357014
 20
1.5072905732
 30
0.0
 10
-6.0392001522
 20
1.5069625336
 30
0.0
 10
-5.9927397516
 20
1.5067167518
 30
0.0
 10
-5.9454035994
 20
1.5065555541
 30
0.0
 10
-5.9136018844
 20
1.5065055673
 30
0.0
 10
-5.8976275141
 20
1.5064949703
 30
0.0
 11
-6.3973229276
 21
1.5159949703
 31
0.0
 11
-6.3933502213
 21
1.5150838771
 31
0.0
 11
-6.3848130596
 21
1.514181173
 31
0.0
 11
-6.3717900499
 21
1.5132951697
 31
0.0
 11
-6.3544011039
 21
1.5124340253
 31
0.0
 11
-6.3328063333
 21
1.511605669
 31
0.0
 11
-6.307204576
 21
1.5108177279
 31
0.0
 11
-6.2778315646
 21
1.5100774572
 31
0.0
 11
-6.2449577565
 21
1.5093916731
 31
0.0
 11
-6.2088858431
 21
1.50876669
 31
0.0
 11
-6.1699479629
 21
1.5082082627
 31
0.0
 11
-6.1285026436
 21
1.5077215328
 31
0.0
 11
-6.0849315002
 21
1.507310982
 31
0.0
 11
-6.0396357218
 21
1.5069803907
 31
0.0
 11
-5.9930323775
 21
1.5067328027
 31
0.0
 11
-5.9455505759
 21
1.5065704977
 31
0.0
 11
-5.8976275141
 21
1.5064949703
 31
0.0
  0
SPLINE
  5
30A
100
AcDbEntity
  8
RACCORDO
100
AcDbSpline
 62
253
  6
CONTINUOUS
 70
0
 71
3
 72
10
 73
6
 74
4
 42
0.0000001
 43
0.0000001
 44
0.0000000001
 12
0.0060343306
 22
9.1022302254
 32
0.0
 13
0.0002526151
 23
9.1022322221
 33
0.0
 40
0.0
 40
0.0
 40
0.0
 40
0.0
 40
0.3333130853
 40
0.6666473209
 40
1.0
 40
1.0
 40
1.0
 40
1.0
 10
-5.8976275141
 20
1.5064949703
 30
0.0
 10
-5.8969570736
 20
2.5177924502
 30
0.0
 10
-5.8958299844
 20
4.5404517304
 30
0.0
 10
-5.8947838763
 20
7.5745289786
 30
0.0
 10
-5.8945096885
 20
9.5973086846
 30
0.0
 10
-5.8944816185
 20
10.6087265168
 30
0.0
 11
-5.8976275141
 21
1.5064949703
 31
0.0
 11
-5.8959374394
 21
4.5403876059
 31
0.0
 11
-5.8948896994
 21
7.5744730465
 31
0.0
 11
-5.8944816185
 21
10.6087265168
 31
0.0
  0
SPLINE
  5
30B
100
AcDbEntity
  8
RACCORDO
100
AcDbSpline
 62
253
  6
CONTINUOUS
 70
0
 71
3
 72
24
 73
20
 74
18
 42
0.0000001
 43
0.0000001
 44
0.0000000001
 12
-0.4997144696
 22
0.0000069948
 32
0.0
 13
-0.4951381098
 23
0.0674744651
 33
0.0
 40
0.0
 40
0.0
 40
0.0
 40
0.0
 40
0.0902745285
 40
0.1798119128
 40
0.2678852403
 40
0.3537729599
 40
0.4367747643
 40
0.5162146948
 40
0.5914438862
 40
0.6618488285
 40
0.7268549417
 40
0.7859326743
 40
0.8385998271
 40
0.8844269067
 40
0.9230397915
 40
0.9541242682
 40
0.9774271668
 40
0.9927589096
 40
1.0
 40
1.0
 40
1.0
 40
1.0
 10
-5.8944816185
 20
10.6087265161
 30
0.0
 10
-5.9095187812
 20
10.6087267266
 30
0.0
 10
-5.9394703197
 20
10.6087335617
 30
0.0
 10
-5.9840923549
 20
10.6087630406
 30
0.0
 10
-6.027983656
 20
10.6088114824
 30
0.0
 10
-6.0707862902
 20
10.6088784783
 30
0.0
 10
-6.1121508119
 20
10.6089634666
 30
0.0
 10
-6.1517398819
 20
10.6090657293
 30
0.0
 10
-6.1892306195
 20
10.6091843897
 30
0.0
 10
-6.2243170234
 20
10.6093184577
 30
0.0
 10
-6.2567129835
 20
10.6094666683
 30
0.0
 10
-6.2861541968
 20
10.6096280237
 30
0.0
 10
-6.3124007194
 20
10.6098000119
 30
0.0
 10
-6.3352378768
 20
10.6099840919
 30
0.0
 10
-6.3544807874
 20
10.6101689325
 30
0.0
 10
-6.3699687439
 20
10.6103779432
 30
0.0
 10
-6.3815852949
 20
10.6105404034
 30
0.0
 10
-6.3892148035
 20
10.6107967427
 30
0.0
 10
-6.3929846459
 20
10.6108681138
 30
0.0
 10
-6.3941797592
 20
10.6110309767
 30
0.0
 11
-5.8944816185
 21
10.6087265161
 31
0.0
 11
-5.9395931054
 21
10.6087368543
 31
0.0
 11
-5.9843362221
 21
10.6087665328
 31
0.0
 11
-6.0283477112
 21
10.6088153123
 31
0.0
 11
-6.0712669944
 21
10.6088827913
 31
0.0
 11
-6.1127441087
 21
10.6089684191
 31
0.0
 11
-6.1524412576
 21
10.6090714962
 31
0.0
 11
-6.1900341826
 21
10.6091911795
 31
0.0
 11
-6.2252162908
 21
10.6093264907
 31
0.0
 11
-6.2577004406
 21
10.6094763232
 31
0.0
 11
-6.2872219877
 21
10.6096394539
 31
0.0
 11
-6.3135399436
 21
10.6098145496
 31
0.0
 11
-6.336439646
 21
10.6100001799
 31
0.0
 11
-6.3557340815
 21
10.6101948273
 31
0.0
 11
-6.3712661298
 21
10.6103969025
 31
0.0
 11
-6.3829090701
 21
10.610604763
 31
0.0
 11
-6.3905676322
 21
10.6108166889
 31
0.0
 11
-6.3941797592
 21
10.6110309767
 31
0.0
  0
SPLINE
  5
30C
100
AcDbEntity
  8
0
100
AcDbSpline
 62
253
  6
CONTINUOUS
 70
0
 71
3
 72
23
 73
19
 74
17
 42
0.0000001
 43
0.0000001
 44
0.0000000001
 12
0.1156655032
 22
-0.499983543
 32
0.0
 13
0.5131813254
 23
-0.0026417988
 33
0.0
 40
0.0
 40
0.0
 40
0.0
 40
0.0
 40
0.015923639
 40
0.0375197021
 40
0.0662667587
 40
0.1026032005
 40
0.1465356677
 40
0.1978499076
 40
0.2561916344
 40
0.3211034861
 40
0.3920453925
 40
0.4684080562
 40
0.5495234005
 40
0.6346736571
 40
0.7230998625
 40
0.8140101302
 40
0.9065878662
 40
1.0
 40
1.0
 40
1.0
 40
1.0
 10
-6.4316857815
 20
-10.1263603581
 30
0.0
 10
-6.4310718429
 20
-10.1290142106
 30
0.0
 10
-6.4274605375
 20
-10.1346885172
 30
0.0
 10
-6.4183702009
 20
-10.1415748655
 30
0.0
 10
-6.4051325123
 20
-10.1483722526
 30
0.0
 10
-6.3876635761
 20
-10.1549630932
 30
0.0
 10
-6.3660635052
 20
-10.1613461897
 30
0.0
 10
-6.3404956481
 20
-10.1674331046
 30
0.0
 10
-6.3111828133
 20
-10.173167212
 30
0.0
 10
-6.2783872758
 20
-10.1784877107
 30
0.0
 10
-6.2424073802
 20
-10.1833424971
 30
0.0
 10
-6.2035722285
 20
-10.1876839373
 30
0.0
 10
-6.1622381745
 20
-10.1914702395
 30
0.0
 10
-6.1187850644
 20
-10.1946651841
 30
0.0
 10
-6.0736125732
 20
-10.1972384169
 30
0.0
 10
-6.0271363467
 20
-10.1991655911
 30
0.0
 10
-5.979784307
 20
-10.2004285348
 30
0.0
 10
-5.9479694888
 20
-10.2008191906
 30
0.0
 10
-5.931990368
 20
-10.2009014493
 30
0.0
 11
-6.4316857815
 21
-10.1263603581
 31
0.0
 11
-6.4277299242
 21
-10.1335108738
 31
0.0
 11
-6.4192071757
 21
-10.140595517
 31
0.0
 11
-6.4061960499
 21
-10.147549022
 31
0.0
 11
-6.3888164089
 21
-10.154307331
 31
0.0
 11
-6.3672283588
 21
-10.1608081847
 31
0.0
 11
-6.3416307749
 21
-10.1669916955
 31
0.0
 11
-6.3122594691
 21
-10.172800899
 31
0.0
 11
-6.2793850182
 21
-10.1781822792
 31
0.0
 11
-6.2433102708
 21
-10.1830862615
 31
0.0
 11
-6.2043675575
 21
-10.1874676689
 31
0.0
 11
-6.1629156294
 21
-10.1912861387
 31
0.0
 11
-6.1193363534
 21
-10.194506494
 31
0.0
 11
-6.0740311938
 21
-10.1970990682
 31
0.0
 11
-6.0274175144
 21
-10.1990399775
 31
0.0
 11
-5.9799247336
 21
-10.200311342
 31
0.0
 11
-5.931990368
 21
-10.2009014493
 31
0.0
  0
SPLINE
  5
30D
100
AcDbEntity
  8
0
100
AcDbSpline
 62
253
  6
CONTINUOUS
 70
0
 71
3
 72
24
 73
20
 74
18
 42
0.0000001
 43
0.0000001
 44
0.0000000001
 12
0.2685899298
 22
0.8063822775
 32
0.0
 13
0.0022370123
 23
0.8499340702
 33
0.0
 40
0.0
 40
0.0
 40
0.0
 40
0.0
 40
0.0089137456
 40
0.0253125474
 40
0.0491359441
 40
0.0802419731
 40
0.1184347082
 40
0.163469248
 40
0.215055175
 40
0.2728589497
 40
0.3365068628
 40
0.4055864992
 40
0.47965089
 40
0.558220232
 40
0.6407855899
 40
0.7268120383
 40
0.815743447
 40
0.9070022571
 40
1.0
 40
1.0
 40
1.0
 40
1.0
 10
-5.9483418236
 20
-11.0504488016
 30
0.0
 10
-5.9475437762
 20
-11.0480528395
 30
0.0
 10
-5.9466592991
 20
-11.0408709685
 30
0.0
 10
-5.9452771351
 20
-11.0270611381
 30
0.0
 10
-5.9440358623
 20
-11.0068670912
 30
0.0
 10
-5.9427259843
 20
-10.9805257574
 30
0.0
 10
-5.9414747092
 20
-10.9481540264
 30
0.0
 10
-5.9402550587
 20
-10.909980259
 30
0.0
 10
-5.9390921064
 20
-10.8662448635
 30
0.0
 10
-5.9379901641
 20
-10.8172335776
 30
0.0
 10
-5.9369588986
 20
-10.7632634293
 30
0.0
 10
-5.9360051207
 20
-10.7046844313
 30
0.0
 10
-5.9351355727
 20
-10.6418762593
 30
0.0
 10
-5.934356133
 20
-10.5752459692
 30
0.0
 10
-5.9336720541
 20
-10.5052254682
 30
0.0
 10
-5.9330879334
 20
-10.4322682676
 30
0.0
 10
-5.9326076064
 20
-10.3568472986
 30
0.0
 10
-5.9322343483
 20
-10.2794506505
 30
0.0
 10
-5.9320597137
 20
-10.227248766
 30
0.0
 10
-5.931990368
 20
-10.2009014493
 30
0.0
 11
-5.9483418236
 21
-11.0504488016
 31
0.0
 11
-5.946942229
 21
-11.0430030804
 31
0.0
 11
-5.9455577047
 21
-11.0291340681
 31
0.0
 11
-5.9441970659
 21
-11.0089314488
 31
0.0
 11
-5.9428692604
 21
-10.9825266477
 31
0.0
 11
-5.9415828368
 21
-10.9500907285
 31
0.0
 11
-5.940346152
 21
-10.9118341896
 31
0.0
 11
-5.9391672164
 21
-10.8680052538
 31
0.0
 11
-5.9380536718
 21
-10.8188883073
 31
0.0
 11
-5.9370127252
 21
-10.7648016061
 31
0.0
 11
-5.9360511246
 21
-10.7060961412
 31
0.0
 11
-5.9351750915
 21
-10.6431521699
 31
0.0
 11
-5.9343903013
 21
-10.5763777896
 31
0.0
 11
-5.9337018317
 21
-10.5062058131
 31
0.0
 11
-5.9331141474
 21
-10.4330911123
 31
0.0
 11
-5.9326310286
 21
-10.3575065603
 31
0.0
 11
-5.9322556411
 21
-10.2799432281
 31
0.0
 11
-5.931990368
 21
-10.2009014493
 31
0.0
  0
SPLINE
  5
30E
100
AcDbEntity
  8
0
100
AcDbSpline
 62
253
  6
CONTINUOUS
 70
0
 71
3
 72
24
 73
20
 74
18
 42
0.0000001
 43
0.0000001
 44
0.0000000001
 12
0.2359406643
 22
0.3541476739
 32
0.0
 13
0.0022405343
 23
0.425539131
 33
0.0
 40
0.0
 40
0.0
 40
0.0
 40
0.0
 40
0.0093427655
 40
0.0259586392
 40
0.0499093424
 40
0.0810900281
 40
0.1193207176
 40
0.1643650495
 40
0.2159378438
 40
0.2737091555
 40
0.3373079655
 40
0.4063240255
 40
0.4803121476
 40
0.5587941037
 40
0.6412624686
 40
0.7271837488
 40
0.8160032134
 40
0.907144645
 40
1.0
 40
1.0
 40
1.0
 40
1.0
 10
-6.4480372372
 20
-10.5511340343
 30
0.0
 10
-6.4473024577
 20
-10.550031128
 30
0.0
 10
-6.4463289156
 20
-10.5463822779
 30
0.0
 10
-6.4449965057
 20
-10.5394856354
 30
0.0
 10
-6.4437250853
 20
-10.5293554964
 30
0.0
 10
-6.4424254484
 20
-10.5161872432
 30
0.0
 10
-6.4411697041
 20
-10.4999952515
 30
0.0
 10
-6.4399512216
 20
-10.4809072903
 30
0.0
 10
-6.4387876713
 20
-10.4590376453
 30
0.0
 10
-6.4376857781
 20
-10.4345306836
 30
0.0
 10
-6.4366543971
 20
-10.4075442001
 30
0.0
 10
-6.4357005791
 20
-10.3782533168
 30
0.0
 10
-6.4348309878
 20
-10.3468477987
 30
0.0
 10
-6.4340515172
 20
-10.3135311969
 30
0.0
 10
-6.4333674247
 20
-10.2785194726
 30
0.0
 10
-6.4327832797
 20
-10.2420393935
 30
0.0
 10
-6.4323029748
 20
-10.2043274417
 30
0.0
 10
-6.4319297121
 20
-10.1656306526
 30
0.0
 10
-6.43175513
 20
-10.1395315538
 30
0.0
 10
-6.4316857815
 20
-10.1263603581
 30
0.0
 11
-6.4480372372
 21
-10.5511340343
 31
0.0
 11
-6.4466380223
 21
-10.54741262
 31
0.0
 11
-6.445253408
 21
-10.5404787112
 31
0.0
 11
-6.4438927496
 21
-10.5303778416
 31
0.0
 11
-6.4425648928
 21
-10.5171756648
 31
0.0
 11
-6.4412784295
 21
-10.5009577283
 31
0.0
 11
-6.4400417021
 21
-10.4818292746
 31
0.0
 11
-6.4388627267
 21
-10.4599144187
 31
0.0
 11
-6.4377491446
 21
-10.4353553578
 31
0.0
 11
-6.4367081638
 21
-10.4083112276
 31
0.0
 11
-6.435746533
 21
-10.3789575337
 31
0.0
 11
-6.4348704752
 21
-10.3474844463
 31
0.0
 11
-6.4340856656
 21
-10.3140960624
 31
0.0
 11
-6.4333971854
 21
-10.2790088137
 31
0.0
 11
-6.4328094916
 21
-10.2424501633
 31
0.0
 11
-6.4323263818
 21
-10.2046565693
 31
0.0
 11
-6.4319509892
 21
-10.1658736029
 31
0.0
 11
-6.4316857815
 21
-10.1263603581
 31
0.0
  0
SPLINE
  5
30F
100
AcDbEntity
  8
RACCORDO
100
AcDbSpline
 62
253
  6
CONTINUOUS
 70
0
 71
3
 72
24
 73
20
 74
18
 42
0.0000001
 43
0.0000001
 44
0.0000000001
 12
-0.2498750154
 22
0.0000000277
 32
0.0
 13
-0.2424250812
 23
0.0605607405
 33
0.0
 40
0.0
 40
0.0
 40
0.0
 40
0.0
 40
0.0902519062
 40
0.1797846795
 40
0.2678529052
 40
0.3537361738
 40
0.4367339978
 40
0.5161705145
 40
0.5913968937
 40
0.6617996696
 40
0.7268041989
 40
0.7858808583
 40
0.8385476229
 40
0.8843752391
 40
0.9229899153
 40
0.9540780319
 40
0.9773873145
 40
0.9927312008
 40
1.0
 40
1.0
 40
1.0
 40
1.0
 10
-5.8944843017
 20
10.8589158821
 30
0.0
 10
-5.9020015338
 20
10.8589158829
 30
0.0
 10
-5.916976101
 20
10.8589217636
 30
0.0
 10
-5.9392860039
 20
10.8589481991
 30
0.0
 10
-5.9612320079
 20
10.8589920161
 30
0.0
 10
-5.9826336623
 20
10.8590528481
 30
0.0
 10
-6.0033163096
 20
10.8591301827
 30
0.0
 10
-6.023111252
 20
10.8592233703
 30
0.0
 10
-6.0418570407
 20
10.8593316125
 30
0.0
 10
-6.0594006463
 20
10.8594540071
 30
0.0
 10
-6.0755989942
 20
10.8595894054
 30
0.0
 10
-6.0903198537
 20
10.859736881
 30
0.0
 10
-6.1034434093
 20
10.8598941933
 30
0.0
 10
-6.1148618325
 20
10.8600625091
 30
0.0
 10
-6.124484214
 20
10.8602319661
 30
0.0
 10
-6.1322260811
 20
10.8604225785
 30
0.0
 10
-6.1380401506
 20
10.8605732497
 30
0.0
 10
-6.1418455671
 20
10.8608045192
 30
0.0
 10
-6.1437445759
 20
10.8608747097
 30
0.0
 10
-6.1443319556
 20
10.8610214443
 30
0.0
 11
-5.8944843017
 21
10.8589158821
 31
0.0
 11
-5.9170359964
 21
10.8589247767
 31
0.0
 11
-5.9394079837
 21
10.858951395
 31
0.0
 11
-5.9614139887
 21
10.8589955205
 31
0.0
 11
-5.9828739843
 21
10.8590567932
 31
0.0
 11
-6.0036129204
 21
10.8591347129
 31
0.0
 11
-6.023461899
 21
10.8592286454
 31
0.0
 11
-6.0422587746
 21
10.8593378238
 31
0.0
 11
-6.0598502355
 21
10.8594613576
 31
0.0
 11
-6.0760926665
 21
10.8595982385
 31
0.0
 11
-6.0908536946
 21
10.8597473507
 31
0.0
 11
-6.104012829
 21
10.8599074772
 31
0.0
 11
-6.1154627458
 21
10.8600773121
 31
0.0
 11
-6.1251099437
 21
10.860255468
 31
0.0
 11
-6.1328758835
 21
10.8604404938
 31
0.0
 11
-6.1386971784
 21
10.8606308804
 31
0.0
 11
-6.1425263113
 21
10.8608250701
 31
0.0
 11
-6.1443319556
 21
10.8610214443
 31
0.0
  0
SPLINE
  5
310
100
AcDbEntity
  8
RACCORDO
100
AcDbSpline
 62
253
  6
CONTINUOUS
 70
0
 71
3
 72
24
 73
20
 74
18
 42
0.0000001
 43
0.0000001
 44
0.0000000001
 12
-0.2424250813
 22
-0.0605607403
 32
0.0
 13
-0.2498750154
 23
-0.0000000277
 33
0.0
 40
0.0
 40
0.0
 40
0.0
 40
0.0
 40
0.0072687992
 40
0.0226126855
 40
0.0459219681
 40
0.0770100847
 40
0.1156247608
 40
0.1614523771
 40
0.2141191417
 40
0.2731958011
 40
0.3382003304
 40
0.4086031063
 40
0.4838294855
 40
0.5632660021
 40
0.6462638261
 40
0.7321470947
 40
0.8202153205
 40
0.9097480937
 40
1.0
 40
1.0
 40
1.0
 40
1.0
 10
37.6915888445
 20
10.8610214443
 30
0.0
 10
37.6910014648
 20
10.8608747097
 30
0.0
 10
37.689102456
 20
10.8608045192
 30
0.0
 10
37.6852970394
 20
10.8605732497
 30
0.0
 10
37.67948297
 20
10.8604225785
 30
0.0
 10
37.6717411029
 20
10.8602319661
 30
0.0
 10
37.6621187214
 20
10.8600625091
 30
0.0
 10
37.6507002982
 20
10.8598941933
 30
0.0
 10
37.6375767426
 20
10.859736881
 30
0.0
 10
37.6228558831
 20
10.8595894054
 30
0.0
 10
37.6066575352
 20
10.8594540071
 30
0.0
 10
37.5891139296
 20
10.8593316125
 30
0.0
 10
37.5703681409
 20
10.8592233703
 30
0.0
 10
37.5505731985
 20
10.8591301827
 30
0.0
 10
37.5298905512
 20
10.8590528481
 30
0.0
 10
37.5084888968
 20
10.8589920161
 30
0.0
 10
37.4865428928
 20
10.8589481991
 30
0.0
 10
37.4642329899
 20
10.8589217636
 30
0.0
 10
37.4492584227
 20
10.8589158829
 30
0.0
 10
37.4417411906
 20
10.8589158821
 30
0.0
 11
37.6915888445
 21
10.8610214443
 31
0.0
 11
37.6897832002
 21
10.8608250701
 31
0.0
 11
37.6859540673
 21
10.8606308804
 31
0.0
 11
37.6801327724
 21
10.8604404938
 31
0.0
 11
37.6723668326
 21
10.860255468
 31
0.0
 11
37.6627196347
 21
10.8600773121
 31
0.0
 11
37.6512697179
 21
10.8599074772
 31
0.0
 11
37.6381105835
 21
10.8597473507
 31
0.0
 11
37.6233495554
 21
10.8595982385
 31
0.0
 11
37.6071071244
 21
10.8594613576
 31
0.0
 11
37.5895156635
 21
10.8593378238
 31
0.0
 11
37.5707187879
 21
10.8592286454
 31
0.0
 11
37.5508698093
 21
10.8591347129
 31
0.0
 11
37.5301308732
 21
10.8590567932
 31
0.0
 11
37.5086708776
 21
10.8589955205
 31
0.0
 11
37.4866648726
 21
10.858951395
 31
0.0
 11
37.4642928853
 21
10.8589247767
 31
0.0
 11
37.4417411906
 21
10.8589158821
 31
0.0
  0
LINE
  5
311
100
AcDbEntity
  8
ASSI
100
AcDbLine
 62
7
  6
CONTINUOUS
 10
20.3236284444
 20
7.2080032057
 11
20.3236284444
 21
6.9741647557
  0
LINE
  5
312
100
AcDbEntity
  8
ASSI
100
AcDbLine
 62
7
  6
CONTINUOUS
 10
20.3236284444
 20
6.9741647557
 11
20.3236284444
 21
6.7403271876
  0
LINE
  5
313
100
AcDbEntity
  8
ASSI
100
AcDbLine
 62
7
  6
CONTINUOUS
 10
20.3236284444
 20
6.7403271876
 11
20.3236284444
 21
6.5064905528
  0
LINE
  5
314
100
AcDbEntity
  8
ASSI
100
AcDbLine
 62
7
  6
CONTINUOUS
 10
20.3236284444
 20
6.5064905528
 11
20.3236284444
 21
6.2726549023
  0
LINE
  5
315
100
AcDbEntity
  8
ASSI
100
AcDbLine
 62
7
  6
CONTINUOUS
 10
20.3236284444
 20
6.2726549023
 11
20.3236284444
 21
6.0388202872
  0
LINE
  5
316
100
AcDbEntity
  8
ASSI
100
AcDbLine
 62
7
  6
CONTINUOUS
 10
20.3236284444
 20
6.0388202872
 11
20.3236284444
 21
5.8049867588
  0
LINE
  5
317
100
AcDbEntity
  8
ASSI
100
AcDbLine
 62
7
  6
CONTINUOUS
 10
11.2236284445
 20
5.8049867588
 11
11.2236284445
 21
7.2080032057
  0
SPLINE
  5
318
100
AcDbEntity
  8
ASSI
100
AcDbSpline
 62
7
  6
CONTINUOUS
 70
0
 71
3
 72
23
 73
19
 74
17
 42
0.0000001
 43
0.0000001
 44
0.0000000001
 12
-0.6256304749
 22
0.0
 32
0.0
 13
0.0
 23
0.6256304749
 33
0.0
 40
0.0
 40
0.0
 40
0.0
 40
0.0
 40
0.0625348873
 40
0.125302776
 40
0.1879610843
 40
0.2502495145
 40
0.3125069208
 40
0.3750288287
 40
0.4375113249
 40
0.4996701031
 40
0.5618372342
 40
0.6243553179
 40
0.6869429983
 40
0.7492898499
 40
0.811675364
 40
0.8744418063
 40
0.9373328547
 40
1.0
 40
1.0
 40
1.0
 40
1.0
 10
11.6217299009
 20
5.4064949703
 30
0.0
 10
11.6086886571
 20
5.4064949703
 30
0.0
 10
11.5825395773
 20
5.4077714064
 30
0.0
 10
11.5437035781
 20
5.4135139673
 30
0.0
 10
11.5056649648
 20
5.4230291499
 30
0.0
 10
11.4688439003
 20
5.4361900941
 30
0.0
 10
11.4335127734
 20
5.4528789
 30
0.0
 10
11.3999553233
 20
5.4729768029
 30
0.0
 10
11.3685557985
 20
5.4962681845
 30
0.0
 10
11.3396505815
 20
5.5224800656
 30
0.0
 10
11.3134466316
 20
5.5514024748
 30
0.0
 10
11.2901549176
 20
5.5828302336
 30
0.0
 10
11.2700496348
 20
5.6164296623
 30
0.0
 10
11.25335062
 20
5.651814185
 30
0.0
 10
11.2401795472
 20
5.6886968886
 30
0.0
 10
11.2306555493
 20
5.7268038844
 30
0.0
 10
11.2249064978
 20
5.765715578
 30
0.0
 10
11.2236284445
 20
5.7919179335
 30
0.0
 10
11.2236284445
 20
5.8049867588
 30
0.0
 11
11.6217299009
 21
5.4064949703
 31
0.0
 11
11.5826528025
 21
5.4084046118
 31
0.0
 11
11.5438058469
 21
5.4141498696
 31
0.0
 11
11.505777013
 21
5.423664177
 31
0.0
 11
11.4690814465
 21
5.436781359
 31
0.0
 11
11.4338630242
 21
5.4534179273
 31
0.0
 11
11.4003058491
 21
5.4735163606
 31
0.0
 11
11.3689097337
 21
5.4968055556
 31
0.0
 11
11.3401020849
 21
5.5229288985
 31
0.0
 11
11.3139878193
 21
5.5517518282
 31
0.0
 11
11.2906983631
 21
5.5831754671
 31
0.0
 11
11.2705915755
 21
5.6167756005
 31
0.0
 11
11.2539430868
 21
5.6520502786
 31
0.0
 11
11.2408157669
 21
5.688806722
 31
0.0
 11
11.2312926844
 21
5.7269030969
 31
0.0
 11
11.225540669
 21
5.7658269433
 31
0.0
 11
11.2236284445
 21
5.8049867588
 31
0.0
  0
SPLINE
  5
319
100
AcDbEntity
  8
ASSI
100
AcDbSpline
 62
7
  6
CONTINUOUS
 70
0
 71
3
 72
23
 73
19
 74
17
 42
0.0000001
 43
0.0000001
 44
0.0000000001
 12
-0.0
 22
0.6260794102
 32
0.0
 13
0.6260794102
 23
0.0
 33
0.0
 40
0.0
 40
0.0
 40
0.0
 40
0.0
 40
0.0625064794
 40
0.125265243
 40
0.1879314833
 40
0.2502417825
 40
0.3125316189
 40
0.3750924245
 40
0.4376158557
 40
0.4998130445
 40
0.5620138933
 40
0.624555553
 40
0.6871533927
 40
0.7494944038
 40
0.8118588393
 40
0.874584964
 40
0.9374149203
 40
1.0
 40
1.0
 40
1.0
 40
1.0
 10
11.2236284445
 20
7.2080032057
 30
0.0
 10
11.2236284445
 20
7.221047879
 30
0.0
 10
11.2249060738
 20
7.2472078798
 30
0.0
 10
11.2306535537
 20
7.2860653868
 30
0.0
 10
11.2401784362
 20
7.3241350306
 30
0.0
 10
11.2533546645
 20
7.360994226
 30
0.0
 10
11.2700645476
 20
7.3963679224
 30
0.0
 10
11.2901888526
 20
7.4299695913
 30
0.0
 10
11.3135107017
 20
7.4614121734
 30
0.0
 10
11.3397555115
 20
7.4903571819
 30
0.0
 10
11.3687112051
 20
7.5165958557
 30
0.0
 10
11.4001702985
 20
7.5399160722
 30
0.0
 10
11.4337963399
 20
7.5600429281
 30
0.0
 10
11.4692009054
 20
7.5767570439
 30
0.0
 10
11.5060952122
 20
7.5899374487
 30
0.0
 10
11.5442037395
 20
7.5994661035
 30
0.0
 10
11.5831050323
 20
7.6052165862
 30
0.0
 10
11.6092962971
 20
7.6064949703
 30
0.0
 10
11.6223573737
 20
7.6064949703
 30
0.0
 11
11.2236284445
 21
7.2080032057
 31
0.0
 11
11.2255392666
 21
7.2470905472
 31
0.0
 11
11.231289234
 21
7.2859595162
 31
0.0
 11
11.2408131647
 21
7.3240200582
 31
0.0
 11
11.2539456546
 21
7.3607543892
 31
0.0
 11
11.2706035054
 21
7.3960161243
 31
0.0
 11
11.2907287538
 21
7.4296183434
 31
0.0
 11
11.3140489743
 21
7.4610582798
 31
0.0
 11
11.3402055312
 21
7.489905943
 31
0.0
 11
11.3690625964
 21
7.5160555395
 31
0.0
 11
11.4005182145
 21
7.5393737723
 31
0.0
 11
11.434145534
 21
7.5595022346
 31
0.0
 11
11.4694401482
 21
7.5761654924
 31
0.0
 11
11.5062089895
 21
7.5893021316
 31
0.0
 11
11.5443072751
 21
7.5988296761
 31
0.0
 11
11.5832208269
 21
7.6045828511
 31
0.0
 11
11.6223573737
 21
7.6064949703
 31
0.0
  0
SPLINE
  5
31A
100
AcDbEntity
  8
ASSI
100
AcDbSpline
 62
7
  6
CONTINUOUS
 70
0
 71
3
 72
23
 73
19
 74
17
 42
0.0000001
 43
0.0000001
 44
0.0000000001
 12
0.0
 22
-0.6256304749
 32
0.0
 13
-0.6256304749
 23
0.0
 33
0.0
 40
0.0
 40
0.0
 40
0.0
 40
0.0
 40
0.0626702289
 40
0.1255649537
 40
0.1883377991
 40
0.2507257318
 40
0.3130696196
 40
0.3756555984
 40
0.4381764296
 40
0.5003456957
 40
0.5625023603
 40
0.6249821737
 40
0.6875058217
 40
0.7497661681
 40
0.8120520785
 40
0.8747039402
 40
0.9374681374
 40
1.0
 40
1.0
 40
1.0
 40
1.0
 10
20.3236284444
 20
5.8049867588
 30
0.0
 10
20.3236284444
 20
5.7919172904
 30
0.0
 10
20.3223502592
 20
5.7657135224
 30
0.0
 10
20.3166005057
 20
5.7267991467
 30
0.0
 10
20.3070752769
 20
5.6886897532
 30
0.0
 10
20.2939029583
 20
5.6518061899
 30
0.0
 10
20.2772033615
 20
5.6164224682
 30
0.0
 10
20.2570976634
 20
5.5828237593
 30
0.0
 10
20.2338049408
 20
5.5513959132
 30
0.0
 10
20.2075999265
 20
5.5224736816
 30
0.0
 10
20.1786945142
 20
5.4962628502
 30
0.0
 10
20.1472950531
 20
5.4729724645
 30
0.0
 10
20.1137368653
 20
5.4528749739
 30
0.0
 10
20.0784049503
 20
5.4361867642
 30
0.0
 10
20.0415847773
 20
5.4230270814
 30
0.0
 10
20.0035485942
 20
5.4135131375
 30
0.0
 10
19.9647152774
 20
5.4077712761
 30
0.0
 10
19.938567601
 20
5.4064949703
 30
0.0
 10
19.925526988
 20
5.4064949703
 30
0.0
 11
20.3236284444
 21
5.8049867588
 31
0.0
 11
20.3217160316
 21
5.765825021
 31
0.0
 11
20.3159633805
 21
5.7268989434
 31
0.0
 11
20.3064387318
 21
5.6887988309
 31
0.0
 11
20.2933100734
 21
5.6520412587
 31
0.0
 11
20.2766615937
 21
5.6167686268
 31
0.0
 11
20.2565547297
 21
5.5831697798
 31
0.0
 11
20.2332636407
 21
5.5517452115
 31
0.0
 11
20.2071478077
 21
5.5229218994
 31
0.0
 11
20.1783405303
 21
5.4968001155
 31
0.0
 11
20.146945309
 21
5.4735125325
 31
0.0
 11
20.1133868234
 21
5.4534141685
 31
0.0
 11
20.0781663652
 21
5.4367776035
 31
0.0
 11
20.0414719855
 21
5.4236617851
 31
0.0
 11
20.0034469155
 21
5.4141490503
 31
0.0
 11
19.9646022008
 21
5.408404427
 31
0.0
 11
19.925526988
 21
5.4064949703
 31
0.0
  0
SPLINE
  5
31B
100
AcDbEntity
  8
ASSI
100
AcDbSpline
 62
7
  6
CONTINUOUS
 70
0
 71
3
 72
23
 73
19
 74
17
 42
0.0000001
 43
0.0000001
 44
0.0000000001
 12
0.6260794102
 22
0.0
 32
0.0
 13
-0.0
 23
-0.6260794102
 33
0.0
 40
0.0
 40
0.0
 40
0.0
 40
0.0
 40
0.0625881422
 40
0.1254217627
 40
0.1881542833
 40
0.2505211627
 40
0.3128592232
 40
0.3754553554
 40
0.4379997474
 40
0.5002027209
 40
0.5623977915
 40
0.6249185204
 40
0.6874810527
 40
0.7497738282
 40
0.8120816345
 40
0.8747414598
 40
0.937496554
 40
1.0
 40
1.0
 40
1.0
 40
1.0
 10
19.9248995152
 20
7.6064949703
 30
0.0
 10
19.9379612309
 20
7.6064949703
 30
0.0
 10
19.9641539023
 20
7.6052164549
 30
0.0
 10
20.0030578709
 20
7.5994652722
 30
0.0
 10
20.0411687992
 20
7.5899353871
 30
0.0
 10
20.0780639729
 20
7.5767537347
 30
0.0
 10
20.1134677432
 20
7.5600390343
 30
0.0
 10
20.147093063
 20
7.5399117642
 30
0.0
 10
20.1785522389
 20
7.516590543
 30
0.0
 10
20.2075077513
 20
7.4903508098
 30
0.0
 10
20.2337515077
 20
7.4614056131
 30
0.0
 10
20.2570723579
 20
7.4299631029
 30
0.0
 10
20.2771962504
 20
7.3963607039
 30
0.0
 10
20.2939055422
 20
7.3609862186
 30
0.0
 10
20.3070805156
 20
7.3241279051
 30
0.0
 10
20.3166041643
 20
7.2860606772
 30
0.0
 10
20.3223509457
 20
7.2472058451
 30
0.0
 10
20.3236284444
 20
7.2210472459
 30
0.0
 10
20.3236284444
 20
7.2080032057
 30
0.0
 11
19.9248995152
 21
7.6064949703
 31
0.0
 11
19.9640379725
 21
7.6045826639
 31
0.0
 11
20.0029537496
 21
7.5988288552
 31
0.0
 11
20.0410557717
 21
7.5892997462
 31
0.0
 11
20.0778257577
 21
7.5761617636
 31
0.0
 11
20.113118332
 21
7.559498512
 31
0.0
 11
20.1467443613
 21
7.5393699757
 31
0.0
 11
20.1782009023
 21
7.5160501153
 31
0.0
 11
20.2070583465
 21
7.4898989562
 31
0.0
 11
20.2332133431
 21
7.4610516684
 31
0.0
 11
20.2565319459
 21
7.4296126384
 31
0.0
 11
20.2766571241
 21
7.3960091173
 31
0.0
 11
20.2933149755
 21
7.3607453473
 31
0.0
 11
20.3064461099
 21
7.3240121892
 31
0.0
 11
20.3159684733
 21
7.2859553951
 31
0.0
 11
20.3217178078
 21
7.2470886548
 31
0.0
 11
20.3236284444
 21
7.2080032057
 31
0.0
  0
SPLINE
  5
31C
100
AcDbEntity
  8
ASSI
100
AcDbSpline
 62
253
  6
CONTINUOUS
 70
0
 71
3
 72
24
 73
20
 74
18
 42
0.0000001
 43
0.0000001
 44
0.0000000001
 12
0.2359406643
 22
0.3541476739
 32
0.0
 13
0.0022405343
 23
0.425539131
 33
0.0
 40
0.0
 40
0.0
 40
0.0
 40
0.0
 40
0.0093427655
 40
0.0259586392
 40
0.0499093424
 40
0.0810900281
 40
0.1193207176
 40
0.1643650495
 40
0.2159378438
 40
0.2737091555
 40
0.3373079655
 40
0.4063240255
 40
0.4803121476
 40
0.5587941037
 40
0.6412624686
 40
0.7271837488
 40
0.8160032134
 40
0.907144645
 40
1.0
 40
1.0
 40
1.0
 40
1.0
 10
-6.4480372372
 20
-10.5511340343
 30
0.0
 10
-6.4473024577
 20
-10.550031128
 30
0.0
 10
-6.4463289156
 20
-10.5463822779
 30
0.0
 10
-6.4449965057
 20
-10.5394856354
 30
0.0
 10
-6.4437250853
 20
-10.5293554964
 30
0.0
 10
-6.4424254484
 20
-10.5161872432
 30
0.0
 10
-6.4411697041
 20
-10.4999952515
 30
0.0
 10
-6.4399512216
 20
-10.4809072903
 30
0.0
 10
-6.4387876713
 20
-10.4590376453
 30
0.0
 10
-6.4376857781
 20
-10.4345306836
 30
0.0
 10
-6.4366543971
 20
-10.4075442001
 30
0.0
 10
-6.4357005791
 20
-10.3782533168
 30
0.0
 10
-6.4348309878
 20
-10.3468477987
 30
0.0
 10
-6.4340515172
 20
-10.3135311969
 30
0.0
 10
-6.4333674247
 20
-10.2785194726
 30
0.0
 10
-6.4327832797
 20
-10.2420393935
 30
0.0
 10
-6.4323029748
 20
-10.2043274417
 30
0.0
 10
-6.4319297121
 20
-10.1656306526
 30
0.0
 10
-6.43175513
 20
-10.1395315538
 30
0.0
 10
-6.4316857815
 20
-10.1263603581
 30
0.0
 11
-6.4480372372
 21
-10.5511340343
 31
0.0
 11
-6.4466380223
 21
-10.54741262
 31
0.0
 11
-6.445253408
 21
-10.5404787112
 31
0.0
 11
-6.4438927496
 21
-10.5303778416
 31
0.0
 11
-6.4425648928
 21
-10.5171756648
 31
0.0
 11
-6.4412784295
 21
-10.5009577283
 31
0.0
 11
-6.4400417021
 21
-10.4818292746
 31
0.0
 11
-6.4388627267
 21
-10.4599144187
 31
0.0
 11
-6.4377491446
 21
-10.4353553578
 31
0.0
 11
-6.4367081638
 21
-10.4083112276
 31
0.0
 11
-6.435746533
 21
-10.3789575337
 31
0.0
 11
-6.4348704752
 21
-10.3474844463
 31
0.0
 11
-6.4340856656
 21
-10.3140960624
 31
0.0
 11
-6.4333971854
 21
-10.2790088137
 31
0.0
 11
-6.4328094916
 21
-10.2424501633
 31
0.0
 11
-6.4323263818
 21
-10.2046565693
 31
0.0
 11
-6.4319509892
 21
-10.1658736029
 31
0.0
 11
-6.4316857815
 21
-10.1263603581
 31
0.0
  0
SPLINE
  5
31D
100
AcDbEntity
  8
ASSI
100
AcDbSpline
 62
253
  6
CONTINUOUS
 70
0
 71
3
 72
10
 73
6
 74
4
 42
0.0000001
 43
0.0000001
 44
0.0000000001
 12
0.0002514557
 22
-9.0950366933
 32
0.0
 13
0.0060355961
 23
-9.0950346942
 33
0.0
 40
0.0
 40
0.0
 40
0.0
 40
0.0
 40
0.3333523679
 40
0.6666867588
 40
1.0
 40
1.0
 40
1.0
 40
1.0
 10
37.941436648
 20
10.6110309877
 30
0.0
 10
37.9414645892
 20
9.6004136484
 30
0.0
 10
37.9417345316
 20
7.5792334693
 30
0.0
 10
37.9427823248
 20
4.547554731
 30
0.0
 10
37.9439092351
 20
2.5264934677
 30
0.0
 10
37.9445798165
 20
1.5159949703
 30
0.0
 11
37.941436648
 21
10.6110309877
 31
0.0
 11
37.9418416965
 21
7.5791789957
 31
0.0
 11
37.9428894541
 21
4.5474906589
 31
0.0
 11
37.9445798165
 21
1.5159949703
 31
0.0
  0
SPLINE
  5
31E
100
AcDbEntity
  8
ASSI
100
AcDbSpline
 62
253
  6
CONTINUOUS
 70
0
 71
3
 72
24
 73
20
 74
18
 42
0.0000001
 43
0.0000001
 44
0.0000000001
 12
-0.4951381098
 22
-0.0674744652
 32
0.0
 13
-0.4997144696
 23
-0.0000069948
 33
0.0
 40
0.0
 40
0.0
 40
0.0
 40
0.0
 40
0.0072410904
 40
0.0225728332
 40
0.0458757318
 40
0.0769602085
 40
0.1155730933
 40
0.1614001728
 40
0.2140673257
 40
0.2731450583
 40
0.3381511715
 40
0.4085561138
 40
0.4837853051
 40
0.5632252357
 40
0.64622704
 40
0.7321147597
 40
0.8201880871
 40
0.9097254715
 40
1.0
 40
1.0
 40
1.0
 40
1.0
 10
37.941436648
 20
10.6110309767
 30
0.0
 10
37.9402415348
 20
10.6108681138
 30
0.0
 10
37.9364716924
 20
10.6107967427
 30
0.0
 10
37.9288421838
 20
10.6105404034
 30
0.0
 10
37.9172256328
 20
10.6103779432
 30
0.0
 10
37.9017376763
 20
10.6101689325
 30
0.0
 10
37.8824947657
 20
10.6099840919
 30
0.0
 10
37.8596576083
 20
10.6098000119
 30
0.0
 10
37.8334110857
 20
10.6096280237
 30
0.0
 10
37.8039698724
 20
10.6094666683
 30
0.0
 10
37.7715739124
 20
10.6093184577
 30
0.0
 10
37.7364875084
 20
10.6091843897
 30
0.0
 10
37.6989967709
 20
10.6090657293
 30
0.0
 10
37.6594077008
 20
10.6089634666
 30
0.0
 10
37.6180431791
 20
10.6088784783
 30
0.0
 10
37.5752405449
 20
10.6088114824
 30
0.0
 10
37.5313492438
 20
10.6087630406
 30
0.0
 10
37.4867272086
 20
10.6087335617
 30
0.0
 10
37.4567756701
 20
10.6087267266
 30
0.0
 10
37.4417385074
 20
10.6087265161
 30
0.0
 11
37.941436648
 21
10.6110309767
 31
0.0
 11
37.9378245211
 21
10.6108166889
 31
0.0
 11
37.930165959
 21
10.610604763
 31
0.0
 11
37.9185230187
 21
10.6103969025
 31
0.0
 11
37.9029909704
 21
10.6101948273
 31
0.0
 11
37.8836965349
 21
10.6100001799
 31
0.0
 11
37.8607968325
 21
10.6098145496
 31
0.0
 11
37.8344788766
 21
10.6096394539
 31
0.0
 11
37.8049573295
 21
10.6094763232
 31
0.0
 11
37.7724731797
 21
10.6093264907
 31
0.0
 11
37.7372910715
 21
10.6091911795
 31
0.0
 11
37.6996981465
 21
10.6090714962
 31
0.0
 11
37.6600009976
 21
10.6089684191
 31
0.0
 11
37.6185238833
 21
10.6088827913
 31
0.0
 11
37.5756046001
 21
10.6088153123
 31
0.0
 11
37.531593111
 21
10.6087665328
 31
0.0
 11
37.4868499943
 21
10.6087368543
 31
0.0
 11
37.4417385074
 21
10.6087265161
 31
0.0
  0
SPLINE
  5
31F
100
AcDbEntity
  8
ASSI
100
AcDbSpline
 62
253
  6
CONTINUOUS
 70
0
 71
3
 72
23
 73
19
 74
17
 42
0.0000001
 43
0.0000001
 44
0.0000000001
 12
-0.4390227157
 22
-0.2392018116
 32
0.0
 13
-0.4999583399
 23
-0.0003316598
 33
0.0
 40
0.0
 40
0.0
 40
0.0
 40
0.0
 40
0.008152361
 40
0.0253232964
 40
0.051431694
 40
0.0862550999
 40
0.1294799963
 40
0.180712013
 40
0.2394815731
 40
0.3052489593
 40
0.3774096104
 40
0.4552998516
 40
0.5382030955
 40
0.6253564931
 40
0.7159579915
 40
0.8091737417
 40
0.9041457919
 40
1.0
 40
1.0
 40
1.0
 40
1.0
 10
37.9445798165
 20
1.5159949703
 30
0.0
 10
37.9433867926
 20
1.5153449504
 30
0.0
 10
37.9390345115
 20
1.5149589853
 30
0.0
 10
37.9306376743
 20
1.5139288584
 30
0.0
 10
37.9175783818
 20
1.5132049586
 30
0.0
 10
37.90026837
 20
1.5123274251
 30
0.0
 10
37.8787277815
 20
1.5115362365
 30
0.0
 10
37.8532073756
 20
1.5107567523
 30
0.0
 10
37.8239227515
 20
1.510029302
 30
0.0
 10
37.7911498449
 20
1.5093513629
 30
0.0
 10
37.7551882567
 20
1.5087332935
 30
0.0
 10
37.7163697203
 20
1.5081801872
 30
0.0
 10
37.6750514395
 20
1.5076977635
 30
0.0
 10
37.6316139028
 20
1.5072905732
 30
0.0
 10
37.586457041
 20
1.5069625336
 30
0.0
 10
37.5399966404
 20
1.5067167518
 30
0.0
 10
37.4926604882
 20
1.5065555541
 30
0.0
 10
37.4608587732
 20
1.5065055673
 30
0.0
 10
37.444884403
 20
1.5064949703
 30
0.0
 11
37.9445798165
 21
1.5159949703
 31
0.0
 11
37.9406071102
 21
1.5150838771
 31
0.0
 11
37.9320699485
 21
1.514181173
 31
0.0
 11
37.9190469387
 21
1.5132951697
 31
0.0
 11
37.9016579926
 21
1.5124340253
 31
0.0
 11
37.8800632221
 21
1.511605669
 31
0.0
 11
37.8544614647
 21
1.5108177279
 31
0.0
 11
37.8250884534
 21
1.5100774572
 31
0.0
 11
37.7922146453
 21
1.5093916731
 31
0.0
 11
37.7561427318
 21
1.5087666901
 31
0.0
 11
37.7172048517
 21
1.5082082627
 31
0.0
 11
37.6757595324
 21
1.5077215328
 31
0.0
 11
37.632188389
 21
1.507310982
 31
0.0
 11
37.5868926107
 21
1.5069803907
 31
0.0
 11
37.5402892664
 21
1.5067328027
 31
0.0
 11
37.4928074648
 21
1.5065704977
 31
0.0
 11
37.444884403
 21
1.5064949703
 31
0.0
  0
SPLINE
  5
320
100
AcDbEntity
  8
ASSI
100
AcDbSpline
 62
253
  6
CONTINUOUS
 70
0
 71
3
 72
23
 73
19
 74
17
 42
0.0000001
 43
0.0000001
 44
0.0000000001
 12
-0.1156656166
 22
-0.4999835144
 32
0.0
 13
-0.5131813232
 23
-0.0026417985
 33
0.0
 40
0.0
 40
0.0
 40
0.0
 40
0.0
 40
0.0159236402
 40
0.037519705
 40
0.0662667634
 40
0.1026032067
 40
0.1465356752
 40
0.197849916
 40
0.2561916431
 40
0.3211034949
 40
0.3920454012
 40
0.4684080643
 40
0.5495234077
 40
0.6346736632
 40
0.7230998673
 40
0.8140101335
 40
0.9065878679
 40
1.0
 40
1.0
 40
1.0
 40
1.0
 10
37.9789426704
 20
-10.1263603581
 30
0.0
 10
37.9783287311
 20
-10.1290142106
 30
0.0
 10
37.9747174245
 20
-10.1346885169
 30
0.0
 10
37.9656270869
 20
-10.1415748649
 30
0.0
 10
37.9523893971
 20
-10.1483722518
 30
0.0
 10
37.9349204602
 20
-10.1549630921
 30
0.0
 10
37.9133203887
 20
-10.1613461884
 30
0.0
 10
37.8877525312
 20
-10.1674331029
 30
0.0
 10
37.8584396962
 20
-10.1731672101
 30
0.0
 10
37.8256441588
 20
-10.1784877086
 30
0.0
 10
37.7896642634
 20
-10.1833424948
 30
0.0
 10
37.7508291121
 20
-10.1876839346
 30
0.0
 10
37.7094950587
 20
-10.1914702367
 30
0.0
 10
37.6660419494
 20
-10.194665181
 30
0.0
 10
37.6208694591
 20
-10.1972384137
 30
0.0
 10
37.5743932335
 20
-10.1991655878
 30
0.0
 10
37.5270411949
 20
-10.2004285314
 30
0.0
 10
37.4952263774
 20
-10.2008191872
 30
0.0
 10
37.4792472569
 20
-10.2009014459
 30
0.0
 11
37.9789426704
 21
-10.1263603581
 31
0.0
 11
37.9749868115
 21
-10.1335108736
 31
0.0
 11
37.9664640617
 21
-10.1405955166
 31
0.0
 11
37.9534529347
 21
-10.1475490212
 31
0.0
 11
37.9360732929
 21
-10.15430733
 31
0.0
 11
37.9144852422
 21
-10.1608081834
 31
0.0
 11
37.8888876579
 21
-10.1669916939
 31
0.0
 11
37.859516352
 21
-10.1728008971
 31
0.0
 11
37.8266419011
 21
-10.1781822771
 31
0.0
 11
37.7905671539
 21
-10.1830862591
 31
0.0
 11
37.7516244411
 21
-10.1874676663
 31
0.0
 11
37.7101725136
 21
-10.1912861359
 31
0.0
 11
37.6665932383
 21
-10.194506491
 31
0.0
 11
37.6212880796
 21
-10.197099065
 31
0.0
 11
37.5746744012
 21
-10.1990399743
 31
0.0
 11
37.5271816214
 21
-10.2003113386
 31
0.0
 11
37.4792472569
 21
-10.2009014459
 31
0.0
  0
SPLINE
  5
321
100
AcDbEntity
  8
ASSI
100
AcDbSpline
 62
253
  6
CONTINUOUS
 70
0
 71
3
 72
24
 73
20
 74
18
 42
0.0000001
 43
0.0000001
 44
0.0000000001
 12
0.0022370123
 22
-0.8499340702
 32
0.0
 13
0.2685899292
 23
-0.8063822777
 33
0.0
 40
0.0
 40
0.0
 40
0.0
 40
0.0
 40
0.0929977429
 40
0.184256553
 40
0.2731879617
 40
0.3592144101
 40
0.441779768
 40
0.52034911
 40
0.5944135008
 40
0.6634931372
 40
0.7271410503
 40
0.784944825
 40
0.836530752
 40
0.8815652918
 40
0.9197580269
 40
0.9508640559
 40
0.9746874526
 40
0.9910862544
 40
1.0
 40
1.0
 40
1.0
 40
1.0
 10
37.4792472569
 20
-10.2009014493
 30
0.0
 10
37.4793166026
 20
-10.227248766
 30
0.0
 10
37.4794912372
 20
-10.2794506505
 30
0.0
 10
37.4798644953
 20
-10.3568472986
 30
0.0
 10
37.4803448223
 20
-10.4322682676
 30
0.0
 10
37.480928943
 20
-10.5052254682
 30
0.0
 10
37.4816130219
 20
-10.5752459692
 30
0.0
 10
37.4823924615
 20
-10.6418762593
 30
0.0
 10
37.4832620096
 20
-10.7046844313
 30
0.0
 10
37.4842157875
 20
-10.7632634293
 30
0.0
 10
37.485247053
 20
-10.8172335776
 30
0.0
 10
37.4863489953
 20
-10.8662448635
 30
0.0
 10
37.4875119476
 20
-10.909980259
 30
0.0
 10
37.4887315981
 20
-10.9481540264
 30
0.0
 10
37.4899828732
 20
-10.9805257574
 30
0.0
 10
37.4912927512
 20
-11.0068670912
 30
0.0
 10
37.492534024
 20
-11.0270611381
 30
0.0
 10
37.493916188
 20
-11.0408709685
 30
0.0
 10
37.4948006651
 20
-11.0480528395
 30
0.0
 10
37.4955987125
 20
-11.0504488016
 30
0.0
 11
37.4792472569
 21
-10.2009014493
 31
0.0
 11
37.47951253
 21
-10.2799432281
 31
0.0
 11
37.4798879175
 21
-10.3575065603
 31
0.0
 11
37.4803710362
 21
-10.4330911123
 31
0.0
 11
37.4809587206
 21
-10.5062058131
 31
0.0
 11
37.4816471901
 21
-10.5763777896
 31
0.0
 11
37.4824319804
 21
-10.6431521699
 31
0.0
 11
37.4833080135
 21
-10.7060961412
 31
0.0
 11
37.4842696141
 21
-10.7648016061
 31
0.0
 11
37.4853105607
 21
-10.8188883073
 31
0.0
 11
37.4864241053
 21
-10.8680052538
 31
0.0
 11
37.4876030409
 21
-10.9118341896
 31
0.0
 11
37.4888397257
 21
-10.9500907285
 31
0.0
 11
37.4901261493
 21
-10.9825266477
 31
0.0
 11
37.4914539548
 21
-11.0089314488
 31
0.0
 11
37.4928145935
 21
-11.0291340681
 31
0.0
 11
37.4941991179
 21
-11.0430030804
 31
0.0
 11
37.4955987125
 21
-11.0504488016
 31
0.0
  0
SPLINE
  5
322
100
AcDbEntity
  8
ASSI
100
AcDbSpline
 62
253
  6
CONTINUOUS
 70
0
 71
3
 72
24
 73
20
 74
18
 42
0.0000001
 43
0.0000001
 44
0.0000000001
 12
0.0022405343
 22
-0.425539131
 32
0.0
 13
0.2359406645
 23
-0.3541476737
 33
0.0
 40
0.0
 40
0.0
 40
0.0
 40
0.0
 40
0.092855355
 40
0.1839967866
 40
0.2728162512
 40
0.3587375314
 40
0.4412058963
 40
0.5196878524
 40
0.5936759745
 40
0.6626920345
 40
0.7262908445
 40
0.7840621562
 40
0.8356349505
 40
0.8806792824
 40
0.9189099719
 40
0.9500906576
 40
0.9740413608
 40
0.9906572345
 40
1.0
 40
1.0
 40
1.0
 40
1.0
 10
37.9789426704
 20
-10.1263603581
 30
0.0
 10
37.9790120189
 20
-10.1395315538
 30
0.0
 10
37.979186601
 20
-10.1656306526
 30
0.0
 10
37.9795598636
 20
-10.2043274417
 30
0.0
 10
37.9800401686
 20
-10.2420393935
 30
0.0
 10
37.9806243136
 20
-10.2785194726
 30
0.0
 10
37.9813084061
 20
-10.3135311969
 30
0.0
 10
37.9820878767
 20
-10.3468477987
 30
0.0
 10
37.982957468
 20
-10.3782533168
 30
0.0
 10
37.983911286
 20
-10.4075442001
 30
0.0
 10
37.984942667
 20
-10.4345306836
 30
0.0
 10
37.9860445602
 20
-10.4590376453
 30
0.0
 10
37.9872081105
 20
-10.4809072903
 30
0.0
 10
37.988426593
 20
-10.4999952515
 30
0.0
 10
37.9896823373
 20
-10.5161872432
 30
0.0
 10
37.9909819742
 20
-10.5293554964
 30
0.0
 10
37.9922533946
 20
-10.5394856354
 30
0.0
 10
37.9935858045
 20
-10.5463822779
 30
0.0
 10
37.9945593466
 20
-10.550031128
 30
0.0
 10
37.995294126
 20
-10.5511340343
 30
0.0
 11
37.9789426704
 21
-10.1263603581
 31
0.0
 11
37.9792078781
 21
-10.1658736029
 31
0.0
 11
37.9795832707
 21
-10.2046565693
 31
0.0
 11
37.9800663805
 21
-10.2424501633
 31
0.0
 11
37.9806540743
 21
-10.2790088137
 31
0.0
 11
37.9813425545
 21
-10.3140960624
 31
0.0
 11
37.9821273641
 21
-10.3474844463
 31
0.0
 11
37.9830034219
 21
-10.3789575337
 31
0.0
 11
37.9839650527
 21
-10.4083112276
 31
0.0
 11
37.9850060335
 21
-10.4353553578
 31
0.0
 11
37.9861196156
 21
-10.4599144187
 31
0.0
 11
37.9872985909
 21
-10.4818292746
 31
0.0
 11
37.9885353184
 21
-10.5009577283
 31
0.0
 11
37.9898217817
 21
-10.5171756648
 31
0.0
 11
37.9911496385
 21
-10.5303778416
 31
0.0
 11
37.9925102969
 21
-10.5404787112
 31
0.0
 11
37.9938949112
 21
-10.54741262
 31
0.0
 11
37.995294126
 21
-10.5511340343
 31
0.0
  0
SPLINE
  5
323
100
AcDbEntity
  8
ASSI
100
AcDbSpline
 62
253
  6
CONTINUOUS
 70
0
 71
3
 72
10
 73
6
 74
4
 42
0.0000001
 43
0.0000001
 44
0.0000000001
 12
0.0060355961
 22
9.0950346942
 32
0.0
 13
0.0002514557
 23
9.0950366933
 33
0.0
 40
0.0
 40
0.0
 40
0.0
 40
0.0
 40
0.3333132412
 40
0.6666476321
 40
1.0
 40
1.0
 40
1.0
 40
1.0
 10
-6.3973229276
 20
1.5159949703
 30
0.0
 10
-6.3966523462
 20
2.5264934677
 30
0.0
 10
-6.3955254359
 20
4.547554731
 30
0.0
 10
-6.3944776427
 20
7.5792334693
 30
0.0
 10
-6.3942077003
 20
9.6004136484
 30
0.0
 10
-6.3941797592
 20
10.6110309877
 30
0.0
 11
-6.3973229276
 21
1.5159949703
 31
0.0
 11
-6.3956325652
 21
4.5474906589
 31
0.0
 11
-6.3945848076
 21
7.5791789957
 31
0.0
 11
-6.3941797592
 21
10.6110309877
 31
0.0
  0
SPLINE
  5
324
100
AcDbEntity
  8
ASSI
100
AcDbSpline
 62
253
  6
CONTINUOUS
 70
0
 71
3
 72
23
 73
19
 74
17
 42
0.0000001
 43
0.0000001
 44
0.0000000001
 12
0.4390227135
 22
-0.2392018158
 32
0.0
 13
0.4999583399
 23
-0.0003316598
 33
0.0
 40
0.0
 40
0.0
 40
0.0
 40
0.0
 40
0.0081523609
 40
0.0253232963
 40
0.0514316938
 40
0.0862550996
 40
0.1294799961
 40
0.1807120127
 40
0.2394815728
 40
0.305248959
 40
0.3774096101
 40
0.4552998514
 40
0.5382030953
 40
0.6253564929
 40
0.7159579914
 40
0.8091737416
 40
0.9041457919
 40
1.0
 40
1.0
 40
1.0
 40
1.0
 10
-6.3973229276
 20
1.5159949703
 30
0.0
 10
-6.3961299037
 20
1.5153449504
 30
0.0
 10
-6.3917776226
 20
1.5149589853
 30
0.0
 10
-6.3833807855
 20
1.5139288584
 30
0.0
 10
-6.370321493
 20
1.5132049586
 30
0.0
 10
-6.3530114812
 20
1.5123274251
 30
0.0
 10
-6.3314708928
 20
1.5115362365
 30
0.0
 10
-6.3059504868
 20
1.5107567523
 30
0.0
 10
-6.2766658627
 20
1.510029302
 30
0.0
 10
-6.2438929562
 20
1.5093513629
 30
0.0
 10
-6.207931368
 20
1.5087332935
 30
0.0
 10
-6.1691128315
 20
1.5081801872
 30
0.0
 10
-6.1277945507
 20
1.5076977635
 30
0.0
 10
-6.084357014
 20
1.5072905732
 30
0.0
 10
-6.0392001522
 20
1.5069625336
 30
0.0
 10
-5.9927397516
 20
1.5067167518
 30
0.0
 10
-5.9454035994
 20
1.5065555541
 30
0.0
 10
-5.9136018844
 20
1.5065055673
 30
0.0
 10
-5.8976275141
 20
1.5064949703
 30
0.0
 11
-6.3973229276
 21
1.5159949703
 31
0.0
 11
-6.3933502213
 21
1.5150838771
 31
0.0
 11
-6.3848130596
 21
1.514181173
 31
0.0
 11
-6.3717900499
 21
1.5132951697
 31
0.0
 11
-6.3544011039
 21
1.5124340253
 31
0.0
 11
-6.3328063333
 21
1.511605669
 31
0.0
 11
-6.307204576
 21
1.5108177279
 31
0.0
 11
-6.2778315646
 21
1.5100774572
 31
0.0
 11
-6.2449577565
 21
1.5093916731
 31
0.0
 11
-6.2088858431
 21
1.50876669
 31
0.0
 11
-6.1699479629
 21
1.5082082627
 31
0.0
 11
-6.1285026436
 21
1.5077215328
 31
0.0
 11
-6.0849315002
 21
1.507310982
 31
0.0
 11
-6.0396357218
 21
1.5069803907
 31
0.0
 11
-5.9930323775
 21
1.5067328027
 31
0.0
 11
-5.9455505759
 21
1.5065704977
 31
0.0
 11
-5.8976275141
 21
1.5064949703
 31
0.0
  0
SPLINE
  5
325
100
AcDbEntity
  8
ASSI
100
AcDbSpline
 62
253
  6
CONTINUOUS
 70
0
 71
3
 72
24
 73
20
 74
18
 42
0.0000001
 43
0.0000001
 44
0.0000000001
 12
-0.2498750154
 22
0.0000000277
 32
0.0
 13
-0.2424250812
 23
0.0605607405
 33
0.0
 40
0.0
 40
0.0
 40
0.0
 40
0.0
 40
0.0902519062
 40
0.1797846795
 40
0.2678529052
 40
0.3537361738
 40
0.4367339978
 40
0.5161705145
 40
0.5913968937
 40
0.6617996696
 40
0.7268041989
 40
0.7858808583
 40
0.8385476229
 40
0.8843752391
 40
0.9229899153
 40
0.9540780319
 40
0.9773873145
 40
0.9927312008
 40
1.0
 40
1.0
 40
1.0
 40
1.0
 10
-5.8944843017
 20
10.8589158821
 30
0.0
 10
-5.9020015338
 20
10.8589158829
 30
0.0
 10
-5.916976101
 20
10.8589217636
 30
0.0
 10
-5.9392860039
 20
10.8589481991
 30
0.0
 10
-5.9612320079
 20
10.8589920161
 30
0.0
 10
-5.9826336623
 20
10.8590528481
 30
0.0
 10
-6.0033163096
 20
10.8591301827
 30
0.0
 10
-6.023111252
 20
10.8592233703
 30
0.0
 10
-6.0418570407
 20
10.8593316125
 30
0.0
 10
-6.0594006463
 20
10.8594540071
 30
0.0
 10
-6.0755989942
 20
10.8595894054
 30
0.0
 10
-6.0903198537
 20
10.859736881
 30
0.0
 10
-6.1034434093
 20
10.8598941933
 30
0.0
 10
-6.1148618325
 20
10.8600625091
 30
0.0
 10
-6.124484214
 20
10.8602319661
 30
0.0
 10
-6.1322260811
 20
10.8604225785
 30
0.0
 10
-6.1380401506
 20
10.8605732497
 30
0.0
 10
-6.1418455671
 20
10.8608045192
 30
0.0
 10
-6.1437445759
 20
10.8608747097
 30
0.0
 10
-6.1443319556
 20
10.8610214443
 30
0.0
 11
-5.8944843017
 21
10.8589158821
 31
0.0
 11
-5.9170359964
 21
10.8589247767
 31
0.0
 11
-5.9394079837
 21
10.858951395
 31
0.0
 11
-5.9614139887
 21
10.8589955205
 31
0.0
 11
-5.9828739843
 21
10.8590567932
 31
0.0
 11
-6.0036129204
 21
10.8591347129
 31
0.0
 11
-6.023461899
 21
10.8592286454
 31
0.0
 11
-6.0422587746
 21
10.8593378238
 31
0.0
 11
-6.0598502355
 21
10.8594613576
 31
0.0
 11
-6.0760926665
 21
10.8595982385
 31
0.0
 11
-6.0908536946
 21
10.8597473507
 31
0.0
 11
-6.104012829
 21
10.8599074772
 31
0.0
 11
-6.1154627458
 21
10.8600773121
 31
0.0
 11
-6.1251099437
 21
10.860255468
 31
0.0
 11
-6.1328758835
 21
10.8604404938
 31
0.0
 11
-6.1386971784
 21
10.8606308804
 31
0.0
 11
-6.1425263113
 21
10.8608250701
 31
0.0
 11
-6.1443319556
 21
10.8610214443
 31
0.0
  0
SPLINE
  5
326
100
AcDbEntity
  8
ASSI
100
AcDbSpline
 62
253
  6
CONTINUOUS
 70
0
 71
3
 72
24
 73
20
 74
18
 42
0.0000001
 43
0.0000001
 44
0.0000000001
 12
-0.2424250813
 22
-0.0605607403
 32
0.0
 13
-0.2498750154
 23
-0.0000000277
 33
0.0
 40
0.0
 40
0.0
 40
0.0
 40
0.0
 40
0.0072687992
 40
0.0226126855
 40
0.0459219681
 40
0.0770100847
 40
0.1156247608
 40
0.1614523771
 40
0.2141191417
 40
0.2731958011
 40
0.3382003304
 40
0.4086031063
 40
0.4838294855
 40
0.5632660021
 40
0.6462638261
 40
0.7321470947
 40
0.8202153205
 40
0.9097480937
 40
1.0
 40
1.0
 40
1.0
 40
1.0
 10
37.6915888445
 20
10.8610214443
 30
0.0
 10
37.6910014648
 20
10.8608747097
 30
0.0
 10
37.689102456
 20
10.8608045192
 30
0.0
 10
37.6852970394
 20
10.8605732497
 30
0.0
 10
37.67948297
 20
10.8604225785
 30
0.0
 10
37.6717411029
 20
10.8602319661
 30
0.0
 10
37.6621187214
 20
10.8600625091
 30
0.0
 10
37.6507002982
 20
10.8598941933
 30
0.0
 10
37.6375767426
 20
10.859736881
 30
0.0
 10
37.6228558831
 20
10.8595894054
 30
0.0
 10
37.6066575352
 20
10.8594540071
 30
0.0
 10
37.5891139296
 20
10.8593316125
 30
0.0
 10
37.5703681409
 20
10.8592233703
 30
0.0
 10
37.5505731985
 20
10.8591301827
 30
0.0
 10
37.5298905512
 20
10.8590528481
 30
0.0
 10
37.5084888968
 20
10.8589920161
 30
0.0
 10
37.4865428928
 20
10.8589481991
 30
0.0
 10
37.4642329899
 20
10.8589217636
 30
0.0
 10
37.4492584227
 20
10.8589158829
 30
0.0
 10
37.4417411906
 20
10.8589158821
 30
0.0
 11
37.6915888445
 21
10.8610214443
 31
0.0
 11
37.6897832002
 21
10.8608250701
 31
0.0
 11
37.6859540673
 21
10.8606308804
 31
0.0
 11
37.6801327724
 21
10.8604404938
 31
0.0
 11
37.6723668326
 21
10.860255468
 31
0.0
 11
37.6627196347
 21
10.8600773121
 31
0.0
 11
37.6512697179
 21
10.8599074772
 31
0.0
 11
37.6381105835
 21
10.8597473507
 31
0.0
 11
37.6233495554
 21
10.8595982385
 31
0.0
 11
37.6071071244
 21
10.8594613576
 31
0.0
 11
37.5895156635
 21
10.8593378238
 31
0.0
 11
37.5707187879
 21
10.8592286454
 31
0.0
 11
37.5508698093
 21
10.8591347129
 31
0.0
 11
37.5301308732
 21
10.8590567932
 31
0.0
 11
37.5086708776
 21
10.8589955205
 31
0.0
 11
37.4866648726
 21
10.858951395
 31
0.0
 11
37.4642928853
 21
10.8589247767
 31
0.0
 11
37.4417411906
 21
10.8589158821
 31
0.0
  0
SPLINE
  5
327
100
AcDbEntity
  8
ASSI
100
AcDbSpline
 62
253
  6
CONTINUOUS
 70
0
 71
3
 72
24
 73
20
 74
18
 42
0.0000001
 43
0.0000001
 44
0.0000000001
 12
-0.4997144696
 22
0.0000069948
 32
0.0
 13
-0.4951381098
 23
0.0674744651
 33
0.0
 40
0.0
 40
0.0
 40
0.0
 40
0.0
 40
0.0902745285
 40
0.1798119128
 40
0.2678852403
 40
0.3537729599
 40
0.4367747643
 40
0.5162146948
 40
0.5914438862
 40
0.6618488285
 40
0.7268549417
 40
0.7859326743
 40
0.8385998271
 40
0.8844269067
 40
0.9230397915
 40
0.9541242682
 40
0.9774271668
 40
0.9927589096
 40
1.0
 40
1.0
 40
1.0
 40
1.0
 10
-5.8944816185
 20
10.6087265161
 30
0.0
 10
-5.9095187812
 20
10.6087267266
 30
0.0
 10
-5.9394703197
 20
10.6087335617
 30
0.0
 10
-5.9840923549
 20
10.6087630406
 30
0.0
 10
-6.027983656
 20
10.6088114824
 30
0.0
 10
-6.0707862902
 20
10.6088784783
 30
0.0
 10
-6.1121508119
 20
10.6089634666
 30
0.0
 10
-6.1517398819
 20
10.6090657293
 30
0.0
 10
-6.1892306195
 20
10.6091843897
 30
0.0
 10
-6.2243170234
 20
10.6093184577
 30
0.0
 10
-6.2567129835
 20
10.6094666683
 30
0.0
 10
-6.2861541968
 20
10.6096280237
 30
0.0
 10
-6.3124007194
 20
10.6098000119
 30
0.0
 10
-6.3352378768
 20
10.6099840919
 30
0.0
 10
-6.3544807874
 20
10.6101689325
 30
0.0
 10
-6.3699687439
 20
10.6103779432
 30
0.0
 10
-6.3815852949
 20
10.6105404034
 30
0.0
 10
-6.3892148035
 20
10.6107967427
 30
0.0
 10
-6.3929846459
 20
10.6108681138
 30
0.0
 10
-6.3941797592
 20
10.6110309767
 30
0.0
 11
-5.8944816185
 21
10.6087265161
 31
0.0
 11
-5.9395931054
 21
10.6087368543
 31
0.0
 11
-5.9843362221
 21
10.6087665328
 31
0.0
 11
-6.0283477112
 21
10.6088153123
 31
0.0
 11
-6.0712669944
 21
10.6088827913
 31
0.0
 11
-6.1127441087
 21
10.6089684191
 31
0.0
 11
-6.1524412576
 21
10.6090714962
 31
0.0
 11
-6.1900341826
 21
10.6091911795
 31
0.0
 11
-6.2252162908
 21
10.6093264907
 31
0.0
 11
-6.2577004406
 21
10.6094763232
 31
0.0
 11
-6.2872219877
 21
10.6096394539
 31
0.0
 11
-6.3135399436
 21
10.6098145496
 31
0.0
 11
-6.336439646
 21
10.6100001799
 31
0.0
 11
-6.3557340815
 21
10.6101948273
 31
0.0
 11
-6.3712661298
 21
10.6103969025
 31
0.0
 11
-6.3829090701
 21
10.610604763
 31
0.0
 11
-6.3905676322
 21
10.6108166889
 31
0.0
 11
-6.3941797592
 21
10.6110309767
 31
0.0
  0
SPLINE
  5
328
100
AcDbEntity
  8
ASSI
100
AcDbSpline
 62
253
  6
CONTINUOUS
 70
0
 71
3
 72
23
 73
19
 74
17
 42
0.0000001
 43
0.0000001
 44
0.0000000001
 12
0.1156655032
 22
-0.499983543
 32
0.0
 13
0.5131813254
 23
-0.0026417988
 33
0.0
 40
0.0
 40
0.0
 40
0.0
 40
0.0
 40
0.015923639
 40
0.0375197021
 40
0.0662667587
 40
0.1026032005
 40
0.1465356677
 40
0.1978499076
 40
0.2561916344
 40
0.3211034861
 40
0.3920453925
 40
0.4684080562
 40
0.5495234005
 40
0.6346736571
 40
0.7230998625
 40
0.8140101302
 40
0.9065878662
 40
1.0
 40
1.0
 40
1.0
 40
1.0
 10
-6.4316857815
 20
-10.1263603581
 30
0.0
 10
-6.4310718429
 20
-10.1290142106
 30
0.0
 10
-6.4274605375
 20
-10.1346885172
 30
0.0
 10
-6.4183702009
 20
-10.1415748655
 30
0.0
 10
-6.4051325123
 20
-10.1483722526
 30
0.0
 10
-6.3876635761
 20
-10.1549630932
 30
0.0
 10
-6.3660635052
 20
-10.1613461897
 30
0.0
 10
-6.3404956481
 20
-10.1674331046
 30
0.0
 10
-6.3111828133
 20
-10.173167212
 30
0.0
 10
-6.2783872758
 20
-10.1784877107
 30
0.0
 10
-6.2424073802
 20
-10.1833424971
 30
0.0
 10
-6.2035722285
 20
-10.1876839373
 30
0.0
 10
-6.1622381745
 20
-10.1914702395
 30
0.0
 10
-6.1187850644
 20
-10.1946651841
 30
0.0
 10
-6.0736125732
 20
-10.1972384169
 30
0.0
 10
-6.0271363467
 20
-10.1991655911
 30
0.0
 10
-5.979784307
 20
-10.2004285348
 30
0.0
 10
-5.9479694888
 20
-10.2008191906
 30
0.0
 10
-5.931990368
 20
-10.2009014493
 30
0.0
 11
-6.4316857815
 21
-10.1263603581
 31
0.0
 11
-6.4277299242
 21
-10.1335108738
 31
0.0
 11
-6.4192071757
 21
-10.140595517
 31
0.0
 11
-6.4061960499
 21
-10.147549022
 31
0.0
 11
-6.3888164089
 21
-10.154307331
 31
0.0
 11
-6.3672283588
 21
-10.1608081847
 31
0.0
 11
-6.3416307749
 21
-10.1669916955
 31
0.0
 11
-6.3122594691
 21
-10.172800899
 31
0.0
 11
-6.2793850182
 21
-10.1781822792
 31
0.0
 11
-6.2433102708
 21
-10.1830862615
 31
0.0
 11
-6.2043675575
 21
-10.1874676689
 31
0.0
 11
-6.1629156294
 21
-10.1912861387
 31
0.0
 11
-6.1193363534
 21
-10.194506494
 31
0.0
 11
-6.0740311938
 21
-10.1970990682
 31
0.0
 11
-6.0274175144
 21
-10.1990399775
 31
0.0
 11
-5.9799247336
 21
-10.200311342
 31
0.0
 11
-5.931990368
 21
-10.2009014493
 31
0.0
  0
SPLINE
  5
329
100
AcDbEntity
  8
ASSI
100
AcDbSpline
 62
253
  6
CONTINUOUS
 70
0
 71
3
 72
24
 73
20
 74
18
 42
0.0000001
 43
0.0000001
 44
0.0000000001
 12
0.2685899298
 22
0.8063822775
 32
0.0
 13
0.0022370123
 23
0.8499340702
 33
0.0
 40
0.0
 40
0.0
 40
0.0
 40
0.0
 40
0.0089137456
 40
0.0253125474
 40
0.0491359441
 40
0.0802419731
 40
0.1184347082
 40
0.163469248
 40
0.215055175
 40
0.2728589497
 40
0.3365068628
 40
0.4055864992
 40
0.47965089
 40
0.558220232
 40
0.6407855899
 40
0.7268120383
 40
0.815743447
 40
0.9070022571
 40
1.0
 40
1.0
 40
1.0
 40
1.0
 10
-5.9483418236
 20
-11.0504488016
 30
0.0
 10
-5.9475437762
 20
-11.0480528395
 30
0.0
 10
-5.9466592991
 20
-11.0408709685
 30
0.0
 10
-5.9452771351
 20
-11.0270611381
 30
0.0
 10
-5.9440358623
 20
-11.0068670912
 30
0.0
 10
-5.9427259843
 20
-10.9805257574
 30
0.0
 10
-5.9414747092
 20
-10.9481540264
 30
0.0
 10
-5.9402550587
 20
-10.909980259
 30
0.0
 10
-5.9390921064
 20
-10.8662448635
 30
0.0
 10
-5.9379901641
 20
-10.8172335776
 30
0.0
 10
-5.9369588986
 20
-10.7632634293
 30
0.0
 10
-5.9360051207
 20
-10.7046844313
 30
0.0
 10
-5.9351355727
 20
-10.6418762593
 30
0.0
 10
-5.934356133
 20
-10.5752459692
 30
0.0
 10
-5.9336720541
 20
-10.5052254682
 30
0.0
 10
-5.9330879334
 20
-10.4322682676
 30
0.0
 10
-5.9326076064
 20
-10.3568472986
 30
0.0
 10
-5.9322343483
 20
-10.2794506505
 30
0.0
 10
-5.9320597137
 20
-10.227248766
 30
0.0
 10
-5.931990368
 20
-10.2009014493
 30
0.0
 11
-5.9483418236
 21
-11.0504488016
 31
0.0
 11
-5.946942229
 21
-11.0430030804
 31
0.0
 11
-5.9455577047
 21
-11.0291340681
 31
0.0
 11
-5.9441970659
 21
-11.0089314488
 31
0.0
 11
-5.9428692604
 21
-10.9825266477
 31
0.0
 11
-5.9415828368
 21
-10.9500907285
 31
0.0
 11
-5.940346152
 21
-10.9118341896
 31
0.0
 11
-5.9391672164
 21
-10.8680052538
 31
0.0
 11
-5.9380536718
 21
-10.8188883073
 31
0.0
 11
-5.9370127252
 21
-10.7648016061
 31
0.0
 11
-5.9360511246
 21
-10.7060961412
 31
0.0
 11
-5.9351750915
 21
-10.6431521699
 31
0.0
 11
-5.9343903013
 21
-10.5763777896
 31
0.0
 11
-5.9337018317
 21
-10.5062058131
 31
0.0
 11
-5.9331141474
 21
-10.4330911123
 31
0.0
 11
-5.9326310286
 21
-10.3575065603
 31
0.0
 11
-5.9322556411
 21
-10.2799432281
 31
0.0
 11
-5.931990368
 21
-10.2009014493
 31
0.0
  0
SPLINE
  5
32A
100
AcDbEntity
  8
RACCORDO
100
AcDbSpline
 62
253
  6
CONTINUOUS
 70
0
 71
3
 72
21
 73
17
 74
15
 42
0.0000001
 43
0.0000001
 44
0.0000000001
 12
-0.0021831839
 22
0.2504731391
 32
0.0
 13
0.2504731158
 23
0.0021858458
 33
0.0
 40
0.0
 40
0.0
 40
0.0
 40
0.0
 40
0.1117254707
 40
0.2220443826
 40
0.3295717424
 40
0.4329577933
 40
0.5309050832
 40
0.6221849176
 40
0.7056530314
 40
0.7802643551
 40
0.8450868632
 40
0.8993147599
 40
0.9422821117
 40
0.9734815232
 40
0.9926137743
 40
1.0
 40
1.0
 40
1.0
 40
1.0
 10
-26.8823100884
 20
10.6110309635
 30
0.0
 10
-26.8823913942
 20
10.62035904
 30
0.0
 10
-26.882516884
 20
10.6388980921
 30
0.0
 10
-26.8825946368
 20
10.6664153927
 30
0.0
 10
-26.8825606099
 20
10.6932364735
 30
0.0
 10
-26.8824153828
 20
10.7190243039
 30
0.0
 10
-26.8821610018
 20
10.743454358
 30
0.0
 10
-26.8818010898
 20
10.7662208994
 30
0.0
 10
-26.8813405685
 20
10.787033476
 30
0.0
 10
-26.8807867599
 20
10.8056445165
 30
0.0
 10
-26.8801464401
 20
10.8217775668
 30
0.0
 10
-26.8794359868
 20
10.8353560871
 30
0.0
 10
-26.8786560355
 20
10.8458671582
 30
0.0
 10
-26.8778674132
 20
10.8540392772
 30
0.0
 10
-26.8770444145
 20
10.8580290802
 30
0.0
 10
-26.8763835318
 20
10.8610160626
 30
0.0
 10
-26.8757668481
 20
10.8610214443
 30
0.0
 11
-26.8823100884
 21
10.6110309635
 31
0.0
 11
-26.8824991704
 21
10.6390156171
 31
0.0
 11
-26.8825761977
 21
10.6666484835
 31
0.0
 11
-26.8825402018
 21
10.6935821979
 31
0.0
 11
-26.8823916354
 21
10.7194781841
 31
0.0
 11
-26.882132366
 21
10.7440109112
 31
0.0
 11
-26.8817656529
 21
10.7668719853
 31
0.0
 11
-26.8812961058
 21
10.7877740266
 31
0.0
 11
-26.8807296273
 21
10.8064542817
 31
0.0
 11
-26.8800733386
 21
10.8226779266
 31
0.0
 11
-26.8793354895
 21
10.836241019
 31
0.0
 11
-26.8785253554
 21
10.8469730612
 31
0.0
 11
-26.8776531203
 21
10.8547391442
 31
0.0
 11
-26.8767297487
 21
10.8594416431
 31
0.0
 11
-26.8757668481
 21
10.8610214443
 31
0.0
  0
LINE
  5
32B
100
AcDbEntity
  8
RACCORDO
100
AcDbLine
 62
253
  6
CONTINUOUS
 10
-26.8823073165
 20
10.6110309767
 11
-27.3648586687
 21
10.6087265161
  0
SPLINE
  5
32C
100
AcDbEntity
  8
0
100
AcDbSpline
 62
253
  6
CONTINUOUS
 70
0
 71
3
 72
23
 73
19
 74
17
 42
0.0000001
 43
0.0000001
 44
0.0000000001
 12
-0.4773642622
 22
-0.0720585592
 32
0.0
 13
0.0719729241
 23
-0.477377181
 33
0.0
 40
0.0
 40
0.0
 40
0.0
 40
0.0
 40
0.0990673877
 40
0.196892917
 40
0.292575418
 40
0.3852334648
 40
0.4740134963
 40
0.5580976811
 40
0.6367114536
 40
0.7091306523
 40
0.7746881962
 40
0.8327802388
 40
0.8828717468
 40
0.9245014633
 40
0.9572862377
 40
0.980924798
 40
0.9952015677
 40
1.0
 40
1.0
 40
1.0
 40
1.0
 10
-25.8082753619
 20
-10.1263603581
 30
0.0
 10
-25.8240391054
 20
-10.1287399092
 30
0.0
 10
-25.8553678095
 20
-10.1334769792
 30
0.0
 10
-25.9019175078
 20
-10.1405396603
 30
0.0
 10
-25.9474438269
 20
-10.1474714863
 30
0.0
 10
-25.991527396
 20
-10.1542085642
 30
0.0
 10
-26.033762015
 20
-10.1606888554
 30
0.0
 10
-26.0737589436
 20
-10.1668524281
 30
0.0
 10
-26.1111486105
 20
-10.1726430835
 30
0.0
 10
-26.1455903154
 20
-10.1780052316
 30
0.0
 10
-26.1767546871
 20
-10.1828963118
 30
0.0
 10
-26.2043929026
 20
-10.1872489806
 30
0.0
 10
-26.2281340459
 20
-10.191089849
 30
0.0
 10
-26.248097449
 20
-10.1941878949
 30
0.0
 10
-26.2631813806
 20
-10.1970424755
 30
0.0
 10
-26.2755032385
 20
-10.1983225374
 30
0.0
 10
-26.280306815
 20
-10.2006839674
 30
0.0
 10
-26.2853531141
 20
-10.2001378918
 30
0.0
 10
-26.2852379951
 20
-10.2009014459
 30
0.0
 11
-25.8082753619
 21
-10.1263603581
 31
0.0
 11
-25.8555648002
 21
-10.1335108736
 31
0.0
 11
-25.9022578428
 21
-10.1405955166
 31
0.0
 11
-25.9479243406
 21
-10.1475490212
 31
0.0
 11
-25.9921436009
 21
-10.15430733
 31
0.0
 11
-26.0345082636
 21
-10.1608081834
 31
0.0
 11
-26.0746280536
 21
-10.1669916939
 31
0.0
 11
-26.1121333762
 21
-10.1728008971
 31
0.0
 11
-26.146678722
 21
-10.1781822771
 31
0.0
 11
-26.1779458495
 21
-10.1830862591
 31
0.0
 11
-26.2056467173
 21
-10.1874676663
 31
0.0
 11
-26.2295261373
 21
-10.1912861359
 31
0.0
 11
-26.2493641255
 21
-10.194506491
 31
0.0
 11
-26.264977929
 21
-10.197099065
 31
0.0
 11
-26.2762237089
 21
-10.1990399743
 31
0.0
 11
-26.2829978661
 21
-10.2003113386
 31
0.0
 11
-26.2852379951
 21
-10.2009014459
 31
0.0
  0
SPLINE
  5
32D
100
AcDbEntity
  8
0
100
AcDbSpline
 62
253
  6
CONTINUOUS
 70
0
 71
3
 72
23
 73
19
 74
17
 42
0.0000001
 43
0.0000001
 44
0.0000000001
 12
-0.0261481723
 22
-0.4995452843
 32
0.0
 13
0.4995436188
 23
-0.0261799717
 33
0.0
 40
0.0
 40
0.0
 40
0.0
 40
0.0
 40
0.0978499016
 40
0.1947432743
 40
0.2897503344
 40
0.3819594947
 40
0.4704861696
 40
0.5544813359
 40
0.6331397783
 40
0.7057079592
 40
0.7714914739
 40
0.8298620941
 40
0.8802645015
 40
0.9222230709
 40
0.9553499014
 40
0.9793587241
 40
0.9941101821
 40
1.0
 40
1.0
 40
1.0
 40
1.0
 10
-25.3400309355
 20
-10.5511340343
 30
0.0
 10
-25.3408838009
 20
-10.5674275199
 30
0.0
 10
-25.3425260094
 20
-10.599858131
 30
0.0
 10
-25.3448034909
 20
-10.6481183713
 30
0.0
 10
-25.3468691525
 20
-10.6954467183
 30
0.0
 10
-25.3487032752
 20
-10.7413884547
 30
0.0
 10
-25.3502884391
 20
-10.785502138
 30
0.0
 10
-25.3516097052
 20
-10.8273641064
 30
0.0
 10
-25.3526548412
 20
-10.8665716253
 30
0.0
 10
-25.3534143894
 20
-10.902749912
 30
0.0
 10
-25.3538823108
 20
-10.9355454148
 30
0.0
 10
-25.3540549789
 20
-10.9646624461
 30
0.0
 10
-25.3539358891
 20
-10.9897632235
 30
0.0
 10
-25.3535245839
 20
-11.0107780557
 30
0.0
 10
-25.3528544474
 20
-11.0270442671
 30
0.0
 10
-25.3519117552
 20
-11.0395655775
 30
0.0
 10
-25.3508705401
 20
-11.0459048664
 30
0.0
 10
-25.3497299056
 20
-11.0503974032
 30
0.0
 10
-25.3487491653
 20
-11.0504488016
 30
0.0
 11
-25.3400309355
 21
-10.5511340343
 31
0.0
 11
-25.3425059268
 21
-10.6000187957
 31
0.0
 11
-25.3447894775
 21
-10.6484338635
 31
0.0
 11
-25.3468596469
 21
-10.6959140569
 31
0.0
 11
-25.3486965446
 21
-10.7420031776
 31
0.0
 11
-25.3502825211
 21
-10.7862583931
 31
0.0
 11
-25.3516023382
 21
-10.8282544911
 31
0.0
 11
-25.3526433148
 21
-10.8675879656
 31
0.0
 11
-25.3533954491
 21
-10.9038808934
 31
0.0
 11
-25.3538515143
 21
-10.9367845655
 31
0.0
 11
-25.3540071286
 21
-10.9659828374
 31
0.0
 11
-25.3538607968
 21
-10.991195167
 31
0.0
 11
-25.3534139248
 21
-11.0121793095
 31
0.0
 11
-25.3526708062
 21
-11.0287336455
 31
0.0
 11
-25.3516385812
 21
-11.0406991179
 31
0.0
 11
-25.3503271674
 21
-11.0479607603
 31
0.0
 11
-25.3487491653
 21
-11.0504488016
 31
0.0
  0
SPLINE
  5
32E
100
AcDbEntity
  8
ASSI
100
AcDbSpline
 62
253
  6
CONTINUOUS
 70
0
 71
3
 72
21
 73
17
 74
15
 42
0.0000001
 43
0.0000001
 44
0.0000000001
 12
-0.0021831839
 22
0.2504731391
 32
0.0
 13
0.2504731158
 23
0.0021858458
 33
0.0
 40
0.0
 40
0.0
 40
0.0
 40
0.0
 40
0.1117254707
 40
0.2220443826
 40
0.3295717424
 40
0.4329577933
 40
0.5309050832
 40
0.6221849176
 40
0.7056530314
 40
0.7802643551
 40
0.8450868632
 40
0.8993147599
 40
0.9422821117
 40
0.9734815232
 40
0.9926137743
 40
1.0
 40
1.0
 40
1.0
 40
1.0
 10
-26.8823100884
 20
10.6110309635
 30
0.0
 10
-26.8823913942
 20
10.62035904
 30
0.0
 10
-26.882516884
 20
10.6388980921
 30
0.0
 10
-26.8825946368
 20
10.6664153927
 30
0.0
 10
-26.8825606099
 20
10.6932364735
 30
0.0
 10
-26.8824153828
 20
10.7190243039
 30
0.0
 10
-26.8821610018
 20
10.743454358
 30
0.0
 10
-26.8818010898
 20
10.7662208994
 30
0.0
 10
-26.8813405685
 20
10.787033476
 30
0.0
 10
-26.8807867599
 20
10.8056445165
 30
0.0
 10
-26.8801464401
 20
10.8217775668
 30
0.0
 10
-26.8794359868
 20
10.8353560871
 30
0.0
 10
-26.8786560355
 20
10.8458671582
 30
0.0
 10
-26.8778674132
 20
10.8540392772
 30
0.0
 10
-26.8770444145
 20
10.8580290802
 30
0.0
 10
-26.8763835318
 20
10.8610160626
 30
0.0
 10
-26.8757668481
 20
10.8610214443
 30
0.0
 11
-26.8823100884
 21
10.6110309635
 31
0.0
 11
-26.8824991704
 21
10.6390156171
 31
0.0
 11
-26.8825761977
 21
10.6666484835
 31
0.0
 11
-26.8825402018
 21
10.6935821979
 31
0.0
 11
-26.8823916354
 21
10.7194781841
 31
0.0
 11
-26.882132366
 21
10.7440109112
 31
0.0
 11
-26.8817656529
 21
10.7668719853
 31
0.0
 11
-26.8812961058
 21
10.7877740266
 31
0.0
 11
-26.8807296273
 21
10.8064542817
 31
0.0
 11
-26.8800733386
 21
10.8226779266
 31
0.0
 11
-26.8793354895
 21
10.836241019
 31
0.0
 11
-26.8785253554
 21
10.8469730612
 31
0.0
 11
-26.8776531203
 21
10.8547391442
 31
0.0
 11
-26.8767297487
 21
10.8594416431
 31
0.0
 11
-26.8757668481
 21
10.8610214443
 31
0.0
  0
LINE
  5
32F
100
AcDbEntity
  8
ASSI
100
AcDbLine
 62
253
  6
CONTINUOUS
 10
-26.8823073165
 20
10.6110309767
 11
-27.3648586687
 21
10.6087265161
  0
SPLINE
  5
330
100
AcDbEntity
  8
ASSI
100
AcDbSpline
 62
253
  6
CONTINUOUS
 70
0
 71
3
 72
23
 73
19
 74
17
 42
0.0000001
 43
0.0000001
 44
0.0000000001
 12
-0.4773642622
 22
-0.0720585592
 32
0.0
 13
0.0719729241
 23
-0.477377181
 33
0.0
 40
0.0
 40
0.0
 40
0.0
 40
0.0
 40
0.0990673877
 40
0.196892917
 40
0.292575418
 40
0.3852334648
 40
0.4740134963
 40
0.5580976811
 40
0.6367114536
 40
0.7091306523
 40
0.7746881962
 40
0.8327802388
 40
0.8828717468
 40
0.9245014633
 40
0.9572862377
 40
0.980924798
 40
0.9952015677
 40
1.0
 40
1.0
 40
1.0
 40
1.0
 10
-25.8082753619
 20
-10.1263603581
 30
0.0
 10
-25.8240391054
 20
-10.1287399092
 30
0.0
 10
-25.8553678095
 20
-10.1334769792
 30
0.0
 10
-25.9019175078
 20
-10.1405396603
 30
0.0
 10
-25.9474438269
 20
-10.1474714863
 30
0.0
 10
-25.991527396
 20
-10.1542085642
 30
0.0
 10
-26.033762015
 20
-10.1606888554
 30
0.0
 10
-26.0737589436
 20
-10.1668524281
 30
0.0
 10
-26.1111486105
 20
-10.1726430835
 30
0.0
 10
-26.1455903154
 20
-10.1780052316
 30
0.0
 10
-26.1767546871
 20
-10.1828963118
 30
0.0
 10
-26.2043929026
 20
-10.1872489806
 30
0.0
 10
-26.2281340459
 20
-10.191089849
 30
0.0
 10
-26.248097449
 20
-10.1941878949
 30
0.0
 10
-26.2631813806
 20
-10.1970424755
 30
0.0
 10
-26.2755032385
 20
-10.1983225374
 30
0.0
 10
-26.280306815
 20
-10.2006839674
 30
0.0
 10
-26.2853531141
 20
-10.2001378918
 30
0.0
 10
-26.2852379951
 20
-10.2009014459
 30
0.0
 11
-25.8082753619
 21
-10.1263603581
 31
0.0
 11
-25.8555648002
 21
-10.1335108736
 31
0.0
 11
-25.9022578428
 21
-10.1405955166
 31
0.0
 11
-25.9479243406
 21
-10.1475490212
 31
0.0
 11
-25.9921436009
 21
-10.15430733
 31
0.0
 11
-26.0345082636
 21
-10.1608081834
 31
0.0
 11
-26.0746280536
 21
-10.1669916939
 31
0.0
 11
-26.1121333762
 21
-10.1728008971
 31
0.0
 11
-26.146678722
 21
-10.1781822771
 31
0.0
 11
-26.1779458495
 21
-10.1830862591
 31
0.0
 11
-26.2056467173
 21
-10.1874676663
 31
0.0
 11
-26.2295261373
 21
-10.1912861359
 31
0.0
 11
-26.2493641255
 21
-10.194506491
 31
0.0
 11
-26.264977929
 21
-10.197099065
 31
0.0
 11
-26.2762237089
 21
-10.1990399743
 31
0.0
 11
-26.2829978661
 21
-10.2003113386
 31
0.0
 11
-26.2852379951
 21
-10.2009014459
 31
0.0
  0
SPLINE
  5
331
100
AcDbEntity
  8
ASSI
100
AcDbSpline
 62
253
  6
CONTINUOUS
 70
0
 71
3
 72
23
 73
19
 74
17
 42
0.0000001
 43
0.0000001
 44
0.0000000001
 12
-0.0261481723
 22
-0.4995452843
 32
0.0
 13
0.4995436188
 23
-0.0261799717
 33
0.0
 40
0.0
 40
0.0
 40
0.0
 40
0.0
 40
0.0978499016
 40
0.1947432743
 40
0.2897503344
 40
0.3819594947
 40
0.4704861696
 40
0.5544813359
 40
0.6331397783
 40
0.7057079592
 40
0.7714914739
 40
0.8298620941
 40
0.8802645015
 40
0.9222230709
 40
0.9553499014
 40
0.9793587241
 40
0.9941101821
 40
1.0
 40
1.0
 40
1.0
 40
1.0
 10
-25.3400309355
 20
-10.5511340343
 30
0.0
 10
-25.3408838009
 20
-10.5674275199
 30
0.0
 10
-25.3425260094
 20
-10.599858131
 30
0.0
 10
-25.3448034909
 20
-10.6481183713
 30
0.0
 10
-25.3468691525
 20
-10.6954467183
 30
0.0
 10
-25.3487032752
 20
-10.7413884547
 30
0.0
 10
-25.3502884391
 20
-10.785502138
 30
0.0
 10
-25.3516097052
 20
-10.8273641064
 30
0.0
 10
-25.3526548412
 20
-10.8665716253
 30
0.0
 10
-25.3534143894
 20
-10.902749912
 30
0.0
 10
-25.3538823108
 20
-10.9355454148
 30
0.0
 10
-25.3540549789
 20
-10.9646624461
 30
0.0
 10
-25.3539358891
 20
-10.9897632235
 30
0.0
 10
-25.3535245839
 20
-11.0107780557
 30
0.0
 10
-25.3528544474
 20
-11.0270442671
 30
0.0
 10
-25.3519117552
 20
-11.0395655775
 30
0.0
 10
-25.3508705401
 20
-11.0459048664
 30
0.0
 10
-25.3497299056
 20
-11.0503974032
 30
0.0
 10
-25.3487491653
 20
-11.0504488016
 30
0.0
 11
-25.3400309355
 21
-10.5511340343
 31
0.0
 11
-25.3425059268
 21
-10.6000187957
 31
0.0
 11
-25.3447894775
 21
-10.6484338635
 31
0.0
 11
-25.3468596469
 21
-10.6959140569
 31
0.0
 11
-25.3486965446
 21
-10.7420031776
 31
0.0
 11
-25.3502825211
 21
-10.7862583931
 31
0.0
 11
-25.3516023382
 21
-10.8282544911
 31
0.0
 11
-25.3526433148
 21
-10.8675879656
 31
0.0
 11
-25.3533954491
 21
-10.9038808934
 31
0.0
 11
-25.3538515143
 21
-10.9367845655
 31
0.0
 11
-25.3540071286
 21
-10.9659828374
 31
0.0
 11
-25.3538607968
 21
-10.991195167
 31
0.0
 11
-25.3534139248
 21
-11.0121793095
 31
0.0
 11
-25.3526708062
 21
-11.0287336455
 31
0.0
 11
-25.3516385812
 21
-11.0406991179
 31
0.0
 11
-25.3503271674
 21
-11.0479607603
 31
0.0
 11
-25.3487491653
 21
-11.0504488016
 31
0.0
  0
ELLIPSE
  5
332
100
AcDbEntity
  8
RACCORDO
100
AcDbEllipse
 62
7
  6
CONTINUOUS
 10
11.8081583906
 20
-11.1753749167
 30
0.0
 11
0.2
 21
0.0
 31
0.0
 40
0.0524077793
 41
0.5235987756
 42
1.5707963268
  0
ELLIPSE
  5
333
100
AcDbEntity
  8
RACCORDO
100
AcDbEllipse
 62
7
  6
CONTINUOUS
 10
0.6081583906
 20
-11.1753749167
 30
0.0
 11
0.2
 21
0.0
 31
0.0
 40
0.0524077793
 41
0.5235987756
 42
1.5707963268
  0
ELLIPSE
  5
334
100
AcDbEntity
  8
RACCORDO
100
AcDbEllipse
 62
7
  6
CONTINUOUS
 10
-2.7609015017
 20
-11.1753749167
 30
0.0
 11
0.2
 21
-0.0
 31
0.0
 40
0.0524077793
 41
1.5707963268
 42
2.617993878
  0
ELLIPSE
  5
335
100
AcDbEntity
  8
RACCORDO
100
AcDbEllipse
 62
7
  6
CONTINUOUS
 10
8.4390984983
 20
-11.1753749167
 30
0.0
 11
0.2
 21
0.0
 31
0.0
 40
0.0524077793
 41
1.5707963268
 42
2.617993878
  0
ELLIPSE
  5
336
100
AcDbEntity
  8
RACCORDO
100
AcDbEllipse
 62
7
  6
CONTINUOUS
 10
19.7390984983
 20
-11.1753749167
 30
0.0
 11
0.2
 21
0.0
 31
0.0
 40
0.0524077793
 41
1.5707963268
 42
2.617993878
  0
ELLIPSE
  5
337
100
AcDbEntity
  8
RACCORDO
100
AcDbEllipse
 62
7
  6
CONTINUOUS
 10
23.1081583906
 20
-11.1753749167
 30
0.0
 11
0.2
 21
0.0
 31
0.0
 40
0.0524077793
 41
0.5235987756
 42
1.5707963268
  0
ELLIPSE
  5
338
100
AcDbEntity
  8
RACCORDO
100
AcDbEllipse
 62
7
  6
CONTINUOUS
 10
34.3081583906
 20
-11.1753749167
 30
0.0
 11
0.2
 21
0.0
 31
0.0
 40
0.0524077793
 41
0.5235987756
 42
1.5707963268
  0
ELLIPSE
  5
339
100
AcDbEntity
  8
RACCORDO
100
AcDbEllipse
 62
7
  6
CONTINUOUS
 10
30.9390984983
 20
-11.1753749167
 30
0.0
 11
0.2
 21
0.0
 31
0.0
 40
0.0524077793
 41
1.5707963268
 42
2.617993878
  0
ELLIPSE
  5
33A
100
AcDbEntity
  8
0
100
AcDbEllipse
 62
7
  6
CONTINUOUS
 10
37.5970191441
 20
-10.7033420088
 30
0.0
 11
0.4943891341
 21
0.0770133648
 31
0.0
 40
0.9960067742
 41
-1.7259388368
 42
-0.1569690096
  0
ELLIPSE
  5
33B
100
AcDbEntity
  8
0
100
AcDbEllipse
 62
7
  6
CONTINUOUS
 10
-6.0497622553
 20
-10.7033420088
 30
0.0
 11
0.4943891341
 21
-0.0770133648
 31
0.0
 40
0.9960067742
 41
-2.984623644
 42
-1.4156538168
  0
ELLIPSE
  5
33C
100
AcDbEntity
  8
RACCORDO
100
AcDbEllipse
 62
7
  6
CONTINUOUS
 10
37.8734760584
 20
10.6564854507
 30
0.0
 11
0.2426981267
 21
0.0606514259
 31
0.0
 40
0.9993528196
 41
-0.2447368254
 42
1.3257549497
  0
ELLIPSE
  5
33D
100
AcDbEntity
  8
RACCORDO
100
AcDbEllipse
 62
7
  6
CONTINUOUS
 10
-6.3262191695
 20
10.6564854507
 30
0.0
 11
0.2426981267
 21
-0.0606514259
 31
0.0
 40
0.9993528196
 41
1.8158377039
 42
3.386329479
  0
ELLIPSE
  5
33E
100
AcDbEntity
  8
ASSI
100
AcDbEllipse
 62
7
  6
CONTINUOUS
 10
11.8081583906
 20
-11.1753749167
 30
0.0
 11
0.2
 21
0.0
 31
0.0
 40
0.0524077793
 41
0.5235987756
 42
1.5707963268
  0
ELLIPSE
  5
33F
100
AcDbEntity
  8
ASSI
100
AcDbEllipse
 62
7
  6
CONTINUOUS
 10
0.6081583906
 20
-11.1753749167
 30
0.0
 11
0.2
 21
0.0
 31
0.0
 40
0.0524077793
 41
0.5235987756
 42
1.5707963268
  0
ELLIPSE
  5
340
100
AcDbEntity
  8
ASSI
100
AcDbEllipse
 62
7
  6
CONTINUOUS
 10
-2.7609015017
 20
-11.1753749167
 30
0.0
 11
0.2
 21
-0.0
 31
0.0
 40
0.0524077793
 41
1.5707963268
 42
2.617993878
  0
ELLIPSE
  5
341
100
AcDbEntity
  8
ASSI
100
AcDbEllipse
 62
7
  6
CONTINUOUS
 10
8.4390984983
 20
-11.1753749167
 30
0.0
 11
0.2
 21
0.0
 31
0.0
 40
0.0524077793
 41
1.5707963268
 42
2.617993878
  0
ELLIPSE
  5
342
100
AcDbEntity
  8
ASSI
100
AcDbEllipse
 62
7
  6
CONTINUOUS
 10
19.7390984983
 20
-11.1753749167
 30
0.0
 11
0.2
 21
0.0
 31
0.0
 40
0.0524077793
 41
1.5707963268
 42
2.617993878
  0
ELLIPSE
  5
343
100
AcDbEntity
  8
ASSI
100
AcDbEllipse
 62
7
  6
CONTINUOUS
 10
23.1081583906
 20
-11.1753749167
 30
0.0
 11
0.2
 21
0.0
 31
0.0
 40
0.0524077793
 41
0.5235987756
 42
1.5707963268
  0
ELLIPSE
  5
344
100
AcDbEntity
  8
ASSI
100
AcDbEllipse
 62
7
  6
CONTINUOUS
 10
34.3081583906
 20
-11.1753749167
 30
0.0
 11
0.2
 21
0.0
 31
0.0
 40
0.0524077793
 41
0.5235987756
 42
1.5707963268
  0
ELLIPSE
  5
345
100
AcDbEntity
  8
ASSI
100
AcDbEllipse
 62
7
  6
CONTINUOUS
 10
30.9390984983
 20
-11.1753749167
 30
0.0
 11
0.2
 21
0.0
 31
0.0
 40
0.0524077793
 41
1.5707963268
 42
2.617993878
  0
ELLIPSE
  5
346
100
AcDbEntity
  8
ASSI
100
AcDbEllipse
 62
7
  6
CONTINUOUS
 10
37.5970191441
 20
-10.7033420088
 30
0.0
 11
0.4943891341
 21
0.0770133648
 31
0.0
 40
0.9960067742
 41
-1.7259388368
 42
-0.1569690096
  0
ELLIPSE
  5
347
100
AcDbEntity
  8
ASSI
100
AcDbEllipse
 62
7
  6
CONTINUOUS
 10
-6.0497622553
 20
-10.7033420088
 30
0.0
 11
0.4943891341
 21
-0.0770133648
 31
0.0
 40
0.9960067742
 41
-2.984623644
 42
-1.4156538168
  0
ELLIPSE
  5
348
100
AcDbEntity
  8
ASSI
100
AcDbEllipse
 62
7
  6
CONTINUOUS
 10
37.8734760584
 20
10.6564854507
 30
0.0
 11
0.2426981267
 21
0.0606514259
 31
0.0
 40
0.9993528196
 41
-0.2447368254
 42
1.3257549497
  0
ELLIPSE
  5
349
100
AcDbEntity
  8
ASSI
100
AcDbEllipse
 62
7
  6
CONTINUOUS
 10
-6.3262191695
 20
10.6564854507
 30
0.0
 11
0.2426981267
 21
-0.0606514259
 31
0.0
 40
0.9993528196
 41
1.8158377039
 42
3.386329479
  0
ELLIPSE
  5
34A
100
AcDbEntity
  8
CURVE
100
AcDbEllipse
 62
253
  6
CONTINUOUS
 10
62.7089947913
 20
3.2164949703
 30
0.0
 11
87.5924090521
 21
20.6777628493
 31
0.0
 40
1.0
 41
2.9523671538
 42
2.9542053369
  0
ELLIPSE
  5
34B
100
AcDbEntity
  8
CURVE
100
AcDbEllipse
 62
253
  6
CONTINUOUS
 10
62.7089947913
 20
3.2164949703
 30
0.0
 11
83.149157926
 21
-34.4415089129
 31
0.0
 40
1.0
 41
3.5787282231
 42
3.5844400062
  0
ELLIPSE
  5
34C
100
AcDbEntity
  8
CURVE
100
AcDbEllipse
 62
253
  6
CONTINUOUS
 10
62.7089947913
 20
3.2164949703
 30
0.0
 11
87.5924090521
 21
20.6777628493
 31
0.0
 40
1.0
 41
2.9656230374
 42
2.9673757219
  0
ELLIPSE
  5
34D
100
AcDbEntity
  8
CURVE
100
AcDbEllipse
 62
253
  6
CONTINUOUS
 10
62.7089947913
 20
3.2164949703
 30
0.0
 11
87.5924090521
 21
-20.6777628493
 31
0.0
 40
1.0
 41
-2.8521619763
 42
-2.8481559005
  0
ELLIPSE
  5
34E
100
AcDbEntity
  8
CURVE
100
AcDbEllipse
 62
253
  6
CONTINUOUS
 10
62.7089947913
 20
3.2164949703
 30
0.0
 11
83.149157926
 21
-34.4415089129
 31
0.0
 40
1.0
 41
3.5979389151
 42
3.6037393704
  0
ELLIPSE
  5
34F
100
AcDbEntity
  8
CURVE
100
AcDbEllipse
 62
253
  6
CONTINUOUS
 10
62.7089947913
 20
3.2164949703
 30
0.0
 11
83.149157926
 21
34.4415089129
 31
0.0
 40
1.0
 41
2.818341207
 42
2.8192533578
  0
ELLIPSE
  5
350
100
AcDbEntity
  8
CURVE
100
AcDbEllipse
 62
253
  6
CONTINUOUS
 10
62.7089947913
 20
3.2164949703
 30
0.0
 11
63.6396103068
 21
63.6396103068
 31
0.0
 40
1.0
 41
2.3988801229
 42
2.4003777451
  0
ELLIPSE
  5
351
100
AcDbEntity
  8
CURVE
100
AcDbEllipse
 62
253
  6
CONTINUOUS
 10
62.7089947913
 20
3.2164949703
 30
0.0
 11
63.6396103068
 21
63.6396103068
 31
0.0
 40
1.0
 41
-3.8828075621
 42
-3.8770897825
  0
ELLIPSE
  5
352
100
AcDbEntity
  8
CURVE
100
AcDbEllipse
 62
253
  6
CONTINUOUS
 10
62.7089947913
 20
3.2164949703
 30
0.0
 11
63.6396103068
 21
63.6396103068
 31
0.0
 40
1.0
 41
-3.8758491425
 42
-3.8713493819
  0
ELLIPSE
  5
353
100
AcDbEntity
  8
CURVE
100
AcDbEllipse
 62
253
  6
CONTINUOUS
 10
62.7089947913
 20
3.2164949703
 30
0.0
 11
76.5585727517
 21
-47.3158000907
 31
0.0
 40
1.0
 41
-2.5187137506
 42
-2.513394638
  0
ELLIPSE
  5
354
100
AcDbEntity
  8
CURVE
100
AcDbEllipse
 62
253
  6
CONTINUOUS
 10
62.7089947913
 20
3.2164949703
 30
0.0
 11
52.6239256197
 21
73.0117966658
 31
0.0
 40
1.0
 41
-4.0132424375
 42
-4.0128333191
  0
ELLIPSE
  5
355
100
AcDbEntity
  8
CURVE
100
AcDbEllipse
 62
253
  6
CONTINUOUS
 10
62.7089947913
 20
3.2164949703
 30
0.0
 11
-47.3158000907
 21
76.5585727517
 31
0.0
 40
1.0
 41
1.0788349165
 42
1.0808691477
  0
ELLIPSE
  5
356
100
AcDbEntity
  8
CURVE
100
AcDbEllipse
 62
253
  6
CONTINUOUS
 10
62.7089947913
 20
3.2164949703
 30
0.0
 11
-29.7906247292
 21
84.9265487244
 31
0.0
 40
1.0
 41
1.289280044
 42
1.2910327285
  0
ELLIPSE
  5
357
100
AcDbEntity
  8
CURVE
100
AcDbEllipse
 62
253
  6
CONTINUOUS
 10
62.7089947913
 20
3.2164949703
 30
0.0
 11
-55.3870988462
 21
70.9384894215
 31
0.0
 40
1.0
 41
0.9576486381
 42
0.9580357659
  0
ELLIPSE
  5
358
100
AcDbEntity
  8
CURVE
100
AcDbEllipse
 62
253
  6
CONTINUOUS
 10
62.7089947913
 20
3.2164949703
 30
0.0
 11
-12.48310907
 21
89.1300846401
 31
0.0
 40
1.0
 41
1.4760829851
 42
1.4814076404
  0
ELLIPSE
  5
359
100
AcDbEntity
  8
CURVE
100
AcDbEllipse
 62
253
  6
CONTINUOUS
 10
62.7089947913
 20
3.2164949703
 30
0.0
 11
-10.9964937326
 21
89.3256801015
 31
0.0
 40
1.0
 41
1.4909053
 42
1.492743483
  0
ELLIPSE
  5
35A
100
AcDbEntity
  8
CURVE
100
AcDbEllipse
 62
253
  6
CONTINUOUS
 10
62.7089947913
 20
3.2164949703
 30
0.0
 11
79.3507138891
 21
-42.4672132979
 31
0.0
 40
1.0
 41
-2.5755721352
 42
-2.5751630169
  0
ELLIPSE
  5
35B
100
AcDbEntity
  8
CURVE
100
AcDbEllipse
 62
253
  6
CONTINUOUS
 10
62.7089947913
 20
3.2164949703
 30
0.0
 11
90.0
 21
0.0
 31
0.0
 40
1.0
 41
3.2052398334
 42
3.2162163103
  0
ELLIPSE
  5
35C
100
AcDbEntity
  8
CURVE
100
AcDbEllipse
 62
253
  6
CONTINUOUS
 10
62.7089947913
 20
3.2164949703
 30
0.0
 11
63.6396103068
 21
-63.6396103068
 31
0.0
 40
1.0
 41
-2.2926689744
 42
-2.2887469933
  0
ELLIPSE
  5
35D
100
AcDbEntity
  8
CURVE
100
AcDbEllipse
 62
253
  6
CONTINUOUS
 10
62.7089947913
 20
3.2164949703
 30
0.0
 11
83.149157926
 21
34.4415089129
 31
0.0
 40
1.0
 41
2.8103418983
 42
2.8125407517
  0
ELLIPSE
  5
35E
100
AcDbEntity
  8
CURVE
100
AcDbEllipse
 62
253
  6
CONTINUOUS
 10
62.7089947913
 20
3.2164949703
 30
0.0
 11
-47.3158000907
 21
76.5585727517
 31
0.0
 40
1.0
 41
1.074837669
 42
1.0786702943
  0
ELLIPSE
  5
35F
100
AcDbEntity
  8
CURVE
100
AcDbEllipse
 62
253
  6
CONTINUOUS
 10
62.7089947913
 20
3.2164949703
 30
0.0
 11
90.0
 21
-0.0
 31
0.0
 40
1.0
 41
3.191493688
 42
3.2051181693
  0
ELLIPSE
  5
360
100
AcDbEntity
  8
CURVE
100
AcDbEllipse
 62
253
  6
CONTINUOUS
 10
62.7089947913
 20
3.2164949703
 30
0.0
 11
87.5924090521
 21
-20.6777628493
 31
0.0
 40
1.0
 41
-2.8598678147
 42
-2.8586271746
  0
ELLIPSE
  5
361
100
AcDbEntity
  8
CURVE
100
AcDbEllipse
 62
253
  6
CONTINUOUS
 10
62.7089947913
 20
3.2164949703
 30
0.0
 11
76.5585727517
 21
47.3158000907
 31
0.0
 40
1.0
 41
2.6322015496
 42
2.6379193291
  0
ELLIPSE
  5
362
100
AcDbEntity
  8
CURVE
100
AcDbEllipse
 62
253
  6
CONTINUOUS
 10
62.7089947913
 20
3.2164949703
 30
0.0
 11
73.0117966658
 21
-52.6239256197
 31
0.0
 40
1.0
 41
-2.4743841347
 42
-2.4728865125
  0
ENDSEC
  0
SECTION
  2
OBJECTS
  0
DICTIONARY
  5
C
100
AcDbDictionary
280
0
281
1
  3
ACAD_GROUP
350
D
  3
ACAD_MLINESTYLE
350
17
  3
ACAD_LAYOUT
350
1A
  3
ACAD_PLOTSETTINGS
350
19
  3
ACAD_PLOTSTYLENAME
350
E
  0
DICTIONARY
  5
D
102
{ACAD_REACTORS
330
C
102
}
100
AcDbDictionary
280
0
281
1
  0
ACDBDICTIONARYWDFLT
  5
E
102
{ACAD_REACTORS
330
C
102
}
100
AcDbDictionary
281
1
  3
Normal
350
F
100
AcDbDictionaryWithDefault
340
F
  0
DICTIONARY
  5
17
102
{ACAD_REACTORS
330
C
102
}
100
AcDbDictionary
280
0
281
1
  3
Standard
350
18
  0
DICTIONARY
  5
19
102
{ACAD_REACTORS
330
C
102
}
100
AcDbDictionary
281
1
  0
DICTIONARY
  5
1A
102
{ACAD_REACTORS
330
C
102
}
100
AcDbDictionary
281
1
  3
Model
350
363
  3
Layout1
350
364
  0
ACDBPLACEHOLDER
  5
F
102
{ACAD_REACTORS
330
E
102
}
  0
MLINESTYLE
  5
18
102
{ACAD_REACTORS
330
17
102
}
100
AcDbMlineStyle
  2
STANDARD
 70
0
  3

 62
256
 51
90.0
 52
90.0
 71
2
 49
0.5
 62
256
  6
BYLAYER
 49
-0.5
 62
256
  6
BYLAYER
  0
LAYOUT
  5
363
102
{ACAD_REACTORS
330
1A
102
}
100
AcDbPlotSettings
  1

  2
none_device
  4
ISO_A4_(297.00_x_210.00_MM)
  6

 40
0.0
 41
0.0
 42
0.0
 43
0.0
 44
297.0
 45
210.0
 46
0.0
 47
0.0
 48
0.0
 49
0.0
140
0.0
141
0.0
142
1.0
143
1.0
 70
1024
 72
1
 73
0
 74
0
  7

 75
0
147
1.0
148
0.0
149
0.0
100
AcDbLayout
  1
Model
 70
0
 71
0
 10
0.0
 20
0.0
 11
297.0
 21
210.0
 12
0.0
 22
0.0
 32
0.0
 14
0.0
 24
0.0
 34
0.0
 15
0.0
 25
0.0
 35
0.0
146
0.0
 13
0.0
 23
0.0
 33
0.0
 16
1.0
 26
0.0
 36
0.0
 17
0.0
 27
1.0
 37
0.0
 76
0
330
218
345
0
346
0
  0
LAYOUT
  5
364
102
{ACAD_REACTORS
330
1A
102
}
100
AcDbPlotSettings
  1

  2
none_device
  4
ISO_A4_(297.00_x_210.00_MM)
  6

 40
0.0
 41
0.0
 42
0.0
 43
0.0
 44
297.0
 45
210.0
 46
0.0
 47
0.0
 48
0.0
 49
0.0
140
0.0
141
0.0
142
1.0
143
1.0
 70
0
 72
1
 73
0
 74
0
  7

 75
0
147
1.0
148
0.0
149
0.0
100
AcDbLayout
  1
Layout1
 70
0
 71
1
 10
0.0
 20
0.0
 11
297.0
 21
210.0
 12
0.0
 22
0.0
 32
0.0
 14
0.0
 24
0.0
 34
0.0
 15
0.0
 25
0.0
 35
0.0
146
0.0
 13
0.0
 23
0.0
 33
0.0
 16
1.0
 26
0.0
 36
0.0
 17
0.0
 27
1.0
 37
0.0
 76
0
330
219
345
0
346
0
  0
ENDSEC
  0
EOF
