  0
SECTION
  2
HEADER
  9
$ACADVER
  1
AC1015
  9
$DWGCODEPAGE
  3
ANSI_1252
  9
$EXTMAX
 10
297.0
 20
210.0
 30
0.0
  9
$EXTMIN
 10
0.0
 20
0.0
 30
0.0
  9
$LIMMIN
 10
0.0
 20
0.0
  9
$LIMMAX
 10
297.0
 20
210.0
  9
$VIEWCTR
 10
148.5
 20
105.0
  9
$VIEWSIZE
 40
210.0
  9
$CLAYER
  8
0
  9
$LTSCALE
 40
16.335
  9
$CELTYPE
  6
BYLAYER
  9
$DIMSCALE
 40
1.0
  9
$DIMASZ
 40
3.0
  9
$DIMEXO
 40
1.85625
  9
$DIMDLI
 40
11.286
  9
$DIMEXE
 40
5.346
  9
$DIMCEN
 40
2.673
  9
$DIMLFAC
 40
1.0
  9
$DIMBLK
  1
_FILLED
  9
$DIMTXT
 40
3.0
  9
$DIMTOL
 70
1
  9
$DIMLIM
 70
0
  9
$DIMTFAC
 40
1.0
  9
$DIMTP
 40
0.01
  9
$DIMTM
 40
0.01
  9
$PDMODE
 70
3
  9
$PDSIZE
 40
3.0
  9
$HANDSEED
  5
391
  9
$TILEMODE
 70
1
  9
$MEASUREMENT
 70
1
  9
$INSUNITS
 70
4
  0
ENDSEC
  0
SECTION
  2
CLASSES
  0
CLASS
  1
ACDBDICTIONARYWDFLT
  2
AcDbDictionaryWithDefault
  3
AutoCAD 2000
 90
0
280
0
281
0
  0
CLASS
  1
ACDBPLACEHOLDER
  2
AcDbPlaceHolder
  3
AutoCAD 2000
 90
0
280
0
281
0
  0
CLASS
  1
LAYOUT
  2
AcDbLayout
  3
AutoCAD 2000
 90
0
280
0
281
0
  0
ENDSEC
  0
SECTION
  2
TABLES
  0
TABLE
  2
VPORT
  5
8
100
AcDbSymbolTable
 70
2
  0
VPORT
  5
1F4
100
AcDbSymbolTableRecord
100
AcDbViewportTableRecord
  2
*ACTIVE
 70
0
 10
0.0
 20
0.0
 11
1.0
 21
1.0
 12
148.5
 22
105.0
 13
0.0
 23
0.0
 14
1.0
 24
1.0
 15
0.0
 25
0.0
 16
0.0
 26
0.0
 36
1.0
 17
0.0
 27
0.0
 37
0.0
 40
210.0
 41
1.4142857143
 42
50.0
 43
0.0
 44
0.0
 50
0.0
 51
0.0
 71
0
 72
100
 73
1
 74
1
 75
0
 76
0
 77
0
 78
0
  0
ENDTAB
  0
TABLE
  2
LTYPE
  5
5
100
AcDbSymbolTable
 70
6
  0
LTYPE
  5
14
100
AcDbSymbolTableRecord
100
AcDbLinetypeTableRecord
  2
BYBLOCK
 70
0
  3

 72
65
 73
0
 40
0.0
  0
LTYPE
  5
15
100
AcDbSymbolTableRecord
100
AcDbLinetypeTableRecord
  2
BYLAYER
 70
0
  3

 72
65
 73
0
 40
0.0
  0
LTYPE
  5
16
100
AcDbSymbolTableRecord
100
AcDbLinetypeTableRecord
  2
CONTINUOUS
 70
64
  3
Solid line
 72
65
 73
0
 40
0.0
  0
LTYPE
  5
1F5
100
AcDbSymbolTableRecord
100
AcDbLinetypeTableRecord
  2
CENTER
 70
64
  3
____ _ ____ _ ____ _ ____ _ ____ _ ____ _ ____
 72
65
 73
4
 40
0.6
 49
0.375
 74
0
 49
-0.075
 74
0
 49
0.075
 74
0
 49
-0.075
 74
0
  0
LTYPE
  5
1F6
100
AcDbSymbolTableRecord
100
AcDbLinetypeTableRecord
  2
HIDDEN
 70
64
  3
- - - - - - - - - - - - - - - - - - - -
 72
65
 73
2
 40
0.2
 49
0.1
 74
0
 49
-0.1
 74
0
  0
LTYPE
  5
1F7
100
AcDbSymbolTableRecord
100
AcDbLinetypeTableRecord
  2
PHANTOM
 70
64
  3
_____ _ _ _____ _ _ _____ _ _ _____
 72
65
 73
6
 40
0.8
 49
0.45
 74
0
 49
-0.05
 74
0
 49
0.1
 74
0
 49
-0.05
 74
0
 49
0.1
 74
0
 49
-0.05
 74
0
  0
LTYPE
  5
1F8
100
AcDbSymbolTableRecord
100
AcDbLinetypeTableRecord
  2
DOT
 70
64
  3
. . . . . . . . . . . . . . . . . . . .
 72
65
 73
2
 40
0.2
 49
0.1
 74
0
 49
-0.1
 74
0
  0
LTYPE
  5
1F9
100
AcDbSymbolTableRecord
100
AcDbLinetypeTableRecord
  2
DASHED
 70
64
  3
- - - - - - - - - - - - - - - - - - - -
 72
65
 73
2
 40
0.2
 49
0.1
 74
0
 49
-0.1
 74
0
  0
ENDTAB
  0
TABLE
  2
LAYER
  5
2
100
AcDbSymbolTable
 70
36
  0
LAYER
  5
10
100
AcDbSymbolTableRecord
100
AcDbLayerTableRecord
  2
0
 70
0
 62
7
  6
CONTINUOUS
370
-3
390
F
  0
LAYER
  5
1FA
100
AcDbSymbolTableRecord
100
AcDbLayerTableRecord
  2
DEFAULT_1
 70
0
 62
7
  6
CENTER
370
-3
390
F
  0
LAYER
  5
1FB
100
AcDbSymbolTableRecord
100
AcDbLayerTableRecord
  2
DEFAULT_2
 70
0
 62
7
  6
HIDDEN
370
-3
390
F
  0
LAYER
  5
1FC
100
AcDbSymbolTableRecord
100
AcDbLayerTableRecord
  2
DEFAULT_3
 70
0
 62
7
  6
PHANTOM
370
-3
390
F
  0
LAYER
  5
1FD
100
AcDbSymbolTableRecord
100
AcDbLayerTableRecord
  2
ASSI
 70
0
 62
7
  6
CONTINUOUS
370
-3
390
F
  0
LAYER
  5
1FE
100
AcDbSymbolTableRecord
100
AcDbLayerTableRecord
  2
COLOR9
 70
0
 62
7
  6
CONTINUOUS
370
-3
390
F
  0
LAYER
  5
1FF
100
AcDbSymbolTableRecord
100
AcDbLayerTableRecord
  2
COORDINATE
 70
0
 62
7
  6
CONTINUOUS
370
-3
390
F
  0
LAYER
  5
200
100
AcDbSymbolTableRecord
100
AcDbLayerTableRecord
  2
COORD_ORIGINE
 70
0
 62
7
  6
CONTINUOUS
370
-3
390
F
  0
LAYER
  5
201
100
AcDbSymbolTableRecord
100
AcDbLayerTableRecord
  2
COPY_PUBLISH
 70
0
 62
7
  6
CONTINUOUS
370
-3
390
F
  0
LAYER
  5
202
100
AcDbSymbolTableRecord
100
AcDbLayerTableRecord
  2
COSMETIC
 70
0
 62
7
  6
CONTINUOUS
370
-3
390
F
  0
LAYER
  5
203
100
AcDbSymbolTableRecord
100
AcDbLayerTableRecord
  2
CURVE
 70
0
 62
7
  6
CONTINUOUS
370
-3
390
F
  0
LAYER
  5
204
100
AcDbSymbolTableRecord
100
AcDbLayerTableRecord
  2
DRAFT
 70
0
 62
7
  6
CONTINUOUS
370
-3
390
F
  0
LAYER
  5
205
100
AcDbSymbolTableRecord
100
AcDbLayerTableRecord
  2
IGS_SCRITTE
 70
0
 62
7
  6
CONTINUOUS
370
-3
390
F
  0
LAYER
  5
206
100
AcDbSymbolTableRecord
100
AcDbLayerTableRecord
  2
IMPORT_IGES
 70
0
 62
7
  6
CONTINUOUS
370
-3
390
F
  0
LAYER
  5
207
100
AcDbSymbolTableRecord
100
AcDbLayerTableRecord
  2
INTF_15
 70
0
 62
7
  6
CONTINUOUS
370
-3
390
F
  0
LAYER
  5
208
100
AcDbSymbolTableRecord
100
AcDbLayerTableRecord
  2
INTF_3
 70
0
 62
7
  6
CONTINUOUS
370
-3
390
F
  0
LAYER
  5
209
100
AcDbSymbolTableRecord
100
AcDbLayerTableRecord
  2
INTF_4
 70
0
 62
7
  6
CONTINUOUS
370
-3
390
F
  0
LAYER
  5
20A
100
AcDbSymbolTableRecord
100
AcDbLayerTableRecord
  2
INTF_YELLOW
 70
0
 62
7
  6
CONTINUOUS
370
-3
390
F
  0
LAYER
  5
20B
100
AcDbSymbolTableRecord
100
AcDbLayerTableRecord
  2
PIANI
 70
0
 62
7
  6
CONTINUOUS
370
-3
390
F
  0
LAYER
  5
20C
100
AcDbSymbolTableRecord
100
AcDbLayerTableRecord
  2
PIANI_ORIGINE
 70
0
 62
7
  6
CONTINUOUS
370
-3
390
F
  0
LAYER
  5
20D
100
AcDbSymbolTableRecord
100
AcDbLayerTableRecord
  2
PIANI_RIFERIMENTO
 70
0
 62
7
  6
CONTINUOUS
370
-3
390
F
  0
LAYER
  5
20E
100
AcDbSymbolTableRecord
100
AcDbLayerTableRecord
  2
RACCORDO
 70
0
 62
7
  6
CONTINUOUS
370
-3
390
F
  0
LAYER
  5
20F
100
AcDbSymbolTableRecord
100
AcDbLayerTableRecord
  2
SMUSSO
 70
0
 62
7
  6
CONTINUOUS
370
-3
390
F
  0
LAYER
  5
210
100
AcDbSymbolTableRecord
100
AcDbLayerTableRecord
  2
SNAPLINE
 70
0
 62
7
  6
CONTINUOUS
370
-3
390
F
  0
LAYER
  5
211
100
AcDbSymbolTableRecord
100
AcDbLayerTableRecord
  2
SOLIDO
 70
0
 62
7
  6
CONTINUOUS
370
-3
390
F
  0
LAYER
  5
212
100
AcDbSymbolTableRecord
100
AcDbLayerTableRecord
  2
SUPERFICI
 70
0
 62
7
  6
CONTINUOUS
370
-3
390
F
  0
LAYER
  5
213
100
AcDbSymbolTableRecord
100
AcDbLayerTableRecord
  2
TRASH
 70
0
 62
7
  6
CONTINUOUS
370
-3
390
F
  0
LAYER
  5
214
100
AcDbSymbolTableRecord
100
AcDbLayerTableRecord
  2
WHITE
 70
0
 62
7
  6
CONTINUOUS
370
-3
390
F
  0
LAYER
  5
215
100
AcDbSymbolTableRecord
100
AcDbLayerTableRecord
  2
XSEC_DATUMS
 70
0
 62
7
  6
CONTINUOUS
370
-3
390
F
  0
ENDTAB
  0
TABLE
  2
STYLE
  5
3
100
AcDbSymbolTable
 70
1
  0
STYLE
  5
11
100
AcDbSymbolTableRecord
100
AcDbTextStyleTableRecord
  2
STANDARD
 70
0
 40
0.0
 41
0.8
 50
0.0
 71
0
 42
0.2
  3
txt
  4

  0
STYLE
  5
216
100
AcDbSymbolTableRecord
100
AcDbTextStyleTableRecord
  2
TEXTSTYLE_1
 70
0
 40
0.0
 41
0.8
 50
0.0
 71
0
 42
0.2
  3
gdt
  4

  0
ENDTAB
  0
TABLE
  2
VIEW
  5
6
100
AcDbSymbolTable
 70
0
  0
ENDTAB
  0
TABLE
  2
UCS
  5
7
100
AcDbSymbolTable
 70
0
  0
ENDTAB
  0
TABLE
  2
APPID
  5
9
100
AcDbSymbolTable
 70
1
  0
APPID
  5
217
100
AcDbSymbolTableRecord
100
AcDbRegAppTableRecord
  2
ACAD
 70
0
  0
ENDTAB
  0
TABLE
  2
BLOCK_RECORD
  5
1
100
AcDbSymbolTable
 70
0
  0
BLOCK_RECORD
  5
218
100
AcDbSymbolTableRecord
100
AcDbBlockTableRecord
  2
*Model_Space
  0
BLOCK_RECORD
  5
219
100
AcDbSymbolTableRecord
100
AcDbBlockTableRecord
  2
*Paper_Space
  0
BLOCK_RECORD
  5
21A
100
AcDbSymbolTableRecord
100
AcDbBlockTableRecord
  2
_FILLED
  0
BLOCK_RECORD
  5
21B
100
AcDbSymbolTableRecord
100
AcDbBlockTableRecord
  2
*D0
  0
BLOCK_RECORD
  5
21C
100
AcDbSymbolTableRecord
100
AcDbBlockTableRecord
  2
*D1
  0
BLOCK_RECORD
  5
21D
100
AcDbSymbolTableRecord
100
AcDbBlockTableRecord
  2
*D2
  0
ENDTAB
  0
TABLE
  2
DIMSTYLE
  5
A
100
AcDbSymbolTable
 70
1
100
AcDbDimStyleTable
 71
0
  0
DIMSTYLE
105
21E
100
AcDbSymbolTableRecord
100
AcDbDimStyleTableRecord
  2
STANDARD
 70
0
  3

  4

 40
1.0
 41
3.0
 42
0.0625
 43
0.38
 44
0.18
 45
0.0
 46
0.0
 47
0.01
 48
0.01
140
3.0
141
0.09
142
0.0
143
25.4
144
1.0
145
0.0
146
1.0
147
0.09
 71
1.0
 72
0.0
 73
0
 74
0
 75
0
 76
0
 77
1
 78
8
170
0
171
2
172
0
173
0
174
0
175
0
176
0
177
0
178
0
270
2
271
2
272
2
273
2
274
2
275
0
280
0
281
0
282
0
283
1
284
8
285
0
286
0
287
3
288
0
340
11
341
21A
342
21A
343
21A
344
21A
  0
DIMSTYLE
105
21F
100
AcDbSymbolTableRecord
100
AcDbDimStyleTableRecord
  2
DIMSTYLE_1
 70
0
  3

  4

 40
1.0
 41
3.0
 42
0.0625
 43
0.38
 44
0.18
 45
0.0
 46
0.0
 47
0.0
 48
0.0
140
3.0
141
0.09
142
0.0
143
25.4
144
1.0
145
0.0
146
1.0
147
0.09
 71
0.0
 72
0.0
 73
0
 74
0
 75
0
 76
0
 77
1
 78
8
170
0
171
2
172
0
173
0
174
0
175
0
176
0
177
0
178
0
270
2
271
2
272
2
273
2
274
2
275
0
280
0
281
0
282
0
283
1
284
8
285
0
286
0
287
3
288
0
340
11
341
21A
342
21A
343
21A
344
21A
  0
DIMSTYLE
105
220
100
AcDbSymbolTableRecord
100
AcDbDimStyleTableRecord
  2
DIMSTYLE_2
 70
0
  3

  4

 40
1.0
 41
3.0
 42
0.0625
 43
0.38
 44
0.18
 45
0.0
 46
0.0
 47
0.0
 48
0.0
140
3.0
141
0.09
142
0.0
143
25.4
144
1.0
145
0.0
146
1.0
147
0.09
 71
0.0
 72
0.0
 73
0
 74
0
 75
0
 76
0
 77
1
 78
8
170
0
171
2
172
0
173
0
174
0
175
0
176
0
177
0
178
0
270
2
271
1
272
1
273
2
274
2
275
0
280
0
281
0
282
0
283
1
284
8
285
0
286
0
287
3
288
0
340
11
341
21A
342
21A
343
21A
344
21A
  0
ENDTAB
  0
ENDSEC
  0
SECTION
  2
BLOCKS
  0
BLOCK
  5
20
100
AcDbEntity
  8
0
100
AcDbBlockBegin
  2
*Model_Space
 70
0
 10
0.0
 20
0.0
 30
0.0
  3
*Model_Space
  1

  0
ENDBLK
  5
21
100
AcDbEntity
  8
0
100
AcDbBlockEnd
  0
BLOCK
  5
1C
100
AcDbEntity
  8
0
100
AcDbBlockBegin
  2
*Paper_Space
 70
0
 10
0.0
 20
0.0
 30
0.0
  3
*Paper_Space
  1

  0
ENDBLK
  5
1D
100
AcDbEntity
  8
0
100
AcDbBlockEnd
  0
BLOCK
  5
221
100
AcDbEntity
  8
0
100
AcDbBlockBegin
  2
_FILLED
 70
64
 10
0.0
 20
0.0
  3
_FILLED
  1

  0
SOLID
  5
222
100
AcDbEntity
  8
0
  6
BYBLOCK
 62
0
100
AcDbTrace
 10
0.0
 20
0.0
 11
-1.0
 21
0.3166666667
 12
-1.0
 22
-0.3166666667
 13
-1.0
 23
-0.3166666667
  0
ENDBLK
  5
223
100
AcDbEntity
  8
0
  6
BYBLOCK
 62
0
100
AcDbBlockEnd
  0
BLOCK
  5
224
100
AcDbEntity
  8
0
100
AcDbBlockBegin
 62
7
  6
CONTINUOUS
  2
*D0
 70
65
 10
0.0
 20
0.0
  3
*D0
  1

  0
MTEXT
  5
225
100
AcDbEntity
  8
0
100
AcDbMText
 62
7
  6
CONTINUOUS
  7
STANDARD
 71
2
 72
1
 10
-21.5226221401
 20
22.8620389703
 30
0.0
 11
1.0
 21
0.0
 31
0.0
 44
0.9
  1
5,7
 40
3.0
 41
6.2142857143
  0
LINE
  5
226
100
AcDbEntity
  8
0
100
AcDbLine
 62
7
  6
CONTINUOUS
 10
-18.67270125
 20
11.3618655915
 11
-18.67270125
 21
20.6120389703
  0
LINE
  5
227
100
AcDbEntity
  8
0
100
AcDbLine
 62
7
  6
CONTINUOUS
 10
-24.3725430302
 20
11.3140305171
 11
-24.3725430302
 21
20.6120389703
  0
LINE
  5
228
100
AcDbEntity
  8
0
100
AcDbLine
 62
7
  6
CONTINUOUS
 10
-18.67270125
 20
19.1120389703
 11
-14.67270125
 21
19.1120389703
  0
LINE
  5
229
100
AcDbEntity
  8
0
100
AcDbLine
 62
7
  6
CONTINUOUS
 10
-14.67270125
 20
19.1120389703
 11
-21.5226221401
 21
19.1120389703
  0
LINE
  5
22A
100
AcDbEntity
  8
0
100
AcDbLine
 62
7
  6
CONTINUOUS
 10
-24.3725430302
 20
19.1120389703
 11
-28.3725430302
 21
19.1120389703
  0
LINE
  5
22B
100
AcDbEntity
  8
0
100
AcDbLine
 62
7
  6
CONTINUOUS
 10
-28.3725430302
 20
19.1120389703
 11
-21.5226221401
 21
19.1120389703
  0
INSERT
  5
22C
100
AcDbEntity
  8
0
100
AcDbBlockReference
 62
7
  6
CONTINUOUS
  2
_FILLED
 10
-18.67270125
 20
19.1120389703
 41
3.0
 42
3.0
 43
3.0
 50
180.0
  0
INSERT
  5
22D
100
AcDbEntity
  8
0
100
AcDbBlockReference
 62
7
  6
CONTINUOUS
  2
_FILLED
 10
-24.3725430302
 20
19.1120389703
 41
3.0
 42
3.0
 43
3.0
  0
ENDBLK
  5
22E
100
AcDbEntity
  8
0
  6
BYBLOCK
 62
0
100
AcDbBlockEnd
  0
BLOCK
  5
22F
100
AcDbEntity
  8
0
100
AcDbBlockBegin
 62
7
  6
CONTINUOUS
  2
*D1
 70
65
 10
0.0
 20
0.0
  3
*D1
  1

  0
MTEXT
  5
230
100
AcDbEntity
  8
0
100
AcDbMText
 62
7
  6
CONTINUOUS
  7
STANDARD
 71
2
 72
1
 10
13.7947654167
 20
22.8620389703
 30
0.0
 11
1.0
 21
0.0
 31
0.0
 44
0.9
  1
44,7
 40
3.0
 41
8.7857142857
  0
LINE
  5
231
100
AcDbEntity
  8
0
100
AcDbLine
 62
7
  6
CONTINUOUS
 10
-8.5552345833
 20
11.3618655915
 11
-8.5552345833
 21
20.6120389703
  0
LINE
  5
232
100
AcDbEntity
  8
0
100
AcDbLine
 62
7
  6
CONTINUOUS
 10
36.1447654167
 20
11.3618655915
 11
36.1447654167
 21
20.6120389703
  0
LINE
  5
233
100
AcDbEntity
  8
0
100
AcDbLine
 62
7
  6
CONTINUOUS
 10
-8.5552345833
 20
19.1120389703
 11
13.7947654167
 21
19.1120389703
  0
LINE
  5
234
100
AcDbEntity
  8
0
100
AcDbLine
 62
7
  6
CONTINUOUS
 10
36.1447654167
 20
19.1120389703
 11
13.7947654167
 21
19.1120389703
  0
INSERT
  5
235
100
AcDbEntity
  8
0
100
AcDbBlockReference
 62
7
  6
CONTINUOUS
  2
_FILLED
 10
-8.5552345833
 20
19.1120389703
 41
3.0
 42
3.0
 43
3.0
 50
180.0
  0
INSERT
  5
236
100
AcDbEntity
  8
0
100
AcDbBlockReference
 62
7
  6
CONTINUOUS
  2
_FILLED
 10
36.1447654167
 20
19.1120389703
 41
3.0
 42
3.0
 43
3.0
 50
0.0
  0
ENDBLK
  5
237
100
AcDbEntity
  8
0
  6
BYBLOCK
 62
0
100
AcDbBlockEnd
  0
BLOCK
  5
238
100
AcDbEntity
  8
0
100
AcDbBlockBegin
 62
7
  6
CONTINUOUS
  2
*D2
 70
65
 10
0.0
 20
0.0
  3
*D2
  1

  0
MTEXT
  5
239
100
AcDbEntity
  8
0
100
AcDbMText
 62
7
  6
CONTINUOUS
  7
STANDARD
 71
2
 72
1
 10
40.3947654167
 20
0.05768
 30
0.0
 11
0.0
 21
1.0
 31
0.0
 44
0.9
  1
22,1
 40
3.0
 41
8.1428571429
  0
LINE
  5
23A
100
AcDbEntity
  8
0
100
AcDbLine
 62
7
  6
CONTINUOUS
 10
36.3946892149
 20
11.1117989703
 11
45.6447654167
 21
11.1117989703
  0
LINE
  5
23B
100
AcDbEntity
  8
0
100
AcDbLine
 62
7
  6
CONTINUOUS
 10
36.1175472219
 20
-10.9964389703
 11
45.6447654167
 21
-10.9964389703
  0
LINE
  5
23C
100
AcDbEntity
  8
0
100
AcDbLine
 62
7
  6
CONTINUOUS
 10
44.1447654167
 20
11.1117989703
 11
44.1447654167
 21
0.05768
  0
LINE
  5
23D
100
AcDbEntity
  8
0
100
AcDbLine
 62
7
  6
CONTINUOUS
 10
44.1447654167
 20
-10.9964389703
 11
44.1447654167
 21
0.05768
  0
INSERT
  5
23E
100
AcDbEntity
  8
0
100
AcDbBlockReference
 62
7
  6
CONTINUOUS
  2
_FILLED
 10
44.1447654167
 20
11.1117989703
 41
3.0
 42
3.0
 43
3.0
 50
90.0
  0
INSERT
  5
23F
100
AcDbEntity
  8
0
100
AcDbBlockReference
 62
7
  6
CONTINUOUS
  2
_FILLED
 10
44.1447654167
 20
-10.9964389703
 41
3.0
 42
3.0
 43
3.0
 50
270.0
  0
ENDBLK
  5
240
100
AcDbEntity
  8
0
  6
BYBLOCK
 62
0
100
AcDbBlockEnd
  0
ENDSEC
  0
SECTION
  2
ENTITIES
  0
DIMENSION
  5
241
100
AcDbEntity
  8
0
100
AcDbDimension
 62
7
  6
CONTINUOUS
  2
*D0
 10
-24.3725430302
 20
19.1120389703
 11
-24.6297649973
 21
21.3620389703
 70
160
 71
2
 42
5.6998417802
  3
DIMSTYLE_1
100
AcDbAlignedDimension
 13
-18.67270125
 23
11.3618655915
 14
-24.3725430302
 24
11.3140305171
 50
180.0
100
AcDbRotatedDimension
  0
DIMENSION
  5
242
100
AcDbEntity
  8
0
100
AcDbDimension
 62
7
  6
CONTINUOUS
  2
*D1
 10
36.1447654167
 20
19.1120389703
 11
9.4019082738
 21
21.3620389703
 70
160
 71
2
 42
44.7
  3
DIMSTYLE_1
100
AcDbAlignedDimension
 13
-8.5552345833
 23
11.3618655915
 14
36.1447654167
 24
11.3618655915
100
AcDbRotatedDimension
  0
DIMENSION
  5
243
100
AcDbEntity
  8
0
100
AcDbDimension
 62
7
  6
CONTINUOUS
  2
*D2
 10
44.1447654167
 20
-10.9964389703
 11
43.7190651395
 21
-3.5821635589
 70
160
 71
2
 42
22.1082379406
  3
DIMSTYLE_2
100
AcDbAlignedDimension
 13
36.3946892149
 23
11.1117989703
 14
36.1175472219
 24
-10.9964389703
 50
270.0
100
AcDbRotatedDimension
  0
LINE
  5
244
100
AcDbEntity
  8
0
100
AcDbLine
 62
7
  6
CONTINUOUS
 10
-8.528927274
 20
-10.4989483375
 11
-8.5552345833
 21
-1.8882010297
  0
LINE
  5
245
100
AcDbEntity
  8
ASSI
100
AcDbLine
 62
7
  6
CONTINUOUS
 10
-8.528927274
 20
-10.4989483375
 11
-8.5552345833
 21
-1.8882010297
  0
LINE
  5
246
100
AcDbEntity
  8
RACCORDO
100
AcDbLine
 62
7
  6
CONTINUOUS
 10
-8.5552345833
 20
10.8618655915
 11
-8.5552345833
 21
-1.8882010297
  0
LINE
  5
247
100
AcDbEntity
  8
ASSI
100
AcDbLine
 62
7
  6
CONTINUOUS
 10
-8.5552345833
 20
10.8618655915
 11
-8.5552345833
 21
-1.8882010297
  0
LINE
  5
248
100
AcDbEntity
  8
RACCORDO
100
AcDbLine
 62
253
  6
CONTINUOUS
 10
-7.8733473295
 20
10.8140305168
 11
-7.8733473295
 21
11.0642198821
  0
LINE
  5
249
100
AcDbEntity
  8
ASSI
100
AcDbLine
 62
253
  6
CONTINUOUS
 10
-7.8764905419
 20
1.7117989703
 11
-7.8733473295
 21
11.0642198821
  0
LINE
  5
24A
100
AcDbEntity
  8
0
100
AcDbLine
 62
253
  6
CONTINUOUS
 10
-8.528927274
 20
-10.4989483375
 11
-8.4269002649
 21
-10.3458300343
  0
LINE
  5
24B
100
AcDbEntity
  8
ASSI
100
AcDbLine
 62
253
  6
CONTINUOUS
 10
-8.528927274
 20
-10.4989483375
 11
-8.4269002649
 21
-10.3458300343
  0
LINE
  5
24C
100
AcDbEntity
  8
0
100
AcDbLine
 62
253
  6
CONTINUOUS
 10
-8.0280163886
 20
-10.9964389703
 11
-7.9272048514
 21
-10.8451448016
  0
LINE
  5
24D
100
AcDbEntity
  8
ASSI
100
AcDbLine
 62
253
  6
CONTINUOUS
 10
-8.0280163886
 20
-10.9964389703
 11
-7.9272048514
 21
-10.8451448016
  0
LINE
  5
24E
100
AcDbEntity
  8
RACCORDO
100
AcDbLine
 62
7
  6
CONTINUOUS
 10
28.4388117158
 20
-10.9964389703
 11
28.7870303897
 21
-10.9648301387
  0
LINE
  5
24F
100
AcDbEntity
  8
ASSI
100
AcDbLine
 62
7
  6
CONTINUOUS
 10
28.4388117158
 20
-10.9964389703
 11
28.7870303897
 21
-10.9648301387
  0
LINE
  5
250
100
AcDbEntity
  8
RACCORDO
100
AcDbLine
 62
7
  6
CONTINUOUS
 10
-0.8492808824
 20
-10.9964389703
 11
-1.1974995564
 21
-10.9648301387
  0
LINE
  5
251
100
AcDbEntity
  8
ASSI
100
AcDbLine
 62
7
  6
CONTINUOUS
 10
-0.8492808824
 20
-10.9964389703
 11
-1.1974995564
 21
-10.9648301387
  0
LINE
  5
252
100
AcDbEntity
  8
RACCORDO
100
AcDbLine
 62
7
  6
CONTINUOUS
 10
17.2388117158
 20
-10.9964389703
 11
17.5870303897
 21
-10.9648301387
  0
LINE
  5
253
100
AcDbEntity
  8
ASSI
100
AcDbLine
 62
7
  6
CONTINUOUS
 10
17.2388117158
 20
-10.9964389703
 11
17.5870303897
 21
-10.9648301387
  0
LINE
  5
254
100
AcDbEntity
  8
RACCORDO
100
AcDbLine
 62
7
  6
CONTINUOUS
 10
5.9388117158
 20
-10.9964389703
 11
6.2870303897
 21
-10.9648301387
  0
LINE
  5
255
100
AcDbEntity
  8
ASSI
100
AcDbLine
 62
7
  6
CONTINUOUS
 10
5.9388117158
 20
-10.9964389703
 11
6.2870303897
 21
-10.9648301387
  0
LINE
  5
256
100
AcDbEntity
  8
0
100
AcDbLine
 62
7
  6
CONTINUOUS
 10
35.6175472219
 20
-10.9964389703
 11
32.8507191176
 21
-10.9964389703
  0
LINE
  5
257
100
AcDbEntity
  8
ASSI
100
AcDbLine
 62
7
  6
CONTINUOUS
 10
35.6175472219
 20
-10.9964389703
 11
32.8507191176
 21
-10.9964389703
  0
LINE
  5
258
100
AcDbEntity
  8
DRAFT
100
AcDbLine
 62
7
  6
CONTINUOUS
 10
28.4388117158
 20
-10.9964389703
 11
21.6507191176
 21
-10.9964389703
  0
LINE
  5
259
100
AcDbEntity
  8
ASSI
100
AcDbLine
 62
7
  6
CONTINUOUS
 10
28.4388117158
 20
-10.9964389703
 11
21.6507191176
 21
-10.9964389703
  0
LINE
  5
25A
100
AcDbEntity
  8
DRAFT
100
AcDbLine
 62
7
  6
CONTINUOUS
 10
17.2388117158
 20
-10.9964389703
 11
10.3507191176
 21
-10.9964389703
  0
LINE
  5
25B
100
AcDbEntity
  8
ASSI
100
AcDbLine
 62
7
  6
CONTINUOUS
 10
17.2388117158
 20
-10.9964389703
 11
10.3507191176
 21
-10.9964389703
  0
LINE
  5
25C
100
AcDbEntity
  8
DRAFT
100
AcDbLine
 62
7
  6
CONTINUOUS
 10
5.9388117158
 20
-10.9964389703
 11
-0.8492808824
 21
-10.9964389703
  0
LINE
  5
25D
100
AcDbEntity
  8
ASSI
100
AcDbLine
 62
7
  6
CONTINUOUS
 10
5.9388117158
 20
-10.9964389703
 11
-0.8492808824
 21
-10.9964389703
  0
LINE
  5
25E
100
AcDbEntity
  8
0
100
AcDbLine
 62
7
  6
CONTINUOUS
 10
-5.2611882842
 20
-10.9964389703
 11
-8.0280163886
 21
-10.9964389703
  0
LINE
  5
25F
100
AcDbEntity
  8
ASSI
100
AcDbLine
 62
7
  6
CONTINUOUS
 10
-5.2611882842
 20
-10.9964389703
 11
-8.0280163886
 21
-10.9964389703
  0
LINE
  5
260
100
AcDbEntity
  8
RACCORDO
100
AcDbLine
 62
7
  6
CONTINUOUS
 10
32.3292953628
 20
-10.9595893608
 11
28.9602354705
 21
-10.9595893608
  0
LINE
  5
261
100
AcDbEntity
  8
ASSI
100
AcDbLine
 62
7
  6
CONTINUOUS
 10
32.3292953628
 20
-10.9595893608
 11
28.9602354705
 21
-10.9595893608
  0
LINE
  5
262
100
AcDbEntity
  8
RACCORDO
100
AcDbLine
 62
7
  6
CONTINUOUS
 10
21.1292953628
 20
-10.9595893608
 11
17.7602354705
 21
-10.9595893608
  0
LINE
  5
263
100
AcDbEntity
  8
ASSI
100
AcDbLine
 62
7
  6
CONTINUOUS
 10
21.1292953628
 20
-10.9595893608
 11
17.7602354705
 21
-10.9595893608
  0
LINE
  5
264
100
AcDbEntity
  8
RACCORDO
100
AcDbLine
 62
7
  6
CONTINUOUS
 10
9.8292953628
 20
-10.9595893608
 11
6.4602354705
 21
-10.9595893608
  0
LINE
  5
265
100
AcDbEntity
  8
ASSI
100
AcDbLine
 62
7
  6
CONTINUOUS
 10
9.8292953628
 20
-10.9595893608
 11
6.4602354705
 21
-10.9595893608
  0
LINE
  5
266
100
AcDbEntity
  8
RACCORDO
100
AcDbLine
 62
7
  6
CONTINUOUS
 10
-1.3707046372
 20
-10.9595893608
 11
-4.7397645295
 21
-10.9595893608
  0
LINE
  5
267
100
AcDbEntity
  8
ASSI
100
AcDbLine
 62
7
  6
CONTINUOUS
 10
-1.3707046372
 20
-10.9595893608
 11
-4.7397645295
 21
-10.9595893608
  0
LINE
  5
268
100
AcDbEntity
  8
0
100
AcDbLine
 62
253
  6
CONTINUOUS
 10
-7.9272048514
 20
-10.8451448016
 11
35.5167356848
 21
-10.8451448016
  0
LINE
  5
269
100
AcDbEntity
  8
ASSI
100
AcDbLine
 62
253
  6
CONTINUOUS
 10
-7.9272048514
 20
-10.8451448016
 11
35.5167356848
 21
-10.8451448016
  0
LINE
  5
26A
100
AcDbEntity
  8
0
100
AcDbLine
 62
253
  6
CONTINUOUS
 10
-7.9108533957
 20
-9.9955974493
 11
35.5003842291
 21
-9.9955974493
  0
LINE
  5
26B
100
AcDbEntity
  8
ASSI
100
AcDbLine
 62
253
  6
CONTINUOUS
 10
-7.9108533957
 20
-9.9955974493
 11
35.5003842291
 21
-9.9955974493
  0
LINE
  5
26C
100
AcDbEntity
  8
RACCORDO
100
AcDbLine
 62
7
  6
CONTINUOUS
 10
10.3507191176
 20
-10.9964389703
 11
10.0025004436
 21
-10.9648301387
  0
LINE
  5
26D
100
AcDbEntity
  8
ASSI
100
AcDbLine
 62
7
  6
CONTINUOUS
 10
10.3507191176
 20
-10.9964389703
 11
10.0025004436
 21
-10.9648301387
  0
LINE
  5
26E
100
AcDbEntity
  8
RACCORDO
100
AcDbLine
 62
7
  6
CONTINUOUS
 10
21.6507191176
 20
-10.9964389703
 11
21.3025004436
 21
-10.9648301387
  0
LINE
  5
26F
100
AcDbEntity
  8
ASSI
100
AcDbLine
 62
7
  6
CONTINUOUS
 10
21.6507191176
 20
-10.9964389703
 11
21.3025004436
 21
-10.9648301387
  0
LINE
  5
270
100
AcDbEntity
  8
RACCORDO
100
AcDbLine
 62
7
  6
CONTINUOUS
 10
-5.2611882842
 20
-10.9964389703
 11
-4.9129696103
 21
-10.9648301387
  0
LINE
  5
271
100
AcDbEntity
  8
ASSI
100
AcDbLine
 62
7
  6
CONTINUOUS
 10
-5.2611882842
 20
-10.9964389703
 11
-4.9129696103
 21
-10.9648301387
  0
LINE
  5
272
100
AcDbEntity
  8
RACCORDO
100
AcDbLine
 62
7
  6
CONTINUOUS
 10
32.8507191176
 20
-10.9964389703
 11
32.5025004436
 21
-10.9648301387
  0
LINE
  5
273
100
AcDbEntity
  8
ASSI
100
AcDbLine
 62
7
  6
CONTINUOUS
 10
32.8507191176
 20
-10.9964389703
 11
32.5025004436
 21
-10.9648301387
  0
LINE
  5
274
100
AcDbEntity
  8
CURVE
100
AcDbLine
 62
253
  6
CONTINUOUS
 10
13.6533440604
 20
-3.9024145921
 11
10.4033440604
 21
-0.6524145921
  0
LINE
  5
275
100
AcDbEntity
  8
CURVE
100
AcDbLine
 62
253
  6
CONTINUOUS
 10
10.6861867729
 20
-0.3695718796
 11
13.7947654167
 21
-3.4781505234
  0
LINE
  5
276
100
AcDbEntity
  8
CURVE
100
AcDbLine
 62
253
  6
CONTINUOUS
 10
13.6533440604
 20
-2.629622386
 11
10.6533440604
 21
0.370377614
  0
LINE
  5
277
100
AcDbEntity
  8
CURVE
100
AcDbLine
 62
253
  6
CONTINUOUS
 10
11.2776081291
 20
0.3117989703
 11
13.7947654167
 21
-2.2053583172
  0
LINE
  5
278
100
AcDbEntity
  8
CURVE
100
AcDbLine
 62
253
  6
CONTINUOUS
 10
13.7947654167
 20
-2.2053583172
 11
16.3119227042
 21
0.3117989703
  0
LINE
  5
279
100
AcDbEntity
  8
CURVE
100
AcDbLine
 62
253
  6
CONTINUOUS
 10
16.3119227042
 20
0.3117989703
 11
11.2776081291
 21
0.3117989703
  0
LINE
  5
27A
100
AcDbEntity
  8
CURVE
100
AcDbLine
 62
253
  6
CONTINUOUS
 10
10.7947654167
 20
0.7117989703
 11
16.7947654167
 21
0.7117989703
  0
LINE
  5
27B
100
AcDbEntity
  8
0
100
AcDbLine
 62
253
  6
CONTINUOUS
 10
35.4660213752
 20
1.7117989703
 11
-7.8764905419
 21
1.7117989703
  0
LINE
  5
27C
100
AcDbEntity
  8
ASSI
100
AcDbLine
 62
253
  6
CONTINUOUS
 10
35.4660213752
 20
1.7117989703
 11
-7.8764905419
 21
1.7117989703
  0
LINE
  5
27D
100
AcDbEntity
  8
CURVE
100
AcDbLine
 62
253
  6
CONTINUOUS
 10
16.9361867729
 20
0.370377614
 11
13.9361867729
 21
-2.629622386
  0
LINE
  5
27E
100
AcDbEntity
  8
CURVE
100
AcDbLine
 62
253
  6
CONTINUOUS
 10
13.7947654167
 20
-3.4781505234
 11
16.9033440604
 21
-0.3695718796
  0
LINE
  5
27F
100
AcDbEntity
  8
CURVE
100
AcDbLine
 62
253
  6
CONTINUOUS
 10
17.1861867729
 20
-0.6524145921
 11
13.9361867729
 21
-3.9024145921
  0
LINE
  5
280
100
AcDbEntity
  8
RACCORDO
100
AcDbLine
 62
253
  6
CONTINUOUS
 10
36.1447654167
 20
10.8618655915
 11
35.9625736203
 21
10.8163349877
  0
LINE
  5
281
100
AcDbEntity
  8
ASSI
100
AcDbLine
 62
253
  6
CONTINUOUS
 10
36.1447654167
 20
10.8618655915
 11
35.9625736203
 21
10.8163349877
  0
LINE
  5
282
100
AcDbEntity
  8
RACCORDO
100
AcDbLine
 62
253
  6
CONTINUOUS
 10
-8.3730427869
 20
10.8163349877
 11
-8.5552345833
 21
10.8618655915
  0
LINE
  5
283
100
AcDbEntity
  8
ASSI
100
AcDbLine
 62
253
  6
CONTINUOUS
 10
-8.3730427869
 20
10.8163349877
 11
-8.5552345833
 21
10.8618655915
  0
LINE
  5
284
100
AcDbEntity
  8
RACCORDO
100
AcDbLine
 62
253
  6
CONTINUOUS
 10
35.8946892149
 20
11.1117989703
 11
35.7127258167
 21
11.0663254443
  0
LINE
  5
285
100
AcDbEntity
  8
ASSI
100
AcDbLine
 62
253
  6
CONTINUOUS
 10
35.8946892149
 20
11.1117989703
 11
35.7127258167
 21
11.0663254443
  0
LINE
  5
286
100
AcDbEntity
  8
RACCORDO
100
AcDbLine
 62
7
  6
CONTINUOUS
 10
17.9466639602
 20
5.6117989703
 11
9.6428668731
 21
5.6117989703
  0
LINE
  5
287
100
AcDbEntity
  8
ASSI
100
AcDbLine
 62
7
  6
CONTINUOUS
 10
17.9466639602
 20
5.6117989703
 11
9.6428668731
 21
5.6117989703
  0
LINE
  5
288
100
AcDbEntity
  8
SUPERFICI
100
AcDbLine
 62
7
  6
CONTINUOUS
 10
9.6428668731
 20
5.6117989703
 11
17.9466639602
 21
5.6117989703
  0
LINE
  5
289
100
AcDbEntity
  8
RACCORDO
100
AcDbLine
 62
253
  6
CONTINUOUS
 10
-8.1231949834
 20
11.0663254443
 11
-8.3051583816
 21
11.1117989703
  0
LINE
  5
28A
100
AcDbEntity
  8
ASSI
100
AcDbLine
 62
253
  6
CONTINUOUS
 10
-8.1231949834
 20
11.0663254443
 11
-8.3051583816
 21
11.1117989703
  0
LINE
  5
28B
100
AcDbEntity
  8
RACCORDO
100
AcDbLine
 62
7
  6
CONTINUOUS
 10
17.9460364874
 20
7.8117989703
 11
9.6434943459
 21
7.8117989703
  0
LINE
  5
28C
100
AcDbEntity
  8
ASSI
100
AcDbLine
 62
7
  6
CONTINUOUS
 10
17.9460364874
 20
7.8117989703
 11
9.6434943459
 21
7.8117989703
  0
LINE
  5
28D
100
AcDbEntity
  8
SUPERFICI
100
AcDbLine
 62
7
  6
CONTINUOUS
 10
9.6434943459
 20
7.8117989703
 11
17.9460364874
 21
7.8117989703
  0
LINE
  5
28E
100
AcDbEntity
  8
DRAFT
100
AcDbLine
 62
7
  6
CONTINUOUS
 10
33.5572314072
 20
11.1117989703
 11
33.2947654167
 21
11.0856183669
  0
LINE
  5
28F
100
AcDbEntity
  8
ASSI
100
AcDbLine
 62
7
  6
CONTINUOUS
 10
33.5572314072
 20
11.1117989703
 11
33.2947654167
 21
11.0856183669
  0
LINE
  5
290
100
AcDbEntity
  8
DRAFT
100
AcDbLine
 62
7
  6
CONTINUOUS
 10
-5.9677005739
 20
11.1117989703
 11
-5.7052345833
 21
11.0856183669
  0
LINE
  5
291
100
AcDbEntity
  8
ASSI
100
AcDbLine
 62
7
  6
CONTINUOUS
 10
-5.9677005739
 20
11.1117989703
 11
-5.7052345833
 21
11.0856183669
  0
LINE
  5
292
100
AcDbEntity
  8
RACCORDO
100
AcDbLine
 62
253
  6
CONTINUOUS
 10
35.4628754796
 20
10.8140305168
 11
-7.8733446463
 21
10.8140305168
  0
LINE
  5
293
100
AcDbEntity
  8
ASSI
100
AcDbLine
 62
253
  6
CONTINUOUS
 10
35.4628754796
 20
10.8140305168
 11
-7.8733446463
 21
10.8140305168
  0
LINE
  5
294
100
AcDbEntity
  8
RACCORDO
100
AcDbLine
 62
253
  6
CONTINUOUS
 10
35.4628781628
 20
11.0642198821
 11
-7.8733473295
 21
11.0642198821
  0
LINE
  5
295
100
AcDbEntity
  8
ASSI
100
AcDbLine
 62
7
  6
CONTINUOUS
 10
35.4628781628
 20
11.0642198821
 11
-7.8733473295
 21
11.0642198821
  0
LINE
  5
296
100
AcDbEntity
  8
DRAFT
100
AcDbLine
 62
7
  6
CONTINUOUS
 10
33.2947654167
 20
11.0856183669
 11
-5.7052345833
 21
11.0856183669
  0
LINE
  5
297
100
AcDbEntity
  8
ASSI
100
AcDbLine
 62
7
  6
CONTINUOUS
 10
33.2947654167
 20
11.0856183669
 11
-5.7052345833
 21
11.0856183669
  0
LINE
  5
298
100
AcDbEntity
  8
RACCORDO
100
AcDbLine
 62
7
  6
CONTINUOUS
 10
35.8946892149
 20
11.1117989703
 11
33.5572314072
 21
11.1117989703
  0
LINE
  5
299
100
AcDbEntity
  8
ASSI
100
AcDbLine
 62
7
  6
CONTINUOUS
 10
35.8946892149
 20
11.1117989703
 11
33.5572314072
 21
11.1117989703
  0
LINE
  5
29A
100
AcDbEntity
  8
RACCORDO
100
AcDbLine
 62
7
  6
CONTINUOUS
 10
-5.9677005739
 20
11.1117989703
 11
-8.3051583816
 21
11.1117989703
  0
LINE
  5
29B
100
AcDbEntity
  8
ASSI
100
AcDbLine
 62
7
  6
CONTINUOUS
 10
-5.9677005739
 20
11.1117989703
 11
-8.3051583816
 21
11.1117989703
  0
LINE
  5
29C
100
AcDbEntity
  8
0
100
AcDbLine
 62
253
  6
CONTINUOUS
 10
35.5167356848
 20
-10.8451448016
 11
35.6175472219
 21
-10.9964389703
  0
LINE
  5
29D
100
AcDbEntity
  8
ASSI
100
AcDbLine
 62
253
  6
CONTINUOUS
 10
35.5167356848
 20
-10.8451448016
 11
35.6175472219
 21
-10.9964389703
  0
LINE
  5
29E
100
AcDbEntity
  8
0
100
AcDbLine
 62
253
  6
CONTINUOUS
 10
36.0164310983
 20
-10.3458300343
 11
36.1184581073
 21
-10.4989483375
  0
LINE
  5
29F
100
AcDbEntity
  8
ASSI
100
AcDbLine
 62
253
  6
CONTINUOUS
 10
36.0164310983
 20
-10.3458300343
 11
36.1184581073
 21
-10.4989483375
  0
LINE
  5
2A0
100
AcDbEntity
  8
RACCORDO
100
AcDbLine
 62
253
  6
CONTINUOUS
 10
35.4628781628
 20
10.8140305168
 11
35.4628781628
 21
11.0642198821
  0
LINE
  5
2A1
100
AcDbEntity
  8
ASSI
100
AcDbLine
 62
253
  6
CONTINUOUS
 10
35.4660213752
 20
1.7117989703
 11
35.4628781628
 21
11.0642198821
  0
LINE
  5
2A2
100
AcDbEntity
  8
RACCORDO
100
AcDbLine
 62
7
  6
CONTINUOUS
 10
36.1447654167
 20
10.8618655915
 11
36.1447654167
 21
-1.8882010297
  0
LINE
  5
2A3
100
AcDbEntity
  8
ASSI
100
AcDbLine
 62
7
  6
CONTINUOUS
 10
36.1447654167
 20
10.8618655915
 11
36.1447654167
 21
-1.8882010297
  0
LINE
  5
2A4
100
AcDbEntity
  8
0
100
AcDbLine
 62
7
  6
CONTINUOUS
 10
36.1184581073
 20
-10.4989483375
 11
36.1447654167
 21
-1.8882010297
  0
LINE
  5
2A5
100
AcDbEntity
  8
ASSI
100
AcDbLine
 62
7
  6
CONTINUOUS
 10
36.1184581073
 20
-10.4989483375
 11
36.1447654167
 21
-1.8882010297
  0
LINE
  5
2A6
100
AcDbEntity
  8
0
100
AcDbLine
 62
7
  6
CONTINUOUS
 10
-22.3564335264
 20
-10.8451448016
 11
-19.4695688145
 21
-10.9964389703
  0
LINE
  5
2A7
100
AcDbEntity
  8
ASSI
100
AcDbLine
 62
7
  6
CONTINUOUS
 10
-22.3564335264
 20
-10.8451448016
 11
-19.4695688145
 21
-10.9964389703
  0
LINE
  5
2A8
100
AcDbEntity
  8
0
100
AcDbLine
 62
253
  6
CONTINUOUS
 10
-22.3477152966
 20
-10.3458300343
 11
-19.4260440239
 21
-10.4989483375
  0
LINE
  5
2A9
100
AcDbEntity
  8
ASSI
100
AcDbLine
 62
253
  6
CONTINUOUS
 10
-22.3477152966
 20
-10.3458300343
 11
-19.4260440239
 21
-10.4989483375
  0
LINE
  5
2AA
100
AcDbEntity
  8
RACCORDO
100
AcDbLine
 62
253
  6
CONTINUOUS
 10
-19.0955769704
 20
-6.7216926309
 11
-19.07270125
 21
-6.7216926309
  0
LINE
  5
2AB
100
AcDbEntity
  8
ASSI
100
AcDbLine
 62
253
  6
CONTINUOUS
 10
-19.0955769704
 20
-6.7216926309
 11
-19.07270125
 21
-6.7216926309
  0
LINE
  5
2AC
100
AcDbEntity
  8
CURVE
100
AcDbLine
 62
253
  6
CONTINUOUS
 10
-24.0001716964
 20
-3.9024145921
 11
-23.9953694373
 21
-3.9609932359
  0
LINE
  5
2AD
100
AcDbEntity
  8
CURVE
100
AcDbLine
 62
253
  6
CONTINUOUS
 10
-24.0950163297
 20
-2.629622386
 11
-24.0910494898
 21
-2.6882010297
  0
LINE
  5
2AE
100
AcDbEntity
  8
CURVE
100
AcDbLine
 62
253
  6
CONTINUOUS
 10
-24.2121777937
 20
-0.5234051332
 11
-24.2120194626
 21
-0.527011939
  0
LINE
  5
2AF
100
AcDbEntity
  8
CURVE
100
AcDbLine
 62
253
  6
CONTINUOUS
 10
-24.2578797618
 20
0.7117989703
 11
-24.2542048921
 21
0.5924416185
  0
LINE
  5
2B0
100
AcDbEntity
  8
RACCORDO
100
AcDbLine
 62
7
  6
CONTINUOUS
 10
-19.07270125
 20
-6.7216926309
 11
-19.07270125
 21
-6.4602219508
  0
LINE
  5
2B1
100
AcDbEntity
  8
ASSI
100
AcDbLine
 62
7
  6
CONTINUOUS
 10
-19.07270125
 20
-6.7216926309
 11
-19.07270125
 21
-6.4602219508
  0
LINE
  5
2B2
100
AcDbEntity
  8
RACCORDO
100
AcDbLine
 62
7
  6
CONTINUOUS
 10
-18.67270125
 20
11.1117989703
 11
-18.67270125
 21
-1.8882010297
  0
LINE
  5
2B3
100
AcDbEntity
  8
ASSI
100
AcDbLine
 62
7
  6
CONTINUOUS
 10
-18.67270125
 20
11.1117989703
 11
-18.67270125
 21
-1.8882010297
  0
LINE
  5
2B4
100
AcDbEntity
  8
0
100
AcDbLine
 62
253
  6
CONTINUOUS
 10
-23.79998311
 20
1.7212989703
 11
-24.2824431031
 21
1.7117989703
  0
LINE
  5
2B5
100
AcDbEntity
  8
ASSI
100
AcDbLine
 62
253
  6
CONTINUOUS
 10
-23.79998311
 20
1.7212989703
 11
-24.2824431031
 21
1.7117989703
  0
LINE
  5
2B6
100
AcDbEntity
  8
0
100
AcDbLine
 62
7
  6
CONTINUOUS
 10
-19.4695688145
 20
-10.9964389703
 11
-18.67270125
 21
-1.8882010297
  0
LINE
  5
2B7
100
AcDbEntity
  8
ASSI
100
AcDbLine
 62
7
  6
CONTINUOUS
 10
-19.4695688145
 20
-10.9964389703
 11
-18.67270125
 21
-1.8882010297
  0
LINE
  5
2B8
100
AcDbEntity
  8
RACCORDO
100
AcDbLine
 62
253
  6
CONTINUOUS
 10
-18.67270125
 20
10.8618655915
 11
-23.8899916776
 21
10.8163349877
  0
LINE
  5
2B9
100
AcDbEntity
  8
ASSI
100
AcDbLine
 62
253
  6
CONTINUOUS
 10
-18.67270125
 20
10.8618655915
 11
-23.8899916776
 21
10.8163349877
  0
LINE
  5
2BA
100
AcDbEntity
  8
RACCORDO
100
AcDbLine
 62
7
  6
CONTINUOUS
 10
-18.67270125
 20
11.1117989703
 11
-24.124724743
 21
11.0642198821
  0
LINE
  5
2BB
100
AcDbEntity
  8
ASSI
100
AcDbLine
 62
7
  6
CONTINUOUS
 10
-18.67270125
 20
11.1117989703
 11
-24.124724743
 21
11.0642198821
  0
ARC
  5
2BC
100
AcDbEntity
  8
0
100
AcDbCircle
 62
253
  6
CONTINUOUS
 10
-2571.2587593635
 20
3.3779790733
 40
2563.3828049403
100
AcDbArc
 50
359.7010774317
 51
359.9627581592
  0
ARC
  5
2BD
100
AcDbEntity
  8
ASSI
100
AcDbCircle
 62
253
  6
CONTINUOUS
 10
-2571.2587593635
 20
3.3779790733
 40
2563.3828049403
100
AcDbArc
 50
359.7010774317
 51
359.9627581592
  0
ARC
  5
2BE
100
AcDbEntity
  8
0
100
AcDbCircle
 62
253
  6
CONTINUOUS
 10
2594.8085964212
 20
3.3661261312
 40
2559.3430982989
100
AcDbArc
 50
180.037035273
 51
180.2991290416
  0
ARC
  5
2BF
100
AcDbEntity
  8
ASSI
100
AcDbCircle
 62
253
  6
CONTINUOUS
 10
2594.8085964212
 20
3.3661261312
 40
2559.3430982989
100
AcDbArc
 50
180.037035273
 51
180.2991290416
  0
ARC
  5
2C0
100
AcDbEntity
  8
0
100
AcDbCircle
 62
253
  6
CONTINUOUS
 10
-2543.3559193707
 20
3.3782230806
 40
2534.9802695343
100
AcDbArc
 50
359.6994074901
 51
359.9625500971
  0
ARC
  5
2C1
100
AcDbEntity
  8
ASSI
100
AcDbCircle
 62
253
  6
CONTINUOUS
 10
-2543.3559193707
 20
3.3782230806
 40
2534.9802695343
100
AcDbArc
 50
359.6994074901
 51
359.9625500971
  0
ARC
  5
2C2
100
AcDbEntity
  8
0
100
AcDbCircle
 62
253
  6
CONTINUOUS
 10
2566.9505705864
 20
3.3664362271
 40
2530.9853770512
100
AcDbArc
 50
180.0372421858
 51
180.3008001356
  0
ARC
  5
2C3
100
AcDbEntity
  8
ASSI
100
AcDbCircle
 62
253
  6
CONTINUOUS
 10
2566.9505705864
 20
3.3664362271
 40
2530.9853770512
100
AcDbArc
 50
180.0372421858
 51
180.3008001356
  0
ARC
  5
2C4
100
AcDbEntity
  8
0
100
AcDbCircle
 62
253
  6
CONTINUOUS
 10
-7.9263108302
 20
-10.3445013095
 40
0.5006295735
100
AcDbArc
 50
180.152081003
 51
269.8976844997
  0
ARC
  5
2C5
100
AcDbEntity
  8
ASSI
100
AcDbCircle
 62
253
  6
CONTINUOUS
 10
-7.9263108302
 20
-10.3445013095
 40
0.5006295735
100
AcDbArc
 50
180.152081003
 51
269.8976844997
  0
ARC
  5
2C6
100
AcDbEntity
  8
0
100
AcDbCircle
 62
253
  6
CONTINUOUS
 10
35.5158416624
 20
-10.3445013086
 40
0.5006295557
100
AcDbArc
 50
270.102315633
 51
359.8479188988
  0
ARC
  5
2C7
100
AcDbEntity
  8
ASSI
100
AcDbCircle
 62
253
  6
CONTINUOUS
 10
35.5158416624
 20
-10.3445013086
 40
0.5006295557
100
AcDbArc
 50
270.102315633
 51
359.8479188988
  0
ARC
  5
2C8
100
AcDbEntity
  8
SUPERFICI
100
AcDbCircle
 62
7
  6
CONTINUOUS
 10
9.6468147227
 20
6.0102940495
 40
0.402049306
100
AcDbArc
 50
180.0004689369
 51
183.7309092605
  0
ARC
  5
2C9
100
AcDbEntity
  8
SUPERFICI
100
AcDbCircle
 62
7
  6
CONTINUOUS
 10
17.9427161274
 20
6.0102940529
 40
0.4020492893
100
AcDbArc
 50
356.2680323005
 51
359.9995305818
  0
ARC
  5
2CA
100
AcDbEntity
  8
SUPERFICI
100
AcDbCircle
 62
7
  6
CONTINUOUS
 10
9.6434982641
 20
7.4102040178
 40
0.4015949525
100
AcDbArc
 50
90.000558983
 51
93.7325289333
  0
ARC
  5
2CB
100
AcDbEntity
  8
SUPERFICI
100
AcDbCircle
 62
7
  6
CONTINUOUS
 10
17.9460325654
 20
7.4102040184
 40
0.4015949519
100
AcDbArc
 50
86.2663923291
 51
89.9994404664
  0
ARC
  5
2CC
100
AcDbEntity
  8
SUPERFICI
100
AcDbCircle
 62
7
  6
CONTINUOUS
 10
17.9466606368
 20
6.0126947547
 40
0.4008957844
100
AcDbArc
 50
270.0004749669
 51
273.7335044273
  0
ARC
  5
2CD
100
AcDbEntity
  8
SUPERFICI
100
AcDbCircle
 62
7
  6
CONTINUOUS
 10
9.6428702002
 20
6.0126947385
 40
0.4008957683
100
AcDbArc
 50
266.2654016501
 51
269.9995245205
  0
ARC
  5
2CE
100
AcDbEntity
  8
SUPERFICI
100
AcDbCircle
 62
7
  6
CONTINUOUS
 10
9.6456243218
 20
7.4133031741
 40
0.4008589051
100
AcDbArc
 50
176.2644402398
 51
179.999423772
  0
ARC
  5
2CF
100
AcDbEntity
  8
SUPERFICI
100
AcDbCircle
 62
7
  6
CONTINUOUS
 10
17.943906514
 20
7.4133031781
 40
0.4008589027
100
AcDbArc
 50
0.0005756541
 51
3.7344650533
  0
ARC
  5
2D0
100
AcDbEntity
  8
RACCORDO
100
AcDbCircle
 62
253
  6
CONTINUOUS
 10
35.7125522773
 20
10.8163237234
 40
0.2500124136
100
AcDbArc
 50
0.002575836
 51
89.9602279693
  0
ARC
  5
2D1
100
AcDbEntity
  8
ASSI
100
AcDbCircle
 62
253
  6
CONTINUOUS
 10
35.7125522773
 20
10.8163237234
 40
0.2500124136
100
AcDbArc
 50
0.002575836
 51
89.9602279693
  0
ARC
  5
2D2
100
AcDbEntity
  8
RACCORDO
100
AcDbCircle
 62
253
  6
CONTINUOUS
 10
-8.1230225451
 20
10.8163248239
 40
0.2500110379
100
AcDbArc
 50
90.0395198313
 51
179.9976763473
  0
ARC
  5
2D3
100
AcDbEntity
  8
ASSI
100
AcDbCircle
 62
253
  6
CONTINUOUS
 10
-8.1230225451
 20
10.8163248239
 40
0.2500110379
100
AcDbArc
 50
90.0395198313
 51
179.9976763473
  0
ARC
  5
2D4
100
AcDbEntity
  8
CURVE
100
AcDbCircle
 62
253
  6
CONTINUOUS
 10
10.7947654167
 20
0.5117989703
 40
0.2
100
AcDbArc
 50
90.0
 51
225.0
  0
ARC
  5
2D5
100
AcDbEntity
  8
CURVE
100
AcDbCircle
 62
253
  6
CONTINUOUS
 10
10.5447654167
 20
-0.5109932359
 40
0.2
100
AcDbArc
 50
45.0
 51
225.0
  0
ARC
  5
2D6
100
AcDbEntity
  8
CURVE
100
AcDbCircle
 62
253
  6
CONTINUOUS
 10
13.7947654167
 20
-3.7609932359
 40
0.2
100
AcDbArc
 50
225.0
 51
315.0
  0
ARC
  5
2D7
100
AcDbEntity
  8
CURVE
100
AcDbCircle
 62
253
  6
CONTINUOUS
 10
17.0447654167
 20
-0.5109932359
 40
0.2
100
AcDbArc
 50
315.0
 51
135.0
  0
ARC
  5
2D8
100
AcDbEntity
  8
CURVE
100
AcDbCircle
 62
253
  6
CONTINUOUS
 10
13.7947654167
 20
-2.4882010297
 40
0.2
100
AcDbArc
 50
225.0
 51
315.0
  0
ARC
  5
2D9
100
AcDbEntity
  8
CURVE
100
AcDbCircle
 62
253
  6
CONTINUOUS
 10
16.7947654167
 20
0.5117989703
 40
0.2
100
AcDbArc
 50
315.0
 51
90.0
  0
ARC
  5
2DA
100
AcDbEntity
  8
0
100
AcDbCircle
 62
7
  6
CONTINUOUS
 10
-22.3040975702
 20
-9.8465152669
 40
1.0
100
AcDbArc
 50
188.5737414447
 51
267.0
  0
ARC
  5
2DB
100
AcDbEntity
  8
ASSI
100
AcDbCircle
 62
7
  6
CONTINUOUS
 10
-22.3040975702
 20
-9.8465152669
 40
1.0
100
AcDbArc
 50
188.5737414447
 51
267.0
  0
ARC
  5
2DC
100
AcDbEntity
  8
0
100
AcDbCircle
 62
253
  6
CONTINUOUS
 10
-22.3215473172
 20
-9.8465152654
 40
0.5000000015
100
AcDbArc
 50
188.5737415857
 51
266.9999998591
  0
ARC
  5
2DD
100
AcDbEntity
  8
ASSI
100
AcDbCircle
 62
253
  6
CONTINUOUS
 10
-22.3215473172
 20
-9.8465152654
 40
0.5000000015
100
AcDbArc
 50
188.5737415857
 51
266.9999998591
  0
ARC
  5
2DE
100
AcDbEntity
  8
RACCORDO
100
AcDbCircle
 62
7
  6
CONTINUOUS
 10
-19.37270125
 20
-6.7216926309
 40
0.3
100
AcDbArc
 50
334.9996147864
 51
360.0
  0
ARC
  5
2DF
100
AcDbEntity
  8
ASSI
100
AcDbCircle
 62
7
  6
CONTINUOUS
 10
-19.37270125
 20
-6.7216926309
 40
0.3
100
AcDbArc
 50
335.0
 51
360.0
  0
ARC
  5
2E0
100
AcDbEntity
  8
0
100
AcDbCircle
 62
7
  6
CONTINUOUS
 10
65.7013104302
 20
3.4217989703
 40
90.0
100
AcDbArc
 50
181.08868532
 51
188.5737414447
  0
ARC
  5
2E1
100
AcDbEntity
  8
ASSI
100
AcDbCircle
 62
7
  6
CONTINUOUS
 10
65.7013104302
 20
3.4217989703
 40
90.0
100
AcDbArc
 50
181.08868532
 51
188.5737414447
  0
ARC
  5
2E2
100
AcDbEntity
  8
0
100
AcDbCircle
 62
253
  6
CONTINUOUS
 10
65.6838606837
 20
3.4217989704
 40
89.5000000019
100
AcDbArc
 50
181.0886853201
 51
188.5737414446
  0
ARC
  5
2E3
100
AcDbEntity
  8
ASSI
100
AcDbCircle
 62
253
  6
CONTINUOUS
 10
65.6838606837
 20
3.4217989704
 40
89.5000000019
100
AcDbArc
 50
181.0886853201
 51
188.5737414446
  0
ARC
  5
2E4
100
AcDbEntity
  8
RACCORDO
100
AcDbCircle
 62
7
  6
CONTINUOUS
 10
-24.122543079
 20
10.8142294016
 40
0.25
100
AcDbArc
 50
90.5000068928
 51
180.0455810216
  0
ARC
  5
2E5
100
AcDbEntity
  8
ASSI
100
AcDbCircle
 62
7
  6
CONTINUOUS
 10
-24.122543079
 20
10.8142294016
 40
0.25
100
AcDbArc
 50
90.5000068928
 51
180.0455810216
  0
ARC
  5
2E6
100
AcDbEntity
  8
RACCORDO
100
AcDbCircle
 62
7
  6
CONTINUOUS
 10
475.62729875
 20
11.2117989703
 40
500.0
100
AcDbArc
 50
180.045580912
 51
181.08868532
  0
ARC
  5
2E7
100
AcDbEntity
  8
ASSI
100
AcDbCircle
 62
7
  6
CONTINUOUS
 10
475.62729875
 20
11.2117989703
 40
500.0
100
AcDbArc
 50
180.045580912
 51
181.08868532
  0
ARC
  5
2E8
100
AcDbEntity
  8
RACCORDO
100
AcDbCircle
 62
253
  6
CONTINUOUS
 10
475.584777034
 20
11.2114138248
 40
499.4749253343
100
AcDbArc
 50
180.0453202977
 51
181.0886957922
  0
ARC
  5
2E9
100
AcDbEntity
  8
ASSI
100
AcDbCircle
 62
253
  6
CONTINUOUS
 10
475.584777034
 20
11.2114138248
 40
499.4749253343
100
AcDbArc
 50
180.0453202977
 51
181.0886957922
  0
SPLINE
  5
2EA
100
AcDbEntity
  8
SUPERFICI
100
AcDbSpline
 62
7
  6
CONTINUOUS
 70
0
 71
3
 72
23
 73
19
 74
17
 42
0.0000001
 43
0.0000001
 44
0.0000000001
 12
-0.0373933977
 22
0.5728934317
 32
0.0
 13
-0.5728938165
 23
0.0373849722
 33
0.0
 40
0.0
 40
0.0
 40
0.0
 40
0.0
 40
0.0227624385
 40
0.0912783971
 40
0.1596589011
 40
0.2276200343
 40
0.2955485644
 40
0.3637816853
 40
0.431984831
 40
0.4998306796
 40
0.5676700012
 40
0.6358795281
 40
0.7041611229
 40
0.7721606806
 40
0.840172955
 40
0.9086013743
 40
0.9772044438
 40
1.0
 40
1.0
 40
1.0
 40
1.0
 10
18.3439142408
 20
7.4394121492
 30
0.0
 10
18.3436305191
 20
7.4437589664
 30
0.0
 10
18.3422085278
 20
7.4611719659
 30
0.0
 10
18.3377293063
 20
7.4914269986
 30
0.0
 10
18.3281971062
 20
7.5294988386
 30
0.0
 10
18.3150188209
 20
7.5663459643
 30
0.0
 10
18.2983122822
 20
7.6017025636
 30
0.0
 10
18.27819355
 20
7.6352900193
 30
0.0
 10
18.2548775011
 20
7.6667225738
 30
0.0
 10
18.2286402805
 20
7.6956586525
 30
0.0
 10
18.199695802
 20
7.7218883735
 30
0.0
 10
18.1682499329
 20
7.745201921
 30
0.0
 10
18.1346371859
 20
7.7653253392
 30
0.0
 10
18.0992473304
 20
7.7820380098
 30
0.0
 10
18.0623671047
 20
7.7952202724
 30
0.0
 10
18.0242596661
 20
7.8047566635
 30
0.0
 10
17.9939725818
 20
7.8092390458
 30
0.0
 10
17.9765366249
 20
7.8106625525
 30
0.0
 10
17.9721834805
 20
7.8109466229
 30
0.0
 11
18.3439142408
 21
7.4394121492
 31
0.0
 11
18.3428504844
 21
7.4524364478
 31
0.0
 11
18.3370919323
 21
7.4913274143
 31
0.0
 11
18.3275608533
 21
7.5293894854
 31
0.0
 11
18.3144276408
 21
7.5661080829
 31
0.0
 11
18.2977746776
 21
7.6013494896
 31
0.0
 11
18.2776551476
 21
7.6349372528
 31
0.0
 11
18.254339316
 21
7.6663690642
 31
0.0
 11
18.2281891363
 21
7.6952091369
 31
0.0
 11
18.1993444855
 21
7.7213486898
 31
0.0
 11
18.1679039354
 21
7.7446588849
 31
0.0
 11
18.1342877983
 21
7.7647851727
 31
0.0
 11
18.0990059275
 21
7.7814478966
 31
0.0
 11
18.0622572663
 21
7.7945841883
 31
0.0
 11
18.0241674415
 21
7.8041176199
 31
0.0
 11
17.9852267466
 21
7.8098815846
 31
0.0
 11
17.9721834805
 21
7.8109466229
 31
0.0
  0
LINE
  5
2EB
100
AcDbEntity
  8
SUPERFICI
100
AcDbLine
 62
7
  6
CONTINUOUS
 10
18.3447654167
 20
6.0102907589
 11
18.3447654166
 21
6.2181427842
  0
LINE
  5
2EC
100
AcDbEntity
  8
SUPERFICI
100
AcDbLine
 62
7
  6
CONTINUOUS
 10
18.3447654166
 20
6.2181427842
 11
18.3447654166
 21
6.270105913
  0
LINE
  5
2ED
100
AcDbEntity
  8
SUPERFICI
100
AcDbLine
 62
7
  6
CONTINUOUS
 10
18.3447654166
 20
6.270105913
 11
18.3447654166
 21
6.4779589044
  0
LINE
  5
2EE
100
AcDbEntity
  8
SUPERFICI
100
AcDbLine
 62
7
  6
CONTINUOUS
 10
18.3447654166
 20
6.4779589044
 11
18.3447654166
 21
6.685812815
  0
LINE
  5
2EF
100
AcDbEntity
  8
SUPERFICI
100
AcDbLine
 62
7
  6
CONTINUOUS
 10
18.3447654166
 20
6.685812815
 11
18.3447654166
 21
6.7377763999
  0
LINE
  5
2F0
100
AcDbEntity
  8
SUPERFICI
100
AcDbLine
 62
7
  6
CONTINUOUS
 10
18.3447654166
 20
6.7377763999
 11
18.3447654166
 21
6.9456311823
  0
LINE
  5
2F1
100
AcDbEntity
  8
SUPERFICI
100
AcDbLine
 62
7
  6
CONTINUOUS
 10
18.3447654166
 20
6.9456311823
 11
18.3447654166
 21
7.1534868016
  0
LINE
  5
2F2
100
AcDbEntity
  8
SUPERFICI
100
AcDbLine
 62
7
  6
CONTINUOUS
 10
18.3447654166
 20
7.1534868016
 11
18.3447654166
 21
7.2054508058
  0
LINE
  5
2F3
100
AcDbEntity
  8
SUPERFICI
100
AcDbLine
 62
7
  6
CONTINUOUS
 10
18.3447654166
 20
7.2054508058
 11
18.3447654167
 21
7.4133072056
  0
SPLINE
  5
2F4
100
AcDbEntity
  8
SUPERFICI
100
AcDbSpline
 62
7
  6
CONTINUOUS
 70
0
 71
3
 72
23
 73
19
 74
17
 42
0.0000001
 43
0.0000001
 44
0.0000000001
 12
0.5724305079
 22
0.0373545532
 32
0.0
 13
0.0373392303
 23
0.5724312226
 33
0.0
 40
0.0
 40
0.0
 40
0.0
 40
0.0
 40
0.0227734797
 40
0.0913061118
 40
0.1596825666
 40
0.2276240875
 40
0.2955224771
 40
0.363719376
 40
0.4318847397
 40
0.4996959305
 40
0.5675057766
 40
0.635696583
 40
0.7039733749
 40
0.7719844587
 40
0.8400235209
 40
0.9084995609
 40
0.9771748682
 40
1.0
 40
1.0
 40
1.0
 40
1.0
 10
17.9727653029
 20
5.6126497867
 30
0.0
 10
17.9771107144
 20
5.6129333511
 30
0.0
 10
17.9945149336
 20
5.6143542898
 30
0.0
 10
18.0247501369
 20
5.6188294226
 30
0.0
 10
18.0627902907
 20
5.6283519817
 30
0.0
 10
18.0995984151
 20
5.6415147939
 30
0.0
 10
18.1349119204
 20
5.6582000436
 30
0.0
 10
18.1684550998
 20
5.6782923443
 30
0.0
 10
18.1998448415
 20
5.7015781337
 30
0.0
 10
18.2287414812
 20
5.7277828372
 30
0.0
 10
18.254936761
 20
5.7566945341
 30
0.0
 10
18.2782218799
 20
5.7881094722
 30
0.0
 10
18.2983235242
 20
5.8216956674
 30
0.0
 10
18.3150206527
 20
5.857064953
 30
0.0
 10
18.3281931147
 20
5.8939324906
 30
0.0
 10
18.3377246394
 20
5.9320372964
 30
0.0
 10
18.3422054383
 20
5.962328463
 30
0.0
 10
18.3436287632
 20
5.9797697631
 30
0.0
 10
18.3439128541
 20
5.9841250358
 30
0.0
 11
17.9727653029
 21
5.6126497867
 31
0.0
 11
17.9857853965
 21
5.6137129599
 31
0.0
 11
18.0246545409
 21
5.6194670842
 31
0.0
 11
18.0626839225
 21
5.628988517
 31
0.0
 11
18.099362656
 21
5.6421061499
 31
0.0
 11
18.1345602391
 21
5.6587376248
 31
0.0
 11
18.1681029475
 21
5.6788303382
 31
0.0
 11
18.1994912202
 21
5.7021153802
 31
0.0
 11
18.2282916762
 21
5.7282327985
 31
0.0
 11
18.2543962324
 21
5.7570438728
 31
0.0
 11
18.2776777683
 21
5.7884529058
 31
0.0
 11
18.297782216
 21
5.8220419779
 31
0.0
 11
18.3144297517
 21
5.8573034322
 31
0.0
 11
18.3275561847
 21
5.8940384106
 31
0.0
 11
18.3370848491
 21
5.9321248398
 31
0.0
 11
18.3428477464
 21
5.9710753788
 31
0.0
 11
18.3439128541
 21
5.9841250358
 31
0.0
  0
SPLINE
  5
2F5
100
AcDbEntity
  8
SUPERFICI
100
AcDbSpline
 62
7
  6
CONTINUOUS
 70
0
 71
3
 72
23
 73
19
 74
17
 42
0.0000001
 43
0.0000001
 44
0.0000000001
 12
0.0373286304
 22
-0.5724315295
 32
0.0
 13
0.5724297311
 23
-0.0373654784
 33
0.0
 40
0.0
 40
0.0
 40
0.0
 40
0.0
 40
0.0228206867
 40
0.0914901968
 40
0.1599901218
 40
0.228039051
 40
0.2960313262
 40
0.364298113
 40
0.432505487
 40
0.5003281624
 40
0.5681263596
 40
0.6362752733
 40
0.7044822265
 40
0.7723992521
 40
0.8403304486
 40
0.90868309
 40
0.977221832
 40
1.0
 40
1.0
 40
1.0
 40
1.0
 10
9.2456174959
 20
5.9841324427
 30
0.0
 10
9.2459014509
 20
5.9797780159
 30
0.0
 10
9.2473242377
 20
5.9623386498
 30
0.0
 10
9.2518045337
 20
5.9320447914
 30
0.0
 10
9.2613367463
 20
5.8939346067
 30
0.0
 10
9.2745104686
 20
5.8570644774
 30
0.0
 10
9.291206081
 20
5.8216985467
 30
0.0
 10
9.3113058539
 20
5.7881140054
 30
0.0
 10
9.3345927342
 20
5.7566957291
 30
0.0
 10
9.3607903207
 20
5.727781871
 30
0.0
 10
9.3896847431
 20
5.7015795189
 30
0.0
 10
9.4210711167
 20
5.6782955018
 30
0.0
 10
9.454615917
 20
5.6582013375
 30
0.0
 10
9.4899326415
 20
5.6415146176
 30
0.0
 10
9.5267380318
 20
5.6283530793
 30
0.0
 10
9.5647727508
 20
5.6188311711
 30
0.0
 10
9.5950053524
 20
5.6143554883
 30
0.0
 10
9.612411597
 20
5.6129339909
 30
0.0
 10
9.6167578972
 20
5.6126502852
 30
0.0
 11
9.2456174959
 21
5.9841324427
 31
0.0
 11
9.2466821128
 21
5.9710853123
 31
0.0
 11
9.2524433888
 21
5.9321379092
 31
0.0
 11
9.2619747562
 21
5.8940380558
 31
0.0
 11
9.2751033819
 21
5.8572978698
 31
0.0
 11
9.2917463613
 21
5.8220462066
 31
0.0
 11
9.3118472067
 21
5.7884616818
 31
0.0
 11
9.3351339307
 21
5.7570446897
 31
0.0
 11
9.3612436055
 21
5.7282283482
 31
0.0
 11
9.3900386998
 21
5.7021161302
 31
0.0
 11
9.4214190384
 21
5.6788362491
 31
0.0
 11
9.4549662858
 21
5.6587399253
 31
0.0
 11
9.4901735347
 21
5.6421039325
 31
0.0
 11
9.5268467733
 21
5.6289885587
 31
0.0
 11
9.5648627287
 21
5.6194697799
 31
0.0
 11
9.603735149
 21
5.6137139695
 31
0.0
 11
9.6167578972
 21
5.6126502852
 31
0.0
  0
LINE
  5
2F6
100
AcDbEntity
  8
SUPERFICI
100
AcDbLine
 62
7
  6
CONTINUOUS
 10
9.2447654167
 20
7.4133072055
 11
9.2447654167
 21
7.2054508056
  0
LINE
  5
2F7
100
AcDbEntity
  8
SUPERFICI
100
AcDbLine
 62
7
  6
CONTINUOUS
 10
9.2447654167
 20
7.2054508056
 11
9.2447654167
 21
7.1534868018
  0
LINE
  5
2F8
100
AcDbEntity
  8
SUPERFICI
100
AcDbLine
 62
7
  6
CONTINUOUS
 10
9.2447654167
 20
7.1534868018
 11
9.2447654167
 21
6.9456311984
  0
LINE
  5
2F9
100
AcDbEntity
  8
SUPERFICI
100
AcDbLine
 62
7
  6
CONTINUOUS
 10
9.2447654167
 20
6.9456311984
 11
9.2447654167
 21
6.7377764002
  0
LINE
  5
2FA
100
AcDbEntity
  8
SUPERFICI
100
AcDbLine
 62
7
  6
CONTINUOUS
 10
9.2447654167
 20
6.7377764002
 11
9.2447654167
 21
6.6858128151
  0
LINE
  5
2FB
100
AcDbEntity
  8
SUPERFICI
100
AcDbLine
 62
7
  6
CONTINUOUS
 10
9.2447654167
 20
6.6858128151
 11
9.2447654167
 21
6.4779589077
  0
LINE
  5
2FC
100
AcDbEntity
  8
SUPERFICI
100
AcDbLine
 62
7
  6
CONTINUOUS
 10
9.2447654167
 20
6.4779589077
 11
9.2447654167
 21
6.2701059131
  0
LINE
  5
2FD
100
AcDbEntity
  8
SUPERFICI
100
AcDbLine
 62
7
  6
CONTINUOUS
 10
9.2447654167
 20
6.2701059131
 11
9.2447654167
 21
6.218142784
  0
LINE
  5
2FE
100
AcDbEntity
  8
SUPERFICI
100
AcDbLine
 62
7
  6
CONTINUOUS
 10
9.2447654167
 20
6.218142784
 11
9.2447654167
 21
6.0102907589
  0
SPLINE
  5
2FF
100
AcDbEntity
  8
SUPERFICI
100
AcDbSpline
 62
7
  6
CONTINUOUS
 70
0
 71
3
 72
23
 73
19
 74
17
 42
0.0000001
 43
0.0000001
 44
0.0000000001
 12
-0.5728942614
 22
-0.0373741694
 32
0.0
 13
-0.0374043475
 23
-0.5728927836
 33
0.0
 40
0.0
 40
0.0
 40
0.0
 40
0.0
 40
0.0227908498
 40
0.0913877727
 40
0.1598399068
 40
0.2278622464
 40
0.2958431797
 40
0.3641148304
 40
0.4323409186
 40
0.5001930816
 40
0.568025988
 40
0.6362126247
 40
0.7044557186
 40
0.7724027938
 40
0.8403536431
 40
0.90871048
 40
0.9772327384
 40
1.0
 40
1.0
 40
1.0
 40
1.0
 10
9.6173548939
 20
7.8109471151
 30
0.0
 10
9.6130026449
 20
7.8106631855
 30
0.0
 10
9.5955687356
 20
7.8092402356
 30
0.0
 10
9.5652790947
 20
7.804758406
 30
0.0
 10
9.5271663121
 20
7.7952213874
 30
0.0
 10
9.4902834294
 20
7.7820378922
 30
0.0
 10
9.4548968305
 20
7.7653267326
 30
0.0
 10
9.4212856765
 20
7.7452051846
 30
0.0
 10
9.3898364335
 20
7.7218898825
 30
0.0
 10
9.3608897602
 20
7.6956578585
 30
0.0
 10
9.334654869
 20
7.6667240074
 30
0.0
 10
9.3113405808
 20
7.6352948438
 30
0.0
 10
9.29121998
 20
7.6017058094
 30
0.0
 10
9.2745119501
 20
7.5663460161
 30
0.0
 10
9.2613349023
 20
7.5295016112
 30
0.0
 10
9.251803311
 20
7.4914351373
 30
0.0
 10
9.2473235142
 20
7.4611826136
 30
0.0
 10
9.2459009563
 20
7.4437675213
 30
0.0
 10
9.2456170915
 20
7.439419788
 30
0.0
 11
9.6173548939
 21
7.8109471151
 31
0.0
 11
9.6043143026
 21
7.8098825868
 31
0.0
 11
9.5653769302
 21
7.8041203095
 31
0.0
 11
9.5272737444
 21
7.7945842421
 31
0.0
 11
9.49051974
 21
7.7814457595
 31
0.0
 11
9.4552475485
 21
7.7647875813
 31
0.0
 11
9.4216359093
 21
7.7446649019
 31
0.0
 11
9.3901873742
 21
7.7213495321
 31
0.0
 11
9.3613374234
 21
7.6952048645
 31
0.0
 11
9.335192405
 21
7.6663701453
 31
0.0
 11
9.3118817353
 21
7.634946308
 31
0.0
 11
9.2917585896
 21
7.6013540477
 31
0.0
 11
9.2751010966
 21
7.5661030192
 31
0.0
 11
9.2619701062
 21
7.5293899012
 31
0.0
 11
9.2524416379
 21
7.4913411828
 31
0.0
 11
9.2466813674
 21
7.4524468233
 31
0.0
 11
9.2456170915
 21
7.439419788
 31
0.0
  0
LINE
  5
300
100
AcDbEntity
  8
RACCORDO
100
AcDbLine
 62
7
  6
CONTINUOUS
 10
18.3447654167
 20
7.4133072057
 11
18.3447654166
 21
7.1794687557
  0
LINE
  5
301
100
AcDbEntity
  8
RACCORDO
100
AcDbLine
 62
7
  6
CONTINUOUS
 10
18.3447654166
 20
7.1794687557
 11
18.3447654166
 21
6.9456311876
  0
LINE
  5
302
100
AcDbEntity
  8
RACCORDO
100
AcDbLine
 62
7
  6
CONTINUOUS
 10
18.3447654166
 20
6.9456311876
 11
18.3447654166
 21
6.7117945528
  0
LINE
  5
303
100
AcDbEntity
  8
RACCORDO
100
AcDbLine
 62
7
  6
CONTINUOUS
 10
18.3447654166
 20
6.7117945528
 11
18.3447654166
 21
6.4779589023
  0
LINE
  5
304
100
AcDbEntity
  8
RACCORDO
100
AcDbLine
 62
7
  6
CONTINUOUS
 10
18.3447654166
 20
6.4779589023
 11
18.3447654166
 21
6.2441242872
  0
LINE
  5
305
100
AcDbEntity
  8
RACCORDO
100
AcDbLine
 62
7
  6
CONTINUOUS
 10
18.3447654166
 20
6.2441242872
 11
18.3447654167
 21
6.0102907588
  0
LINE
  5
306
100
AcDbEntity
  8
RACCORDO
100
AcDbLine
 62
7
  6
CONTINUOUS
 10
9.2447654167
 20
6.0102907588
 11
9.2447654167
 21
7.4133072057
  0
SPLINE
  5
307
100
AcDbEntity
  8
RACCORDO
100
AcDbSpline
 62
7
  6
CONTINUOUS
 70
0
 71
3
 72
23
 73
19
 74
17
 42
0.0000001
 43
0.0000001
 44
0.0000000001
 12
-0.6256304749
 22
0.0
 32
0.0
 13
0.0
 23
0.6256304749
 33
0.0
 40
0.0
 40
0.0
 40
0.0
 40
0.0
 40
0.0625348873
 40
0.125302776
 40
0.1879610843
 40
0.2502495145
 40
0.3125069208
 40
0.3750288287
 40
0.4375113249
 40
0.4996701031
 40
0.5618372342
 40
0.6243553179
 40
0.6869429983
 40
0.7492898499
 40
0.811675364
 40
0.8744418063
 40
0.9373328547
 40
1.0
 40
1.0
 40
1.0
 40
1.0
 10
9.6428668731
 20
5.6117989703
 30
0.0
 10
9.6298256294
 20
5.6117989703
 30
0.0
 10
9.6036765496
 20
5.6130754064
 30
0.0
 10
9.5648405503
 20
5.6188179673
 30
0.0
 10
9.526801937
 20
5.6283331499
 30
0.0
 10
9.4899808726
 20
5.6414940941
 30
0.0
 10
9.4546497456
 20
5.6581829
 30
0.0
 10
9.4210922956
 20
5.6782808029
 30
0.0
 10
9.3896927708
 20
5.7015721845
 30
0.0
 10
9.3607875537
 20
5.7277840656
 30
0.0
 10
9.3345836038
 20
5.7567064748
 30
0.0
 10
9.3112918899
 20
5.7881342336
 30
0.0
 10
9.291186607
 20
5.8217336623
 30
0.0
 10
9.2744875922
 20
5.857118185
 30
0.0
 10
9.2613165194
 20
5.8940008886
 30
0.0
 10
9.2517925215
 20
5.9321078844
 30
0.0
 10
9.24604347
 20
5.971019578
 30
0.0
 10
9.2447654167
 20
5.9972219335
 30
0.0
 10
9.2447654167
 20
6.0102907588
 30
0.0
 11
9.6428668731
 21
5.6117989703
 31
0.0
 11
9.6037897748
 21
5.6137086118
 31
0.0
 11
9.5649428192
 21
5.6194538696
 31
0.0
 11
9.5269139852
 21
5.628968177
 31
0.0
 11
9.4902184188
 21
5.642085359
 31
0.0
 11
9.4549999964
 21
5.6587219273
 31
0.0
 11
9.4214428213
 21
5.6788203606
 31
0.0
 11
9.3900467059
 21
5.7021095556
 31
0.0
 11
9.3612390572
 21
5.7282328985
 31
0.0
 11
9.3351247915
 21
5.7570558282
 31
0.0
 11
9.3118353354
 21
5.7884794671
 31
0.0
 11
9.2917285477
 21
5.8220796005
 31
0.0
 11
9.275080059
 21
5.8573542786
 31
0.0
 11
9.2619527391
 21
5.894110722
 31
0.0
 11
9.2524296566
 21
5.9322070969
 31
0.0
 11
9.2466776412
 21
5.9711309433
 31
0.0
 11
9.2447654167
 21
6.0102907588
 31
0.0
  0
SPLINE
  5
308
100
AcDbEntity
  8
RACCORDO
100
AcDbSpline
 62
7
  6
CONTINUOUS
 70
0
 71
3
 72
23
 73
19
 74
17
 42
0.0000001
 43
0.0000001
 44
0.0000000001
 12
-0.0
 22
0.6260794102
 32
0.0
 13
0.6260794102
 23
0.0
 33
0.0
 40
0.0
 40
0.0
 40
0.0
 40
0.0
 40
0.0625064794
 40
0.125265243
 40
0.1879314833
 40
0.2502417825
 40
0.3125316189
 40
0.3750924245
 40
0.4376158557
 40
0.4998130445
 40
0.5620138933
 40
0.624555553
 40
0.6871533927
 40
0.7494944038
 40
0.8118588393
 40
0.874584964
 40
0.9374149203
 40
1.0
 40
1.0
 40
1.0
 40
1.0
 10
9.2447654167
 20
7.4133072057
 30
0.0
 10
9.2447654167
 20
7.426351879
 30
0.0
 10
9.246043046
 20
7.4525118798
 30
0.0
 10
9.251790526
 20
7.4913693868
 30
0.0
 10
9.2613154084
 20
7.5294390306
 30
0.0
 10
9.2744916367
 20
7.566298226
 30
0.0
 10
9.2912015198
 20
7.6016719224
 30
0.0
 10
9.3113258248
 20
7.6352735913
 30
0.0
 10
9.3346476739
 20
7.6667161734
 30
0.0
 10
9.3608924838
 20
7.6956611819
 30
0.0
 10
9.3898481773
 20
7.7218998557
 30
0.0
 10
9.4213072707
 20
7.7452200722
 30
0.0
 10
9.4549333121
 20
7.7653469281
 30
0.0
 10
9.4903378776
 20
7.7820610439
 30
0.0
 10
9.5272321844
 20
7.7952414487
 30
0.0
 10
9.5653407117
 20
7.8047701035
 30
0.0
 10
9.6042420045
 20
7.8105205862
 30
0.0
 10
9.6304332693
 20
7.8117989703
 30
0.0
 10
9.6434943459
 20
7.8117989703
 30
0.0
 11
9.2447654167
 21
7.4133072057
 31
0.0
 11
9.2466762389
 21
7.4523945472
 31
0.0
 11
9.2524262062
 21
7.4912635162
 31
0.0
 11
9.261950137
 21
7.5293240582
 31
0.0
 11
9.2750826268
 21
7.5660583892
 31
0.0
 11
9.2917404776
 21
7.6013201243
 31
0.0
 11
9.311865726
 21
7.6349223434
 31
0.0
 11
9.3351859465
 21
7.6663622798
 31
0.0
 11
9.3613425034
 21
7.695209943
 31
0.0
 11
9.3901995686
 21
7.7213595395
 31
0.0
 11
9.4216551867
 21
7.7446777723
 31
0.0
 11
9.4552825062
 21
7.7648062346
 31
0.0
 11
9.4905771204
 21
7.7814694924
 31
0.0
 11
9.5273459617
 21
7.7946061316
 31
0.0
 11
9.5654442473
 21
7.8041336761
 31
0.0
 11
9.6043577991
 21
7.8098868511
 31
0.0
 11
9.6434943459
 21
7.8117989703
 31
0.0
  0
SPLINE
  5
309
100
AcDbEntity
  8
RACCORDO
100
AcDbSpline
 62
7
  6
CONTINUOUS
 70
0
 71
3
 72
23
 73
19
 74
17
 42
0.0000001
 43
0.0000001
 44
0.0000000001
 12
0.0
 22
-0.6256304749
 32
0.0
 13
-0.6256304749
 23
0.0
 33
0.0
 40
0.0
 40
0.0
 40
0.0
 40
0.0
 40
0.0626702289
 40
0.1255649537
 40
0.1883377991
 40
0.2507257318
 40
0.3130696196
 40
0.3756555984
 40
0.4381764296
 40
0.5003456957
 40
0.5625023603
 40
0.6249821737
 40
0.6875058217
 40
0.7497661681
 40
0.8120520785
 40
0.8747039402
 40
0.9374681374
 40
1.0
 40
1.0
 40
1.0
 40
1.0
 10
18.3447654167
 20
6.0102907588
 30
0.0
 10
18.3447654167
 20
5.9972212904
 30
0.0
 10
18.3434872314
 20
5.9710175224
 30
0.0
 10
18.3377374779
 20
5.9321031467
 30
0.0
 10
18.3282122491
 20
5.8939937532
 30
0.0
 10
18.3150399305
 20
5.8571101899
 30
0.0
 10
18.2983403337
 20
5.8217264682
 30
0.0
 10
18.2782346356
 20
5.7881277593
 30
0.0
 10
18.254941913
 20
5.7566999132
 30
0.0
 10
18.2287368987
 20
5.7277776816
 30
0.0
 10
18.1998314864
 20
5.7015668502
 30
0.0
 10
18.1684320253
 20
5.6782764645
 30
0.0
 10
18.1348738376
 20
5.6581789739
 30
0.0
 10
18.0995419226
 20
5.6414907642
 30
0.0
 10
18.0627217495
 20
5.6283310814
 30
0.0
 10
18.0246855664
 20
5.6188171375
 30
0.0
 10
17.9858522496
 20
5.6130752761
 30
0.0
 10
17.9597045732
 20
5.6117989703
 30
0.0
 10
17.9466639602
 20
5.6117989703
 30
0.0
 11
18.3447654167
 21
6.0102907588
 31
0.0
 11
18.3428530038
 21
5.971129021
 31
0.0
 11
18.3371003527
 21
5.9322029434
 31
0.0
 11
18.327575704
 21
5.8941028309
 31
0.0
 11
18.3144470456
 21
5.8573452587
 31
0.0
 11
18.2977985659
 21
5.8220726268
 31
0.0
 11
18.2776917019
 21
5.7884737798
 31
0.0
 11
18.2544006129
 21
5.7570492115
 31
0.0
 11
18.22828478
 21
5.7282258994
 31
0.0
 11
18.1994775026
 21
5.7021041155
 31
0.0
 11
18.1680822812
 21
5.6788165325
 31
0.0
 11
18.1345237957
 21
5.6587181685
 31
0.0
 11
18.0993033374
 21
5.6420816035
 31
0.0
 11
18.0626089577
 21
5.6289657851
 31
0.0
 11
18.0245838877
 21
5.6194530503
 31
0.0
 11
17.985739173
 21
5.613708427
 31
0.0
 11
17.9466639602
 21
5.6117989703
 31
0.0
  0
SPLINE
  5
30A
100
AcDbEntity
  8
RACCORDO
100
AcDbSpline
 62
7
  6
CONTINUOUS
 70
0
 71
3
 72
23
 73
19
 74
17
 42
0.0000001
 43
0.0000001
 44
0.0000000001
 12
0.6260794102
 22
0.0
 32
0.0
 13
-0.0
 23
-0.6260794102
 33
0.0
 40
0.0
 40
0.0
 40
0.0
 40
0.0
 40
0.0625881422
 40
0.1254217627
 40
0.1881542833
 40
0.2505211627
 40
0.3128592232
 40
0.3754553554
 40
0.4379997474
 40
0.5002027209
 40
0.5623977915
 40
0.6249185204
 40
0.6874810527
 40
0.7497738282
 40
0.8120816345
 40
0.8747414598
 40
0.937496554
 40
1.0
 40
1.0
 40
1.0
 40
1.0
 10
17.9460364874
 20
7.8117989703
 30
0.0
 10
17.9590982031
 20
7.8117989703
 30
0.0
 10
17.9852908746
 20
7.8105204549
 30
0.0
 10
18.0241948431
 20
7.8047692722
 30
0.0
 10
18.0623057715
 20
7.7952393871
 30
0.0
 10
18.0992009452
 20
7.7820577347
 30
0.0
 10
18.1346047154
 20
7.7653430343
 30
0.0
 10
18.1682300352
 20
7.7452157642
 30
0.0
 10
18.1996892111
 20
7.721894543
 30
0.0
 10
18.2286447236
 20
7.6956548098
 30
0.0
 10
18.2548884799
 20
7.6667096131
 30
0.0
 10
18.2782093302
 20
7.6352671029
 30
0.0
 10
18.2983332226
 20
7.6016647039
 30
0.0
 10
18.3150425144
 20
7.5662902186
 30
0.0
 10
18.3282174878
 20
7.5294319051
 30
0.0
 10
18.3377411365
 20
7.4913646772
 30
0.0
 10
18.3434879179
 20
7.4525098451
 30
0.0
 10
18.3447654167
 20
7.4263512459
 30
0.0
 10
18.3447654167
 20
7.4133072057
 30
0.0
 11
17.9460364874
 21
7.8117989703
 31
0.0
 11
17.9851749447
 21
7.8098866639
 31
0.0
 11
18.0240907218
 21
7.8041328552
 31
0.0
 11
18.0621927439
 21
7.7946037462
 31
0.0
 11
18.0989627299
 21
7.7814657636
 31
0.0
 11
18.1342553042
 21
7.764802512
 31
0.0
 11
18.1678813335
 21
7.7446739757
 31
0.0
 11
18.1993378745
 21
7.7213541153
 31
0.0
 11
18.2281953187
 21
7.6952029562
 31
0.0
 11
18.2543503154
 21
7.6663556684
 31
0.0
 11
18.2776689181
 21
7.6349166384
 31
0.0
 11
18.2977940963
 21
7.6013131173
 31
0.0
 11
18.3144519477
 21
7.5660493473
 31
0.0
 11
18.3275830821
 21
7.5293161892
 31
0.0
 11
18.3371054455
 21
7.4912593951
 31
0.0
 11
18.34285478
 21
7.4523926548
 31
0.0
 11
18.3447654167
 21
7.4133072057
 31
0.0
  0
SPLINE
  5
30B
100
AcDbEntity
  8
RACCORDO
100
AcDbSpline
 62
253
  6
CONTINUOUS
 70
0
 71
3
 72
10
 73
6
 74
4
 42
0.0000001
 43
0.0000001
 44
0.0000000001
 12
0.0002526151
 22
-9.1022322221
 32
0.0
 13
0.0060343306
 23
-9.1022302254
 33
0.0
 40
0.0
 40
0.0
 40
0.0
 40
0.0
 40
0.3333526791
 40
0.6666869147
 40
1.0
 40
1.0
 40
1.0
 40
1.0
 10
35.4628754796
 20
10.8140305168
 30
0.0
 10
35.4629035496
 20
9.8026126846
 30
0.0
 10
35.4631777374
 20
7.7798329786
 30
0.0
 10
35.4642238455
 20
4.7457557304
 30
0.0
 10
35.4653509348
 20
2.7230964502
 30
0.0
 10
35.4660213752
 20
1.7117989703
 30
0.0
 11
35.4628754796
 21
10.8140305168
 31
0.0
 11
35.4632835605
 21
7.7797770465
 31
0.0
 11
35.4643313005
 21
4.7456916059
 31
0.0
 11
35.4660213752
 21
1.7117989703
 31
0.0
  0
SPLINE
  5
30C
100
AcDbEntity
  8
RACCORDO
100
AcDbSpline
 62
253
  6
CONTINUOUS
 70
0
 71
3
 72
10
 73
6
 74
4
 42
0.0000001
 43
0.0000001
 44
0.0000000001
 12
0.0002514557
 22
-9.0950366933
 32
0.0
 13
0.0060355961
 23
-9.0950346942
 33
0.0
 40
0.0
 40
0.0
 40
0.0
 40
0.0
 40
0.3333523679
 40
0.6666867588
 40
1.0
 40
1.0
 40
1.0
 40
1.0
 10
35.9625736203
 20
10.8163349877
 30
0.0
 10
35.9626015614
 20
9.8057176484
 30
0.0
 10
35.9628715038
 20
7.7845374693
 30
0.0
 10
35.963919297
 20
4.752858731
 30
0.0
 10
35.9650462073
 20
2.7317974677
 30
0.0
 10
35.9657167887
 20
1.7212989703
 30
0.0
 11
35.9625736203
 21
10.8163349877
 31
0.0
 11
35.9629786687
 21
7.7844829957
 31
0.0
 11
35.9640264263
 21
4.7527946589
 31
0.0
 11
35.9657167887
 21
1.7212989703
 31
0.0
  0
SPLINE
  5
30D
100
AcDbEntity
  8
RACCORDO
100
AcDbSpline
 62
253
  6
CONTINUOUS
 70
0
 71
3
 72
24
 73
20
 74
18
 42
0.0000001
 43
0.0000001
 44
0.0000000001
 12
-0.4951381098
 22
-0.0674744652
 32
0.0
 13
-0.4997144696
 23
-0.0000069948
 33
0.0
 40
0.0
 40
0.0
 40
0.0
 40
0.0
 40
0.0072410904
 40
0.0225728332
 40
0.0458757318
 40
0.0769602085
 40
0.1155730933
 40
0.1614001728
 40
0.2140673257
 40
0.2731450583
 40
0.3381511715
 40
0.4085561138
 40
0.4837853051
 40
0.5632252357
 40
0.64622704
 40
0.7321147597
 40
0.8201880871
 40
0.9097254715
 40
1.0
 40
1.0
 40
1.0
 40
1.0
 10
35.9625736203
 20
10.8163349767
 30
0.0
 10
35.961378507
 20
10.8161721138
 30
0.0
 10
35.9576086646
 20
10.8161007427
 30
0.0
 10
35.949979156
 20
10.8158444034
 30
0.0
 10
35.938362605
 20
10.8156819432
 30
0.0
 10
35.9228746485
 20
10.8154729325
 30
0.0
 10
35.9036317379
 20
10.8152880919
 30
0.0
 10
35.8807945805
 20
10.8151040119
 30
0.0
 10
35.8545480579
 20
10.8149320237
 30
0.0
 10
35.8251068446
 20
10.8147706683
 30
0.0
 10
35.7927108846
 20
10.8146224577
 30
0.0
 10
35.7576244806
 20
10.8144883897
 30
0.0
 10
35.7201337431
 20
10.8143697293
 30
0.0
 10
35.6805446731
 20
10.8142674666
 30
0.0
 10
35.6391801513
 20
10.8141824783
 30
0.0
 10
35.5963775172
 20
10.8141154824
 30
0.0
 10
35.5524862161
 20
10.8140670406
 30
0.0
 10
35.5078641809
 20
10.8140375617
 30
0.0
 10
35.4779126423
 20
10.8140307266
 30
0.0
 10
35.4628754796
 20
10.8140305161
 30
0.0
 11
35.9625736203
 21
10.8163349767
 31
0.0
 11
35.9589614933
 21
10.8161206889
 31
0.0
 11
35.9513029312
 21
10.815908763
 31
0.0
 11
35.9396599909
 21
10.8157009025
 31
0.0
 11
35.9241279426
 21
10.8154988273
 31
0.0
 11
35.9048335071
 21
10.8153041799
 31
0.0
 11
35.8819338047
 21
10.8151185496
 31
0.0
 11
35.8556158488
 21
10.8149434539
 31
0.0
 11
35.8260943017
 21
10.8147803232
 31
0.0
 11
35.7936101519
 21
10.8146304907
 31
0.0
 11
35.7584280437
 21
10.8144951795
 31
0.0
 11
35.7208351188
 21
10.8143754962
 31
0.0
 11
35.6811379698
 21
10.8142724191
 31
0.0
 11
35.6396608556
 21
10.8141867913
 31
0.0
 11
35.5967415723
 21
10.8141193123
 31
0.0
 11
35.5527300832
 21
10.8140705328
 31
0.0
 11
35.5079869666
 21
10.8140408543
 31
0.0
 11
35.4628754796
 21
10.8140305161
 31
0.0
  0
SPLINE
  5
30E
100
AcDbEntity
  8
0
100
AcDbSpline
 62
253
  6
CONTINUOUS
 70
0
 71
3
 72
23
 73
19
 74
17
 42
0.0000001
 43
0.0000001
 44
0.0000000001
 12
-0.4390227157
 22
-0.2392018116
 32
0.0
 13
-0.4999583399
 23
-0.0003316598
 33
0.0
 40
0.0
 40
0.0
 40
0.0
 40
0.0
 40
0.008152361
 40
0.0253232964
 40
0.051431694
 40
0.0862550999
 40
0.1294799963
 40
0.180712013
 40
0.2394815731
 40
0.3052489593
 40
0.3774096104
 40
0.4552998516
 40
0.5382030955
 40
0.6253564931
 40
0.7159579915
 40
0.8091737417
 40
0.9041457919
 40
1.0
 40
1.0
 40
1.0
 40
1.0
 10
35.9657167887
 20
1.7212989703
 30
0.0
 10
35.9645237648
 20
1.7206489504
 30
0.0
 10
35.9601714837
 20
1.7202629853
 30
0.0
 10
35.9517746465
 20
1.7192328584
 30
0.0
 10
35.938715354
 20
1.7185089586
 30
0.0
 10
35.9214053422
 20
1.7176314251
 30
0.0
 10
35.8998647537
 20
1.7168402365
 30
0.0
 10
35.8743443478
 20
1.7160607523
 30
0.0
 10
35.8450597237
 20
1.715333302
 30
0.0
 10
35.8122868171
 20
1.7146553629
 30
0.0
 10
35.776325229
 20
1.7140372935
 30
0.0
 10
35.7375066925
 20
1.7134841872
 30
0.0
 10
35.6961884117
 20
1.7130017635
 30
0.0
 10
35.6527508751
 20
1.7125945732
 30
0.0
 10
35.6075940132
 20
1.7122665336
 30
0.0
 10
35.5611336127
 20
1.7120207518
 30
0.0
 10
35.5137974605
 20
1.7118595541
 30
0.0
 10
35.4819957455
 20
1.7118095673
 30
0.0
 10
35.4660213752
 20
1.7117989703
 30
0.0
 11
35.9657167887
 21
1.7212989703
 31
0.0
 11
35.9617440824
 21
1.7203878771
 31
0.0
 11
35.9532069207
 21
1.719485173
 31
0.0
 11
35.9401839109
 21
1.7185991697
 31
0.0
 11
35.9227949649
 21
1.7177380253
 31
0.0
 11
35.9012001943
 21
1.716909669
 31
0.0
 11
35.875598437
 21
1.7161217279
 31
0.0
 11
35.8462254256
 21
1.7153814572
 31
0.0
 11
35.8133516175
 21
1.7146956731
 31
0.0
 11
35.7772797041
 21
1.7140706901
 31
0.0
 11
35.7383418239
 21
1.7135122627
 31
0.0
 11
35.6968965046
 21
1.7130255328
 31
0.0
 11
35.6533253612
 21
1.712614982
 31
0.0
 11
35.6080295829
 21
1.7122843907
 31
0.0
 11
35.5614262386
 21
1.7120368027
 31
0.0
 11
35.513944437
 21
1.7118744977
 31
0.0
 11
35.4660213752
 21
1.7117989703
 31
0.0
  0
SPLINE
  5
30F
100
AcDbEntity
  8
0
100
AcDbSpline
 62
253
  6
CONTINUOUS
 70
0
 71
3
 72
23
 73
19
 74
17
 42
0.0000001
 43
0.0000001
 44
0.0000000001
 12
-0.1156656166
 22
-0.4999835144
 32
0.0
 13
-0.5131813232
 23
-0.0026417985
 33
0.0
 40
0.0
 40
0.0
 40
0.0
 40
0.0
 40
0.0159236402
 40
0.037519705
 40
0.0662667634
 40
0.1026032067
 40
0.1465356752
 40
0.197849916
 40
0.2561916431
 40
0.3211034949
 40
0.3920454012
 40
0.4684080643
 40
0.5495234077
 40
0.6346736632
 40
0.7230998673
 40
0.8140101335
 40
0.9065878679
 40
1.0
 40
1.0
 40
1.0
 40
1.0
 10
36.0000796426
 20
-9.9210563581
 30
0.0
 10
35.9994657034
 20
-9.9237102106
 30
0.0
 10
35.9958543968
 20
-9.9293845169
 30
0.0
 10
35.9867640591
 20
-9.9362708649
 30
0.0
 10
35.9735263694
 20
-9.9430682518
 30
0.0
 10
35.9560574324
 20
-9.9496590921
 30
0.0
 10
35.9344573609
 20
-9.9560421884
 30
0.0
 10
35.9088895034
 20
-9.9621291029
 30
0.0
 10
35.8795766684
 20
-9.9678632101
 30
0.0
 10
35.846781131
 20
-9.9731837086
 30
0.0
 10
35.8108012356
 20
-9.9780384948
 30
0.0
 10
35.7719660843
 20
-9.9823799346
 30
0.0
 10
35.7306320309
 20
-9.9861662367
 30
0.0
 10
35.6871789217
 20
-9.989361181
 30
0.0
 10
35.6420064313
 20
-9.9919344137
 30
0.0
 10
35.5955302057
 20
-9.9938615878
 30
0.0
 10
35.5481781671
 20
-9.9951245314
 30
0.0
 10
35.5163633496
 20
-9.9955151872
 30
0.0
 10
35.5003842291
 20
-9.9955974459
 30
0.0
 11
36.0000796426
 21
-9.9210563581
 31
0.0
 11
35.9961237837
 21
-9.9282068736
 31
0.0
 11
35.9876010339
 21
-9.9352915166
 31
0.0
 11
35.974589907
 21
-9.9422450212
 31
0.0
 11
35.9572102651
 21
-9.94900333
 31
0.0
 11
35.9356222145
 21
-9.9555041834
 31
0.0
 11
35.9100246301
 21
-9.9616876939
 31
0.0
 11
35.8806533242
 21
-9.9674968971
 31
0.0
 11
35.8477788733
 21
-9.9728782771
 31
0.0
 11
35.8117041262
 21
-9.9777822591
 31
0.0
 11
35.7727614133
 21
-9.9821636663
 31
0.0
 11
35.7313094858
 21
-9.9859821359
 31
0.0
 11
35.6877302105
 21
-9.989202491
 31
0.0
 11
35.6424250518
 21
-9.991795065
 31
0.0
 11
35.5958113735
 21
-9.9937359743
 31
0.0
 11
35.5483185936
 21
-9.9950073386
 31
0.0
 11
35.5003842291
 21
-9.9955974459
 31
0.0
  0
SPLINE
  5
310
100
AcDbEntity
  8
0
100
AcDbSpline
 62
253
  6
CONTINUOUS
 70
0
 71
3
 72
24
 73
20
 74
18
 42
0.0000001
 43
0.0000001
 44
0.0000000001
 12
0.0022370123
 22
-0.8499340702
 32
0.0
 13
0.2685899292
 23
-0.8063822777
 33
0.0
 40
0.0
 40
0.0
 40
0.0
 40
0.0
 40
0.0929977429
 40
0.184256553
 40
0.2731879617
 40
0.3592144101
 40
0.441779768
 40
0.52034911
 40
0.5944135008
 40
0.6634931372
 40
0.7271410503
 40
0.784944825
 40
0.836530752
 40
0.8815652918
 40
0.9197580269
 40
0.9508640559
 40
0.9746874526
 40
0.9910862544
 40
1.0
 40
1.0
 40
1.0
 40
1.0
 10
35.5003842291
 20
-9.9955974493
 30
0.0
 10
35.5004535748
 20
-10.021944766
 30
0.0
 10
35.5006282095
 20
-10.0741466505
 30
0.0
 10
35.5010014676
 20
-10.1515432986
 30
0.0
 10
35.5014817945
 20
-10.2269642676
 30
0.0
 10
35.5020659152
 20
-10.2999214682
 30
0.0
 10
35.5027499941
 20
-10.3699419692
 30
0.0
 10
35.5035294338
 20
-10.4365722593
 30
0.0
 10
35.5043989819
 20
-10.4993804313
 30
0.0
 10
35.5053527597
 20
-10.5579594293
 30
0.0
 10
35.5063840252
 20
-10.6119295776
 30
0.0
 10
35.5074859675
 20
-10.6609408635
 30
0.0
 10
35.5086489199
 20
-10.704676259
 30
0.0
 10
35.5098685703
 20
-10.7428500264
 30
0.0
 10
35.5111198454
 20
-10.7752217574
 30
0.0
 10
35.5124297234
 20
-10.8015630912
 30
0.0
 10
35.5136709963
 20
-10.8217571381
 30
0.0
 10
35.5150531602
 20
-10.8355669685
 30
0.0
 10
35.5159376373
 20
-10.8427488395
 30
0.0
 10
35.5167356848
 20
-10.8451448016
 30
0.0
 11
35.5003842291
 21
-9.9955974493
 31
0.0
 11
35.5006495022
 21
-10.0746392281
 31
0.0
 11
35.5010248897
 21
-10.1522025603
 31
0.0
 11
35.5015080085
 21
-10.2277871123
 31
0.0
 11
35.5020956928
 21
-10.3009018131
 31
0.0
 11
35.5027841624
 21
-10.3710737896
 31
0.0
 11
35.5035689526
 21
-10.4378481699
 31
0.0
 11
35.5044449858
 21
-10.5007921412
 31
0.0
 11
35.5054065864
 21
-10.5594976061
 31
0.0
 11
35.5064475329
 21
-10.6135843073
 31
0.0
 11
35.5075610775
 21
-10.6627012538
 31
0.0
 11
35.5087400131
 21
-10.7065301896
 31
0.0
 11
35.5099766979
 21
-10.7447867285
 31
0.0
 11
35.5112631215
 21
-10.7772226477
 31
0.0
 11
35.512590927
 21
-10.8036274488
 31
0.0
 11
35.5139515658
 21
-10.8238300681
 31
0.0
 11
35.5153360901
 21
-10.8376990804
 31
0.0
 11
35.5167356848
 21
-10.8451448016
 31
0.0
  0
SPLINE
  5
311
100
AcDbEntity
  8
0
100
AcDbSpline
 62
253
  6
CONTINUOUS
 70
0
 71
3
 72
24
 73
20
 74
18
 42
0.0000001
 43
0.0000001
 44
0.0000000001
 12
0.0022405343
 22
-0.425539131
 32
0.0
 13
0.2359406645
 23
-0.3541476737
 33
0.0
 40
0.0
 40
0.0
 40
0.0
 40
0.0
 40
0.092855355
 40
0.1839967866
 40
0.2728162512
 40
0.3587375314
 40
0.4412058963
 40
0.5196878524
 40
0.5936759745
 40
0.6626920345
 40
0.7262908445
 40
0.7840621562
 40
0.8356349505
 40
0.8806792824
 40
0.9189099719
 40
0.9500906576
 40
0.9740413608
 40
0.9906572345
 40
1.0
 40
1.0
 40
1.0
 40
1.0
 10
36.0000796426
 20
-9.9210563581
 30
0.0
 10
36.0001489911
 20
-9.9342275538
 30
0.0
 10
36.0003235732
 20
-9.9603266526
 30
0.0
 10
36.0006968359
 20
-9.9990234417
 30
0.0
 10
36.0011771409
 20
-10.0367353935
 30
0.0
 10
36.0017612858
 20
-10.0732154726
 30
0.0
 10
36.0024453783
 20
-10.1082271969
 30
0.0
 10
36.0032248489
 20
-10.1415437987
 30
0.0
 10
36.0040944402
 20
-10.1729493168
 30
0.0
 10
36.0050482582
 20
-10.2022402001
 30
0.0
 10
36.0060796392
 20
-10.2292266836
 30
0.0
 10
36.0071815324
 20
-10.2537336453
 30
0.0
 10
36.0083450827
 20
-10.2756032903
 30
0.0
 10
36.0095635652
 20
-10.2946912515
 30
0.0
 10
36.0108193095
 20
-10.3108832432
 30
0.0
 10
36.0121189465
 20
-10.3240514964
 30
0.0
 10
36.0133903668
 20
-10.3341816354
 30
0.0
 10
36.0147227767
 20
-10.3410782779
 30
0.0
 10
36.0156963188
 20
-10.344727128
 30
0.0
 10
36.0164310983
 20
-10.3458300343
 30
0.0
 11
36.0000796426
 21
-9.9210563581
 31
0.0
 11
36.0003448503
 21
-9.9605696029
 31
0.0
 11
36.0007202429
 21
-9.9993525693
 31
0.0
 11
36.0012033527
 21
-10.0371461633
 31
0.0
 11
36.0017910465
 21
-10.0737048137
 31
0.0
 11
36.0024795267
 21
-10.1087920624
 31
0.0
 11
36.0032643363
 21
-10.1421804463
 31
0.0
 11
36.0041403941
 21
-10.1736535337
 31
0.0
 11
36.005102025
 21
-10.2030072276
 31
0.0
 11
36.0061430057
 21
-10.2300513578
 31
0.0
 11
36.0072565879
 21
-10.2546104187
 31
0.0
 11
36.0084355632
 21
-10.2765252746
 31
0.0
 11
36.0096722906
 21
-10.2956537283
 31
0.0
 11
36.0109587539
 21
-10.3118716648
 31
0.0
 11
36.0122866107
 21
-10.3250738416
 31
0.0
 11
36.0136472691
 21
-10.3351747112
 31
0.0
 11
36.0150318834
 21
-10.34210862
 31
0.0
 11
36.0164310983
 21
-10.3458300343
 31
0.0
  0
SPLINE
  5
312
100
AcDbEntity
  8
RACCORDO
100
AcDbSpline
 62
253
  6
CONTINUOUS
 70
0
 71
3
 72
10
 73
6
 74
4
 42
0.0000001
 43
0.0000001
 44
0.0000000001
 12
0.0060355961
 22
9.0950346942
 32
0.0
 13
0.0002514557
 23
9.0950366933
 33
0.0
 40
0.0
 40
0.0
 40
0.0
 40
0.0
 40
0.3333132412
 40
0.6666476321
 40
1.0
 40
1.0
 40
1.0
 40
1.0
 10
-8.3761859554
 20
1.7212989703
 30
0.0
 10
-8.375515374
 20
2.7317974677
 30
0.0
 10
-8.3743884637
 20
4.752858731
 30
0.0
 10
-8.3733406705
 20
7.7845374693
 30
0.0
 10
-8.3730707281
 20
9.8057176484
 30
0.0
 10
-8.3730427869
 20
10.8163349877
 30
0.0
 11
-8.3761859554
 21
1.7212989703
 31
0.0
 11
-8.374495593
 21
4.7527946589
 31
0.0
 11
-8.3734478354
 21
7.7844829957
 31
0.0
 11
-8.3730427869
 21
10.8163349877
 31
0.0
  0
SPLINE
  5
313
100
AcDbEntity
  8
0
100
AcDbSpline
 62
253
  6
CONTINUOUS
 70
0
 71
3
 72
23
 73
19
 74
17
 42
0.0000001
 43
0.0000001
 44
0.0000000001
 12
0.4390227135
 22
-0.2392018158
 32
0.0
 13
0.4999583399
 23
-0.0003316598
 33
0.0
 40
0.0
 40
0.0
 40
0.0
 40
0.0
 40
0.0081523609
 40
0.0253232963
 40
0.0514316938
 40
0.0862550996
 40
0.1294799961
 40
0.1807120127
 40
0.2394815728
 40
0.305248959
 40
0.3774096101
 40
0.4552998514
 40
0.5382030953
 40
0.6253564929
 40
0.7159579914
 40
0.8091737416
 40
0.9041457919
 40
1.0
 40
1.0
 40
1.0
 40
1.0
 10
-8.3761859554
 20
1.7212989703
 30
0.0
 10
-8.3749929315
 20
1.7206489504
 30
0.0
 10
-8.3706406504
 20
1.7202629853
 30
0.0
 10
-8.3622438133
 20
1.7192328584
 30
0.0
 10
-8.3491845208
 20
1.7185089586
 30
0.0
 10
-8.331874509
 20
1.7176314251
 30
0.0
 10
-8.3103339205
 20
1.7168402365
 30
0.0
 10
-8.2848135146
 20
1.7160607523
 30
0.0
 10
-8.2555288905
 20
1.715333302
 30
0.0
 10
-8.2227559839
 20
1.7146553629
 30
0.0
 10
-8.1867943958
 20
1.7140372935
 30
0.0
 10
-8.1479758593
 20
1.7134841872
 30
0.0
 10
-8.1066575785
 20
1.7130017635
 30
0.0
 10
-8.0632200418
 20
1.7125945732
 30
0.0
 10
-8.01806318
 20
1.7122665336
 30
0.0
 10
-7.9716027794
 20
1.7120207518
 30
0.0
 10
-7.9242666271
 20
1.7118595541
 30
0.0
 10
-7.8924649121
 20
1.7118095673
 30
0.0
 10
-7.8764905419
 20
1.7117989703
 30
0.0
 11
-8.3761859554
 21
1.7212989703
 31
0.0
 11
-8.3722132491
 21
1.7203878771
 31
0.0
 11
-8.3636760874
 21
1.719485173
 31
0.0
 11
-8.3506530777
 21
1.7185991697
 31
0.0
 11
-8.3332641316
 21
1.7177380253
 31
0.0
 11
-8.3116693611
 21
1.716909669
 31
0.0
 11
-8.2860676038
 21
1.7161217279
 31
0.0
 11
-8.2566945924
 21
1.7153814572
 31
0.0
 11
-8.2238207843
 21
1.7146956731
 31
0.0
 11
-8.1877488709
 21
1.71407069
 31
0.0
 11
-8.1488109907
 21
1.7135122627
 31
0.0
 11
-8.1073656713
 21
1.7130255328
 31
0.0
 11
-8.0637945279
 21
1.712614982
 31
0.0
 11
-8.0184987496
 21
1.7122843907
 31
0.0
 11
-7.9718954053
 21
1.7120368027
 31
0.0
 11
-7.9244136037
 21
1.7118744977
 31
0.0
 11
-7.8764905419
 21
1.7117989703
 31
0.0
  0
SPLINE
  5
314
100
AcDbEntity
  8
RACCORDO
100
AcDbSpline
 62
253
  6
CONTINUOUS
 70
0
 71
3
 72
10
 73
6
 74
4
 42
0.0000001
 43
0.0000001
 44
0.0000000001
 12
0.0060343306
 22
9.1022302254
 32
0.0
 13
0.0002526151
 23
9.1022322221
 33
0.0
 40
0.0
 40
0.0
 40
0.0
 40
0.0
 40
0.3333130853
 40
0.6666473209
 40
1.0
 40
1.0
 40
1.0
 40
1.0
 10
-7.8764905419
 20
1.7117989703
 30
0.0
 10
-7.8758201014
 20
2.7230964502
 30
0.0
 10
-7.8746930122
 20
4.7457557304
 30
0.0
 10
-7.8736469041
 20
7.7798329786
 30
0.0
 10
-7.8733727162
 20
9.8026126846
 30
0.0
 10
-7.8733446463
 20
10.8140305168
 30
0.0
 11
-7.8764905419
 21
1.7117989703
 31
0.0
 11
-7.8748004672
 21
4.7456916059
 31
0.0
 11
-7.8737527272
 21
7.7797770465
 31
0.0
 11
-7.8733446463
 21
10.8140305168
 31
0.0
  0
SPLINE
  5
315
100
AcDbEntity
  8
RACCORDO
100
AcDbSpline
 62
253
  6
CONTINUOUS
 70
0
 71
3
 72
24
 73
20
 74
18
 42
0.0000001
 43
0.0000001
 44
0.0000000001
 12
-0.4997144696
 22
0.0000069948
 32
0.0
 13
-0.4951381098
 23
0.0674744651
 33
0.0
 40
0.0
 40
0.0
 40
0.0
 40
0.0
 40
0.0902745285
 40
0.1798119128
 40
0.2678852403
 40
0.3537729599
 40
0.4367747643
 40
0.5162146948
 40
0.5914438862
 40
0.6618488285
 40
0.7268549417
 40
0.7859326743
 40
0.8385998271
 40
0.8844269067
 40
0.9230397915
 40
0.9541242682
 40
0.9774271668
 40
0.9927589096
 40
1.0
 40
1.0
 40
1.0
 40
1.0
 10
-7.8733446463
 20
10.8140305161
 30
0.0
 10
-7.888381809
 20
10.8140307266
 30
0.0
 10
-7.9183333475
 20
10.8140375617
 30
0.0
 10
-7.9629553827
 20
10.8140670406
 30
0.0
 10
-8.0068466838
 20
10.8141154824
 30
0.0
 10
-8.049649318
 20
10.8141824783
 30
0.0
 10
-8.0910138397
 20
10.8142674666
 30
0.0
 10
-8.1306029097
 20
10.8143697293
 30
0.0
 10
-8.1680936473
 20
10.8144883897
 30
0.0
 10
-8.2031800512
 20
10.8146224577
 30
0.0
 10
-8.2355760113
 20
10.8147706683
 30
0.0
 10
-8.2650172245
 20
10.8149320237
 30
0.0
 10
-8.2912637472
 20
10.8151040119
 30
0.0
 10
-8.3141009046
 20
10.8152880919
 30
0.0
 10
-8.3333438151
 20
10.8154729325
 30
0.0
 10
-8.3488317717
 20
10.8156819432
 30
0.0
 10
-8.3604483226
 20
10.8158444034
 30
0.0
 10
-8.3680778313
 20
10.8161007427
 30
0.0
 10
-8.3718476737
 20
10.8161721138
 30
0.0
 10
-8.3730427869
 20
10.8163349767
 30
0.0
 11
-7.8733446463
 21
10.8140305161
 31
0.0
 11
-7.9184561332
 21
10.8140408543
 31
0.0
 11
-7.9631992499
 21
10.8140705328
 31
0.0
 11
-8.007210739
 21
10.8141193123
 31
0.0
 11
-8.0501300222
 21
10.8141867913
 31
0.0
 11
-8.0916071365
 21
10.8142724191
 31
0.0
 11
-8.1313042854
 21
10.8143754962
 31
0.0
 11
-8.1688972103
 21
10.8144951795
 31
0.0
 11
-8.2040793185
 21
10.8146304907
 31
0.0
 11
-8.2365634684
 21
10.8147803232
 31
0.0
 11
-8.2660850155
 21
10.8149434539
 31
0.0
 11
-8.2924029714
 21
10.8151185496
 31
0.0
 11
-8.3153026738
 21
10.8153041799
 31
0.0
 11
-8.3345971092
 21
10.8154988273
 31
0.0
 11
-8.3501291575
 21
10.8157009025
 31
0.0
 11
-8.3617720979
 21
10.815908763
 31
0.0
 11
-8.36943066
 21
10.8161206889
 31
0.0
 11
-8.3730427869
 21
10.8163349767
 31
0.0
  0
SPLINE
  5
316
100
AcDbEntity
  8
0
100
AcDbSpline
 62
253
  6
CONTINUOUS
 70
0
 71
3
 72
23
 73
19
 74
17
 42
0.0000001
 43
0.0000001
 44
0.0000000001
 12
0.1156655032
 22
-0.499983543
 32
0.0
 13
0.5131813254
 23
-0.0026417988
 33
0.0
 40
0.0
 40
0.0
 40
0.0
 40
0.0
 40
0.015923639
 40
0.0375197021
 40
0.0662667587
 40
0.1026032005
 40
0.1465356677
 40
0.1978499076
 40
0.2561916344
 40
0.3211034861
 40
0.3920453925
 40
0.4684080562
 40
0.5495234005
 40
0.6346736571
 40
0.7230998625
 40
0.8140101302
 40
0.9065878662
 40
1.0
 40
1.0
 40
1.0
 40
1.0
 10
-8.4105488093
 20
-9.9210563581
 30
0.0
 10
-8.4099348707
 20
-9.9237102106
 30
0.0
 10
-8.4063235653
 20
-9.9293845172
 30
0.0
 10
-8.3972332287
 20
-9.9362708655
 30
0.0
 10
-8.38399554
 20
-9.9430682526
 30
0.0
 10
-8.3665266039
 20
-9.9496590932
 30
0.0
 10
-8.344926533
 20
-9.9560421897
 30
0.0
 10
-8.3193586759
 20
-9.9621291046
 30
0.0
 10
-8.2900458411
 20
-9.967863212
 30
0.0
 10
-8.2572503036
 20
-9.9731837107
 30
0.0
 10
-8.221270408
 20
-9.9780384971
 30
0.0
 10
-8.1824352562
 20
-9.9823799373
 30
0.0
 10
-8.1411012023
 20
-9.9861662395
 30
0.0
 10
-8.0976480922
 20
-9.9893611841
 30
0.0
 10
-8.052475601
 20
-9.9919344169
 30
0.0
 10
-8.0059993745
 20
-9.9938615911
 30
0.0
 10
-7.9586473348
 20
-9.9951245348
 30
0.0
 10
-7.9268325166
 20
-9.9955151906
 30
0.0
 10
-7.9108533957
 20
-9.9955974493
 30
0.0
 11
-8.4105488093
 21
-9.9210563581
 31
0.0
 11
-8.406592952
 21
-9.9282068738
 31
0.0
 11
-8.3980702034
 21
-9.935291517
 31
0.0
 11
-8.3850590776
 21
-9.942245022
 31
0.0
 11
-8.3676794367
 21
-9.949003331
 31
0.0
 11
-8.3460913866
 21
-9.9555041847
 31
0.0
 11
-8.3204938027
 21
-9.9616876955
 31
0.0
 11
-8.2911224969
 21
-9.967496899
 31
0.0
 11
-8.258248046
 21
-9.9728782792
 31
0.0
 11
-8.2221732986
 21
-9.9777822615
 31
0.0
 11
-8.1832305852
 21
-9.9821636689
 31
0.0
 11
-8.1417786572
 21
-9.9859821387
 31
0.0
 11
-8.0981993811
 21
-9.989202494
 31
0.0
 11
-8.0528942216
 21
-9.9917950682
 31
0.0
 11
-8.0062805422
 21
-9.9937359775
 31
0.0
 11
-7.9587877614
 21
-9.995007342
 31
0.0
 11
-7.9108533957
 21
-9.9955974493
 31
0.0
  0
SPLINE
  5
317
100
AcDbEntity
  8
0
100
AcDbSpline
 62
253
  6
CONTINUOUS
 70
0
 71
3
 72
24
 73
20
 74
18
 42
0.0000001
 43
0.0000001
 44
0.0000000001
 12
0.2685899298
 22
0.8063822775
 32
0.0
 13
0.0022370123
 23
0.8499340702
 33
0.0
 40
0.0
 40
0.0
 40
0.0
 40
0.0
 40
0.0089137456
 40
0.0253125474
 40
0.0491359441
 40
0.0802419731
 40
0.1184347082
 40
0.163469248
 40
0.215055175
 40
0.2728589497
 40
0.3365068628
 40
0.4055864992
 40
0.47965089
 40
0.558220232
 40
0.6407855899
 40
0.7268120383
 40
0.815743447
 40
0.9070022571
 40
1.0
 40
1.0
 40
1.0
 40
1.0
 10
-7.9272048514
 20
-10.8451448016
 30
0.0
 10
-7.926406804
 20
-10.8427488395
 30
0.0
 10
-7.9255223269
 20
-10.8355669685
 30
0.0
 10
-7.9241401629
 20
-10.8217571381
 30
0.0
 10
-7.92289889
 20
-10.8015630912
 30
0.0
 10
-7.9215890121
 20
-10.7752217574
 30
0.0
 10
-7.920337737
 20
-10.7428500264
 30
0.0
 10
-7.9191180865
 20
-10.704676259
 30
0.0
 10
-7.9179551342
 20
-10.6609408635
 30
0.0
 10
-7.9168531919
 20
-10.6119295776
 30
0.0
 10
-7.9158219264
 20
-10.5579594293
 30
0.0
 10
-7.9148681485
 20
-10.4993804313
 30
0.0
 10
-7.9139986004
 20
-10.4365722593
 30
0.0
 10
-7.9132191608
 20
-10.3699419692
 30
0.0
 10
-7.9125350819
 20
-10.2999214682
 30
0.0
 10
-7.9119509612
 20
-10.2269642676
 30
0.0
 10
-7.9114706342
 20
-10.1515432986
 30
0.0
 10
-7.9110973761
 20
-10.0741466505
 30
0.0
 10
-7.9109227414
 20
-10.021944766
 30
0.0
 10
-7.9108533957
 20
-9.9955974493
 30
0.0
 11
-7.9272048514
 21
-10.8451448016
 31
0.0
 11
-7.9258052567
 21
-10.8376990804
 31
0.0
 11
-7.9244207324
 21
-10.8238300681
 31
0.0
 11
-7.9230600937
 21
-10.8036274488
 31
0.0
 11
-7.9217322882
 21
-10.7772226477
 31
0.0
 11
-7.9204458645
 21
-10.7447867285
 31
0.0
 11
-7.9192091798
 21
-10.7065301896
 31
0.0
 11
-7.9180302442
 21
-10.6627012538
 31
0.0
 11
-7.9169166996
 21
-10.6135843073
 31
0.0
 11
-7.915875753
 21
-10.5594976061
 31
0.0
 11
-7.9149141524
 21
-10.5007921412
 31
0.0
 11
-7.9140381193
 21
-10.4378481699
 31
0.0
 11
-7.913253329
 21
-10.3710737896
 31
0.0
 11
-7.9125648594
 21
-10.3009018131
 31
0.0
 11
-7.9119771751
 21
-10.2277871123
 31
0.0
 11
-7.9114940564
 21
-10.1522025603
 31
0.0
 11
-7.9111186689
 21
-10.0746392281
 31
0.0
 11
-7.9108533957
 21
-9.9955974493
 31
0.0
  0
SPLINE
  5
318
100
AcDbEntity
  8
0
100
AcDbSpline
 62
253
  6
CONTINUOUS
 70
0
 71
3
 72
24
 73
20
 74
18
 42
0.0000001
 43
0.0000001
 44
0.0000000001
 12
0.2359406643
 22
0.3541476739
 32
0.0
 13
0.0022405343
 23
0.425539131
 33
0.0
 40
0.0
 40
0.0
 40
0.0
 40
0.0
 40
0.0093427655
 40
0.0259586392
 40
0.0499093424
 40
0.0810900281
 40
0.1193207176
 40
0.1643650495
 40
0.2159378438
 40
0.2737091555
 40
0.3373079655
 40
0.4063240255
 40
0.4803121476
 40
0.5587941037
 40
0.6412624686
 40
0.7271837488
 40
0.8160032134
 40
0.907144645
 40
1.0
 40
1.0
 40
1.0
 40
1.0
 10
-8.4269002649
 20
-10.3458300343
 30
0.0
 10
-8.4261654855
 20
-10.344727128
 30
0.0
 10
-8.4251919434
 20
-10.3410782779
 30
0.0
 10
-8.4238595335
 20
-10.3341816354
 30
0.0
 10
-8.4225881131
 20
-10.3240514964
 30
0.0
 10
-8.4212884762
 20
-10.3108832432
 30
0.0
 10
-8.4200327319
 20
-10.2946912515
 30
0.0
 10
-8.4188142494
 20
-10.2756032903
 30
0.0
 10
-8.4176506991
 20
-10.2537336453
 30
0.0
 10
-8.4165488059
 20
-10.2292266836
 30
0.0
 10
-8.4155174249
 20
-10.2022402001
 30
0.0
 10
-8.4145636069
 20
-10.1729493168
 30
0.0
 10
-8.4136940156
 20
-10.1415437987
 30
0.0
 10
-8.412914545
 20
-10.1082271969
 30
0.0
 10
-8.4122304524
 20
-10.0732154726
 30
0.0
 10
-8.4116463075
 20
-10.0367353935
 30
0.0
 10
-8.4111660025
 20
-9.9990234417
 30
0.0
 10
-8.4107927399
 20
-9.9603266526
 30
0.0
 10
-8.4106181578
 20
-9.9342275538
 30
0.0
 10
-8.4105488093
 20
-9.9210563581
 30
0.0
 11
-8.4269002649
 21
-10.3458300343
 31
0.0
 11
-8.4255010501
 21
-10.34210862
 31
0.0
 11
-8.4241164358
 21
-10.3351747112
 31
0.0
 11
-8.4227557774
 21
-10.3250738416
 31
0.0
 11
-8.4214279206
 21
-10.3118716648
 31
0.0
 11
-8.4201414573
 21
-10.2956537283
 31
0.0
 11
-8.4189047298
 21
-10.2765252746
 31
0.0
 11
-8.4177257545
 21
-10.2546104187
 31
0.0
 11
-8.4166121724
 21
-10.2300513578
 31
0.0
 11
-8.4155711916
 21
-10.2030072276
 31
0.0
 11
-8.4146095608
 21
-10.1736535337
 31
0.0
 11
-8.413733503
 21
-10.1421804463
 31
0.0
 11
-8.4129486934
 21
-10.1087920624
 31
0.0
 11
-8.4122602132
 21
-10.0737048137
 31
0.0
 11
-8.4116725194
 21
-10.0371461633
 31
0.0
 11
-8.4111894096
 21
-9.9993525693
 31
0.0
 11
-8.410814017
 21
-9.9605696029
 31
0.0
 11
-8.4105488093
 21
-9.9210563581
 31
0.0
  0
SPLINE
  5
319
100
AcDbEntity
  8
RACCORDO
100
AcDbSpline
 62
253
  6
CONTINUOUS
 70
0
 71
3
 72
24
 73
20
 74
18
 42
0.0000001
 43
0.0000001
 44
0.0000000001
 12
-0.2498750154
 22
0.0000000277
 32
0.0
 13
-0.2424250812
 23
0.0605607405
 33
0.0
 40
0.0
 40
0.0
 40
0.0
 40
0.0
 40
0.0902519062
 40
0.1797846795
 40
0.2678529052
 40
0.3537361738
 40
0.4367339978
 40
0.5161705145
 40
0.5913968937
 40
0.6617996696
 40
0.7268041989
 40
0.7858808583
 40
0.8385476229
 40
0.8843752391
 40
0.9229899153
 40
0.9540780319
 40
0.9773873145
 40
0.9927312008
 40
1.0
 40
1.0
 40
1.0
 40
1.0
 10
-7.8733473295
 20
11.0642198821
 30
0.0
 10
-7.8808645616
 20
11.0642198829
 30
0.0
 10
-7.8958391288
 20
11.0642257636
 30
0.0
 10
-7.9181490317
 20
11.0642521991
 30
0.0
 10
-7.9400950356
 20
11.0642960161
 30
0.0
 10
-7.9614966901
 20
11.0643568481
 30
0.0
 10
-7.9821793374
 20
11.0644341827
 30
0.0
 10
-8.0019742798
 20
11.0645273703
 30
0.0
 10
-8.0207200685
 20
11.0646356125
 30
0.0
 10
-8.0382636741
 20
11.0647580071
 30
0.0
 10
-8.054462022
 20
11.0648934054
 30
0.0
 10
-8.0691828815
 20
11.065040881
 30
0.0
 10
-8.0823064371
 20
11.0651981933
 30
0.0
 10
-8.0937248603
 20
11.0653665091
 30
0.0
 10
-8.1033472418
 20
11.0655359661
 30
0.0
 10
-8.1110891089
 20
11.0657265785
 30
0.0
 10
-8.1169031783
 20
11.0658772497
 30
0.0
 10
-8.1207085948
 20
11.0661085192
 30
0.0
 10
-8.1226076036
 20
11.0661787097
 30
0.0
 10
-8.1231949834
 20
11.0663254443
 30
0.0
 11
-7.8733473295
 21
11.0642198821
 31
0.0
 11
-7.8958990242
 21
11.0642287767
 31
0.0
 11
-7.9182710114
 21
11.064255395
 31
0.0
 11
-7.9402770165
 21
11.0642995205
 31
0.0
 11
-7.961737012
 21
11.0643607932
 31
0.0
 11
-7.9824759482
 21
11.0644387129
 31
0.0
 11
-8.0023249268
 21
11.0645326454
 31
0.0
 11
-8.0211218024
 21
11.0646418238
 31
0.0
 11
-8.0387132633
 21
11.0647653576
 31
0.0
 11
-8.0549556943
 21
11.0649022385
 31
0.0
 11
-8.0697167224
 21
11.0650513507
 31
0.0
 11
-8.0828758568
 21
11.0652114772
 31
0.0
 11
-8.0943257736
 21
11.0653813121
 31
0.0
 11
-8.1039729715
 21
11.065559468
 31
0.0
 11
-8.1117389113
 21
11.0657444938
 31
0.0
 11
-8.1175602062
 21
11.0659348804
 31
0.0
 11
-8.1213893391
 21
11.0661290701
 31
0.0
 11
-8.1231949834
 21
11.0663254443
 31
0.0
  0
SPLINE
  5
31A
100
AcDbEntity
  8
RACCORDO
100
AcDbSpline
 62
253
  6
CONTINUOUS
 70
0
 71
3
 72
24
 73
20
 74
18
 42
0.0000001
 43
0.0000001
 44
0.0000000001
 12
-0.2424250813
 22
-0.0605607403
 32
0.0
 13
-0.2498750154
 23
-0.0000000277
 33
0.0
 40
0.0
 40
0.0
 40
0.0
 40
0.0
 40
0.0072687992
 40
0.0226126855
 40
0.0459219681
 40
0.0770100847
 40
0.1156247608
 40
0.1614523771
 40
0.2141191417
 40
0.2731958011
 40
0.3382003304
 40
0.4086031063
 40
0.4838294855
 40
0.5632660021
 40
0.6462638261
 40
0.7321470947
 40
0.8202153205
 40
0.9097480937
 40
1.0
 40
1.0
 40
1.0
 40
1.0
 10
35.7127258167
 20
11.0663254443
 30
0.0
 10
35.712138437
 20
11.0661787097
 30
0.0
 10
35.7102394282
 20
11.0661085192
 30
0.0
 10
35.7064340117
 20
11.0658772497
 30
0.0
 10
35.7006199422
 20
11.0657265785
 30
0.0
 10
35.6928780751
 20
11.0655359661
 30
0.0
 10
35.6832556936
 20
11.0653665091
 30
0.0
 10
35.6718372704
 20
11.0651981933
 30
0.0
 10
35.6587137148
 20
11.065040881
 30
0.0
 10
35.6439928554
 20
11.0648934054
 30
0.0
 10
35.6277945074
 20
11.0647580071
 30
0.0
 10
35.6102509019
 20
11.0646356125
 30
0.0
 10
35.5915051131
 20
11.0645273703
 30
0.0
 10
35.5717101708
 20
11.0644341827
 30
0.0
 10
35.5510275235
 20
11.0643568481
 30
0.0
 10
35.529625869
 20
11.0642960161
 30
0.0
 10
35.507679865
 20
11.0642521991
 30
0.0
 10
35.4853699622
 20
11.0642257636
 30
0.0
 10
35.470395395
 20
11.0642198829
 30
0.0
 10
35.4628781628
 20
11.0642198821
 30
0.0
 11
35.7127258167
 21
11.0663254443
 31
0.0
 11
35.7109201724
 21
11.0661290701
 31
0.0
 11
35.7070910395
 21
11.0659348804
 31
0.0
 11
35.7012697446
 21
11.0657444938
 31
0.0
 11
35.6935038048
 21
11.065559468
 31
0.0
 11
35.6838566069
 21
11.0653813121
 31
0.0
 11
35.6724066901
 21
11.0652114772
 31
0.0
 11
35.6592475557
 21
11.0650513507
 31
0.0
 11
35.6444865277
 21
11.0649022385
 31
0.0
 11
35.6282440967
 21
11.0647653576
 31
0.0
 11
35.6106526357
 21
11.0646418238
 31
0.0
 11
35.5918557601
 21
11.0645326454
 31
0.0
 11
35.5720067816
 21
11.0644387129
 31
0.0
 11
35.5512678454
 21
11.0643607932
 31
0.0
 11
35.5298078498
 21
11.0642995205
 31
0.0
 11
35.5078018448
 21
11.064255395
 31
0.0
 11
35.4854298575
 21
11.0642287767
 31
0.0
 11
35.4628781628
 21
11.0642198821
 31
0.0
  0
LINE
  5
31B
100
AcDbEntity
  8
ASSI
100
AcDbLine
 62
7
  6
CONTINUOUS
 10
18.3447654167
 20
7.4133072057
 11
18.3447654166
 21
7.1794687557
  0
LINE
  5
31C
100
AcDbEntity
  8
ASSI
100
AcDbLine
 62
7
  6
CONTINUOUS
 10
18.3447654166
 20
7.1794687557
 11
18.3447654166
 21
6.9456311876
  0
LINE
  5
31D
100
AcDbEntity
  8
ASSI
100
AcDbLine
 62
7
  6
CONTINUOUS
 10
18.3447654166
 20
6.9456311876
 11
18.3447654166
 21
6.7117945528
  0
LINE
  5
31E
100
AcDbEntity
  8
ASSI
100
AcDbLine
 62
7
  6
CONTINUOUS
 10
18.3447654166
 20
6.7117945528
 11
18.3447654166
 21
6.4779589023
  0
LINE
  5
31F
100
AcDbEntity
  8
ASSI
100
AcDbLine
 62
7
  6
CONTINUOUS
 10
18.3447654166
 20
6.4779589023
 11
18.3447654166
 21
6.2441242872
  0
LINE
  5
320
100
AcDbEntity
  8
ASSI
100
AcDbLine
 62
7
  6
CONTINUOUS
 10
18.3447654166
 20
6.2441242872
 11
18.3447654167
 21
6.0102907588
  0
LINE
  5
321
100
AcDbEntity
  8
ASSI
100
AcDbLine
 62
7
  6
CONTINUOUS
 10
9.2447654167
 20
6.0102907588
 11
9.2447654167
 21
7.4133072057
  0
SPLINE
  5
322
100
AcDbEntity
  8
ASSI
100
AcDbSpline
 62
7
  6
CONTINUOUS
 70
0
 71
3
 72
23
 73
19
 74
17
 42
0.0000001
 43
0.0000001
 44
0.0000000001
 12
-0.6256304749
 22
0.0
 32
0.0
 13
0.0
 23
0.6256304749
 33
0.0
 40
0.0
 40
0.0
 40
0.0
 40
0.0
 40
0.0625348873
 40
0.125302776
 40
0.1879610843
 40
0.2502495145
 40
0.3125069208
 40
0.3750288287
 40
0.4375113249
 40
0.4996701031
 40
0.5618372342
 40
0.6243553179
 40
0.6869429983
 40
0.7492898499
 40
0.811675364
 40
0.8744418063
 40
0.9373328547
 40
1.0
 40
1.0
 40
1.0
 40
1.0
 10
9.6428668731
 20
5.6117989703
 30
0.0
 10
9.6298256294
 20
5.6117989703
 30
0.0
 10
9.6036765496
 20
5.6130754064
 30
0.0
 10
9.5648405503
 20
5.6188179673
 30
0.0
 10
9.526801937
 20
5.6283331499
 30
0.0
 10
9.4899808726
 20
5.6414940941
 30
0.0
 10
9.4546497456
 20
5.6581829
 30
0.0
 10
9.4210922956
 20
5.6782808029
 30
0.0
 10
9.3896927708
 20
5.7015721845
 30
0.0
 10
9.3607875537
 20
5.7277840656
 30
0.0
 10
9.3345836038
 20
5.7567064748
 30
0.0
 10
9.3112918899
 20
5.7881342336
 30
0.0
 10
9.291186607
 20
5.8217336623
 30
0.0
 10
9.2744875922
 20
5.857118185
 30
0.0
 10
9.2613165194
 20
5.8940008886
 30
0.0
 10
9.2517925215
 20
5.9321078844
 30
0.0
 10
9.24604347
 20
5.971019578
 30
0.0
 10
9.2447654167
 20
5.9972219335
 30
0.0
 10
9.2447654167
 20
6.0102907588
 30
0.0
 11
9.6428668731
 21
5.6117989703
 31
0.0
 11
9.6037897748
 21
5.6137086118
 31
0.0
 11
9.5649428192
 21
5.6194538696
 31
0.0
 11
9.5269139852
 21
5.628968177
 31
0.0
 11
9.4902184188
 21
5.642085359
 31
0.0
 11
9.4549999964
 21
5.6587219273
 31
0.0
 11
9.4214428213
 21
5.6788203606
 31
0.0
 11
9.3900467059
 21
5.7021095556
 31
0.0
 11
9.3612390572
 21
5.7282328985
 31
0.0
 11
9.3351247915
 21
5.7570558282
 31
0.0
 11
9.3118353354
 21
5.7884794671
 31
0.0
 11
9.2917285477
 21
5.8220796005
 31
0.0
 11
9.275080059
 21
5.8573542786
 31
0.0
 11
9.2619527391
 21
5.894110722
 31
0.0
 11
9.2524296566
 21
5.9322070969
 31
0.0
 11
9.2466776412
 21
5.9711309433
 31
0.0
 11
9.2447654167
 21
6.0102907588
 31
0.0
  0
SPLINE
  5
323
100
AcDbEntity
  8
ASSI
100
AcDbSpline
 62
7
  6
CONTINUOUS
 70
0
 71
3
 72
23
 73
19
 74
17
 42
0.0000001
 43
0.0000001
 44
0.0000000001
 12
-0.0
 22
0.6260794102
 32
0.0
 13
0.6260794102
 23
0.0
 33
0.0
 40
0.0
 40
0.0
 40
0.0
 40
0.0
 40
0.0625064794
 40
0.125265243
 40
0.1879314833
 40
0.2502417825
 40
0.3125316189
 40
0.3750924245
 40
0.4376158557
 40
0.4998130445
 40
0.5620138933
 40
0.624555553
 40
0.6871533927
 40
0.7494944038
 40
0.8118588393
 40
0.874584964
 40
0.9374149203
 40
1.0
 40
1.0
 40
1.0
 40
1.0
 10
9.2447654167
 20
7.4133072057
 30
0.0
 10
9.2447654167
 20
7.426351879
 30
0.0
 10
9.246043046
 20
7.4525118798
 30
0.0
 10
9.251790526
 20
7.4913693868
 30
0.0
 10
9.2613154084
 20
7.5294390306
 30
0.0
 10
9.2744916367
 20
7.566298226
 30
0.0
 10
9.2912015198
 20
7.6016719224
 30
0.0
 10
9.3113258248
 20
7.6352735913
 30
0.0
 10
9.3346476739
 20
7.6667161734
 30
0.0
 10
9.3608924838
 20
7.6956611819
 30
0.0
 10
9.3898481773
 20
7.7218998557
 30
0.0
 10
9.4213072707
 20
7.7452200722
 30
0.0
 10
9.4549333121
 20
7.7653469281
 30
0.0
 10
9.4903378776
 20
7.7820610439
 30
0.0
 10
9.5272321844
 20
7.7952414487
 30
0.0
 10
9.5653407117
 20
7.8047701035
 30
0.0
 10
9.6042420045
 20
7.8105205862
 30
0.0
 10
9.6304332693
 20
7.8117989703
 30
0.0
 10
9.6434943459
 20
7.8117989703
 30
0.0
 11
9.2447654167
 21
7.4133072057
 31
0.0
 11
9.2466762389
 21
7.4523945472
 31
0.0
 11
9.2524262062
 21
7.4912635162
 31
0.0
 11
9.261950137
 21
7.5293240582
 31
0.0
 11
9.2750826268
 21
7.5660583892
 31
0.0
 11
9.2917404776
 21
7.6013201243
 31
0.0
 11
9.311865726
 21
7.6349223434
 31
0.0
 11
9.3351859465
 21
7.6663622798
 31
0.0
 11
9.3613425034
 21
7.695209943
 31
0.0
 11
9.3901995686
 21
7.7213595395
 31
0.0
 11
9.4216551867
 21
7.7446777723
 31
0.0
 11
9.4552825062
 21
7.7648062346
 31
0.0
 11
9.4905771204
 21
7.7814694924
 31
0.0
 11
9.5273459617
 21
7.7946061316
 31
0.0
 11
9.5654442473
 21
7.8041336761
 31
0.0
 11
9.6043577991
 21
7.8098868511
 31
0.0
 11
9.6434943459
 21
7.8117989703
 31
0.0
  0
SPLINE
  5
324
100
AcDbEntity
  8
ASSI
100
AcDbSpline
 62
7
  6
CONTINUOUS
 70
0
 71
3
 72
23
 73
19
 74
17
 42
0.0000001
 43
0.0000001
 44
0.0000000001
 12
0.0
 22
-0.6256304749
 32
0.0
 13
-0.6256304749
 23
0.0
 33
0.0
 40
0.0
 40
0.0
 40
0.0
 40
0.0
 40
0.0626702289
 40
0.1255649537
 40
0.1883377991
 40
0.2507257318
 40
0.3130696196
 40
0.3756555984
 40
0.4381764296
 40
0.5003456957
 40
0.5625023603
 40
0.6249821737
 40
0.6875058217
 40
0.7497661681
 40
0.8120520785
 40
0.8747039402
 40
0.9374681374
 40
1.0
 40
1.0
 40
1.0
 40
1.0
 10
18.3447654167
 20
6.0102907588
 30
0.0
 10
18.3447654167
 20
5.9972212904
 30
0.0
 10
18.3434872314
 20
5.9710175224
 30
0.0
 10
18.3377374779
 20
5.9321031467
 30
0.0
 10
18.3282122491
 20
5.8939937532
 30
0.0
 10
18.3150399305
 20
5.8571101899
 30
0.0
 10
18.2983403337
 20
5.8217264682
 30
0.0
 10
18.2782346356
 20
5.7881277593
 30
0.0
 10
18.254941913
 20
5.7566999132
 30
0.0
 10
18.2287368987
 20
5.7277776816
 30
0.0
 10
18.1998314864
 20
5.7015668502
 30
0.0
 10
18.1684320253
 20
5.6782764645
 30
0.0
 10
18.1348738376
 20
5.6581789739
 30
0.0
 10
18.0995419226
 20
5.6414907642
 30
0.0
 10
18.0627217495
 20
5.6283310814
 30
0.0
 10
18.0246855664
 20
5.6188171375
 30
0.0
 10
17.9858522496
 20
5.6130752761
 30
0.0
 10
17.9597045732
 20
5.6117989703
 30
0.0
 10
17.9466639602
 20
5.6117989703
 30
0.0
 11
18.3447654167
 21
6.0102907588
 31
0.0
 11
18.3428530038
 21
5.971129021
 31
0.0
 11
18.3371003527
 21
5.9322029434
 31
0.0
 11
18.327575704
 21
5.8941028309
 31
0.0
 11
18.3144470456
 21
5.8573452587
 31
0.0
 11
18.2977985659
 21
5.8220726268
 31
0.0
 11
18.2776917019
 21
5.7884737798
 31
0.0
 11
18.2544006129
 21
5.7570492115
 31
0.0
 11
18.22828478
 21
5.7282258994
 31
0.0
 11
18.1994775026
 21
5.7021041155
 31
0.0
 11
18.1680822812
 21
5.6788165325
 31
0.0
 11
18.1345237957
 21
5.6587181685
 31
0.0
 11
18.0993033374
 21
5.6420816035
 31
0.0
 11
18.0626089577
 21
5.6289657851
 31
0.0
 11
18.0245838877
 21
5.6194530503
 31
0.0
 11
17.985739173
 21
5.613708427
 31
0.0
 11
17.9466639602
 21
5.6117989703
 31
0.0
  0
SPLINE
  5
325
100
AcDbEntity
  8
ASSI
100
AcDbSpline
 62
7
  6
CONTINUOUS
 70
0
 71
3
 72
23
 73
19
 74
17
 42
0.0000001
 43
0.0000001
 44
0.0000000001
 12
0.6260794102
 22
0.0
 32
0.0
 13
-0.0
 23
-0.6260794102
 33
0.0
 40
0.0
 40
0.0
 40
0.0
 40
0.0
 40
0.0625881422
 40
0.1254217627
 40
0.1881542833
 40
0.2505211627
 40
0.3128592232
 40
0.3754553554
 40
0.4379997474
 40
0.5002027209
 40
0.5623977915
 40
0.6249185204
 40
0.6874810527
 40
0.7497738282
 40
0.8120816345
 40
0.8747414598
 40
0.937496554
 40
1.0
 40
1.0
 40
1.0
 40
1.0
 10
17.9460364874
 20
7.8117989703
 30
0.0
 10
17.9590982031
 20
7.8117989703
 30
0.0
 10
17.9852908746
 20
7.8105204549
 30
0.0
 10
18.0241948431
 20
7.8047692722
 30
0.0
 10
18.0623057715
 20
7.7952393871
 30
0.0
 10
18.0992009452
 20
7.7820577347
 30
0.0
 10
18.1346047154
 20
7.7653430343
 30
0.0
 10
18.1682300352
 20
7.7452157642
 30
0.0
 10
18.1996892111
 20
7.721894543
 30
0.0
 10
18.2286447236
 20
7.6956548098
 30
0.0
 10
18.2548884799
 20
7.6667096131
 30
0.0
 10
18.2782093302
 20
7.6352671029
 30
0.0
 10
18.2983332226
 20
7.6016647039
 30
0.0
 10
18.3150425144
 20
7.5662902186
 30
0.0
 10
18.3282174878
 20
7.5294319051
 30
0.0
 10
18.3377411365
 20
7.4913646772
 30
0.0
 10
18.3434879179
 20
7.4525098451
 30
0.0
 10
18.3447654167
 20
7.4263512459
 30
0.0
 10
18.3447654167
 20
7.4133072057
 30
0.0
 11
17.9460364874
 21
7.8117989703
 31
0.0
 11
17.9851749447
 21
7.8098866639
 31
0.0
 11
18.0240907218
 21
7.8041328552
 31
0.0
 11
18.0621927439
 21
7.7946037462
 31
0.0
 11
18.0989627299
 21
7.7814657636
 31
0.0
 11
18.1342553042
 21
7.764802512
 31
0.0
 11
18.1678813335
 21
7.7446739757
 31
0.0
 11
18.1993378745
 21
7.7213541153
 31
0.0
 11
18.2281953187
 21
7.6952029562
 31
0.0
 11
18.2543503154
 21
7.6663556684
 31
0.0
 11
18.2776689181
 21
7.6349166384
 31
0.0
 11
18.2977940963
 21
7.6013131173
 31
0.0
 11
18.3144519477
 21
7.5660493473
 31
0.0
 11
18.3275830821
 21
7.5293161892
 31
0.0
 11
18.3371054455
 21
7.4912593951
 31
0.0
 11
18.34285478
 21
7.4523926548
 31
0.0
 11
18.3447654167
 21
7.4133072057
 31
0.0
  0
SPLINE
  5
326
100
AcDbEntity
  8
ASSI
100
AcDbSpline
 62
253
  6
CONTINUOUS
 70
0
 71
3
 72
24
 73
20
 74
18
 42
0.0000001
 43
0.0000001
 44
0.0000000001
 12
0.2685899298
 22
0.8063822775
 32
0.0
 13
0.0022370123
 23
0.8499340702
 33
0.0
 40
0.0
 40
0.0
 40
0.0
 40
0.0
 40
0.0089137456
 40
0.0253125474
 40
0.0491359441
 40
0.0802419731
 40
0.1184347082
 40
0.163469248
 40
0.215055175
 40
0.2728589497
 40
0.3365068628
 40
0.4055864992
 40
0.47965089
 40
0.558220232
 40
0.6407855899
 40
0.7268120383
 40
0.815743447
 40
0.9070022571
 40
1.0
 40
1.0
 40
1.0
 40
1.0
 10
-7.9272048514
 20
-10.8451448016
 30
0.0
 10
-7.926406804
 20
-10.8427488395
 30
0.0
 10
-7.9255223269
 20
-10.8355669685
 30
0.0
 10
-7.9241401629
 20
-10.8217571381
 30
0.0
 10
-7.92289889
 20
-10.8015630912
 30
0.0
 10
-7.9215890121
 20
-10.7752217574
 30
0.0
 10
-7.920337737
 20
-10.7428500264
 30
0.0
 10
-7.9191180865
 20
-10.704676259
 30
0.0
 10
-7.9179551342
 20
-10.6609408635
 30
0.0
 10
-7.9168531919
 20
-10.6119295776
 30
0.0
 10
-7.9158219264
 20
-10.5579594293
 30
0.0
 10
-7.9148681485
 20
-10.4993804313
 30
0.0
 10
-7.9139986004
 20
-10.4365722593
 30
0.0
 10
-7.9132191608
 20
-10.3699419692
 30
0.0
 10
-7.9125350819
 20
-10.2999214682
 30
0.0
 10
-7.9119509612
 20
-10.2269642676
 30
0.0
 10
-7.9114706342
 20
-10.1515432986
 30
0.0
 10
-7.9110973761
 20
-10.0741466505
 30
0.0
 10
-7.9109227414
 20
-10.021944766
 30
0.0
 10
-7.9108533957
 20
-9.9955974493
 30
0.0
 11
-7.9272048514
 21
-10.8451448016
 31
0.0
 11
-7.9258052567
 21
-10.8376990804
 31
0.0
 11
-7.9244207324
 21
-10.8238300681
 31
0.0
 11
-7.9230600937
 21
-10.8036274488
 31
0.0
 11
-7.9217322882
 21
-10.7772226477
 31
0.0
 11
-7.9204458645
 21
-10.7447867285
 31
0.0
 11
-7.9192091798
 21
-10.7065301896
 31
0.0
 11
-7.9180302442
 21
-10.6627012538
 31
0.0
 11
-7.9169166996
 21
-10.6135843073
 31
0.0
 11
-7.915875753
 21
-10.5594976061
 31
0.0
 11
-7.9149141524
 21
-10.5007921412
 31
0.0
 11
-7.9140381193
 21
-10.4378481699
 31
0.0
 11
-7.913253329
 21
-10.3710737896
 31
0.0
 11
-7.9125648594
 21
-10.3009018131
 31
0.0
 11
-7.9119771751
 21
-10.2277871123
 31
0.0
 11
-7.9114940564
 21
-10.1522025603
 31
0.0
 11
-7.9111186689
 21
-10.0746392281
 31
0.0
 11
-7.9108533957
 21
-9.9955974493
 31
0.0
  0
SPLINE
  5
327
100
AcDbEntity
  8
ASSI
100
AcDbSpline
 62
253
  6
CONTINUOUS
 70
0
 71
3
 72
24
 73
20
 74
18
 42
0.0000001
 43
0.0000001
 44
0.0000000001
 12
0.2359406643
 22
0.3541476739
 32
0.0
 13
0.0022405343
 23
0.425539131
 33
0.0
 40
0.0
 40
0.0
 40
0.0
 40
0.0
 40
0.0093427655
 40
0.0259586392
 40
0.0499093424
 40
0.0810900281
 40
0.1193207176
 40
0.1643650495
 40
0.2159378438
 40
0.2737091555
 40
0.3373079655
 40
0.4063240255
 40
0.4803121476
 40
0.5587941037
 40
0.6412624686
 40
0.7271837488
 40
0.8160032134
 40
0.907144645
 40
1.0
 40
1.0
 40
1.0
 40
1.0
 10
-8.4269002649
 20
-10.3458300343
 30
0.0
 10
-8.4261654855
 20
-10.344727128
 30
0.0
 10
-8.4251919434
 20
-10.3410782779
 30
0.0
 10
-8.4238595335
 20
-10.3341816354
 30
0.0
 10
-8.4225881131
 20
-10.3240514964
 30
0.0
 10
-8.4212884762
 20
-10.3108832432
 30
0.0
 10
-8.4200327319
 20
-10.2946912515
 30
0.0
 10
-8.4188142494
 20
-10.2756032903
 30
0.0
 10
-8.4176506991
 20
-10.2537336453
 30
0.0
 10
-8.4165488059
 20
-10.2292266836
 30
0.0
 10
-8.4155174249
 20
-10.2022402001
 30
0.0
 10
-8.4145636069
 20
-10.1729493168
 30
0.0
 10
-8.4136940156
 20
-10.1415437987
 30
0.0
 10
-8.412914545
 20
-10.1082271969
 30
0.0
 10
-8.4122304524
 20
-10.0732154726
 30
0.0
 10
-8.4116463075
 20
-10.0367353935
 30
0.0
 10
-8.4111660025
 20
-9.9990234417
 30
0.0
 10
-8.4107927399
 20
-9.9603266526
 30
0.0
 10
-8.4106181578
 20
-9.9342275538
 30
0.0
 10
-8.4105488093
 20
-9.9210563581
 30
0.0
 11
-8.4269002649
 21
-10.3458300343
 31
0.0
 11
-8.4255010501
 21
-10.34210862
 31
0.0
 11
-8.4241164358
 21
-10.3351747112
 31
0.0
 11
-8.4227557774
 21
-10.3250738416
 31
0.0
 11
-8.4214279206
 21
-10.3118716648
 31
0.0
 11
-8.4201414573
 21
-10.2956537283
 31
0.0
 11
-8.4189047298
 21
-10.2765252746
 31
0.0
 11
-8.4177257545
 21
-10.2546104187
 31
0.0
 11
-8.4166121724
 21
-10.2300513578
 31
0.0
 11
-8.4155711916
 21
-10.2030072276
 31
0.0
 11
-8.4146095608
 21
-10.1736535337
 31
0.0
 11
-8.413733503
 21
-10.1421804463
 31
0.0
 11
-8.4129486934
 21
-10.1087920624
 31
0.0
 11
-8.4122602132
 21
-10.0737048137
 31
0.0
 11
-8.4116725194
 21
-10.0371461633
 31
0.0
 11
-8.4111894096
 21
-9.9993525693
 31
0.0
 11
-8.410814017
 21
-9.9605696029
 31
0.0
 11
-8.4105488093
 21
-9.9210563581
 31
0.0
  0
SPLINE
  5
328
100
AcDbEntity
  8
ASSI
100
AcDbSpline
 62
253
  6
CONTINUOUS
 70
0
 71
3
 72
24
 73
20
 74
18
 42
0.0000001
 43
0.0000001
 44
0.0000000001
 12
-0.4997144696
 22
0.0000069948
 32
0.0
 13
-0.4951381098
 23
0.0674744651
 33
0.0
 40
0.0
 40
0.0
 40
0.0
 40
0.0
 40
0.0902745285
 40
0.1798119128
 40
0.2678852403
 40
0.3537729599
 40
0.4367747643
 40
0.5162146948
 40
0.5914438862
 40
0.6618488285
 40
0.7268549417
 40
0.7859326743
 40
0.8385998271
 40
0.8844269067
 40
0.9230397915
 40
0.9541242682
 40
0.9774271668
 40
0.9927589096
 40
1.0
 40
1.0
 40
1.0
 40
1.0
 10
-7.8733446463
 20
10.8140305161
 30
0.0
 10
-7.888381809
 20
10.8140307266
 30
0.0
 10
-7.9183333475
 20
10.8140375617
 30
0.0
 10
-7.9629553827
 20
10.8140670406
 30
0.0
 10
-8.0068466838
 20
10.8141154824
 30
0.0
 10
-8.049649318
 20
10.8141824783
 30
0.0
 10
-8.0910138397
 20
10.8142674666
 30
0.0
 10
-8.1306029097
 20
10.8143697293
 30
0.0
 10
-8.1680936473
 20
10.8144883897
 30
0.0
 10
-8.2031800512
 20
10.8146224577
 30
0.0
 10
-8.2355760113
 20
10.8147706683
 30
0.0
 10
-8.2650172245
 20
10.8149320237
 30
0.0
 10
-8.2912637472
 20
10.8151040119
 30
0.0
 10
-8.3141009046
 20
10.8152880919
 30
0.0
 10
-8.3333438151
 20
10.8154729325
 30
0.0
 10
-8.3488317717
 20
10.8156819432
 30
0.0
 10
-8.3604483226
 20
10.8158444034
 30
0.0
 10
-8.3680778313
 20
10.8161007427
 30
0.0
 10
-8.3718476737
 20
10.8161721138
 30
0.0
 10
-8.3730427869
 20
10.8163349767
 30
0.0
 11
-7.8733446463
 21
10.8140305161
 31
0.0
 11
-7.9184561332
 21
10.8140408543
 31
0.0
 11
-7.9631992499
 21
10.8140705328
 31
0.0
 11
-8.007210739
 21
10.8141193123
 31
0.0
 11
-8.0501300222
 21
10.8141867913
 31
0.0
 11
-8.0916071365
 21
10.8142724191
 31
0.0
 11
-8.1313042854
 21
10.8143754962
 31
0.0
 11
-8.1688972103
 21
10.8144951795
 31
0.0
 11
-8.2040793185
 21
10.8146304907
 31
0.0
 11
-8.2365634684
 21
10.8147803232
 31
0.0
 11
-8.2660850155
 21
10.8149434539
 31
0.0
 11
-8.2924029714
 21
10.8151185496
 31
0.0
 11
-8.3153026738
 21
10.8153041799
 31
0.0
 11
-8.3345971092
 21
10.8154988273
 31
0.0
 11
-8.3501291575
 21
10.8157009025
 31
0.0
 11
-8.3617720979
 21
10.815908763
 31
0.0
 11
-8.36943066
 21
10.8161206889
 31
0.0
 11
-8.3730427869
 21
10.8163349767
 31
0.0
  0
SPLINE
  5
329
100
AcDbEntity
  8
ASSI
100
AcDbSpline
 62
253
  6
CONTINUOUS
 70
0
 71
3
 72
23
 73
19
 74
17
 42
0.0000001
 43
0.0000001
 44
0.0000000001
 12
0.1156655032
 22
-0.499983543
 32
0.0
 13
0.5131813254
 23
-0.0026417988
 33
0.0
 40
0.0
 40
0.0
 40
0.0
 40
0.0
 40
0.015923639
 40
0.0375197021
 40
0.0662667587
 40
0.1026032005
 40
0.1465356677
 40
0.1978499076
 40
0.2561916344
 40
0.3211034861
 40
0.3920453925
 40
0.4684080562
 40
0.5495234005
 40
0.6346736571
 40
0.7230998625
 40
0.8140101302
 40
0.9065878662
 40
1.0
 40
1.0
 40
1.0
 40
1.0
 10
-8.4105488093
 20
-9.9210563581
 30
0.0
 10
-8.4099348707
 20
-9.9237102106
 30
0.0
 10
-8.4063235653
 20
-9.9293845172
 30
0.0
 10
-8.3972332287
 20
-9.9362708655
 30
0.0
 10
-8.38399554
 20
-9.9430682526
 30
0.0
 10
-8.3665266039
 20
-9.9496590932
 30
0.0
 10
-8.344926533
 20
-9.9560421897
 30
0.0
 10
-8.3193586759
 20
-9.9621291046
 30
0.0
 10
-8.2900458411
 20
-9.967863212
 30
0.0
 10
-8.2572503036
 20
-9.9731837107
 30
0.0
 10
-8.221270408
 20
-9.9780384971
 30
0.0
 10
-8.1824352562
 20
-9.9823799373
 30
0.0
 10
-8.1411012023
 20
-9.9861662395
 30
0.0
 10
-8.0976480922
 20
-9.9893611841
 30
0.0
 10
-8.052475601
 20
-9.9919344169
 30
0.0
 10
-8.0059993745
 20
-9.9938615911
 30
0.0
 10
-7.9586473348
 20
-9.9951245348
 30
0.0
 10
-7.9268325166
 20
-9.9955151906
 30
0.0
 10
-7.9108533957
 20
-9.9955974493
 30
0.0
 11
-8.4105488093
 21
-9.9210563581
 31
0.0
 11
-8.406592952
 21
-9.9282068738
 31
0.0
 11
-8.3980702034
 21
-9.935291517
 31
0.0
 11
-8.3850590776
 21
-9.942245022
 31
0.0
 11
-8.3676794367
 21
-9.949003331
 31
0.0
 11
-8.3460913866
 21
-9.9555041847
 31
0.0
 11
-8.3204938027
 21
-9.9616876955
 31
0.0
 11
-8.2911224969
 21
-9.967496899
 31
0.0
 11
-8.258248046
 21
-9.9728782792
 31
0.0
 11
-8.2221732986
 21
-9.9777822615
 31
0.0
 11
-8.1832305852
 21
-9.9821636689
 31
0.0
 11
-8.1417786572
 21
-9.9859821387
 31
0.0
 11
-8.0981993811
 21
-9.989202494
 31
0.0
 11
-8.0528942216
 21
-9.9917950682
 31
0.0
 11
-8.0062805422
 21
-9.9937359775
 31
0.0
 11
-7.9587877614
 21
-9.995007342
 31
0.0
 11
-7.9108533957
 21
-9.9955974493
 31
0.0
  0
SPLINE
  5
32A
100
AcDbEntity
  8
ASSI
100
AcDbSpline
 62
253
  6
CONTINUOUS
 70
0
 71
3
 72
10
 73
6
 74
4
 42
0.0000001
 43
0.0000001
 44
0.0000000001
 12
0.0002514557
 22
-9.0950366933
 32
0.0
 13
0.0060355961
 23
-9.0950346942
 33
0.0
 40
0.0
 40
0.0
 40
0.0
 40
0.0
 40
0.3333523679
 40
0.6666867588
 40
1.0
 40
1.0
 40
1.0
 40
1.0
 10
35.9625736203
 20
10.8163349877
 30
0.0
 10
35.9626015614
 20
9.8057176484
 30
0.0
 10
35.9628715038
 20
7.7845374693
 30
0.0
 10
35.963919297
 20
4.752858731
 30
0.0
 10
35.9650462073
 20
2.7317974677
 30
0.0
 10
35.9657167887
 20
1.7212989703
 30
0.0
 11
35.9625736203
 21
10.8163349877
 31
0.0
 11
35.9629786687
 21
7.7844829957
 31
0.0
 11
35.9640264263
 21
4.7527946589
 31
0.0
 11
35.9657167887
 21
1.7212989703
 31
0.0
  0
SPLINE
  5
32B
100
AcDbEntity
  8
ASSI
100
AcDbSpline
 62
253
  6
CONTINUOUS
 70
0
 71
3
 72
24
 73
20
 74
18
 42
0.0000001
 43
0.0000001
 44
0.0000000001
 12
-0.4951381098
 22
-0.0674744652
 32
0.0
 13
-0.4997144696
 23
-0.0000069948
 33
0.0
 40
0.0
 40
0.0
 40
0.0
 40
0.0
 40
0.0072410904
 40
0.0225728332
 40
0.0458757318
 40
0.0769602085
 40
0.1155730933
 40
0.1614001728
 40
0.2140673257
 40
0.2731450583
 40
0.3381511715
 40
0.4085561138
 40
0.4837853051
 40
0.5632252357
 40
0.64622704
 40
0.7321147597
 40
0.8201880871
 40
0.9097254715
 40
1.0
 40
1.0
 40
1.0
 40
1.0
 10
35.9625736203
 20
10.8163349767
 30
0.0
 10
35.961378507
 20
10.8161721138
 30
0.0
 10
35.9576086646
 20
10.8161007427
 30
0.0
 10
35.949979156
 20
10.8158444034
 30
0.0
 10
35.938362605
 20
10.8156819432
 30
0.0
 10
35.9228746485
 20
10.8154729325
 30
0.0
 10
35.9036317379
 20
10.8152880919
 30
0.0
 10
35.8807945805
 20
10.8151040119
 30
0.0
 10
35.8545480579
 20
10.8149320237
 30
0.0
 10
35.8251068446
 20
10.8147706683
 30
0.0
 10
35.7927108846
 20
10.8146224577
 30
0.0
 10
35.7576244806
 20
10.8144883897
 30
0.0
 10
35.7201337431
 20
10.8143697293
 30
0.0
 10
35.6805446731
 20
10.8142674666
 30
0.0
 10
35.6391801513
 20
10.8141824783
 30
0.0
 10
35.5963775172
 20
10.8141154824
 30
0.0
 10
35.5524862161
 20
10.8140670406
 30
0.0
 10
35.5078641809
 20
10.8140375617
 30
0.0
 10
35.4779126423
 20
10.8140307266
 30
0.0
 10
35.4628754796
 20
10.8140305161
 30
0.0
 11
35.9625736203
 21
10.8163349767
 31
0.0
 11
35.9589614933
 21
10.8161206889
 31
0.0
 11
35.9513029312
 21
10.815908763
 31
0.0
 11
35.9396599909
 21
10.8157009025
 31
0.0
 11
35.9241279426
 21
10.8154988273
 31
0.0
 11
35.9048335071
 21
10.8153041799
 31
0.0
 11
35.8819338047
 21
10.8151185496
 31
0.0
 11
35.8556158488
 21
10.8149434539
 31
0.0
 11
35.8260943017
 21
10.8147803232
 31
0.0
 11
35.7936101519
 21
10.8146304907
 31
0.0
 11
35.7584280437
 21
10.8144951795
 31
0.0
 11
35.7208351188
 21
10.8143754962
 31
0.0
 11
35.6811379698
 21
10.8142724191
 31
0.0
 11
35.6396608556
 21
10.8141867913
 31
0.0
 11
35.5967415723
 21
10.8141193123
 31
0.0
 11
35.5527300832
 21
10.8140705328
 31
0.0
 11
35.5079869666
 21
10.8140408543
 31
0.0
 11
35.4628754796
 21
10.8140305161
 31
0.0
  0
SPLINE
  5
32C
100
AcDbEntity
  8
ASSI
100
AcDbSpline
 62
253
  6
CONTINUOUS
 70
0
 71
3
 72
23
 73
19
 74
17
 42
0.0000001
 43
0.0000001
 44
0.0000000001
 12
-0.4390227157
 22
-0.2392018116
 32
0.0
 13
-0.4999583399
 23
-0.0003316598
 33
0.0
 40
0.0
 40
0.0
 40
0.0
 40
0.0
 40
0.008152361
 40
0.0253232964
 40
0.051431694
 40
0.0862550999
 40
0.1294799963
 40
0.180712013
 40
0.2394815731
 40
0.3052489593
 40
0.3774096104
 40
0.4552998516
 40
0.5382030955
 40
0.6253564931
 40
0.7159579915
 40
0.8091737417
 40
0.9041457919
 40
1.0
 40
1.0
 40
1.0
 40
1.0
 10
35.9657167887
 20
1.7212989703
 30
0.0
 10
35.9645237648
 20
1.7206489504
 30
0.0
 10
35.9601714837
 20
1.7202629853
 30
0.0
 10
35.9517746465
 20
1.7192328584
 30
0.0
 10
35.938715354
 20
1.7185089586
 30
0.0
 10
35.9214053422
 20
1.7176314251
 30
0.0
 10
35.8998647537
 20
1.7168402365
 30
0.0
 10
35.8743443478
 20
1.7160607523
 30
0.0
 10
35.8450597237
 20
1.715333302
 30
0.0
 10
35.8122868171
 20
1.7146553629
 30
0.0
 10
35.776325229
 20
1.7140372935
 30
0.0
 10
35.7375066925
 20
1.7134841872
 30
0.0
 10
35.6961884117
 20
1.7130017635
 30
0.0
 10
35.6527508751
 20
1.7125945732
 30
0.0
 10
35.6075940132
 20
1.7122665336
 30
0.0
 10
35.5611336127
 20
1.7120207518
 30
0.0
 10
35.5137974605
 20
1.7118595541
 30
0.0
 10
35.4819957455
 20
1.7118095673
 30
0.0
 10
35.4660213752
 20
1.7117989703
 30
0.0
 11
35.9657167887
 21
1.7212989703
 31
0.0
 11
35.9617440824
 21
1.7203878771
 31
0.0
 11
35.9532069207
 21
1.719485173
 31
0.0
 11
35.9401839109
 21
1.7185991697
 31
0.0
 11
35.9227949649
 21
1.7177380253
 31
0.0
 11
35.9012001943
 21
1.716909669
 31
0.0
 11
35.875598437
 21
1.7161217279
 31
0.0
 11
35.8462254256
 21
1.7153814572
 31
0.0
 11
35.8133516175
 21
1.7146956731
 31
0.0
 11
35.7772797041
 21
1.7140706901
 31
0.0
 11
35.7383418239
 21
1.7135122627
 31
0.0
 11
35.6968965046
 21
1.7130255328
 31
0.0
 11
35.6533253612
 21
1.712614982
 31
0.0
 11
35.6080295829
 21
1.7122843907
 31
0.0
 11
35.5614262386
 21
1.7120368027
 31
0.0
 11
35.513944437
 21
1.7118744977
 31
0.0
 11
35.4660213752
 21
1.7117989703
 31
0.0
  0
SPLINE
  5
32D
100
AcDbEntity
  8
ASSI
100
AcDbSpline
 62
253
  6
CONTINUOUS
 70
0
 71
3
 72
23
 73
19
 74
17
 42
0.0000001
 43
0.0000001
 44
0.0000000001
 12
-0.1156656166
 22
-0.4999835144
 32
0.0
 13
-0.5131813232
 23
-0.0026417985
 33
0.0
 40
0.0
 40
0.0
 40
0.0
 40
0.0
 40
0.0159236402
 40
0.037519705
 40
0.0662667634
 40
0.1026032067
 40
0.1465356752
 40
0.197849916
 40
0.2561916431
 40
0.3211034949
 40
0.3920454012
 40
0.4684080643
 40
0.5495234077
 40
0.6346736632
 40
0.7230998673
 40
0.8140101335
 40
0.9065878679
 40
1.0
 40
1.0
 40
1.0
 40
1.0
 10
36.0000796426
 20
-9.9210563581
 30
0.0
 10
35.9994657034
 20
-9.9237102106
 30
0.0
 10
35.9958543968
 20
-9.9293845169
 30
0.0
 10
35.9867640591
 20
-9.9362708649
 30
0.0
 10
35.9735263694
 20
-9.9430682518
 30
0.0
 10
35.9560574324
 20
-9.9496590921
 30
0.0
 10
35.9344573609
 20
-9.9560421884
 30
0.0
 10
35.9088895034
 20
-9.9621291029
 30
0.0
 10
35.8795766684
 20
-9.9678632101
 30
0.0
 10
35.846781131
 20
-9.9731837086
 30
0.0
 10
35.8108012356
 20
-9.9780384948
 30
0.0
 10
35.7719660843
 20
-9.9823799346
 30
0.0
 10
35.7306320309
 20
-9.9861662367
 30
0.0
 10
35.6871789217
 20
-9.989361181
 30
0.0
 10
35.6420064313
 20
-9.9919344137
 30
0.0
 10
35.5955302057
 20
-9.9938615878
 30
0.0
 10
35.5481781671
 20
-9.9951245314
 30
0.0
 10
35.5163633496
 20
-9.9955151872
 30
0.0
 10
35.5003842291
 20
-9.9955974459
 30
0.0
 11
36.0000796426
 21
-9.9210563581
 31
0.0
 11
35.9961237837
 21
-9.9282068736
 31
0.0
 11
35.9876010339
 21
-9.9352915166
 31
0.0
 11
35.974589907
 21
-9.9422450212
 31
0.0
 11
35.9572102651
 21
-9.94900333
 31
0.0
 11
35.9356222145
 21
-9.9555041834
 31
0.0
 11
35.9100246301
 21
-9.9616876939
 31
0.0
 11
35.8806533242
 21
-9.9674968971
 31
0.0
 11
35.8477788733
 21
-9.9728782771
 31
0.0
 11
35.8117041262
 21
-9.9777822591
 31
0.0
 11
35.7727614133
 21
-9.9821636663
 31
0.0
 11
35.7313094858
 21
-9.9859821359
 31
0.0
 11
35.6877302105
 21
-9.989202491
 31
0.0
 11
35.6424250518
 21
-9.991795065
 31
0.0
 11
35.5958113735
 21
-9.9937359743
 31
0.0
 11
35.5483185936
 21
-9.9950073386
 31
0.0
 11
35.5003842291
 21
-9.9955974459
 31
0.0
  0
SPLINE
  5
32E
100
AcDbEntity
  8
ASSI
100
AcDbSpline
 62
253
  6
CONTINUOUS
 70
0
 71
3
 72
24
 73
20
 74
18
 42
0.0000001
 43
0.0000001
 44
0.0000000001
 12
0.0022370123
 22
-0.8499340702
 32
0.0
 13
0.2685899292
 23
-0.8063822777
 33
0.0
 40
0.0
 40
0.0
 40
0.0
 40
0.0
 40
0.0929977429
 40
0.184256553
 40
0.2731879617
 40
0.3592144101
 40
0.441779768
 40
0.52034911
 40
0.5944135008
 40
0.6634931372
 40
0.7271410503
 40
0.784944825
 40
0.836530752
 40
0.8815652918
 40
0.9197580269
 40
0.9508640559
 40
0.9746874526
 40
0.9910862544
 40
1.0
 40
1.0
 40
1.0
 40
1.0
 10
35.5003842291
 20
-9.9955974493
 30
0.0
 10
35.5004535748
 20
-10.021944766
 30
0.0
 10
35.5006282095
 20
-10.0741466505
 30
0.0
 10
35.5010014676
 20
-10.1515432986
 30
0.0
 10
35.5014817945
 20
-10.2269642676
 30
0.0
 10
35.5020659152
 20
-10.2999214682
 30
0.0
 10
35.5027499941
 20
-10.3699419692
 30
0.0
 10
35.5035294338
 20
-10.4365722593
 30
0.0
 10
35.5043989819
 20
-10.4993804313
 30
0.0
 10
35.5053527597
 20
-10.5579594293
 30
0.0
 10
35.5063840252
 20
-10.6119295776
 30
0.0
 10
35.5074859675
 20
-10.6609408635
 30
0.0
 10
35.5086489199
 20
-10.704676259
 30
0.0
 10
35.5098685703
 20
-10.7428500264
 30
0.0
 10
35.5111198454
 20
-10.7752217574
 30
0.0
 10
35.5124297234
 20
-10.8015630912
 30
0.0
 10
35.5136709963
 20
-10.8217571381
 30
0.0
 10
35.5150531602
 20
-10.8355669685
 30
0.0
 10
35.5159376373
 20
-10.8427488395
 30
0.0
 10
35.5167356848
 20
-10.8451448016
 30
0.0
 11
35.5003842291
 21
-9.9955974493
 31
0.0
 11
35.5006495022
 21
-10.0746392281
 31
0.0
 11
35.5010248897
 21
-10.1522025603
 31
0.0
 11
35.5015080085
 21
-10.2277871123
 31
0.0
 11
35.5020956928
 21
-10.3009018131
 31
0.0
 11
35.5027841624
 21
-10.3710737896
 31
0.0
 11
35.5035689526
 21
-10.4378481699
 31
0.0
 11
35.5044449858
 21
-10.5007921412
 31
0.0
 11
35.5054065864
 21
-10.5594976061
 31
0.0
 11
35.5064475329
 21
-10.6135843073
 31
0.0
 11
35.5075610775
 21
-10.6627012538
 31
0.0
 11
35.5087400131
 21
-10.7065301896
 31
0.0
 11
35.5099766979
 21
-10.7447867285
 31
0.0
 11
35.5112631215
 21
-10.7772226477
 31
0.0
 11
35.512590927
 21
-10.8036274488
 31
0.0
 11
35.5139515658
 21
-10.8238300681
 31
0.0
 11
35.5153360901
 21
-10.8376990804
 31
0.0
 11
35.5167356848
 21
-10.8451448016
 31
0.0
  0
SPLINE
  5
32F
100
AcDbEntity
  8
ASSI
100
AcDbSpline
 62
253
  6
CONTINUOUS
 70
0
 71
3
 72
24
 73
20
 74
18
 42
0.0000001
 43
0.0000001
 44
0.0000000001
 12
-0.2498750154
 22
0.0000000277
 32
0.0
 13
-0.2424250812
 23
0.0605607405
 33
0.0
 40
0.0
 40
0.0
 40
0.0
 40
0.0
 40
0.0902519062
 40
0.1797846795
 40
0.2678529052
 40
0.3537361738
 40
0.4367339978
 40
0.5161705145
 40
0.5913968937
 40
0.6617996696
 40
0.7268041989
 40
0.7858808583
 40
0.8385476229
 40
0.8843752391
 40
0.9229899153
 40
0.9540780319
 40
0.9773873145
 40
0.9927312008
 40
1.0
 40
1.0
 40
1.0
 40
1.0
 10
-7.8733473295
 20
11.0642198821
 30
0.0
 10
-7.8808645616
 20
11.0642198829
 30
0.0
 10
-7.8958391288
 20
11.0642257636
 30
0.0
 10
-7.9181490317
 20
11.0642521991
 30
0.0
 10
-7.9400950356
 20
11.0642960161
 30
0.0
 10
-7.9614966901
 20
11.0643568481
 30
0.0
 10
-7.9821793374
 20
11.0644341827
 30
0.0
 10
-8.0019742798
 20
11.0645273703
 30
0.0
 10
-8.0207200685
 20
11.0646356125
 30
0.0
 10
-8.0382636741
 20
11.0647580071
 30
0.0
 10
-8.054462022
 20
11.0648934054
 30
0.0
 10
-8.0691828815
 20
11.065040881
 30
0.0
 10
-8.0823064371
 20
11.0651981933
 30
0.0
 10
-8.0937248603
 20
11.0653665091
 30
0.0
 10
-8.1033472418
 20
11.0655359661
 30
0.0
 10
-8.1110891089
 20
11.0657265785
 30
0.0
 10
-8.1169031783
 20
11.0658772497
 30
0.0
 10
-8.1207085948
 20
11.0661085192
 30
0.0
 10
-8.1226076036
 20
11.0661787097
 30
0.0
 10
-8.1231949834
 20
11.0663254443
 30
0.0
 11
-7.8733473295
 21
11.0642198821
 31
0.0
 11
-7.8958990242
 21
11.0642287767
 31
0.0
 11
-7.9182710114
 21
11.064255395
 31
0.0
 11
-7.9402770165
 21
11.0642995205
 31
0.0
 11
-7.961737012
 21
11.0643607932
 31
0.0
 11
-7.9824759482
 21
11.0644387129
 31
0.0
 11
-8.0023249268
 21
11.0645326454
 31
0.0
 11
-8.0211218024
 21
11.0646418238
 31
0.0
 11
-8.0387132633
 21
11.0647653576
 31
0.0
 11
-8.0549556943
 21
11.0649022385
 31
0.0
 11
-8.0697167224
 21
11.0650513507
 31
0.0
 11
-8.0828758568
 21
11.0652114772
 31
0.0
 11
-8.0943257736
 21
11.0653813121
 31
0.0
 11
-8.1039729715
 21
11.065559468
 31
0.0
 11
-8.1117389113
 21
11.0657444938
 31
0.0
 11
-8.1175602062
 21
11.0659348804
 31
0.0
 11
-8.1213893391
 21
11.0661290701
 31
0.0
 11
-8.1231949834
 21
11.0663254443
 31
0.0
  0
SPLINE
  5
330
100
AcDbEntity
  8
ASSI
100
AcDbSpline
 62
253
  6
CONTINUOUS
 70
0
 71
3
 72
24
 73
20
 74
18
 42
0.0000001
 43
0.0000001
 44
0.0000000001
 12
0.0022405343
 22
-0.425539131
 32
0.0
 13
0.2359406645
 23
-0.3541476737
 33
0.0
 40
0.0
 40
0.0
 40
0.0
 40
0.0
 40
0.092855355
 40
0.1839967866
 40
0.2728162512
 40
0.3587375314
 40
0.4412058963
 40
0.5196878524
 40
0.5936759745
 40
0.6626920345
 40
0.7262908445
 40
0.7840621562
 40
0.8356349505
 40
0.8806792824
 40
0.9189099719
 40
0.9500906576
 40
0.9740413608
 40
0.9906572345
 40
1.0
 40
1.0
 40
1.0
 40
1.0
 10
36.0000796426
 20
-9.9210563581
 30
0.0
 10
36.0001489911
 20
-9.9342275538
 30
0.0
 10
36.0003235732
 20
-9.9603266526
 30
0.0
 10
36.0006968359
 20
-9.9990234417
 30
0.0
 10
36.0011771409
 20
-10.0367353935
 30
0.0
 10
36.0017612858
 20
-10.0732154726
 30
0.0
 10
36.0024453783
 20
-10.1082271969
 30
0.0
 10
36.0032248489
 20
-10.1415437987
 30
0.0
 10
36.0040944402
 20
-10.1729493168
 30
0.0
 10
36.0050482582
 20
-10.2022402001
 30
0.0
 10
36.0060796392
 20
-10.2292266836
 30
0.0
 10
36.0071815324
 20
-10.2537336453
 30
0.0
 10
36.0083450827
 20
-10.2756032903
 30
0.0
 10
36.0095635652
 20
-10.2946912515
 30
0.0
 10
36.0108193095
 20
-10.3108832432
 30
0.0
 10
36.0121189465
 20
-10.3240514964
 30
0.0
 10
36.0133903668
 20
-10.3341816354
 30
0.0
 10
36.0147227767
 20
-10.3410782779
 30
0.0
 10
36.0156963188
 20
-10.344727128
 30
0.0
 10
36.0164310983
 20
-10.3458300343
 30
0.0
 11
36.0000796426
 21
-9.9210563581
 31
0.0
 11
36.0003448503
 21
-9.9605696029
 31
0.0
 11
36.0007202429
 21
-9.9993525693
 31
0.0
 11
36.0012033527
 21
-10.0371461633
 31
0.0
 11
36.0017910465
 21
-10.0737048137
 31
0.0
 11
36.0024795267
 21
-10.1087920624
 31
0.0
 11
36.0032643363
 21
-10.1421804463
 31
0.0
 11
36.0041403941
 21
-10.1736535337
 31
0.0
 11
36.005102025
 21
-10.2030072276
 31
0.0
 11
36.0061430057
 21
-10.2300513578
 31
0.0
 11
36.0072565879
 21
-10.2546104187
 31
0.0
 11
36.0084355632
 21
-10.2765252746
 31
0.0
 11
36.0096722906
 21
-10.2956537283
 31
0.0
 11
36.0109587539
 21
-10.3118716648
 31
0.0
 11
36.0122866107
 21
-10.3250738416
 31
0.0
 11
36.0136472691
 21
-10.3351747112
 31
0.0
 11
36.0150318834
 21
-10.34210862
 31
0.0
 11
36.0164310983
 21
-10.3458300343
 31
0.0
  0
SPLINE
  5
331
100
AcDbEntity
  8
ASSI
100
AcDbSpline
 62
253
  6
CONTINUOUS
 70
0
 71
3
 72
24
 73
20
 74
18
 42
0.0000001
 43
0.0000001
 44
0.0000000001
 12
-0.2424250813
 22
-0.0605607403
 32
0.0
 13
-0.2498750154
 23
-0.0000000277
 33
0.0
 40
0.0
 40
0.0
 40
0.0
 40
0.0
 40
0.0072687992
 40
0.0226126855
 40
0.0459219681
 40
0.0770100847
 40
0.1156247608
 40
0.1614523771
 40
0.2141191417
 40
0.2731958011
 40
0.3382003304
 40
0.4086031063
 40
0.4838294855
 40
0.5632660021
 40
0.6462638261
 40
0.7321470947
 40
0.8202153205
 40
0.9097480937
 40
1.0
 40
1.0
 40
1.0
 40
1.0
 10
35.7127258167
 20
11.0663254443
 30
0.0
 10
35.712138437
 20
11.0661787097
 30
0.0
 10
35.7102394282
 20
11.0661085192
 30
0.0
 10
35.7064340117
 20
11.0658772497
 30
0.0
 10
35.7006199422
 20
11.0657265785
 30
0.0
 10
35.6928780751
 20
11.0655359661
 30
0.0
 10
35.6832556936
 20
11.0653665091
 30
0.0
 10
35.6718372704
 20
11.0651981933
 30
0.0
 10
35.6587137148
 20
11.065040881
 30
0.0
 10
35.6439928554
 20
11.0648934054
 30
0.0
 10
35.6277945074
 20
11.0647580071
 30
0.0
 10
35.6102509019
 20
11.0646356125
 30
0.0
 10
35.5915051131
 20
11.0645273703
 30
0.0
 10
35.5717101708
 20
11.0644341827
 30
0.0
 10
35.5510275235
 20
11.0643568481
 30
0.0
 10
35.529625869
 20
11.0642960161
 30
0.0
 10
35.507679865
 20
11.0642521991
 30
0.0
 10
35.4853699622
 20
11.0642257636
 30
0.0
 10
35.470395395
 20
11.0642198829
 30
0.0
 10
35.4628781628
 20
11.0642198821
 30
0.0
 11
35.7127258167
 21
11.0663254443
 31
0.0
 11
35.7109201724
 21
11.0661290701
 31
0.0
 11
35.7070910395
 21
11.0659348804
 31
0.0
 11
35.7012697446
 21
11.0657444938
 31
0.0
 11
35.6935038048
 21
11.065559468
 31
0.0
 11
35.6838566069
 21
11.0653813121
 31
0.0
 11
35.6724066901
 21
11.0652114772
 31
0.0
 11
35.6592475557
 21
11.0650513507
 31
0.0
 11
35.6444865277
 21
11.0649022385
 31
0.0
 11
35.6282440967
 21
11.0647653576
 31
0.0
 11
35.6106526357
 21
11.0646418238
 31
0.0
 11
35.5918557601
 21
11.0645326454
 31
0.0
 11
35.5720067816
 21
11.0644387129
 31
0.0
 11
35.5512678454
 21
11.0643607932
 31
0.0
 11
35.5298078498
 21
11.0642995205
 31
0.0
 11
35.5078018448
 21
11.064255395
 31
0.0
 11
35.4854298575
 21
11.0642287767
 31
0.0
 11
35.4628781628
 21
11.0642198821
 31
0.0
  0
SPLINE
  5
332
100
AcDbEntity
  8
ASSI
100
AcDbSpline
 62
253
  6
CONTINUOUS
 70
0
 71
3
 72
10
 73
6
 74
4
 42
0.0000001
 43
0.0000001
 44
0.0000000001
 12
0.0060355961
 22
9.0950346942
 32
0.0
 13
0.0002514557
 23
9.0950366933
 33
0.0
 40
0.0
 40
0.0
 40
0.0
 40
0.0
 40
0.3333132412
 40
0.6666476321
 40
1.0
 40
1.0
 40
1.0
 40
1.0
 10
-8.3761859554
 20
1.7212989703
 30
0.0
 10
-8.375515374
 20
2.7317974677
 30
0.0
 10
-8.3743884637
 20
4.752858731
 30
0.0
 10
-8.3733406705
 20
7.7845374693
 30
0.0
 10
-8.3730707281
 20
9.8057176484
 30
0.0
 10
-8.3730427869
 20
10.8163349877
 30
0.0
 11
-8.3761859554
 21
1.7212989703
 31
0.0
 11
-8.374495593
 21
4.7527946589
 31
0.0
 11
-8.3734478354
 21
7.7844829957
 31
0.0
 11
-8.3730427869
 21
10.8163349877
 31
0.0
  0
SPLINE
  5
333
100
AcDbEntity
  8
ASSI
100
AcDbSpline
 62
253
  6
CONTINUOUS
 70
0
 71
3
 72
23
 73
19
 74
17
 42
0.0000001
 43
0.0000001
 44
0.0000000001
 12
0.4390227135
 22
-0.2392018158
 32
0.0
 13
0.4999583399
 23
-0.0003316598
 33
0.0
 40
0.0
 40
0.0
 40
0.0
 40
0.0
 40
0.0081523609
 40
0.0253232963
 40
0.0514316938
 40
0.0862550996
 40
0.1294799961
 40
0.1807120127
 40
0.2394815728
 40
0.305248959
 40
0.3774096101
 40
0.4552998514
 40
0.5382030953
 40
0.6253564929
 40
0.7159579914
 40
0.8091737416
 40
0.9041457919
 40
1.0
 40
1.0
 40
1.0
 40
1.0
 10
-8.3761859554
 20
1.7212989703
 30
0.0
 10
-8.3749929315
 20
1.7206489504
 30
0.0
 10
-8.3706406504
 20
1.7202629853
 30
0.0
 10
-8.3622438133
 20
1.7192328584
 30
0.0
 10
-8.3491845208
 20
1.7185089586
 30
0.0
 10
-8.331874509
 20
1.7176314251
 30
0.0
 10
-8.3103339205
 20
1.7168402365
 30
0.0
 10
-8.2848135146
 20
1.7160607523
 30
0.0
 10
-8.2555288905
 20
1.715333302
 30
0.0
 10
-8.2227559839
 20
1.7146553629
 30
0.0
 10
-8.1867943958
 20
1.7140372935
 30
0.0
 10
-8.1479758593
 20
1.7134841872
 30
0.0
 10
-8.1066575785
 20
1.7130017635
 30
0.0
 10
-8.0632200418
 20
1.7125945732
 30
0.0
 10
-8.01806318
 20
1.7122665336
 30
0.0
 10
-7.9716027794
 20
1.7120207518
 30
0.0
 10
-7.9242666271
 20
1.7118595541
 30
0.0
 10
-7.8924649121
 20
1.7118095673
 30
0.0
 10
-7.8764905419
 20
1.7117989703
 30
0.0
 11
-8.3761859554
 21
1.7212989703
 31
0.0
 11
-8.3722132491
 21
1.7203878771
 31
0.0
 11
-8.3636760874
 21
1.719485173
 31
0.0
 11
-8.3506530777
 21
1.7185991697
 31
0.0
 11
-8.3332641316
 21
1.7177380253
 31
0.0
 11
-8.3116693611
 21
1.716909669
 31
0.0
 11
-8.2860676038
 21
1.7161217279
 31
0.0
 11
-8.2566945924
 21
1.7153814572
 31
0.0
 11
-8.2238207843
 21
1.7146956731
 31
0.0
 11
-8.1877488709
 21
1.71407069
 31
0.0
 11
-8.1488109907
 21
1.7135122627
 31
0.0
 11
-8.1073656713
 21
1.7130255328
 31
0.0
 11
-8.0637945279
 21
1.712614982
 31
0.0
 11
-8.0184987496
 21
1.7122843907
 31
0.0
 11
-7.9718954053
 21
1.7120368027
 31
0.0
 11
-7.9244136037
 21
1.7118744977
 31
0.0
 11
-7.8764905419
 21
1.7117989703
 31
0.0
  0
SPLINE
  5
334
100
AcDbEntity
  8
RACCORDO
100
AcDbSpline
 62
253
  6
CONTINUOUS
 70
0
 71
3
 72
21
 73
17
 74
15
 42
0.0000001
 43
0.0000001
 44
0.0000000001
 12
-0.0021831839
 22
0.2504731391
 32
0.0
 13
0.2504731158
 23
0.0021858458
 33
0.0
 40
0.0
 40
0.0
 40
0.0
 40
0.0
 40
0.1117254707
 40
0.2220443826
 40
0.3295717424
 40
0.4329577933
 40
0.5309050832
 40
0.6221849176
 40
0.7056530314
 40
0.7802643551
 40
0.8450868632
 40
0.8993147599
 40
0.9422821117
 40
0.9734815232
 40
0.9926137743
 40
1.0
 40
1.0
 40
1.0
 40
1.0
 10
-23.8899944495
 20
10.8163349635
 30
0.0
 10
-23.8900757553
 20
10.82566304
 30
0.0
 10
-23.8902012452
 20
10.8442020921
 30
0.0
 10
-23.8902789979
 20
10.8717193927
 30
0.0
 10
-23.890244971
 20
10.8985404735
 30
0.0
 10
-23.890099744
 20
10.9243283039
 30
0.0
 10
-23.8898453629
 20
10.948758358
 30
0.0
 10
-23.8894854509
 20
10.9715248994
 30
0.0
 10
-23.8890249296
 20
10.992337476
 30
0.0
 10
-23.888471121
 20
11.0109485165
 30
0.0
 10
-23.8878308012
 20
11.0270815668
 30
0.0
 10
-23.8871203479
 20
11.0406600871
 30
0.0
 10
-23.8863403966
 20
11.0511711582
 30
0.0
 10
-23.8855517743
 20
11.0593432772
 30
0.0
 10
-23.8847287756
 20
11.0633330802
 30
0.0
 10
-23.8840678929
 20
11.0663200626
 30
0.0
 10
-23.8834512092
 20
11.0663254443
 30
0.0
 11
-23.8899944495
 21
10.8163349635
 31
0.0
 11
-23.8901835315
 21
10.8443196171
 31
0.0
 11
-23.8902605588
 21
10.8719524835
 31
0.0
 11
-23.8902245629
 21
10.8988861979
 31
0.0
 11
-23.8900759965
 21
10.9247821841
 31
0.0
 11
-23.8898167271
 21
10.9493149112
 31
0.0
 11
-23.889450014
 21
10.9721759853
 31
0.0
 11
-23.8889804669
 21
10.9930780266
 31
0.0
 11
-23.8884139885
 21
11.0117582817
 31
0.0
 11
-23.8877576997
 21
11.0279819266
 31
0.0
 11
-23.8870198506
 21
11.041545019
 31
0.0
 11
-23.8862097165
 21
11.0522770612
 31
0.0
 11
-23.8853374814
 21
11.0600431442
 31
0.0
 11
-23.8844141098
 21
11.0647456431
 31
0.0
 11
-23.8834512092
 21
11.0663254443
 31
0.0
  0
LINE
  5
335
100
AcDbEntity
  8
RACCORDO
100
AcDbLine
 62
253
  6
CONTINUOUS
 10
-23.8899916776
 20
10.8163349767
 11
-24.3725430298
 21
10.8140305161
  0
SPLINE
  5
336
100
AcDbEntity
  8
0
100
AcDbSpline
 62
253
  6
CONTINUOUS
 70
0
 71
3
 72
23
 73
19
 74
17
 42
0.0000001
 43
0.0000001
 44
0.0000000001
 12
-0.4773642622
 22
-0.0720585592
 32
0.0
 13
0.0719729241
 23
-0.477377181
 33
0.0
 40
0.0
 40
0.0
 40
0.0
 40
0.0
 40
0.0990673877
 40
0.196892917
 40
0.292575418
 40
0.3852334648
 40
0.4740134963
 40
0.5580976811
 40
0.6367114536
 40
0.7091306523
 40
0.7746881962
 40
0.8327802388
 40
0.8828717468
 40
0.9245014633
 40
0.9572862377
 40
0.980924798
 40
0.9952015677
 40
1.0
 40
1.0
 40
1.0
 40
1.0
 10
-22.815959723
 20
-9.9210563581
 30
0.0
 10
-22.8317234665
 20
-9.9234359092
 30
0.0
 10
-22.8630521706
 20
-9.9281729792
 30
0.0
 10
-22.9096018689
 20
-9.9352356603
 30
0.0
 10
-22.9551281881
 20
-9.9421674863
 30
0.0
 10
-22.9992117571
 20
-9.9489045642
 30
0.0
 10
-23.0414463761
 20
-9.9553848554
 30
0.0
 10
-23.0814433047
 20
-9.9615484281
 30
0.0
 10
-23.1188329716
 20
-9.9673390835
 30
0.0
 10
-23.1532746765
 20
-9.9727012316
 30
0.0
 10
-23.1844390482
 20
-9.9775923118
 30
0.0
 10
-23.2120772637
 20
-9.9819449806
 30
0.0
 10
-23.2358184071
 20
-9.985785849
 30
0.0
 10
-23.2557818101
 20
-9.9888838949
 30
0.0
 10
-23.2708657417
 20
-9.9917384755
 30
0.0
 10
-23.2831875996
 20
-9.9930185374
 30
0.0
 10
-23.2879911762
 20
-9.9953799674
 30
0.0
 10
-23.2930374753
 20
-9.9948338918
 30
0.0
 10
-23.2929223562
 20
-9.9955974459
 30
0.0
 11
-22.815959723
 21
-9.9210563581
 31
0.0
 11
-22.8632491613
 21
-9.9282068736
 31
0.0
 11
-22.909942204
 21
-9.9352915166
 31
0.0
 11
-22.9556087017
 21
-9.9422450212
 31
0.0
 11
-22.999827962
 21
-9.94900333
 31
0.0
 11
-23.0421926247
 21
-9.9555041834
 31
0.0
 11
-23.0823124147
 21
-9.9616876939
 31
0.0
 11
-23.1198177373
 21
-9.9674968971
 31
0.0
 11
-23.1543630831
 21
-9.9728782771
 31
0.0
 11
-23.1856302106
 21
-9.9777822591
 31
0.0
 11
-23.2133310784
 21
-9.9821636663
 31
0.0
 11
-23.2372104984
 21
-9.9859821359
 31
0.0
 11
-23.2570484866
 21
-9.989202491
 31
0.0
 11
-23.2726622901
 21
-9.991795065
 31
0.0
 11
-23.28390807
 21
-9.9937359743
 31
0.0
 11
-23.2906822272
 21
-9.9950073386
 31
0.0
 11
-23.2929223562
 21
-9.9955974459
 31
0.0
  0
SPLINE
  5
337
100
AcDbEntity
  8
0
100
AcDbSpline
 62
253
  6
CONTINUOUS
 70
0
 71
3
 72
23
 73
19
 74
17
 42
0.0000001
 43
0.0000001
 44
0.0000000001
 12
-0.0261481723
 22
-0.4995452843
 32
0.0
 13
0.4995436188
 23
-0.0261799717
 33
0.0
 40
0.0
 40
0.0
 40
0.0
 40
0.0
 40
0.0978499016
 40
0.1947432743
 40
0.2897503344
 40
0.3819594947
 40
0.4704861696
 40
0.5544813359
 40
0.6331397783
 40
0.7057079592
 40
0.7714914739
 40
0.8298620941
 40
0.8802645015
 40
0.9222230709
 40
0.9553499014
 40
0.9793587241
 40
0.9941101821
 40
1.0
 40
1.0
 40
1.0
 40
1.0
 10
-22.3477152966
 20
-10.3458300343
 30
0.0
 10
-22.348568162
 20
-10.3621235199
 30
0.0
 10
-22.3502103705
 20
-10.394554131
 30
0.0
 10
-22.352487852
 20
-10.4428143713
 30
0.0
 10
-22.3545535136
 20
-10.4901427183
 30
0.0
 10
-22.3563876363
 20
-10.5360844547
 30
0.0
 10
-22.3579728002
 20
-10.580198138
 30
0.0
 10
-22.3592940663
 20
-10.6220601064
 30
0.0
 10
-22.3603392023
 20
-10.6612676253
 30
0.0
 10
-22.3610987505
 20
-10.697445912
 30
0.0
 10
-22.3615666719
 20
-10.7302414148
 30
0.0
 10
-22.36173934
 20
-10.7593584461
 30
0.0
 10
-22.3616202502
 20
-10.7844592235
 30
0.0
 10
-22.361208945
 20
-10.8054740557
 30
0.0
 10
-22.3605388085
 20
-10.8217402671
 30
0.0
 10
-22.3595961163
 20
-10.8342615775
 30
0.0
 10
-22.3585549012
 20
-10.8406008664
 30
0.0
 10
-22.3574142667
 20
-10.8450934032
 30
0.0
 10
-22.3564335264
 20
-10.8451448016
 30
0.0
 11
-22.3477152966
 21
-10.3458300343
 31
0.0
 11
-22.3501902879
 21
-10.3947147957
 31
0.0
 11
-22.3524738386
 21
-10.4431298635
 31
0.0
 11
-22.3545440081
 21
-10.4906100569
 31
0.0
 11
-22.3563809057
 21
-10.5366991776
 31
0.0
 11
-22.3579668822
 21
-10.5809543931
 31
0.0
 11
-22.3592866993
 21
-10.6229504911
 31
0.0
 11
-22.3603276759
 21
-10.6622839656
 31
0.0
 11
-22.3610798102
 21
-10.6985768934
 31
0.0
 11
-22.3615358754
 21
-10.7314805655
 31
0.0
 11
-22.3616914897
 21
-10.7606788374
 31
0.0
 11
-22.3615451579
 21
-10.785891167
 31
0.0
 11
-22.3610982859
 21
-10.8068753095
 31
0.0
 11
-22.3603551673
 21
-10.8234296455
 31
0.0
 11
-22.3593229423
 21
-10.8353951179
 31
0.0
 11
-22.3580115286
 21
-10.8426567603
 31
0.0
 11
-22.3564335264
 21
-10.8451448016
 31
0.0
  0
SPLINE
  5
338
100
AcDbEntity
  8
ASSI
100
AcDbSpline
 62
253
  6
CONTINUOUS
 70
0
 71
3
 72
21
 73
17
 74
15
 42
0.0000001
 43
0.0000001
 44
0.0000000001
 12
-0.0021831839
 22
0.2504731391
 32
0.0
 13
0.2504731158
 23
0.0021858458
 33
0.0
 40
0.0
 40
0.0
 40
0.0
 40
0.0
 40
0.1117254707
 40
0.2220443826
 40
0.3295717424
 40
0.4329577933
 40
0.5309050832
 40
0.6221849176
 40
0.7056530314
 40
0.7802643551
 40
0.8450868632
 40
0.8993147599
 40
0.9422821117
 40
0.9734815232
 40
0.9926137743
 40
1.0
 40
1.0
 40
1.0
 40
1.0
 10
-23.8899944495
 20
10.8163349635
 30
0.0
 10
-23.8900757553
 20
10.82566304
 30
0.0
 10
-23.8902012452
 20
10.8442020921
 30
0.0
 10
-23.8902789979
 20
10.8717193927
 30
0.0
 10
-23.890244971
 20
10.8985404735
 30
0.0
 10
-23.890099744
 20
10.9243283039
 30
0.0
 10
-23.8898453629
 20
10.948758358
 30
0.0
 10
-23.8894854509
 20
10.9715248994
 30
0.0
 10
-23.8890249296
 20
10.992337476
 30
0.0
 10
-23.888471121
 20
11.0109485165
 30
0.0
 10
-23.8878308012
 20
11.0270815668
 30
0.0
 10
-23.8871203479
 20
11.0406600871
 30
0.0
 10
-23.8863403966
 20
11.0511711582
 30
0.0
 10
-23.8855517743
 20
11.0593432772
 30
0.0
 10
-23.8847287756
 20
11.0633330802
 30
0.0
 10
-23.8840678929
 20
11.0663200626
 30
0.0
 10
-23.8834512092
 20
11.0663254443
 30
0.0
 11
-23.8899944495
 21
10.8163349635
 31
0.0
 11
-23.8901835315
 21
10.8443196171
 31
0.0
 11
-23.8902605588
 21
10.8719524835
 31
0.0
 11
-23.8902245629
 21
10.8988861979
 31
0.0
 11
-23.8900759965
 21
10.9247821841
 31
0.0
 11
-23.8898167271
 21
10.9493149112
 31
0.0
 11
-23.889450014
 21
10.9721759853
 31
0.0
 11
-23.8889804669
 21
10.9930780266
 31
0.0
 11
-23.8884139885
 21
11.0117582817
 31
0.0
 11
-23.8877576997
 21
11.0279819266
 31
0.0
 11
-23.8870198506
 21
11.041545019
 31
0.0
 11
-23.8862097165
 21
11.0522770612
 31
0.0
 11
-23.8853374814
 21
11.0600431442
 31
0.0
 11
-23.8844141098
 21
11.0647456431
 31
0.0
 11
-23.8834512092
 21
11.0663254443
 31
0.0
  0
LINE
  5
339
100
AcDbEntity
  8
ASSI
100
AcDbLine
 62
253
  6
CONTINUOUS
 10
-23.8899916776
 20
10.8163349767
 11
-24.3725430298
 21
10.8140305161
  0
SPLINE
  5
33A
100
AcDbEntity
  8
ASSI
100
AcDbSpline
 62
253
  6
CONTINUOUS
 70
0
 71
3
 72
23
 73
19
 74
17
 42
0.0000001
 43
0.0000001
 44
0.0000000001
 12
-0.4773642622
 22
-0.0720585592
 32
0.0
 13
0.0719729241
 23
-0.477377181
 33
0.0
 40
0.0
 40
0.0
 40
0.0
 40
0.0
 40
0.0990673877
 40
0.196892917
 40
0.292575418
 40
0.3852334648
 40
0.4740134963
 40
0.5580976811
 40
0.6367114536
 40
0.7091306523
 40
0.7746881962
 40
0.8327802388
 40
0.8828717468
 40
0.9245014633
 40
0.9572862377
 40
0.980924798
 40
0.9952015677
 40
1.0
 40
1.0
 40
1.0
 40
1.0
 10
-22.815959723
 20
-9.9210563581
 30
0.0
 10
-22.8317234665
 20
-9.9234359092
 30
0.0
 10
-22.8630521706
 20
-9.9281729792
 30
0.0
 10
-22.9096018689
 20
-9.9352356603
 30
0.0
 10
-22.9551281881
 20
-9.9421674863
 30
0.0
 10
-22.9992117571
 20
-9.9489045642
 30
0.0
 10
-23.0414463761
 20
-9.9553848554
 30
0.0
 10
-23.0814433047
 20
-9.9615484281
 30
0.0
 10
-23.1188329716
 20
-9.9673390835
 30
0.0
 10
-23.1532746765
 20
-9.9727012316
 30
0.0
 10
-23.1844390482
 20
-9.9775923118
 30
0.0
 10
-23.2120772637
 20
-9.9819449806
 30
0.0
 10
-23.2358184071
 20
-9.985785849
 30
0.0
 10
-23.2557818101
 20
-9.9888838949
 30
0.0
 10
-23.2708657417
 20
-9.9917384755
 30
0.0
 10
-23.2831875996
 20
-9.9930185374
 30
0.0
 10
-23.2879911762
 20
-9.9953799674
 30
0.0
 10
-23.2930374753
 20
-9.9948338918
 30
0.0
 10
-23.2929223562
 20
-9.9955974459
 30
0.0
 11
-22.815959723
 21
-9.9210563581
 31
0.0
 11
-22.8632491613
 21
-9.9282068736
 31
0.0
 11
-22.909942204
 21
-9.9352915166
 31
0.0
 11
-22.9556087017
 21
-9.9422450212
 31
0.0
 11
-22.999827962
 21
-9.94900333
 31
0.0
 11
-23.0421926247
 21
-9.9555041834
 31
0.0
 11
-23.0823124147
 21
-9.9616876939
 31
0.0
 11
-23.1198177373
 21
-9.9674968971
 31
0.0
 11
-23.1543630831
 21
-9.9728782771
 31
0.0
 11
-23.1856302106
 21
-9.9777822591
 31
0.0
 11
-23.2133310784
 21
-9.9821636663
 31
0.0
 11
-23.2372104984
 21
-9.9859821359
 31
0.0
 11
-23.2570484866
 21
-9.989202491
 31
0.0
 11
-23.2726622901
 21
-9.991795065
 31
0.0
 11
-23.28390807
 21
-9.9937359743
 31
0.0
 11
-23.2906822272
 21
-9.9950073386
 31
0.0
 11
-23.2929223562
 21
-9.9955974459
 31
0.0
  0
SPLINE
  5
33B
100
AcDbEntity
  8
ASSI
100
AcDbSpline
 62
253
  6
CONTINUOUS
 70
0
 71
3
 72
23
 73
19
 74
17
 42
0.0000001
 43
0.0000001
 44
0.0000000001
 12
-0.0261481723
 22
-0.4995452843
 32
0.0
 13
0.4995436188
 23
-0.0261799717
 33
0.0
 40
0.0
 40
0.0
 40
0.0
 40
0.0
 40
0.0978499016
 40
0.1947432743
 40
0.2897503344
 40
0.3819594947
 40
0.4704861696
 40
0.5544813359
 40
0.6331397783
 40
0.7057079592
 40
0.7714914739
 40
0.8298620941
 40
0.8802645015
 40
0.9222230709
 40
0.9553499014
 40
0.9793587241
 40
0.9941101821
 40
1.0
 40
1.0
 40
1.0
 40
1.0
 10
-22.3477152966
 20
-10.3458300343
 30
0.0
 10
-22.348568162
 20
-10.3621235199
 30
0.0
 10
-22.3502103705
 20
-10.394554131
 30
0.0
 10
-22.352487852
 20
-10.4428143713
 30
0.0
 10
-22.3545535136
 20
-10.4901427183
 30
0.0
 10
-22.3563876363
 20
-10.5360844547
 30
0.0
 10
-22.3579728002
 20
-10.580198138
 30
0.0
 10
-22.3592940663
 20
-10.6220601064
 30
0.0
 10
-22.3603392023
 20
-10.6612676253
 30
0.0
 10
-22.3610987505
 20
-10.697445912
 30
0.0
 10
-22.3615666719
 20
-10.7302414148
 30
0.0
 10
-22.36173934
 20
-10.7593584461
 30
0.0
 10
-22.3616202502
 20
-10.7844592235
 30
0.0
 10
-22.361208945
 20
-10.8054740557
 30
0.0
 10
-22.3605388085
 20
-10.8217402671
 30
0.0
 10
-22.3595961163
 20
-10.8342615775
 30
0.0
 10
-22.3585549012
 20
-10.8406008664
 30
0.0
 10
-22.3574142667
 20
-10.8450934032
 30
0.0
 10
-22.3564335264
 20
-10.8451448016
 30
0.0
 11
-22.3477152966
 21
-10.3458300343
 31
0.0
 11
-22.3501902879
 21
-10.3947147957
 31
0.0
 11
-22.3524738386
 21
-10.4431298635
 31
0.0
 11
-22.3545440081
 21
-10.4906100569
 31
0.0
 11
-22.3563809057
 21
-10.5366991776
 31
0.0
 11
-22.3579668822
 21
-10.5809543931
 31
0.0
 11
-22.3592866993
 21
-10.6229504911
 31
0.0
 11
-22.3603276759
 21
-10.6622839656
 31
0.0
 11
-22.3610798102
 21
-10.6985768934
 31
0.0
 11
-22.3615358754
 21
-10.7314805655
 31
0.0
 11
-22.3616914897
 21
-10.7606788374
 31
0.0
 11
-22.3615451579
 21
-10.785891167
 31
0.0
 11
-22.3610982859
 21
-10.8068753095
 31
0.0
 11
-22.3603551673
 21
-10.8234296455
 31
0.0
 11
-22.3593229423
 21
-10.8353951179
 31
0.0
 11
-22.3580115286
 21
-10.8426567603
 31
0.0
 11
-22.3564335264
 21
-10.8451448016
 31
0.0
  0
LINE
  5
33C
100
AcDbEntity
  8
CURVE
100
AcDbLine
 62
253
  6
CONTINUOUS
 10
-24.2064244087
 20
-0.6524145921
 11
-24.2120397128
 21
-0.5265507108
  0
LINE
  5
33D
100
AcDbEntity
  8
CURVE
100
AcDbLine
 62
253
  6
CONTINUOUS
 10
-24.2120397128
 20
-0.526550712
 11
-24.2064244087
 21
-0.6524145921
  0
ELLIPSE
  5
33E
100
AcDbEntity
  8
RACCORDO
100
AcDbEllipse
 62
7
  6
CONTINUOUS
 10
9.8292953628
 20
-10.9700709167
 30
0.0
 11
0.2
 21
-0.0
 31
0.0
 40
0.0524077793
 41
0.5235987756
 42
1.5707963268
  0
ELLIPSE
  5
33F
100
AcDbEntity
  8
RACCORDO
100
AcDbEllipse
 62
7
  6
CONTINUOUS
 10
-1.3707046372
 20
-10.9700709167
 30
0.0
 11
0.2
 21
0.0
 31
0.0
 40
0.0524077793
 41
0.5235987756
 42
1.5707963268
  0
ELLIPSE
  5
340
100
AcDbEntity
  8
RACCORDO
100
AcDbEllipse
 62
7
  6
CONTINUOUS
 10
-4.7397645295
 20
-10.9700709167
 30
0.0
 11
0.2
 21
-0.0
 31
0.0
 40
0.0524077793
 41
1.5707963268
 42
2.617993878
  0
ELLIPSE
  5
341
100
AcDbEntity
  8
RACCORDO
100
AcDbEllipse
 62
7
  6
CONTINUOUS
 10
6.4602354705
 20
-10.9700709167
 30
0.0
 11
0.2
 21
-0.0
 31
0.0
 40
0.0524077793
 41
1.5707963268
 42
2.617993878
  0
ELLIPSE
  5
342
100
AcDbEntity
  8
RACCORDO
100
AcDbEllipse
 62
7
  6
CONTINUOUS
 10
17.7602354705
 20
-10.9700709167
 30
0.0
 11
0.2
 21
0.0
 31
0.0
 40
0.0524077793
 41
1.5707963268
 42
2.617993878
  0
ELLIPSE
  5
343
100
AcDbEntity
  8
RACCORDO
100
AcDbEllipse
 62
7
  6
CONTINUOUS
 10
21.1292953628
 20
-10.9700709167
 30
0.0
 11
0.2
 21
0.0
 31
0.0
 40
0.0524077793
 41
0.5235987756
 42
1.5707963268
  0
ELLIPSE
  5
344
100
AcDbEntity
  8
RACCORDO
100
AcDbEllipse
 62
7
  6
CONTINUOUS
 10
32.3292953628
 20
-10.9700709167
 30
0.0
 11
0.2
 21
0.0
 31
0.0
 40
0.0524077793
 41
0.5235987756
 42
1.5707963268
  0
ELLIPSE
  5
345
100
AcDbEntity
  8
RACCORDO
100
AcDbEllipse
 62
7
  6
CONTINUOUS
 10
28.9602354705
 20
-10.9700709167
 30
0.0
 11
0.2
 21
0.0
 31
0.0
 40
0.0524077793
 41
1.5707963268
 42
2.617993878
  0
ELLIPSE
  5
346
100
AcDbEntity
  8
0
100
AcDbEllipse
 62
7
  6
CONTINUOUS
 10
35.6181561164
 20
-10.4980380088
 30
0.0
 11
0.4943891341
 21
0.0770133648
 31
0.0
 40
0.9960067742
 41
-1.7259388368
 42
-0.1569690096
  0
ELLIPSE
  5
347
100
AcDbEntity
  8
0
100
AcDbEllipse
 62
7
  6
CONTINUOUS
 10
-8.028625283
 20
-10.4980380088
 30
0.0
 11
0.4943891341
 21
-0.0770133648
 31
0.0
 40
0.9960067742
 41
-2.984623644
 42
-1.4156538168
  0
ELLIPSE
  5
348
100
AcDbEntity
  8
RACCORDO
100
AcDbEllipse
 62
7
  6
CONTINUOUS
 10
35.8946130306
 20
10.8617894507
 30
0.0
 11
0.2426981267
 21
0.0606514259
 31
0.0
 40
0.9993528196
 41
-0.2447368254
 42
1.3257549497
  0
ELLIPSE
  5
349
100
AcDbEntity
  8
RACCORDO
100
AcDbEllipse
 62
7
  6
CONTINUOUS
 10
-8.3050821973
 20
10.8617894507
 30
0.0
 11
0.2426981267
 21
-0.0606514259
 31
0.0
 40
0.9993528196
 41
1.8158377039
 42
3.386329479
  0
ELLIPSE
  5
34A
100
AcDbEntity
  8
ASSI
100
AcDbEllipse
 62
7
  6
CONTINUOUS
 10
9.8292953628
 20
-10.9700709167
 30
0.0
 11
0.2
 21
-0.0
 31
0.0
 40
0.0524077793
 41
0.5235987756
 42
1.5707963268
  0
ELLIPSE
  5
34B
100
AcDbEntity
  8
ASSI
100
AcDbEllipse
 62
7
  6
CONTINUOUS
 10
-1.3707046372
 20
-10.9700709167
 30
0.0
 11
0.2
 21
0.0
 31
0.0
 40
0.0524077793
 41
0.5235987756
 42
1.5707963268
  0
ELLIPSE
  5
34C
100
AcDbEntity
  8
ASSI
100
AcDbEllipse
 62
7
  6
CONTINUOUS
 10
-4.7397645295
 20
-10.9700709167
 30
0.0
 11
0.2
 21
-0.0
 31
0.0
 40
0.0524077793
 41
1.5707963268
 42
2.617993878
  0
ELLIPSE
  5
34D
100
AcDbEntity
  8
ASSI
100
AcDbEllipse
 62
7
  6
CONTINUOUS
 10
6.4602354705
 20
-10.9700709167
 30
0.0
 11
0.2
 21
-0.0
 31
0.0
 40
0.0524077793
 41
1.5707963268
 42
2.617993878
  0
ELLIPSE
  5
34E
100
AcDbEntity
  8
ASSI
100
AcDbEllipse
 62
7
  6
CONTINUOUS
 10
17.7602354705
 20
-10.9700709167
 30
0.0
 11
0.2
 21
0.0
 31
0.0
 40
0.0524077793
 41
1.5707963268
 42
2.617993878
  0
ELLIPSE
  5
34F
100
AcDbEntity
  8
ASSI
100
AcDbEllipse
 62
7
  6
CONTINUOUS
 10
21.1292953628
 20
-10.9700709167
 30
0.0
 11
0.2
 21
0.0
 31
0.0
 40
0.0524077793
 41
0.5235987756
 42
1.5707963268
  0
ELLIPSE
  5
350
100
AcDbEntity
  8
ASSI
100
AcDbEllipse
 62
7
  6
CONTINUOUS
 10
32.3292953628
 20
-10.9700709167
 30
0.0
 11
0.2
 21
0.0
 31
0.0
 40
0.0524077793
 41
0.5235987756
 42
1.5707963268
  0
ELLIPSE
  5
351
100
AcDbEntity
  8
ASSI
100
AcDbEllipse
 62
7
  6
CONTINUOUS
 10
28.9602354705
 20
-10.9700709167
 30
0.0
 11
0.2
 21
0.0
 31
0.0
 40
0.0524077793
 41
1.5707963268
 42
2.617993878
  0
ELLIPSE
  5
352
100
AcDbEntity
  8
ASSI
100
AcDbEllipse
 62
7
  6
CONTINUOUS
 10
35.6181561164
 20
-10.4980380088
 30
0.0
 11
0.4943891341
 21
0.0770133648
 31
0.0
 40
0.9960067742
 41
-1.7259388368
 42
-0.1569690096
  0
ELLIPSE
  5
353
100
AcDbEntity
  8
ASSI
100
AcDbEllipse
 62
7
  6
CONTINUOUS
 10
-8.028625283
 20
-10.4980380088
 30
0.0
 11
0.4943891341
 21
-0.0770133648
 31
0.0
 40
0.9960067742
 41
-2.984623644
 42
-1.4156538168
  0
ELLIPSE
  5
354
100
AcDbEntity
  8
ASSI
100
AcDbEllipse
 62
7
  6
CONTINUOUS
 10
35.8946130306
 20
10.8617894507
 30
0.0
 11
0.2426981267
 21
0.0606514259
 31
0.0
 40
0.9993528196
 41
-0.2447368254
 42
1.3257549497
  0
ELLIPSE
  5
355
100
AcDbEntity
  8
ASSI
100
AcDbEllipse
 62
7
  6
CONTINUOUS
 10
-8.3050821973
 20
10.8617894507
 30
0.0
 11
0.2426981267
 21
-0.0606514259
 31
0.0
 40
0.9993528196
 41
1.8158377039
 42
3.386329479
  0
ELLIPSE
  5
356
100
AcDbEntity
  8
CURVE
100
AcDbEllipse
 62
253
  6
CONTINUOUS
 10
65.7013104302
 20
3.4217989703
 30
0.0
 11
-8.0825035784
 21
89.6363382558
 31
0.0
 40
1.0
 41
1.5433658999
 42
1.5434343555
  0
ELLIPSE
  5
357
100
AcDbEntity
  8
CURVE
100
AcDbEllipse
 62
253
  6
CONTINUOUS
 10
65.7013104302
 20
3.4217989703
 30
0.0
 11
17.0196769039
 21
88.3760748058
 31
0.0
 40
1.0
 41
-4.4651813141
 42
-4.4596394688
  0
ELLIPSE
  5
358
100
AcDbEntity
  8
CURVE
100
AcDbEllipse
 62
253
  6
CONTINUOUS
 10
65.7013104302
 20
3.4217989703
 30
0.0
 11
10.9964937326
 21
89.3256801015
 31
0.0
 40
1.0
 41
-4.5404115526
 42
-4.5387550514
  0
ELLIPSE
  5
359
100
AcDbEntity
  8
CURVE
100
AcDbEllipse
 62
253
  6
CONTINUOUS
 10
65.7013104302
 20
3.4217989703
 30
0.0
 11
87.5924090521
 21
20.6777628493
 31
0.0
 40
1.0
 41
2.9609134465
 42
2.9650595452
  0
ELLIPSE
  5
35A
100
AcDbEntity
  8
CURVE
100
AcDbEllipse
 62
253
  6
CONTINUOUS
 10
65.7013104302
 20
3.4217989703
 30
0.0
 11
73.0117966658
 21
-52.6239256197
 31
0.0
 40
1.0
 41
-2.4617790713
 42
-2.4601152897
  0
ELLIPSE
  5
35B
100
AcDbEntity
  8
CURVE
100
AcDbEllipse
 62
253
  6
CONTINUOUS
 10
65.7013104302
 20
3.4217989703
 30
0.0
 11
63.6396103068
 21
63.6396103068
 31
0.0
 40
1.0
 41
2.4131489679
 42
2.4186908132
  0
ELLIPSE
  5
35C
100
AcDbEntity
  8
CURVE
100
AcDbEllipse
 62
253
  6
CONTINUOUS
 10
65.7013104302
 20
3.4217989703
 30
0.0
 11
76.5585727517
 21
-47.3158000907
 31
0.0
 40
1.0
 41
-2.5255219717
 42
-2.5254535161
  0
ELLIPSE
  5
35D
100
AcDbEntity
  8
CURVE
100
AcDbEllipse
 62
253
  6
CONTINUOUS
 10
65.7013104302
 20
3.4217989703
 30
0.0
 11
90.0
 21
-0.0
 31
0.0
 40
1.0
 41
-3.0602651054
 42
-3.0601224077
  0
ELLIPSE
  5
35E
100
AcDbEntity
  8
CURVE
100
AcDbEllipse
 62
253
  6
CONTINUOUS
 10
65.7013104302
 20
3.4217989703
 30
0.0
 11
-63.6396103068
 21
63.6396103068
 31
0.0
 40
1.0
 41
0.8657955212
 42
0.8667257116
  0
ELLIPSE
  5
35F
100
AcDbEntity
  8
CURVE
100
AcDbEllipse
 62
253
  6
CONTINUOUS
 10
161.5922941682
 20
53.0391751699
 30
0.0
 11
-0.0
 21
131.3548920093
 31
-131.3548920093
210
-0.0
220
-0.7071067812
230
-0.7071067812
 40
0.7071067812
 41
-1.6511936846
 42
-1.6463626522
  0
ELLIPSE
  5
360
100
AcDbEntity
  8
CURVE
100
AcDbEllipse
 62
253
  6
CONTINUOUS
 10
65.7013104302
 20
3.4217989703
 30
0.0
 11
47.3158000907
 21
76.5585727517
 31
0.0
 40
1.0
 41
-4.0852024312
 42
-4.0832482961
  0
ELLIPSE
  5
361
100
AcDbEntity
  8
CURVE
100
AcDbEllipse
 62
253
  6
CONTINUOUS
 10
65.7013104302
 20
3.4217989703
 30
0.0
 11
-63.6396103068
 21
63.6396103068
 31
0.0
 40
1.0
 41
0.8551615615
 42
0.8590103537
  0
ELLIPSE
  5
362
100
AcDbEntity
  8
CURVE
100
AcDbEllipse
 62
253
  6
CONTINUOUS
 10
65.7013104302
 20
3.4217989703
 30
0.0
 11
90.0
 21
0.0
 31
0.0
 40
1.0
 41
-3.0739721552
 42
-3.0718292555
  0
ELLIPSE
  5
363
100
AcDbEntity
  8
CURVE
100
AcDbEllipse
 62
253
  6
CONTINUOUS
 10
65.7013104302
 20
3.4217989703
 30
0.0
 11
-47.3158000907
 21
76.5585727517
 31
0.0
 40
1.0
 41
1.0810830413
 42
1.0848424663
  0
ELLIPSE
  5
364
100
AcDbEntity
  8
CURVE
100
AcDbEllipse
 62
253
  6
CONTINUOUS
 10
65.7013104302
 20
3.4217989703
 30
0.0
 11
88.8378711874
 21
14.4164018706
 31
0.0
 40
1.0
 41
3.0383215782
 42
3.0425044503
  0
ELLIPSE
  5
365
100
AcDbEntity
  8
CURVE
100
AcDbEllipse
 62
253
  6
CONTINUOUS
 10
65.7013104302
 20
3.4217989703
 30
0.0
 11
34.4415089129
 21
83.149157926
 31
0.0
 40
1.0
 41
-4.2694272894
 42
-4.2636779938
  0
ELLIPSE
  5
366
100
AcDbEntity
  8
CURVE
100
AcDbEllipse
 62
253
  6
CONTINUOUS
 10
87.9262122079
 20
26.4451579541
 30
0.0
 11
0.0
 21
30.4444636934
 31
-30.4444636934
210
-0.0
220
-0.7071067812
230
-0.7071067812
 40
0.7071067812
 41
-1.6210589361
 42
-1.6199412587
  0
ELLIPSE
  5
367
100
AcDbEntity
  8
CURVE
100
AcDbEllipse
 62
253
  6
CONTINUOUS
 10
65.7013104302
 20
3.4217989703
 30
0.0
 11
-63.6396103068
 21
63.6396103068
 31
0.0
 40
1.0
 41
0.8306826788
 42
0.8345430953
  0
ELLIPSE
  5
368
100
AcDbEntity
  8
CURVE
100
AcDbEllipse
 62
253
  6
CONTINUOUS
 10
65.7013104302
 20
3.4217989703
 30
0.0
 11
47.3158000907
 21
76.5585727517
 31
0.0
 40
1.0
 41
-4.1135301061
 42
-4.1096696895
  0
ELLIPSE
  5
369
100
AcDbEntity
  8
CURVE
100
AcDbEllipse
 62
253
  6
CONTINUOUS
 10
65.7013104302
 20
3.4217989703
 30
0.0
 11
-55.3870988462
 21
70.9384894215
 31
0.0
 40
1.0
 41
0.9570324269
 42
0.9581501043
  0
ELLIPSE
  5
36A
100
AcDbEntity
  8
CURVE
100
AcDbEllipse
 62
253
  6
CONTINUOUS
 10
65.7013104302
 20
3.4217989703
 30
0.0
 11
40.249223595
 21
80.49844719
 31
0.0
 40
1.0
 41
-4.1984787621
 42
-4.1927294665
  0
ELLIPSE
  5
36B
100
AcDbEntity
  8
CURVE
100
AcDbEllipse
 62
253
  6
CONTINUOUS
 10
65.7013104302
 20
3.4217989703
 30
0.0
 11
89.3256801015
 21
-10.9964937326
 31
0.0
 40
1.0
 41
-2.9630914171
 42
-2.9614991202
  0
ELLIPSE
  5
36C
100
AcDbEntity
  8
CURVE
100
AcDbEllipse
 62
253
  6
CONTINUOUS
 10
65.7013104302
 20
3.4217989703
 30
0.0
 11
52.6239256197
 21
73.0117966658
 31
0.0
 40
1.0
 41
-4.0260790203
 42
-4.0240050208
  0
ELLIPSE
  5
36D
100
AcDbEntity
  8
CURVE
100
AcDbEllipse
 62
253
  6
CONTINUOUS
 10
65.7013104302
 20
3.4217989703
 30
0.0
 11
47.3158000907
 21
76.5585727517
 31
0.0
 40
1.0
 41
-4.0949535481
 42
-4.0911941231
  0
ELLIPSE
  5
36E
100
AcDbEntity
  8
CURVE
100
AcDbEllipse
 62
253
  6
CONTINUOUS
 10
65.7013104302
 20
3.4217989703
 30
0.0
 11
52.6239256197
 21
73.0117966658
 31
0.0
 40
1.0
 41
-4.0202455958
 42
-4.0181026961
  0
ELLIPSE
  5
36F
100
AcDbEntity
  8
CURVE
100
AcDbEllipse
 62
253
  6
CONTINUOUS
 10
65.7013104302
 20
3.4217989703
 30
0.0
 11
34.4415089129
 21
83.149157926
 31
0.0
 40
1.0
 41
-4.2499265006
 42
-4.2460777084
  0
ELLIPSE
  5
370
100
AcDbEntity
  8
CURVE
100
AcDbEllipse
 62
253
  6
CONTINUOUS
 10
65.7013104302
 20
3.4217989703
 30
0.0
 11
-9.8205094702
 21
89.4626044431
 31
0.0
 40
1.0
 41
1.5370281793
 42
1.5418592117
  0
ELLIPSE
  5
371
100
AcDbEntity
  8
CURVE
100
AcDbEllipse
 62
253
  6
CONTINUOUS
 10
65.7013104302
 20
3.4217989703
 30
0.0
 11
17.0196769039
 21
88.3760748058
 31
0.0
 40
1.0
 41
-4.441738434
 42
-4.4408082436
  0
ELLIPSE
  5
372
100
AcDbEntity
  8
CURVE
100
AcDbEllipse
 62
253
  6
CONTINUOUS
 10
65.7013104302
 20
3.4217989703
 30
0.0
 11
63.6396103068
 21
63.6396103068
 31
0.0
 40
1.0
 41
-3.8456632688
 42
-3.8455205711
  0
ELLIPSE
  5
373
100
AcDbEntity
  8
CURVE
100
AcDbEllipse
 62
253
  6
CONTINUOUS
 10
65.7013104302
 20
3.4217989703
 30
0.0
 11
87.5924090521
 21
-20.6777628493
 31
0.0
 40
1.0
 41
-2.8676300366
 42
-2.8666117333
  0
ELLIPSE
  5
374
100
AcDbEntity
  8
CURVE
100
AcDbEllipse
 62
253
  6
CONTINUOUS
 10
65.7013104302
 20
3.4217989703
 30
0.0
 11
83.149157926
 21
-34.4415089129
 31
0.0
 40
1.0
 41
-2.7057364561
 42
-2.6994054756
  0
ELLIPSE
  5
375
100
AcDbEntity
  8
CURVE
100
AcDbEllipse
 62
253
  6
CONTINUOUS
 10
65.7013104302
 20
3.4217989703
 30
0.0
 11
83.149157926
 21
34.4415089129
 31
0.0
 40
1.0
 41
2.7997915587
 42
2.804184268
  0
ELLIPSE
  5
376
100
AcDbEntity
  8
CURVE
100
AcDbEllipse
 62
253
  6
CONTINUOUS
 10
65.7013104302
 20
3.4217989703
 30
0.0
 11
-63.6396103068
 21
63.6396103068
 31
0.0
 40
1.0
 41
0.849019696
 42
0.8533763374
  0
ELLIPSE
  5
377
100
AcDbEntity
  8
CURVE
100
AcDbEllipse
 62
253
  6
CONTINUOUS
 10
65.7013104302
 20
3.4217989703
 30
0.0
 11
-34.4415089129
 21
83.149157926
 31
0.0
 40
1.0
 41
1.2460754191
 42
1.2480012312
  0
ELLIPSE
  5
378
100
AcDbEntity
  8
CURVE
100
AcDbEllipse
 62
253
  6
CONTINUOUS
 10
65.7013104302
 20
3.4217989703
 30
0.0
 11
90.0
 21
0.0
 31
0.0
 40
1.0
 41
-3.0716886675
 42
-3.0660263282
  0
ELLIPSE
  5
379
100
AcDbEntity
  8
CURVE
100
AcDbEllipse
 62
253
  6
CONTINUOUS
 10
65.7013104302
 20
3.4217989703
 30
0.0
 11
83.149157926
 21
34.4415089129
 31
0.0
 40
1.0
 41
9.1058987991
 42
9.1088202872
  0
ELLIPSE
  5
37A
100
AcDbEntity
  8
CURVE
100
AcDbEllipse
 62
253
  6
CONTINUOUS
 10
65.7013104302
 20
3.4217989703
 30
0.0
 11
-63.6396103068
 21
63.6396103068
 31
0.0
 40
1.0
 41
0.8611172839
 42
0.8621395715
  0
ELLIPSE
  5
37B
100
AcDbEntity
  8
CURVE
100
AcDbEllipse
 62
253
  6
CONTINUOUS
 10
65.7013104302
 20
3.4217989703
 30
0.0
 11
26.080573382
 21
86.138282384
 31
0.0
 40
1.0
 41
-4.3484836925
 42
-4.3426685581
  0
ELLIPSE
  5
37C
100
AcDbEntity
  8
CURVE
100
AcDbEllipse
 62
253
  6
CONTINUOUS
 10
65.7013104302
 20
3.4217989703
 30
0.0
 11
-47.3158000907
 21
76.5585727517
 31
0.0
 40
1.0
 41
1.0852001419
 42
1.087125954
  0
ELLIPSE
  5
37D
100
AcDbEntity
  8
CURVE
100
AcDbEllipse
 62
253
  6
CONTINUOUS
 10
65.7013104302
 20
3.4217989703
 30
0.0
 11
86.138282384
 21
-26.080573382
 31
0.0
 40
1.0
 41
-2.7853207706
 42
-2.7839698192
  0
ELLIPSE
  5
37E
100
AcDbEntity
  8
CURVE
100
AcDbEllipse
 62
253
  6
CONTINUOUS
 10
65.7013104302
 20
3.4217989703
 30
0.0
 11
83.149157926
 21
34.4415089129
 31
0.0
 40
1.0
 41
2.8054995327
 42
2.8111641531
  0
ELLIPSE
  5
37F
100
AcDbEntity
  8
CURVE
100
AcDbEllipse
 62
253
  6
CONTINUOUS
 10
65.7013104302
 20
3.4217989703
 30
0.0
 11
42.4672132979
 21
79.3507138891
 31
0.0
 40
1.0
 41
-4.1657436546
 42
-4.1643861579
  0
ELLIPSE
  5
380
100
AcDbEntity
  8
CURVE
100
AcDbEllipse
 62
253
  6
CONTINUOUS
 10
65.7013104302
 20
3.4217989703
 30
0.0
 11
20.6777628493
 21
87.5924090521
 31
0.0
 40
1.0
 41
-4.4315939036
 42
-4.429667189
  0
ELLIPSE
  5
381
100
AcDbEntity
  8
CURVE
100
AcDbEllipse
 62
253
  6
CONTINUOUS
 10
65.7013104302
 20
3.4217989703
 30
0.0
 11
14.4164018706
 21
88.8378711874
 31
0.0
 40
1.0
 41
-4.5083565874
 42
-4.5064586111
  0
ELLIPSE
  5
382
100
AcDbEntity
  8
CURVE
100
AcDbEllipse
 62
253
  6
CONTINUOUS
 10
65.7013104302
 20
3.4217989703
 30
0.0
 11
-63.6396103068
 21
63.6396103068
 31
0.0
 40
1.0
 41
0.8275369759
 42
0.8285552792
  0
ELLIPSE
  5
383
100
AcDbEntity
  8
CURVE
100
AcDbEllipse
 62
253
  6
CONTINUOUS
 10
65.7013104302
 20
3.4217989703
 30
0.0
 11
-34.4415089129
 21
83.149157926
 31
0.0
 40
1.0
 41
1.2423373994
 42
1.2453860268
  0
ELLIPSE
  5
384
100
AcDbEntity
  8
CURVE
100
AcDbEllipse
 62
253
  6
CONTINUOUS
 10
65.7013104302
 20
3.4217989703
 30
0.0
 11
86.138282384
 21
-26.080573382
 31
0.0
 40
1.0
 41
-2.7972536463
 42
-2.7913419703
  0
ELLIPSE
  5
385
100
AcDbEntity
  8
CURVE
100
AcDbEllipse
 62
253
  6
CONTINUOUS
 10
65.7013104302
 20
3.4217989703
 30
0.0
 11
-47.3158000907
 21
76.5585727517
 31
0.0
 40
1.0
 41
7.3454623672
 42
7.3515518725
  0
ELLIPSE
  5
386
100
AcDbEntity
  8
CURVE
100
AcDbEllipse
 62
253
  6
CONTINUOUS
 10
65.7013104302
 20
3.4217989703
 30
0.0
 11
86.138282384
 21
26.080573382
 31
0.0
 40
1.0
 41
2.8920122198
 42
2.8961751952
  0
ELLIPSE
  5
387
100
AcDbEntity
  8
CURVE
100
AcDbEllipse
 62
253
  6
CONTINUOUS
 10
110.4898982081
 20
34.5908206251
 30
0.0
 11
-0.0
 21
61.3530061064
 31
-61.3530061064
210
-0.0
220
-0.7071067812
230
-0.7071067812
 40
0.7071067812
 41
-1.6152171947
 42
-1.612965474
  0
ELLIPSE
  5
388
100
AcDbEntity
  8
CURVE
100
AcDbEllipse
 62
253
  6
CONTINUOUS
 10
65.7013104302
 20
3.4217989703
 30
0.0
 11
88.3760748058
 21
17.0196769039
 31
0.0
 40
1.0
 41
2.9935086122
 42
2.995760333
  0
ELLIPSE
  5
389
100
AcDbEntity
  8
CURVE
100
AcDbEllipse
 62
253
  6
CONTINUOUS
 10
65.7013104302
 20
3.4217989703
 30
0.0
 11
-20.6777628493
 21
87.5924090521
 31
0.0
 40
1.0
 41
1.3875563657
 42
1.3893102278
  0
ELLIPSE
  5
38A
100
AcDbEntity
  8
CURVE
100
AcDbEllipse
 62
253
  6
CONTINUOUS
 10
65.7013104302
 20
3.4217989703
 30
0.0
 11
0.0
 21
90.0
 31
0.0
 40
1.0
 41
1.6146860931
 42
1.6346574002
  0
ELLIPSE
  5
38B
100
AcDbEntity
  8
CURVE
100
AcDbEllipse
 62
253
  6
CONTINUOUS
 10
65.7013104302
 20
3.4217989703
 30
0.0
 11
37.1894654188
 21
81.9569622538
 31
0.0
 40
1.0
 41
-4.2301564353
 42
-4.2291829296
  0
ELLIPSE
  5
38C
100
AcDbEntity
  8
CURVE
100
AcDbEllipse
 62
253
  6
CONTINUOUS
 10
65.7013104302
 20
3.4217989703
 30
0.0
 11
34.4415089129
 21
83.149157926
 31
0.0
 40
1.0
 41
2.0201013693
 42
2.0314735825
  0
ELLIPSE
  5
38D
100
AcDbEntity
  8
CURVE
100
AcDbEllipse
 62
253
  6
CONTINUOUS
 10
65.7013104302
 20
3.4217989703
 30
0.0
 11
-26.080573382
 21
86.138282384
 31
0.0
 40
1.0
 41
1.3389582738
 42
1.3410351793
  0
ELLIPSE
  5
38E
100
AcDbEntity
  8
CURVE
100
AcDbEllipse
 62
253
  6
CONTINUOUS
 10
65.7013104302
 20
3.4217989703
 30
0.0
 11
8.0825035784
 21
89.6363382558
 31
0.0
 40
1.0
 41
-4.5582220762
 42
-4.5551734488
  0
ENDSEC
  0
SECTION
  2
OBJECTS
  0
DICTIONARY
  5
C
100
AcDbDictionary
280
0
281
1
  3
ACAD_GROUP
350
D
  3
ACAD_MLINESTYLE
350
17
  3
ACAD_LAYOUT
350
1A
  3
ACAD_PLOTSETTINGS
350
19
  3
ACAD_PLOTSTYLENAME
350
E
  0
DICTIONARY
  5
D
102
{ACAD_REACTORS
330
C
102
}
100
AcDbDictionary
280
0
281
1
  0
ACDBDICTIONARYWDFLT
  5
E
102
{ACAD_REACTORS
330
C
102
}
100
AcDbDictionary
281
1
  3
Normal
350
F
100
AcDbDictionaryWithDefault
340
F
  0
DICTIONARY
  5
17
102
{ACAD_REACTORS
330
C
102
}
100
AcDbDictionary
280
0
281
1
  3
Standard
350
18
  0
DICTIONARY
  5
19
102
{ACAD_REACTORS
330
C
102
}
100
AcDbDictionary
281
1
  0
DICTIONARY
  5
1A
102
{ACAD_REACTORS
330
C
102
}
100
AcDbDictionary
281
1
  3
Model
350
38F
  3
Layout1
350
390
  0
ACDBPLACEHOLDER
  5
F
102
{ACAD_REACTORS
330
E
102
}
  0
MLINESTYLE
  5
18
102
{ACAD_REACTORS
330
17
102
}
100
AcDbMlineStyle
  2
STANDARD
 70
0
  3

 62
256
 51
90.0
 52
90.0
 71
2
 49
0.5
 62
256
  6
BYLAYER
 49
-0.5
 62
256
  6
BYLAYER
  0
LAYOUT
  5
38F
102
{ACAD_REACTORS
330
1A
102
}
100
AcDbPlotSettings
  1

  2
none_device
  4
ISO_A4_(297.00_x_210.00_MM)
  6

 40
0.0
 41
0.0
 42
0.0
 43
0.0
 44
297.0
 45
210.0
 46
0.0
 47
0.0
 48
0.0
 49
0.0
140
0.0
141
0.0
142
1.0
143
1.0
 70
1024
 72
1
 73
0
 74
0
  7

 75
0
147
1.0
148
0.0
149
0.0
100
AcDbLayout
  1
Model
 70
0
 71
0
 10
0.0
 20
0.0
 11
297.0
 21
210.0
 12
0.0
 22
0.0
 32
0.0
 14
0.0
 24
0.0
 34
0.0
 15
0.0
 25
0.0
 35
0.0
146
0.0
 13
0.0
 23
0.0
 33
0.0
 16
1.0
 26
0.0
 36
0.0
 17
0.0
 27
1.0
 37
0.0
 76
0
330
218
345
0
346
0
  0
LAYOUT
  5
390
102
{ACAD_REACTORS
330
1A
102
}
100
AcDbPlotSettings
  1

  2
none_device
  4
ISO_A4_(297.00_x_210.00_MM)
  6

 40
0.0
 41
0.0
 42
0.0
 43
0.0
 44
297.0
 45
210.0
 46
0.0
 47
0.0
 48
0.0
 49
0.0
140
0.0
141
0.0
142
1.0
143
1.0
 70
0
 72
1
 73
0
 74
0
  7

 75
0
147
1.0
148
0.0
149
0.0
100
AcDbLayout
  1
Layout1
 70
0
 71
1
 10
0.0
 20
0.0
 11
297.0
 21
210.0
 12
0.0
 22
0.0
 32
0.0
 14
0.0
 24
0.0
 34
0.0
 15
0.0
 25
0.0
 35
0.0
146
0.0
 13
0.0
 23
0.0
 33
0.0
 16
1.0
 26
0.0
 36
0.0
 17
0.0
 27
1.0
 37
0.0
 76
0
330
219
345
0
346
0
  0
ENDSEC
  0
EOF
