  0
SECTION
  2
HEADER
  9
$ACADVER
  1
AC1015
  9
$DWGCODEPAGE
  3
ANSI_1252
  9
$EXTMAX
 10
297.0
 20
210.0
 30
0.0
  9
$EXTMIN
 10
0.0
 20
0.0
 30
0.0
  9
$LIMMIN
 10
0.0
 20
0.0
  9
$LIMMAX
 10
297.0
 20
210.0
  9
$VIEWCTR
 10
148.5
 20
105.0
  9
$VIEWSIZE
 40
210.0
  9
$CLAYER
  8
0
  9
$LTSCALE
 40
16.335
  9
$CELTYPE
  6
BYLAYER
  9
$DIMSCALE
 40
1.0
  9
$DIMASZ
 40
3.0
  9
$DIMEXO
 40
1.85625
  9
$DIMDLI
 40
11.286
  9
$DIMEXE
 40
5.346
  9
$DIMCEN
 40
2.673
  9
$DIMLFAC
 40
1.0
  9
$DIMBLK
  1
_FILLED
  9
$DIMTXT
 40
3.0
  9
$DIMTOL
 70
1
  9
$DIMLIM
 70
0
  9
$DIMTFAC
 40
1.0
  9
$DIMTP
 40
0.01
  9
$DIMTM
 40
0.01
  9
$PDMODE
 70
3
  9
$PDSIZE
 40
3.0
  9
$HANDSEED
  5
29B
  9
$TILEMODE
 70
1
  9
$MEASUREMENT
 70
1
  9
$INSUNITS
 70
4
  0
ENDSEC
  0
SECTION
  2
CLASSES
  0
CLASS
  1
ACDBDICTIONARYWDFLT
  2
AcDbDictionaryWithDefault
  3
AutoCAD 2000
 90
0
280
0
281
0
  0
CLASS
  1
ACDBPLACEHOLDER
  2
AcDbPlaceHolder
  3
AutoCAD 2000
 90
0
280
0
281
0
  0
CLASS
  1
LAYOUT
  2
AcDbLayout
  3
AutoCAD 2000
 90
0
280
0
281
0
  0
ENDSEC
  0
SECTION
  2
TABLES
  0
TABLE
  2
VPORT
  5
8
100
AcDbSymbolTable
 70
2
  0
VPORT
  5
1F4
100
AcDbSymbolTableRecord
100
AcDbViewportTableRecord
  2
*ACTIVE
 70
0
 10
0.0
 20
0.0
 11
1.0
 21
1.0
 12
148.5
 22
105.0
 13
0.0
 23
0.0
 14
1.0
 24
1.0
 15
0.0
 25
0.0
 16
0.0
 26
0.0
 36
1.0
 17
0.0
 27
0.0
 37
0.0
 40
210.0
 41
1.4142857143
 42
50.0
 43
0.0
 44
0.0
 50
0.0
 51
0.0
 71
0
 72
100
 73
1
 74
1
 75
0
 76
0
 77
0
 78
0
  0
ENDTAB
  0
TABLE
  2
LTYPE
  5
5
100
AcDbSymbolTable
 70
6
  0
LTYPE
  5
14
100
AcDbSymbolTableRecord
100
AcDbLinetypeTableRecord
  2
BYBLOCK
 70
0
  3

 72
65
 73
0
 40
0.0
  0
LTYPE
  5
15
100
AcDbSymbolTableRecord
100
AcDbLinetypeTableRecord
  2
BYLAYER
 70
0
  3

 72
65
 73
0
 40
0.0
  0
LTYPE
  5
16
100
AcDbSymbolTableRecord
100
AcDbLinetypeTableRecord
  2
CONTINUOUS
 70
64
  3
Solid line
 72
65
 73
0
 40
0.0
  0
LTYPE
  5
1F5
100
AcDbSymbolTableRecord
100
AcDbLinetypeTableRecord
  2
CENTER
 70
64
  3
____ _ ____ _ ____ _ ____ _ ____ _ ____ _ ____
 72
65
 73
4
 40
0.6
 49
0.375
 74
0
 49
-0.075
 74
0
 49
0.075
 74
0
 49
-0.075
 74
0
  0
LTYPE
  5
1F6
100
AcDbSymbolTableRecord
100
AcDbLinetypeTableRecord
  2
HIDDEN
 70
64
  3
- - - - - - - - - - - - - - - - - - - -
 72
65
 73
2
 40
0.2
 49
0.1
 74
0
 49
-0.1
 74
0
  0
LTYPE
  5
1F7
100
AcDbSymbolTableRecord
100
AcDbLinetypeTableRecord
  2
PHANTOM
 70
64
  3
_____ _ _ _____ _ _ _____ _ _ _____
 72
65
 73
6
 40
0.8
 49
0.45
 74
0
 49
-0.05
 74
0
 49
0.1
 74
0
 49
-0.05
 74
0
 49
0.1
 74
0
 49
-0.05
 74
0
  0
LTYPE
  5
1F8
100
AcDbSymbolTableRecord
100
AcDbLinetypeTableRecord
  2
DOT
 70
64
  3
. . . . . . . . . . . . . . . . . . . .
 72
65
 73
2
 40
0.2
 49
0.1
 74
0
 49
-0.1
 74
0
  0
LTYPE
  5
1F9
100
AcDbSymbolTableRecord
100
AcDbLinetypeTableRecord
  2
DASHED
 70
64
  3
- - - - - - - - - - - - - - - - - - - -
 72
65
 73
2
 40
0.2
 49
0.1
 74
0
 49
-0.1
 74
0
  0
ENDTAB
  0
TABLE
  2
LAYER
  5
2
100
AcDbSymbolTable
 70
36
  0
LAYER
  5
10
100
AcDbSymbolTableRecord
100
AcDbLayerTableRecord
  2
0
 70
0
 62
7
  6
CONTINUOUS
370
-3
390
F
  0
LAYER
  5
1FA
100
AcDbSymbolTableRecord
100
AcDbLayerTableRecord
  2
DEFAULT_1
 70
0
 62
7
  6
CENTER
370
-3
390
F
  0
LAYER
  5
1FB
100
AcDbSymbolTableRecord
100
AcDbLayerTableRecord
  2
DEFAULT_2
 70
0
 62
7
  6
HIDDEN
370
-3
390
F
  0
LAYER
  5
1FC
100
AcDbSymbolTableRecord
100
AcDbLayerTableRecord
  2
DEFAULT_3
 70
0
 62
7
  6
PHANTOM
370
-3
390
F
  0
LAYER
  5
1FD
100
AcDbSymbolTableRecord
100
AcDbLayerTableRecord
  2
ASSI
 70
0
 62
7
  6
CONTINUOUS
370
-3
390
F
  0
LAYER
  5
1FE
100
AcDbSymbolTableRecord
100
AcDbLayerTableRecord
  2
COLORE_MATERIALE
 70
0
 62
7
  6
CONTINUOUS
370
-3
390
F
  0
LAYER
  5
1FF
100
AcDbSymbolTableRecord
100
AcDbLayerTableRecord
  2
COORDINATE
 70
0
 62
7
  6
CONTINUOUS
370
-3
390
F
  0
LAYER
  5
200
100
AcDbSymbolTableRecord
100
AcDbLayerTableRecord
  2
COORD_ORIGINE
 70
0
 62
7
  6
CONTINUOUS
370
-3
390
F
  0
LAYER
  5
201
100
AcDbSymbolTableRecord
100
AcDbLayerTableRecord
  2
COPY
 70
0
 62
7
  6
CONTINUOUS
370
-3
390
F
  0
LAYER
  5
202
100
AcDbSymbolTableRecord
100
AcDbLayerTableRecord
  2
CURVE
 70
0
 62
7
  6
CONTINUOUS
370
-3
390
F
  0
LAYER
  5
203
100
AcDbSymbolTableRecord
100
AcDbLayerTableRecord
  2
DRAFT
 70
0
 62
7
  6
CONTINUOUS
370
-3
390
F
  0
LAYER
  5
204
100
AcDbSymbolTableRecord
100
AcDbLayerTableRecord
  2
IGS
 70
0
 62
7
  6
CONTINUOUS
370
-3
390
F
  0
LAYER
  5
205
100
AcDbSymbolTableRecord
100
AcDbLayerTableRecord
  2
PIANI
 70
0
 62
7
  6
CONTINUOUS
370
-3
390
F
  0
LAYER
  5
206
100
AcDbSymbolTableRecord
100
AcDbLayerTableRecord
  2
PIANI_ORIGINE
 70
0
 62
7
  6
CONTINUOUS
370
-3
390
F
  0
LAYER
  5
207
100
AcDbSymbolTableRecord
100
AcDbLayerTableRecord
  2
PIANI_RIFERIMENTO
 70
0
 62
7
  6
CONTINUOUS
370
-3
390
F
  0
LAYER
  5
208
100
AcDbSymbolTableRecord
100
AcDbLayerTableRecord
  2
RACCORDO
 70
0
 62
7
  6
CONTINUOUS
370
-3
390
F
  0
LAYER
  5
209
100
AcDbSymbolTableRecord
100
AcDbLayerTableRecord
  2
SMUSSO
 70
0
 62
7
  6
CONTINUOUS
370
-3
390
F
  0
LAYER
  5
20A
100
AcDbSymbolTableRecord
100
AcDbLayerTableRecord
  2
SNAPLINE
 70
0
 62
7
  6
CONTINUOUS
370
-3
390
F
  0
LAYER
  5
20B
100
AcDbSymbolTableRecord
100
AcDbLayerTableRecord
  2
SOLIDO
 70
0
 62
7
  6
CONTINUOUS
370
-3
390
F
  0
LAYER
  5
20C
100
AcDbSymbolTableRecord
100
AcDbLayerTableRecord
  2
SUPERFICI
 70
0
 62
7
  6
CONTINUOUS
370
-3
390
F
  0
LAYER
  5
20D
100
AcDbSymbolTableRecord
100
AcDbLayerTableRecord
  2
TRASH
 70
0
 62
7
  6
CONTINUOUS
370
-3
390
F
  0
ENDTAB
  0
TABLE
  2
STYLE
  5
3
100
AcDbSymbolTable
 70
1
  0
STYLE
  5
11
100
AcDbSymbolTableRecord
100
AcDbTextStyleTableRecord
  2
STANDARD
 70
0
 40
0.0
 41
0.8
 50
0.0
 71
0
 42
0.2
  3
txt
  4

  0
STYLE
  5
20E
100
AcDbSymbolTableRecord
100
AcDbTextStyleTableRecord
  2
TEXTSTYLE_1
 70
0
 40
0.0
 41
0.8
 50
0.0
 71
0
 42
0.2
  3
gdt
  4

  0
ENDTAB
  0
TABLE
  2
VIEW
  5
6
100
AcDbSymbolTable
 70
0
  0
ENDTAB
  0
TABLE
  2
UCS
  5
7
100
AcDbSymbolTable
 70
0
  0
ENDTAB
  0
TABLE
  2
APPID
  5
9
100
AcDbSymbolTable
 70
1
  0
APPID
  5
20F
100
AcDbSymbolTableRecord
100
AcDbRegAppTableRecord
  2
ACAD
 70
0
  0
ENDTAB
  0
TABLE
  2
BLOCK_RECORD
  5
1
100
AcDbSymbolTable
 70
0
  0
BLOCK_RECORD
  5
210
100
AcDbSymbolTableRecord
100
AcDbBlockTableRecord
  2
*Model_Space
  0
BLOCK_RECORD
  5
211
100
AcDbSymbolTableRecord
100
AcDbBlockTableRecord
  2
*Paper_Space
  0
BLOCK_RECORD
  5
212
100
AcDbSymbolTableRecord
100
AcDbBlockTableRecord
  2
_FILLED
  0
BLOCK_RECORD
  5
213
100
AcDbSymbolTableRecord
100
AcDbBlockTableRecord
  2
*D0
  0
BLOCK_RECORD
  5
214
100
AcDbSymbolTableRecord
100
AcDbBlockTableRecord
  2
*D1
  0
BLOCK_RECORD
  5
215
100
AcDbSymbolTableRecord
100
AcDbBlockTableRecord
  2
*D2
  0
ENDTAB
  0
TABLE
  2
DIMSTYLE
  5
A
100
AcDbSymbolTable
 70
1
100
AcDbDimStyleTable
 71
0
  0
DIMSTYLE
105
216
100
AcDbSymbolTableRecord
100
AcDbDimStyleTableRecord
  2
STANDARD
 70
0
  3

  4

 40
1.0
 41
3.0
 42
0.0625
 43
0.38
 44
0.18
 45
0.0
 46
0.0
 47
0.01
 48
0.01
140
3.0
141
0.09
142
0.0
143
25.4
144
1.0
145
0.0
146
1.0
147
0.09
 71
1.0
 72
0.0
 73
0
 74
0
 75
0
 76
0
 77
1
 78
8
170
0
171
2
172
0
173
0
174
0
175
0
176
0
177
0
178
0
270
2
271
2
272
2
273
2
274
2
275
0
280
0
281
0
282
0
283
1
284
8
285
0
286
0
287
3
288
0
340
11
341
212
342
212
343
212
344
212
  0
DIMSTYLE
105
217
100
AcDbSymbolTableRecord
100
AcDbDimStyleTableRecord
  2
DIMSTYLE_1
 70
0
  3

  4

 40
1.0
 41
3.0
 42
0.0625
 43
0.38
 44
0.18
 45
0.0
 46
0.0
 47
0.0
 48
0.0
140
3.0
141
0.09
142
0.0
143
25.4
144
1.0
145
0.0
146
1.0
147
0.09
 71
0.0
 72
0.0
 73
0
 74
0
 75
0
 76
0
 77
1
 78
8
170
0
171
2
172
0
173
0
174
0
175
0
176
0
177
0
178
0
270
2
271
1
272
1
273
2
274
2
275
0
280
0
281
0
282
0
283
1
284
8
285
0
286
0
287
3
288
0
340
11
341
212
342
212
343
212
344
212
  0
DIMSTYLE
105
218
100
AcDbSymbolTableRecord
100
AcDbDimStyleTableRecord
  2
DIMSTYLE_2
 70
0
  3

  4

 40
1.0
 41
3.0
 42
0.0625
 43
0.38
 44
0.18
 45
0.0
 46
0.0
 47
0.0
 48
0.0
140
3.0
141
0.09
142
0.0
143
25.4
144
1.0
145
0.0
146
1.0
147
0.09
 71
0.0
 72
0.0
 73
0
 74
0
 75
0
 76
0
 77
1
 78
8
170
0
171
2
172
0
173
0
174
0
175
0
176
0
177
0
178
0
270
2
271
2
272
2
273
2
274
2
275
0
280
0
281
0
282
0
283
1
284
8
285
0
286
0
287
3
288
0
340
11
341
212
342
212
343
212
344
212
  0
ENDTAB
  0
ENDSEC
  0
SECTION
  2
BLOCKS
  0
BLOCK
  5
20
100
AcDbEntity
  8
0
100
AcDbBlockBegin
  2
*Model_Space
 70
0
 10
0.0
 20
0.0
 30
0.0
  3
*Model_Space
  1

  0
ENDBLK
  5
21
100
AcDbEntity
  8
0
100
AcDbBlockEnd
  0
BLOCK
  5
1C
100
AcDbEntity
  8
0
100
AcDbBlockBegin
  2
*Paper_Space
 70
0
 10
0.0
 20
0.0
 30
0.0
  3
*Paper_Space
  1

  0
ENDBLK
  5
1D
100
AcDbEntity
  8
0
100
AcDbBlockEnd
  0
BLOCK
  5
219
100
AcDbEntity
  8
0
100
AcDbBlockBegin
  2
_FILLED
 70
64
 10
0.0
 20
0.0
  3
_FILLED
  1

  0
SOLID
  5
21A
100
AcDbEntity
  8
0
  6
BYBLOCK
 62
0
100
AcDbTrace
 10
0.0
 20
0.0
 11
-1.0
 21
0.3166666667
 12
-1.0
 22
-0.3166666667
 13
-1.0
 23
-0.3166666667
  0
ENDBLK
  5
21B
100
AcDbEntity
  8
0
  6
BYBLOCK
 62
0
100
AcDbBlockEnd
  0
BLOCK
  5
21C
100
AcDbEntity
  8
0
100
AcDbBlockBegin
 62
7
  6
CONTINUOUS
  2
*D0
 70
65
 10
0.0
 20
0.0
  3
*D0
  1

  0
MTEXT
  5
21D
100
AcDbEntity
  8
0
100
AcDbMText
 62
7
  6
CONTINUOUS
  7
STANDARD
 71
2
 72
1
 10
-8.4211349223
 20
22.8143383692
 30
0.0
 11
1.0
 21
0.0
 31
0.0
 44
0.9
  1
9,9
 40
3.0
 41
6.4285714286
  0
LINE
  5
21E
100
AcDbEntity
  8
0
100
AcDbLine
 62
7
  6
CONTINUOUS
 10
-3.4480089514
 20
2.6360073769
 11
-3.4480089514
 21
20.5643383692
  0
LINE
  5
21F
100
AcDbEntity
  8
0
100
AcDbLine
 62
7
  6
CONTINUOUS
 10
-13.3942608932
 20
11.2752967838
 11
-13.3942608932
 21
20.5643383692
  0
LINE
  5
220
100
AcDbEntity
  8
0
100
AcDbLine
 62
7
  6
CONTINUOUS
 10
-3.4480089514
 20
19.0643383692
 11
0.5519910486
 21
19.0643383692
  0
LINE
  5
221
100
AcDbEntity
  8
0
100
AcDbLine
 62
7
  6
CONTINUOUS
 10
0.5519910486
 20
19.0643383692
 11
-8.4211349223
 21
19.0643383692
  0
LINE
  5
222
100
AcDbEntity
  8
0
100
AcDbLine
 62
7
  6
CONTINUOUS
 10
-13.3942608932
 20
19.0643383692
 11
-17.3942608932
 21
19.0643383692
  0
LINE
  5
223
100
AcDbEntity
  8
0
100
AcDbLine
 62
7
  6
CONTINUOUS
 10
-17.3942608932
 20
19.0643383692
 11
-8.4211349223
 21
19.0643383692
  0
INSERT
  5
224
100
AcDbEntity
  8
0
100
AcDbBlockReference
 62
7
  6
CONTINUOUS
  2
_FILLED
 10
-3.4480089514
 20
19.0643383692
 41
3.0
 42
3.0
 43
3.0
 50
180.0
  0
INSERT
  5
225
100
AcDbEntity
  8
0
100
AcDbBlockReference
 62
7
  6
CONTINUOUS
  2
_FILLED
 10
-13.3942608932
 20
19.0643383692
 41
3.0
 42
3.0
 43
3.0
  0
ENDBLK
  5
226
100
AcDbEntity
  8
0
  6
BYBLOCK
 62
0
100
AcDbBlockEnd
  0
BLOCK
  5
227
100
AcDbEntity
  8
0
100
AcDbBlockBegin
 62
7
  6
CONTINUOUS
  2
*D1
 70
65
 10
0.0
 20
0.0
  3
*D1
  1

  0
MTEXT
  5
228
100
AcDbEntity
  8
0
100
AcDbMText
 62
7
  6
CONTINUOUS
  7
STANDARD
 71
2
 72
1
 10
16.3881460725
 20
22.8143383692
 30
0.0
 11
1.0
 21
0.0
 31
0.0
 44
0.9
  1
22,2
 40
3.0
 41
8.7857142857
  0
LINE
  5
229
100
AcDbEntity
  8
0
100
AcDbLine
 62
7
  6
CONTINUOUS
 10
5.2881460725
 20
7.573065237
 11
5.2881460725
 21
20.5643383692
  0
LINE
  5
22A
100
AcDbEntity
  8
0
100
AcDbLine
 62
7
  6
CONTINUOUS
 10
27.4881460725
 20
7.573065237
 11
27.4881460725
 21
20.5643383692
  0
LINE
  5
22B
100
AcDbEntity
  8
0
100
AcDbLine
 62
7
  6
CONTINUOUS
 10
5.2881460725
 20
19.0643383692
 11
16.3881460725
 21
19.0643383692
  0
LINE
  5
22C
100
AcDbEntity
  8
0
100
AcDbLine
 62
7
  6
CONTINUOUS
 10
27.4881460725
 20
19.0643383692
 11
16.3881460725
 21
19.0643383692
  0
INSERT
  5
22D
100
AcDbEntity
  8
0
100
AcDbBlockReference
 62
7
  6
CONTINUOUS
  2
_FILLED
 10
5.2881460725
 20
19.0643383692
 41
3.0
 42
3.0
 43
3.0
 50
180.0
  0
INSERT
  5
22E
100
AcDbEntity
  8
0
100
AcDbBlockReference
 62
7
  6
CONTINUOUS
  2
_FILLED
 10
27.4881460725
 20
19.0643383692
 41
3.0
 42
3.0
 43
3.0
 50
0.0
  0
ENDBLK
  5
22F
100
AcDbEntity
  8
0
  6
BYBLOCK
 62
0
100
AcDbBlockEnd
  0
BLOCK
  5
230
100
AcDbEntity
  8
0
100
AcDbBlockBegin
 62
7
  6
CONTINUOUS
  2
*D2
 70
65
 10
0.0
 20
0.0
  3
*D2
  1

  0
MTEXT
  5
231
100
AcDbEntity
  8
0
100
AcDbMText
 62
7
  6
CONTINUOUS
  7
STANDARD
 71
2
 72
1
 10
31.7381460725
 20
-0.0062981969
 30
0.0
 11
0.0
 21
1.0
 31
0.0
 44
0.9
  1
22,1
 40
3.0
 41
8.1428571429
  0
LINE
  5
232
100
AcDbEntity
  8
0
100
AcDbLine
 62
7
  6
CONTINUOUS
 10
27.6979994218
 20
11.0643383692
 11
36.9881460725
 21
11.0643383692
  0
LINE
  5
233
100
AcDbEntity
  8
0
100
AcDbLine
 62
7
  6
CONTINUOUS
 10
27.4885266723
 20
-11.076934763
 11
36.9881460725
 21
-11.076934763
  0
LINE
  5
234
100
AcDbEntity
  8
0
100
AcDbLine
 62
7
  6
CONTINUOUS
 10
35.4881460725
 20
11.0643383692
 11
35.4881460725
 21
-0.0062981969
  0
LINE
  5
235
100
AcDbEntity
  8
0
100
AcDbLine
 62
7
  6
CONTINUOUS
 10
35.4881460725
 20
-11.076934763
 11
35.4881460725
 21
-0.0062981969
  0
INSERT
  5
236
100
AcDbEntity
  8
0
100
AcDbBlockReference
 62
7
  6
CONTINUOUS
  2
_FILLED
 10
35.4881460725
 20
11.0643383692
 41
3.0
 42
3.0
 43
3.0
 50
90.0
  0
INSERT
  5
237
100
AcDbEntity
  8
0
100
AcDbBlockReference
 62
7
  6
CONTINUOUS
  2
_FILLED
 10
35.4881460725
 20
-11.076934763
 41
3.0
 42
3.0
 43
3.0
 50
270.0
  0
ENDBLK
  5
238
100
AcDbEntity
  8
0
  6
BYBLOCK
 62
0
100
AcDbBlockEnd
  0
ENDSEC
  0
SECTION
  2
ENTITIES
  0
DIMENSION
  5
239
100
AcDbEntity
  8
0
100
AcDbDimension
 62
7
  6
CONTINUOUS
  2
*D0
 10
-13.3942608932
 20
19.0643383692
 11
-11.6354206366
 21
21.3143383692
 70
160
 71
2
 42
9.9462519417
  3
DIMSTYLE_1
100
AcDbAlignedDimension
 13
-3.4480089514
 23
2.6360073769
 14
-13.3942608932
 24
11.2752967838
 50
180.0
100
AcDbRotatedDimension
  0
DIMENSION
  5
23A
100
AcDbEntity
  8
0
100
AcDbDimension
 62
7
  6
CONTINUOUS
  2
*D1
 10
27.4881460725
 20
19.0643383692
 11
11.9952889297
 21
21.3143383692
 70
160
 71
2
 42
22.2
  3
DIMSTYLE_2
100
AcDbAlignedDimension
 13
5.2881460725
 23
7.573065237
 14
27.4881460725
 24
7.573065237
100
AcDbRotatedDimension
  0
DIMENSION
  5
23B
100
AcDbEntity
  8
0
100
AcDbDimension
 62
7
  6
CONTINUOUS
  2
*D2
 10
35.4881460725
 20
-11.076934763
 11
35.0624457954
 21
-3.6461417558
 70
160
 71
2
 42
22.1412731322
  3
DIMSTYLE_1
100
AcDbAlignedDimension
 13
27.6979994218
 23
11.0643383692
 14
27.4885266723
 24
-11.076934763
 50
270.0
100
AcDbRotatedDimension
  0
LINE
  5
23C
100
AcDbEntity
  8
DRAFT
100
AcDbLine
 62
7
  6
CONTINUOUS
 10
5.2881460725
 20
7.073065237
 11
5.2881460725
 21
-2.0155898349
  0
LINE
  5
23D
100
AcDbEntity
  8
RACCORDO
100
AcDbLine
 62
7
  6
CONTINUOUS
 10
5.2881460725
 20
-2.0155898349
 11
5.2881460725
 21
-10.5767059109
  0
LINE
  5
23E
100
AcDbEntity
  8
RACCORDO
100
AcDbLine
 62
7
  6
CONTINUOUS
 10
5.3282927219
 20
10.8143669258
 11
5.3282927219
 21
7.073065237
  0
LINE
  5
23F
100
AcDbEntity
  8
RACCORDO
100
AcDbLine
 62
253
  6
CONTINUOUS
 10
5.9016773996
 20
10.7752967836
 11
5.9016773996
 21
11.0254861488
  0
LINE
  5
240
100
AcDbEntity
  8
RACCORDO
100
AcDbLine
 62
7
  6
CONTINUOUS
 10
18.7947703996
 20
-11.076934763
 11
20.1804110456
 21
-10.9511560927
  0
LINE
  5
241
100
AcDbEntity
  8
RACCORDO
100
AcDbLine
 62
7
  6
CONTINUOUS
 10
26.9885266723
 20
-11.076934763
 11
25.1815217455
 21
-11.076934763
  0
LINE
  5
242
100
AcDbEntity
  8
DRAFT
100
AcDbLine
 62
7
  6
CONTINUOUS
 10
18.7947703996
 20
-11.076934763
 11
13.9815217455
 21
-11.076934763
  0
LINE
  5
243
100
AcDbEntity
  8
RACCORDO
100
AcDbLine
 62
7
  6
CONTINUOUS
 10
7.5947703996
 20
-11.076934763
 11
5.7877654728
 21
-11.076934763
  0
LINE
  5
244
100
AcDbEntity
  8
RACCORDO
100
AcDbLine
 62
7
  6
CONTINUOUS
 10
9.1536161264
 20
-10.9459153148
 11
12.4226760187
 21
-10.9459153148
  0
LINE
  5
245
100
AcDbEntity
  8
RACCORDO
100
AcDbLine
 62
7
  6
CONTINUOUS
 10
20.3536161264
 20
-10.9459153148
 11
23.6226760187
 21
-10.9459153148
  0
LINE
  5
246
100
AcDbEntity
  8
RACCORDO
100
AcDbLine
 62
253
  6
CONTINUOUS
 10
26.901355092
 20
-10.8152073528
 11
5.8749370531
 21
-10.8152073528
  0
LINE
  5
247
100
AcDbEntity
  8
RACCORDO
100
AcDbLine
 62
7
  6
CONTINUOUS
 10
13.9815217455
 20
-11.076934763
 11
12.5958810995
 21
-10.9511560927
  0
LINE
  5
248
100
AcDbEntity
  8
RACCORDO
100
AcDbLine
 62
7
  6
CONTINUOUS
 10
7.5947703996
 20
-11.076934763
 11
8.9804110456
 21
-10.9511560927
  0
LINE
  5
249
100
AcDbEntity
  8
RACCORDO
100
AcDbLine
 62
253
  6
CONTINUOUS
 10
26.8931808084
 20
-9.9648861412
 11
5.8831113367
 21
-9.9648861412
  0
LINE
  5
24A
100
AcDbEntity
  8
RACCORDO
100
AcDbLine
 62
7
  6
CONTINUOUS
 10
25.1815217455
 20
-11.076934763
 11
23.7958810995
 21
-10.9511560927
  0
LINE
  5
24B
100
AcDbEntity
  8
RACCORDO
100
AcDbLine
 62
253
  6
CONTINUOUS
 10
5.2881460725
 20
-10.5767059109
 11
5.3750132361
 21
-10.3158924935
  0
LINE
  5
24C
100
AcDbEntity
  8
RACCORDO
100
AcDbLine
 62
253
  6
CONTINUOUS
 10
5.7877654728
 20
-11.076934763
 11
5.8749370531
 21
-10.8152073528
  0
LINE
  5
24D
100
AcDbEntity
  8
RACCORDO
100
AcDbLine
 62
253
  6
CONTINUOUS
 10
27.1979994218
 20
11.0643383692
 11
27.1245766423
 21
11.0276297754
  0
LINE
  5
24E
100
AcDbEntity
  8
RACCORDO
100
AcDbLine
 62
253
  6
CONTINUOUS
 10
27.4479994232
 20
10.8143669258
 11
27.3745386027
 21
10.7776393129
  0
LINE
  5
24F
100
AcDbEntity
  8
RACCORDO
100
AcDbLine
 62
253
  6
CONTINUOUS
 10
26.8761858723
 20
1.6730664203
 11
5.9001062728
 21
1.6730664203
  0
LINE
  5
250
100
AcDbEntity
  8
RACCORDO
100
AcDbLine
 62
253
  6
CONTINUOUS
 10
5.4017535424
 20
10.7776393129
 11
5.3282927219
 21
10.8143669258
  0
LINE
  5
251
100
AcDbEntity
  8
RACCORDO
100
AcDbLine
 62
253
  6
CONTINUOUS
 10
5.6517155028
 20
11.0276297754
 11
5.5782927233
 21
11.0643383692
  0
LINE
  5
252
100
AcDbEntity
  8
DRAFT
100
AcDbLine
 62
7
  6
CONTINUOUS
 10
5.3282927219
 20
7.073065237
 11
5.2881460725
 21
7.073065237
  0
LINE
  5
253
100
AcDbEntity
  8
DRAFT
100
AcDbLine
 62
7
  6
CONTINUOUS
 10
27.4479994232
 20
7.073065237
 11
27.4881460725
 21
7.073065237
  0
LINE
  5
254
100
AcDbEntity
  8
RACCORDO
100
AcDbLine
 62
253
  6
CONTINUOUS
 10
26.901355092
 20
-10.8152073528
 11
26.9885266723
 21
-11.076934763
  0
LINE
  5
255
100
AcDbEntity
  8
RACCORDO
100
AcDbLine
 62
253
  6
CONTINUOUS
 10
27.401278909
 20
-10.3158924935
 11
27.4881460725
 21
-10.5767059109
  0
LINE
  5
256
100
AcDbEntity
  8
RACCORDO
100
AcDbLine
 62
253
  6
CONTINUOUS
 10
26.8746147455
 20
10.7752967836
 11
26.8746147455
 21
11.0254861488
  0
LINE
  5
257
100
AcDbEntity
  8
DRAFT
100
AcDbLine
 62
7
  6
CONTINUOUS
 10
24.5631233996
 20
11.0643383692
 11
24.3881460725
 21
11.0468846336
  0
LINE
  5
258
100
AcDbEntity
  8
DRAFT
100
AcDbLine
 62
7
  6
CONTINUOUS
 10
8.2131687455
 20
11.0643383692
 11
8.3881460725
 21
11.0468846336
  0
LINE
  5
259
100
AcDbEntity
  8
RACCORDO
100
AcDbLine
 62
7
  6
CONTINUOUS
 10
27.4479994232
 20
10.8143669258
 11
27.4479994232
 21
7.073065237
  0
LINE
  5
25A
100
AcDbEntity
  8
DRAFT
100
AcDbLine
 62
7
  6
CONTINUOUS
 10
27.4881460725
 20
7.073065237
 11
27.4881460725
 21
-2.0155898349
  0
LINE
  5
25B
100
AcDbEntity
  8
RACCORDO
100
AcDbLine
 62
7
  6
CONTINUOUS
 10
27.4881460725
 20
-2.0155898349
 11
27.4881460725
 21
-10.5767059109
  0
LINE
  5
25C
100
AcDbEntity
  8
RACCORDO
100
AcDbLine
 62
253
  6
CONTINUOUS
 10
26.8746127378
 20
10.7752967836
 11
5.9016794073
 21
10.7752967836
  0
LINE
  5
25D
100
AcDbEntity
  8
RACCORDO
100
AcDbLine
 62
253
  6
CONTINUOUS
 10
26.8746147455
 20
11.0254861488
 11
5.9016773996
 21
11.0254861488
  0
LINE
  5
25E
100
AcDbEntity
  8
DRAFT
100
AcDbLine
 62
7
  6
CONTINUOUS
 10
24.3881460725
 20
11.0468846336
 11
8.3881460725
 21
11.0468846336
  0
LINE
  5
25F
100
AcDbEntity
  8
RACCORDO
100
AcDbLine
 62
7
  6
CONTINUOUS
 10
5.5782927233
 20
11.0643383692
 11
8.2131687455
 21
11.0643383692
  0
LINE
  5
260
100
AcDbEntity
  8
RACCORDO
100
AcDbLine
 62
7
  6
CONTINUOUS
 10
24.5631233996
 20
11.0643383692
 11
27.1979994218
 21
11.0643383692
  0
LINE
  5
261
100
AcDbEntity
  8
RACCORDO
100
AcDbLine
 62
7
  6
CONTINUOUS
 10
-11.3884756009
 20
-10.8152073528
 11
-6.3944191129
 21
-11.076934763
  0
LINE
  5
262
100
AcDbEntity
  8
RACCORDO
100
AcDbLine
 62
253
  6
CONTINUOUS
 10
-11.3710355805
 20
-10.3158924935
 11
-6.3944191129
 21
-10.5767059109
  0
LINE
  5
263
100
AcDbEntity
  8
0
100
AcDbLine
 62
7
  6
CONTINUOUS
 10
-3.4480089514
 20
-1.9898769029
 11
-6.3944191129
 21
-2.0155898349
  0
LINE
  5
264
100
AcDbEntity
  8
RACCORDO
100
AcDbLine
 62
7
  6
CONTINUOUS
 10
-8.6944191129
 20
11.0643383692
 11
-8.6944191129
 21
7.073065237
  0
LINE
  5
265
100
AcDbEntity
  8
DRAFT
100
AcDbLine
 62
7
  6
CONTINUOUS
 10
-6.3944191129
 20
7.073065237
 11
-6.3944191129
 21
-2.0155898349
  0
LINE
  5
266
100
AcDbEntity
  8
RACCORDO
100
AcDbLine
 62
7
  6
CONTINUOUS
 10
-6.3944191129
 20
-2.0155898349
 11
-6.3944191129
 21
-11.076934763
  0
LINE
  5
267
100
AcDbEntity
  8
RACCORDO
100
AcDbLine
 62
253
  6
CONTINUOUS
 10
-12.8129774278
 20
1.682565237
 11
-13.3041609663
 21
1.673065237
  0
LINE
  5
268
100
AcDbEntity
  8
0
100
AcDbLine
 62
7
  6
CONTINUOUS
 10
-3.4480089514
 20
2.1360073769
 11
-6.3944191129
 21
2.1617203089
  0
LINE
  5
269
100
AcDbEntity
  8
0
100
AcDbLine
 62
253
  6
CONTINUOUS
 10
-4.0748390271
 20
-1.9953471661
 11
-4.0748390271
 21
2.1414776401
  0
LINE
  5
26A
100
AcDbEntity
  8
0
100
AcDbLine
 62
7
  6
CONTINUOUS
 10
-3.4480089514
 20
-1.9898769029
 11
-3.4480089514
 21
2.1360073769
  0
LINE
  5
26B
100
AcDbEntity
  8
DRAFT
100
AcDbLine
 62
7
  6
CONTINUOUS
 10
-8.6944191129
 20
7.073065237
 11
-6.3944191129
 21
7.073065237
  0
LINE
  5
26C
100
AcDbEntity
  8
RACCORDO
100
AcDbLine
 62
253
  6
CONTINUOUS
 10
-8.6944191129
 20
10.8143669258
 11
-12.9029866994
 21
10.7776393129
  0
LINE
  5
26D
100
AcDbEntity
  8
RACCORDO
100
AcDbLine
 62
7
  6
CONTINUOUS
 10
-8.6944191129
 20
11.0643383692
 11
-13.1464426059
 21
11.0254861488
  0
ARC
  5
26E
100
AcDbEntity
  8
RACCORDO
100
AcDbCircle
 62
253
  6
CONTINUOUS
 10
-5122.0607650847
 20
3.3380561865
 40
5127.9611382139
100
AcDbArc
 50
359.8513632834
 51
359.9813967217
  0
ARC
  5
26F
100
AcDbEntity
  8
RACCORDO
100
AcDbCircle
 62
253
  6
CONTINUOUS
 10
5148.6113940544
 20
3.3289680168
 40
5121.7354700408
100
AcDbArc
 50
180.0185242238
 51
180.1487157228
  0
ARC
  5
270
100
AcDbEntity
  8
RACCORDO
100
AcDbCircle
 62
253
  6
CONTINUOUS
 10
-5065.7418486373
 20
3.3383063682
 40
5071.1422979189
100
AcDbArc
 50
359.8505328898
 51
359.9812927789
  0
ARC
  5
271
100
AcDbEntity
  8
RACCORDO
100
AcDbCircle
 62
253
  6
CONTINUOUS
 10
5092.3615520696
 20
3.3292688229
 40
5064.9857042084
100
AcDbArc
 50
180.0186277262
 51
180.1495465567
  0
ARC
  5
272
100
AcDbEntity
  8
RACCORDO
100
AcDbCircle
 62
253
  6
CONTINUOUS
 10
27.1245141185
 20
10.7776092644
 40
0.2500229668
100
AcDbArc
 50
0.0068817343
 51
89.9856717836
  0
ARC
  5
273
100
AcDbEntity
  8
RACCORDO
100
AcDbCircle
 62
253
  6
CONTINUOUS
 10
5.6517765447
 20
10.7776107679
 40
0.2500210747
100
AcDbArc
 50
90.0139887246
 51
179.9934627636
  0
ARC
  5
274
100
AcDbEntity
  8
RACCORDO
100
AcDbCircle
 62
7
  6
CONTINUOUS
 10
486.6055808871
 20
11.173065237
 40
500.0
100
AcDbArc
 50
180.045580912
 51
181.0886851844
  0
ARC
  5
275
100
AcDbEntity
  8
RACCORDO
100
AcDbCircle
 62
253
  6
CONTINUOUS
 10
486.5778783076
 20
11.1727739515
 40
499.4810215866
100
AcDbArc
 50
180.0453261456
 51
181.0886932716
  0
ARC
  5
276
100
AcDbEntity
  8
RACCORDO
100
AcDbCircle
 62
7
  6
CONTINUOUS
 10
76.6795925672
 20
3.383065237
 40
90.0
100
AcDbArc
 50
181.0886845666
 51
188.5290343437
  0
ARC
  5
277
100
AcDbEntity
  8
RACCORDO
100
AcDbCircle
 62
253
  6
CONTINUOUS
 10
76.6708663636
 20
3.383065237
 40
89.4999999996
100
AcDbArc
 50
181.08868532
 51
188.5290357471
  0
ARC
  5
278
100
AcDbEntity
  8
RACCORDO
100
AcDbCircle
 62
7
  6
CONTINUOUS
 10
-11.3361413992
 20
-9.8165777261
 40
1.0
100
AcDbArc
 50
188.528909445
 51
267.0001006631
  0
ARC
  5
279
100
AcDbEntity
  8
RACCORDO
100
AcDbCircle
 62
253
  6
CONTINUOUS
 10
-11.3448676022
 20
-9.816577726
 40
0.5000000002
100
AcDbArc
 50
188.5290357629
 51
266.9999999842
  0
ARC
  5
27A
100
AcDbEntity
  8
RACCORDO
100
AcDbCircle
 62
7
  6
CONTINUOUS
 10
-13.1442609552
 20
10.7754956682
 40
0.25
100
AcDbArc
 50
90.5000038664
 51
180.045580997
  0
SPLINE
  5
27B
100
AcDbEntity
  8
RACCORDO
100
AcDbSpline
 62
253
  6
CONTINUOUS
 70
0
 71
3
 72
25
 73
21
 74
19
 42
0.0000001
 43
0.0000001
 44
0.0000000001
 12
-0.000717266
 22
-0.784323681
 32
0.0
 13
-0.7843236826
 23
-0.0007155193
 33
0.0
 40
0.0
 40
0.0
 40
0.0
 40
0.0
 40
0.0555078874
 40
0.1110211574
 40
0.1665406022
 40
0.2220668264
 40
0.2776002287
 40
0.3331409895
 40
0.3886890664
 40
0.4442441946
 40
0.4998058955
 40
0.5553734915
 40
0.6109461259
 40
0.6665227897
 40
0.7221023518
 40
0.777683593
 40
0.8332652436
 40
0.8888460215
 40
0.9444246707
 40
1.0
 40
1.0
 40
1.0
 40
1.0
 10
27.401278909
 20
-10.3158924935
 30
0.0
 10
27.4012656377
 20
-10.3304045437
 30
0.0
 10
27.3999705281
 20
-10.3594448425
 30
0.0
 10
27.3942375482
 20
-10.4026594723
 30
0.0
 10
27.3847577559
 20
-10.4452178728
 30
0.0
 10
27.3716032405
 20
-10.4867921653
 30
0.0
 10
27.3548740211
 20
-10.5270674786
 30
0.0
 10
27.3346972921
 20
-10.5657373424
 30
0.0
 10
27.3112264517
 20
-10.6025078929
 30
0.0
 10
27.2846399362
 20
-10.6370996026
 30
0.0
 10
27.2551398616
 20
-10.6692495395
 30
0.0
 10
27.2229504861
 20
-10.6987133279
 30
0.0
 10
27.1883165074
 20
-10.7252670145
 30
0.0
 10
27.151501193
 20
-10.7487087664
 30
0.0
 10
27.1127844154
 20
-10.768860405
 30
0.0
 10
27.0724603907
 20
-10.7855687589
 30
0.0
 10
27.0308359444
 20
-10.7987068264
 30
0.0
 10
26.9882263112
 20
-10.8081747423
 30
0.0
 10
26.9449597142
 20
-10.8139005303
 30
0.0
 10
26.9158847437
 20
-10.8151940058
 30
0.0
 10
26.9013550614
 20
-10.8152072609
 30
0.0
 11
27.401278909
 21
-10.3158924935
 31
0.0
 11
27.3993389837
 21
-10.3593854203
 31
0.0
 11
27.3936135037
 21
-10.4025477242
 31
0.0
 11
27.3841459925
 21
-10.4450512958
 31
0.0
 11
27.37100842
 21
-10.486573033
 31
0.0
 11
27.3543006548
 21
-10.5267972976
 31
0.0
 11
27.3341497054
 21
-10.5654183141
 31
0.0
 11
27.3107087545
 21
-10.602142495
 31
0.0
 11
27.2841559946
 21
-10.6366906717
 31
0.0
 11
27.2546932734
 21
-10.6688002174
 31
0.0
 11
27.2225445596
 21
-10.6982270427
 31
0.0
 11
27.1879542398
 21
-10.7247474522
 31
0.0
 11
27.1511852616
 21
-10.7481598439
 31
0.0
 11
27.1125171339
 21
-10.7682862425
 31
0.0
 11
27.0722438025
 21
-10.7849736518
 31
0.0
 11
27.0306714158
 21
-10.7980952182
 31
0.0
 11
26.988115997
 21
-10.8075511947
 31
0.0
 11
26.9449010423
 21
-10.8132696992
 31
0.0
 11
26.9013550614
 21
-10.8152072609
 31
0.0
  0
SPLINE
  5
27C
100
AcDbEntity
  8
RACCORDO
100
AcDbSpline
 62
253
  6
CONTINUOUS
 70
0
 71
3
 72
26
 73
22
 74
20
 42
0.0000001
 43
0.0000001
 44
0.0000000001
 12
0.0011129503
 22
-0.8504185949
 32
0.0
 13
0.1396631713
 23
-0.8388725909
 33
0.0
 40
0.0
 40
0.0
 40
0.0
 40
0.0
 40
0.0832952057
 40
0.1652544237
 40
0.2454503024
 40
0.323465851
 40
0.3988962419
 40
0.471349698
 40
0.5404499137
 40
0.6058379889
 40
0.6671744962
 40
0.724140815
 40
0.776441201
 40
0.8238040256
 40
0.8659835342
 40
0.9027608244
 40
0.9339452215
 40
0.9593753934
 40
0.9789206138
 40
0.9924822302
 40
1.0
 40
1.0
 40
1.0
 40
1.0
 10
26.8931808084
 20
-9.9648861412
 30
0.0
 10
26.8932117096
 20
-9.9884980718
 30
0.0
 10
26.89328798
 20
-10.0353431987
 30
0.0
 10
26.893447105
 20
-10.1049215817
 30
0.0
 10
26.8936494248
 20
-10.1730032059
 30
0.0
 10
26.8938938386
 20
-10.2392339332
 30
0.0
 10
26.8941790666
 20
-10.3032697084
 30
0.0
 10
26.8945035831
 20
-10.3647780064
 30
0.0
 10
26.8948656574
 20
-10.4234393178
 30
0.0
 10
26.8952633438
 20
-10.4789489674
 30
0.0
 10
26.8956944824
 20
-10.5310186261
 30
0.0
 10
26.8961567271
 20
-10.5793778524
 30
0.0
 10
26.8966474366
 20
-10.6237754278
 30
0.0
 10
26.8971639902
 20
-10.6639807061
 30
0.0
 10
26.8977026677
 20
-10.6997849872
 30
0.0
 10
26.898261902
 20
-10.7310018576
 30
0.0
 10
26.898831883
 20
-10.7574705781
 30
0.0
 10
26.8994234401
 20
-10.7790500186
 30
0.0
 10
26.8999858146
 20
-10.7956389428
 30
0.0
 10
26.9006027212
 20
-10.8071301039
 30
0.0
 10
26.9010050915
 20
-10.8131052025
 30
0.0
 10
26.9013550767
 20
-10.8152073528
 30
0.0
 11
26.8931808084
 21
-9.9648861412
 31
0.0
 11
26.8932964378
 21
-10.0357218993
 31
0.0
 11
26.8934562889
 21
-10.1054214187
 31
0.0
 11
26.8936595422
 21
-10.1736212407
 31
0.0
 11
26.8939051315
 21
-10.2399667162
 31
0.0
 11
26.8941917878
 21
-10.3041135376
 31
0.0
 11
26.8945180201
 21
-10.3657284931
 31
0.0
 11
26.8948821354
 21
-10.4244915237
 31
0.0
 11
26.8952822422
 21
-10.4800973669
 31
0.0
 11
26.8957162639
 21
-10.5322573123
 31
0.0
 11
26.8961819458
 21
-10.5807003323
 31
0.0
 11
26.8966768701
 21
-10.6251748374
 31
0.0
 11
26.8971984657
 21
-10.6654497212
 31
0.0
 11
26.8977440247
 21
-10.7013158414
 31
0.0
 11
26.8983107126
 21
-10.7325868253
 31
0.0
 11
26.8988955877
 21
-10.7591001888
 31
0.0
 11
26.8994956053
 21
-10.7807181731
 31
0.0
 11
26.9001076683
 21
-10.7973285333
 31
0.0
 11
26.9007285521
 21
-10.8088448692
 31
0.0
 11
26.9013550767
 21
-10.8152073528
 31
0.0
  0
SPLINE
  5
27D
100
AcDbEntity
  8
RACCORDO
100
AcDbSpline
 62
253
  6
CONTINUOUS
 70
0
 71
3
 72
26
 73
22
 74
20
 42
0.0000001
 43
0.0000001
 44
0.0000000001
 12
0.1396631714
 22
0.8388725909
 32
0.0
 13
0.0011129503
 23
0.8504185949
 33
0.0
 40
0.0
 40
0.0
 40
0.0
 40
0.0
 40
0.0075177698
 40
0.0210793862
 40
0.0406246066
 40
0.0660547785
 40
0.0972391756
 40
0.1340164658
 40
0.1761959744
 40
0.223558799
 40
0.275859185
 40
0.3328255038
 40
0.3941620111
 40
0.4595500863
 40
0.528650302
 40
0.6011037581
 40
0.676534149
 40
0.7545496976
 40
0.8347455763
 40
0.9167047943
 40
1.0
 40
1.0
 40
1.0
 40
1.0
 10
5.8749370684
 20
-10.8152073528
 30
0.0
 10
5.8752870536
 20
-10.8131052025
 30
0.0
 10
5.8756894238
 20
-10.8071301039
 30
0.0
 10
5.8763063305
 20
-10.7956389428
 30
0.0
 10
5.8768687049
 20
-10.7790500186
 30
0.0
 10
5.877460262
 20
-10.7574705781
 30
0.0
 10
5.8780302431
 20
-10.7310018576
 30
0.0
 10
5.8785894774
 20
-10.6997849872
 30
0.0
 10
5.8791281548
 20
-10.6639807061
 30
0.0
 10
5.8796447085
 20
-10.6237754278
 30
0.0
 10
5.880135418
 20
-10.5793778525
 30
0.0
 10
5.8805976627
 20
-10.5310186261
 30
0.0
 10
5.8810288013
 20
-10.4789489674
 30
0.0
 10
5.8814264877
 20
-10.4234393178
 30
0.0
 10
5.881788562
 20
-10.3647780064
 30
0.0
 10
5.8821130785
 20
-10.3032697084
 30
0.0
 10
5.8823983065
 20
-10.2392339332
 30
0.0
 10
5.8826427203
 20
-10.1730032059
 30
0.0
 10
5.8828450401
 20
-10.1049215817
 30
0.0
 10
5.883004165
 20
-10.0353431987
 30
0.0
 10
5.8830804355
 20
-9.9884980718
 30
0.0
 10
5.8831113367
 20
-9.9648861412
 30
0.0
 11
5.8749370684
 21
-10.8152073528
 31
0.0
 11
5.875563593
 21
-10.8088448692
 31
0.0
 11
5.8761844768
 21
-10.7973285333
 31
0.0
 11
5.8767965398
 21
-10.7807181731
 31
0.0
 11
5.8773965574
 21
-10.7591001888
 31
0.0
 11
5.8779814325
 21
-10.7325868253
 31
0.0
 11
5.8785481204
 21
-10.7013158414
 31
0.0
 11
5.8790936794
 21
-10.6654497212
 31
0.0
 11
5.8796152749
 21
-10.6251748374
 31
0.0
 11
5.8801101993
 21
-10.5807003323
 31
0.0
 11
5.8805758812
 21
-10.5322573123
 31
0.0
 11
5.8810099029
 21
-10.4800973669
 31
0.0
 11
5.8814100097
 21
-10.4244915237
 31
0.0
 11
5.881774125
 21
-10.3657284931
 31
0.0
 11
5.8821003573
 21
-10.3041135376
 31
0.0
 11
5.8823870135
 21
-10.2399667162
 31
0.0
 11
5.8826326029
 21
-10.1736212407
 31
0.0
 11
5.8828358562
 21
-10.1054214187
 31
0.0
 11
5.8829957073
 21
-10.0357218993
 31
0.0
 11
5.8831113367
 21
-9.9648861412
 31
0.0
  0
SPLINE
  5
27E
100
AcDbEntity
  8
RACCORDO
100
AcDbSpline
 62
253
  6
CONTINUOUS
 70
0
 71
3
 72
26
 73
22
 74
20
 42
0.0000001
 43
0.0000001
 44
0.0000000001
 12
0.0011134992
 22
-0.4253536797
 32
0.0
 13
0.1343995006
 23
-0.4035638326
 33
0.0
 40
0.0
 40
0.0
 40
0.0
 40
0.0
 40
0.0832598939
 40
0.1651921355
 40
0.2453621057
 40
0.3233530439
 40
0.3987603819
 40
0.4711925963
 40
0.5402736476
 40
0.6056449139
 40
0.6669672678
 40
0.7239224209
 40
0.776215012
 40
0.8235738653
 40
0.865753808
 40
0.902536766
 40
0.9337332948
 40
0.9591840911
 40
0.9787622227
 40
0.9923778753
 40
1.0
 40
1.0
 40
1.0
 40
1.0
 10
27.3931046595
 20
-9.8907330237
 30
0.0
 10
27.3931355628
 20
-9.9025379911
 30
0.0
 10
27.3932118197
 20
-9.9259596492
 30
0.0
 10
27.3933709509
 20
-9.9607479726
 30
0.0
 10
27.3935732624
 20
-9.9947890009
 30
0.0
 10
27.3938176802
 20
-10.0279045955
 30
0.0
 10
27.3941029067
 20
-10.0599227249
 30
0.0
 10
27.3944274251
 20
-10.0906771255
 30
0.0
 10
27.394789501
 20
-10.120008041
 30
0.0
 10
27.39518719
 20
-10.1477631326
 30
0.0
 10
27.3956183329
 20
-10.1737982386
 30
0.0
 10
27.3960805812
 20
-10.1979781358
 30
0.0
 10
27.3965713042
 20
-10.2201772395
 30
0.0
 10
27.3970878493
 20
-10.2402801804
 30
0.0
 10
27.3976266042
 20
-10.2581828256
 30
0.0
 10
27.398185681
 20
-10.2737914577
 30
0.0
 10
27.3987562554
 20
-10.2870275708
 30
0.0
 10
27.3993464389
 20
-10.2978160909
 30
0.0
 10
27.3999128595
 20
-10.3061202598
 30
0.0
 10
27.4005229681
 20
-10.3118603508
 30
0.0
 10
27.4009374391
 20
-10.3148671556
 30
0.0
 10
27.401278909
 20
-10.3158924935
 30
0.0
 11
27.3931046595
 21
-9.8907330237
 31
0.0
 11
27.3932202771
 21
-9.9261478586
 31
0.0
 11
27.393380131
 21
-9.9609977918
 31
0.0
 11
27.393583381
 21
-9.9950978948
 31
0.0
 11
27.3938289709
 21
-10.0282708319
 31
0.0
 11
27.3941156265
 21
-10.0603444495
 31
0.0
 11
27.3944418594
 21
-10.0911521368
 31
0.0
 11
27.3948059753
 21
-10.1205338607
 31
0.0
 11
27.3952060833
 21
-10.1483369859
 31
0.0
 11
27.3956401065
 21
-10.1744171529
 31
0.0
 11
27.3961057905
 21
-10.1986388437
 31
0.0
 11
27.3966007173
 21
-10.220876259
 31
0.0
 11
27.3971223156
 21
-10.2410138365
 31
0.0
 11
27.3976678774
 21
-10.2589469952
 31
0.0
 11
27.3982345686
 21
-10.2745825492
 31
0.0
 11
27.3988194454
 21
-10.2878392571
 31
0.0
 11
27.3994194693
 21
-10.2986482427
 31
0.0
 11
27.400031526
 21
-10.306953379
 31
0.0
 11
27.400652432
 21
-10.3127114869
 31
0.0
 11
27.401278909
 21
-10.3158924935
 31
0.0
  0
SPLINE
  5
27F
100
AcDbEntity
  8
RACCORDO
100
AcDbSpline
 62
253
  6
CONTINUOUS
 70
0
 71
3
 72
10
 73
6
 74
4
 42
0.0000001
 43
0.0000001
 44
0.0000000001
 12
0.0001256779
 22
-9.0950742448
 32
0.0
 13
0.0030168915
 23
-9.0950737453
 33
0.0
 40
0.0
 40
0.0
 40
0.0
 40
0.0
 40
0.3333522267
 40
0.6666869714
 40
1.0
 40
1.0
 40
1.0
 40
1.0
 10
27.3745386027
 20
10.7776393129
 30
0.0
 10
27.3745525677
 20
9.767018229
 30
0.0
 10
27.3746875134
 20
7.7458290613
 30
0.0
 10
27.3752112435
 20
4.7141376862
 30
0.0
 10
27.3757745307
 20
2.6930674289
 30
0.0
 10
27.3761097204
 20
1.682565237
 30
0.0
 11
27.3745386027
 21
10.7776393129
 31
0.0
 11
27.3747410743
 21
7.7457760678
 31
0.0
 11
27.3752647943
 21
4.7140718618
 31
0.0
 11
27.3761097204
 21
1.682565237
 31
0.0
  0
SPLINE
  5
280
100
AcDbEntity
  8
RACCORDO
100
AcDbSpline
 62
253
  6
CONTINUOUS
 70
0
 71
3
 72
10
 73
6
 74
4
 42
0.0000001
 43
0.0000001
 44
0.0000000001
 12
0.0030168915
 22
9.0950737453
 32
0.0
 13
0.0001256779
 23
9.0950742448
 33
0.0
 40
0.0
 40
0.0
 40
0.0
 40
0.0
 40
0.3333130286
 40
0.6666477733
 40
1.0
 40
1.0
 40
1.0
 40
1.0
 10
5.4001824247
 20
1.682565237
 30
0.0
 10
5.4005176144
 20
2.6930674289
 30
0.0
 10
5.4010809016
 20
4.7141376862
 30
0.0
 10
5.4016046317
 20
7.7458290613
 30
0.0
 10
5.4017395773
 20
9.767018229
 30
0.0
 10
5.4017535424
 20
10.7776393129
 30
0.0
 11
5.4001824247
 21
1.682565237
 31
0.0
 11
5.4010273508
 21
4.7140718618
 31
0.0
 11
5.4015510707
 21
7.7457760678
 31
0.0
 11
5.4017535424
 21
10.7776393129
 31
0.0
  0
SPLINE
  5
281
100
AcDbEntity
  8
RACCORDO
100
AcDbSpline
 62
253
  6
CONTINUOUS
 70
0
 71
3
 72
26
 73
22
 74
20
 42
0.0000001
 43
0.0000001
 44
0.0000000001
 12
0.1343995005
 22
0.4035638326
 32
0.0
 13
0.0011134992
 23
0.4253536797
 33
0.0
 40
0.0
 40
0.0
 40
0.0
 40
0.0
 40
0.0076221247
 40
0.0212377773
 40
0.0408159089
 40
0.0662667052
 40
0.097463234
 40
0.134246192
 40
0.1764261347
 40
0.223784988
 40
0.2760775791
 40
0.3330327322
 40
0.3943550861
 40
0.4597263524
 40
0.5288074037
 40
0.6012396181
 40
0.6766469561
 40
0.7546378943
 40
0.8348078645
 40
0.9167401061
 40
1.0
 40
1.0
 40
1.0
 40
1.0
 10
5.3750132361
 20
-10.3158924935
 30
0.0
 10
5.375354706
 20
-10.3148671556
 30
0.0
 10
5.3757691769
 20
-10.3118603508
 30
0.0
 10
5.3763792856
 20
-10.3061202598
 30
0.0
 10
5.3769457062
 20
-10.2978160909
 30
0.0
 10
5.3775358897
 20
-10.2870275708
 30
0.0
 10
5.3781064641
 20
-10.2737914577
 30
0.0
 10
5.3786655408
 20
-10.2581828256
 30
0.0
 10
5.3792042958
 20
-10.2402801804
 30
0.0
 10
5.3797208409
 20
-10.2201772395
 30
0.0
 10
5.3802115639
 20
-10.1979781358
 30
0.0
 10
5.3806738121
 20
-10.1737982386
 30
0.0
 10
5.3811049551
 20
-10.1477631326
 30
0.0
 10
5.3815026441
 20
-10.120008041
 30
0.0
 10
5.38186472
 20
-10.0906771255
 30
0.0
 10
5.3821892384
 20
-10.0599227249
 30
0.0
 10
5.3824744648
 20
-10.0279045955
 30
0.0
 10
5.3827188827
 20
-9.9947890009
 30
0.0
 10
5.3829211942
 20
-9.9607479726
 30
0.0
 10
5.3830803253
 20
-9.9259596492
 30
0.0
 10
5.3831565823
 20
-9.9025379911
 30
0.0
 10
5.3831874856
 20
-9.8907330237
 30
0.0
 11
5.3750132361
 21
-10.3158924935
 31
0.0
 11
5.3756397131
 21
-10.3127114869
 31
0.0
 11
5.3762606191
 21
-10.306953379
 31
0.0
 11
5.3768726758
 21
-10.2986482427
 31
0.0
 11
5.3774726996
 21
-10.2878392571
 31
0.0
 11
5.3780575764
 21
-10.2745825492
 31
0.0
 11
5.3786242676
 21
-10.2589469952
 31
0.0
 11
5.3791698294
 21
-10.2410138365
 31
0.0
 11
5.3796914278
 21
-10.220876259
 31
0.0
 11
5.3801863546
 21
-10.1986388437
 31
0.0
 11
5.3806520386
 21
-10.1744171529
 31
0.0
 11
5.3810860618
 21
-10.1483369859
 31
0.0
 11
5.3814861698
 21
-10.1205338607
 31
0.0
 11
5.3818502857
 21
-10.0911521368
 31
0.0
 11
5.3821765185
 21
-10.0603444495
 31
0.0
 11
5.3824631741
 21
-10.0282708319
 31
0.0
 11
5.3827087641
 21
-9.9950978948
 31
0.0
 11
5.3829120141
 21
-9.9609977918
 31
0.0
 11
5.383071868
 21
-9.9261478586
 31
0.0
 11
5.3831874856
 21
-9.8907330237
 31
0.0
  0
SPLINE
  5
282
100
AcDbEntity
  8
RACCORDO
100
AcDbSpline
 62
253
  6
CONTINUOUS
 70
0
 71
3
 72
25
 73
21
 74
19
 42
0.0000001
 43
0.0000001
 44
0.0000000001
 12
0.000717266
 22
-0.784323681
 32
0.0
 13
0.7843236826
 23
-0.0007155193
 33
0.0
 40
0.0
 40
0.0
 40
0.0
 40
0.0
 40
0.0555078866
 40
0.111021156
 40
0.1665406002
 40
0.222066824
 40
0.2776002258
 40
0.3331409864
 40
0.3886890631
 40
0.4442441912
 40
0.4998058922
 40
0.5553734882
 40
0.6109461229
 40
0.666522787
 40
0.7221023493
 40
0.777683591
 40
0.8332652421
 40
0.8888460204
 40
0.9444246702
 40
1.0
 40
1.0
 40
1.0
 40
1.0
 10
5.3750132361
 20
-10.3158924935
 30
0.0
 10
5.3750265074
 20
-10.3304045435
 30
0.0
 10
5.376321617
 20
-10.3594448419
 30
0.0
 10
5.3820545967
 20
-10.4026594712
 30
0.0
 10
5.3915343887
 20
-10.4452178713
 30
0.0
 10
5.404688904
 20
-10.4867921635
 30
0.0
 10
5.421418123
 20
-10.5270674766
 30
0.0
 10
5.4415948518
 20
-10.5657373403
 30
0.0
 10
5.4650656919
 20
-10.6025078908
 30
0.0
 10
5.4916522072
 20
-10.6370996006
 30
0.0
 10
5.5211522816
 20
-10.6692495377
 30
0.0
 10
5.5533416571
 20
-10.6987133263
 30
0.0
 10
5.5879756358
 20
-10.7252670131
 30
0.0
 10
5.6247909502
 20
-10.7487087653
 30
0.0
 10
5.663507728
 20
-10.7688604043
 30
0.0
 10
5.7038317529
 20
-10.7855687583
 30
0.0
 10
5.7454561995
 20
-10.7987068261
 30
0.0
 10
5.7880658331
 20
-10.8081747422
 30
0.0
 10
5.8313324305
 20
-10.8139005302
 30
0.0
 10
5.8604074012
 20
-10.8151940058
 30
0.0
 10
5.8749370837
 20
-10.8152072609
 30
0.0
 11
5.3750132361
 21
-10.3158924935
 31
0.0
 11
5.3769531613
 21
-10.3593854197
 31
0.0
 11
5.3826786412
 21
-10.4025477232
 31
0.0
 11
5.3921461522
 21
-10.4450512943
 31
0.0
 11
5.4052837244
 21
-10.4865730312
 31
0.0
 11
5.4219914893
 21
-10.5267972955
 31
0.0
 11
5.4421424384
 21
-10.565418312
 31
0.0
 11
5.4655833891
 21
-10.6021424929
 31
0.0
 11
5.4921361488
 21
-10.6366906697
 31
0.0
 11
5.5215988698
 21
-10.6688002155
 31
0.0
 11
5.5537475836
 21
-10.6982270411
 31
0.0
 11
5.5883379033
 21
-10.7247474508
 31
0.0
 11
5.6251068816
 21
-10.7481598428
 31
0.0
 11
5.6637750095
 21
-10.7682862417
 31
0.0
 11
5.7040483411
 21
-10.7849736513
 31
0.0
 11
5.7456207281
 21
-10.7980952179
 31
0.0
 11
5.7881761473
 21
-10.8075511946
 31
0.0
 11
5.8313911024
 21
-10.8132696991
 31
0.0
 11
5.8749370837
 21
-10.8152072609
 31
0.0
  0
SPLINE
  5
283
100
AcDbEntity
  8
RACCORDO
100
AcDbSpline
 62
253
  6
CONTINUOUS
 70
0
 71
3
 72
25
 73
21
 74
19
 42
0.0000001
 43
0.0000001
 44
0.0000000001
 12
0.0594304052
 22
-0.5107653037
 32
0.0
 13
0.5142095249
 23
-0.0013164491
 33
0.0
 40
0.0
 40
0.0
 40
0.0
 40
0.0
 40
0.0134252416
 40
0.0308241418
 40
0.0536957437
 40
0.0825895502
 40
0.1176421073
 40
0.1587868985
 40
0.2058367761
 40
0.2585206824
 40
0.3165025928
 40
0.3793928827
 40
0.446756227
 40
0.5181178391
 40
0.5929689014
 40
0.6707716099
 40
0.7509640487
 40
0.8329650055
 40
0.9161787787
 40
1.0
 40
1.0
 40
1.0
 40
1.0
 10
5.3831874856
 20
-9.8907330237
 30
0.0
 10
5.3834534414
 20
-9.8930187396
 30
0.0
 10
5.3857892312
 20
-9.8980427942
 30
0.0
 10
5.3926503888
 20
-9.9043251333
 30
0.0
 10
5.40284982
 20
-9.9104569666
 30
0.0
 10
5.4165078221
 20
-9.9164310165
 30
0.0
 10
5.4335690966
 20
-9.9222512072
 30
0.0
 10
5.4539461792
 20
-9.9278588634
 30
0.0
 10
5.4774990582
 20
-9.9332108119
 30
0.0
 10
5.5040608099
 20
-9.9382613549
 30
0.0
 10
5.5334374273
 20
-9.9429700752
 30
0.0
 10
5.5654126669
 20
-9.9472994531
 30
0.0
 10
5.5997498996
 20
-9.9512156364
 30
0.0
 10
5.6361944386
 20
-9.9546882555
 30
0.0
 10
5.6744755938
 20
-9.9576905867
 30
0.0
 10
5.7143088218
 20
-9.9601996391
 30
0.0
 10
5.7553978997
 20
-9.9621962714
 30
0.0
 10
5.797437212
 20
-9.9636652929
 30
0.0
 10
5.8401139067
 20
-9.9645955501
 30
0.0
 10
5.8687441097
 20
-9.9648515391
 30
0.0
 10
5.8831113331
 20
-9.9648883212
 30
0.0
 11
5.3831874856
 21
-9.8907330237
 31
0.0
 11
5.3857921765
 21
-9.8971261959
 31
0.0
 11
5.3920990963
 21
-9.903471775
 31
0.0
 11
5.4020612938
 21
-9.909722522
 31
0.0
 11
5.4156046068
 21
-9.9158319042
 31
0.0
 11
5.4326282138
 21
-9.921754441
 31
0.0
 11
5.4530053848
 21
-9.9274460427
 31
0.0
 11
5.4765844244
 21
-9.9328643392
 31
0.0
 11
5.5031898016
 21
-9.9379689944
 31
0.0
 11
5.5326234559
 21
-9.9427220075
 31
0.0
 11
5.5646662725
 21
-9.9470879953
 31
0.0
 11
5.5990797125
 21
-9.9510344556
 31
0.0
 11
5.6356075896
 21
-9.9545320097
 31
0.0
 11
5.6739779766
 21
-9.9575546204
 31
0.0
 11
5.7139052302
 21
-9.9600797863
 31
0.0
 11
5.7550921169
 21
-9.9620887091
 31
0.0
 11
5.7972320263
 21
-9.9635664336
 31
0.0
 11
5.8400112532
 21
-9.9645019591
 31
0.0
 11
5.8831113331
 21
-9.9648883212
 31
0.0
  0
SPLINE
  5
284
100
AcDbEntity
  8
RACCORDO
100
AcDbSpline
 62
253
  6
CONTINUOUS
 70
0
 71
3
 72
25
 73
21
 74
19
 42
0.0000001
 43
0.0000001
 44
0.0000000001
 12
0.3383306632
 22
-0.3684547816
 32
0.0
 13
0.5002264849
 23
-0.0001658683
 33
0.0
 40
0.0
 40
0.0
 40
0.0
 40
0.0
 40
0.0054728885
 40
0.0181985357
 40
0.0381894447
 40
0.0653182578
 40
0.0993910636
 40
0.1401581942
 40
0.1873184932
 40
0.2405224117
 40
0.2993749771
 40
0.3634389125
 40
0.4322379883
 40
0.5052606225
 40
0.5819637236
 40
0.6617767553
 40
0.7441059978
 40
0.8283389783
 40
0.9138490374
 40
1.0
 40
1.0
 40
1.0
 40
1.0
 10
5.4001824247
 20
1.682565237
 30
0.0
 10
5.40079964
 20
1.6818930664
 30
0.0
 10
5.4041989371
 20
1.6816943014
 30
0.0
 10
5.4101851067
 20
1.6806458768
 30
0.0
 10
5.4203162813
 20
1.6800685911
 30
0.0
 10
5.4337579942
 20
1.6792407607
 30
0.0
 10
5.4507732991
 20
1.6785287199
 30
0.0
 10
5.4710934046
 20
1.6778032178
 30
0.0
 10
5.4946194698
 20
1.6771223938
 30
0.0
 10
5.5211587588
 20
1.6764752115
 30
0.0
 10
5.5505196696
 20
1.675872862
 30
0.0
 10
5.5824818786
 20
1.6753184738
 30
0.0
 10
5.6168081028
 20
1.6748170181
 30
0.0
 10
5.653242712
 20
1.6743722576
 30
0.0
 10
5.6915146019
 20
1.6739876902
 30
0.0
 10
5.7313389245
 20
1.6736662612
 30
0.0
 10
5.7724192948
 20
1.6734104362
 30
0.0
 10
5.8144499734
 20
1.6732221663
 30
0.0
 10
5.8571181468
 20
1.6731028846
 30
0.0
 10
5.8857412745
 20
1.6730700002
 30
0.0
 10
5.9001062722
 20
1.673065237
 30
0.0
 11
5.4001824247
 21
1.682565237
 31
0.0
 11
5.4027947548
 21
1.6817463079
 31
0.0
 11
5.4091083524
 21
1.6809334737
 31
0.0
 11
5.4190762283
 21
1.680132784
 31
0.0
 11
5.4326241959
 21
1.679350198
 31
0.0
 11
5.449651424
 21
1.6785915401
 31
0.0
 11
5.4700311863
 21
1.6778624566
 31
0.0
 11
5.4936118054
 21
1.6771683738
 31
0.0
 11
5.5202177812
 21
1.6765144575
 31
0.0
 11
5.5496510975
 21
1.6759055744
 31
0.0
 11
5.5816926952
 21
1.6753462562
 31
0.0
 11
5.6161041029
 21
1.6748406656
 31
0.0
 11
5.6526292119
 21
1.6743925656
 31
0.0
 11
5.6909961822
 21
1.6740052912
 31
0.0
 11
5.7309194655
 21
1.6736817246
 31
0.0
 11
5.7721019306
 21
1.673424274
 31
0.0
 11
5.8142370749
 21
1.6732348555
 31
0.0
 11
5.8570113053
 21
1.6731148788
 31
0.0
 11
5.9001062722
 21
1.673065237
 31
0.0
  0
SPLINE
  5
285
100
AcDbEntity
  8
RACCORDO
100
AcDbSpline
 62
253
  6
CONTINUOUS
 70
0
 71
3
 72
25
 73
21
 74
19
 42
0.0000001
 43
0.0000001
 44
0.0000000001
 12
-0.4999448764
 22
0.000003511
 32
0.0
 13
-0.4823466308
 23
0.1314785428
 33
0.0
 40
0.0
 40
0.0
 40
0.0
 40
0.0
 40
0.086198315
 40
0.1717551883
 40
0.2560354457
 40
0.338409687
 40
0.4182655143
 40
0.4950087928
 40
0.5680679976
 40
0.6368993939
 40
0.7009908687
 40
0.7598653845
 40
0.8130847535
 40
0.8602530377
 40
0.9010192177
 40
0.9350798387
 40
0.9621817571
 40
0.982123911
 40
0.9947588411
 40
1.0
 40
1.0
 40
1.0
 40
1.0
 10
5.9016794073
 20
10.775296783
 30
0.0
 10
5.8873146053
 20
10.7752968838
 30
0.0
 10
5.8586918962
 20
10.7753029446
 30
0.0
 10
5.8160240336
 20
10.7753295946
 30
0.0
 10
5.7739934609
 20
10.7753735889
 30
0.0
 10
5.73291298
 20
10.7754345881
 30
0.0
 10
5.6930885539
 20
10.7755121285
 30
0.0
 10
5.6548165008
 20
10.7756056101
 30
0.0
 10
5.6183816995
 20
10.7757143207
 30
0.0
 10
5.5840553527
 20
10.775837385
 30
0.0
 10
5.5520929476
 20
10.7759739339
 30
0.0
 10
5.522732288
 20
10.7761225513
 30
0.0
 10
5.4961921366
 20
10.7762830699
 30
0.0
 10
5.4726692598
 20
10.7764507959
 30
0.0
 10
5.4523410616
 20
10.7766343042
 30
0.0
 10
5.4353520696
 20
10.7768020906
 30
0.0
 10
5.4218472561
 20
10.7770330677
 30
0.0
 10
5.4118802576
 20
10.7771186557
 30
0.0
 10
5.4056244219
 20
10.7774891705
 30
0.0
 10
5.4025962275
 20
10.7774096046
 30
0.0
 10
5.4017535424
 20
10.7776393046
 30
0.0
 11
5.9016794073
 21
10.775296783
 31
0.0
 11
5.8585850023
 21
10.7753059435
 31
0.0
 11
5.8158112903
 21
10.7753327594
 31
0.0
 11
5.7736758307
 21
10.7753770335
 31
0.0
 11
5.7324932966
 21
10.7754384328
 31
0.0
 11
5.6925698612
 21
10.7755165009
 31
0.0
 11
5.6542025678
 21
10.7756106552
 31
0.0
 11
5.617677157
 21
10.7757201931
 31
0.0
 11
5.5832654768
 21
10.7758442977
 31
0.0
 11
5.5512235684
 21
10.7759820437
 31
0.0
 11
5.52178994
 21
10.776132404
 31
0.0
 11
5.4951836814
 21
10.7762942573
 31
0.0
 11
5.4716027677
 21
10.7764663978
 31
0.0
 11
5.4512227299
 21
10.7766475422
 31
0.0
 11
5.4341953436
 21
10.7768363406
 31
0.0
 11
5.4206472823
 21
10.7770313846
 31
0.0
 11
5.4106793077
 21
10.7772312292
 31
0.0
 11
5.4043658063
 21
10.7774343662
 31
0.0
 11
5.4017535424
 21
10.7776393046
 31
0.0
  0
SPLINE
  5
286
100
AcDbEntity
  8
RACCORDO
100
AcDbSpline
 62
253
  6
CONTINUOUS
 70
0
 71
3
 72
10
 73
6
 74
4
 42
0.0000001
 43
0.0000001
 44
0.0000000001
 12
0.000126269
 22
-9.1022305321
 32
0.0
 13
0.003016246
 23
-9.1022300332
 33
0.0
 40
0.0
 40
0.0
 40
0.0
 40
0.0
 40
0.3333525815
 40
0.6666872174
 40
1.0
 40
1.0
 40
1.0
 40
1.0
 10
26.8746127378
 20
10.7752967836
 30
0.0
 10
26.8746267685
 20
9.7638794351
 30
0.0
 10
26.8747647981
 20
7.7410991866
 30
0.0
 10
26.8752872929
 20
4.7070223823
 30
0.0
 10
26.8758507547
 20
2.6843629605
 30
0.0
 10
26.8761858725
 20
1.6730664203
 30
0.0
 11
26.8746127378
 21
10.7752967836
 31
0.0
 11
26.8748173824
 21
7.7410447447
 31
0.0
 11
26.8753410933
 21
4.7069560899
 31
0.0
 11
26.8761858725
 21
1.6730664203
 31
0.0
  0
SPLINE
  5
287
100
AcDbEntity
  8
RACCORDO
100
AcDbSpline
 62
253
  6
CONTINUOUS
 70
0
 71
3
 72
10
 73
6
 74
4
 42
0.0000001
 43
0.0000001
 44
0.0000000001
 12
0.003016246
 22
9.1022300332
 32
0.0
 13
0.000126269
 23
9.1022305321
 33
0.0
 40
0.0
 40
0.0
 40
0.0
 40
0.0
 40
0.3333127826
 40
0.6666474185
 40
1.0
 40
1.0
 40
1.0
 40
1.0
 10
5.9001062726
 20
1.6730664203
 30
0.0
 10
5.9004413904
 20
2.6843629605
 30
0.0
 10
5.9010048522
 20
4.7070223823
 30
0.0
 10
5.901527347
 20
7.7410991866
 30
0.0
 10
5.9016653766
 20
9.7638794351
 30
0.0
 10
5.9016794073
 20
10.7752967836
 30
0.0
 11
5.9001062726
 21
1.6730664203
 31
0.0
 11
5.9009510517
 21
4.7069560899
 31
0.0
 11
5.9014747627
 21
7.7410447447
 31
0.0
 11
5.9016794073
 21
10.7752967836
 31
0.0
  0
SPLINE
  5
288
100
AcDbEntity
  8
RACCORDO
100
AcDbSpline
 62
253
  6
CONTINUOUS
 70
0
 71
3
 72
25
 73
21
 74
19
 42
0.0000001
 43
0.0000001
 44
0.0000000001
 12
-0.2499937658
 22
0.0000000218
 32
0.0
 13
-0.2236309611
 23
0.1117411123
 33
0.0
 40
0.0
 40
0.0
 40
0.0
 40
0.0
 40
0.0861791631
 40
0.171730048
 40
0.2560039895
 40
0.3383724006
 40
0.418222787
 40
0.4949611118
 40
0.5680159081
 40
0.6368435074
 40
0.7009318566
 40
0.7598039122
 40
0.8130215938
 40
0.8601891323
 40
0.9009557414
 40
0.9350183032
 40
0.9621242864
 40
0.9820737109
 40
0.9947225516
 40
1.0
 40
1.0
 40
1.0
 40
1.0
 10
5.9016773996
 20
11.0254861488
 30
0.0
 10
5.8944959818
 20
11.0254861494
 30
0.0
 10
5.8801855007
 20
11.0254915195
 30
0.0
 10
5.8588523786
 20
11.0255156608
 30
0.0
 10
5.8378368355
 20
11.0255556946
 30
0.0
 10
5.8172963591
 20
11.0256113158
 30
0.0
 10
5.7973838855
 20
11.0256820994
 30
0.0
 10
5.778247591
 20
11.025767501
 30
0.0
 10
5.7600299213
 20
11.0258668691
 30
0.0
 10
5.74286648
 20
11.0259794096
 30
0.0
 10
5.7268850471
 20
11.0261043162
 30
0.0
 10
5.7122044678
 20
11.0262403377
 30
0.0
 10
5.6989343618
 20
11.0263871836
 30
0.0
 10
5.6871723821
 20
11.0265409987
 30
0.0
 10
5.6770094305
 20
11.0267082918
 30
0.0
 10
5.6685112743
 20
11.0268641438
 30
0.0
 10
5.6617681053
 20
11.0270700249
 30
0.0
 10
5.6567618424
 20
11.0271620118
 30
0.0
 10
5.6536738935
 20
11.0274762576
 30
0.0
 10
5.652108903
 20
11.0274332061
 30
0.0
 10
5.6517155028
 20
11.0276297754
 30
0.0
 11
5.9016773996
 21
11.0254861488
 31
0.0
 11
5.8801331476
 21
11.025494265
 31
0.0
 11
5.8587459735
 21
11.0255185585
 31
0.0
 11
5.8376780521
 21
11.0255588486
 31
0.0
 11
5.8170865389
 21
11.0256148354
 31
0.0
 11
5.7971245673
 21
11.0256861024
 31
0.0
 11
5.7779406574
 21
11.0257721194
 31
0.0
 11
5.7596776882
 21
11.0258722461
 31
0.0
 11
5.7424715917
 21
11.0259857372
 31
0.0
 11
5.7264503995
 21
11.0261117484
 31
0.0
 11
5.7117333958
 21
11.0262493414
 31
0.0
 11
5.6984301321
 21
11.026397492
 31
0.0
 11
5.6866395948
 21
11.0265550979
 31
0.0
 11
5.6764495469
 21
11.0267209861
 31
0.0
 11
5.667935875
 21
11.026893921
 31
0.0
 11
5.6611619047
 21
11.0270726159
 31
0.0
 11
5.6561780362
 21
11.0272557419
 31
0.0
 11
5.6530213912
 21
11.0274419329
 31
0.0
 11
5.6517155028
 21
11.0276297754
 31
0.0
  0
SPLINE
  5
289
100
AcDbEntity
  8
RACCORDO
100
AcDbSpline
 62
253
  6
CONTINUOUS
 70
0
 71
3
 72
25
 73
21
 74
19
 42
0.0000001
 43
0.0000001
 44
0.0000000001
 12
-0.2236309613
 22
-0.1117411119
 32
0.0
 13
-0.2499937658
 23
-0.0000000218
 33
0.0
 40
0.0
 40
0.0
 40
0.0
 40
0.0
 40
0.0052774484
 40
0.0179262891
 40
0.0378757136
 40
0.0649816968
 40
0.0990442586
 40
0.1398108677
 40
0.1869784062
 40
0.2401960877
 40
0.2990681434
 40
0.3631564926
 40
0.4319840919
 40
0.5050388882
 40
0.581777213
 40
0.6616275993
 40
0.7439960104
 40
0.828269952
 40
0.9138208368
 40
1.0
 40
1.0
 40
1.0
 40
1.0
 10
27.1245766423
 20
11.0276297754
 30
0.0
 10
27.124183242
 20
11.0274332061
 30
0.0
 10
27.1226182516
 20
11.0274762576
 30
0.0
 10
27.1195303027
 20
11.0271620118
 30
0.0
 10
27.1145240397
 20
11.0270700249
 30
0.0
 10
27.1077808708
 20
11.0268641438
 30
0.0
 10
27.0992827146
 20
11.0267082918
 30
0.0
 10
27.089119763
 20
11.0265409987
 30
0.0
 10
27.0773577833
 20
11.0263871836
 30
0.0
 10
27.0640876773
 20
11.0262403377
 30
0.0
 10
27.049407098
 20
11.0261043162
 30
0.0
 10
27.0334256651
 20
11.0259794096
 30
0.0
 10
27.0162622238
 20
11.0258668691
 30
0.0
 10
26.9980445541
 20
11.025767501
 30
0.0
 10
26.9789082595
 20
11.0256820994
 30
0.0
 10
26.958995786
 20
11.0256113158
 30
0.0
 10
26.9384553096
 20
11.0255556946
 30
0.0
 10
26.9174397665
 20
11.0255156608
 30
0.0
 10
26.8961066444
 20
11.0254915195
 30
0.0
 10
26.8817961633
 20
11.0254861494
 30
0.0
 10
26.8746147455
 20
11.0254861488
 30
0.0
 11
27.1245766423
 21
11.0276297754
 31
0.0
 11
27.1232707538
 21
11.0274419329
 31
0.0
 11
27.1201141089
 21
11.0272557419
 31
0.0
 11
27.1151302404
 21
11.0270726159
 31
0.0
 11
27.1083562701
 21
11.026893921
 31
0.0
 11
27.0998425982
 21
11.0267209861
 31
0.0
 11
27.0896525502
 21
11.0265550979
 31
0.0
 11
27.077862013
 21
11.026397492
 31
0.0
 11
27.0645587493
 21
11.0262493414
 31
0.0
 11
27.0498417456
 21
11.0261117484
 31
0.0
 11
27.0338205534
 21
11.0259857372
 31
0.0
 11
27.0166144569
 21
11.0258722461
 31
0.0
 11
26.9983514877
 21
11.0257721194
 31
0.0
 11
26.9791675778
 21
11.0256861024
 31
0.0
 11
26.9592056062
 21
11.0256148354
 31
0.0
 11
26.938614093
 21
11.0255588486
 31
0.0
 11
26.9175461715
 21
11.0255185585
 31
0.0
 11
26.8961589975
 21
11.025494265
 31
0.0
 11
26.8746147455
 21
11.0254861488
 31
0.0
  0
SPLINE
  5
28A
100
AcDbEntity
  8
RACCORDO
100
AcDbSpline
 62
253
  6
CONTINUOUS
 70
0
 71
3
 72
25
 73
21
 74
19
 42
0.0000001
 43
0.0000001
 44
0.0000000001
 12
-0.4823466307
 22
-0.131478543
 32
0.0
 13
-0.4999448764
 23
-0.000003511
 33
0.0
 40
0.0
 40
0.0
 40
0.0
 40
0.0
 40
0.0052411589
 40
0.0178760889
 40
0.0378182429
 40
0.0649201613
 40
0.0989807823
 40
0.1397469623
 40
0.1869152464
 40
0.2401346155
 40
0.2990091312
 40
0.363100606
 40
0.4319320024
 40
0.5049912072
 40
0.5817344857
 40
0.661590313
 40
0.7439645542
 40
0.8282448117
 40
0.9138016849
 40
1.0
 40
1.0
 40
1.0
 40
1.0
 10
27.3745386027
 20
10.7776393046
 30
0.0
 10
27.3736959176
 20
10.7774096046
 30
0.0
 10
27.3706677231
 20
10.7774891705
 30
0.0
 10
27.3644118875
 20
10.7771186557
 30
0.0
 10
27.354444889
 20
10.7770330677
 30
0.0
 10
27.3409400755
 20
10.7768020906
 30
0.0
 10
27.3239510834
 20
10.7766343042
 30
0.0
 10
27.3036228853
 20
10.7764507959
 30
0.0
 10
27.2801000085
 20
10.7762830699
 30
0.0
 10
27.2535598571
 20
10.7761225513
 30
0.0
 10
27.2241991975
 20
10.7759739339
 30
0.0
 10
27.1922367924
 20
10.775837385
 30
0.0
 10
27.1579104456
 20
10.7757143207
 30
0.0
 10
27.1214756443
 20
10.7756056101
 30
0.0
 10
27.0832035912
 20
10.7755121285
 30
0.0
 10
27.0433791651
 20
10.7754345881
 30
0.0
 10
27.0022986842
 20
10.7753735889
 30
0.0
 10
26.9602681115
 20
10.7753295946
 30
0.0
 10
26.9176002489
 20
10.7753029446
 30
0.0
 10
26.8889775398
 20
10.7752968838
 30
0.0
 10
26.8746127378
 20
10.775296783
 30
0.0
 11
27.3745386027
 21
10.7776393046
 31
0.0
 11
27.3719263388
 21
10.7774343662
 31
0.0
 11
27.3656128374
 21
10.7772312292
 31
0.0
 11
27.3556448628
 21
10.7770313846
 31
0.0
 11
27.3420968015
 21
10.7768363406
 31
0.0
 11
27.3250694152
 21
10.7766475422
 31
0.0
 11
27.3046893773
 21
10.7764663978
 31
0.0
 11
27.2811084637
 21
10.7762942573
 31
0.0
 11
27.2545022051
 21
10.776132404
 31
0.0
 11
27.2250685766
 21
10.7759820437
 31
0.0
 11
27.1930266683
 21
10.7758442977
 31
0.0
 11
27.1586149881
 21
10.7757201931
 31
0.0
 11
27.1220895773
 21
10.7756106552
 31
0.0
 11
27.0837222839
 21
10.7755165009
 31
0.0
 11
27.0437988485
 21
10.7754384328
 31
0.0
 11
27.0026163144
 21
10.7753770335
 31
0.0
 11
26.9604808548
 21
10.7753327594
 31
0.0
 11
26.9177071428
 21
10.7753059435
 31
0.0
 11
26.8746127378
 21
10.775296783
 31
0.0
  0
SPLINE
  5
28B
100
AcDbEntity
  8
RACCORDO
100
AcDbSpline
 62
253
  6
CONTINUOUS
 70
0
 71
3
 72
25
 73
21
 74
19
 42
0.0000001
 43
0.0000001
 44
0.0000000001
 12
-0.3383306659
 22
-0.3684547791
 32
0.0
 13
-0.5002264849
 23
-0.0001658683
 33
0.0
 40
0.0
 40
0.0
 40
0.0
 40
0.0
 40
0.0054728885
 40
0.0181985358
 40
0.0381894448
 40
0.0653182578
 40
0.0993910637
 40
0.1401581943
 40
0.1873184933
 40
0.2405224118
 40
0.2993749772
 40
0.3634389126
 40
0.4322379884
 40
0.5052606225
 40
0.5819637237
 40
0.6617767553
 40
0.7441059979
 40
0.8283389783
 40
0.9138490374
 40
1.0
 40
1.0
 40
1.0
 40
1.0
 10
27.3761097204
 20
1.682565237
 30
0.0
 10
27.3754925051
 20
1.6818930664
 30
0.0
 10
27.3720932079
 20
1.6816943014
 30
0.0
 10
27.3661070383
 20
1.6806458768
 30
0.0
 10
27.3559758637
 20
1.6800685911
 30
0.0
 10
27.3425341509
 20
1.6792407607
 30
0.0
 10
27.325518846
 20
1.6785287199
 30
0.0
 10
27.3051987404
 20
1.6778032178
 30
0.0
 10
27.2816726753
 20
1.6771223938
 30
0.0
 10
27.2551333863
 20
1.6764752115
 30
0.0
 10
27.2257724754
 20
1.675872862
 30
0.0
 10
27.1938102664
 20
1.6753184738
 30
0.0
 10
27.1594840423
 20
1.6748170181
 30
0.0
 10
27.123049433
 20
1.6743722576
 30
0.0
 10
27.0847775432
 20
1.6739876902
 30
0.0
 10
27.0449532206
 20
1.6736662612
 30
0.0
 10
27.0038728502
 20
1.6734104362
 30
0.0
 10
26.9618421716
 20
1.6732221663
 30
0.0
 10
26.9191739982
 20
1.6731028846
 30
0.0
 10
26.8905508706
 20
1.6730700002
 30
0.0
 10
26.8761858728
 20
1.673065237
 30
0.0
 11
27.3761097204
 21
1.682565237
 31
0.0
 11
27.3734973903
 21
1.6817463079
 31
0.0
 11
27.3671837927
 21
1.6809334737
 31
0.0
 11
27.3572159168
 21
1.680132784
 31
0.0
 11
27.3436679491
 21
1.679350198
 31
0.0
 11
27.3266407211
 21
1.6785915401
 31
0.0
 11
27.3062609588
 21
1.6778624566
 31
0.0
 11
27.2826803397
 21
1.6771683738
 31
0.0
 11
27.2560743638
 21
1.6765144575
 31
0.0
 11
27.2266410475
 21
1.6759055744
 31
0.0
 11
27.1945994499
 21
1.6753462562
 31
0.0
 11
27.1601880422
 21
1.6748406656
 31
0.0
 11
27.1236629331
 21
1.6743925656
 31
0.0
 11
27.0852959629
 21
1.6740052912
 31
0.0
 11
27.0453726796
 21
1.6736817246
 31
0.0
 11
27.0041902145
 21
1.673424274
 31
0.0
 11
26.9620550702
 21
1.6732348555
 31
0.0
 11
26.9192808398
 21
1.6731148788
 31
0.0
 11
26.8761858728
 21
1.673065237
 31
0.0
  0
SPLINE
  5
28C
100
AcDbEntity
  8
RACCORDO
100
AcDbSpline
 62
253
  6
CONTINUOUS
 70
0
 71
3
 72
25
 73
21
 74
19
 42
0.0000001
 43
0.0000001
 44
0.0000000001
 12
-0.0594304969
 22
-0.5107652911
 32
0.0
 13
-0.514209523
 23
-0.0013164489
 33
0.0
 40
0.0
 40
0.0
 40
0.0
 40
0.0
 40
0.0134252422
 40
0.0308241434
 40
0.0536957466
 40
0.0825895542
 40
0.1176421123
 40
0.1587869043
 40
0.2058367823
 40
0.2585206889
 40
0.3165025994
 40
0.3793928892
 40
0.4467562331
 40
0.5181178447
 40
0.5929689064
 40
0.670771614
 40
0.7509640519
 40
0.8329650076
 40
0.9161787798
 40
1.0
 40
1.0
 40
1.0
 40
1.0
 10
27.3931046595
 20
-9.8907330237
 30
0.0
 10
27.3928387033
 20
-9.8930187396
 30
0.0
 10
27.3905029126
 20
-9.8980427941
 30
0.0
 10
27.3836417542
 20
-9.9043251329
 30
0.0
 10
27.3734423222
 20
-9.910456966
 30
0.0
 10
27.3597843195
 20
-9.9164310157
 30
0.0
 10
27.3427230445
 20
-9.9222512063
 30
0.0
 10
27.3223459616
 20
-9.9278588623
 30
0.0
 10
27.2987930823
 20
-9.9332108106
 30
0.0
 10
27.2722313305
 20
-9.9382613534
 30
0.0
 10
27.2428547132
 20
-9.9429700735
 30
0.0
 10
27.2108794738
 20
-9.9472994513
 30
0.0
 10
27.1765422414
 20
-9.9512156343
 30
0.0
 10
27.1400977027
 20
-9.9546882533
 30
0.0
 10
27.101816548
 20
-9.9576905844
 30
0.0
 10
27.0619833206
 20
-9.9601996367
 30
0.0
 10
27.0208942432
 20
-9.9621962689
 30
0.0
 10
26.9788549316
 20
-9.9636652903
 30
0.0
 10
26.9361782377
 20
-9.9645955475
 30
0.0
 10
26.9075480352
 20
-9.9648515365
 30
0.0
 10
26.8931808119
 20
-9.9648883186
 30
0.0
 11
27.3931046595
 21
-9.8907330237
 31
0.0
 11
27.3904999675
 21
-9.8971261957
 31
0.0
 11
27.3841930467
 21
-9.9034717746
 31
0.0
 11
27.3742308484
 21
-9.9097225215
 31
0.0
 11
27.3606875347
 21
-9.9158319035
 31
0.0
 11
27.3436639272
 21
-9.92175444
 31
0.0
 11
27.3232867559
 21
-9.9274460416
 31
0.0
 11
27.2997077161
 21
-9.9328643379
 31
0.0
 11
27.2731023388
 21
-9.9379689929
 31
0.0
 11
27.2436686845
 21
-9.9427220058
 31
0.0
 11
27.2116258681
 21
-9.9470879934
 31
0.0
 11
27.1772124284
 21
-9.9510344536
 31
0.0
 11
27.1406845517
 21
-9.9545320076
 31
0.0
 11
27.1023141651
 21
-9.9575546181
 31
0.0
 11
27.0623869121
 21
-9.9600797839
 31
0.0
 11
27.0212000261
 21
-9.9620887066
 31
0.0
 11
26.9790601173
 21
-9.963566431
 31
0.0
 11
26.9362808911
 21
-9.9645019565
 31
0.0
 11
26.8931808119
 21
-9.9648883186
 31
0.0
  0
SPLINE
  5
28D
100
AcDbEntity
  8
RACCORDO
100
AcDbSpline
 62
253
  6
CONTINUOUS
 70
0
 71
3
 72
22
 73
18
 74
16
 42
0.0000001
 43
0.0000001
 44
0.0000000001
 12
-0.0021819181
 22
0.2500992079
 32
0.0
 13
0.2500992021
 23
0.0021825827
 33
0.0
 40
0.0
 40
0.0
 40
0.0
 40
0.0
 40
0.1044721433
 40
0.2077985737
 40
0.3088478077
 40
0.4065133318
 40
0.4997257402
 40
0.5874644721
 40
0.668769026
 40
0.7427495359
 40
0.8085966136
 40
0.8655903923
 40
0.9131087802
 40
0.9506351569
 40
0.9777666493
 40
0.9942297222
 40
1.0
 40
1.0
 40
1.0
 40
1.0
 10
-12.9029887975
 20
10.7776392946
 30
0.0
 10
-12.9030647807
 20
10.7863487614
 30
0.0
 10
-12.9032001581
 20
10.8036723231
 30
0.0
 10
-12.9033540176
 20
10.8294203861
 30
0.0
 10
-12.903456643
 20
10.8546012458
 30
0.0
 10
-12.9035069394
 20
10.8789390299
 30
0.0
 10
-12.9035044974
 20
10.9021672909
 30
0.0
 10
-12.9034492348
 20
10.9240310916
 30
0.0
 10
-12.9033426879
 20
10.9442926255
 30
0.0
 10
-12.9031838248
 20
10.9627244636
 30
0.0
 10
-12.9029826892
 20
10.9791422263
 30
0.0
 10
-12.9027181829
 20
10.9933125988
 30
0.0
 10
-12.9024648514
 20
11.0052367654
 30
0.0
 10
-12.9020368834
 20
11.0143582911
 30
0.0
 10
-12.9019188093
 20
11.0216302865
 30
0.0
 10
-12.9011551642
 20
11.0248083181
 30
0.0
 10
-12.901288377
 20
11.0276255773
 30
0.0
 10
-12.9008073297
 20
11.0276297754
 30
0.0
 11
-12.9029887975
 21
10.7776392946
 31
0.0
 11
-12.903192852
 21
10.8037678924
 31
0.0
 11
-12.9033468774
 21
10.8296102752
 31
0.0
 11
-12.9034491866
 21
10.8548833633
 31
0.0
 11
-12.9034986589
 21
10.879310313
 31
0.0
 11
-12.9034947523
 21
10.9026235493
 31
0.0
 11
-12.9034375097
 21
10.924567697
 31
0.0
 11
-12.903327558
 21
10.9449023781
 31
0.0
 11
-12.9031661017
 21
10.9634048447
 31
0.0
 11
-12.9029549094
 21
10.9798724192
 31
0.0
 11
-12.9026962945
 21
10.9941247145
 31
0.0
 11
-12.9023930899
 21
11.0060056096
 31
0.0
 11
-12.902048617
 21
11.0153849603
 31
0.0
 11
-12.9016666491
 21
11.0221600244
 31
0.0
 11
-12.9012513704
 21
11.0262565875
 31
0.0
 11
-12.9008073297
 21
11.0276297754
 31
0.0
  0
LINE
  5
28E
100
AcDbEntity
  8
RACCORDO
100
AcDbLine
 62
253
  6
CONTINUOUS
 10
-12.9029866994
 20
10.7776393046
 11
-13.3942608927
 21
10.775296783
  0
SPLINE
  5
28F
100
AcDbEntity
  8
RACCORDO
100
AcDbSpline
 62
253
  6
CONTINUOUS
 70
0
 71
3
 72
25
 73
21
 74
19
 42
0.0000001
 43
0.0000001
 44
0.0000000001
 12
-0.4859396777
 22
-0.0728981542
 32
0.0
 13
0.0728765828
 23
-0.4859429132
 33
0.0
 40
0.0
 40
0.0
 40
0.0
 40
0.0
 40
0.0876346849
 40
0.1744862496
 40
0.2599081434
 40
0.3432644587
 40
0.4239346651
 40
0.5013182294
 40
0.5748390859
 40
0.6439499256
 40
0.7081362707
 40
0.7669203055
 40
0.8198644346
 40
0.8665745424
 40
0.9067029312
 40
0.9399509177
 40
0.9660710762
 40
0.9848691389
 40
0.9962056956
 40
1.0
 40
1.0
 40
1.0
 40
1.0
 10
-11.8393380179
 20
-9.8907330237
 30
0.0
 10
-11.8535330748
 20
-9.8928624926
 30
0.0
 10
-11.8817958669
 20
-9.8971055474
 30
0.0
 10
-11.9238936332
 20
-9.9034353191
 30
0.0
 10
-11.9652969859
 20
-9.9096704559
 30
0.0
 10
-12.0056977055
 20
-9.9157645351
 30
0.0
 10
-12.0447950284
 20
-9.9216721876
 30
0.0
 10
-12.0822979254
 20
-9.9273494089
 30
0.0
 10
-12.1179271291
 20
-9.932753976
 30
0.0
 10
-12.1514176935
 20
-9.9378454489
 30
0.0
 10
-12.1825193392
 20
-9.9425865234
 30
0.0
 10
-12.211003734
 20
-9.9469397921
 30
0.0
 10
-12.2366485449
 20
-9.9508794577
 30
0.0
 10
-12.2592951605
 20
-9.9543551553
 30
0.0
 10
-12.2786773073
 20
-9.9574041868
 30
0.0
 10
-12.29493312
 20
-9.9598204252
 30
0.0
 10
-12.3071773294
 20
-9.9620807911
 30
0.0
 10
-12.3171914222
 20
-9.9629526535
 30
0.0
 10
-12.3210529885
 20
-9.9649198091
 30
0.0
 10
-12.3251743845
 20
-9.9642737135
 30
0.0
 10
-12.3250822125
 20
-9.9648883186
 30
0.0
 11
-11.8393380179
 21
-9.8907330237
 31
0.0
 11
-11.8819224733
 21
-9.8971261957
 31
0.0
 11
-11.924124953
 21
-9.9034717746
 31
0.0
 11
-11.965631286
 21
-9.9097225215
 31
0.0
 11
-12.0061324838
 21
-9.9158319035
 31
0.0
 11
-12.0453270404
 21
-9.92175444
 31
0.0
 11
-12.0829231769
 21
-9.9274460416
 31
0.0
 11
-12.1186410137
 21
-9.9328643379
 31
0.0
 11
-12.1522146539
 21
-9.9379689929
 31
0.0
 11
-12.183394163
 21
-9.9427220058
 31
0.0
 11
-12.211947429
 21
-9.9470879934
 31
0.0
 11
-12.2376618909
 21
-9.9510344536
 31
0.0
 11
-12.2603461205
 21
-9.9545320076
 31
0.0
 11
-12.2798312481
 21
-9.9575546181
 31
0.0
 11
-12.2959722191
 21
-9.9600797839
 31
0.0
 11
-12.3086488742
 21
-9.9620887066
 31
0.0
 11
-12.3177668436
 21
-9.963566431
 31
0.0
 11
-12.3232582497
 21
-9.9645019565
 31
0.0
 11
-12.3250822125
 21
-9.9648883186
 31
0.0
  0
SPLINE
  5
290
100
AcDbEntity
  8
RACCORDO
100
AcDbSpline
 62
253
  6
CONTINUOUS
 70
0
 71
3
 72
25
 73
21
 74
19
 42
0.0000001
 43
0.0000001
 44
0.0000000001
 12
-0.0261520944
 22
-0.4991637263
 32
0.0
 13
0.4991633099
 23
-0.0261600406
 33
0.0
 40
0.0
 40
0.0
 40
0.0
 40
0.0
 40
0.0871281388
 40
0.1735872093
 40
0.2587201775
 40
0.3418800998
 40
0.4224350473
 40
0.499772917
 40
0.5733060948
 40
0.6424759367
 40
0.7067570364
 40
0.7656612515
 40
0.8187414672
 40
0.8655950871
 40
0.9058672674
 40
0.9392539774
 40
0.9655051829
 40
0.9844293395
 40
0.9959059158
 40
1.0
 40
1.0
 40
1.0
 40
1.0
 10
-11.3710355805
 20
-10.3158924935
 30
0.0
 10
-11.3717951083
 20
-10.3303895623
 30
0.0
 10
-11.3732864502
 20
-10.3592735263
 30
0.0
 10
-11.3754434587
 20
-10.402326492
 30
0.0
 10
-11.3775011499
 20
-10.4447223852
 30
0.0
 10
-11.3794439134
 20
-10.4861389239
 30
0.0
 10
-11.3812570263
 20
-10.526261266
 30
0.0
 10
-11.3829267814
 20
-10.5647844297
 30
0.0
 10
-11.3844405581
 20
-10.6014155125
 30
0.0
 10
-11.3857870704
 20
-10.6358762638
 30
0.0
 10
-11.3869559995
 20
-10.6679040281
 30
0.0
 10
-11.387939683
 20
-10.6972576532
 30
0.0
 10
-11.3887280938
 20
-10.7237065799
 30
0.0
 10
-11.3893253828
 20
-10.7470731346
 30
0.0
 10
-11.3896997426
 20
-10.7671090724
 30
0.0
 10
-11.3899331689
 20
-10.7838668363
 30
0.0
 10
-11.3898053108
 20
-10.7966655865
 30
0.0
 10
-11.389877968
 20
-10.8067712193
 30
0.0
 10
-11.3890525718
 20
-10.8113182152
 30
0.0
 10
-11.389158561
 20
-10.8151715604
 30
0.0
 10
-11.3884773554
 20
-10.8152072609
 30
0.0
 11
-11.3710355805
 21
-10.3158924935
 31
0.0
 11
-11.3732810867
 21
-10.3593854203
 31
0.0
 11
-11.3754431886
 21
-10.4025477242
 31
0.0
 11
-11.3775054503
 21
-10.4450512958
 31
0.0
 11
-11.3794521952
 21
-10.486573033
 31
0.0
 11
-11.3812686245
 21
-10.5267972976
 31
0.0
 11
-11.38294093
 21
-10.5654183141
 31
0.0
 11
-11.3844563995
 21
-10.602142495
 31
0.0
 11
-11.3858035126
 21
-10.6366906717
 31
0.0
 11
-11.3869720288
 21
-10.6688002174
 31
0.0
 11
-11.3879530655
 21
-10.6982270427
 31
0.0
 11
-11.388739165
 21
-10.7247474522
 31
0.0
 11
-11.3893243515
 21
-10.7481598439
 31
0.0
 11
-11.3897041767
 21
-10.7682862425
 31
0.0
 11
-11.3898757532
 21
-10.7849736518
 31
0.0
 11
-11.3898377766
 21
-10.7980952182
 31
0.0
 11
-11.3895905358
 21
-10.8075511947
 31
0.0
 11
-11.38913591
 21
-10.8132696992
 31
0.0
 11
-11.3884773554
 21
-10.8152072609
 31
0.0
  0
ELLIPSE
  5
291
100
AcDbEntity
  8
RACCORDO
100
AcDbEllipse
 62
7
  6
CONTINUOUS
 10
20.3536161264
 20
-10.9563968706
 30
0.0
 11
0.2
 21
0.0
 31
0.0
 40
0.0524077793
 41
1.5707963268
 42
2.617993878
  0
ELLIPSE
  5
292
100
AcDbEntity
  8
RACCORDO
100
AcDbEllipse
 62
7
  6
CONTINUOUS
 10
23.6226760187
 20
-10.9563968706
 30
0.0
 11
0.2
 21
0.0
 31
0.0
 40
0.0524077793
 41
0.5235987756
 42
1.5707963268
  0
ELLIPSE
  5
293
100
AcDbEntity
  8
RACCORDO
100
AcDbEllipse
 62
7
  6
CONTINUOUS
 10
12.4226760187
 20
-10.9563968706
 30
0.0
 11
0.2
 21
0.0
 31
0.0
 40
0.0524077793
 41
0.5235987756
 42
1.5707963268
  0
ELLIPSE
  5
294
100
AcDbEntity
  8
RACCORDO
100
AcDbEllipse
 62
7
  6
CONTINUOUS
 10
9.1536161264
 20
-10.9563968706
 30
0.0
 11
0.2
 21
-0.0
 31
0.0
 40
0.0524077793
 41
1.5707963268
 42
2.617993878
  0
ELLIPSE
  5
295
100
AcDbEntity
  8
RACCORDO
100
AcDbEllipse
 62
7
  6
CONTINUOUS
 10
26.9880699085
 20
-10.57624859
 30
0.0
 11
-0.1582391023
 21
0.4751033573
 31
0.0
 40
0.9984778551
 41
-3.4626430041
 42
-1.8927600658
  0
ELLIPSE
  5
296
100
AcDbEntity
  8
RACCORDO
100
AcDbEllipse
 62
7
  6
CONTINUOUS
 10
5.7882222366
 20
-10.57624859
 30
0.0
 11
0.1582391023
 21
0.4751033573
 31
0.0
 40
0.9984778551
 41
-4.3904252414
 42
-2.8205423031
  0
ELLIPSE
  5
297
100
AcDbEntity
  8
RACCORDO
100
AcDbEllipse
 62
7
  6
CONTINUOUS
 10
5.5783308039
 20
10.8143288496
 30
0.0
 11
0.2236527791
 21
-0.1118178731
 31
0.0
 40
0.9998096356
 41
2.0344896259
 42
3.6051336537
  0
ELLIPSE
  5
298
100
AcDbEntity
  8
RACCORDO
100
AcDbEllipse
 62
7
  6
CONTINUOUS
 10
27.1979613412
 20
10.8143288496
 30
0.0
 11
0.2236527791
 21
0.1118178731
 31
0.0
 40
0.9998096356
 41
-0.4635410001
 42
1.1071030276
  0
ENDSEC
  0
SECTION
  2
OBJECTS
  0
DICTIONARY
  5
C
100
AcDbDictionary
280
0
281
1
  3
ACAD_GROUP
350
D
  3
ACAD_MLINESTYLE
350
17
  3
ACAD_LAYOUT
350
1A
  3
ACAD_PLOTSETTINGS
350
19
  3
ACAD_PLOTSTYLENAME
350
E
  0
DICTIONARY
  5
D
102
{ACAD_REACTORS
330
C
102
}
100
AcDbDictionary
280
0
281
1
  0
ACDBDICTIONARYWDFLT
  5
E
102
{ACAD_REACTORS
330
C
102
}
100
AcDbDictionary
281
1
  3
Normal
350
F
100
AcDbDictionaryWithDefault
340
F
  0
DICTIONARY
  5
17
102
{ACAD_REACTORS
330
C
102
}
100
AcDbDictionary
280
0
281
1
  3
Standard
350
18
  0
DICTIONARY
  5
19
102
{ACAD_REACTORS
330
C
102
}
100
AcDbDictionary
281
1
  0
DICTIONARY
  5
1A
102
{ACAD_REACTORS
330
C
102
}
100
AcDbDictionary
281
1
  3
Model
350
299
  3
Layout1
350
29A
  0
ACDBPLACEHOLDER
  5
F
102
{ACAD_REACTORS
330
E
102
}
  0
MLINESTYLE
  5
18
102
{ACAD_REACTORS
330
17
102
}
100
AcDbMlineStyle
  2
STANDARD
 70
0
  3

 62
256
 51
90.0
 52
90.0
 71
2
 49
0.5
 62
256
  6
BYLAYER
 49
-0.5
 62
256
  6
BYLAYER
  0
LAYOUT
  5
299
102
{ACAD_REACTORS
330
1A
102
}
100
AcDbPlotSettings
  1

  2
none_device
  4
ISO_A4_(297.00_x_210.00_MM)
  6

 40
0.0
 41
0.0
 42
0.0
 43
0.0
 44
297.0
 45
210.0
 46
0.0
 47
0.0
 48
0.0
 49
0.0
140
0.0
141
0.0
142
1.0
143
1.0
 70
1024
 72
1
 73
0
 74
0
  7

 75
0
147
1.0
148
0.0
149
0.0
100
AcDbLayout
  1
Model
 70
0
 71
0
 10
0.0
 20
0.0
 11
297.0
 21
210.0
 12
0.0
 22
0.0
 32
0.0
 14
0.0
 24
0.0
 34
0.0
 15
0.0
 25
0.0
 35
0.0
146
0.0
 13
0.0
 23
0.0
 33
0.0
 16
1.0
 26
0.0
 36
0.0
 17
0.0
 27
1.0
 37
0.0
 76
0
330
210
345
0
346
0
  0
LAYOUT
  5
29A
102
{ACAD_REACTORS
330
1A
102
}
100
AcDbPlotSettings
  1

  2
none_device
  4
ISO_A4_(297.00_x_210.00_MM)
  6

 40
0.0
 41
0.0
 42
0.0
 43
0.0
 44
297.0
 45
210.0
 46
0.0
 47
0.0
 48
0.0
 49
0.0
140
0.0
141
0.0
142
1.0
143
1.0
 70
0
 72
1
 73
0
 74
0
  7

 75
0
147
1.0
148
0.0
149
0.0
100
AcDbLayout
  1
Layout1
 70
0
 71
1
 10
0.0
 20
0.0
 11
297.0
 21
210.0
 12
0.0
 22
0.0
 32
0.0
 14
0.0
 24
0.0
 34
0.0
 15
0.0
 25
0.0
 35
0.0
146
0.0
 13
0.0
 23
0.0
 33
0.0
 16
1.0
 26
0.0
 36
0.0
 17
0.0
 27
1.0
 37
0.0
 76
0
330
211
345
0
346
0
  0
ENDSEC
  0
EOF
