  0
SECTION
  2
HEADER
  9
$ACADVER
  1
AC1015
  9
$DWGCODEPAGE
  3
ANSI_1252
  9
$EXTMAX
 10
297.0
 20
210.0
 30
0.0
  9
$EXTMIN
 10
0.0
 20
0.0
 30
0.0
  9
$LIMMIN
 10
0.0
 20
0.0
  9
$LIMMAX
 10
297.0
 20
210.0
  9
$VIEWCTR
 10
148.5
 20
105.0
  9
$VIEWSIZE
 40
210.0
  9
$CLAYER
  8
0
  9
$LTSCALE
 40
16.335
  9
$CELTYPE
  6
BYLAYER
  9
$DIMSCALE
 40
1.0
  9
$DIMASZ
 40
3.0
  9
$DIMEXO
 40
1.85625
  9
$DIMDLI
 40
11.286
  9
$DIMEXE
 40
5.346
  9
$DIMCEN
 40
2.673
  9
$DIMLFAC
 40
1.0
  9
$DIMBLK
  1
_FILLED
  9
$DIMTXT
 40
3.0
  9
$DIMTOL
 70
1
  9
$DIMLIM
 70
0
  9
$DIMTFAC
 40
1.0
  9
$DIMTP
 40
0.01
  9
$DIMTM
 40
0.01
  9
$PDMODE
 70
3
  9
$PDSIZE
 40
3.0
  9
$HANDSEED
  5
2A6
  9
$TILEMODE
 70
1
  9
$MEASUREMENT
 70
1
  9
$INSUNITS
 70
4
  0
ENDSEC
  0
SECTION
  2
CLASSES
  0
CLASS
  1
ACDBDICTIONARYWDFLT
  2
AcDbDictionaryWithDefault
  3
AutoCAD 2000
 90
0
280
0
281
0
  0
CLASS
  1
ACDBPLACEHOLDER
  2
AcDbPlaceHolder
  3
AutoCAD 2000
 90
0
280
0
281
0
  0
CLASS
  1
LAYOUT
  2
AcDbLayout
  3
AutoCAD 2000
 90
0
280
0
281
0
  0
ENDSEC
  0
SECTION
  2
TABLES
  0
TABLE
  2
VPORT
  5
8
100
AcDbSymbolTable
 70
2
  0
VPORT
  5
1F4
100
AcDbSymbolTableRecord
100
AcDbViewportTableRecord
  2
*ACTIVE
 70
0
 10
0.0
 20
0.0
 11
1.0
 21
1.0
 12
148.5
 22
105.0
 13
0.0
 23
0.0
 14
1.0
 24
1.0
 15
0.0
 25
0.0
 16
0.0
 26
0.0
 36
1.0
 17
0.0
 27
0.0
 37
0.0
 40
210.0
 41
1.4142857143
 42
50.0
 43
0.0
 44
0.0
 50
0.0
 51
0.0
 71
0
 72
100
 73
1
 74
1
 75
0
 76
0
 77
0
 78
0
  0
ENDTAB
  0
TABLE
  2
LTYPE
  5
5
100
AcDbSymbolTable
 70
6
  0
LTYPE
  5
14
100
AcDbSymbolTableRecord
100
AcDbLinetypeTableRecord
  2
BYBLOCK
 70
0
  3

 72
65
 73
0
 40
0.0
  0
LTYPE
  5
15
100
AcDbSymbolTableRecord
100
AcDbLinetypeTableRecord
  2
BYLAYER
 70
0
  3

 72
65
 73
0
 40
0.0
  0
LTYPE
  5
16
100
AcDbSymbolTableRecord
100
AcDbLinetypeTableRecord
  2
CONTINUOUS
 70
64
  3
Solid line
 72
65
 73
0
 40
0.0
  0
LTYPE
  5
1F5
100
AcDbSymbolTableRecord
100
AcDbLinetypeTableRecord
  2
CENTER
 70
64
  3
____ _ ____ _ ____ _ ____ _ ____ _ ____ _ ____
 72
65
 73
4
 40
0.6
 49
0.375
 74
0
 49
-0.075
 74
0
 49
0.075
 74
0
 49
-0.075
 74
0
  0
LTYPE
  5
1F6
100
AcDbSymbolTableRecord
100
AcDbLinetypeTableRecord
  2
HIDDEN
 70
64
  3
- - - - - - - - - - - - - - - - - - - -
 72
65
 73
2
 40
0.2
 49
0.1
 74
0
 49
-0.1
 74
0
  0
LTYPE
  5
1F7
100
AcDbSymbolTableRecord
100
AcDbLinetypeTableRecord
  2
PHANTOM
 70
64
  3
_____ _ _ _____ _ _ _____ _ _ _____
 72
65
 73
6
 40
0.8
 49
0.45
 74
0
 49
-0.05
 74
0
 49
0.1
 74
0
 49
-0.05
 74
0
 49
0.1
 74
0
 49
-0.05
 74
0
  0
LTYPE
  5
1F8
100
AcDbSymbolTableRecord
100
AcDbLinetypeTableRecord
  2
DOT
 70
64
  3
. . . . . . . . . . . . . . . . . . . .
 72
65
 73
2
 40
0.2
 49
0.1
 74
0
 49
-0.1
 74
0
  0
LTYPE
  5
1F9
100
AcDbSymbolTableRecord
100
AcDbLinetypeTableRecord
  2
DASHED
 70
64
  3
- - - - - - - - - - - - - - - - - - - -
 72
65
 73
2
 40
0.2
 49
0.1
 74
0
 49
-0.1
 74
0
  0
ENDTAB
  0
TABLE
  2
LAYER
  5
2
100
AcDbSymbolTable
 70
36
  0
LAYER
  5
10
100
AcDbSymbolTableRecord
100
AcDbLayerTableRecord
  2
0
 70
0
 62
7
  6
CONTINUOUS
370
-3
390
F
  0
LAYER
  5
1FA
100
AcDbSymbolTableRecord
100
AcDbLayerTableRecord
  2
DEFAULT_1
 70
0
 62
7
  6
CENTER
370
-3
390
F
  0
LAYER
  5
1FB
100
AcDbSymbolTableRecord
100
AcDbLayerTableRecord
  2
DEFAULT_2
 70
0
 62
7
  6
HIDDEN
370
-3
390
F
  0
LAYER
  5
1FC
100
AcDbSymbolTableRecord
100
AcDbLayerTableRecord
  2
DEFAULT_3
 70
0
 62
7
  6
PHANTOM
370
-3
390
F
  0
LAYER
  5
1FD
100
AcDbSymbolTableRecord
100
AcDbLayerTableRecord
  2
ASSI
 70
0
 62
7
  6
CONTINUOUS
370
-3
390
F
  0
LAYER
  5
1FE
100
AcDbSymbolTableRecord
100
AcDbLayerTableRecord
  2
COLORE_MATERIALE
 70
0
 62
7
  6
CONTINUOUS
370
-3
390
F
  0
LAYER
  5
1FF
100
AcDbSymbolTableRecord
100
AcDbLayerTableRecord
  2
COORDINATE
 70
0
 62
7
  6
CONTINUOUS
370
-3
390
F
  0
LAYER
  5
200
100
AcDbSymbolTableRecord
100
AcDbLayerTableRecord
  2
COORD_ORIGINE
 70
0
 62
7
  6
CONTINUOUS
370
-3
390
F
  0
LAYER
  5
201
100
AcDbSymbolTableRecord
100
AcDbLayerTableRecord
  2
COPY
 70
0
 62
7
  6
CONTINUOUS
370
-3
390
F
  0
LAYER
  5
202
100
AcDbSymbolTableRecord
100
AcDbLayerTableRecord
  2
CURVE
 70
0
 62
7
  6
CONTINUOUS
370
-3
390
F
  0
LAYER
  5
203
100
AcDbSymbolTableRecord
100
AcDbLayerTableRecord
  2
DRAFT
 70
0
 62
7
  6
CONTINUOUS
370
-3
390
F
  0
LAYER
  5
204
100
AcDbSymbolTableRecord
100
AcDbLayerTableRecord
  2
IGS
 70
0
 62
7
  6
CONTINUOUS
370
-3
390
F
  0
LAYER
  5
205
100
AcDbSymbolTableRecord
100
AcDbLayerTableRecord
  2
PIANI
 70
0
 62
7
  6
CONTINUOUS
370
-3
390
F
  0
LAYER
  5
206
100
AcDbSymbolTableRecord
100
AcDbLayerTableRecord
  2
PIANI_ORIGINE
 70
0
 62
7
  6
CONTINUOUS
370
-3
390
F
  0
LAYER
  5
207
100
AcDbSymbolTableRecord
100
AcDbLayerTableRecord
  2
PIANI_RIFERIMENTO
 70
0
 62
7
  6
CONTINUOUS
370
-3
390
F
  0
LAYER
  5
208
100
AcDbSymbolTableRecord
100
AcDbLayerTableRecord
  2
RACCORDO
 70
0
 62
7
  6
CONTINUOUS
370
-3
390
F
  0
LAYER
  5
209
100
AcDbSymbolTableRecord
100
AcDbLayerTableRecord
  2
SMUSSO
 70
0
 62
7
  6
CONTINUOUS
370
-3
390
F
  0
LAYER
  5
20A
100
AcDbSymbolTableRecord
100
AcDbLayerTableRecord
  2
SNAPLINE
 70
0
 62
7
  6
CONTINUOUS
370
-3
390
F
  0
LAYER
  5
20B
100
AcDbSymbolTableRecord
100
AcDbLayerTableRecord
  2
SUPERFICI
 70
0
 62
7
  6
CONTINUOUS
370
-3
390
F
  0
LAYER
  5
20C
100
AcDbSymbolTableRecord
100
AcDbLayerTableRecord
  2
TRASH
 70
0
 62
7
  6
CONTINUOUS
370
-3
390
F
  0
ENDTAB
  0
TABLE
  2
STYLE
  5
3
100
AcDbSymbolTable
 70
1
  0
STYLE
  5
11
100
AcDbSymbolTableRecord
100
AcDbTextStyleTableRecord
  2
STANDARD
 70
0
 40
0.0
 41
0.8
 50
0.0
 71
0
 42
0.2
  3
txt
  4

  0
STYLE
  5
20D
100
AcDbSymbolTableRecord
100
AcDbTextStyleTableRecord
  2
TEXTSTYLE_1
 70
0
 40
0.0
 41
0.8
 50
0.0
 71
0
 42
0.2
  3
gdt
  4

  0
ENDTAB
  0
TABLE
  2
VIEW
  5
6
100
AcDbSymbolTable
 70
0
  0
ENDTAB
  0
TABLE
  2
UCS
  5
7
100
AcDbSymbolTable
 70
0
  0
ENDTAB
  0
TABLE
  2
APPID
  5
9
100
AcDbSymbolTable
 70
1
  0
APPID
  5
20E
100
AcDbSymbolTableRecord
100
AcDbRegAppTableRecord
  2
ACAD
 70
0
  0
ENDTAB
  0
TABLE
  2
BLOCK_RECORD
  5
1
100
AcDbSymbolTable
 70
0
  0
BLOCK_RECORD
  5
20F
100
AcDbSymbolTableRecord
100
AcDbBlockTableRecord
  2
*Model_Space
  0
BLOCK_RECORD
  5
210
100
AcDbSymbolTableRecord
100
AcDbBlockTableRecord
  2
*Paper_Space
  0
BLOCK_RECORD
  5
211
100
AcDbSymbolTableRecord
100
AcDbBlockTableRecord
  2
_FILLED
  0
BLOCK_RECORD
  5
212
100
AcDbSymbolTableRecord
100
AcDbBlockTableRecord
  2
*D0
  0
BLOCK_RECORD
  5
213
100
AcDbSymbolTableRecord
100
AcDbBlockTableRecord
  2
*D1
  0
BLOCK_RECORD
  5
214
100
AcDbSymbolTableRecord
100
AcDbBlockTableRecord
  2
*D2
  0
ENDTAB
  0
TABLE
  2
DIMSTYLE
  5
A
100
AcDbSymbolTable
 70
1
100
AcDbDimStyleTable
 71
0
  0
DIMSTYLE
105
215
100
AcDbSymbolTableRecord
100
AcDbDimStyleTableRecord
  2
STANDARD
 70
0
  3

  4

 40
1.0
 41
3.0
 42
0.0625
 43
0.38
 44
0.18
 45
0.0
 46
0.0
 47
0.01
 48
0.01
140
3.0
141
0.09
142
0.0
143
25.4
144
1.0
145
0.0
146
1.0
147
0.09
 71
1.0
 72
0.0
 73
0
 74
0
 75
0
 76
0
 77
1
 78
8
170
0
171
2
172
0
173
0
174
0
175
0
176
0
177
0
178
0
270
2
271
2
272
2
273
2
274
2
275
0
280
0
281
0
282
0
283
1
284
8
285
0
286
0
287
3
288
0
340
11
341
211
342
211
343
211
344
211
  0
DIMSTYLE
105
216
100
AcDbSymbolTableRecord
100
AcDbDimStyleTableRecord
  2
DIMSTYLE_1
 70
0
  3

  4

 40
1.0
 41
3.0
 42
0.0625
 43
0.38
 44
0.18
 45
0.0
 46
0.0
 47
0.0
 48
0.0
140
3.0
141
0.09
142
0.0
143
25.4
144
1.0
145
0.0
146
1.0
147
0.09
 71
0.0
 72
0.0
 73
0
 74
0
 75
0
 76
0
 77
1
 78
8
170
0
171
2
172
0
173
0
174
0
175
0
176
0
177
0
178
0
270
2
271
2
272
2
273
2
274
2
275
0
280
0
281
0
282
0
283
1
284
8
285
0
286
0
287
3
288
0
340
11
341
211
342
211
343
211
344
211
  0
DIMSTYLE
105
217
100
AcDbSymbolTableRecord
100
AcDbDimStyleTableRecord
  2
DIMSTYLE_2
 70
0
  3

  4

 40
1.0
 41
3.0
 42
0.0625
 43
0.38
 44
0.18
 45
0.0
 46
0.0
 47
0.0
 48
0.0
140
3.0
141
0.09
142
0.0
143
25.4
144
1.0
145
0.0
146
1.0
147
0.09
 71
0.0
 72
0.0
 73
0
 74
0
 75
0
 76
0
 77
1
 78
8
170
0
171
2
172
0
173
0
174
0
175
0
176
0
177
0
178
0
270
2
271
1
272
1
273
2
274
2
275
0
280
0
281
0
282
0
283
1
284
8
285
0
286
0
287
3
288
0
340
11
341
211
342
211
343
211
344
211
  0
ENDTAB
  0
ENDSEC
  0
SECTION
  2
BLOCKS
  0
BLOCK
  5
20
100
AcDbEntity
  8
0
100
AcDbBlockBegin
  2
*Model_Space
 70
0
 10
0.0
 20
0.0
 30
0.0
  3
*Model_Space
  1

  0
ENDBLK
  5
21
100
AcDbEntity
  8
0
100
AcDbBlockEnd
  0
BLOCK
  5
1C
100
AcDbEntity
  8
0
100
AcDbBlockBegin
  2
*Paper_Space
 70
0
 10
0.0
 20
0.0
 30
0.0
  3
*Paper_Space
  1

  0
ENDBLK
  5
1D
100
AcDbEntity
  8
0
100
AcDbBlockEnd
  0
BLOCK
  5
218
100
AcDbEntity
  8
0
100
AcDbBlockBegin
  2
_FILLED
 70
64
 10
0.0
 20
0.0
  3
_FILLED
  1

  0
SOLID
  5
219
100
AcDbEntity
  8
0
  6
BYBLOCK
 62
0
100
AcDbTrace
 10
0.0
 20
0.0
 11
-1.0
 21
0.3166666667
 12
-1.0
 22
-0.3166666667
 13
-1.0
 23
-0.3166666667
  0
ENDBLK
  5
21A
100
AcDbEntity
  8
0
  6
BYBLOCK
 62
0
100
AcDbBlockEnd
  0
BLOCK
  5
21B
100
AcDbEntity
  8
0
100
AcDbBlockBegin
 62
7
  6
CONTINUOUS
  2
*D0
 70
65
 10
0.0
 20
0.0
  3
*D0
  1

  0
MTEXT
  5
21C
100
AcDbEntity
  8
0
100
AcDbMText
 62
7
  6
CONTINUOUS
  7
STANDARD
 71
2
 72
1
 10
14.9025066667
 20
22.8244143439
 30
0.0
 11
1.0
 21
0.0
 31
0.0
 44
0.9
  1
44,7
 40
3.0
 41
8.7857142857
  0
LINE
  5
21D
100
AcDbEntity
  8
0
100
AcDbLine
 62
7
  6
CONTINUOUS
 10
37.2525066667
 20
7.5429945623
 11
37.2525066667
 21
20.5744143439
  0
LINE
  5
21E
100
AcDbEntity
  8
0
100
AcDbLine
 62
7
  6
CONTINUOUS
 10
-7.4474933333
 20
7.5429945623
 11
-7.4474933333
 21
20.5744143439
  0
LINE
  5
21F
100
AcDbEntity
  8
0
100
AcDbLine
 62
7
  6
CONTINUOUS
 10
37.2525066667
 20
19.0744143439
 11
14.9025066667
 21
19.0744143439
  0
LINE
  5
220
100
AcDbEntity
  8
0
100
AcDbLine
 62
7
  6
CONTINUOUS
 10
-7.4474933333
 20
19.0744143439
 11
14.9025066667
 21
19.0744143439
  0
INSERT
  5
221
100
AcDbEntity
  8
0
100
AcDbBlockReference
 62
7
  6
CONTINUOUS
  2
_FILLED
 10
37.2525066667
 20
19.0744143439
 41
3.0
 42
3.0
 43
3.0
 50
360.0
  0
INSERT
  5
222
100
AcDbEntity
  8
0
100
AcDbBlockReference
 62
7
  6
CONTINUOUS
  2
_FILLED
 10
-7.4474933333
 20
19.0744143439
 41
3.0
 42
3.0
 43
3.0
 50
180.0
  0
ENDBLK
  5
223
100
AcDbEntity
  8
0
  6
BYBLOCK
 62
0
100
AcDbBlockEnd
  0
BLOCK
  5
224
100
AcDbEntity
  8
0
100
AcDbBlockBegin
 62
7
  6
CONTINUOUS
  2
*D1
 70
65
 10
0.0
 20
0.0
  3
*D1
  1

  0
MTEXT
  5
225
100
AcDbEntity
  8
0
100
AcDbMText
 62
7
  6
CONTINUOUS
  7
STANDARD
 71
2
 72
1
 10
41.5025066667
 20
0.0037777778
 30
0.0
 11
0.0
 21
1.0
 31
0.0
 44
0.9
  1
22,1
 40
3.0
 41
8.1428571429
  0
LINE
  5
226
100
AcDbEntity
  8
0
100
AcDbLine
 62
7
  6
CONTINUOUS
 10
37.4623600159
 20
11.0744143439
 11
46.7525066667
 21
11.0744143439
  0
LINE
  5
227
100
AcDbEntity
  8
0
100
AcDbLine
 62
7
  6
CONTINUOUS
 10
37.2528872664
 20
-11.0668587883
 11
46.7525066667
 21
-11.0668587883
  0
LINE
  5
228
100
AcDbEntity
  8
0
100
AcDbLine
 62
7
  6
CONTINUOUS
 10
45.2525066667
 20
11.0744143439
 11
45.2525066667
 21
0.0037777778
  0
LINE
  5
229
100
AcDbEntity
  8
0
100
AcDbLine
 62
7
  6
CONTINUOUS
 10
45.2525066667
 20
-11.0668587883
 11
45.2525066667
 21
0.0037777778
  0
INSERT
  5
22A
100
AcDbEntity
  8
0
100
AcDbBlockReference
 62
7
  6
CONTINUOUS
  2
_FILLED
 10
45.2525066667
 20
11.0744143439
 41
3.0
 42
3.0
 43
3.0
 50
90.0
  0
INSERT
  5
22B
100
AcDbEntity
  8
0
100
AcDbBlockReference
 62
7
  6
CONTINUOUS
  2
_FILLED
 10
45.2525066667
 20
-11.0668587883
 41
3.0
 42
3.0
 43
3.0
 50
270.0
  0
ENDBLK
  5
22C
100
AcDbEntity
  8
0
  6
BYBLOCK
 62
0
100
AcDbBlockEnd
  0
BLOCK
  5
22D
100
AcDbEntity
  8
0
100
AcDbBlockBegin
 62
7
  6
CONTINUOUS
  2
*D2
 70
65
 10
0.0
 20
0.0
  3
*D2
  1

  0
MTEXT
  5
22E
100
AcDbEntity
  8
0
100
AcDbMText
 62
7
  6
CONTINUOUS
  7
STANDARD
 71
2
 72
1
 10
-25.76361216
 20
22.8244143439
 30
0.0
 11
1.0
 21
0.0
 31
0.0
 44
0.9
  1
9,9
 40
3.0
 41
6.4285714286
  0
LINE
  5
22F
100
AcDbEntity
  8
0
100
AcDbLine
 62
7
  6
CONTINUOUS
 10
-20.7904861891
 20
2.6460833516
 11
-20.7904861891
 21
20.5744143439
  0
LINE
  5
230
100
AcDbEntity
  8
0
100
AcDbLine
 62
7
  6
CONTINUOUS
 10
-30.7367381309
 20
11.2853727585
 11
-30.7367381309
 21
20.5744143439
  0
LINE
  5
231
100
AcDbEntity
  8
0
100
AcDbLine
 62
7
  6
CONTINUOUS
 10
-20.7904861891
 20
19.0744143439
 11
-16.7904861891
 21
19.0744143439
  0
LINE
  5
232
100
AcDbEntity
  8
0
100
AcDbLine
 62
7
  6
CONTINUOUS
 10
-16.7904861891
 20
19.0744143439
 11
-25.76361216
 21
19.0744143439
  0
LINE
  5
233
100
AcDbEntity
  8
0
100
AcDbLine
 62
7
  6
CONTINUOUS
 10
-30.7367381309
 20
19.0744143439
 11
-34.7367381309
 21
19.0744143439
  0
LINE
  5
234
100
AcDbEntity
  8
0
100
AcDbLine
 62
7
  6
CONTINUOUS
 10
-34.7367381309
 20
19.0744143439
 11
-25.76361216
 21
19.0744143439
  0
INSERT
  5
235
100
AcDbEntity
  8
0
100
AcDbBlockReference
 62
7
  6
CONTINUOUS
  2
_FILLED
 10
-20.7904861891
 20
19.0744143439
 41
3.0
 42
3.0
 43
3.0
 50
180.0
  0
INSERT
  5
236
100
AcDbEntity
  8
0
100
AcDbBlockReference
 62
7
  6
CONTINUOUS
  2
_FILLED
 10
-30.7367381309
 20
19.0744143439
 41
3.0
 42
3.0
 43
3.0
  0
ENDBLK
  5
237
100
AcDbEntity
  8
0
  6
BYBLOCK
 62
0
100
AcDbBlockEnd
  0
ENDSEC
  0
SECTION
  2
ENTITIES
  0
DIMENSION
  5
238
100
AcDbEntity
  8
0
100
AcDbDimension
 62
7
  6
CONTINUOUS
  2
*D0
 10
-7.4474933333
 20
19.0744143439
 11
10.5096495238
 21
21.3244143439
 70
160
 71
2
 42
44.7
  3
DIMSTYLE_1
100
AcDbAlignedDimension
 13
37.2525066667
 23
7.5429945623
 14
-7.4474933333
 24
7.5429945623
 50
180.0
100
AcDbRotatedDimension
  0
DIMENSION
  5
239
100
AcDbEntity
  8
0
100
AcDbDimension
 62
7
  6
CONTINUOUS
  2
*D1
 10
45.2525066667
 20
-11.0668587883
 11
44.8268063895
 21
-3.6360657812
 70
160
 71
2
 42
22.1412731322
  3
DIMSTYLE_2
100
AcDbAlignedDimension
 13
37.4623600159
 23
11.0744143439
 14
37.2528872664
 24
-11.0668587883
 50
270.0
100
AcDbRotatedDimension
  0
DIMENSION
  5
23A
100
AcDbEntity
  8
0
100
AcDbDimension
 62
7
  6
CONTINUOUS
  2
*D2
 10
-30.7367381309
 20
19.0744143439
 11
-28.9778978743
 21
21.3244143439
 70
160
 71
2
 42
9.9462519417
  3
DIMSTYLE_2
100
AcDbAlignedDimension
 13
-20.7904861891
 23
2.6460833516
 14
-30.7367381309
 24
11.2853727585
 50
180.0
100
AcDbRotatedDimension
  0
LINE
  5
23B
100
AcDbEntity
  8
DRAFT
100
AcDbLine
 62
7
  6
CONTINUOUS
 10
-7.4474933333
 20
7.0429945623
 11
-7.4474933333
 21
-2.0055138602
  0
LINE
  5
23C
100
AcDbEntity
  8
RACCORDO
100
AcDbLine
 62
7
  6
CONTINUOUS
 10
-7.4474933333
 20
-2.0055138602
 11
-7.4474933333
 21
-10.5666299363
  0
LINE
  5
23D
100
AcDbEntity
  8
RACCORDO
100
AcDbLine
 62
7
  6
CONTINUOUS
 10
-7.407346684
 20
10.8244429005
 11
-7.407346684
 21
7.0831412117
  0
LINE
  5
23E
100
AcDbEntity
  8
RACCORDO
100
AcDbLine
 62
253
  6
CONTINUOUS
 10
-6.8339620063
 20
10.7853727582
 11
-6.8339620063
 21
11.0355621235
  0
LINE
  5
23F
100
AcDbEntity
  8
DRAFT
100
AcDbLine
 62
7
  6
CONTINUOUS
 10
-7.4474933333
 20
7.0429945623
 11
-7.407346684
 21
7.0831412117
  0
LINE
  5
240
100
AcDbEntity
  8
RACCORDO
100
AcDbLine
 62
253
  6
CONTINUOUS
 10
-7.4474933333
 20
-10.5666299363
 11
-7.3606261698
 21
-10.3058165189
  0
LINE
  5
241
100
AcDbEntity
  8
RACCORDO
100
AcDbLine
 62
253
  6
CONTINUOUS
 10
-6.9478739331
 20
-11.0668587883
 11
-6.8607023741
 21
-10.805131442
  0
LINE
  5
242
100
AcDbEntity
  8
RACCORDO
100
AcDbLine
 62
7
  6
CONTINUOUS
 10
28.5591309937
 20
-11.0668587883
 11
29.9447716397
 21
-10.941080118
  0
LINE
  5
243
100
AcDbEntity
  8
RACCORDO
100
AcDbLine
 62
7
  6
CONTINUOUS
 10
1.2458823396
 20
-11.0668587883
 11
-0.1397583064
 21
-10.941080118
  0
LINE
  5
244
100
AcDbEntity
  8
RACCORDO
100
AcDbLine
 62
7
  6
CONTINUOUS
 10
18.2251563975
 20
-11.0668587883
 11
18.7447716397
 21
-11.019691787
  0
LINE
  5
245
100
AcDbEntity
  8
RACCORDO
100
AcDbLine
 62
7
  6
CONTINUOUS
 10
6.9251563975
 20
-11.0668587883
 11
7.4447716397
 21
-11.019691787
  0
LINE
  5
246
100
AcDbEntity
  8
RACCORDO
100
AcDbLine
 62
7
  6
CONTINUOUS
 10
36.7528872664
 20
-11.0668587883
 11
34.9458823396
 21
-11.0668587883
  0
LINE
  5
247
100
AcDbEntity
  8
DRAFT
100
AcDbLine
 62
7
  6
CONTINUOUS
 10
28.5591309937
 20
-11.0668587883
 11
22.8798569359
 21
-11.0668587883
  0
LINE
  5
248
100
AcDbEntity
  8
DRAFT
100
AcDbLine
 62
7
  6
CONTINUOUS
 10
18.2251563975
 20
-11.0668587883
 11
11.5798569359
 21
-11.0668587883
  0
LINE
  5
249
100
AcDbEntity
  8
DRAFT
100
AcDbLine
 62
7
  6
CONTINUOUS
 10
6.9251563975
 20
-11.0668587883
 11
1.2458823396
 21
-11.0668587883
  0
LINE
  5
24A
100
AcDbEntity
  8
RACCORDO
100
AcDbLine
 62
7
  6
CONTINUOUS
 10
-5.1408690063
 20
-11.0668587883
 11
-6.9478739331
 21
-11.0668587883
  0
LINE
  5
24B
100
AcDbEntity
  8
RACCORDO
100
AcDbLine
 62
7
  6
CONTINUOUS
 10
22.1870366128
 20
-11.014451009
 11
18.9179767205
 21
-11.014451009
  0
LINE
  5
24C
100
AcDbEntity
  8
RACCORDO
100
AcDbLine
 62
7
  6
CONTINUOUS
 10
10.8870366128
 20
-11.014451009
 11
7.6179767205
 21
-11.014451009
  0
LINE
  5
24D
100
AcDbEntity
  8
RACCORDO
100
AcDbLine
 62
7
  6
CONTINUOUS
 10
33.3870366128
 20
-10.9358393401
 11
30.1179767205
 21
-10.9358393401
  0
LINE
  5
24E
100
AcDbEntity
  8
RACCORDO
100
AcDbLine
 62
7
  6
CONTINUOUS
 10
-0.3129633872
 20
-10.9358393401
 11
-3.5820232795
 21
-10.9358393401
  0
LINE
  5
24F
100
AcDbEntity
  8
RACCORDO
100
AcDbLine
 62
253
  6
CONTINUOUS
 10
36.6657157074
 20
-10.805131442
 11
-6.8607023741
 21
-10.805131442
  0
LINE
  5
250
100
AcDbEntity
  8
RACCORDO
100
AcDbLine
 62
253
  6
CONTINUOUS
 10
36.6575413973
 20
-9.9548087342
 11
-6.8525280639
 21
-9.9548087342
  0
LINE
  5
251
100
AcDbEntity
  8
RACCORDO
100
AcDbLine
 62
7
  6
CONTINUOUS
 10
11.5798569359
 20
-11.0668587883
 11
11.0602416936
 21
-11.019691787
  0
LINE
  5
252
100
AcDbEntity
  8
RACCORDO
100
AcDbLine
 62
7
  6
CONTINUOUS
 10
22.8798569359
 20
-11.0668587883
 11
22.3602416936
 21
-11.019691787
  0
LINE
  5
253
100
AcDbEntity
  8
RACCORDO
100
AcDbLine
 62
7
  6
CONTINUOUS
 10
-5.1408690063
 20
-11.0668587883
 11
-3.7552283603
 21
-10.941080118
  0
LINE
  5
254
100
AcDbEntity
  8
RACCORDO
100
AcDbLine
 62
7
  6
CONTINUOUS
 10
34.9458823396
 20
-11.0668587883
 11
33.5602416936
 21
-10.941080118
  0
LINE
  5
255
100
AcDbEntity
  8
RACCORDO
100
AcDbLine
 62
253
  6
CONTINUOUS
 10
36.9623600159
 20
11.0744143439
 11
36.8889372364
 21
11.03770575
  0
LINE
  5
256
100
AcDbEntity
  8
RACCORDO
100
AcDbLine
 62
253
  6
CONTINUOUS
 10
-7.3338858783
 20
10.787715295
 11
-7.407346684
 21
10.8244429005
  0
LINE
  5
257
100
AcDbEntity
  8
RACCORDO
100
AcDbLine
 62
253
  6
CONTINUOUS
 10
-7.0839239031
 20
11.03770575
 11
-7.1573466825
 21
11.0744143439
  0
LINE
  5
258
100
AcDbEntity
  8
RACCORDO
100
AcDbLine
 62
253
  6
CONTINUOUS
 10
37.2123600173
 20
10.8244429005
 11
37.1388992116
 21
10.787715295
  0
LINE
  5
259
100
AcDbEntity
  8
RACCORDO
100
AcDbLine
 62
253
  6
CONTINUOUS
 10
36.6405464657
 20
1.6831436972
 11
-6.8355331324
 21
1.6831436972
  0
LINE
  5
25A
100
AcDbEntity
  8
DRAFT
100
AcDbLine
 62
7
  6
CONTINUOUS
 10
34.5774839937
 20
11.0744143439
 11
34.4025066667
 21
11.0569606083
  0
LINE
  5
25B
100
AcDbEntity
  8
DRAFT
100
AcDbLine
 62
7
  6
CONTINUOUS
 10
-4.7724706604
 20
11.0744143439
 11
-4.5974933333
 21
11.0569606083
  0
LINE
  5
25C
100
AcDbEntity
  8
RACCORDO
100
AcDbLine
 62
253
  6
CONTINUOUS
 10
36.6389724802
 20
10.7853727582
 11
-6.8339591469
 21
10.7853727582
  0
LINE
  5
25D
100
AcDbEntity
  8
RACCORDO
100
AcDbLine
 62
253
  6
CONTINUOUS
 10
36.6389753396
 20
11.0355621235
 11
-6.8339620063
 21
11.0355621235
  0
LINE
  5
25E
100
AcDbEntity
  8
DRAFT
100
AcDbLine
 62
7
  6
CONTINUOUS
 10
34.4025066667
 20
11.0569606083
 11
-4.5974933333
 21
11.0569606083
  0
LINE
  5
25F
100
AcDbEntity
  8
RACCORDO
100
AcDbLine
 62
7
  6
CONTINUOUS
 10
36.9623600159
 20
11.0744143439
 11
34.5774839937
 21
11.0744143439
  0
LINE
  5
260
100
AcDbEntity
  8
RACCORDO
100
AcDbLine
 62
7
  6
CONTINUOUS
 10
-4.7724706604
 20
11.0744143439
 11
-7.1573466825
 21
11.0744143439
  0
LINE
  5
261
100
AcDbEntity
  8
RACCORDO
100
AcDbLine
 62
253
  6
CONTINUOUS
 10
36.6657157074
 20
-10.805131442
 11
36.7528872664
 21
-11.0668587883
  0
LINE
  5
262
100
AcDbEntity
  8
RACCORDO
100
AcDbLine
 62
253
  6
CONTINUOUS
 10
37.1656395031
 20
-10.3058165189
 11
37.2525066667
 21
-10.5666299363
  0
LINE
  5
263
100
AcDbEntity
  8
RACCORDO
100
AcDbLine
 62
253
  6
CONTINUOUS
 10
36.6389753396
 20
10.7853727582
 11
36.6389753396
 21
11.0355621235
  0
LINE
  5
264
100
AcDbEntity
  8
DRAFT
100
AcDbLine
 62
7
  6
CONTINUOUS
 10
37.2525066667
 20
7.0429945623
 11
37.2123600173
 21
7.0831412117
  0
LINE
  5
265
100
AcDbEntity
  8
RACCORDO
100
AcDbLine
 62
7
  6
CONTINUOUS
 10
37.2123600173
 20
10.8244429005
 11
37.2123600173
 21
7.0831412117
  0
LINE
  5
266
100
AcDbEntity
  8
DRAFT
100
AcDbLine
 62
7
  6
CONTINUOUS
 10
37.2525066667
 20
7.0429945623
 11
37.2525066667
 21
-2.0055138602
  0
LINE
  5
267
100
AcDbEntity
  8
RACCORDO
100
AcDbLine
 62
7
  6
CONTINUOUS
 10
37.2525066667
 20
-2.0055138602
 11
37.2525066667
 21
-10.5666299363
  0
LINE
  5
268
100
AcDbEntity
  8
RACCORDO
100
AcDbLine
 62
7
  6
CONTINUOUS
 10
-28.7309516207
 20
-10.805131442
 11
-23.7368963506
 21
-11.0668587883
  0
LINE
  5
269
100
AcDbEntity
  8
RACCORDO
100
AcDbLine
 62
253
  6
CONTINUOUS
 10
-28.7135128182
 20
-10.3058165189
 11
-23.7368963506
 21
-10.5666299363
  0
LINE
  5
26A
100
AcDbEntity
  8
0
100
AcDbLine
 62
7
  6
CONTINUOUS
 10
-20.7904861891
 20
-1.9798009283
 11
-23.7368963506
 21
-2.0055138602
  0
LINE
  5
26B
100
AcDbEntity
  8
RACCORDO
100
AcDbLine
 62
7
  6
CONTINUOUS
 10
-26.0368963506
 20
11.0744143439
 11
-26.0368963506
 21
7.0831412117
  0
LINE
  5
26C
100
AcDbEntity
  8
DRAFT
100
AcDbLine
 62
7
  6
CONTINUOUS
 10
-23.7368963506
 20
7.0429945623
 11
-23.7368963506
 21
-2.0055138602
  0
LINE
  5
26D
100
AcDbEntity
  8
RACCORDO
100
AcDbLine
 62
7
  6
CONTINUOUS
 10
-23.7368963506
 20
-2.0055138602
 11
-23.7368963506
 21
-11.0668587883
  0
LINE
  5
26E
100
AcDbEntity
  8
RACCORDO
100
AcDbLine
 62
253
  6
CONTINUOUS
 10
-30.1554546655
 20
1.6926412117
 11
-30.6466382037
 21
1.6831412117
  0
LINE
  5
26F
100
AcDbEntity
  8
0
100
AcDbLine
 62
7
  6
CONTINUOUS
 10
-20.7904861891
 20
2.1460833516
 11
-23.7368963506
 21
2.1717962835
  0
LINE
  5
270
100
AcDbEntity
  8
0
100
AcDbLine
 62
253
  6
CONTINUOUS
 10
-21.4173162648
 20
-1.9852711915
 11
-21.4173162648
 21
2.1515536148
  0
LINE
  5
271
100
AcDbEntity
  8
0
100
AcDbLine
 62
7
  6
CONTINUOUS
 10
-20.7904861891
 20
-1.9798009283
 11
-20.7904861891
 21
2.1460833516
  0
LINE
  5
272
100
AcDbEntity
  8
DRAFT
100
AcDbLine
 62
7
  6
CONTINUOUS
 10
-23.7368963506
 20
7.0429945623
 11
-26.0368963506
 21
7.0831412117
  0
LINE
  5
273
100
AcDbEntity
  8
RACCORDO
100
AcDbLine
 62
253
  6
CONTINUOUS
 10
-26.0368963506
 20
10.8244429005
 11
-30.2454630908
 21
10.787715295
  0
LINE
  5
274
100
AcDbEntity
  8
RACCORDO
100
AcDbLine
 62
7
  6
CONTINUOUS
 10
-26.0368963506
 20
11.0744143439
 11
-30.4889198436
 21
11.0355621235
  0
ARC
  5
275
100
AcDbEntity
  8
RACCORDO
100
AcDbCircle
 62
253
  6
CONTINUOUS
 10
-5135.6425239748
 20
3.349867923
 40
5128.8072590289
100
AcDbArc
 50
359.8513684298
 51
359.9813804145
  0
ARC
  5
276
100
AcDbEntity
  8
RACCORDO
100
AcDbCircle
 62
253
  6
CONTINUOUS
 10
5157.4430315783
 20
3.3381831737
 40
5120.8027469827
100
AcDbArc
 50
180.0185179518
 51
180.1487331629
  0
ARC
  5
277
100
AcDbEntity
  8
RACCORDO
100
AcDbCircle
 62
253
  6
CONTINUOUS
 10
-5079.3141901183
 20
3.3501084009
 40
5071.9790013249
100
AcDbArc
 50
359.8505380483
 51
359.9812763664
  0
ARC
  5
278
100
AcDbEntity
  8
RACCORDO
100
AcDbCircle
 62
253
  6
CONTINUOUS
 10
5101.2036341142
 20
3.3384883673
 40
5064.0634256707
100
AcDbArc
 50
180.018621429
 51
180.1495641026
  0
ARC
  5
279
100
AcDbEntity
  8
RACCORDO
100
AcDbCircle
 62
253
  6
CONTINUOUS
 10
36.8888753531
 20
10.787685844
 40
0.2500221686
100
AcDbArc
 50
0.0067431419
 51
89.985818515
  0
ARC
  5
27A
100
AcDbEntity
  8
RACCORDO
100
AcDbCircle
 62
253
  6
CONTINUOUS
 10
-7.0838620277
 20
10.7876858519
 40
0.2500221686
100
AcDbArc
 50
90.0141796742
 51
179.9932586689
  0
ARC
  5
27B
100
AcDbEntity
  8
RACCORDO
100
AcDbCircle
 62
7
  6
CONTINUOUS
 10
469.2631036494
 20
11.1831412117
 40
500.0
100
AcDbArc
 50
180.045580912
 51
181.0886850351
  0
ARC
  5
27C
100
AcDbEntity
  8
RACCORDO
100
AcDbCircle
 62
253
  6
CONTINUOUS
 10
469.2277454772
 20
11.1827321044
 40
499.473365165
100
AcDbArc
 50
180.0453133239
 51
181.0886964441
  0
ARC
  5
27D
100
AcDbEntity
  8
RACCORDO
100
AcDbCircle
 62
7
  6
CONTINUOUS
 10
59.3371153295
 20
3.3931412117
 40
90.0
100
AcDbArc
 50
181.0886837374
 51
188.5290334217
  0
ARC
  5
27E
100
AcDbEntity
  8
RACCORDO
100
AcDbCircle
 62
253
  6
CONTINUOUS
 10
59.3283891283
 20
3.3931412118
 40
89.500000002
100
AcDbArc
 50
181.0886853201
 51
188.529035747
  0
ARC
  5
27F
100
AcDbEntity
  8
RACCORDO
100
AcDbCircle
 62
7
  6
CONTINUOUS
 10
-28.6786186369
 20
-9.8065017515
 40
1.0
100
AcDbArc
 50
188.5288264576
 51
267.0001705392
  0
ARC
  5
280
100
AcDbEntity
  8
RACCORDO
100
AcDbCircle
 62
253
  6
CONTINUOUS
 10
-28.6873448397
 20
-9.8065017511
 40
0.5000000004
100
AcDbArc
 50
188.5290357872
 51
266.9999999599
  0
ARC
  5
281
100
AcDbEntity
  8
RACCORDO
100
AcDbCircle
 62
7
  6
CONTINUOUS
 10
-30.4867381753
 20
10.785571643
 40
0.25
100
AcDbArc
 50
90.5000078985
 51
180.0455810296
  0
SPLINE
  5
282
100
AcDbEntity
  8
RACCORDO
100
AcDbSpline
 62
253
  6
CONTINUOUS
 70
0
 71
3
 72
24
 73
20
 74
18
 42
0.0000001
 43
0.0000001
 44
0.0000000001
 12
0.0011135202
 22
-0.4253527233
 32
0.0
 13
0.1343926599
 23
-0.4035651026
 33
0.0
 40
0.0
 40
0.0
 40
0.0
 40
0.0
 40
0.0929708047
 40
0.1842245765
 40
0.2731540362
 40
0.3591815829
 40
0.4417499636
 40
0.520323662
 40
0.5943931978
 40
0.6634783387
 40
0.7271315345
 40
0.7849401907
 40
0.8365301524
 40
0.8815677227
 40
0.9197624147
 40
0.9508693203
 40
0.9746923228
 40
0.9910897272
 40
1.0
 40
1.0
 40
1.0
 40
1.0
 10
37.1574652537
 20
-9.880657049
 30
0.0
 10
37.1574997619
 20
-9.893838844
 30
0.0
 10
37.1575867405
 20
-9.9199589413
 30
0.0
 10
37.1577729592
 20
-9.9586875781
 30
0.0
 10
37.1580127549
 20
-9.9964314549
 30
0.0
 10
37.1583045288
 20
-10.0329434732
 30
0.0
 10
37.158646332
 20
-10.0679867041
 30
0.0
 10
37.1590358772
 20
-10.1013338658
 30
0.0
 10
37.1594705282
 20
-10.1327685871
 30
0.0
 10
37.1599473446
 20
-10.1620869348
 30
0.0
 10
37.1604629494
 20
-10.1890987302
 30
0.0
 10
37.1610139337
 20
-10.2136286374
 30
0.0
 10
37.1615954538
 20
-10.2355178883
 30
0.0
 10
37.1622053619
 20
-10.2546233882
 30
0.0
 10
37.1628310772
 20
-10.2708247952
 30
0.0
 10
37.1634861777
 20
-10.2840077789
 30
0.0
 10
37.1641068354
 20
-10.2941138759
 30
0.0
 10
37.1647981852
 20
-10.3010243326
 30
0.0
 10
37.1652403447
 20
-10.3046178938
 30
0.0
 10
37.1656395031
 20
-10.3058165189
 30
0.0
 11
37.1574652537
 21
-9.880657049
 31
0.0
 11
37.1575973854
 21
-9.9202023487
 31
0.0
 11
37.1577846667
 21
-9.9590170703
 31
0.0
 11
37.1580258656
 21
-9.9968428188
 31
0.0
 11
37.1583194168
 21
-10.0334338179
 31
0.0
 11
37.1586634179
 21
-10.0685529391
 31
0.0
 11
37.159055638
 21
-10.1019722887
 31
0.0
 11
37.159493533
 21
-10.1334750321
 31
0.0
 11
37.1599742624
 21
-10.1628567532
 31
0.0
 11
37.1604947096
 21
-10.1899269036
 31
0.0
 11
37.1610514973
 21
-10.2145097525
 31
0.0
 11
37.1616410147
 21
-10.2364458384
 31
0.0
 11
37.1622594366
 21
-10.2555927727
 31
0.0
 11
37.1629027503
 21
-10.2718263028
 31
0.0
 11
37.1635667811
 21
-10.2850410822
 31
0.0
 11
37.1642472252
 21
-10.2951514242
 31
0.0
 11
37.1649396608
 21
-10.3020916717
 31
0.0
 11
37.1656395031
 21
-10.3058165189
 31
0.0
  0
SPLINE
  5
283
100
AcDbEntity
  8
RACCORDO
100
AcDbSpline
 62
253
  6
CONTINUOUS
 70
0
 71
3
 72
10
 73
6
 74
4
 42
0.0000001
 43
0.0000001
 44
0.0000000001
 12
0.0001256779
 22
-9.0950742522
 32
0.0
 13
0.0030168915
 23
-9.0950737527
 33
0.0
 40
0.0
 40
0.0
 40
0.0
 40
0.0
 40
0.3333522233
 40
0.666686968
 40
1.0
 40
1.0
 40
1.0
 40
1.0
 10
37.1388992116
 20
10.787715295
 30
0.0
 10
37.1389131766
 20
9.7770942207
 30
0.0
 10
37.1390481006
 20
7.7559050616
 30
0.0
 10
37.1395718396
 20
4.724213684
 30
0.0
 10
37.1401351248
 20
2.7031434146
 30
0.0
 10
37.1404703145
 20
1.6926412117
 30
0.0
 11
37.1388992116
 21
10.787715295
 31
0.0
 11
37.1391016685
 21
7.7558520788
 31
0.0
 11
37.1396253884
 21
4.7241478695
 31
0.0
 11
37.1404703145
 21
1.6926412117
 31
0.0
  0
SPLINE
  5
284
100
AcDbEntity
  8
RACCORDO
100
AcDbSpline
 62
253
  6
CONTINUOUS
 70
0
 71
3
 72
10
 73
6
 74
4
 42
0.0000001
 43
0.0000001
 44
0.0000000001
 12
0.0030168915
 22
9.0950737527
 32
0.0
 13
0.0001256779
 23
9.0950742522
 33
0.0
 40
0.0
 40
0.0
 40
0.0
 40
0.0
 40
0.333313032
 40
0.6666477767
 40
1.0
 40
1.0
 40
1.0
 40
1.0
 10
-7.3354569812
 20
1.6926412117
 30
0.0
 10
-7.3351217915
 20
2.7031434146
 30
0.0
 10
-7.3345585062
 20
4.724213684
 30
0.0
 10
-7.3340347673
 20
7.7559050616
 30
0.0
 10
-7.3338998433
 20
9.7770942207
 30
0.0
 10
-7.3338858783
 20
10.787715295
 30
0.0
 11
-7.3354569812
 21
1.6926412117
 31
0.0
 11
-7.334612055
 21
4.7241478695
 31
0.0
 11
-7.3340883351
 21
7.7558520788
 31
0.0
 11
-7.3338858783
 21
10.787715295
 31
0.0
  0
SPLINE
  5
285
100
AcDbEntity
  8
RACCORDO
100
AcDbSpline
 62
253
  6
CONTINUOUS
 70
0
 71
3
 72
24
 73
20
 74
18
 42
0.0000001
 43
0.0000001
 44
0.0000000001
 12
0.1343926598
 22
0.4035651027
 32
0.0
 13
0.0011135202
 23
0.4253527233
 33
0.0
 40
0.0
 40
0.0
 40
0.0
 40
0.0
 40
0.0089102728
 40
0.0253076772
 40
0.0491306797
 40
0.0802375853
 40
0.1184322773
 40
0.1634698476
 40
0.2150598093
 40
0.2728684655
 40
0.3365216613
 40
0.4056068022
 40
0.479676338
 40
0.5582500364
 40
0.6408184171
 40
0.7268459638
 40
0.8157754235
 40
0.9070291953
 40
1.0
 40
1.0
 40
1.0
 40
1.0
 10
-7.3606261698
 20
-10.3058165189
 30
0.0
 10
-7.3602270113
 20
-10.3046178938
 30
0.0
 10
-7.3597848519
 20
-10.3010243326
 30
0.0
 10
-7.359093502
 20
-10.2941138759
 30
0.0
 10
-7.3584728444
 20
-10.2840077789
 30
0.0
 10
-7.3578177439
 20
-10.2708247952
 30
0.0
 10
-7.3571920286
 20
-10.2546233882
 30
0.0
 10
-7.3565821205
 20
-10.2355178883
 30
0.0
 10
-7.3560006004
 20
-10.2136286374
 30
0.0
 10
-7.355449616
 20
-10.1890987302
 30
0.0
 10
-7.3549340113
 20
-10.1620869348
 30
0.0
 10
-7.3544571949
 20
-10.1327685871
 30
0.0
 10
-7.3540225439
 20
-10.1013338658
 30
0.0
 10
-7.3536329987
 20
-10.0679867041
 30
0.0
 10
-7.3532911955
 20
-10.0329434732
 30
0.0
 10
-7.3529994216
 20
-9.9964314549
 30
0.0
 10
-7.3527596258
 20
-9.9586875781
 30
0.0
 10
-7.3525734072
 20
-9.9199589413
 30
0.0
 10
-7.3524864286
 20
-9.893838844
 30
0.0
 10
-7.3524519203
 20
-9.880657049
 30
0.0
 11
-7.3606261698
 21
-10.3058165189
 31
0.0
 11
-7.3599263275
 21
-10.3020916717
 31
0.0
 11
-7.3592338919
 21
-10.2951514242
 31
0.0
 11
-7.3585534477
 21
-10.2850410822
 31
0.0
 11
-7.3578894169
 21
-10.2718263028
 31
0.0
 11
-7.3572461032
 21
-10.2555927727
 31
0.0
 11
-7.3566276814
 21
-10.2364458384
 31
0.0
 11
-7.3560381639
 21
-10.2145097525
 31
0.0
 11
-7.3554813763
 21
-10.1899269036
 31
0.0
 11
-7.3549609291
 21
-10.1628567532
 31
0.0
 11
-7.3544801997
 21
-10.1334750321
 31
0.0
 11
-7.3540423046
 21
-10.1019722887
 31
0.0
 11
-7.3536500846
 21
-10.0685529391
 31
0.0
 11
-7.3533060834
 21
-10.0334338179
 31
0.0
 11
-7.3530125323
 21
-9.9968428188
 31
0.0
 11
-7.3527713334
 21
-9.9590170703
 31
0.0
 11
-7.3525840521
 21
-9.9202023488
 31
0.0
 11
-7.3524519203
 21
-9.880657049
 31
0.0
  0
SPLINE
  5
286
100
AcDbEntity
  8
RACCORDO
100
AcDbSpline
 62
253
  6
CONTINUOUS
 70
0
 71
3
 72
23
 73
19
 74
17
 42
0.0000001
 43
0.0000001
 44
0.0000000001
 12
0.0594261099
 22
-0.5107283763
 32
0.0
 13
0.5141723487
 23
-0.0013163539
 33
0.0
 40
0.0
 40
0.0
 40
0.0
 40
0.0
 40
0.0152990261
 40
0.0359432781
 40
0.0637534869
 40
0.0992876262
 40
0.1425957611
 40
0.1934792084
 40
0.2515863842
 40
0.3164551248
 40
0.387535332
 40
0.4642036207
 40
0.5457744989
 40
0.6315100082
 40
0.720628702
 40
0.8123143718
 40
0.9057247121
 40
1.0
 40
1.0
 40
1.0
 40
1.0
 10
-7.3524519203
 20
-9.880657049
 30
0.0
 10
-7.3521488664
 20
-9.8832615979
 30
0.0
 10
-7.3491444259
 20
-9.8890450944
 30
0.0
 10
-7.3405787783
 20
-9.8959941296
 30
0.0
 10
-7.3278471986
 20
-9.9028203358
 30
0.0
 10
-7.3107728812
 20
-9.9094273319
 30
0.0
 10
-7.2894641361
 20
-9.915824245
 30
0.0
 10
-7.264072029
 20
-9.9219178738
 30
0.0
 10
-7.2348239616
 20
-9.9276505591
 30
0.0
 10
-7.2019857704
 20
-9.932959357
 30
0.0
 10
-7.1658629269
 20
-9.9377909155
 30
0.0
 10
-7.1267930445
 20
-9.9420965243
 30
0.0
 10
-7.0851426793
 20
-9.9458336796
 30
0.0
 10
-7.041303177
 20
-9.9489657277
 30
0.0
 10
-6.9956868509
 20
-9.9514621732
 30
0.0
 10
-6.9487228939
 20
-9.9532988102
 30
0.0
 10
-6.9008534723
 20
-9.9544578895
 30
0.0
 10
-6.8686859881
 20
-9.95477098
 30
0.0
 10
-6.8525280727
 20
-9.9548123465
 30
0.0
 11
-7.3524519203
 21
-9.880657049
 31
0.0
 11
-7.3492606311
 21
-9.887846995
 31
0.0
 11
-7.341390007
 21
-9.89496921
 31
0.0
 11
-7.3289141912
 21
-9.9019566012
 31
0.0
 11
-7.3119507087
 21
-9.9087433457
 31
0.0
 11
-7.2906593594
 21
-9.9152655108
 31
0.0
 11
-7.2652407128
 21
-9.9214616563
 31
0.0
 11
-7.2359342183
 21
-9.927273413
 31
0.0
 11
-7.2030159499
 21
-9.9326460328
 31
0.0
 11
-7.1667960051
 21
-9.9375289045
 31
0.0
 11
-7.1276155842
 21
-9.9418760302
 31
0.0
 11
-7.0858437757
 21
-9.9456464591
 31
0.0
 11
-7.0418740797
 21
-9.9488046727
 31
0.0
 11
-6.9961207009
 21
-9.9513209202
 31
0.0
 11
-6.9490146465
 21
-9.9531714977
 31
0.0
 11
-6.9009996664
 21
-9.9543389724
 31
0.0
 11
-6.8525280727
 21
-9.9548123465
 31
0.0
  0
SPLINE
  5
287
100
AcDbEntity
  8
RACCORDO
100
AcDbSpline
 62
253
  6
CONTINUOUS
 70
0
 71
3
 72
23
 73
19
 74
17
 42
0.0000001
 43
0.0000001
 44
0.0000000001
 12
0.338327713
 22
-0.3684515687
 32
0.0
 13
0.500222123
 23
-0.0001658668
 33
0.0
 40
0.0
 40
0.0
 40
0.0
 40
0.0
 40
0.0066564873
 40
0.0225106003
 40
0.0475272776
 40
0.0814931196
 40
0.1240964968
 40
0.1749402365
 40
0.2335478507
 40
0.2993689009
 40
0.3717845592
 40
0.4501136206
 40
0.5336190188
 40
0.6215148255
 40
0.7129736898
 40
0.8071346534
 40
0.9031112767
 40
1.0
 40
1.0
 40
1.0
 40
1.0
 10
-7.3354569812
 20
1.6926412117
 30
0.0
 10
-7.3347062898
 20
1.6918236806
 30
0.0
 10
-7.3304570111
 20
1.6917235757
 30
0.0
 10
-7.323029191
 20
1.6904435962
 30
0.0
 10
-7.3103363412
 20
1.6898585056
 30
0.0
 10
-7.2935202593
 20
1.688914725
 30
0.0
 10
-7.2722521501
 20
1.6881413298
 30
0.0
 10
-7.2469236654
 20
1.687348887
 30
0.0
 10
-7.2177032295
 20
1.6866206086
 30
0.0
 10
-7.1848896388
 20
1.6859397802
 30
0.0
 10
-7.1487840989
 20
1.6853217562
 30
0.0
 10
-7.1097290397
 20
1.6847703057
 30
0.0
 10
-7.0680915052
 20
1.6842917361
 30
0.0
 10
-7.02426384
 20
1.6838905426
 30
0.0
 10
-6.9786587329
 20
1.6835707231
 30
0.0
 10
-6.9317056995
 20
1.6833353716
 30
0.0
 10
-6.8838469304
 20
1.6831867757
 30
0.0
 10
-6.8516884279
 20
1.6831465685
 30
0.0
 10
-6.8355331336
 20
1.6831412117
 30
0.0
 11
-7.3354569812
 21
1.6926412117
 31
0.0
 11
-7.3322571646
 21
1.6917202203
 31
0.0
 11
-7.3243792365
 21
1.6908079028
 31
0.0
 11
-7.3118973905
 21
1.6899128512
 31
0.0
 11
-7.2949291799
 21
1.6890434951
 31
0.0
 11
-7.27363441
 21
1.6882080221
 31
0.0
 11
-7.2482136334
 21
1.6874143005
 31
0.0
 11
-7.2189062613
 21
1.6866698057
 31
0.0
 11
-7.1859883083
 21
1.6859815491
 31
0.0
 11
-7.1497697935
 21
1.6853560127
 31
0.0
 11
-7.1105918202
 21
1.6847990878
 31
0.0
 11
-7.0688233637
 21
1.6843160195
 31
0.0
 11
-7.0248577964
 21
1.6839113572
 31
0.0
 11
-6.979109183
 21
1.6835889121
 31
0.0
 11
-6.9320083805
 21
1.6833517209
 31
0.0
 11
-6.883998981
 21
1.6832020174
 31
0.0
 11
-6.8355331336
 21
1.6831412117
 31
0.0
  0
SPLINE
  5
288
100
AcDbEntity
  8
RACCORDO
100
AcDbSpline
 62
253
  6
CONTINUOUS
 70
0
 71
3
 72
10
 73
6
 74
4
 42
0.0000001
 43
0.0000001
 44
0.0000000001
 12
0.000126269
 22
-9.10222923
 32
0.0
 13
0.0030162456
 23
-9.1022287311
 33
0.0
 40
0.0
 40
0.0
 40
0.0
 40
0.0
 40
0.3333526297
 40
0.6666873084
 40
1.0
 40
1.0
 40
1.0
 40
1.0
 10
36.6389724802
 20
10.7853727582
 30
0.0
 10
36.6389865109
 20
9.7739554082
 30
0.0
 10
36.6391257897
 20
7.7511751729
 30
0.0
 10
36.6396477734
 20
4.7170988026
 30
0.0
 10
36.6402113486
 20
2.6944398164
 30
0.0
 10
36.6405464663
 20
1.6831436972
 30
0.0
 11
36.6389724802
 21
10.7853727582
 31
0.0
 11
36.6391779765
 21
7.7511207147
 31
0.0
 11
36.6397016875
 21
4.7170321039
 31
0.0
 11
36.6405464663
 21
1.6831436972
 31
0.0
  0
SPLINE
  5
289
100
AcDbEntity
  8
RACCORDO
100
AcDbSpline
 62
253
  6
CONTINUOUS
 70
0
 71
3
 72
10
 73
6
 74
4
 42
0.0000001
 43
0.0000001
 44
0.0000000001
 12
0.0030162456
 22
9.1022287311
 32
0.0
 13
0.000126269
 23
9.10222923
 33
0.0
 40
0.0
 40
0.0
 40
0.0
 40
0.0
 40
0.3333126916
 40
0.6666473703
 40
1.0
 40
1.0
 40
1.0
 40
1.0
 10
-6.8355331329
 20
1.6831436972
 30
0.0
 10
-6.8351980153
 20
2.6944398164
 30
0.0
 10
-6.83463444
 20
4.7170988026
 30
0.0
 10
-6.8341124564
 20
7.7511751729
 30
0.0
 10
-6.8339731776
 20
9.7739554082
 30
0.0
 10
-6.8339591469
 20
10.7853727582
 30
0.0
 11
-6.8355331329
 21
1.6831436972
 31
0.0
 11
-6.8346883541
 21
4.7170321039
 31
0.0
 11
-6.8341646432
 21
7.7511207147
 31
0.0
 11
-6.8339591469
 21
10.7853727582
 31
0.0
  0
SPLINE
  5
28A
100
AcDbEntity
  8
RACCORDO
100
AcDbSpline
 62
253
  6
CONTINUOUS
 70
0
 71
3
 72
24
 73
20
 74
18
 42
0.0000001
 43
0.0000001
 44
0.0000000001
 12
-0.4999456012
 22
0.0000035297
 32
0.0
 13
-0.4823463738
 23
0.1314822416
 33
0.0
 40
0.0
 40
0.0
 40
0.0
 40
0.0
 40
0.0912553463
 40
0.1817484416
 40
0.2707280129
 40
0.3574483054
 40
0.4411860969
 40
0.521243882
 40
0.5969527851
 40
0.6676812868
 40
0.7328389746
 40
0.7918829583
 40
0.8443202976
 40
0.8897136124
 40
0.92768386
 40
0.9579150407
 40
0.9801553846
 40
0.9942201288
 40
1.0
 40
1.0
 40
1.0
 40
1.0
 10
-6.8339591469
 20
10.7853727574
 30
0.0
 10
-6.8491667165
 20
10.7853728648
 30
0.0
 10
-6.8794548282
 20
10.7853796395
 30
0.0
 10
-6.9245712461
 20
10.7854094647
 30
0.0
 10
-6.9689318867
 20
10.7854586801
 30
0.0
 10
-7.0121667394
 20
10.7855268615
 30
0.0
 10
-7.0539147541
 20
10.7856134214
 30
0.0
 10
-7.0938276893
 20
10.7857176182
 30
0.0
 10
-7.1315725938
 20
10.7858385128
 30
0.0
 10
-7.1668343293
 20
10.7859751526
 30
0.0
 10
-7.199318859
 20
10.7861259449
 30
0.0
 10
-7.2287548803
 20
10.7862907227
 30
0.0
 10
-7.2548977214
 20
10.7864640813
 30
0.0
 10
-7.2775265077
 20
10.7866559868
 30
0.0
 10
-7.2964601844
 20
10.7868298869
 30
0.0
 10
-7.3115196553
 20
10.7870776404
 30
0.0
 10
-7.3226326817
 20
10.7871568577
 30
0.0
 10
-7.3295935371
 20
10.7875680864
 30
0.0
 10
-7.3329565783
 20
10.7874619665
 30
0.0
 10
-7.3338858783
 20
10.7877152833
 30
0.0
 11
-6.8339591469
 21
10.7853727574
 31
0.0
 11
-6.8795818547
 21
10.7853830078
 31
0.0
 11
-6.9248234696
 21
10.7854130408
 31
0.0
 11
-6.9693083873
 21
10.785462609
 31
0.0
 11
-7.0126637616
 21
10.7855312949
 31
0.0
 11
-7.0545280113
 21
10.7856185255
 31
0.0
 11
-7.0945524109
 21
10.7857235718
 31
0.0
 11
-7.1324025474
 21
10.785845555
 31
0.0
 11
-7.1677626818
 21
10.7859834552
 31
0.0
 11
-7.2003376235
 21
10.7861361189
 31
0.0
 11
-7.2298559358
 21
10.7863022715
 31
0.0
 11
-7.256071147
 21
10.786480524
 31
0.0
 11
-7.2787645491
 21
10.786669387
 31
0.0
 11
-7.2977465758
 21
10.7868672813
 31
0.0
 11
-7.3128591276
 21
10.7870725543
 31
0.0
 11
-7.3239760886
 21
10.7872834993
 31
0.0
 11
-7.331004413
 21
10.7874983311
 31
0.0
 11
-7.3338858783
 21
10.7877152833
 31
0.0
  0
SPLINE
  5
28B
100
AcDbEntity
  8
RACCORDO
100
AcDbSpline
 62
253
  6
CONTINUOUS
 70
0
 71
3
 72
24
 73
20
 74
18
 42
0.0000001
 43
0.0000001
 44
0.0000000001
 12
-0.4823463737
 22
-0.131482242
 32
0.0
 13
-0.4999456012
 23
-0.0000035297
 33
0.0
 40
0.0
 40
0.0
 40
0.0
 40
0.0
 40
0.0057798712
 40
0.0198446154
 40
0.0420849593
 40
0.07231614
 40
0.1102863876
 40
0.1556797023
 40
0.2081170417
 40
0.2671610254
 40
0.3323187132
 40
0.4030472149
 40
0.478756118
 40
0.558813903
 40
0.6425516946
 40
0.729271987
 40
0.8182515583
 40
0.9087446536
 40
1.0
 40
1.0
 40
1.0
 40
1.0
 10
37.1388992116
 20
10.7877152833
 30
0.0
 10
37.1379699117
 20
10.7874619665
 30
0.0
 10
37.1346068704
 20
10.7875680864
 30
0.0
 10
37.127646015
 20
10.7871568577
 30
0.0
 10
37.1165329886
 20
10.7870776404
 30
0.0
 10
37.1014735178
 20
10.7868298869
 30
0.0
 10
37.082539841
 20
10.7866559868
 30
0.0
 10
37.0599110548
 20
10.7864640813
 30
0.0
 10
37.0337682137
 20
10.7862907227
 30
0.0
 10
37.0043321924
 20
10.7861259449
 30
0.0
 10
36.9718476627
 20
10.7859751526
 30
0.0
 10
36.9365859272
 20
10.7858385128
 30
0.0
 10
36.8988410226
 20
10.7857176182
 30
0.0
 10
36.8589280875
 20
10.7856134214
 30
0.0
 10
36.8171800727
 20
10.7855268615
 30
0.0
 10
36.7739452201
 20
10.7854586801
 30
0.0
 10
36.7295845795
 20
10.7854094647
 30
0.0
 10
36.6844681616
 20
10.7853796395
 30
0.0
 10
36.6541800499
 20
10.7853728648
 30
0.0
 10
36.6389724802
 20
10.7853727574
 30
0.0
 11
37.1388992116
 21
10.7877152833
 31
0.0
 11
37.1360177463
 21
10.7874983311
 31
0.0
 11
37.1289894219
 21
10.7872834993
 31
0.0
 11
37.1178724609
 21
10.7870725543
 31
0.0
 11
37.1027599092
 21
10.7868672813
 31
0.0
 11
37.0837778825
 21
10.786669387
 31
0.0
 11
37.0610844803
 21
10.786480524
 31
0.0
 11
37.0348692692
 21
10.7863022715
 31
0.0
 11
37.0053509569
 21
10.7861361189
 31
0.0
 11
36.9727760152
 21
10.7859834552
 31
0.0
 11
36.9374158808
 21
10.785845555
 31
0.0
 11
36.8995657443
 21
10.7857235718
 31
0.0
 11
36.8595413447
 21
10.7856185255
 31
0.0
 11
36.817677095
 21
10.7855312949
 31
0.0
 11
36.7743217207
 21
10.785462609
 31
0.0
 11
36.729836803
 21
10.7854130408
 31
0.0
 11
36.6845951881
 21
10.7853830078
 31
0.0
 11
36.6389724802
 21
10.7853727574
 31
0.0
  0
SPLINE
  5
28C
100
AcDbEntity
  8
RACCORDO
100
AcDbSpline
 62
253
  6
CONTINUOUS
 70
0
 71
3
 72
23
 73
19
 74
17
 42
0.0000001
 43
0.0000001
 44
0.0000000001
 12
-0.3383277217
 22
-0.3684515606
 32
0.0
 13
-0.500222123
 23
-0.0001658668
 33
0.0
 40
0.0
 40
0.0
 40
0.0
 40
0.0
 40
0.0066564874
 40
0.0225106005
 40
0.0475272778
 40
0.0814931198
 40
0.124096497
 40
0.1749402368
 40
0.233547851
 40
0.2993689012
 40
0.3717845595
 40
0.4501136209
 40
0.533619019
 40
0.6215148257
 40
0.71297369
 40
0.8071346535
 40
0.9031112767
 40
1.0
 40
1.0
 40
1.0
 40
1.0
 10
37.1404703145
 20
1.6926412117
 30
0.0
 10
37.1397196231
 20
1.6918236806
 30
0.0
 10
37.1354703444
 20
1.6917235757
 30
0.0
 10
37.1280425243
 20
1.6904435962
 30
0.0
 10
37.1153496745
 20
1.6898585056
 30
0.0
 10
37.0985335925
 20
1.688914725
 30
0.0
 10
37.0772654833
 20
1.6881413298
 30
0.0
 10
37.0519369986
 20
1.687348887
 30
0.0
 10
37.0227165627
 20
1.6866206086
 30
0.0
 10
36.989902972
 20
1.6859397802
 30
0.0
 10
36.9537974321
 20
1.6853217562
 30
0.0
 10
36.9147423729
 20
1.6847703057
 30
0.0
 10
36.8731048385
 20
1.6842917361
 30
0.0
 10
36.8292771732
 20
1.6838905426
 30
0.0
 10
36.7836720662
 20
1.6835707231
 30
0.0
 10
36.7367190328
 20
1.6833353716
 30
0.0
 10
36.6888602637
 20
1.6831867758
 30
0.0
 10
36.6567017612
 20
1.6831465686
 30
0.0
 10
36.640546467
 20
1.6831412117
 30
0.0
 11
37.1404703145
 21
1.6926412117
 31
0.0
 11
37.1372704979
 21
1.6917202203
 31
0.0
 11
37.1293925697
 21
1.6908079028
 31
0.0
 11
37.1169107237
 21
1.6899128512
 31
0.0
 11
37.0999425131
 21
1.6890434951
 31
0.0
 11
37.0786477432
 21
1.6882080221
 31
0.0
 11
37.0532269666
 21
1.6874143005
 31
0.0
 11
37.0239195945
 21
1.6866698057
 31
0.0
 11
36.9910016415
 21
1.6859815491
 31
0.0
 11
36.9547831267
 21
1.6853560127
 31
0.0
 11
36.9156051534
 21
1.6847990878
 31
0.0
 11
36.8738366969
 21
1.6843160195
 31
0.0
 11
36.8298711297
 21
1.6839113572
 31
0.0
 11
36.7841225162
 21
1.6835889121
 31
0.0
 11
36.7370217138
 21
1.6833517209
 31
0.0
 11
36.6890123143
 21
1.6832020175
 31
0.0
 11
36.640546467
 21
1.6831412117
 31
0.0
  0
SPLINE
  5
28D
100
AcDbEntity
  8
RACCORDO
100
AcDbSpline
 62
253
  6
CONTINUOUS
 70
0
 71
3
 72
23
 73
19
 74
17
 42
0.0000001
 43
0.0000001
 44
0.0000000001
 12
-0.0594263265
 22
-0.5107283464
 32
0.0
 13
-0.514172344
 23
-0.0013163535
 33
0.0
 40
0.0
 40
0.0
 40
0.0
 40
0.0
 40
0.0152990276
 40
0.0359432827
 40
0.0637534946
 40
0.0992876367
 40
0.1425957739
 40
0.1934792227
 40
0.2515863994
 40
0.3164551402
 40
0.387535347
 40
0.4642036348
 40
0.5457745115
 40
0.6315100189
 40
0.7206287103
 40
0.8123143775
 40
0.905724715
 40
1.0
 40
1.0
 40
1.0
 40
1.0
 10
37.1574652537
 20
-9.880657049
 30
0.0
 10
37.1571621986
 20
-9.883261598
 30
0.0
 10
37.1541577557
 20
-9.8890450939
 30
0.0
 10
37.1455921062
 20
-9.8959941284
 30
0.0
 10
37.1328605246
 20
-9.9028203341
 30
0.0
 10
37.1157862057
 20
-9.9094273297
 30
0.0
 10
37.0944774595
 20
-9.9158242422
 30
0.0
 10
37.0690853516
 20
-9.9219178705
 30
0.0
 10
37.0398372839
 20
-9.9276505553
 30
0.0
 10
37.0069990928
 20
-9.9329593527
 30
0.0
 10
36.9708762499
 20
-9.9377909107
 30
0.0
 10
36.9318063682
 20
-9.942096519
 30
0.0
 10
36.8901560042
 20
-9.9458336739
 30
0.0
 10
36.8463165032
 20
-9.9489657216
 30
0.0
 10
36.8007001787
 20
-9.9514621669
 30
0.0
 10
36.7537362235
 20
-9.9532988037
 30
0.0
 10
36.7058668037
 20
-9.9544578828
 30
0.0
 10
36.6736993208
 20
-9.9547709732
 30
0.0
 10
36.6575414061
 20
-9.9548123398
 30
0.0
 11
37.1574652537
 21
-9.880657049
 31
0.0
 11
37.1542739615
 21
-9.8878469945
 31
0.0
 11
37.146403335
 21
-9.894969209
 31
0.0
 11
37.1339275172
 21
-9.9019565996
 31
0.0
 11
37.1169640331
 21
-9.9087433436
 31
0.0
 11
37.0956726827
 21
-9.9152655081
 31
0.0
 11
37.0702540354
 21
-9.921461653
 31
0.0
 11
37.0409475406
 21
-9.9272734092
 31
0.0
 11
37.0080292722
 21
-9.9326460285
 31
0.0
 11
36.9718093279
 21
-9.9375288997
 31
0.0
 11
36.9326289078
 21
-9.9418760249
 31
0.0
 11
36.8908571005
 21
-9.9456464534
 31
0.0
 11
36.8468874059
 21
-9.9488046667
 31
0.0
 11
36.8011340286
 21
-9.9513209139
 31
0.0
 11
36.754027976
 21
-9.9531714912
 31
0.0
 11
36.7060129978
 21
-9.9543389658
 31
0.0
 11
36.6575414061
 21
-9.9548123398
 31
0.0
  0
SPLINE
  5
28E
100
AcDbEntity
  8
RACCORDO
100
AcDbSpline
 62
253
  6
CONTINUOUS
 70
0
 71
3
 72
23
 73
19
 74
17
 42
0.0000001
 43
0.0000001
 44
0.0000000001
 12
-0.0007172057
 22
-0.784257721
 32
0.0
 13
-0.7842577226
 23
-0.0007154592
 33
0.0
 40
0.0
 40
0.0
 40
0.0
 40
0.0
 40
0.0624467159
 40
0.1249003792
 40
0.1873620694
 40
0.2498325574
 40
0.3123122765
 40
0.3748013052
 40
0.4372993648
 40
0.4998058302
 40
0.5623197539
 40
0.6248399026
 40
0.6873648043
 40
0.749892805
 40
0.812422132
 40
0.8749509618
 40
0.9374774899
 40
1.0
 40
1.0
 40
1.0
 40
1.0
 10
37.1656395031
 20
-10.3058165189
 30
0.0
 10
37.1656245741
 20
-10.3221412919
 30
0.0
 10
37.1639888808
 20
-10.3548138893
 30
0.0
 10
37.1567423236
 20
-10.4033307434
 30
0.0
 10
37.1447723538
 20
-10.4509143258
 30
0.0
 10
37.1281941611
 20
-10.4971007101
 30
0.0
 10
37.1071672567
 20
-10.5414472776
 30
0.0
 10
37.0818939442
 20
-10.583527014
 30
0.0
 10
37.0526173685
 20
-10.6229352849
 30
0.0
 10
37.0196191735
 20
-10.6592930106
 30
0.0
 10
36.9832167946
 20
-10.6922505012
 30
0.0
 10
36.9437603905
 20
-10.7214907655
 30
0.0
 10
36.9016295262
 20
-10.7467325711
 30
0.0
 10
36.8572293316
 20
-10.7677331418
 30
0.0
 10
36.8109873194
 20
-10.7842904913
 30
0.0
 10
36.7633466162
 20
-10.7962453655
 30
0.0
 10
36.7147716262
 20
-10.8034827646
 30
0.0
 10
36.6820602426
 20
-10.8051163755
 30
0.0
 10
36.6657156555
 20
-10.8051312862
 30
0.0
 11
37.1656395031
 21
-10.3058165189
 31
0.0
 11
37.1631902985
 21
-10.3547295778
 31
0.0
 11
37.1559557068
 21
-10.4031721244
 31
0.0
 11
37.14400532
 21
-10.4506781726
 31
0.0
 11
37.1274540933
 21
-10.4967907445
 31
0.0
 11
37.1064612389
 21
-10.5410662668
 31
0.0
 11
37.0812286944
 21
-10.5830788373
 31
0.0
 11
37.0519991809
 21
-10.622424322
 31
0.0
 11
37.0190538675
 21
-10.6587242427
 31
0.0
 11
36.9827096671
 21
-10.6916294173
 31
0.0
 11
36.9433161874
 21
-10.7208233191
 31
0.0
 11
36.9012523686
 21
-10.7460251216
 31
0.0
 11
36.8569228377
 21
-10.7669923995
 31
0.0
 11
36.8107540162
 21
-10.7835234611
 31
0.0
 11
36.7631900186
 21
-10.7954592881
 31
0.0
 11
36.7146883802
 21
-10.8026850656
 31
0.0
 11
36.6657156555
 21
-10.8051312862
 31
0.0
  0
SPLINE
  5
28F
100
AcDbEntity
  8
RACCORDO
100
AcDbSpline
 62
253
  6
CONTINUOUS
 70
0
 71
3
 72
24
 73
20
 74
18
 42
0.0000001
 43
0.0000001
 44
0.0000000001
 12
0.1396603771
 22
0.8388740741
 32
0.0
 13
0.0011130294
 23
0.850419599
 33
0.0
 40
0.0
 40
0.0
 40
0.0
 40
0.0
 40
0.0087996113
 40
0.0251421004
 40
0.048933021
 40
0.0800210377
 40
0.1182059867
 40
0.1632407858
 40
0.2148336198
 40
0.2726499371
 40
0.3363149853
 40
0.4054156514
 40
0.479503944
 40
0.5580992359
 40
0.6406916772
 40
0.7267454067
 40
0.8157028108
 40
0.9069859893
 40
1.0
 40
1.0
 40
1.0
 40
1.0
 10
-6.860702348
 20
-10.805131442
 30
0.0
 10
-6.8602926957
 20
-10.8026708534
 30
0.0
 10
-6.8598664613
 20
-10.7955386774
 30
0.0
 10
-6.8591654723
 20
-10.7816969743
 30
0.0
 10
-6.85855027
 20
-10.7615102576
 30
0.0
 10
-6.8578932173
 20
-10.7351397919
 30
0.0
 10
-6.8572683066
 20
-10.7027415224
 30
0.0
 10
-6.8566581698
 20
-10.6645308954
 30
0.0
 10
-6.8560767525
 20
-10.6207538442
 30
0.0
 10
-6.8555257538
 20
-10.5716950083
 30
0.0
 10
-6.855010166
 20
-10.5176724914
 30
0.0
 10
-6.8545333533
 20
-10.4590367995
 30
0.0
 10
-6.8540987065
 20
-10.3961683424
 30
0.0
 10
-6.8537091646
 20
-10.3294749639
 30
0.0
 10
-6.8533673598
 20
-10.2593893989
 30
0.0
 10
-6.8530755912
 20
-10.186366201
 30
0.0
 10
-6.8528357843
 20
-10.1108792085
 30
0.0
 10
-6.852649569
 20
-10.0334190051
 30
0.0
 10
-6.8525625759
 20
-9.9811757134
 30
0.0
 10
-6.8525280667
 20
-9.9548087342
 30
0.0
 11
-6.860702348
 21
-10.805131442
 31
0.0
 11
-6.8600024281
 21
-10.7976808774
 31
0.0
 11
-6.8593100241
 21
-10.7838001511
 31
0.0
 11
-6.8586295729
 21
-10.7635793143
 31
0.0
 11
-6.8579655526
 21
-10.7371497731
 31
0.0
 11
-6.8573222431
 21
-10.704682889
 31
0.0
 11
-6.8567038279
 21
-10.6663893736
 31
0.0
 11
-6.8561143162
 21
-10.6225177393
 31
0.0
 11
-6.8555575339
 21
-10.5733527205
 31
0.0
 11
-6.8550370909
 21
-10.5192131708
 31
0.0
 11
-6.8545563647
 21
-10.460450526
 31
0.0
 11
-6.8541184715
 21
-10.3974458577
 31
0.0
 11
-6.8537262528
 21
-10.3306079746
 31
0.0
 11
-6.8533822509
 21
-10.2603705261
 31
0.0
 11
-6.8530887005
 21
-10.1871892741
 31
0.0
 11
-6.8528474966
 21
-10.1115384739
 31
0.0
 11
-6.8526602182
 21
-10.0339096292
 31
0.0
 11
-6.8525280667
 21
-9.9548087342
 31
0.0
  0
SPLINE
  5
290
100
AcDbEntity
  8
RACCORDO
100
AcDbSpline
 62
253
  6
CONTINUOUS
 70
0
 71
3
 72
24
 73
20
 74
18
 42
0.0000001
 43
0.0000001
 44
0.0000000001
 12
0.0011130294
 22
-0.850419599
 32
0.0
 13
0.1396603769
 23
-0.8388740741
 33
0.0
 40
0.0
 40
0.0
 40
0.0
 40
0.0
 40
0.0930140107
 40
0.1842971892
 40
0.2732545933
 40
0.3593083228
 40
0.4419007641
 40
0.520496056
 40
0.5945843486
 40
0.6636850147
 40
0.7273500629
 40
0.7851663802
 40
0.8367592142
 40
0.8817940133
 40
0.9199789623
 40
0.951066979
 40
0.9748578996
 40
0.9912003887
 40
1.0
 40
1.0
 40
1.0
 40
1.0
 10
36.6575414001
 20
-9.9548087342
 30
0.0
 10
36.6575759092
 20
-9.9811757134
 30
0.0
 10
36.6576629024
 20
-10.0334190051
 30
0.0
 10
36.6578491176
 20
-10.1108792085
 30
0.0
 10
36.6580889245
 20
-10.1863662009
 30
0.0
 10
36.6583806931
 20
-10.2593893989
 30
0.0
 10
36.6587224979
 20
-10.3294749639
 30
0.0
 10
36.6591120399
 20
-10.3961683424
 30
0.0
 10
36.6595466866
 20
-10.4590367995
 30
0.0
 10
36.6600234993
 20
-10.5176724914
 30
0.0
 10
36.6605390871
 20
-10.5716950083
 30
0.0
 10
36.6610900859
 20
-10.6207538442
 30
0.0
 10
36.6616715032
 20
-10.6645308954
 30
0.0
 10
36.66228164
 20
-10.7027415224
 30
0.0
 10
36.6629065506
 20
-10.7351397919
 30
0.0
 10
36.6635636033
 20
-10.7615102576
 30
0.0
 10
36.6641788056
 20
-10.7816969743
 30
0.0
 10
36.6648797946
 20
-10.7955386774
 30
0.0
 10
36.665306029
 20
-10.8026708534
 30
0.0
 10
36.6657156814
 20
-10.805131442
 30
0.0
 11
36.6575414001
 21
-9.9548087342
 31
0.0
 11
36.6576735515
 21
-10.0339096292
 31
0.0
 11
36.6578608299
 21
-10.1115384739
 31
0.0
 11
36.6581020339
 21
-10.1871892741
 31
0.0
 11
36.6583955842
 21
-10.2603705261
 31
0.0
 11
36.6587395861
 21
-10.3306079746
 31
0.0
 11
36.6591318049
 21
-10.3974458577
 31
0.0
 11
36.659569698
 21
-10.460450526
 31
0.0
 11
36.6600504242
 21
-10.5192131708
 31
0.0
 11
36.6605708673
 21
-10.5733527205
 31
0.0
 11
36.6611276495
 21
-10.6225177393
 31
0.0
 11
36.6617171612
 21
-10.6663893736
 31
0.0
 11
36.6623355765
 21
-10.704682889
 31
0.0
 11
36.6629788859
 21
-10.7371497731
 31
0.0
 11
36.6636429063
 21
-10.7635793143
 31
0.0
 11
36.6643233574
 21
-10.7838001511
 31
0.0
 11
36.6650157615
 21
-10.7976808774
 31
0.0
 11
36.6657156814
 21
-10.805131442
 31
0.0
  0
SPLINE
  5
291
100
AcDbEntity
  8
RACCORDO
100
AcDbSpline
 62
253
  6
CONTINUOUS
 70
0
 71
3
 72
23
 73
19
 74
17
 42
0.0000001
 43
0.0000001
 44
0.0000000001
 12
0.0007172057
 22
-0.784257721
 32
0.0
 13
0.7842577226
 23
-0.0007154592
 33
0.0
 40
0.0
 40
0.0
 40
0.0
 40
0.0
 40
0.0624467137
 40
0.124900375
 40
0.1873620635
 40
0.2498325502
 40
0.3123122683
 40
0.3748012963
 40
0.4372993556
 40
0.499805821
 40
0.5623197451
 40
0.6248398944
 40
0.687364797
 40
0.7498927989
 40
0.8124221273
 40
0.8749509585
 40
0.9374774883
 40
1.0
 40
1.0
 40
1.0
 40
1.0
 10
-7.3606261698
 20
-10.3058165189
 30
0.0
 10
-7.3606112407
 20
-10.3221412913
 30
0.0
 10
-7.3589755475
 20
-10.3548138876
 30
0.0
 10
-7.3517289908
 20
-10.4033307402
 30
0.0
 10
-7.3397590218
 20
-10.4509143215
 30
0.0
 10
-7.3231808299
 20
-10.4971007049
 30
0.0
 10
-7.3021539263
 20
-10.541447272
 30
0.0
 10
-7.2768806147
 20
-10.5835270083
 30
0.0
 10
-7.2476040397
 20
-10.6229352794
 30
0.0
 10
-7.2146058452
 20
-10.6592930056
 30
0.0
 10
-7.1782034666
 20
-10.6922504968
 30
0.0
 10
-7.1387470625
 20
-10.721490762
 30
0.0
 10
-7.0966161978
 20
-10.7467325684
 30
0.0
 10
-7.0522160027
 20
-10.76773314
 30
0.0
 10
-7.0059739897
 20
-10.7842904902
 30
0.0
 10
-6.9583332854
 20
-10.796245365
 30
0.0
 10
-6.9097582942
 20
-10.8034827645
 30
0.0
 10
-6.8770469097
 20
-10.8051163755
 30
0.0
 10
-6.8607023222
 20
-10.8051312862
 30
0.0
 11
-7.3606261698
 21
-10.3058165189
 31
0.0
 11
-7.3581769654
 21
-10.354729576
 31
0.0
 11
-7.3509423741
 21
-10.4031721212
 31
0.0
 11
-7.338991988
 21
-10.4506781682
 31
0.0
 11
-7.3224407622
 21
-10.4967907393
 31
0.0
 11
-7.3014479086
 21
-10.5410662611
 31
0.0
 11
-7.276215365
 21
-10.5830788315
 31
0.0
 11
-7.2469858522
 21
-10.6224243165
 31
0.0
 11
-7.2140405393
 21
-10.6587242376
 31
0.0
 11
-7.1776963391
 21
-10.6916294129
 31
0.0
 11
-7.1383028595
 21
-10.7208233155
 31
0.0
 11
-7.0962390404
 21
-10.7460251189
 31
0.0
 11
-7.0519095088
 21
-10.7669923976
 31
0.0
 11
-7.0057406864
 21
-10.78352346
 31
0.0
 11
-6.9581766878
 21
-10.7954592876
 31
0.0
 11
-6.9096750481
 21
-10.8026850655
 31
0.0
 11
-6.8607023222
 21
-10.8051312862
 31
0.0
  0
SPLINE
  5
292
100
AcDbEntity
  8
RACCORDO
100
AcDbSpline
 62
253
  6
CONTINUOUS
 70
0
 71
3
 72
24
 73
20
 74
18
 42
0.0000001
 43
0.0000001
 44
0.0000000001
 12
-0.2499935311
 22
0.0000000292
 32
0.0
 13
-0.2236391975
 23
0.1117241018
 33
0.0
 40
0.0
 40
0.0
 40
0.0
 40
0.0
 40
0.0912304058
 40
0.1817178509
 40
0.2706912593
 40
0.3574061258
 40
0.441139035
 40
0.5211925869
 40
0.5968979449
 40
0.667623636
 40
0.7327791661
 40
0.7918215538
 40
0.8442580548
 40
0.889651558
 40
0.927623392
 40
0.9578582321
 40
0.9801053763
 40
0.9941837637
 40
1.0
 40
1.0
 40
1.0
 40
1.0
 10
-6.8339620063
 20
11.0355621235
 30
0.0
 10
-6.8415643434
 20
11.0355621243
 30
0.0
 10
-6.8567071065
 20
11.0355681381
 30
0.0
 10
-6.8792641139
 20
11.0355951713
 30
0.0
 10
-6.9014448073
 20
11.0356399729
 30
0.0
 10
-6.9230625931
 20
11.0357021603
 30
0.0
 10
-6.9439370176
 20
11.0357811955
 30
0.0
 10
-6.9638939273
 20
11.0358764039
 30
0.0
 10
-6.9827668426
 20
11.0359869323
 30
0.0
 10
-7.0003981421
 20
11.0361118976
 30
0.0
 10
-7.0166408465
 20
11.0362498926
 30
0.0
 10
-7.0313590119
 20
11.0364006105
 30
0.0
 10
-7.0444311181
 20
11.0365596002
 30
0.0
 10
-7.0557442247
 20
11.0367344736
 30
0.0
 10
-7.0652152259
 20
11.0368961988
 30
0.0
 10
-7.0727343299
 20
11.037116685
 30
0.0
 10
-7.0783167352
 20
11.0372046091
 30
0.0
 10
-7.0817512594
 20
11.037552869
 30
0.0
 10
-7.0834903236
 20
11.0374891454
 30
0.0
 10
-7.0839239031
 20
11.03770575
 30
0.0
 11
-6.8339620063
 21
11.0355621235
 31
0.0
 11
-6.8567690157
 21
11.035571221
 31
0.0
 11
-6.8793902753
 21
11.0355984455
 31
0.0
 11
-6.901633006
 21
11.0356435702
 31
0.0
 11
-6.9233110712
 21
11.0357062188
 31
0.0
 11
-6.9442436053
 21
11.035785868
 31
0.0
 11
-6.9642562452
 21
11.035881855
 31
0.0
 11
-6.9831817664
 21
11.0359933779
 31
0.0
 11
-7.0008622817
 21
11.0361195067
 31
0.0
 11
-7.0171501439
 21
11.036259188
 31
0.0
 11
-7.0319095755
 21
11.0364112574
 31
0.0
 11
-7.0450173457
 21
11.0365744452
 31
0.0
 11
-7.05636411
 21
11.0367473902
 31
0.0
 11
-7.0658550922
 21
11.0369286473
 31
0.0
 11
-7.0734112667
 21
11.0371167064
 31
0.0
 11
-7.078969549
 21
11.0373099987
 31
0.0
 11
-7.0824835422
 21
11.0375069064
 31
0.0
 11
-7.0839239031
 21
11.03770575
 31
0.0
  0
SPLINE
  5
293
100
AcDbEntity
  8
RACCORDO
100
AcDbSpline
 62
253
  6
CONTINUOUS
 70
0
 71
3
 72
24
 73
20
 74
18
 42
0.0000001
 43
0.0000001
 44
0.0000000001
 12
-0.2236391978
 22
-0.1117241012
 32
0.0
 13
-0.2499935311
 23
-0.0000000292
 33
0.0
 40
0.0
 40
0.0
 40
0.0
 40
0.0
 40
0.0058162363
 40
0.0198946237
 40
0.0421417679
 40
0.072376608
 40
0.110348442
 40
0.1557419451
 40
0.2081784462
 40
0.2672208338
 40
0.332376364
 40
0.403102055
 40
0.478807413
 40
0.558860965
 40
0.6425938741
 40
0.7293087406
 40
0.818282149
 40
0.9087695941
 40
1.0
 40
1.0
 40
1.0
 40
1.0
 10
36.8889372364
 20
11.03770575
 30
0.0
 10
36.888503657
 20
11.0374891454
 30
0.0
 10
36.8867645927
 20
11.037552869
 30
0.0
 10
36.8833300685
 20
11.0372046091
 30
0.0
 10
36.8777476633
 20
11.037116685
 30
0.0
 10
36.8702285593
 20
11.0368961988
 30
0.0
 10
36.860757558
 20
11.0367344736
 30
0.0
 10
36.8494444515
 20
11.0365596002
 30
0.0
 10
36.8363723453
 20
11.0364006105
 30
0.0
 10
36.8216541798
 20
11.0362498926
 30
0.0
 10
36.8054114754
 20
11.0361118976
 30
0.0
 10
36.7877801759
 20
11.0359869323
 30
0.0
 10
36.7689072607
 20
11.0358764039
 30
0.0
 10
36.7489503509
 20
11.0357811955
 30
0.0
 10
36.7280759265
 20
11.0357021603
 30
0.0
 10
36.7064581407
 20
11.0356399729
 30
0.0
 10
36.6842774472
 20
11.0355951713
 30
0.0
 10
36.6617204398
 20
11.0355681381
 30
0.0
 10
36.6465776767
 20
11.0355621243
 30
0.0
 10
36.6389753396
 20
11.0355621235
 30
0.0
 11
36.8889372364
 21
11.03770575
 31
0.0
 11
36.8874968755
 21
11.0375069064
 31
0.0
 11
36.8839828823
 21
11.0373099987
 31
0.0
 11
36.8784246001
 21
11.0371167064
 31
0.0
 11
36.8708684255
 21
11.0369286473
 31
0.0
 11
36.8613774433
 21
11.0367473902
 31
0.0
 11
36.8500306791
 21
11.0365744452
 31
0.0
 11
36.8369229088
 21
11.0364112574
 31
0.0
 11
36.8221634772
 21
11.036259188
 31
0.0
 11
36.8058756151
 21
11.0361195067
 31
0.0
 11
36.7881950997
 21
11.0359933779
 31
0.0
 11
36.7692695785
 21
11.035881855
 31
0.0
 11
36.7492569386
 21
11.035785868
 31
0.0
 11
36.7283244045
 21
11.0357062188
 31
0.0
 11
36.7066463394
 21
11.0356435702
 31
0.0
 11
36.6844036086
 21
11.0355984455
 31
0.0
 11
36.6617823491
 21
11.035571221
 31
0.0
 11
36.6389753396
 21
11.0355621235
 31
0.0
  0
SPLINE
  5
294
100
AcDbEntity
  8
RACCORDO
100
AcDbSpline
 62
253
  6
CONTINUOUS
 70
0
 71
3
 72
21
 73
17
 74
15
 42
0.0000001
 43
0.0000001
 44
0.0000000001
 12
-0.0021818974
 22
0.2500968312
 32
0.0
 13
0.2500968254
 23
0.0021825619
 33
0.0
 40
0.0
 40
0.0
 40
0.0
 40
0.0
 40
0.1119051676
 40
0.2224018536
 40
0.3301012162
 40
0.4336496213
 40
0.5317456868
 40
0.6231566815
 40
0.7067340806
 40
0.7814281027
 40
0.8463010878
 40
0.9005396568
 40
0.9434658247
 40
0.9745481489
 40
0.9934196199
 40
1.0
 40
1.0
 40
1.0
 40
1.0
 10
-30.2454660352
 20
10.7877152693
 30
0.0
 10
-30.2455474237
 20
10.7970443119
 30
0.0
 10
-30.2456911201
 20
10.8155851391
 30
0.0
 10
-30.2458501368
 20
10.8431048418
 30
0.0
 10
-30.2459501882
 20
10.8699280907
 30
0.0
 10
-30.2459901682
 20
10.8957177991
 30
0.0
 10
-30.2459694229
 20
10.9201491565
 30
0.0
 10
-30.2458893157
 20
10.9429168954
 30
0.0
 10
-30.2457481227
 20
10.9637285048
 30
0.0
 10
-30.2455577696
 20
10.9823424057
 30
0.0
 10
-30.2452917003
 20
10.9984629122
 30
0.0
 10
-30.2450420512
 20
11.0120683861
 30
0.0
 10
-30.2445763351
 20
11.0224930446
 30
0.0
 10
-30.2444988252
 20
11.0308317002
 30
0.0
 10
-30.2436096588
 20
11.0344536752
 30
0.0
 10
-30.2438331448
 20
11.0377009627
 30
0.0
 10
-30.2432845675
 20
11.03770575
 30
0.0
 11
-30.2454660352
 21
10.7877152693
 31
0.0
 11
-30.2456827738
 21
10.8157026229
 31
0.0
 11
-30.2458419294
 21
10.8433380873
 31
0.0
 11
-30.2459415009
 21
10.8702741976
 31
0.0
 11
-30.2459802364
 21
10.8961722821
 31
0.0
 11
-30.2459576489
 21
10.9207067205
 31
0.0
 11
-30.2458740223
 21
10.9435690377
 31
0.0
 11
-30.2457304081
 21
10.9644717824
 31
0.0
 11
-30.245528612
 21
10.9831521417
 31
0.0
 11
-30.2452711712
 21
10.9993752446
 31
0.0
 11
-30.2449613226
 21
11.0129371159
 31
0.0
 11
-30.2446029619
 21
11.0236672405
 31
0.0
 11
-30.2442005948
 21
11.0314307071
 31
0.0
 11
-30.2437592805
 21
11.0361299048
 31
0.0
 11
-30.2432845675
 21
11.03770575
 31
0.0
  0
LINE
  5
295
100
AcDbEntity
  8
RACCORDO
100
AcDbLine
 62
253
  6
CONTINUOUS
 10
-30.2454630908
 20
10.7877152833
 11
-30.7367381304
 21
10.7853727574
  0
SPLINE
  5
296
100
AcDbEntity
  8
RACCORDO
100
AcDbSpline
 62
253
  6
CONTINUOUS
 70
0
 71
3
 72
23
 73
19
 74
17
 42
0.0000001
 43
0.0000001
 44
0.0000000001
 12
-0.4859394551
 22
-0.0728981209
 32
0.0
 13
0.0728767887
 23
-0.4859426548
 33
0.0
 40
0.0
 40
0.0
 40
0.0
 40
0.0
 40
0.0985473333
 40
0.1960008942
 40
0.2914426545
 40
0.3839735377
 40
0.4727218894
 40
0.5568516885
 40
0.6355704231
 40
0.7081365571
 40
0.7738665168
 40
0.8321411323
 40
0.8824114746
 40
0.924204034
 40
0.9571252014
 40
0.9808650344
 40
0.9952004307
 40
1.0
 40
1.0
 40
1.0
 40
1.0
 10
-29.1818152557
 20
-9.880657049
 30
0.0
 10
-29.1977779348
 20
-9.8830516875
 30
0.0
 10
-29.229525528
 20
-9.8878183589
 30
0.0
 10
-29.2767306724
 20
-9.8949181119
 30
0.0
 10
-29.3229595009
 20
-9.9018834055
 30
0.0
 10
-29.367776557
 20
-9.9086485969
 30
0.0
 10
-29.4107595571
 20
-9.9151500069
 30
0.0
 10
-29.4515039383
 20
-9.9213261431
 30
0.0
 10
-29.4896247165
 20
-9.9271195613
 30
0.0
 10
-29.5247666848
 20
-9.9324730762
 30
0.0
 10
-29.5565861516
 20
-9.9373445152
 30
0.0
 10
-29.5848233798
 20
-9.9416615426
 30
0.0
 10
-29.6090905789
 20
-9.9454634803
 30
0.0
 10
-29.6295130946
 20
-9.9484811641
 30
0.0
 10
-29.6449366978
 20
-9.9513186235
 30
0.0
 10
-29.6575801044
 20
-9.9523911191
 30
0.0
 10
-29.66245635
 20
-9.9548877192
 30
0.0
 10
-29.6676760152
 20
-9.9540349013
 30
0.0
 10
-29.6675594228
 20
-9.9548123398
 30
0.0
 11
-29.1818152557
 21
-9.880657049
 31
0.0
 11
-29.2297023881
 21
-9.8878469945
 31
0.0
 11
-29.2770562097
 21
-9.894969209
 31
0.0
 11
-29.3234306365
 21
-9.9019565996
 31
0.0
 11
-29.3683888109
 21
-9.9087433436
 31
0.0
 11
-29.4115072166
 21
-9.9152655081
 31
0.0
 11
-29.4523796682
 21
-9.921461653
 31
0.0
 11
-29.490621138
 21
-9.9272734092
 31
0.0
 11
-29.5258713826
 21
-9.9326460285
 31
0.0
 11
-29.5577983365
 21
-9.9375288997
 31
0.0
 11
-29.5861012406
 21
-9.9418760249
 31
0.0
 11
-29.610513475
 21
-9.9456464534
 31
0.0
 11
-29.6308050709
 21
-9.9488046667
 31
0.0
 11
-29.6467848768
 21
-9.9513209139
 31
0.0
 11
-29.6583023592
 21
-9.9531714912
 31
0.0
 11
-29.6652490209
 21
-9.9543389658
 31
0.0
 11
-29.6675594228
 21
-9.9548123398
 31
0.0
  0
SPLINE
  5
297
100
AcDbEntity
  8
RACCORDO
100
AcDbSpline
 62
253
  6
CONTINUOUS
 70
0
 71
3
 72
23
 73
19
 74
17
 42
0.0000001
 43
0.0000001
 44
0.0000000001
 12
-0.0261516865
 22
-0.4991559418
 32
0.0
 13
0.4991555254
 23
-0.0261596326
 33
0.0
 40
0.0
 40
0.0
 40
0.0
 40
0.0
 40
0.0979871817
 40
0.1950232916
 40
0.2901752017
 40
0.3825279267
 40
0.4711934375
 40
0.5553192191
 40
0.6340964926
 40
0.7067680292
 40
0.7726354882
 40
0.8310662277
 40
0.8814995662
 40
0.9234525413
 40
0.9565254334
 40
0.9804082146
 40
0.9948946581
 40
1.0
 40
1.0
 40
1.0
 40
1.0
 10
-28.7135128182
 20
-10.3058165189
 30
0.0
 10
-28.7143669949
 20
-10.3221201468
 30
0.0
 10
-28.7160394253
 20
-10.3545706129
 30
0.0
 10
-28.7184447933
 20
-10.4028578739
 30
0.0
 10
-28.7207196264
 20
-10.4502116206
 30
0.0
 10
-28.7228421163
 20
-10.4961763616
 30
0.0
 10
-28.7247919118
 20
-10.5403098744
 30
0.0
 10
-28.7265505275
 20
-10.5821878822
 30
0.0
 10
-28.728100857
 20
-10.6214066759
 30
0.0
 10
-28.7294296882
 20
-10.6575919202
 30
0.0
 10
-28.7305202923
 20
-10.6903860588
 30
0.0
 10
-28.7313771045
 20
-10.7195036912
 30
0.0
 10
-28.7319503296
 20
-10.7445732818
 30
0.0
 10
-28.7323620883
 20
-10.7656200173
 30
0.0
 10
-28.7322740261
 20
-10.7817180552
 30
0.0
 10
-28.7325377264
 20
-10.7944976583
 30
0.0
 10
-28.7314603141
 20
-10.8001711497
 30
0.0
 10
-28.7318040463
 20
-10.8050867683
 30
0.0
 10
-28.7309545931
 20
-10.8051312862
 30
0.0
 11
-28.7135128182
 21
-10.3058165189
 31
0.0
 11
-28.716033492
 21
-10.3547295778
 31
0.0
 11
-28.718445978
 21
-10.4031721244
 31
0.0
 11
-28.7207270697
 21
-10.4506781726
 31
0.0
 11
-28.7228548245
 21
-10.4967907445
 31
0.0
 11
-28.7248087747
 21
-10.5410662668
 31
0.0
 11
-28.7265701245
 21
-10.5830788373
 31
0.0
 11
-28.7281219309
 21
-10.622424322
 31
0.0
 11
-28.7294492665
 21
-10.6587242427
 31
0.0
 11
-28.7305393633
 21
-10.6916294173
 31
0.0
 11
-28.7313817351
 21
-10.7208233191
 31
0.0
 11
-28.7319682789
 21
-10.7460251216
 31
0.0
 11
-28.7322933526
 21
-10.7669923995
 31
0.0
 11
-28.732353829
 21
-10.7835234611
 31
0.0
 11
-28.7321491265
 21
-10.7954592881
 31
0.0
 11
-28.7316812142
 21
-10.8026850656
 31
0.0
 11
-28.7309545931
 21
-10.8051312862
 31
0.0
  0
ELLIPSE
  5
298
100
AcDbEntity
  8
RACCORDO
100
AcDbEllipse
 62
7
  6
CONTINUOUS
 10
-3.5820232795
 20
-10.946320896
 30
0.0
 11
0.2
 21
-0.0
 31
0.0
 40
0.0524077793
 41
1.5707963268
 42
2.617993878
  0
ELLIPSE
  5
299
100
AcDbEntity
  8
RACCORDO
100
AcDbEllipse
 62
7
  6
CONTINUOUS
 10
36.7524305026
 20
-10.5661726153
 30
0.0
 11
-0.1582391023
 21
0.4751033573
 31
0.0
 40
0.9984778551
 41
-3.4626430041
 42
-1.8927600658
  0
ELLIPSE
  5
29A
100
AcDbEntity
  8
RACCORDO
100
AcDbEllipse
 62
7
  6
CONTINUOUS
 10
-0.3129633872
 20
-10.946320896
 30
0.0
 11
0.2
 21
0.0
 31
0.0
 40
0.0524077793
 41
0.5235987756
 42
1.5707963268
  0
ELLIPSE
  5
29B
100
AcDbEntity
  8
RACCORDO
100
AcDbEllipse
 62
7
  6
CONTINUOUS
 10
10.8870366128
 20
-11.0249325649
 30
0.0
 11
0.2
 21
-0.0
 31
0.0
 40
0.0524077793
 41
0.5235987756
 42
1.5707963268
  0
ELLIPSE
  5
29C
100
AcDbEntity
  8
RACCORDO
100
AcDbEllipse
 62
7
  6
CONTINUOUS
 10
7.6179767205
 20
-11.0249325649
 30
0.0
 11
0.2
 21
0.0
 31
0.0
 40
0.0524077793
 41
1.5707963268
 42
2.617993878
  0
ELLIPSE
  5
29D
100
AcDbEntity
  8
RACCORDO
100
AcDbEllipse
 62
7
  6
CONTINUOUS
 10
22.1870366128
 20
-11.0249325649
 30
0.0
 11
0.2
 21
0.0
 31
0.0
 40
0.0524077793
 41
0.5235987756
 42
1.5707963268
  0
ELLIPSE
  5
29E
100
AcDbEntity
  8
RACCORDO
100
AcDbEllipse
 62
7
  6
CONTINUOUS
 10
-6.9474171693
 20
-10.5661726153
 30
0.0
 11
0.1582391023
 21
0.4751033573
 31
0.0
 40
0.9984778551
 41
-4.3904252414
 42
-2.8205423031
  0
ELLIPSE
  5
29F
100
AcDbEntity
  8
RACCORDO
100
AcDbEllipse
 62
7
  6
CONTINUOUS
 10
18.9179767205
 20
-11.0249325649
 30
0.0
 11
0.2
 21
0.0
 31
0.0
 40
0.0524077793
 41
1.5707963268
 42
2.617993878
  0
ELLIPSE
  5
2A0
100
AcDbEntity
  8
RACCORDO
100
AcDbEllipse
 62
7
  6
CONTINUOUS
 10
33.3870366128
 20
-10.946320896
 30
0.0
 11
0.2
 21
0.0
 31
0.0
 40
0.0524077793
 41
0.5235987756
 42
1.5707963268
  0
ELLIPSE
  5
2A1
100
AcDbEntity
  8
RACCORDO
100
AcDbEllipse
 62
7
  6
CONTINUOUS
 10
30.1179767205
 20
-10.946320896
 30
0.0
 11
0.2
 21
0.0
 31
0.0
 40
0.0524077793
 41
1.5707963268
 42
2.617993878
  0
ELLIPSE
  5
2A2
100
AcDbEntity
  8
RACCORDO
100
AcDbEllipse
 62
7
  6
CONTINUOUS
 10
36.9623219353
 20
10.8244048243
 30
0.0
 11
0.2236527791
 21
0.1118178731
 31
0.0
 40
0.9998096356
 41
-0.4635410001
 42
1.1071030277
  0
ELLIPSE
  5
2A3
100
AcDbEntity
  8
RACCORDO
100
AcDbEllipse
 62
7
  6
CONTINUOUS
 10
-7.157308602
 20
10.8244048243
 30
0.0
 11
0.2236527791
 21
-0.1118178731
 31
0.0
 40
0.9998096356
 41
2.0344896259
 42
3.6051336537
  0
ENDSEC
  0
SECTION
  2
OBJECTS
  0
DICTIONARY
  5
C
100
AcDbDictionary
280
0
281
1
  3
ACAD_GROUP
350
D
  3
ACAD_MLINESTYLE
350
17
  3
ACAD_LAYOUT
350
1A
  3
ACAD_PLOTSETTINGS
350
19
  3
ACAD_PLOTSTYLENAME
350
E
  0
DICTIONARY
  5
D
102
{ACAD_REACTORS
330
C
102
}
100
AcDbDictionary
280
0
281
1
  0
ACDBDICTIONARYWDFLT
  5
E
102
{ACAD_REACTORS
330
C
102
}
100
AcDbDictionary
281
1
  3
Normal
350
F
100
AcDbDictionaryWithDefault
340
F
  0
DICTIONARY
  5
17
102
{ACAD_REACTORS
330
C
102
}
100
AcDbDictionary
280
0
281
1
  3
Standard
350
18
  0
DICTIONARY
  5
19
102
{ACAD_REACTORS
330
C
102
}
100
AcDbDictionary
281
1
  0
DICTIONARY
  5
1A
102
{ACAD_REACTORS
330
C
102
}
100
AcDbDictionary
281
1
  3
Model
350
2A4
  3
Layout1
350
2A5
  0
ACDBPLACEHOLDER
  5
F
102
{ACAD_REACTORS
330
E
102
}
  0
MLINESTYLE
  5
18
102
{ACAD_REACTORS
330
17
102
}
100
AcDbMlineStyle
  2
STANDARD
 70
0
  3

 62
256
 51
90.0
 52
90.0
 71
2
 49
0.5
 62
256
  6
BYLAYER
 49
-0.5
 62
256
  6
BYLAYER
  0
LAYOUT
  5
2A4
102
{ACAD_REACTORS
330
1A
102
}
100
AcDbPlotSettings
  1

  2
none_device
  4
ISO_A4_(297.00_x_210.00_MM)
  6

 40
0.0
 41
0.0
 42
0.0
 43
0.0
 44
297.0
 45
210.0
 46
0.0
 47
0.0
 48
0.0
 49
0.0
140
0.0
141
0.0
142
1.0
143
1.0
 70
1024
 72
1
 73
0
 74
0
  7

 75
0
147
1.0
148
0.0
149
0.0
100
AcDbLayout
  1
Model
 70
0
 71
0
 10
0.0
 20
0.0
 11
297.0
 21
210.0
 12
0.0
 22
0.0
 32
0.0
 14
0.0
 24
0.0
 34
0.0
 15
0.0
 25
0.0
 35
0.0
146
0.0
 13
0.0
 23
0.0
 33
0.0
 16
1.0
 26
0.0
 36
0.0
 17
0.0
 27
1.0
 37
0.0
 76
0
330
20F
345
0
346
0
  0
LAYOUT
  5
2A5
102
{ACAD_REACTORS
330
1A
102
}
100
AcDbPlotSettings
  1

  2
none_device
  4
ISO_A4_(297.00_x_210.00_MM)
  6

 40
0.0
 41
0.0
 42
0.0
 43
0.0
 44
297.0
 45
210.0
 46
0.0
 47
0.0
 48
0.0
 49
0.0
140
0.0
141
0.0
142
1.0
143
1.0
 70
0
 72
1
 73
0
 74
0
  7

 75
0
147
1.0
148
0.0
149
0.0
100
AcDbLayout
  1
Layout1
 70
0
 71
1
 10
0.0
 20
0.0
 11
297.0
 21
210.0
 12
0.0
 22
0.0
 32
0.0
 14
0.0
 24
0.0
 34
0.0
 15
0.0
 25
0.0
 35
0.0
146
0.0
 13
0.0
 23
0.0
 33
0.0
 16
1.0
 26
0.0
 36
0.0
 17
0.0
 27
1.0
 37
0.0
 76
0
330
210
345
0
346
0
  0
ENDSEC
  0
EOF
