  0
SECTION
  2
HEADER
  9
$ACADVER
  1
AC1015
  9
$DWGCODEPAGE
  3
ANSI_1252
  9
$EXTMAX
 10
297.0
 20
210.0
 30
0.0
  9
$EXTMIN
 10
0.0
 20
0.0
 30
0.0
  9
$LIMMIN
 10
0.0
 20
0.0
  9
$LIMMAX
 10
297.0
 20
210.0
  9
$VIEWCTR
 10
148.5
 20
105.0
  9
$VIEWSIZE
 40
210.0
  9
$CLAYER
  8
0
  9
$LTSCALE
 40
16.335
  9
$CELTYPE
  6
BYLAYER
  9
$DIMSCALE
 40
1.0
  9
$DIMASZ
 40
3.0
  9
$DIMEXO
 40
0.5
  9
$DIMDLI
 40
11.286
  9
$DIMEXE
 40
1.5
  9
$DIMCEN
 40
2.673
  9
$DIMLFAC
 40
1.0
  9
$DIMBLK
  1
_FILLED
  9
$DIMTXT
 40
3.0
  9
$DIMTOL
 70
1
  9
$DIMLIM
 70
0
  9
$DIMTFAC
 40
1.0
  9
$DIMTP
 40
0.01
  9
$DIMTM
 40
0.01
  9
$DIMGAP
 40
0.625
  9
$DIMDSEP
 70
44
  9
$PDMODE
 70
3
  9
$PDSIZE
 40
3.0
  9
$HANDSEED
  5
4A6
  9
$TILEMODE
 70
1
  9
$MEASUREMENT
 70
1
  9
$INSUNITS
 70
4
  0
ENDSEC
  0
SECTION
  2
CLASSES
  0
CLASS
  1
ACDBDICTIONARYWDFLT
  2
AcDbDictionaryWithDefault
  3
AutoCAD 2000
 90
0
280
0
281
0
  0
CLASS
  1
ACDBPLACEHOLDER
  2
AcDbPlaceHolder
  3
AutoCAD 2000
 90
0
280
0
281
0
  0
CLASS
  1
LAYOUT
  2
AcDbLayout
  3
AutoCAD 2000
 90
0
280
0
281
0
  0
ENDSEC
  0
SECTION
  2
TABLES
  0
TABLE
  2
VPORT
  5
8
100
AcDbSymbolTable
 70
2
  0
VPORT
  5
1F4
100
AcDbSymbolTableRecord
100
AcDbViewportTableRecord
  2
*ACTIVE
 70
0
 10
0.0
 20
0.0
 11
1.0
 21
1.0
 12
148.5
 22
105.0
 13
0.0
 23
0.0
 14
1.0
 24
1.0
 15
0.0
 25
0.0
 16
0.0
 26
0.0
 36
1.0
 17
0.0
 27
0.0
 37
0.0
 40
210.0
 41
1.4142857143
 42
50.0
 43
0.0
 44
0.0
 50
0.0
 51
0.0
 71
0
 72
100
 73
1
 74
1
 75
0
 76
0
 77
0
 78
0
  0
ENDTAB
  0
TABLE
  2
LTYPE
  5
5
100
AcDbSymbolTable
 70
6
  0
LTYPE
  5
14
100
AcDbSymbolTableRecord
100
AcDbLinetypeTableRecord
  2
BYBLOCK
 70
0
  3

 72
65
 73
0
 40
0.0
  0
LTYPE
  5
15
100
AcDbSymbolTableRecord
100
AcDbLinetypeTableRecord
  2
BYLAYER
 70
0
  3

 72
65
 73
0
 40
0.0
  0
LTYPE
  5
16
100
AcDbSymbolTableRecord
100
AcDbLinetypeTableRecord
  2
CONTINUOUS
 70
64
  3
Solid line
 72
65
 73
0
 40
0.0
  0
LTYPE
  5
1F5
100
AcDbSymbolTableRecord
100
AcDbLinetypeTableRecord
  2
CENTER
 70
64
  3
____ _ ____ _ ____ _ ____ _ ____ _ ____ _ ____
 72
65
 73
4
 40
0.6
 49
0.375
 74
0
 49
-0.075
 74
0
 49
0.075
 74
0
 49
-0.075
 74
0
  0
LTYPE
  5
1F6
100
AcDbSymbolTableRecord
100
AcDbLinetypeTableRecord
  2
HIDDEN
 70
64
  3
- - - - - - - - - - - - - - - - - - - -
 72
65
 73
2
 40
0.2
 49
0.1
 74
0
 49
-0.1
 74
0
  0
LTYPE
  5
1F7
100
AcDbSymbolTableRecord
100
AcDbLinetypeTableRecord
  2
PHANTOM
 70
64
  3
_____ _ _ _____ _ _ _____ _ _ _____
 72
65
 73
6
 40
0.8
 49
0.45
 74
0
 49
-0.05
 74
0
 49
0.1
 74
0
 49
-0.05
 74
0
 49
0.1
 74
0
 49
-0.05
 74
0
  0
LTYPE
  5
1F8
100
AcDbSymbolTableRecord
100
AcDbLinetypeTableRecord
  2
DOT
 70
64
  3
. . . . . . . . . . . . . . . . . . . .
 72
65
 73
2
 40
0.2
 49
0.1
 74
0
 49
-0.1
 74
0
  0
LTYPE
  5
1F9
100
AcDbSymbolTableRecord
100
AcDbLinetypeTableRecord
  2
DASHED
 70
64
  3
- - - - - - - - - - - - - - - - - - - -
 72
65
 73
2
 40
0.2
 49
0.1
 74
0
 49
-0.1
 74
0
  0
ENDTAB
  0
TABLE
  2
LAYER
  5
2
100
AcDbSymbolTable
 70
36
  0
LAYER
  5
10
100
AcDbSymbolTableRecord
100
AcDbLayerTableRecord
  2
0
 70
0
 62
7
  6
CONTINUOUS
370
-3
390
F
  0
LAYER
  5
1FA
100
AcDbSymbolTableRecord
100
AcDbLayerTableRecord
  2
DEFAULT_1
 70
0
 62
7
  6
CENTER
370
-3
390
F
  0
LAYER
  5
1FB
100
AcDbSymbolTableRecord
100
AcDbLayerTableRecord
  2
DEFAULT_2
 70
0
 62
7
  6
HIDDEN
370
-3
390
F
  0
LAYER
  5
1FC
100
AcDbSymbolTableRecord
100
AcDbLayerTableRecord
  2
DEFAULT_3
 70
0
 62
7
  6
PHANTOM
370
-3
390
F
  0
LAYER
  5
1FD
100
AcDbSymbolTableRecord
100
AcDbLayerTableRecord
  2
ASSI
 70
0
 62
7
  6
CONTINUOUS
370
-3
390
F
  0
LAYER
  5
1FE
100
AcDbSymbolTableRecord
100
AcDbLayerTableRecord
  2
COORDINATE
 70
0
 62
7
  6
CONTINUOUS
370
-3
390
F
  0
LAYER
  5
1FF
100
AcDbSymbolTableRecord
100
AcDbLayerTableRecord
  2
COPY_PUBLISH
 70
0
 62
7
  6
CONTINUOUS
370
-3
390
F
  0
LAYER
  5
200
100
AcDbSymbolTableRecord
100
AcDbLayerTableRecord
  2
COSMETICI
 70
0
 62
7
  6
CONTINUOUS
370
-3
390
F
  0
LAYER
  5
201
100
AcDbSymbolTableRecord
100
AcDbLayerTableRecord
  2
CURVE
 70
0
 62
7
  6
CONTINUOUS
370
-3
390
F
  0
LAYER
  5
202
100
AcDbSymbolTableRecord
100
AcDbLayerTableRecord
  2
DRAFT
 70
0
 62
7
  6
CONTINUOUS
370
-3
390
F
  0
LAYER
  5
203
100
AcDbSymbolTableRecord
100
AcDbLayerTableRecord
  2
IMPORT_IGES
 70
0
 62
7
  6
CONTINUOUS
370
-3
390
F
  0
LAYER
  5
204
100
AcDbSymbolTableRecord
100
AcDbLayerTableRecord
  2
INTF_1
 70
0
 62
7
  6
CONTINUOUS
370
-3
390
F
  0
LAYER
  5
205
100
AcDbSymbolTableRecord
100
AcDbLayerTableRecord
  2
INTF_2
 70
0
 62
7
  6
CONTINUOUS
370
-3
390
F
  0
LAYER
  5
206
100
AcDbSymbolTableRecord
100
AcDbLayerTableRecord
  2
NOTE
 70
0
 62
7
  6
CONTINUOUS
370
-3
390
F
  0
LAYER
  5
207
100
AcDbSymbolTableRecord
100
AcDbLayerTableRecord
  2
PIANI
 70
0
 62
7
  6
CONTINUOUS
370
-3
390
F
  0
LAYER
  5
208
100
AcDbSymbolTableRecord
100
AcDbLayerTableRecord
  2
PUNTI
 70
0
 62
7
  6
CONTINUOUS
370
-3
390
F
  0
LAYER
  5
209
100
AcDbSymbolTableRecord
100
AcDbLayerTableRecord
  2
RACCORDO
 70
0
 62
7
  6
CONTINUOUS
370
-3
390
F
  0
LAYER
  5
20A
100
AcDbSymbolTableRecord
100
AcDbLayerTableRecord
  2
SIMBOLI
 70
0
 62
7
  6
CONTINUOUS
370
-3
390
F
  0
LAYER
  5
20B
100
AcDbSymbolTableRecord
100
AcDbLayerTableRecord
  2
SMUSSO
 70
0
 62
7
  6
CONTINUOUS
370
-3
390
F
  0
LAYER
  5
20C
100
AcDbSymbolTableRecord
100
AcDbLayerTableRecord
  2
SNAPLINE
 70
0
 62
7
  6
CONTINUOUS
370
-3
390
F
  0
LAYER
  5
20D
100
AcDbSymbolTableRecord
100
AcDbLayerTableRecord
  2
SUPERFICI
 70
0
 62
7
  6
CONTINUOUS
370
-3
390
F
  0
LAYER
  5
20E
100
AcDbSymbolTableRecord
100
AcDbLayerTableRecord
  2
TRASH
 70
0
 62
7
  6
CONTINUOUS
370
-3
390
F
  0
LAYER
  5
20F
100
AcDbSymbolTableRecord
100
AcDbLayerTableRecord
  2
XSEC_DATUMS
 70
0
 62
7
  6
CONTINUOUS
370
-3
390
F
  0
ENDTAB
  0
TABLE
  2
STYLE
  5
3
100
AcDbSymbolTable
 70
1
  0
STYLE
  5
11
100
AcDbSymbolTableRecord
100
AcDbTextStyleTableRecord
  2
STANDARD
 70
0
 40
0.0
 41
0.8
 50
0.0
 71
0
 42
0.2
  3
txt
  4

  0
STYLE
  5
210
100
AcDbSymbolTableRecord
100
AcDbTextStyleTableRecord
  2
TEXTSTYLE_1
 70
0
 40
0.0
 41
0.8
 50
0.0
 71
0
 42
0.2
  3
gdt
  4

  0
ENDTAB
  0
TABLE
  2
VIEW
  5
6
100
AcDbSymbolTable
 70
0
  0
ENDTAB
  0
TABLE
  2
UCS
  5
7
100
AcDbSymbolTable
 70
0
  0
ENDTAB
  0
TABLE
  2
APPID
  5
9
100
AcDbSymbolTable
 70
1
  0
APPID
  5
211
100
AcDbSymbolTableRecord
100
AcDbRegAppTableRecord
  2
ACAD
 70
0
  0
ENDTAB
  0
TABLE
  2
BLOCK_RECORD
  5
1
100
AcDbSymbolTable
 70
0
  0
BLOCK_RECORD
  5
212
100
AcDbSymbolTableRecord
100
AcDbBlockTableRecord
  2
*Model_Space
  0
BLOCK_RECORD
  5
213
100
AcDbSymbolTableRecord
100
AcDbBlockTableRecord
  2
*Paper_Space
  0
BLOCK_RECORD
  5
214
100
AcDbSymbolTableRecord
100
AcDbBlockTableRecord
  2
_FILLED
  0
BLOCK_RECORD
  5
215
100
AcDbSymbolTableRecord
100
AcDbBlockTableRecord
  2
*D0
  0
BLOCK_RECORD
  5
216
100
AcDbSymbolTableRecord
100
AcDbBlockTableRecord
  2
*D1
  0
BLOCK_RECORD
  5
217
100
AcDbSymbolTableRecord
100
AcDbBlockTableRecord
  2
*D2
  0
BLOCK_RECORD
  5
218
100
AcDbSymbolTableRecord
100
AcDbBlockTableRecord
  2
*D3
  0
ENDTAB
  0
TABLE
  2
DIMSTYLE
  5
A
100
AcDbSymbolTable
 70
1
100
AcDbDimStyleTable
 71
0
  0
DIMSTYLE
105
219
100
AcDbSymbolTableRecord
100
AcDbDimStyleTableRecord
  2
STANDARD
 70
0
  3

  4

 40
1.0
 41
3.0
 42
0.5
 43
0.38
 44
1.5
 45
0.0
 46
0.0
 47
0.01
 48
0.01
140
3.0
141
0.09
142
0.0
143
25.4
144
1.0
145
0.0
146
1.0
147
0.625
 71
1.0
 72
0.0
 73
0
 74
0
 75
0
 76
0
 77
1
 78
8
170
0
171
2
172
0
173
0
174
0
175
0
176
0
177
0
178
0
270
2
271
2
272
2
273
2
274
2
275
0
280
0
281
0
282
0
283
1
284
8
285
0
286
0
287
3
288
0
340
11
278
44
341
214
342
214
343
214
344
214
  0
DIMSTYLE
105
21A
100
AcDbSymbolTableRecord
100
AcDbDimStyleTableRecord
  2
DIMSTYLE_1
 70
0
  3

  4

 40
1.0
 41
3.0
 42
0.5
 43
0.38
 44
1.5
 45
0.0
 46
0.0
 47
0.0
 48
0.0
140
3.0
141
0.09
142
0.0
143
25.4
144
1.0
145
0.0
146
1.0
147
0.75
 71
0.0
 72
0.0
 73
0
 74
0
 75
0
 76
0
 77
1
 78
8
170
0
171
2
172
0
173
0
174
0
175
0
176
0
177
0
178
0
270
2
271
2
272
2
273
2
274
2
275
0
280
0
281
0
282
0
283
1
284
8
285
0
286
0
287
3
288
0
340
11
278
44
341
214
342
214
343
214
344
214
  0
ENDTAB
  0
ENDSEC
  0
SECTION
  2
BLOCKS
  0
BLOCK
  5
20
100
AcDbEntity
  8
0
100
AcDbBlockBegin
  2
*Model_Space
 70
0
 10
0.0
 20
0.0
 30
0.0
  3
*Model_Space
  1

  0
ENDBLK
  5
21
100
AcDbEntity
  8
0
100
AcDbBlockEnd
  0
BLOCK
  5
1C
100
AcDbEntity
  8
0
100
AcDbBlockBegin
  2
*Paper_Space
 70
0
 10
0.0
 20
0.0
 30
0.0
  3
*Paper_Space
  1

  0
ENDBLK
  5
1D
100
AcDbEntity
  8
0
100
AcDbBlockEnd
  0
BLOCK
  5
21B
100
AcDbEntity
  8
0
100
AcDbBlockBegin
  2
_FILLED
 70
64
 10
0.0
 20
0.0
  3
_FILLED
  1

  0
SOLID
  5
21C
100
AcDbEntity
  8
0
  6
BYBLOCK
 62
0
100
AcDbTrace
 10
0.0
 20
0.0
 11
-1.0
 21
0.3166666667
 12
-1.0
 22
-0.3166666667
 13
-1.0
 23
-0.3166666667
  0
ENDBLK
  5
21D
100
AcDbEntity
  8
0
  6
BYBLOCK
 62
0
100
AcDbBlockEnd
  0
BLOCK
  5
21E
100
AcDbEntity
  8
0
100
AcDbBlockBegin
 62
7
  6
CONTINUOUS
  2
*D0
 70
65
 10
0.0
 20
0.0
  3
*D0
  1

  0
MTEXT
  5
21F
100
AcDbEntity
  8
0
100
AcDbMText
 62
7
  6
CONTINUOUS
  7
STANDARD
 71
2
 72
1
 10
133.9789859694
 20
139.0338647959
 30
0.0
 11
1.0
 21
0.0
 31
0.0
 44
0.9
  1
11
 40
3.0
 41
3.4285714286
  0
LINE
  5
220
100
AcDbEntity
  8
0
100
AcDbLine
 62
7
  6
CONTINUOUS
 10
139.4789859694
 20
124.2798603416
 11
139.4789859694
 21
136.7838647959
  0
LINE
  5
221
100
AcDbEntity
  8
0
100
AcDbLine
 62
7
  6
CONTINUOUS
 10
128.4789859694
 20
127.5207354152
 11
128.4789859694
 21
136.7838647959
  0
LINE
  5
222
100
AcDbEntity
  8
0
100
AcDbLine
 62
7
  6
CONTINUOUS
 10
139.4789859694
 20
135.2838647959
 11
133.9789859694
 21
135.2838647959
  0
LINE
  5
223
100
AcDbEntity
  8
0
100
AcDbLine
 62
7
  6
CONTINUOUS
 10
128.4789859694
 20
135.2838647959
 11
133.9789859694
 21
135.2838647959
  0
INSERT
  5
224
100
AcDbEntity
  8
0
100
AcDbBlockReference
 62
7
  6
CONTINUOUS
  2
_FILLED
 10
139.4789859694
 20
135.2838647959
 41
3.0
 42
3.0
 43
3.0
  0
INSERT
  5
225
100
AcDbEntity
  8
0
100
AcDbBlockReference
 62
7
  6
CONTINUOUS
  2
_FILLED
 10
128.4789859694
 20
135.2838647959
 41
3.0
 42
3.0
 43
3.0
 50
180.0
  0
ENDBLK
  5
226
100
AcDbEntity
  8
0
  6
BYBLOCK
 62
0
100
AcDbBlockEnd
  0
BLOCK
  5
227
100
AcDbEntity
  8
0
100
AcDbBlockBegin
 62
7
  6
CONTINUOUS
  2
*D1
 70
65
 10
0.0
 20
0.0
  3
*D1
  1

  0
MTEXT
  5
228
100
AcDbEntity
  8
0
100
AcDbMText
 62
7
  6
CONTINUOUS
  7
STANDARD
 71
2
 72
1
 10
131.8789859694
 20
149.0338647959
 30
0.0
 11
1.0
 21
0.0
 31
0.0
 44
0.9
  1
15,2
 40
3.0
 41
7.9285714286
  0
LINE
  5
229
100
AcDbEntity
  8
0
100
AcDbLine
 62
7
  6
CONTINUOUS
 10
139.4789859694
 20
124.2798603416
 11
139.4789859694
 21
146.7838647959
  0
LINE
  5
22A
100
AcDbEntity
  8
0
100
AcDbLine
 62
7
  6
CONTINUOUS
 10
124.2789859694
 20
123.637345224
 11
124.2789859694
 21
146.7838647959
  0
LINE
  5
22B
100
AcDbEntity
  8
0
100
AcDbLine
 62
7
  6
CONTINUOUS
 10
139.4789859694
 20
145.2838647959
 11
131.8789859694
 21
145.2838647959
  0
LINE
  5
22C
100
AcDbEntity
  8
0
100
AcDbLine
 62
7
  6
CONTINUOUS
 10
124.2789859694
 20
145.2838647959
 11
131.8789859694
 21
145.2838647959
  0
INSERT
  5
22D
100
AcDbEntity
  8
0
100
AcDbBlockReference
 62
7
  6
CONTINUOUS
  2
_FILLED
 10
139.4789859694
 20
145.2838647959
 41
3.0
 42
3.0
 43
3.0
  0
INSERT
  5
22E
100
AcDbEntity
  8
0
100
AcDbBlockReference
 62
7
  6
CONTINUOUS
  2
_FILLED
 10
124.2789859694
 20
145.2838647959
 41
3.0
 42
3.0
 43
3.0
 50
180.0
  0
ENDBLK
  5
22F
100
AcDbEntity
  8
0
  6
BYBLOCK
 62
0
100
AcDbBlockEnd
  0
BLOCK
  5
230
100
AcDbEntity
  8
0
100
AcDbBlockBegin
 62
7
  6
CONTINUOUS
  2
*D2
 70
65
 10
0.0
 20
0.0
  3
*D2
  1

  0
MTEXT
  5
231
100
AcDbEntity
  8
0
100
AcDbMText
 62
7
  6
CONTINUOUS
  7
STANDARD
 71
2
 72
1
 10
160.2625637755
 20
139.0338647959
 30
0.0
 11
1.0
 21
0.0
 31
0.0
 44
0.9
  1
22,4
 40
3.0
 41
8.7857142857
  0
LINE
  5
232
100
AcDbEntity
  8
0
100
AcDbLine
 62
7
  6
CONTINUOUS
 10
149.0625637755
 20
120.7838647959
 11
149.0625637755
 21
136.7838647959
  0
LINE
  5
233
100
AcDbEntity
  8
0
100
AcDbLine
 62
7
  6
CONTINUOUS
 10
171.4625637755
 20
120.7838647959
 11
171.4625637755
 21
136.7838647959
  0
LINE
  5
234
100
AcDbEntity
  8
0
100
AcDbLine
 62
7
  6
CONTINUOUS
 10
149.0625637755
 20
135.2838647959
 11
160.2625637755
 21
135.2838647959
  0
LINE
  5
235
100
AcDbEntity
  8
0
100
AcDbLine
 62
7
  6
CONTINUOUS
 10
171.4625637755
 20
135.2838647959
 11
160.2625637755
 21
135.2838647959
  0
INSERT
  5
236
100
AcDbEntity
  8
0
100
AcDbBlockReference
 62
7
  6
CONTINUOUS
  2
_FILLED
 10
149.0625637755
 20
135.2838647959
 41
3.0
 42
3.0
 43
3.0
 50
180.0
  0
INSERT
  5
237
100
AcDbEntity
  8
0
100
AcDbBlockReference
 62
7
  6
CONTINUOUS
  2
_FILLED
 10
171.4625637755
 20
135.2838647959
 41
3.0
 42
3.0
 43
3.0
  0
ENDBLK
  5
238
100
AcDbEntity
  8
0
  6
BYBLOCK
 62
0
100
AcDbBlockEnd
  0
BLOCK
  5
239
100
AcDbEntity
  8
0
100
AcDbBlockBegin
 62
7
  6
CONTINUOUS
  2
*D3
 70
65
 10
0.0
 20
0.0
  3
*D3
  1

  0
MTEXT
  5
23A
100
AcDbEntity
  8
0
100
AcDbMText
 62
7
  6
CONTINUOUS
  7
STANDARD
 71
2
 72
1
 10
175.7125637755
 20
102.7838647959
 30
0.0
 11
0.0
 21
1.0
 31
0.0
 44
0.9
  1
49
 40
3.0
 41
4.7142857143
  0
LINE
  5
23B
100
AcDbEntity
  8
0
100
AcDbLine
 62
7
  6
CONTINUOUS
 10
170.6626018517
 20
127.2838647959
 11
180.9625637755
 21
127.2838647959
  0
LINE
  5
23C
100
AcDbEntity
  8
0
100
AcDbLine
 62
7
  6
CONTINUOUS
 10
170.6626018517
 20
78.2838647959
 11
180.9625637755
 21
78.2838647959
  0
LINE
  5
23D
100
AcDbEntity
  8
0
100
AcDbLine
 62
7
  6
CONTINUOUS
 10
179.4625637755
 20
127.2838647959
 11
179.4625637755
 21
102.7838647959
  0
LINE
  5
23E
100
AcDbEntity
  8
0
100
AcDbLine
 62
7
  6
CONTINUOUS
 10
179.4625637755
 20
78.2838647959
 11
179.4625637755
 21
102.7838647959
  0
INSERT
  5
23F
100
AcDbEntity
  8
0
100
AcDbBlockReference
 62
7
  6
CONTINUOUS
  2
_FILLED
 10
179.4625637755
 20
127.2838647959
 41
3.0
 42
3.0
 43
3.0
 50
90.0
  0
INSERT
  5
240
100
AcDbEntity
  8
0
100
AcDbBlockReference
 62
7
  6
CONTINUOUS
  2
_FILLED
 10
179.4625637755
 20
78.2838647959
 41
3.0
 42
3.0
 43
3.0
 50
270.0
  0
ENDBLK
  5
241
100
AcDbEntity
  8
0
  6
BYBLOCK
 62
0
100
AcDbBlockEnd
  0
ENDSEC
  0
SECTION
  2
ENTITIES
  0
DIMENSION
  5
242
100
AcDbEntity
  8
0
100
AcDbDimension
 62
7
  6
CONTINUOUS
  2
*D0
 10
128.4789859694
 20
135.2838647959
 11
133.9789859694
 21
135.2838647959
 70
160
 71
2
 42
11.0
  3
DIMSTYLE_1
100
AcDbAlignedDimension
 13
139.4789859694
 23
123.7798603416
 14
128.4789859694
 24
127.0207354152
 50
180.0
100
AcDbRotatedDimension
  0
DIMENSION
  5
243
100
AcDbEntity
  8
0
100
AcDbDimension
 62
7
  6
CONTINUOUS
  2
*D1
 10
124.2789859694
 20
145.2838647959
 11
131.8789859694
 21
145.2838647959
 70
160
 71
2
 42
15.2
  3
DIMSTYLE_1
100
AcDbAlignedDimension
 13
139.4789859694
 23
123.7798603416
 14
124.2789859694
 24
123.137345224
 50
180.0
100
AcDbRotatedDimension
  0
DIMENSION
  5
244
100
AcDbEntity
  8
0
100
AcDbDimension
 62
7
  6
CONTINUOUS
  2
*D2
 10
171.4625637755
 20
135.2838647959
 11
160.2625637755
 21
135.2838647959
 70
160
 71
2
 42
22.4
  3
DIMSTYLE_1
100
AcDbAlignedDimension
 13
149.0625637755
 23
120.2838647959
 14
171.4625637755
 24
120.2838647959
100
AcDbRotatedDimension
  0
DIMENSION
  5
245
100
AcDbEntity
  8
0
100
AcDbDimension
 62
7
  6
CONTINUOUS
  2
*D3
 10
179.4625637755
 20
78.2838647959
 11
179.4625637755
 21
102.7838647959
 70
160
 71
2
 42
49.0
  3
DIMSTYLE_1
100
AcDbAlignedDimension
 13
170.1626018517
 23
127.2838647959
 14
170.1626018517
 24
78.2838647959
 50
270.0
100
AcDbRotatedDimension
  0
LWPOLYLINE
  5
246
100
AcDbEntity
  8
RACCORDO
100
AcDbPolyline
 62
7
  6
CONTINUOUS
 90
13
 70
0
 10
170.1626018517
 20
78.2838647959
 10
170.1952295103
 20
78.2860026262
 10
170.2272984831
 20
78.2923803466
 10
170.2582603849
 20
78.3028890731
 10
170.287585956
 20
78.3173493745
 10
170.3147732133
 20
78.3355141084
 10
170.3393562408
 20
78.3570723306
 10
170.360914463
 20
78.3816553581
 10
170.3790791969
 20
78.4088426155
 10
170.3935394983
 20
78.4381681865
 10
170.4040482248
 20
78.4691300883
 10
170.4104259453
 20
78.5011990611
 10
170.4125637755
 20
78.5338267197
  0
LWPOLYLINE
  5
247
100
AcDbEntity
  8
RACCORDO
100
AcDbPolyline
 62
253
  6
CONTINUOUS
 90
16
 70
0
 10
150.3809296757
 20
78.3022687723
 10
150.3548065665
 20
78.3036455182
 10
150.3289695526
 20
78.3077447654
 10
150.3037016009
 20
78.3145216203
 10
150.2792794415
 20
78.3239018663
 10
150.2559705512
 20
78.3357827713
 10
150.2340302216
 20
78.3500342081
 10
150.2136987438
 20
78.3665000903
 10
150.1951987829
 20
78.385000083
 10
150.1787329505
 20
78.4053315685
 10
150.1644815798
 20
78.4272718679
 10
150.152600742
 20
78.4505806952
 10
150.1432205459
 20
78.4750027874
 10
150.136443722
 20
78.500270681
 10
150.1323444924
 20
78.5261076388
 10
150.1309677519
 20
78.5522306961
  0
LWPOLYLINE
  5
248
100
AcDbEntity
  8
RACCORDO
100
AcDbPolyline
 62
7
  6
CONTINUOUS
 90
13
 70
0
 10
150.3625256993
 20
78.2838647959
 10
150.3298980407
 20
78.2860026262
 10
150.2978290679
 20
78.2923803466
 10
150.2668671661
 20
78.3028890731
 10
150.237541595
 20
78.3173493745
 10
150.2103543377
 20
78.3355141084
 10
150.1857713102
 20
78.3570723306
 10
150.164213088
 20
78.3816553581
 10
150.1460483541
 20
78.4088426155
 10
150.1315880527
 20
78.4381681865
 10
150.1210793262
 20
78.4691300883
 10
150.1147016057
 20
78.5011990611
 10
150.1125637755
 20
78.5338267197
  0
LWPOLYLINE
  5
249
100
AcDbEntity
  8
RACCORDO
100
AcDbPolyline
 62
253
  6
CONTINUOUS
 90
10
 70
0
 10
152.994159335
 20
125.3654295368
 10
152.9928488246
 20
125.3647443927
 10
152.9896844712
 20
125.3640751271
 10
152.9846899384
 20
125.3634217401
 10
152.97790209
 20
125.3627795393
 10
152.9693718417
 20
125.3621532171
 10
152.9591647719
 20
125.3615568504
 10
152.9473603065
 20
125.3609913049
 10
152.9340454132
 20
125.3604557151
 10
152.919313759
 20
125.3599615612
  0
LWPOLYLINE
  5
24A
100
AcDbEntity
  8
RACCORDO
100
AcDbPolyline
 62
253
  6
CONTINUOUS
 90
7
 70
0
 10
167.3309982129
 20
80.4022687723
 10
167.3340492229
 20
80.4030393729
 10
167.3410879351
 20
80.4037875738
 10
167.3521143494
 20
80.404513375
 10
167.3671284659
 20
80.4052167764
 10
167.3861302846
 20
80.4058977781
 10
167.4091198054
 20
80.4065563801
  0
LWPOLYLINE
  5
24B
100
AcDbEntity
  8
RACCORDO
100
AcDbPolyline
 62
7
  6
CONTINUOUS
 90
3
 70
0
 10
159.0772650692
 20
78.7923803106
 10
159.0451934771
 20
78.7860026677
 10
159.0125637741
 20
78.7838647959
  0
LWPOLYLINE
  5
24C
100
AcDbEntity
  8
RACCORDO
100
AcDbPolyline
 62
7
  6
CONTINUOUS
 90
16
 70
0
 10
159.0081619273
 20
78.7860655517
 10
159.0344196262
 20
78.7874526785
 10
159.0603798609
 20
78.7915892331
 10
159.0857558731
 20
78.7984272731
 10
159.1102531741
 20
78.807882546
 10
159.1336178647
 20
78.8198519879
 10
159.1556319537
 20
78.8342298807
 10
159.1760875968
 20
78.8509066469
 10
159.1946988036
 20
78.869677462
 10
159.2111754113
 20
78.8902399491
 10
159.2253428825
 20
78.9123276635
 10
159.2370837743
 20
78.9357013853
 10
159.2462775557
 20
78.9600447285
 10
159.2528605293
 20
78.9850623938
 10
159.2568095262
 20
79.0104914434
 10
159.2581238511
 20
79.0360560325
  0
LINE
  5
24D
100
AcDbEntity
  8
RACCORDO
100
AcDbLine
 62
7
  6
CONTINUOUS
 10
150.3625256993
 20
78.2838647959
 11
152.7626018517
 21
78.2838647959
  0
LINE
  5
24E
100
AcDbEntity
  8
RACCORDO
100
AcDbLine
 62
7
  6
CONTINUOUS
 10
167.7625256993
 20
78.2838647959
 11
170.1626018517
 21
78.2838647959
  0
LINE
  5
24F
100
AcDbEntity
  8
RACCORDO
100
AcDbLine
 62
253
  6
CONTINUOUS
 10
170.1441978753
 20
78.3022687723
 11
167.7809296757
 21
78.3022687723
  0
LINE
  5
250
100
AcDbEntity
  8
RACCORDO
100
AcDbLine
 62
253
  6
CONTINUOUS
 10
152.7441978753
 20
78.3022687723
 11
150.3809296757
 21
78.3022687723
  0
LINE
  5
251
100
AcDbEntity
  8
RACCORDO
100
AcDbLine
 62
253
  6
CONTINUOUS
 10
150.1309677519
 20
78.5522306961
 11
152.9941597991
 21
78.5522306961
  0
LINE
  5
252
100
AcDbEntity
  8
RACCORDO
100
AcDbLine
 62
253
  6
CONTINUOUS
 10
167.5309677519
 20
78.5522306961
 11
170.3941597991
 21
78.5522306961
  0
LINE
  5
253
100
AcDbEntity
  8
RACCORDO
100
AcDbLine
 62
7
  6
CONTINUOUS
 10
155.8125637755
 20
78.7838647959
 11
156.7625637755
 21
78.7838647959
  0
LINE
  5
254
100
AcDbEntity
  8
RACCORDO
100
AcDbLine
 62
7
  6
CONTINUOUS
 10
163.7625637755
 20
78.7838647959
 11
164.7125637755
 21
78.7838647959
  0
LINE
  5
255
100
AcDbEntity
  8
RACCORDO
100
AcDbLine
 62
7
  6
CONTINUOUS
 10
163.7625637755
 20
78.7860655517
 11
161.5169656238
 21
78.7860655517
  0
LINE
  5
256
100
AcDbEntity
  8
RACCORDO
100
AcDbLine
 62
7
  6
CONTINUOUS
 10
159.0081619273
 20
78.7860655517
 11
156.7625637755
 21
78.7860655517
  0
LINE
  5
257
100
AcDbEntity
  8
RACCORDO
100
AcDbLine
 62
7
  6
CONTINUOUS
 10
155.8217460255
 20
78.7930470459
 11
156.7625637755
 21
78.7930470459
  0
LINE
  5
258
100
AcDbEntity
  8
RACCORDO
100
AcDbLine
 62
7
  6
CONTINUOUS
 10
163.7625637755
 20
78.7930470459
 11
164.7033815255
 21
78.7930470459
  0
LINE
  5
259
100
AcDbEntity
  8
RACCORDO
100
AcDbLine
 62
253
  6
CONTINUOUS
 10
163.7625637755
 20
79.0360560325
 11
161.2670037
 21
79.0360560325
  0
LINE
  5
25A
100
AcDbEntity
  8
RACCORDO
100
AcDbLine
 62
253
  6
CONTINUOUS
 10
159.2581238511
 20
79.0360560325
 11
156.7625637755
 21
79.0360560325
  0
LINE
  5
25B
100
AcDbEntity
  8
RACCORDO
100
AcDbLine
 62
253
  6
CONTINUOUS
 10
155.8239087036
 20
79.0430375267
 11
156.7625637755
 21
79.0430375267
  0
LINE
  5
25C
100
AcDbEntity
  8
RACCORDO
100
AcDbLine
 62
253
  6
CONTINUOUS
 10
163.7625637755
 20
79.0430375267
 11
164.7012188474
 21
79.0430375267
  0
LWPOLYLINE
  5
25D
100
AcDbEntity
  8
RACCORDO
100
AcDbPolyline
 62
253
  6
CONTINUOUS
 90
16
 70
0
 10
167.7809296757
 20
78.3022687723
 10
167.7548065651
 20
78.3036455184
 10
167.7289695496
 20
78.307744766
 10
167.703701596
 20
78.3145216219
 10
167.6792794336
 20
78.3239018698
 10
167.6559705403
 20
78.3357827776
 10
167.6340302112
 20
78.3500342157
 10
167.6136987396
 20
78.3665000942
 10
167.5951987862
 20
78.3850000793
 10
167.5787329576
 20
78.4053315588
 10
167.5644815856
 20
78.4272718578
 10
167.5526007451
 20
78.4505806882
 10
167.5432205471
 20
78.4750027835
 10
167.5364437225
 20
78.5002706788
 10
167.5323444925
 20
78.5261076379
 10
167.5309677519
 20
78.5522306961
  0
LINE
  5
25E
100
AcDbEntity
  8
RACCORDO
100
AcDbLine
 62
253
  6
CONTINUOUS
 10
152.7441978753
 20
127.2654608195
 11
152.7626018517
 21
127.2838647959
  0
LINE
  5
25F
100
AcDbEntity
  8
RACCORDO
100
AcDbLine
 62
253
  6
CONTINUOUS
 10
152.9941597991
 20
127.0154988957
 11
153.0125637755
 21
127.0339028721
  0
LINE
  5
260
100
AcDbEntity
  8
RACCORDO
100
AcDbLine
 62
253
  6
CONTINUOUS
 10
159.2581238511
 20
126.5316735594
 11
159.2625637755
 21
126.5338933525
  0
LWPOLYLINE
  5
261
100
AcDbEntity
  8
RACCORDO
100
AcDbPolyline
 62
253
  6
CONTINUOUS
 90
13
 70
0
 10
170.5941293381
 20
80.4330626566
 10
170.5681336668
 20
80.4313296323
 10
170.5425791508
 20
80.426470546
 10
170.5178994726
 20
80.4185678604
 10
170.4945134682
 20
80.4077556909
 10
170.4728180184
 20
80.3942175294
 10
170.4531813142
 20
80.3781831302
 10
170.4359366077
 20
80.359924611
 10
170.4213765567
 20
80.3397518347
 10
170.409748258
 20
80.3180071509
 10
170.4012490541
 20
80.2950595858
 10
170.3960231839
 20
80.2712985796
 10
170.3941593351
 20
80.2471273772
  0
LWPOLYLINE
  5
262
100
AcDbEntity
  8
RACCORDO
100
AcDbPolyline
 62
253
  6
CONTINUOUS
 90
13
 70
0
 10
170.5984169462
 20
80.3979811643
 10
170.5723216339
 20
80.3962632323
 10
170.5466724879
 20
80.3911546797
 10
170.5219081856
 20
80.3827428255
 10
170.4984523065
 20
80.3711715013
 10
170.4767060102
 20
80.3566385572
 10
170.4570411939
 20
80.3393924485
 10
170.4397942339
 20
80.3197280597
 10
170.4252601991
 20
80.2979816829
 10
170.4136877441
 20
80.2745252073
 10
170.4052748871
 20
80.2497597947
 10
170.4001656141
 20
80.224109022
 10
170.3984474071
 20
80.1980116253
  0
LWPOLYLINE
  5
263
100
AcDbEntity
  8
RACCORDO
100
AcDbPolyline
 62
253
  6
CONTINUOUS
 90
25
 70
0
 10
165.4633697868
 20
80.9310696352
 10
165.561913034
 20
80.9343443686
 10
165.6592946338
 20
80.9439095276
 10
165.7555145862
 20
80.9597651121
 10
165.8510043546
 20
80.9820328524
 10
165.9453324755
 20
81.0105910182
 10
166.0372045587
 20
81.0450744189
 10
166.126559468
 20
81.0855588669
 10
166.2134583394
 20
81.1319685496
 10
166.2967901912
 20
81.1837108394
 10
166.376509653
 20
81.2408556718
 10
166.4526620951
 20
81.3033331112
 10
166.5242726471
 20
81.370340723
 10
166.5912811901
 20
81.4419352049
 10
166.653747843
 20
81.5180598593
 10
166.7108780923
 20
81.5977421581
 10
166.7626031828
 20
81.6810272676
 10
166.8089918697
 20
81.7678700216
 10
166.8494559045
 20
81.8571623928
 10
166.8839205379
 20
81.948970526
 10
166.9124605193
 20
82.0432282765
 10
166.9347118488
 20
82.1386291821
 10
166.9505531931
 20
82.2347377555
 10
166.9601058855
 20
82.3319894841
 10
166.9633699261
 20
82.4303843678
  0
LWPOLYLINE
  5
264
100
AcDbEntity
  8
RACCORDO
100
AcDbPolyline
 62
253
  6
CONTINUOUS
 90
25
 70
0
 10
165.4632241376
 20
80.4311457671
 10
165.5941190417
 20
80.4354415129
 10
165.7244286513
 20
80.4482881277
 10
165.8535955836
 20
80.4696263721
 10
165.9810630286
 20
80.4993591191
 10
166.1062914962
 20
80.5373558866
 10
166.2287601282
 20
80.5834567686
 10
166.3479500515
 20
80.637465806
 10
166.4633471052
 20
80.6991492148
 10
166.5744576475
 20
80.7682428998
 10
166.6808066586
 20
80.8444503373
 10
166.7819400959
 20
80.9274447761
 10
166.8774261136
 20
81.0168716111
 10
166.9668565522
 20
81.1123477188
 10
167.0498495686
 20
81.2134642437
 10
167.1260511592
 20
81.3197897355
 10
167.1951354678
 20
81.4308691965
 10
167.2568073349
 20
81.5462272974
 10
167.3108037637
 20
81.6653720848
 10
167.3568935485
 20
81.7877940887
 10
167.3948794127
 20
81.9129695514
 10
167.424599205
 20
82.0403643717
 10
167.4459254023
 20
82.1694341524
 10
167.458765966
 20
82.2996264379
 10
167.4630653396
 20
82.4303843678
  0
LINE
  5
265
100
AcDbEntity
  8
RACCORDO
100
AcDbLine
 62
253
  6
CONTINUOUS
 10
167.605813792
 20
80.2077680307
 11
167.6390886809
 21
80.2086304942
  0
LINE
  5
266
100
AcDbEntity
  8
RACCORDO
100
AcDbLine
 62
253
  6
CONTINUOUS
 10
167.6390886809
 20
80.2086304942
 11
167.6766084699
 21
80.2092985484
  0
LINE
  5
267
100
AcDbEntity
  8
RACCORDO
100
AcDbLine
 62
253
  6
CONTINUOUS
 10
167.6766084699
 20
80.2092985484
 11
167.7172126411
 21
80.2097572576
  0
LWPOLYLINE
  5
268
100
AcDbEntity
  8
RACCORDO
100
AcDbPolyline
 62
253
  6
CONTINUOUS
 90
3
 70
0
 10
167.7172126411
 20
80.2097572576
 10
167.7595001702
 20
80.2099866399
 10
167.7808914256
 20
80.2100167735
  0
LINE
  5
269
100
AcDbEntity
  8
RACCORDO
100
AcDbLine
 62
7
  6
CONTINUOUS
 10
149.6124876231
 20
80.3838647959
 11
149.9125942365
 21
80.3838647959
  0
LINE
  5
26A
100
AcDbEntity
  8
RACCORDO
100
AcDbLine
 62
7
  6
CONTINUOUS
 10
153.2125333145
 20
80.3838647959
 11
155.8125637755
 21
80.3838647959
  0
LINE
  5
26B
100
AcDbEntity
  8
DRAFT
100
AcDbLine
 62
7
  6
CONTINUOUS
 10
159.2625637755
 20
80.3838647959
 11
161.2625637755
 21
80.3838647959
  0
LINE
  5
26C
100
AcDbEntity
  8
RACCORDO
100
AcDbLine
 62
7
  6
CONTINUOUS
 10
164.7125637755
 20
80.3838647959
 11
167.3125942365
 21
80.3838647959
  0
LINE
  5
26D
100
AcDbEntity
  8
RACCORDO
100
AcDbLine
 62
7
  6
CONTINUOUS
 10
170.6125333145
 20
80.3838647959
 11
170.9126399279
 21
80.3838647959
  0
LINE
  5
26E
100
AcDbEntity
  8
RACCORDO
100
AcDbLine
 62
7
  6
CONTINUOUS
 10
156.7625637755
 20
80.3925923284
 11
159.0081619273
 21
80.3925923284
  0
LINE
  5
26F
100
AcDbEntity
  8
RACCORDO
100
AcDbLine
 62
7
  6
CONTINUOUS
 10
161.5169656238
 20
80.3925923284
 11
163.7625637755
 21
80.3925923284
  0
LINE
  5
270
100
AcDbEntity
  8
RACCORDO
100
AcDbLine
 62
253
  6
CONTINUOUS
 10
149.9267112621
 20
80.3979818215
 11
149.6266039915
 21
80.3979811643
  0
LINE
  5
271
100
AcDbEntity
  8
RACCORDO
100
AcDbLine
 62
253
  6
CONTINUOUS
 10
170.8985235595
 20
80.3979811643
 11
170.598416265
 21
80.3979818455
  0
LINE
  5
272
100
AcDbEntity
  8
RACCORDO
100
AcDbLine
 62
7
  6
CONTINUOUS
 10
167.4091198117
 20
80.4065563801
 11
165.5125635898
 21
80.4065563803
  0
LINE
  5
273
100
AcDbEntity
  8
RACCORDO
100
AcDbLine
 62
7
  6
CONTINUOUS
 10
155.0125639612
 20
80.4065563803
 11
153.1160077375
 21
80.4065563798
  0
LINE
  5
274
100
AcDbEntity
  8
DRAFT
100
AcDbLine
 62
7
  6
CONTINUOUS
 10
155.8239087036
 20
80.4065563803
 11
156.7625637755
 21
80.4065563803
  0
LINE
  5
275
100
AcDbEntity
  8
DRAFT
100
AcDbLine
 62
7
  6
CONTINUOUS
 10
163.7625637755
 20
80.4065563803
 11
164.7012188474
 21
80.4065563803
  0
LINE
  5
276
100
AcDbEntity
  8
RACCORDO
100
AcDbLine
 62
253
  6
CONTINUOUS
 10
155.0619034661
 20
80.4311457877
 11
165.4632240858
 21
80.4311457877
  0
LINE
  5
277
100
AcDbEntity
  8
RACCORDO
100
AcDbLine
 62
253
  6
CONTINUOUS
 10
171.3984474071
 20
80.8979050119
 11
170.1441978753
 21
80.8979050119
  0
LINE
  5
278
100
AcDbEntity
  8
RACCORDO
100
AcDbLine
 62
253
  6
CONTINUOUS
 10
149.1266801439
 20
80.8979050119
 11
150.3809296757
 21
80.8979050119
  0
LINE
  5
279
100
AcDbEntity
  8
RACCORDO
100
AcDbLine
 62
253
  6
CONTINUOUS
 10
155.0617577642
 20
80.9310696352
 11
165.4633697868
 21
80.9310696352
  0
LINE
  5
27A
100
AcDbEntity
  8
RACCORDO
100
AcDbLine
 62
253
  6
CONTINUOUS
 10
152.7442104263
 20
80.2100168772
 11
152.7869019962
 21
80.2098996267
  0
LINE
  5
27B
100
AcDbEntity
  8
RACCORDO
100
AcDbLine
 62
253
  6
CONTINUOUS
 10
152.7869019962
 20
80.2098996267
 11
152.8282783084
 21
80.2095591287
  0
LINE
  5
27C
100
AcDbEntity
  8
RACCORDO
100
AcDbLine
 62
253
  6
CONTINUOUS
 10
152.8282783084
 20
80.2095591287
 11
152.8671454573
 21
80.2090010319
  0
LWPOLYLINE
  5
27D
100
AcDbEntity
  8
RACCORDO
100
AcDbPolyline
 62
253
  6
CONTINUOUS
 90
12
 70
0
 10
152.8671454573
 20
80.2090010319
 10
152.9024131524
 20
80.2082420542
 10
152.9183696791
 20
80.2077968444
 10
152.9330408215
 20
80.2073103614
 10
152.9463317161
 20
80.2067830036
 10
152.9581694907
 20
80.2062247836
 10
152.9684300062
 20
80.2056371188
 10
152.9770670117
 20
80.2050185918
 10
152.9840748855
 20
80.2043749637
 10
152.9893475131
 20
80.2037081547
 10
152.9927429028
 20
80.2030162446
 10
152.9941597991
 20
80.2022992333
  0
LWPOLYLINE
  5
27E
100
AcDbEntity
  8
RACCORDO
100
AcDbPolyline
 62
253
  6
CONTINUOUS
 90
7
 70
0
 10
153.116007754
 20
80.4065563798
 10
153.1385606878
 20
80.4059214909
 10
153.1573005537
 20
80.405254717
 10
153.1722273517
 20
80.4045560582
 10
153.1833410818
 20
80.4038255145
 10
153.1906417439
 20
80.4030630859
 10
153.1941293381
 20
80.4022687723
  0
LWPOLYLINE
  5
27F
100
AcDbEntity
  8
RACCORDO
100
AcDbPolyline
 62
7
  6
CONTINUOUS
 90
13
 70
0
 10
167.4091198117
 20
80.4065563801
 10
167.4392619677
 20
80.4050474084
 10
167.4697663707
 20
80.4005442422
 10
167.5006330206
 20
80.3930468814
 10
167.5320517858
 20
80.3824022595
 10
167.5638327979
 20
80.368763443
 10
167.5954064522
 20
80.3525896318
 10
167.6265259633
 20
80.3337813219
 10
167.6574381165
 20
80.3124380171
 10
167.6883136641
 20
80.2893174293
 10
167.7192095234
 20
80.264672129
 10
167.750068777
 20
80.2382495456
 10
167.7808914248
 20
80.2100496792
  0
LWPOLYLINE
  5
280
100
AcDbEntity
  8
RACCORDO
100
AcDbPolyline
 62
7
  6
CONTINUOUS
 90
16
 70
0
 10
149.6124876231
 20
80.3838647959
 10
149.5606018092
 20
80.3865636204
 10
149.509067741
 20
80.3946761621
 10
149.4584566064
 20
80.4081801672
 10
149.4091617992
 20
80.4270719756
 10
149.3619488834
 20
80.4511637312
 10
149.3178545936
 20
80.4798985086
 10
149.2776337527
 20
80.5125613259
 10
149.2412603055
 20
80.5489347731
 10
149.2085974882
 20
80.589155614
 10
149.1798627108
 20
80.6332499038
 10
149.1557709552
 20
80.6804628197
 10
149.1368791468
 20
80.7297576268
 10
149.1233751417
 20
80.7803687614
 10
149.1152626
 20
80.8319028296
 10
149.1125637755
 20
80.8837886435
  0
LWPOLYLINE
  5
281
100
AcDbEntity
  8
RACCORDO
100
AcDbPolyline
 62
253
  6
CONTINUOUS
 90
16
 70
0
 10
149.6266039915
 20
80.3979811643
 10
149.5743578139
 20
80.4007346519
 10
149.5226838343
 20
80.4089331315
 10
149.4721479844
 20
80.4224868139
 10
149.4233037309
 20
80.4412472597
 10
149.3766860144
 20
80.4650090052
 10
149.3328053909
 20
80.4935118124
 10
149.2921424395
 20
80.5264435196
 10
149.2551424992
 20
80.5634434599
 10
149.222210792
 20
80.6041064114
 10
149.1937079848
 20
80.6479870348
 10
149.1699462394
 20
80.6946047511
 10
149.1511857936
 20
80.7434490046
 10
149.1376321112
 20
80.7939848545
 10
149.1294336315
 20
80.8456588342
 10
149.1266801439
 20
80.8979050119
  0
LWPOLYLINE
  5
282
100
AcDbEntity
  8
RACCORDO
100
AcDbPolyline
 62
253
  6
CONTINUOUS
 90
13
 70
0
 10
149.9267106049
 20
80.3979811643
 10
149.9528068363
 20
80.3962631111
 10
149.9784567269
 20
80.3911542334
 10
150.0032215699
 20
80.3827419119
 10
150.0266777959
 20
80.3711700278
 10
150.0484242179
 20
80.3566365028
 10
150.0680888927
 20
80.339389913
 10
150.0853354824
 20
80.3197252383
 10
150.0998690074
 20
80.2979788163
 10
150.1114408915
 20
80.2745225903
 10
150.119853213
 20
80.2497577473
 10
150.1249620906
 20
80.2241078568
 10
150.1266801439
 20
80.1980116253
  0
LWPOLYLINE
  5
283
100
AcDbEntity
  8
RACCORDO
100
AcDbPolyline
 62
253
  6
CONTINUOUS
 90
13
 70
0
 10
149.9309982129
 20
80.4330693043
 10
149.9569939085
 20
80.431336104
 10
149.9825484149
 20
80.426476718
 10
150.0072280313
 20
80.4185736178
 10
150.0306139054
 20
80.4077609316
 10
150.0523091417
 20
80.3942221679
 10
150.0719455374
 20
80.3781871011
 10
150.0891898317
 20
80.3599278718
 10
150.1037493613
 20
80.3397543681
 10
150.115377028
 20
80.3180089667
 10
150.1238754916
 20
80.2950607215
 10
150.1291005197
 20
80.2712991009
 10
150.1309634353
 20
80.2471273774
  0
LINE
  5
284
100
AcDbEntity
  8
RACCORDO
100
AcDbLine
 62
253
  6
CONTINUOUS
 10
152.7626018517
 20
78.2838647959
 11
152.7441978753
 21
78.3022687723
  0
LINE
  5
285
100
AcDbEntity
  8
RACCORDO
100
AcDbLine
 62
253
  6
CONTINUOUS
 10
153.0125637755
 20
78.5338267197
 11
152.9941597991
 21
78.5522306961
  0
LINE
  5
286
100
AcDbEntity
  8
RACCORDO
100
AcDbLine
 62
253
  6
CONTINUOUS
 10
153.0125637755
 20
125.3838343349
 11
152.9941593364
 21
125.3654298958
  0
LINE
  5
287
100
AcDbEntity
  8
RACCORDO
100
AcDbLine
 62
253
  6
CONTINUOUS
 10
153.2125333145
 20
125.1838647959
 11
153.1941293381
 21
125.1654608195
  0
LINE
  5
288
100
AcDbEntity
  8
RACCORDO
100
AcDbLine
 62
253
  6
CONTINUOUS
 10
153.5617576249
 20
82.4303843678
 11
153.0620622114
 21
82.4303843697
  0
LINE
  5
289
100
AcDbEntity
  8
RACCORDO
100
AcDbLine
 62
253
  6
CONTINUOUS
 10
166.9633699261
 20
82.4303843678
 11
167.4630653396
 21
82.4303843678
  0
LINE
  5
28A
100
AcDbEntity
  8
RACCORDO
100
AcDbLine
 62
253
  6
CONTINUOUS
 10
152.9941597991
 20
80.2022992333
 11
153.0125637755
 21
80.1838952569
  0
LINE
  5
28B
100
AcDbEntity
  8
RACCORDO
100
AcDbLine
 62
253
  6
CONTINUOUS
 10
153.1941293381
 20
80.4022687723
 11
153.2125333145
 21
80.3838647959
  0
LINE
  5
28C
100
AcDbEntity
  8
RACCORDO
100
AcDbLine
 62
7
  6
CONTINUOUS
 10
159.2625637755
 20
125.1838647959
 11
159.2581238511
 21
125.1794248715
  0
LINE
  5
28D
100
AcDbEntity
  8
RACCORDO
100
AcDbLine
 62
253
  6
CONTINUOUS
 10
165.463224085
 20
125.1365838042
 11
165.5125635898
 21
125.1611732115
  0
LINE
  5
28E
100
AcDbEntity
  8
RACCORDO
100
AcDbLine
 62
253
  6
CONTINUOUS
 10
165.5125635898
 20
80.4065563803
 11
165.4632240858
 21
80.4311457877
  0
LINE
  5
28F
100
AcDbEntity
  8
RACCORDO
100
AcDbLine
 62
7
  6
CONTINUOUS
 10
159.2625637755
 20
80.3838647959
 11
159.2581238511
 21
80.3883047204
  0
LINE
  5
290
100
AcDbEntity
  8
RACCORDO
100
AcDbLine
 62
253
  6
CONTINUOUS
 10
167.4630653396
 20
123.137345224
 11
167.5125637755
 21
123.1620869014
  0
LINE
  5
291
100
AcDbEntity
  8
RACCORDO
100
AcDbLine
 62
253
  6
CONTINUOUS
 10
167.5125637755
 20
82.4056426905
 11
167.4630653396
 21
82.4303843678
  0
LINE
  5
292
100
AcDbEntity
  8
RACCORDO
100
AcDbLine
 62
7
  6
CONTINUOUS
 10
164.7125637755
 20
126.7838647959
 11
164.7033815255
 21
126.7746825459
  0
LINE
  5
293
100
AcDbEntity
  8
RACCORDO
100
AcDbLine
 62
7
  6
CONTINUOUS
 10
164.7125637755
 20
78.7838647959
 11
164.7033815255
 21
78.7930470459
  0
LINE
  5
294
100
AcDbEntity
  8
ASSI
100
AcDbLine
 62
7
  6
CONTINUOUS
 10
149.0625637755
 20
85.2838647959
 11
149.0625637755
 21
86.2838647959
  0
LINE
  5
295
100
AcDbEntity
  8
ASSI
100
AcDbLine
 62
7
  6
CONTINUOUS
 10
149.0625637755
 20
119.2838647959
 11
149.0625637755
 21
120.2838647959
  0
LINE
  5
296
100
AcDbEntity
  8
RACCORDO
100
AcDbLine
 62
7
  6
CONTINUOUS
 10
149.1125637755
 20
80.8837886435
 11
149.1125637755
 21
85.0659198487
  0
LINE
  5
297
100
AcDbEntity
  8
ASSI
100
AcDbLine
 62
7
  6
CONTINUOUS
 10
149.1125637755
 20
85.0659198487
 11
149.1125637755
 21
120.5018097431
  0
LINE
  5
298
100
AcDbEntity
  8
RACCORDO
100
AcDbLine
 62
7
  6
CONTINUOUS
 10
149.1125637755
 20
120.5018097431
 11
149.1125637755
 21
124.6839409483
  0
LINE
  5
299
100
AcDbEntity
  8
RACCORDO
100
AcDbLine
 62
253
  6
CONTINUOUS
 10
149.1266801439
 20
80.8979050119
 11
149.1266801439
 21
124.66982458
  0
LINE
  5
29A
100
AcDbEntity
  8
RACCORDO
100
AcDbLine
 62
253
  6
CONTINUOUS
 10
149.6266039915
 20
80.3979811643
 11
149.6266039915
 21
125.1697484275
  0
LWPOLYLINE
  5
29B
100
AcDbEntity
  8
RACCORDO
100
AcDbPolyline
 62
253
  6
CONTINUOUS
 90
16
 70
0
 10
149.1266801439
 20
124.66982458
 10
149.1294336315
 20
124.7220707577
 10
149.1376321112
 20
124.7737447373
 10
149.1511857936
 20
124.8242805872
 10
149.1699462394
 20
124.8731248407
 10
149.1937079848
 20
124.919742557
 10
149.222210792
 20
124.9636231805
 10
149.2551424992
 20
125.0042861319
 10
149.2921424395
 20
125.0412860722
 10
149.3328053909
 20
125.0742177794
 10
149.3766860144
 20
125.1027205867
 10
149.4233037309
 20
125.1264823321
 10
149.4721479844
 20
125.1452427779
 10
149.5226838343
 20
125.1587964603
 10
149.5743578139
 20
125.16699494
 10
149.6266039915
 20
125.1697484275
  0
LWPOLYLINE
  5
29C
100
AcDbEntity
  8
RACCORDO
100
AcDbPolyline
 62
253
  6
CONTINUOUS
 90
16
 70
0
 10
150.1309677519
 20
127.0154988957
 10
150.132344498
 20
127.0416220063
 10
150.1364437456
 20
127.0674590218
 10
150.1432206015
 20
127.0927269754
 10
150.1526008494
 20
127.1171491379
 10
150.1644817572
 20
127.1404580311
 10
150.1787331953
 20
127.1623983602
 10
150.1951990738
 20
127.1827298319
 10
150.2136990589
 20
127.2012297852
 10
150.2340305383
 20
127.2176956138
 10
150.2559708374
 20
127.2319469858
 10
150.2792796678
 20
127.2438278263
 10
150.3037017631
 20
127.2532080243
 10
150.3289696584
 20
127.2599848489
 10
150.3548066175
 20
127.264084079
 10
150.3809296757
 20
127.2654608195
  0
LINE
  5
29D
100
AcDbEntity
  8
RACCORDO
100
AcDbLine
 62
253
  6
CONTINUOUS
 10
153.0620622114
 20
111.8321448859
 11
153.0125637755
 21
111.78264645
  0
LWPOLYLINE
  5
29E
100
AcDbEntity
  8
RACCORDO
100
AcDbPolyline
 62
7
  6
CONTINUOUS
 90
19
 70
0
 10
167.7809171246
 20
125.3577016469
 10
167.7611916869
 20
125.3399144973
 10
167.741815121
 20
125.3229059074
 10
167.7227874269
 20
125.306675877
 10
167.7042776829
 20
125.2912683622
 10
167.6861168106
 20
125.2766394069
 10
167.6677975751
 20
125.2626571437
 10
167.6493132106
 20
125.249274381
 10
167.6306704829
 20
125.2365383103
 10
167.6113824539
 20
125.2244586387
 10
167.5912883187
 20
125.2128969344
 10
167.5705488822
 20
125.2019916292
 10
167.5491596205
 20
125.1921677255
 10
167.5270467609
 20
125.1834043177
 10
167.5042840762
 20
125.1757223114
 10
167.4810883598
 20
125.1696094258
 10
167.4575318763
 20
125.1652282339
 10
167.4335423612
 20
125.1624161626
 10
167.4091198145
 20
125.161173212
  0
LINE
  5
29F
100
AcDbEntity
  8
RACCORDO
100
AcDbLine
 62
253
  6
CONTINUOUS
 10
153.0620622114
 20
93.735584706
 11
153.0125637755
 21
93.7850831419
  0
LWPOLYLINE
  5
2A0
100
AcDbEntity
  8
RACCORDO
100
AcDbPolyline
 62
253
  6
CONTINUOUS
 90
20
 70
0
 10
150.1309677519
 20
125.3206022146
 10
150.1315329177
 20
125.3108832267
 10
150.1327851791
 20
125.3000468603
 10
150.1347366944
 20
125.2880931152
 10
150.1374015195
 20
125.2750175102
 10
150.1407856058
 20
125.2608245267
 10
150.1448777465
 20
125.2455276081
 10
150.1496665884
 20
125.2291263399
 10
150.1551505006
 20
125.2116211367
 10
150.1613218941
 20
125.1930266856
 10
150.1681657533
 20
125.1733448535
 10
150.1756723273
 20
125.1525737736
 10
150.1838425018
 20
125.1307225329
 10
150.1926581411
 20
125.1077947873
 10
150.2021053387
 20
125.0837868809
 10
150.2121963379
 20
125.0586969338
 10
150.2229079344
 20
125.0325329118
 10
150.2342242092
 20
125.0052868489
 10
150.2461754916
 20
124.9769329674
 10
150.2718757945
 20
124.9169187938
  0
LINE
  5
2A1
100
AcDbEntity
  8
RACCORDO
100
AcDbLine
 62
7
  6
CONTINUOUS
 10
150.1125637755
 20
78.5338267197
 11
150.1125637755
 21
80.1838952569
  0
LINE
  5
2A2
100
AcDbEntity
  8
RACCORDO
100
AcDbLine
 62
7
  6
CONTINUOUS
 10
150.1125637755
 20
125.3838343349
 11
150.1125637755
 21
127.0339028721
  0
LINE
  5
2A3
100
AcDbEntity
  8
RACCORDO
100
AcDbLine
 62
253
  6
CONTINUOUS
 10
150.1309677519
 20
80.2471273772
 11
150.1309677519
 21
78.5522306961
  0
LINE
  5
2A4
100
AcDbEntity
  8
RACCORDO
100
AcDbLine
 62
253
  6
CONTINUOUS
 10
150.1309677519
 20
125.3206022146
 11
150.1309677519
 21
127.0154988957
  0
LINE
  5
2A5
100
AcDbEntity
  8
RACCORDO
100
AcDbLine
 62
253
  6
CONTINUOUS
 10
150.3809296757
 20
127.2654608195
 11
150.3809296757
 21
124.66982458
  0
LINE
  5
2A6
100
AcDbEntity
  8
RACCORDO
100
AcDbLine
 62
253
  6
CONTINUOUS
 10
150.3809296757
 20
78.3022687723
 11
150.3809296757
 21
80.8979050119
  0
LWPOLYLINE
  5
2A7
100
AcDbEntity
  8
RACCORDO
100
AcDbPolyline
 62
253
  6
CONTINUOUS
 90
7
 70
0
 10
150.1309677519
 20
80.2471273772
 10
150.1302748366
 20
80.2327887308
 10
150.1295732469
 20
80.2209111594
 10
150.1288629828
 20
80.2114946632
 10
150.1281440442
 20
80.2045392421
 10
150.1274164313
 20
80.2000448961
 10
150.1266801439
 20
80.1980116253
  0
LWPOLYLINE
  5
2A8
100
AcDbEntity
  8
RACCORDO
100
AcDbPolyline
 62
253
  6
CONTINUOUS
 90
7
 70
0
 10
149.9309982129
 20
80.4330638443
 10
149.9303037139
 20
80.4228434624
 10
149.9296012349
 20
80.4143438973
 10
149.9288907758
 20
80.4075913596
 10
149.9281723368
 20
80.4026056591
 10
149.9274459177
 20
80.3994001702
 10
149.9267115186
 20
80.3979818229
  0
LWPOLYLINE
  5
2A9
100
AcDbEntity
  8
RACCORDO
100
AcDbPolyline
 62
7
  6
CONTINUOUS
 90
8
 70
0
 10
161.2815945367
 20
126.629559512
 10
161.2960587901
 20
126.6588864651
 10
161.3142278087
 20
126.6860743793
 10
161.3357903501
 20
126.7106577426
 10
161.360377484
 20
126.7322160238
 10
161.3875684817
 20
126.7503805618
 10
161.4168974782
 20
126.7648406773
 10
161.4478624818
 20
126.7753492813
  0
LINE
  5
2AA
100
AcDbEntity
  8
RACCORDO
100
AcDbLine
 62
253
  6
CONTINUOUS
 10
170.1626018517
 20
127.2838647959
 11
170.1441978753
 21
127.2654608195
  0
LINE
  5
2AB
100
AcDbEntity
  8
RACCORDO
100
AcDbLine
 62
253
  6
CONTINUOUS
 10
170.4125637755
 20
127.0339028721
 11
170.3941597991
 21
127.0154988957
  0
LINE
  5
2AC
100
AcDbEntity
  8
RACCORDO
100
AcDbLine
 62
253
  6
CONTINUOUS
 10
170.3984474071
 20
125.3697179666
 11
170.4125637755
 21
125.3838343349
  0
LWPOLYLINE
  5
2AD
100
AcDbEntity
  8
RACCORDO
100
AcDbPolyline
 62
253
  6
CONTINUOUS
 90
20
 70
0
 10
170.364170001
 20
124.8681520374
 10
170.3867634403
 20
124.8891944636
 10
170.4082613441
 20
124.9094563817
 10
170.428658691
 20
124.9289056754
 10
170.4479307579
 20
124.9475975912
 10
170.4660833221
 20
124.9655256333
 10
170.4831106063
 20
124.9826661477
 10
170.4989705552
 20
124.999044604
 10
170.5136653161
 20
125.0146580495
 10
170.5271927417
 20
125.0294907122
 10
170.5395043349
 20
125.043547944
 10
170.5505987925
 20
125.0568344563
 10
170.5604774176
 20
125.069339097
 10
170.5690956225
 20
125.0810479885
 10
170.5764428968
 20
125.0919798894
 10
170.5825297508
 20
125.102126851
 10
170.5873431276
 20
125.1114505868
 10
170.590878675
 20
125.1199576364
 10
170.5931407452
 20
125.1276878861
 10
170.5941293381
 20
125.1346657476
  0
LINE
  5
2AE
100
AcDbEntity
  8
RACCORDO
100
AcDbLine
 62
253
  6
CONTINUOUS
 10
170.3156911109
 20
124.8236686032
 11
170.364170001
 21
124.8681520374
  0
LINE
  5
2AF
100
AcDbEntity
  8
RACCORDO
100
AcDbLine
 62
253
  6
CONTINUOUS
 10
170.2628472435
 20
124.7759008523
 11
170.3156911109
 21
124.8236686032
  0
LWPOLYLINE
  5
2B0
100
AcDbEntity
  8
RACCORDO
100
AcDbPolyline
 62
253
  6
CONTINUOUS
 90
3
 70
0
 10
170.1441978753
 20
124.66982458
 10
170.1754779758
 20
124.6975579113
 10
170.2628472435
 20
124.7759008523
  0
LINE
  5
2B1
100
AcDbEntity
  8
RACCORDO
100
AcDbLine
 62
253
  6
CONTINUOUS
 10
153.5617576249
 20
93.735584706
 11
153.0620622114
 21
93.735584706
  0
LINE
  5
2B2
100
AcDbEntity
  8
RACCORDO
100
AcDbLine
 62
253
  6
CONTINUOUS
 10
166.9633699261
 20
93.735584706
 11
167.4630653396
 21
93.7355847041
  0
LINE
  5
2B3
100
AcDbEntity
  8
RACCORDO
100
AcDbLine
 62
253
  6
CONTINUOUS
 10
170.2056789179
 20
80.843193263
 11
170.1441978753
 21
80.8979050119
  0
LINE
  5
2B4
100
AcDbEntity
  8
RACCORDO
100
AcDbLine
 62
253
  6
CONTINUOUS
 10
170.2898146259
 20
80.7675472458
 11
170.2056789179
 21
80.843193263
  0
LINE
  5
2B5
100
AcDbEntity
  8
RACCORDO
100
AcDbLine
 62
253
  6
CONTINUOUS
 10
170.1441978753
 20
78.3022687723
 11
170.1626018517
 21
78.2838647959
  0
LINE
  5
2B6
100
AcDbEntity
  8
RACCORDO
100
AcDbLine
 62
253
  6
CONTINUOUS
 10
170.3941597991
 20
78.5522306961
 11
170.4125637755
 21
78.5338267197
  0
LINE
  5
2B7
100
AcDbEntity
  8
RACCORDO
100
AcDbLine
 62
253
  6
CONTINUOUS
 10
170.4125637755
 20
80.1838952569
 11
170.3984474071
 21
80.1980116253
  0
LWPOLYLINE
  5
2B8
100
AcDbEntity
  8
RACCORDO
100
AcDbPolyline
 62
253
  6
CONTINUOUS
 90
25
 70
0
 10
153.5617576249
 20
82.4303843678
 10
153.5650216656
 20
82.3319894841
 10
153.574574358
 20
82.2347377555
 10
153.5904157023
 20
82.1386291821
 10
153.6126670318
 20
82.0432282765
 10
153.6412070131
 20
81.948970526
 10
153.6756716464
 20
81.8571623928
 10
153.7161356813
 20
81.7678700216
 10
153.7625243682
 20
81.6810272676
 10
153.8142494588
 20
81.5977421581
 10
153.871379708
 20
81.5180598593
 10
153.9338463609
 20
81.4419352049
 10
154.0008549039
 20
81.370340723
 10
154.0724654559
 20
81.3033331112
 10
154.148617898
 20
81.2408556718
 10
154.2283373598
 20
81.1837108394
 10
154.3116692116
 20
81.1319685497
 10
154.3985680831
 20
81.0855588669
 10
154.4879229923
 20
81.045074419
 10
154.5797950755
 20
81.0105910182
 10
154.6741231964
 20
80.9820328523
 10
154.7696129648
 20
80.959765112
 10
154.8658329172
 20
80.9439095275
 10
154.963214517
 20
80.9343443686
 10
155.0617577642
 20
80.9310696352
  0
LWPOLYLINE
  5
2B9
100
AcDbEntity
  8
RACCORDO
100
AcDbPolyline
 62
253
  6
CONTINUOUS
 90
25
 70
0
 10
153.0620622114
 20
82.4303843678
 10
153.066361585
 20
82.2996264379
 10
153.0792021487
 20
82.1694341524
 10
153.1005283461
 20
82.0403643717
 10
153.1302481383
 20
81.9129695514
 10
153.1682340025
 20
81.7877940887
 10
153.2143237873
 20
81.6653720848
 10
153.2683202161
 20
81.5462272974
 10
153.3299920832
 20
81.4308691965
 10
153.3990763918
 20
81.3197897355
 10
153.4752779824
 20
81.2134642437
 10
153.5582709989
 20
81.1123477188
 10
153.6477014375
 20
81.0168716111
 10
153.7431874551
 20
80.9274447761
 10
153.8443208924
 20
80.8444503373
 10
153.9506699035
 20
80.7682428998
 10
154.0617804458
 20
80.6991492148
 10
154.1771774995
 20
80.637465806
 10
154.2963674228
 20
80.5834567686
 10
154.4188360548
 20
80.5373558866
 10
154.5440645224
 20
80.4993591191
 10
154.6715319674
 20
80.4696263721
 10
154.8006988999
 20
80.4482881277
 10
154.9310085097
 20
80.4354415129
 10
155.0619034142
 20
80.4311457671
  0
LINE
  5
2BA
100
AcDbEntity
  8
RACCORDO
100
AcDbLine
 62
253
  6
CONTINUOUS
 10
152.7442104264
 20
80.2100276879
 11
152.7441978753
 21
78.3022687723
  0
LINE
  5
2BB
100
AcDbEntity
  8
RACCORDO
100
AcDbLine
 62
253
  6
CONTINUOUS
 10
152.7441978753
 20
127.2654608195
 11
152.7442361262
 21
125.3576799127
  0
LINE
  5
2BC
100
AcDbEntity
  8
RACCORDO
100
AcDbLine
 62
253
  6
CONTINUOUS
 10
152.9941597991
 20
127.0154988957
 11
152.9941593364
 21
125.3654298958
  0
LINE
  5
2BD
100
AcDbEntity
  8
RACCORDO
100
AcDbLine
 62
253
  6
CONTINUOUS
 10
152.9941597991
 20
80.2022992333
 11
152.9941597991
 21
78.5522306961
  0
LINE
  5
2BE
100
AcDbEntity
  8
RACCORDO
100
AcDbLine
 62
7
  6
CONTINUOUS
 10
153.0125637755
 20
123.1620869014
 11
153.0125637755
 21
111.78264645
  0
LINE
  5
2BF
100
AcDbEntity
  8
RACCORDO
100
AcDbLine
 62
7
  6
CONTINUOUS
 10
153.0125637755
 20
93.7850831419
 11
153.0125637755
 21
82.4056426905
  0
LINE
  5
2C0
100
AcDbEntity
  8
RACCORDO
100
AcDbLine
 62
7
  6
CONTINUOUS
 10
153.0125637755
 20
78.5338267197
 11
153.0125637755
 21
80.1838952569
  0
LINE
  5
2C1
100
AcDbEntity
  8
RACCORDO
100
AcDbLine
 62
7
  6
CONTINUOUS
 10
153.0125637755
 20
125.3838343349
 11
153.0125637755
 21
127.0339028721
  0
LINE
  5
2C2
100
AcDbEntity
  8
RACCORDO
100
AcDbLine
 62
253
  6
CONTINUOUS
 10
153.0620622114
 20
123.137345224
 11
153.0620622114
 21
111.8321448859
  0
LINE
  5
2C3
100
AcDbEntity
  8
RACCORDO
100
AcDbLine
 62
253
  6
CONTINUOUS
 10
153.0620622114
 20
93.735584706
 11
153.0620622114
 21
82.4303843678
  0
LINE
  5
2C4
100
AcDbEntity
  8
RACCORDO
100
AcDbLine
 62
253
  6
CONTINUOUS
 10
155.0608438655
 20
109.8333632318
 11
155.0113454295
 21
109.7838647959
  0
LINE
  5
2C5
100
AcDbEntity
  8
RACCORDO
100
AcDbLine
 62
253
  6
CONTINUOUS
 10
170.598416265
 20
125.1697477464
 11
170.6125333145
 21
125.1838647959
  0
LINE
  5
2C6
100
AcDbEntity
  8
RACCORDO
100
AcDbLine
 62
253
  6
CONTINUOUS
 10
170.9126399279
 20
125.1838647959
 11
170.8985235595
 21
125.1697484275
  0
LINE
  5
2C7
100
AcDbEntity
  8
RACCORDO
100
AcDbLine
 62
253
  6
CONTINUOUS
 10
171.4125637755
 20
124.6839409483
 11
171.3984474071
 21
124.66982458
  0
LWPOLYLINE
  5
2C8
100
AcDbEntity
  8
RACCORDO
100
AcDbPolyline
 62
253
  6
CONTINUOUS
 90
25
 70
0
 10
155.0608438655
 20
95.2346709465
 10
154.9624172854
 20
95.2314066355
 10
154.8651406663
 20
95.2218566565
 10
154.7690140081
 20
95.2060210093
 10
154.6736021506
 20
95.1837778628
 10
154.5793402541
 20
95.1552490481
 10
154.4875337989
 20
95.1208000591
 10
154.3982493076
 20
95.0803564246
 10
154.3114202577
 20
95.0339926157
 10
154.2281525621
 20
94.982297539
 10
154.148491568
 20
94.9252028648
 10
154.0723919283
 20
94.8627769228
 10
154.0008235149
 20
94.7958136085
 10
153.9338429665
 20
94.7242532588
 10
153.8713936443
 20
94.6481555369
 10
153.8142755041
 20
94.5684933277
 10
153.7625581871
 20
94.4852216103
 10
153.716172052
 20
94.3983854056
 10
153.6757081309
 20
94.3090926604
 10
153.6412417877
 20
94.2172823214
 10
153.6126976586
 20
94.1230154419
 10
153.5904406837
 20
94.0275831299
 10
153.5745925099
 20
93.9314157545
 10
153.5650314903
 20
93.8340829465
 10
153.5617576249
 20
93.735584706
  0
LINE
  5
2C9
100
AcDbEntity
  8
RACCORDO
100
AcDbLine
 62
253
  6
CONTINUOUS
 10
165.4642836855
 20
95.2346709465
 11
155.0608438655
 21
95.2346709465
  0
LINE
  5
2CA
100
AcDbEntity
  8
RACCORDO
100
AcDbLine
 62
253
  6
CONTINUOUS
 10
165.4642836855
 20
95.73436636
 11
155.0608438655
 21
95.73436636
  0
LINE
  5
2CB
100
AcDbEntity
  8
RACCORDO
100
AcDbLine
 62
7
  6
CONTINUOUS
 10
165.5137821215
 20
95.7838647959
 11
155.0113454295
 21
95.7838647959
  0
LINE
  5
2CC
100
AcDbEntity
  8
RACCORDO
100
AcDbLine
 62
253
  6
CONTINUOUS
 10
155.0608438655
 20
95.73436636
 11
155.0113454295
 21
95.7838647959
  0
LINE
  5
2CD
100
AcDbEntity
  8
RACCORDO
100
AcDbLine
 62
253
  6
CONTINUOUS
 10
170.6125333145
 20
80.3838647959
 11
170.598416265
 21
80.3979818455
  0
LINE
  5
2CE
100
AcDbEntity
  8
RACCORDO
100
AcDbLine
 62
253
  6
CONTINUOUS
 10
170.8985235595
 20
80.3979811643
 11
170.9126399279
 21
80.3838647959
  0
LINE
  5
2CF
100
AcDbEntity
  8
RACCORDO
100
AcDbLine
 62
253
  6
CONTINUOUS
 10
171.3984474071
 20
80.8979050119
 11
171.4125637755
 21
80.8837886435
  0
LWPOLYLINE
  5
2D0
100
AcDbEntity
  8
RACCORDO
100
AcDbPolyline
 62
253
  6
CONTINUOUS
 90
22
 70
0
 10
149.9309982129
 20
125.1346657476
 10
149.9319868091
 20
125.1276878864
 10
149.934248881
 20
125.1199576369
 10
149.9377844285
 20
125.1114505873
 10
149.9425978028
 20
125.1021268512
 10
149.9486846527
 20
125.0919798889
 10
149.9560319246
 20
125.0810479876
 10
149.9646501307
 20
125.0693390965
 10
149.9745287588
 20
125.0568344566
 10
149.9856232183
 20
125.0435479449
 10
149.997934811
 20
125.0294907128
 10
150.011462235
 20
125.0146580494
 10
150.0261569949
 20
124.9990446035
 10
150.0420169439
 20
124.9826661473
 10
150.0590442287
 20
124.9655256333
 10
150.0771967934
 20
124.9475975913
 10
150.0964688603
 20
124.9289056756
 10
150.116866207
 20
124.9094563818
 10
150.1383641107
 20
124.8891944636
 10
150.16095755
 20
124.8681520373
 10
150.1846515462
 20
124.8463405411
 10
150.2353129252
 20
124.800182346
  0
LWPOLYLINE
  5
2D1
100
AcDbEntity
  8
RACCORDO
100
AcDbPolyline
 62
253
  6
CONTINUOUS
 90
13
 70
0
 10
152.9941597991
 20
125.3654303586
 10
152.9958778678
 20
125.3393340101
 10
153.0009867867
 20
125.313684025
 10
153.0093991675
 20
125.2889191138
 10
153.0209711222
 20
125.2654628444
 10
153.0355047203
 20
125.2437164072
 10
153.0527513701
 20
125.2240517511
 10
153.0724160798
 20
125.2068052089
 10
153.0941625059
 20
125.1922717488
 10
153.1176186996
 20
125.1806999367
 10
153.1423834709
 20
125.1722876821
 10
153.1680332515
 20
125.1671788537
 10
153.1941293381
 20
125.1654608195
  0
LWPOLYLINE
  5
2D2
100
AcDbEntity
  8
RACCORDO
100
AcDbPolyline
 62
7
  6
CONTINUOUS
 90
13
 70
0
 10
153.0125637755
 20
127.0339028721
 10
153.0104259453
 20
127.0665305307
 10
153.0040482248
 20
127.0985995035
 10
152.9935394983
 20
127.1295614053
 10
152.9790791969
 20
127.1588869764
 10
152.960914463
 20
127.1860742337
 10
152.9393562408
 20
127.2106572612
 10
152.9147732133
 20
127.2322154834
 10
152.887585956
 20
127.2503802173
 10
152.8582603849
 20
127.2648405187
 10
152.8272984831
 20
127.2753492452
 10
152.7952295103
 20
127.2817269657
 10
152.7626018517
 20
127.2838647959
  0
LWPOLYLINE
  5
2D3
100
AcDbEntity
  8
RACCORDO
100
AcDbPolyline
 62
253
  6
CONTINUOUS
 90
25
 70
0
 10
153.5617576249
 20
111.8321448859
 10
153.5650219359
 20
111.7337183058
 10
153.5745719149
 20
111.6364416867
 10
153.5904075621
 20
111.5403150285
 10
153.6126507086
 20
111.444903171
 10
153.6411795233
 20
111.3506412745
 10
153.6756285124
 20
111.2588348193
 10
153.7160721468
 20
111.169550328
 10
153.7624359557
 20
111.0827212781
 10
153.8141310324
 20
110.9994535825
 10
153.8712257066
 20
110.9197925884
 10
153.9336516487
 20
110.8436929487
 10
154.000614963
 20
110.7721245353
 10
154.0721753126
 20
110.7051439869
 10
154.1482730345
 20
110.6426946648
 10
154.2279352438
 20
110.5855765246
 10
154.3112069611
 20
110.5338592075
 10
154.3980431659
 20
110.4874730724
 10
154.487335911
 20
110.4470091513
 10
154.5791462501
 20
110.4125428081
 10
154.6734131295
 20
110.383998679
 10
154.7688454416
 20
110.3617417041
 10
154.8650128169
 20
110.3458935303
 10
154.9623456249
 20
110.3363325107
 10
155.0608438655
 20
110.3330586454
  0
LWPOLYLINE
  5
2D4
100
AcDbEntity
  8
RACCORDO
100
AcDbPolyline
 62
253
  6
CONTINUOUS
 90
25
 70
0
 10
153.0620622114
 20
111.8321448859
 10
153.0663800868
 20
111.7013732557
 10
153.0792370966
 20
111.5711759267
 10
153.1005765631
 20
111.4421091839
 10
153.1303051403
 20
111.3147244602
 10
153.1682945108
 20
111.1895657314
 10
153.2143822154
 20
111.0671672738
 10
153.2683699657
 20
110.9480521856
 10
153.3300257895
 20
110.8327285925
 10
153.3990869474
 20
110.7216875217
 10
153.4752576662
 20
110.6154034353
 10
153.5582117387
 20
110.5143299504
 10
153.6475962436
 20
110.41889696
 10
153.7430292372
 20
110.3295124874
 10
153.8441027019
 20
110.2465584622
 10
153.9503867589
 20
110.1703877897
 10
154.0614277932
 20
110.1013266746
 10
154.1767513405
 20
110.0396708903
 10
154.2958663858
 20
109.9856831713
 10
154.4182648086
 20
109.9395954895
 10
154.5434235077
 20
109.9016061359
 10
154.6708082063
 20
109.8718775702
 10
154.7998749289
 20
109.8505381109
 10
154.9300722436
 20
109.8376811052
 10
155.0608438655
 20
109.8333632318
  0
LINE
  5
2D5
100
AcDbEntity
  8
RACCORDO
100
AcDbLine
 62
253
  6
CONTINUOUS
 10
153.5617576249
 20
123.137345224
 11
153.5617576249
 21
111.8321448859
  0
LINE
  5
2D6
100
AcDbEntity
  8
RACCORDO
100
AcDbLine
 62
253
  6
CONTINUOUS
 10
153.5617576249
 20
93.735584706
 11
153.5617576249
 21
82.4303843678
  0
LINE
  5
2D7
100
AcDbEntity
  8
RACCORDO
100
AcDbLine
 62
253
  6
CONTINUOUS
 10
155.0608438655
 20
110.3330586454
 11
155.0608438655
 21
109.8333632318
  0
LINE
  5
2D8
100
AcDbEntity
  8
RACCORDO
100
AcDbLine
 62
253
  6
CONTINUOUS
 10
155.0608438655
 20
95.2346709465
 11
155.0608438673
 21
95.73436636
  0
LINE
  5
2D9
100
AcDbEntity
  8
RACCORDO
100
AcDbLine
 62
253
  6
CONTINUOUS
 10
155.0617577642
 20
80.9310696352
 11
155.0617577642
 21
80.4311457877
  0
LINE
  5
2DA
100
AcDbEntity
  8
RACCORDO
100
AcDbLine
 62
253
  6
CONTINUOUS
 10
155.0617577642
 20
124.6366599566
 11
155.0617577654
 21
125.1365838042
  0
LWPOLYLINE
  5
2DB
100
AcDbEntity
  8
RACCORDO
100
AcDbPolyline
 62
253
  6
CONTINUOUS
 90
16
 70
0
 10
152.9941597991
 20
78.5522306961
 10
152.9927830532
 20
78.5261075869
 10
152.988683806
 20
78.500270573
 10
152.9819069511
 20
78.4750026213
 10
152.9725267051
 20
78.4505804619
 10
152.9606458001
 20
78.4272715716
 10
152.9463943633
 20
78.405331242
 10
152.9299284811
 20
78.3849997642
 10
152.9114284884
 20
78.3664998033
 10
152.8910970029
 20
78.3500339709
 10
152.8691567035
 20
78.3357826002
 10
152.8458478763
 20
78.3239017624
 10
152.8214257841
 20
78.3145215663
 10
152.7961578904
 20
78.3077447424
 10
152.7703209326
 20
78.3036455128
 10
152.7441978753
 20
78.3022687723
  0
LWPOLYLINE
  5
2DC
100
AcDbEntity
  8
RACCORDO
100
AcDbPolyline
 62
7
  6
CONTINUOUS
 90
13
 70
0
 10
153.0125637755
 20
78.5338267197
 10
153.0104259453
 20
78.5011990611
 10
153.0040482248
 20
78.4691300883
 10
152.9935394983
 20
78.4381681865
 10
152.9790791969
 20
78.4088426155
 10
152.960914463
 20
78.3816553581
 10
152.9393562408
 20
78.3570723306
 10
152.9147732133
 20
78.3355141084
 10
152.887585956
 20
78.3173493745
 10
152.8582603849
 20
78.3028890731
 10
152.8272984831
 20
78.2923803466
 10
152.7952295103
 20
78.2860026262
 10
152.7626018517
 20
78.2838647959
  0
LWPOLYLINE
  5
2DD
100
AcDbEntity
  8
RACCORDO
100
AcDbPolyline
 62
253
  6
CONTINUOUS
 90
13
 70
0
 10
152.9941597991
 20
80.2022992333
 10
152.9958778524
 20
80.2283954647
 10
153.00098673
 20
80.2540453553
 10
153.0093990515
 20
80.2788101983
 10
153.0209709356
 20
80.3022664243
 10
153.0355044606
 20
80.3240128463
 10
153.0527510504
 20
80.343677521
 10
153.0724157251
 20
80.3609241108
 10
153.0941621471
 20
80.3754576359
 10
153.1176183732
 20
80.3870295199
 10
153.1423832161
 20
80.3954418414
 10
153.1680331067
 20
80.4005507191
 10
153.1941293381
 20
80.4022687723
  0
LINE
  5
2DE
100
AcDbEntity
  8
DRAFT
100
AcDbLine
 62
7
  6
CONTINUOUS
 10
164.7125637755
 20
125.1838647959
 11
164.7012188474
 21
125.1611732115
  0
LWPOLYLINE
  5
2DF
100
AcDbEntity
  8
RACCORDO
100
AcDbPolyline
 62
253
  6
CONTINUOUS
 90
25
 70
0
 10
155.0608438655
 20
95.73436636
 10
154.9300722353
 20
95.7300484846
 10
154.7998749063
 20
95.7171914748
 10
154.6708081635
 20
95.6958520084
 10
154.5434234398
 20
95.6661234311
 10
154.418264711
 20
95.6281340606
 10
154.2958662534
 20
95.582046356
 10
154.1767511652
 20
95.5280586057
 10
154.0614275721
 20
95.4664027819
 10
153.9503865013
 20
95.3973416241
 10
153.8441024149
 20
95.3211709052
 10
153.74302893
 20
95.2382168327
 10
153.6475959396
 20
95.1488323279
 10
153.558211467
 20
95.0533993343
 10
153.4752574418
 20
94.9523258695
 10
153.3990867693
 20
94.8460418126
 10
153.3300256542
 20
94.7350007783
 10
153.2683698699
 20
94.6196772309
 10
153.2143821509
 20
94.5005621856
 10
153.1682944691
 20
94.3781637628
 10
153.1303051155
 20
94.2530050638
 10
153.1005765498
 20
94.1256203651
 10
153.0792370905
 20
93.9965536425
 10
153.0663800848
 20
93.8663563279
 10
153.0620622114
 20
93.735584706
  0
LINE
  5
2E0
100
AcDbEntity
  8
DRAFT
100
AcDbLine
 62
7
  6
CONTINUOUS
 10
164.7012188474
 20
80.4065563803
 11
164.7125637755
 21
80.3838647959
  0
LINE
  5
2E1
100
AcDbEntity
  8
DRAFT
100
AcDbLine
 62
7
  6
CONTINUOUS
 10
155.8125637755
 20
78.7838647959
 11
155.8125637755
 21
80.3838647959
  0
LINE
  5
2E2
100
AcDbEntity
  8
DRAFT
100
AcDbLine
 62
7
  6
CONTINUOUS
 10
155.8125637755
 20
125.1838647959
 11
155.8125637755
 21
126.7838647959
  0
LINE
  5
2E3
100
AcDbEntity
  8
RACCORDO
100
AcDbLine
 62
7
  6
CONTINUOUS
 10
155.8239087036
 20
126.5246920651
 11
155.8239087036
 21
125.1611732115
  0
LINE
  5
2E4
100
AcDbEntity
  8
RACCORDO
100
AcDbLine
 62
7
  6
CONTINUOUS
 10
155.8239087036
 20
80.4065563803
 11
155.8239087036
 21
79.0430375267
  0
LINE
  5
2E5
100
AcDbEntity
  8
RACCORDO
100
AcDbLine
 62
7
  6
CONTINUOUS
 10
156.7625637755
 20
80.4065563803
 11
156.7625637755
 21
78.7930470459
  0
LINE
  5
2E6
100
AcDbEntity
  8
RACCORDO
100
AcDbLine
 62
7
  6
CONTINUOUS
 10
156.7625637755
 20
125.1611732115
 11
156.7625637755
 21
126.7746825459
  0
LINE
  5
2E7
100
AcDbEntity
  8
RACCORDO
100
AcDbLine
 62
253
  6
CONTINUOUS
 10
157.4125637755
 20
99.5550000184
 11
157.4125637755
 21
101.6564158158
  0
LINE
  5
2E8
100
AcDbEntity
  8
RACCORDO
100
AcDbLine
 62
253
  6
CONTINUOUS
 10
157.4125637755
 20
103.9113137761
 11
157.4125637755
 21
106.0127295734
  0
LINE
  5
2E9
100
AcDbEntity
  8
RACCORDO
100
AcDbLine
 62
253
  6
CONTINUOUS
 10
163.1125637755
 20
99.5550000184
 11
157.4125637755
 21
99.5550000184
  0
LINE
  5
2EA
100
AcDbEntity
  8
RACCORDO
100
AcDbLine
 62
253
  6
CONTINUOUS
 10
163.1125637755
 20
100.5543908454
 11
157.4125637755
 21
100.5543908454
  0
LINE
  5
2EB
100
AcDbEntity
  8
RACCORDO
100
AcDbLine
 62
253
  6
CONTINUOUS
 10
163.1125637755
 20
100.8569031541
 11
157.4125637755
 21
100.8569031541
  0
LWPOLYLINE
  5
2EC
100
AcDbEntity
  8
RACCORDO
100
AcDbPolyline
 62
253
  6
CONTINUOUS
 90
49
 70
0
 10
157.4125637755
 20
99.5550000184
 10
157.2020330634
 20
99.5617917617
 10
156.9935007087
 20
99.5821858407
 10
156.7869667116
 20
99.6161822552
 10
156.5812802064
 20
99.6640790753
 10
156.3775920588
 20
99.725578231
 10
156.1793548649
 20
99.7997855121
 10
155.9869976289
 20
99.8868021756
 10
155.8000913467
 20
99.9865269644
 10
155.6208016022
 20
100.0977618971
 10
155.4491337188
 20
100.2206899334
 10
155.285082373
 20
100.3551281136
 10
155.1307971795
 20
100.4993295768
 10
154.9864250441
 20
100.65340616
 10
154.8518190609
 20
100.8172460262
 10
154.7286881263
 20
100.9887668043
 10
154.6171747602
 20
101.1680714672
 10
154.5171364427
 20
101.3550570421
 10
154.4298545104
 20
101.5473322392
 10
154.3554934962
 20
101.7449648828
 10
154.2938888672
 20
101.9478871486
 10
154.2458283607
 20
102.1535042737
 10
154.2114862721
 20
102.3618503998
 10
154.1906883061
 20
102.5728913852
 10
154.183699314
 20
102.783930043
 10
154.1906965921
 20
102.9949659657
 10
154.2115028442
 20
103.2059995607
 10
154.2458510329
 20
103.4143348634
 10
154.2939146887
 20
103.6199368038
 10
154.3555202812
 20
103.8228404519
 10
154.4298801816
 20
104.0204550522
 10
154.5171588159
 20
104.2127138949
 10
154.6171917582
 20
104.3996836899
 10
154.7286981014
 20
104.5789738101
 10
154.8518202753
 20
104.7504812816
 10
154.9864158503
 20
104.9143090784
 10
155.1307766299
 20
105.068375496
 10
155.2850494536
 20
105.2125689707
 10
155.449087482
 20
105.3470010662
 10
155.6207420001
 20
105.4699247688
 10
155.8000203723
 20
105.58115727
 10
155.9869152343
 20
105.6808813783
 10
156.179255778
 20
105.7678985055
 10
156.3774573996
 20
105.8421064526
 10
156.581104703
 20
105.9036074187
 10
156.7867806919
 20
105.9515094128
 10
156.9933463676
 20
105.9855151049
 10
157.2019407288
 20
106.0059218251
 10
157.4125637755
 20
106.0127295734
  0
LWPOLYLINE
  5
2ED
100
AcDbEntity
  8
RACCORDO
100
AcDbPolyline
 62
253
  6
CONTINUOUS
 90
7
 70
0
 10
150.1266801439
 20
125.3697179666
 10
150.1274146237
 20
125.3677054382
 10
150.1281411521
 20
125.3632235377
 10
150.1288597292
 20
125.3562722651
 10
150.1295703548
 20
125.3468516203
 10
150.1302730291
 20
125.3349616035
 10
150.1309677519
 20
125.3206022146
  0
LWPOLYLINE
  5
2EE
100
AcDbEntity
  8
RACCORDO
100
AcDbPolyline
 62
7
  6
CONTINUOUS
 90
13
 70
0
 10
161.2625637755
 20
79.0338362393
 10
161.2647025775
 20
79.0012057699
 10
161.2710825557
 20
78.9691341605
 10
161.2815945367
 20
78.9381700798
 10
161.2960587901
 20
78.9088431268
 10
161.3142278087
 20
78.8816552126
 10
161.3357903501
 20
78.8570718492
 10
161.360377484
 20
78.8355135681
 10
161.3875684817
 20
78.81734903
 10
161.4168974782
 20
78.8028889146
 10
161.4478624818
 20
78.7923803106
 10
161.4799340739
 20
78.7860026677
 10
161.512563777
 20
78.7838647959
  0
LWPOLYLINE
  5
2EF
100
AcDbEntity
  8
RACCORDO
100
AcDbPolyline
 62
253
  6
CONTINUOUS
 90
16
 70
0
 10
161.2670037
 20
79.0360560325
 10
161.2683767312
 20
79.0099274357
 10
161.2724728267
 20
78.9840850538
 10
161.2792471175
 20
78.9588119666
 10
161.2886253974
 20
78.9343850175
 10
161.300504936
 20
78.9110717816
 10
161.3147556038
 20
78.889127634
 10
161.3312212976
 20
78.8687929528
 10
161.349721651
 20
78.8502904859
 10
161.3700540093
 20
78.8338229109
 10
161.3919956501
 20
78.8195706151
 10
161.4153062229
 20
78.8076897193
 10
161.4397303816
 20
78.798310368
 10
161.4650005819
 20
78.7915353032
 10
161.4908400117
 20
78.7874387398
 10
161.5169656238
 20
78.7860655517
  0
LINE
  5
2F0
100
AcDbEntity
  8
RACCORDO
100
AcDbLine
 62
253
  6
CONTINUOUS
 10
159.0081619273
 20
126.7816640401
 11
159.0081619273
 21
125.1751372635
  0
LINE
  5
2F1
100
AcDbEntity
  8
RACCORDO
100
AcDbLine
 62
253
  6
CONTINUOUS
 10
159.0081619273
 20
78.7860655517
 11
159.0081619273
 21
80.3925923284
  0
LINE
  5
2F2
100
AcDbEntity
  8
RACCORDO
100
AcDbLine
 62
253
  6
CONTINUOUS
 10
159.2581238511
 20
126.5316735594
 11
159.2581238511
 21
125.1794248715
  0
LINE
  5
2F3
100
AcDbEntity
  8
RACCORDO
100
AcDbLine
 62
253
  6
CONTINUOUS
 10
159.2581238511
 20
79.0360560325
 11
159.2581238511
 21
80.3883047204
  0
LWPOLYLINE
  5
2F4
100
AcDbEntity
  8
RACCORDO
100
AcDbPolyline
 62
7
  6
CONTINUOUS
 90
4
 70
0
 10
161.2625637755
 20
126.5338933525
 10
161.2647025775
 20
126.566523822
 10
161.2710825557
 20
126.5985954314
 10
161.2815945367
 20
126.629559512
  0
LWPOLYLINE
  5
2F5
100
AcDbEntity
  8
RACCORDO
100
AcDbPolyline
 62
253
  6
CONTINUOUS
 90
18
 70
0
 10
150.2342242092
 20
80.5624427429
 10
150.2229079345
 20
80.53519668
 10
150.2121963379
 20
80.509032658
 10
150.2021053386
 20
80.483942711
 10
150.1926581408
 20
80.4599348049
 10
150.1838425015
 20
80.4370070592
 10
150.1756723276
 20
80.4151558179
 10
150.1681657543
 20
80.394384737
 10
150.161321895
 20
80.3747029048
 10
150.1551505001
 20
80.3561084563
 10
150.1496665865
 20
80.3386032565
 10
150.1448777445
 20
80.3222019888
 10
150.1407856058
 20
80.3069050642
 10
150.1374015215
 20
80.2927120716
 10
150.1347366968
 20
80.2796364616
 10
150.1327851807
 20
80.2676827176
 10
150.1315329183
 20
80.2568463562
 10
150.1309677519
 20
80.2471273772
  0
LINE
  5
2F6
100
AcDbEntity
  8
RACCORDO
100
AcDbLine
 62
253
  6
CONTINUOUS
 10
150.258732484
 20
80.6202498019
 11
150.2342242092
 21
80.5624427429
  0
LINE
  5
2F7
100
AcDbEntity
  8
RACCORDO
100
AcDbLine
 62
253
  6
CONTINUOUS
 10
150.2856580671
 20
80.6825309585
 11
150.258732484
 21
80.6202498019
  0
LINE
  5
2F8
100
AcDbEntity
  8
RACCORDO
100
AcDbLine
 62
253
  6
CONTINUOUS
 10
150.3305949469
 20
80.7846977717
 11
150.2856580671
 21
80.6825309585
  0
LINE
  5
2F9
100
AcDbEntity
  8
RACCORDO
100
AcDbLine
 62
253
  6
CONTINUOUS
 10
150.3809296757
 20
80.8979050119
 11
150.3305949469
 21
80.7846977717
  0
LINE
  5
2FA
100
AcDbEntity
  8
RACCORDO
100
AcDbLine
 62
253
  6
CONTINUOUS
 10
170.1441978753
 20
124.66982458
 11
170.2101369595
 21
124.8182916221
  0
LINE
  5
2FB
100
AcDbEntity
  8
RACCORDO
100
AcDbLine
 62
253
  6
CONTINUOUS
 10
163.1125637755
 20
101.6564158158
 11
157.4125637755
 21
101.6564158158
  0
LWPOLYLINE
  5
2FC
100
AcDbEntity
  8
RACCORDO
100
AcDbPolyline
 62
253
  6
CONTINUOUS
 90
43
 70
0
 10
157.4125637755
 20
101.6564158158
 10
157.3278440652
 20
101.65965729
 10
157.2444333147
 20
101.6690298857
 10
157.162331524
 20
101.684533603
 10
157.0810669779
 20
101.7063234778
 10
157.0011113917
 20
101.7342444741
 10
156.9238799107
 20
101.7678314838
 10
156.8494462594
 20
101.8071786779
 10
156.7777367132
 20
101.8521918854
 10
156.7099452445
 20
101.9021234852
 10
156.6461376152
 20
101.9570561118
 10
156.5862480634
 20
102.0169071308
 10
156.5312732752
 20
102.0806810182
 10
156.4812952936
 20
102.1484434391
 10
156.4362320755
 20
102.2201287285
 10
156.3968341784
 20
102.2945443673
 10
156.3631964065
 20
102.3717366211
 10
156.3352239554
 20
102.4516592242
 10
156.3133829693
 20
102.5329808605
 10
156.2977764151
 20
102.6157247244
 10
156.2883013258
 20
102.6998676215
 10
156.2851149448
 20
102.7840086526
 10
156.2883225892
 20
102.8681474856
 10
156.2978189419
 20
102.9522844527
 10
156.3134452943
 20
103.035019651
 10
156.3353041639
 20
103.1163295523
 10
156.3632930332
 20
103.1962376849
 10
156.3969456418
 20
103.2734147311
 10
156.436356761
 20
103.3478149154
 10
156.4814316194
 20
103.4194840133
 10
156.5314196418
 20
103.4872300335
 10
156.5864027902
 20
103.5509874118
 10
156.6462991026
 20
103.6108217124
 10
156.7101121186
 20
103.6657376367
 10
156.7779076674
 20
103.7156523845
 10
156.8496199197
 20
103.7606487559
 10
156.9240549277
 20
103.7999798525
 10
157.0012921597
 20
103.8335518225
 10
157.0812521475
 20
103.8614585178
 10
157.1625025382
 20
103.883234595
 10
157.244565881
 20
103.89872494
 10
157.3279196268
 20
103.908084667
 10
157.4125637755
 20
103.9113137761
  0
LWPOLYLINE
  5
2FD
100
AcDbEntity
  8
RACCORDO
100
AcDbPolyline
 62
253
  6
CONTINUOUS
 90
7
 70
0
 10
170.5984159991
 20
80.397981847
 10
170.5976822236
 20
80.3993982719
 10
170.5969561809
 20
80.402600157
 10
170.596237871
 20
80.4075824286
 10
170.5955272939
 20
80.414333551
 10
170.5948244496
 20
80.4228355139
 10
170.5941293381
 20
80.4330638443
  0
LINE
  5
2FE
100
AcDbEntity
  8
RACCORDO
100
AcDbLine
 62
253
  6
CONTINUOUS
 10
150.314990591
 20
124.8182916218
 11
150.3809296757
 21
124.66982458
  0
LINE
  5
2FF
100
AcDbEntity
  8
RACCORDO
100
AcDbLine
 62
253
  6
CONTINUOUS
 10
170.2101369601
 20
80.74943797
 11
170.1441978753
 21
80.8979050119
  0
LINE
  5
300
100
AcDbEntity
  8
RACCORDO
100
AcDbLine
 62
253
  6
CONTINUOUS
 10
150.2718757945
 20
124.9169187938
 11
150.314990591
 21
124.8182916218
  0
LWPOLYLINE
  5
301
100
AcDbEntity
  8
RACCORDO
100
AcDbPolyline
 62
7
  6
CONTINUOUS
 90
13
 70
0
 10
159.2625637755
 20
126.5338933525
 10
159.2604249735
 20
126.566523822
 10
159.2540449954
 20
126.5985954314
 10
159.2435330143
 20
126.629559512
 10
159.2290687609
 20
126.6588864651
 10
159.2108997423
 20
126.6860743793
 10
159.1893372009
 20
126.7106577426
 10
159.164750067
 20
126.7322160238
 10
159.1375590693
 20
126.7503805618
 10
159.1082300729
 20
126.7648406773
 10
159.0772650692
 20
126.7753492813
 10
159.0451934771
 20
126.7817269242
 10
159.0125637741
 20
126.7838647959
  0
LWPOLYLINE
  5
302
100
AcDbEntity
  8
RACCORDO
100
AcDbPolyline
 62
253
  6
CONTINUOUS
 90
16
 70
0
 10
159.2581238511
 20
126.5316735594
 10
159.2567508199
 20
126.5578021561
 10
159.2526547244
 20
126.583644538
 10
159.2458804335
 20
126.6089176252
 10
159.2365021536
 20
126.6333445743
 10
159.224622615
 20
126.6566578102
 10
159.2103719472
 20
126.6786019578
 10
159.1939062534
 20
126.698936639
 10
159.1754059001
 20
126.7174391059
 10
159.1550735418
 20
126.7339066809
 10
159.1331319009
 20
126.7481589767
 10
159.1098213281
 20
126.7600398725
 10
159.0853971694
 20
126.7694192239
 10
159.0601269691
 20
126.7761942886
 10
159.0342875393
 20
126.7802908521
 10
159.0081619273
 20
126.7816640401
  0
LINE
  5
303
100
AcDbEntity
  8
RACCORDO
100
AcDbLine
 62
253
  6
CONTINUOUS
 10
161.2670037
 20
80.3883047204
 11
161.2670037
 21
79.0360560325
  0
LINE
  5
304
100
AcDbEntity
  8
RACCORDO
100
AcDbLine
 62
253
  6
CONTINUOUS
 10
161.2670037
 20
125.1794248715
 11
161.2670037
 21
126.5316735594
  0
LINE
  5
305
100
AcDbEntity
  8
RACCORDO
100
AcDbLine
 62
253
  6
CONTINUOUS
 10
161.5169656238
 20
78.7860655517
 11
161.5169656238
 21
80.3925923284
  0
LINE
  5
306
100
AcDbEntity
  8
RACCORDO
100
AcDbLine
 62
253
  6
CONTINUOUS
 10
161.5169656238
 20
125.1751372635
 11
161.5169656238
 21
126.7816640401
  0
LWPOLYLINE
  5
307
100
AcDbEntity
  8
RACCORDO
100
AcDbPolyline
 62
7
  6
CONTINUOUS
 90
4
 70
0
 10
159.2625637755
 20
79.0338362393
 10
159.2604249735
 20
79.0012057699
 10
159.2540449954
 20
78.9691341605
 10
159.2435330143
 20
78.9381700798
  0
LWPOLYLINE
  5
308
100
AcDbEntity
  8
RACCORDO
100
AcDbPolyline
 62
253
  6
CONTINUOUS
 90
18
 70
0
 10
170.2909033419
 20
125.0052868489
 10
170.3022196166
 20
125.0325329118
 10
170.3129312131
 20
125.0586969338
 10
170.3230222124
 20
125.0837868808
 10
170.3324694103
 20
125.107794787
 10
170.3412850495
 20
125.1307225326
 10
170.3494552235
 20
125.152573774
 10
170.3569617968
 20
125.1733448548
 10
170.363805656
 20
125.193026687
 10
170.3699770509
 20
125.2116211355
 10
170.3754609645
 20
125.2291263353
 10
170.3802498065
 20
125.245527603
 10
170.3843419452
 20
125.2608245277
 10
170.3877260295
 20
125.2750175202
 10
170.3903908542
 20
125.2880931302
 10
170.3923423703
 20
125.3000468742
 10
170.3935946327
 20
125.3108832357
 10
170.3941597991
 20
125.3206022146
  0
LINE
  5
309
100
AcDbEntity
  8
RACCORDO
100
AcDbLine
 62
253
  6
CONTINUOUS
 10
170.266395067
 20
124.9474797899
 11
170.2909033419
 21
125.0052868489
  0
LINE
  5
30A
100
AcDbEntity
  8
RACCORDO
100
AcDbLine
 62
253
  6
CONTINUOUS
 10
170.2394694839
 20
124.8851986333
 11
170.266395067
 21
124.9474797899
  0
LINE
  5
30B
100
AcDbEntity
  8
RACCORDO
100
AcDbLine
 62
253
  6
CONTINUOUS
 10
170.2101369595
 20
124.8182916221
 11
170.2394694839
 21
124.8851986333
  0
LINE
  5
30C
100
AcDbEntity
  8
RACCORDO
100
AcDbLine
 62
253
  6
CONTINUOUS
 10
157.4125637755
 20
103.9113137761
 11
163.1125637755
 21
103.9113137761
  0
LINE
  5
30D
100
AcDbEntity
  8
RACCORDO
100
AcDbLine
 62
253
  6
CONTINUOUS
 10
157.4125637755
 20
104.7108264377
 11
163.1125637755
 21
104.7108264377
  0
LWPOLYLINE
  5
30E
100
AcDbEntity
  8
RACCORDO
100
AcDbPolyline
 62
253
  6
CONTINUOUS
 90
43
 70
0
 10
163.1125637755
 20
103.9113137761
 10
163.1972079242
 20
103.908084667
 10
163.28056167
 20
103.89872494
 10
163.3626250128
 20
103.883234595
 10
163.4438754035
 20
103.8614585178
 10
163.5238353913
 20
103.8335518225
 10
163.6010726233
 20
103.7999798525
 10
163.6755076313
 20
103.7606487559
 10
163.7472198837
 20
103.7156523845
 10
163.8150154324
 20
103.6657376367
 10
163.8788284484
 20
103.6108217124
 10
163.9387247608
 20
103.5509874118
 10
163.9937079092
 20
103.4872300335
 10
164.0436959316
 20
103.4194840133
 10
164.08877079
 20
103.3478149154
 10
164.1281819093
 20
103.2734147311
 10
164.1618345178
 20
103.1962376849
 10
164.1898233871
 20
103.1163295523
 10
164.2116822567
 20
103.035019651
 10
164.2273086092
 20
102.9522844527
 10
164.2368049618
 20
102.8681474856
 10
164.2400126062
 20
102.7840086526
 10
164.2368262252
 20
102.6998676215
 10
164.227351136
 20
102.6157247244
 10
164.2117445818
 20
102.5329808605
 10
164.1899035956
 20
102.4516592242
 10
164.1619311446
 20
102.3717366211
 10
164.1282933726
 20
102.2945443673
 10
164.0888954755
 20
102.2201287285
 10
164.0438322575
 20
102.1484434391
 10
163.9938542758
 20
102.0806810182
 10
163.9388794876
 20
102.0169071308
 10
163.8789899358
 20
101.9570561118
 10
163.8151823065
 20
101.9021234852
 10
163.7473908378
 20
101.8521918854
 10
163.6756812916
 20
101.8071786779
 10
163.6012476403
 20
101.7678314838
 10
163.5240161593
 20
101.7342444741
 10
163.4440605731
 20
101.7063234778
 10
163.3627960271
 20
101.684533603
 10
163.2806942364
 20
101.6690298857
 10
163.1972834858
 20
101.65965729
 10
163.1125637755
 20
101.6564158158
  0
LWPOLYLINE
  5
30F
100
AcDbEntity
  8
RACCORDO
100
AcDbPolyline
 62
253
  6
CONTINUOUS
 90
7
 70
0
 10
149.9267115164
 20
125.1697477705
 10
149.9274440776
 20
125.1683353489
 10
149.9281693941
 20
125.1651407146
 10
149.9288874658
 20
125.1601652666
 10
149.9295982929
 20
125.1534168976
 10
149.9303018752
 20
125.1449100499
 10
149.9309982129
 20
125.1346657476
  0
LINE
  5
310
100
AcDbEntity
  8
RACCORDO
100
AcDbLine
 62
253
  6
CONTINUOUS
 10
170.2532517565
 20
80.6508107981
 11
170.2101369601
 21
80.74943797
  0
LWPOLYLINE
  5
311
100
AcDbEntity
  8
RACCORDO
100
AcDbPolyline
 62
253
  6
CONTINUOUS
 90
7
 70
0
 10
170.3984474071
 20
80.1980116253
 10
170.397714055
 20
80.2000107332
 10
170.3969882032
 20
80.2044845815
 10
170.3962698517
 20
80.21143317
 10
170.3955590006
 20
80.2208564988
 10
170.3948556497
 20
80.2327545678
 10
170.3941597991
 20
80.2471273772
  0
LINE
  5
312
100
AcDbEntity
  8
RACCORDO
100
AcDbLine
 62
253
  6
CONTINUOUS
 10
163.1125637755
 20
99.5550000184
 11
163.1125637755
 21
101.6564158158
  0
LINE
  5
313
100
AcDbEntity
  8
RACCORDO
100
AcDbLine
 62
253
  6
CONTINUOUS
 10
163.1125637755
 20
103.9113137761
 11
163.1125637755
 21
106.0127295734
  0
LINE
  5
314
100
AcDbEntity
  8
RACCORDO
100
AcDbLine
 62
7
  6
CONTINUOUS
 10
163.7625637755
 20
78.7930470459
 11
163.7625637755
 21
80.4065563803
  0
LINE
  5
315
100
AcDbEntity
  8
RACCORDO
100
AcDbLine
 62
7
  6
CONTINUOUS
 10
163.7625637755
 20
125.1611732115
 11
163.7625637755
 21
126.7746825459
  0
LINE
  5
316
100
AcDbEntity
  8
RACCORDO
100
AcDbLine
 62
253
  6
CONTINUOUS
 10
157.4125637755
 20
105.0133387464
 11
163.1125637755
 21
105.0133387464
  0
LINE
  5
317
100
AcDbEntity
  8
RACCORDO
100
AcDbLine
 62
253
  6
CONTINUOUS
 10
157.4125637755
 20
106.0127295734
 11
163.1125637755
 21
106.0127295734
  0
LWPOLYLINE
  5
318
100
AcDbEntity
  8
RACCORDO
100
AcDbPolyline
 62
253
  6
CONTINUOUS
 90
49
 70
0
 10
163.1125637755
 20
106.0127295734
 10
163.3231868235
 20
106.0059218306
 10
163.5317811853
 20
105.9855151133
 10
163.7383468608
 20
105.9515094213
 10
163.9440228483
 20
105.9036074227
 10
164.1476701495
 20
105.8421064495
 10
164.34587177
 20
105.7678984982
 10
164.5382123149
 20
105.6808813729
 10
164.7251071791
 20
105.5811572694
 10
164.9043855528
 20
105.4699247715
 10
165.0760400704
 20
105.3470010686
 10
165.2400780975
 20
105.2125689713
 10
165.3943509204
 20
105.0683754952
 10
165.5387117001
 20
104.9143090776
 10
165.6733072756
 20
104.7504812813
 10
165.7964294499
 20
104.5789738103
 10
165.9079357931
 20
104.39968369
 10
166.0079687352
 20
104.212713895
 10
166.0952473694
 20
104.0204550521
 10
166.1696072698
 20
103.8228404519
 10
166.2312128623
 20
103.6199368038
 10
166.2792765181
 20
103.4143348634
 10
166.3136247069
 20
103.2059995607
 10
166.3344309589
 20
102.9949659657
 10
166.341428237
 20
102.783930043
 10
166.3344392449
 20
102.5728913852
 10
166.3136412789
 20
102.3618503998
 10
166.2792991903
 20
102.1535042737
 10
166.2312386839
 20
101.9478871486
 10
166.1696340548
 20
101.7449648828
 10
166.0952730407
 20
101.5473322392
 10
166.0079911083
 20
101.3550570422
 10
165.9079527907
 20
101.1680714673
 10
165.7964394246
 20
100.9887668044
 10
165.6733084902
 20
100.817246026
 10
165.5387025073
 20
100.6534061595
 10
165.394330372
 20
100.4993295764
 10
165.2400451778
 20
100.355128114
 10
165.0759938313
 20
100.220689935
 10
164.9043259476
 20
100.0977618988
 10
164.7250362041
 20
99.9865269639
 10
164.5381299234
 20
99.8868021719
 10
164.3457726882
 20
99.799785507
 10
164.1475354936
 20
99.7255782287
 10
163.9438473445
 20
99.6640790776
 10
163.7381608384
 20
99.6161822604
 10
163.5316268411
 20
99.5821858459
 10
163.3230944868
 20
99.5617917652
 10
163.1125637755
 20
99.5550000184
  0
LINE
  5
319
100
AcDbEntity
  8
RACCORDO
100
AcDbLine
 62
7
  6
CONTINUOUS
 10
164.7012188474
 20
79.0430375267
 11
164.7012188474
 21
80.4065563803
  0
LINE
  5
31A
100
AcDbEntity
  8
RACCORDO
100
AcDbLine
 62
7
  6
CONTINUOUS
 10
164.7012188474
 20
125.1611732115
 11
164.7012188474
 21
126.5246920651
  0
LINE
  5
31B
100
AcDbEntity
  8
DRAFT
100
AcDbLine
 62
7
  6
CONTINUOUS
 10
164.7125637755
 20
78.7838647959
 11
164.7125637755
 21
80.3838647959
  0
LINE
  5
31C
100
AcDbEntity
  8
DRAFT
100
AcDbLine
 62
7
  6
CONTINUOUS
 10
164.7125637755
 20
125.1838647959
 11
164.7125637755
 21
126.7838647959
  0
LINE
  5
31D
100
AcDbEntity
  8
RACCORDO
100
AcDbLine
 62
253
  6
CONTINUOUS
 10
165.4633697868
 20
80.9310696352
 11
165.4633697856
 21
80.4311457877
  0
LINE
  5
31E
100
AcDbEntity
  8
RACCORDO
100
AcDbLine
 62
253
  6
CONTINUOUS
 10
165.4633697868
 20
124.6366599566
 11
165.4633697868
 21
125.1365838042
  0
LINE
  5
31F
100
AcDbEntity
  8
RACCORDO
100
AcDbLine
 62
253
  6
CONTINUOUS
 10
165.4642836855
 20
110.3330586454
 11
165.4642836837
 21
109.8333632318
  0
LINE
  5
320
100
AcDbEntity
  8
RACCORDO
100
AcDbLine
 62
253
  6
CONTINUOUS
 10
165.4642836855
 20
95.2346709465
 11
165.4642836855
 21
95.73436636
  0
LWPOLYLINE
  5
321
100
AcDbEntity
  8
RACCORDO
100
AcDbPolyline
 62
253
  6
CONTINUOUS
 90
13
 70
0
 10
167.5309677519
 20
80.2022992333
 10
167.5292496832
 20
80.2283955817
 10
167.5241407643
 20
80.2540455668
 10
167.5157283835
 20
80.278810478
 10
167.5041564288
 20
80.3022667475
 10
167.4896228307
 20
80.3240131846
 10
167.4723761809
 20
80.3436778408
 10
167.4527114713
 20
80.3609243829
 10
167.4309650451
 20
80.3754578431
 10
167.4075088515
 20
80.3870296552
 10
167.3827440801
 20
80.3954419098
 10
167.3570942995
 20
80.4005507382
 10
167.3309982129
 20
80.4022687723
  0
LWPOLYLINE
  5
322
100
AcDbEntity
  8
RACCORDO
100
AcDbPolyline
 62
7
  6
CONTINUOUS
 90
13
 70
0
 10
167.5125637755
 20
78.5338267197
 10
167.5147016057
 20
78.5011990611
 10
167.5210793262
 20
78.4691300883
 10
167.5315880527
 20
78.4381681865
 10
167.5460483541
 20
78.4088426155
 10
167.564213088
 20
78.3816553581
 10
167.5857713102
 20
78.3570723306
 10
167.6103543377
 20
78.3355141084
 10
167.637541595
 20
78.3173493745
 10
167.6668671661
 20
78.3028890731
 10
167.6978290679
 20
78.2923803466
 10
167.7298980407
 20
78.2860026262
 10
167.7625256993
 20
78.2838647959
  0
LWPOLYLINE
  5
323
100
AcDbEntity
  8
RACCORDO
100
AcDbPolyline
 62
253
  6
CONTINUOUS
 90
25
 70
0
 10
166.9633699261
 20
93.735584706
 10
166.9601056151
 20
93.834011286
 10
166.9505556361
 20
93.9312879051
 10
166.9347199889
 20
94.0274145633
 10
166.9124768424
 20
94.1228264208
 10
166.8839480277
 20
94.2170883173
 10
166.8494990387
 20
94.3088947725
 10
166.8090554042
 20
94.3981792638
 10
166.7626915953
 20
94.4850083138
 10
166.7109965186
 20
94.5682760093
 10
166.6539018444
 20
94.6479370034
 10
166.5914759024
 20
94.7240366431
 10
166.524512588
 20
94.7956050565
 10
166.4529522384
 20
94.8625856049
 10
166.3768545165
 20
94.9250349271
 10
166.2971923073
 20
94.9821530673
 10
166.2139205899
 20
95.0338703843
 10
166.1270843851
 20
95.0802565195
 10
166.03779164
 20
95.1207204406
 10
165.9459813009
 20
95.1551867837
 10
165.8517144215
 20
95.1837309128
 10
165.7562821095
 20
95.2059878877
 10
165.6601147341
 20
95.2218360616
 10
165.5627819261
 20
95.2313970812
 10
165.4642836855
 20
95.2346709465
  0
LWPOLYLINE
  5
324
100
AcDbEntity
  8
RACCORDO
100
AcDbPolyline
 62
253
  6
CONTINUOUS
 90
25
 70
0
 10
166.9633699261
 20
123.137345224
 10
166.9601058855
 20
123.2357401077
 10
166.950553193
 20
123.3329918363
 10
166.9347118487
 20
123.4291004098
 10
166.9124605192
 20
123.5245013154
 10
166.8839205379
 20
123.6187590658
 10
166.8494559046
 20
123.7105671991
 10
166.8089918697
 20
123.7998595702
 10
166.7626031828
 20
123.8867023242
 10
166.7108780922
 20
123.9699874338
 10
166.653747843
 20
124.0496697325
 10
166.5912811901
 20
124.1257943869
 10
166.5242726471
 20
124.1973888689
 10
166.4526620951
 20
124.2643964807
 10
166.376509653
 20
124.32687392
 10
166.2967901912
 20
124.3840187524
 10
166.2134583394
 20
124.4357610422
 10
166.1265594679
 20
124.4821707249
 10
166.0372045587
 20
124.5226551729
 10
165.9453324755
 20
124.5571385736
 10
165.8510043546
 20
124.5856967395
 10
165.7555145862
 20
124.6079644798
 10
165.6592946338
 20
124.6238200643
 10
165.561913034
 20
124.6333852233
 10
165.4633697868
 20
124.6366599566
  0
LWPOLYLINE
  5
325
100
AcDbEntity
  8
RACCORDO
100
AcDbPolyline
 62
253
  6
CONTINUOUS
 90
25
 70
0
 10
167.4630653396
 20
93.735584706
 10
167.4587474642
 20
93.8663563362
 10
167.4458904544
 20
93.9965536651
 10
167.424550988
 20
94.1256204079
 10
167.3948224107
 20
94.2530051316
 10
167.3568330402
 20
94.3781638604
 10
167.3107453356
 20
94.500562318
 10
167.2567575853
 20
94.6196774062
 10
167.1951017615
 20
94.7350009993
 10
167.1260406037
 20
94.8460420702
 10
167.0498698848
 20
94.9523261565
 10
166.9669158123
 20
95.0533996415
 10
166.8775313074
 20
95.1488326318
 10
166.7820983138
 20
95.2382171044
 10
166.6810248491
 20
95.3211711297
 10
166.5747407922
 20
95.3973418021
 10
166.4636997579
 20
95.4664029173
 10
166.3483762105
 20
95.5280587015
 10
166.2292611652
 20
95.5820464206
 10
166.1068627424
 20
95.6281341023
 10
165.9817040433
 20
95.666123456
 10
165.8543193447
 20
95.6958520216
 10
165.7252526221
 20
95.7171914809
 10
165.5950553075
 20
95.7300484867
 10
165.4642836855
 20
95.73436636
  0
LINE
  5
326
100
AcDbEntity
  8
RACCORDO
100
AcDbLine
 62
253
  6
CONTINUOUS
 10
166.9633699261
 20
82.4303843678
 11
166.9633699261
 21
93.735584706
  0
LINE
  5
327
100
AcDbEntity
  8
RACCORDO
100
AcDbLine
 62
253
  6
CONTINUOUS
 10
166.9633699261
 20
111.8321448859
 11
166.9633699261
 21
123.137345224
  0
LINE
  5
328
100
AcDbEntity
  8
RACCORDO
100
AcDbLine
 62
253
  6
CONTINUOUS
 10
167.4630653396
 20
82.4303843678
 11
167.4630653396
 21
93.735584706
  0
LINE
  5
329
100
AcDbEntity
  8
RACCORDO
100
AcDbLine
 62
253
  6
CONTINUOUS
 10
167.4630653396
 20
111.8321448859
 11
167.4630653396
 21
123.137345224
  0
LINE
  5
32A
100
AcDbEntity
  8
RACCORDO
100
AcDbLine
 62
7
  6
CONTINUOUS
 10
167.5125637755
 20
78.5338267197
 11
167.5125637755
 21
80.1838952569
  0
LINE
  5
32B
100
AcDbEntity
  8
RACCORDO
100
AcDbLine
 62
7
  6
CONTINUOUS
 10
167.5125637755
 20
82.4056426905
 11
167.5125637755
 21
93.7850831419
  0
LINE
  5
32C
100
AcDbEntity
  8
RACCORDO
100
AcDbLine
 62
7
  6
CONTINUOUS
 10
167.5125637755
 20
111.78264645
 11
167.5125637755
 21
123.1620869014
  0
LINE
  5
32D
100
AcDbEntity
  8
RACCORDO
100
AcDbLine
 62
7
  6
CONTINUOUS
 10
167.5125637755
 20
125.3838343349
 11
167.5125637755
 21
127.0339028721
  0
LINE
  5
32E
100
AcDbEntity
  8
RACCORDO
100
AcDbLine
 62
253
  6
CONTINUOUS
 10
167.5309677519
 20
125.3654303586
 11
167.5309677519
 21
127.0154988957
  0
LINE
  5
32F
100
AcDbEntity
  8
RACCORDO
100
AcDbLine
 62
253
  6
CONTINUOUS
 10
167.5309677519
 20
78.5522306961
 11
167.5309682146
 21
80.202299696
  0
LWPOLYLINE
  5
330
100
AcDbEntity
  8
RACCORDO
100
AcDbPolyline
 62
253
  6
CONTINUOUS
 90
16
 70
0
 10
167.5309677519
 20
127.0154988957
 10
167.5323444978
 20
127.0416220049
 10
167.536443745
 20
127.0674590188
 10
167.5432205999
 20
127.0927269705
 10
167.5526008459
 20
127.11714913
 10
167.5644817509
 20
127.1404580203
 10
167.5787331877
 20
127.1623983498
 10
167.5951990699
 20
127.1827298276
 10
167.6136990626
 20
127.2012297885
 10
167.6340305481
 20
127.2176956209
 10
167.6559708475
 20
127.2319469917
 10
167.6792796748
 20
127.2438278294
 10
167.7037017669
 20
127.2532080255
 10
167.7289696606
 20
127.2599848494
 10
167.7548066184
 20
127.2640840791
 10
167.7809296757
 20
127.2654608195
  0
LWPOLYLINE
  5
331
100
AcDbEntity
  8
RACCORDO
100
AcDbPolyline
 62
7
  6
CONTINUOUS
 90
13
 70
0
 10
167.5125637755
 20
127.0339028721
 10
167.5147016057
 20
127.0665305307
 10
167.5210793262
 20
127.0985995035
 10
167.5315880527
 20
127.1295614053
 10
167.5460483541
 20
127.1588869764
 10
167.564213088
 20
127.1860742337
 10
167.5857713102
 20
127.2106572612
 10
167.6103543377
 20
127.2322154834
 10
167.637541595
 20
127.2503802173
 10
167.6668671661
 20
127.2648405187
 10
167.6978290679
 20
127.2753492452
 10
167.7298980407
 20
127.2817269657
 10
167.7625256993
 20
127.2838647959
  0
LWPOLYLINE
  5
332
100
AcDbEntity
  8
RACCORDO
100
AcDbPolyline
 62
253
  6
CONTINUOUS
 90
13
 70
0
 10
167.5309677519
 20
125.3654303586
 10
167.5292496987
 20
125.3393341271
 10
167.524140821
 20
125.3136842365
 10
167.5157284995
 20
125.2889193936
 10
167.5041566154
 20
125.2654631675
 10
167.4896230904
 20
125.2437167455
 10
167.4723765006
 20
125.2240520708
 10
167.4527118259
 20
125.2068054811
 10
167.4309654039
 20
125.192271956
 10
167.4075091778
 20
125.1807000719
 10
167.3827443349
 20
125.1722877504
 10
167.3570944443
 20
125.1671788728
 10
167.3309982129
 20
125.1654608195
  0
LINE
  5
333
100
AcDbEntity
  8
DRAFT
100
AcDbLine
 62
7
  6
CONTINUOUS
 10
155.8125637755
 20
80.3838647959
 11
155.8239087036
 21
80.4065563803
  0
LWPOLYLINE
  5
334
100
AcDbEntity
  8
RACCORDO
100
AcDbPolyline
 62
253
  6
CONTINUOUS
 90
25
 70
0
 10
165.4642836855
 20
110.3330586454
 10
165.5627102656
 20
110.3363229563
 10
165.6599868847
 20
110.3458729353
 10
165.7561135429
 20
110.3617085825
 10
165.8515254004
 20
110.383951729
 10
165.9457872969
 20
110.4124805437
 10
166.0375937521
 20
110.4469295328
 10
166.1268782434
 20
110.4873731672
 10
166.2137072934
 20
110.5337369761
 10
166.2969749889
 20
110.5854320528
 10
166.376635983
 20
110.642526727
 10
166.4527356227
 20
110.7049526691
 10
166.5243040361
 20
110.7719159834
 10
166.5912845845
 20
110.843476333
 10
166.6537339067
 20
110.9195740549
 10
166.7108520469
 20
110.9992362642
 10
166.7625693639
 20
111.0825079815
 10
166.8089554991
 20
111.1693441863
 10
166.8494194202
 20
111.2586369314
 10
166.8838857633
 20
111.3504472705
 10
166.9124298924
 20
111.4447141499
 10
166.9346868673
 20
111.540146462
 10
166.9505350412
 20
111.6363138373
 10
166.9600960607
 20
111.7336466453
 10
166.9633699261
 20
111.8321448859
  0
LWPOLYLINE
  5
335
100
AcDbEntity
  8
RACCORDO
100
AcDbPolyline
 62
253
  6
CONTINUOUS
 90
25
 70
0
 10
165.4642836855
 20
109.8333632318
 10
165.5950553157
 20
109.8376811073
 10
165.7252526447
 20
109.850538117
 10
165.8543193875
 20
109.8718775835
 10
165.9817041112
 20
109.9016061607
 10
166.10686284
 20
109.9395955312
 10
166.2292612976
 20
109.9856832358
 10
166.3483763858
 20
110.0396709861
 10
166.4636999789
 20
110.1013268099
 10
166.5747410497
 20
110.1703879678
 10
166.6810251361
 20
110.2465586866
 10
166.7820986211
 20
110.3295127591
 10
166.8775316114
 20
110.418897264
 10
166.966916084
 20
110.5143302576
 10
167.0498701092
 20
110.6154037223
 10
167.1260407817
 20
110.7216877793
 10
167.1951018968
 20
110.8327288136
 10
167.2567576811
 20
110.9480523609
 10
167.3107454002
 20
111.0671674062
 10
167.3568330819
 20
111.189565829
 10
167.3948224356
 20
111.3147245281
 10
167.4245510012
 20
111.4421092267
 10
167.4458904605
 20
111.5711759494
 10
167.4587474663
 20
111.701373264
 10
167.4630653396
 20
111.8321448859
  0
LINE
  5
336
100
AcDbEntity
  8
RACCORDO
100
AcDbLine
 62
7
  6
CONTINUOUS
 10
155.0113454295
 20
109.7838647959
 11
165.5137821215
 21
109.7838647959
  0
LINE
  5
337
100
AcDbEntity
  8
RACCORDO
100
AcDbLine
 62
253
  6
CONTINUOUS
 10
155.0608438655
 20
109.8333632318
 11
165.4642836855
 21
109.8333632318
  0
LINE
  5
338
100
AcDbEntity
  8
DRAFT
100
AcDbLine
 62
7
  6
CONTINUOUS
 10
155.8239087036
 20
125.1611732115
 11
155.8125637755
 21
125.1838647959
  0
LWPOLYLINE
  5
339
100
AcDbEntity
  8
RACCORDO
100
AcDbPolyline
 62
253
  6
CONTINUOUS
 90
22
 70
0
 10
170.5941293381
 20
80.4330638443
 10
170.5931407419
 20
80.4400417054
 10
170.59087867
 20
80.4477719549
 10
170.5873431225
 20
80.4562790045
 10
170.5825297482
 20
80.4656027407
 10
170.5764428983
 20
80.475749703
 10
170.5690956264
 20
80.4866816043
 10
170.5604774203
 20
80.4983904953
 10
170.5505987922
 20
80.5108951353
 10
170.5395043327
 20
80.524181647
 10
170.5271927401
 20
80.5382388791
 10
170.513665316
 20
80.5530715424
 10
170.4989705561
 20
80.5686849884
 10
170.4831106071
 20
80.5850634445
 10
170.4660833223
 20
80.6022039586
 10
170.4479307576
 20
80.6201320005
 10
170.4286586907
 20
80.6388239162
 10
170.408261344
 20
80.65827321
 10
170.3867634404
 20
80.6785351283
 10
170.3641700011
 20
80.6995775545
 10
170.3404760048
 20
80.7213890508
 10
170.2898146259
 20
80.7675472458
  0
LWPOLYLINE
  5
33A
100
AcDbEntity
  8
RACCORDO
100
AcDbPolyline
 62
253
  6
CONTINUOUS
 90
20
 70
0
 10
170.3941597991
 20
80.2471273772
 10
170.3935946333
 20
80.2568463651
 10
170.3923423719
 20
80.2676827316
 10
170.3903908567
 20
80.2796364767
 10
170.3877260315
 20
80.2927120816
 10
170.3843419452
 20
80.3069050651
 10
170.3802498045
 20
80.3222019837
 10
170.3754609626
 20
80.3386032519
 10
170.3699770504
 20
80.3561084552
 10
170.363805657
 20
80.3747029062
 10
170.3569617977
 20
80.3943847383
 10
170.3494552237
 20
80.4151558183
 10
170.3412850492
 20
80.4370070589
 10
170.33246941
 20
80.4599348046
 10
170.3230222123
 20
80.4839427109
 10
170.3129312131
 20
80.509032658
 10
170.3022196166
 20
80.5351966801
 10
170.2909033419
 20
80.5624427429
 10
170.2789520594
 20
80.5907966244
 10
170.2532517565
 20
80.6508107981
  0
LWPOLYLINE
  5
33B
100
AcDbEntity
  8
RACCORDO
100
AcDbPolyline
 62
253
  6
CONTINUOUS
 90
25
 70
0
 10
167.4630653396
 20
123.137345224
 10
167.458765966
 20
123.2681031539
 10
167.4459254023
 20
123.3982954395
 10
167.424599205
 20
123.5273652202
 10
167.3948794127
 20
123.6547600404
 10
167.3568935485
 20
123.7799355032
 10
167.3108037637
 20
123.902357507
 10
167.2568073349
 20
124.0215022944
 10
167.1951354678
 20
124.1368603953
 10
167.1260511592
 20
124.2479398564
 10
167.0498495686
 20
124.3542653481
 10
166.9668565522
 20
124.455381873
 10
166.8774261136
 20
124.5508579808
 10
166.7819400959
 20
124.6402848157
 10
166.6808066586
 20
124.7232792545
 10
166.5744576475
 20
124.799486692
 10
166.4633471052
 20
124.8685803771
 10
166.3479500515
 20
124.9302637858
 10
166.2287601282
 20
124.9842728232
 10
166.1062914962
 20
125.0303737052
 10
165.9810630287
 20
125.0683704727
 10
165.8535955836
 20
125.0981032197
 10
165.7244286511
 20
125.1194414641
 10
165.5941190413
 20
125.132288079
 10
165.4632241368
 20
125.1365838247
  0
LINE
  5
33C
100
AcDbEntity
  8
RACCORDO
100
AcDbLine
 62
253
  6
CONTINUOUS
 10
167.7809296757
 20
127.2654608195
 11
167.7809171246
 21
125.3577016469
  0
LINE
  5
33D
100
AcDbEntity
  8
RACCORDO
100
AcDbLine
 62
253
  6
CONTINUOUS
 10
167.7809296757
 20
78.3022687723
 11
167.7808914248
 21
80.2100496792
  0
LWPOLYLINE
  5
33E
100
AcDbEntity
  8
RACCORDO
100
AcDbPolyline
 62
253
  6
CONTINUOUS
 90
7
 70
0
 10
170.3941597991
 20
125.3206022146
 10
170.3948560525
 20
125.3349796402
 10
170.395559645
 20
125.346880479
 10
170.3962705768
 20
125.356304731
 10
170.3969888477
 20
125.3632523963
 10
170.3977144578
 20
125.3677234748
 10
170.3984474071
 20
125.3697179666
  0
LWPOLYLINE
  5
33F
100
AcDbEntity
  8
RACCORDO
100
AcDbPolyline
 62
253
  6
CONTINUOUS
 90
7
 70
0
 10
170.5941293381
 20
125.1346657476
 10
170.5948248832
 20
125.1448997239
 10
170.5955279876
 20
125.1534034055
 10
170.5962386514
 20
125.1601535437
 10
170.5969568746
 20
125.1651333951
 10
170.5976826572
 20
125.1683327181
 10
170.5984159991
 20
125.1697477448
  0
LINE
  5
340
100
AcDbEntity
  8
RACCORDO
100
AcDbLine
 62
253
  6
CONTINUOUS
 10
149.1125637755
 20
80.8837886435
 11
149.1266801439
 21
80.8979050119
  0
LINE
  5
341
100
AcDbEntity
  8
RACCORDO
100
AcDbLine
 62
253
  6
CONTINUOUS
 10
149.6124876231
 20
80.3838647959
 11
149.6266039915
 21
80.3979811643
  0
LINE
  5
342
100
AcDbEntity
  8
RACCORDO
100
AcDbLine
 62
253
  6
CONTINUOUS
 10
149.9267112621
 20
80.3979818215
 11
149.9125942365
 21
80.3838647959
  0
LINE
  5
343
100
AcDbEntity
  8
RACCORDO
100
AcDbLine
 62
253
  6
CONTINUOUS
 10
165.4642836855
 20
95.73436636
 11
165.5137821215
 21
95.7838647959
  0
LINE
  5
344
100
AcDbEntity
  8
RACCORDO
100
AcDbLine
 62
253
  6
CONTINUOUS
 10
150.1266801439
 20
80.1980116253
 11
150.1125637755
 21
80.1838952569
  0
LINE
  5
345
100
AcDbEntity
  8
RACCORDO
100
AcDbLine
 62
253
  6
CONTINUOUS
 10
155.0608438655
 20
110.3330586454
 11
165.4642836855
 21
110.3330586454
  0
LINE
  5
346
100
AcDbEntity
  8
RACCORDO
100
AcDbLine
 62
253
  6
CONTINUOUS
 10
153.5617576249
 20
111.8321448859
 11
153.0620622114
 21
111.8321448877
  0
LINE
  5
347
100
AcDbEntity
  8
RACCORDO
100
AcDbLine
 62
253
  6
CONTINUOUS
 10
166.9633699261
 20
111.8321448859
 11
167.4630653396
 21
111.8321448859
  0
LINE
  5
348
100
AcDbEntity
  8
RACCORDO
100
AcDbLine
 62
253
  6
CONTINUOUS
 10
149.1266801439
 20
124.66982458
 11
149.1125637755
 21
124.6839409483
  0
LINE
  5
349
100
AcDbEntity
  8
RACCORDO
100
AcDbLine
 62
253
  6
CONTINUOUS
 10
149.6266039915
 20
125.1697484275
 11
149.6124876231
 21
125.1838647959
  0
LINE
  5
34A
100
AcDbEntity
  8
RACCORDO
100
AcDbLine
 62
253
  6
CONTINUOUS
 10
149.9125942365
 20
125.1838647959
 11
149.9267112605
 21
125.1697477719
  0
LINE
  5
34B
100
AcDbEntity
  8
RACCORDO
100
AcDbLine
 62
253
  6
CONTINUOUS
 10
165.4642836855
 20
109.8333632318
 11
165.5137821215
 21
109.7838647959
  0
LINE
  5
34C
100
AcDbEntity
  8
RACCORDO
100
AcDbLine
 62
253
  6
CONTINUOUS
 10
150.1125637755
 20
125.3838343349
 11
150.1266801439
 21
125.3697179666
  0
LINE
  5
34D
100
AcDbEntity
  8
RACCORDO
100
AcDbLine
 62
253
  6
CONTINUOUS
 10
170.1441978753
 20
78.3022687723
 11
170.1441978753
 21
80.8979050119
  0
LINE
  5
34E
100
AcDbEntity
  8
RACCORDO
100
AcDbLine
 62
253
  6
CONTINUOUS
 10
170.1441978753
 20
124.66982458
 11
170.1441978753
 21
127.2654608195
  0
LINE
  5
34F
100
AcDbEntity
  8
RACCORDO
100
AcDbLine
 62
253
  6
CONTINUOUS
 10
170.3941597991
 20
80.2471273772
 11
170.3941597991
 21
78.5522306961
  0
LINE
  5
350
100
AcDbEntity
  8
RACCORDO
100
AcDbLine
 62
253
  6
CONTINUOUS
 10
170.3941597991
 20
125.3206022146
 11
170.3941597991
 21
127.0154988957
  0
LINE
  5
351
100
AcDbEntity
  8
RACCORDO
100
AcDbLine
 62
7
  6
CONTINUOUS
 10
170.4125637755
 20
78.5338267197
 11
170.4125637755
 21
80.1838952569
  0
LINE
  5
352
100
AcDbEntity
  8
RACCORDO
100
AcDbLine
 62
7
  6
CONTINUOUS
 10
170.4125637755
 20
125.3838343349
 11
170.4125637755
 21
127.0339028721
  0
LINE
  5
353
100
AcDbEntity
  8
RACCORDO
100
AcDbLine
 62
253
  6
CONTINUOUS
 10
170.8985235595
 20
80.3979811643
 11
170.8985235595
 21
125.1697484275
  0
LWPOLYLINE
  5
354
100
AcDbEntity
  8
RACCORDO
100
AcDbPolyline
 62
7
  6
CONTINUOUS
 90
8
 70
0
 10
159.2435330143
 20
78.9381700798
 10
159.2290687609
 20
78.9088431268
 10
159.2108997423
 20
78.8816552126
 10
159.1893372009
 20
78.8570718492
 10
159.164750067
 20
78.8355135681
 10
159.1375590693
 20
78.81734903
 10
159.1082300729
 20
78.8028889146
 10
159.0772650692
 20
78.7923803106
  0
LINE
  5
355
100
AcDbEntity
  8
RACCORDO
100
AcDbLine
 62
253
  6
CONTINUOUS
 10
150.1125637755
 20
78.5338267197
 11
150.1309677519
 21
78.5522306961
  0
LINE
  5
356
100
AcDbEntity
  8
RACCORDO
100
AcDbLine
 62
253
  6
CONTINUOUS
 10
150.3625256993
 20
78.2838647959
 11
150.3809296757
 21
78.3022687723
  0
LWPOLYLINE
  5
357
100
AcDbEntity
  8
RACCORDO
100
AcDbPolyline
 62
253
  6
CONTINUOUS
 90
20
 70
0
 10
150.1609575501
 20
80.6995775544
 10
150.1383641107
 20
80.6785351283
 10
150.1168662069
 20
80.6582732101
 10
150.09646886
 20
80.6388239164
 10
150.0771967931
 20
80.6201320007
 10
150.0590442289
 20
80.6022039585
 10
150.0420169447
 20
80.5850634441
 10
150.0261569958
 20
80.5686849879
 10
150.0114622349
 20
80.5530715424
 10
149.9979348093
 20
80.5382388797
 10
149.9856232161
 20
80.5241816478
 10
149.9745287585
 20
80.5108951356
 10
149.9646501334
 20
80.4983904948
 10
149.9560319285
 20
80.4866816034
 10
149.9486846542
 20
80.4757497025
 10
149.9425978002
 20
80.4656027408
 10
149.9377844234
 20
80.4562790051
 10
149.934248876
 20
80.4477719554
 10
149.9319868059
 20
80.4400417058
 10
149.9309982129
 20
80.4330638443
  0
LINE
  5
358
100
AcDbEntity
  8
RACCORDO
100
AcDbLine
 62
253
  6
CONTINUOUS
 10
150.2094364401
 20
80.7440609886
 11
150.1609575501
 21
80.6995775544
  0
LINE
  5
359
100
AcDbEntity
  8
RACCORDO
100
AcDbLine
 62
253
  6
CONTINUOUS
 10
150.2622803075
 20
80.7918287396
 11
150.2094364401
 21
80.7440609886
  0
LWPOLYLINE
  5
35A
100
AcDbEntity
  8
RACCORDO
100
AcDbPolyline
 62
253
  6
CONTINUOUS
 90
3
 70
0
 10
150.3809296757
 20
80.8979050119
 10
150.3496495752
 20
80.8701716805
 10
150.2622803075
 20
80.7918287396
  0
LINE
  5
35B
100
AcDbEntity
  8
RACCORDO
100
AcDbLine
 62
253
  6
CONTINUOUS
 10
150.3194486332
 20
124.7245363289
 11
150.3809296757
 21
124.66982458
  0
LINE
  5
35C
100
AcDbEntity
  8
RACCORDO
100
AcDbLine
 62
253
  6
CONTINUOUS
 10
150.2353129252
 20
124.800182346
 11
150.3194486332
 21
124.7245363289
  0
LINE
  5
35D
100
AcDbEntity
  8
RACCORDO
100
AcDbLine
 62
253
  6
CONTINUOUS
 10
150.1309677519
 20
127.0154988957
 11
150.1125637755
 21
127.0339028721
  0
LINE
  5
35E
100
AcDbEntity
  8
RACCORDO
100
AcDbLine
 62
253
  6
CONTINUOUS
 10
150.3809296757
 20
127.2654608195
 11
150.3625256993
 21
127.2838647959
  0
LWPOLYLINE
  5
35F
100
AcDbEntity
  8
RACCORDO
100
AcDbPolyline
 62
7
  6
CONTINUOUS
 90
16
 70
0
 10
171.4125637755
 20
124.6839409483
 10
171.4098649511
 20
124.7358267622
 10
171.4017524093
 20
124.7873608304
 10
171.3882484042
 20
124.837971965
 10
171.3693565958
 20
124.8872667722
 10
171.3452648402
 20
124.9344796881
 10
171.3165300628
 20
124.9785739778
 10
171.2838672455
 20
125.0187948187
 10
171.2474937983
 20
125.0551682659
 10
171.2072729574
 20
125.0878310832
 10
171.1631786677
 20
125.1165658606
 10
171.1159657518
 20
125.1406576162
 10
171.0666709446
 20
125.1595494246
 10
171.01605981
 20
125.1730534297
 10
170.9645257418
 20
125.1811659715
 10
170.9126399279
 20
125.1838647959
  0
LINE
  5
360
100
AcDbEntity
  8
RACCORDO
100
AcDbLine
 62
253
  6
CONTINUOUS
 10
171.3984474071
 20
124.66982458
 11
171.3984474071
 21
80.8979050119
  0
LINE
  5
361
100
AcDbEntity
  8
RACCORDO
100
AcDbLine
 62
7
  6
CONTINUOUS
 10
171.4125637755
 20
80.8837886435
 11
171.4125637755
 21
85.0659198487
  0
LINE
  5
362
100
AcDbEntity
  8
ASSI
100
AcDbLine
 62
7
  6
CONTINUOUS
 10
171.4125637755
 20
85.0659198487
 11
171.4125637755
 21
120.5018097431
  0
LINE
  5
363
100
AcDbEntity
  8
RACCORDO
100
AcDbLine
 62
7
  6
CONTINUOUS
 10
171.4125637755
 20
120.5018097431
 11
171.4125637755
 21
124.6839409483
  0
LINE
  5
364
100
AcDbEntity
  8
ASSI
100
AcDbLine
 62
7
  6
CONTINUOUS
 10
171.4625637755
 20
120.2838647959
 11
171.4625637755
 21
119.2838647959
  0
LINE
  5
365
100
AcDbEntity
  8
ASSI
100
AcDbLine
 62
7
  6
CONTINUOUS
 10
171.4625637755
 20
86.2838647959
 11
171.4625637755
 21
85.2838647959
  0
LWPOLYLINE
  5
366
100
AcDbEntity
  8
RACCORDO
100
AcDbPolyline
 62
7
  6
CONTINUOUS
 90
16
 70
0
 10
171.4125637755
 20
80.8837886435
 10
171.4098649511
 20
80.8319028296
 10
171.4017524093
 20
80.7803687614
 10
171.3882484042
 20
80.7297576268
 10
171.3693565958
 20
80.6804628197
 10
171.3452648402
 20
80.6332499038
 10
171.3165300628
 20
80.589155614
 10
171.2838672455
 20
80.5489347731
 10
171.2474937983
 20
80.5125613259
 10
171.2072729574
 20
80.4798985086
 10
171.1631786677
 20
80.4511637312
 10
171.1159657518
 20
80.4270719756
 10
171.0666709446
 20
80.4081801672
 10
171.01605981
 20
80.3946761621
 10
170.9645257418
 20
80.3865636204
 10
170.9126399279
 20
80.3838647959
  0
LWPOLYLINE
  5
367
100
AcDbEntity
  8
RACCORDO
100
AcDbPolyline
 62
253
  6
CONTINUOUS
 90
16
 70
0
 10
170.3941597991
 20
78.5522306961
 10
170.392783053
 20
78.5261075855
 10
170.3886838054
 20
78.50027057
 10
170.3819069496
 20
78.4750026165
 10
170.3725267016
 20
78.450580454
 10
170.3606457939
 20
78.4272715607
 10
170.3463943557
 20
78.4053312317
 10
170.3299284772
 20
78.38499976
 10
170.3114284921
 20
78.3664998066
 10
170.2910970127
 20
78.350033978
 10
170.2691567136
 20
78.335782606
 10
170.2458478832
 20
78.3239017655
 10
170.2214257879
 20
78.3145215676
 10
170.1961578926
 20
78.3077447429
 10
170.1703209335
 20
78.3036455129
 10
170.1441978753
 20
78.3022687723
  0
LWPOLYLINE
  5
368
100
AcDbEntity
  8
RACCORDO
100
AcDbPolyline
 62
253
  6
CONTINUOUS
 90
16
 70
0
 10
171.3984474071
 20
80.8979050119
 10
171.3956939196
 20
80.8456588342
 10
171.3874954399
 20
80.7939848545
 10
171.3739417574
 20
80.7434490046
 10
171.3551813117
 20
80.6946047511
 10
171.3314195662
 20
80.6479870348
 10
171.302916759
 20
80.6041064114
 10
171.2699850518
 20
80.5634434599
 10
171.2329851115
 20
80.5264435196
 10
171.1923221601
 20
80.4935118124
 10
171.1484415366
 20
80.4650090052
 10
171.1018238202
 20
80.4412472597
 10
171.0529795667
 20
80.4224868139
 10
171.0024437167
 20
80.4089331315
 10
170.9507697372
 20
80.4007346519
 10
170.8985235595
 20
80.3979811643
  0
LINE
  5
369
100
AcDbEntity
  8
RACCORDO
100
AcDbLine
 62
253
  6
CONTINUOUS
 10
167.4630653396
 20
93.735584706
 11
167.5125637755
 21
93.7850831419
  0
LWPOLYLINE
  5
36A
100
AcDbEntity
  8
RACCORDO
100
AcDbPolyline
 62
7
  6
CONTINUOUS
 90
13
 70
0
 10
152.7442104264
 20
80.2100276879
 10
152.7745495675
 20
80.23777387
 10
152.8049255167
 20
80.2638154798
 10
152.835338274
 20
80.2881525171
 10
152.8657348345
 20
80.3110314197
 10
152.8961682031
 20
80.3322057498
 10
152.9267973949
 20
80.3509361945
 10
152.9576381973
 20
80.3671230667
 10
152.9886748229
 20
80.3808660535
 10
153.0200189245
 20
80.3917249034
 10
153.0517077196
 20
80.3995528658
 10
153.0837039906
 20
80.4044966913
 10
153.1160077375
 20
80.4065563798
  0
LINE
  5
36B
100
AcDbEntity
  8
RACCORDO
100
AcDbLine
 62
253
  6
CONTINUOUS
 10
167.4630653396
 20
111.8321448859
 11
167.5125637755
 21
111.78264645
  0
LINE
  5
36C
100
AcDbEntity
  8
RACCORDO
100
AcDbLine
 62
7
  6
CONTINUOUS
 10
155.8217460255
 20
78.7930470459
 11
155.8125637755
 21
78.7838647959
  0
LINE
  5
36D
100
AcDbEntity
  8
RACCORDO
100
AcDbLine
 62
7
  6
CONTINUOUS
 10
155.8217460255
 20
126.7746825459
 11
155.8125637755
 21
126.7838647959
  0
LINE
  5
36E
100
AcDbEntity
  8
RACCORDO
100
AcDbLine
 62
253
  6
CONTINUOUS
 10
153.0620622114
 20
82.4303843678
 11
153.0125637755
 21
82.4056426905
  0
LINE
  5
36F
100
AcDbEntity
  8
RACCORDO
100
AcDbLine
 62
253
  6
CONTINUOUS
 10
153.0125637755
 20
123.1620869014
 11
153.0620622114
 21
123.137345224
  0
LINE
  5
370
100
AcDbEntity
  8
RACCORDO
100
AcDbLine
 62
7
  6
CONTINUOUS
 10
161.2625637755
 20
80.3838647959
 11
161.2670037
 21
80.3883047204
  0
LINE
  5
371
100
AcDbEntity
  8
RACCORDO
100
AcDbLine
 62
253
  6
CONTINUOUS
 10
155.0619034661
 20
80.4311457877
 11
155.0125639612
 21
80.4065563803
  0
LINE
  5
372
100
AcDbEntity
  8
RACCORDO
100
AcDbLine
 62
253
  6
CONTINUOUS
 10
155.0125639612
 20
125.1611732115
 11
155.0619034653
 21
125.1365838042
  0
LINE
  5
373
100
AcDbEntity
  8
RACCORDO
100
AcDbLine
 62
7
  6
CONTINUOUS
 10
161.2625637755
 20
125.1838647959
 11
161.2670037
 21
125.1794248715
  0
LINE
  5
374
100
AcDbEntity
  8
RACCORDO
100
AcDbLine
 62
253
  6
CONTINUOUS
 10
167.3125942365
 20
80.3838647959
 11
167.3309982129
 21
80.4022687723
  0
LINE
  5
375
100
AcDbEntity
  8
RACCORDO
100
AcDbLine
 62
253
  6
CONTINUOUS
 10
167.5125637755
 20
80.1838952569
 11
167.5309682146
 21
80.202299696
  0
LINE
  5
376
100
AcDbEntity
  8
RACCORDO
100
AcDbLine
 62
253
  6
CONTINUOUS
 10
161.2670037
 20
79.0360560325
 11
161.2625637755
 21
79.0338362393
  0
LINE
  5
377
100
AcDbEntity
  8
RACCORDO
100
AcDbLine
 62
253
  6
CONTINUOUS
 10
153.5617576249
 20
123.137345224
 11
153.0620622114
 21
123.137345224
  0
LINE
  5
378
100
AcDbEntity
  8
RACCORDO
100
AcDbLine
 62
253
  6
CONTINUOUS
 10
166.9633699261
 20
123.137345224
 11
167.4630653396
 21
123.1373452222
  0
LINE
  5
379
100
AcDbEntity
  8
RACCORDO
100
AcDbLine
 62
253
  6
CONTINUOUS
 10
167.3309982129
 20
125.1654608195
 11
167.3125942365
 21
125.1838647959
  0
LINE
  5
37A
100
AcDbEntity
  8
RACCORDO
100
AcDbLine
 62
253
  6
CONTINUOUS
 10
167.5309677519
 20
125.3654303586
 11
167.5125637755
 21
125.3838343349
  0
LINE
  5
37B
100
AcDbEntity
  8
RACCORDO
100
AcDbLine
 62
253
  6
CONTINUOUS
 10
167.5309677519
 20
78.5522306961
 11
167.5125637755
 21
78.5338267197
  0
LINE
  5
37C
100
AcDbEntity
  8
RACCORDO
100
AcDbLine
 62
253
  6
CONTINUOUS
 10
167.7809296757
 20
78.3022687723
 11
167.7625256993
 21
78.2838647959
  0
LWPOLYLINE
  5
37D
100
AcDbEntity
  8
RACCORDO
100
AcDbPolyline
 62
253
  6
CONTINUOUS
 90
10
 70
0
 10
167.5309682161
 20
80.2023000551
 10
167.5322787264
 20
80.2029851992
 10
167.5354430799
 20
80.2036544647
 10
167.5404376126
 20
80.2043078517
 10
167.547225461
 20
80.2049500525
 10
167.5557557094
 20
80.2055763748
 10
167.5659627792
 20
80.2061727414
 10
167.5777672446
 20
80.2067382869
 10
167.5910821379
 20
80.2072738768
 10
167.605813792
 20
80.2077680307
  0
LWPOLYLINE
  5
37E
100
AcDbEntity
  8
RACCORDO
100
AcDbPolyline
 62
253
  6
CONTINUOUS
 90
7
 70
0
 10
153.1941293381
 20
125.1654608195
 10
153.1910783281
 20
125.1646902189
 10
153.1840396159
 20
125.163942018
 10
153.1730132016
 20
125.1632162169
 10
153.1579990851
 20
125.1625128154
 10
153.1389972664
 20
125.1618318137
 10
153.1160077456
 20
125.1611732117
  0
LWPOLYLINE
  5
37F
100
AcDbEntity
  8
RACCORDO
100
AcDbPolyline
 62
7
  6
CONTINUOUS
 90
3
 70
0
 10
161.4478624818
 20
126.7753492813
 10
161.4799340739
 20
126.7817269242
 10
161.512563777
 20
126.7838647959
  0
LWPOLYLINE
  5
380
100
AcDbEntity
  8
RACCORDO
100
AcDbPolyline
 62
253
  6
CONTINUOUS
 90
13
 70
0
 10
149.9309982129
 20
125.1346669353
 10
149.9569938842
 20
125.1363999594
 10
149.9825484002
 20
125.1412590457
 10
150.0072280784
 20
125.1491617312
 10
150.0306140829
 20
125.1599739008
 10
150.0523095326
 20
125.1735120624
 10
150.0719462368
 20
125.1895464616
 10
150.0891909433
 20
125.2078049809
 10
150.1037509944
 20
125.2279777571
 10
150.1153792931
 20
125.2497224409
 10
150.123878497
 20
125.272670006
 10
150.1291043671
 20
125.2964310122
 10
150.1309682159
 20
125.3206022146
  0
LWPOLYLINE
  5
381
100
AcDbEntity
  8
RACCORDO
100
AcDbPolyline
 62
253
  6
CONTINUOUS
 90
13
 70
0
 10
149.9267106049
 20
125.1697484275
 10
149.9528064128
 20
125.1714664249
 10
149.9784559603
 20
125.1765751528
 10
150.0032205542
 20
125.184987259
 10
150.0266766205
 20
125.1965588852
 10
150.0484229847
 20
125.2110921427
 10
150.0680877247
 20
125.2283385109
 10
150.0853344851
 20
125.2480030541
 10
150.0998682451
 20
125.2697494555
 10
150.1114403921
 20
125.2932057966
 10
150.1198529602
 20
125.3179709019
 10
150.1249620199
 20
125.3436211986
 10
150.1266801439
 20
125.3697179666
  0
LWPOLYLINE
  5
382
100
AcDbEntity
  8
RACCORDO
100
AcDbPolyline
 62
7
  6
CONTINUOUS
 90
16
 70
0
 10
149.6124876231
 20
125.1838647959
 10
149.5606018092
 20
125.1811659715
 10
149.509067741
 20
125.1730534297
 10
149.4584566064
 20
125.1595494246
 10
149.4091617992
 20
125.1406576162
 10
149.3619488834
 20
125.1165658606
 10
149.3178545936
 20
125.0878310832
 10
149.2776337527
 20
125.0551682659
 10
149.2412603055
 20
125.0187948187
 10
149.2085974882
 20
124.9785739778
 10
149.1798627108
 20
124.9344796881
 10
149.1557709552
 20
124.8872667722
 10
149.1368791468
 20
124.837971965
 10
149.1233751417
 20
124.7873608304
 10
149.1152626
 20
124.7358267622
 10
149.1125637755
 20
124.6839409483
  0
LWPOLYLINE
  5
383
100
AcDbEntity
  8
RACCORDO
100
AcDbPolyline
 62
253
  6
CONTINUOUS
 90
25
 70
0
 10
155.0617577642
 20
124.6366599566
 10
154.963214517
 20
124.6333852232
 10
154.8658329172
 20
124.6238200643
 10
154.7696129648
 20
124.6079644798
 10
154.6741231964
 20
124.5856967395
 10
154.5797950755
 20
124.5571385736
 10
154.4879229923
 20
124.5226551729
 10
154.3985680831
 20
124.482170725
 10
154.3116692116
 20
124.4357610422
 10
154.2283373598
 20
124.3840187524
 10
154.148617898
 20
124.32687392
 10
154.0724654559
 20
124.2643964806
 10
154.0008549039
 20
124.1973888689
 10
153.9338463609
 20
124.1257943869
 10
153.871379708
 20
124.0496697325
 10
153.8142494588
 20
123.9699874338
 10
153.7625243682
 20
123.8867023242
 10
153.7161356814
 20
123.7998595702
 10
153.6756716465
 20
123.7105671991
 10
153.6412070131
 20
123.6187590658
 10
153.6126670317
 20
123.5245013154
 10
153.5904157023
 20
123.4291004098
 10
153.5745743579
 20
123.3329918363
 10
153.5650216655
 20
123.2357401078
 10
153.5617576249
 20
123.137345224
  0
LWPOLYLINE
  5
384
100
AcDbEntity
  8
RACCORDO
100
AcDbPolyline
 62
253
  6
CONTINUOUS
 90
25
 70
0
 10
155.0619034134
 20
125.1365838247
 10
154.9310085093
 20
125.1322880789
 10
154.8006988997
 20
125.1194414641
 10
154.6715319674
 20
125.0981032197
 10
154.5440645224
 20
125.0683704727
 10
154.4188360548
 20
125.0303737052
 10
154.2963674228
 20
124.9842728232
 10
154.1771774995
 20
124.9302637858
 10
154.0617804458
 20
124.8685803771
 10
153.9506699035
 20
124.799486692
 10
153.8443208924
 20
124.7232792545
 10
153.7431874551
 20
124.6402848157
 10
153.6477014375
 20
124.5508579808
 10
153.5582709989
 20
124.455381873
 10
153.4752779824
 20
124.3542653481
 10
153.3990763918
 20
124.2479398564
 10
153.3299920832
 20
124.1368603953
 10
153.2683202161
 20
124.0215022944
 10
153.2143237873
 20
123.902357507
 10
153.1682340025
 20
123.7799355032
 10
153.1302481383
 20
123.6547600404
 10
153.1005283461
 20
123.5273652202
 10
153.0792021487
 20
123.3982954395
 10
153.066361585
 20
123.2681031539
 10
153.0620622114
 20
123.137345224
  0
LINE
  5
385
100
AcDbEntity
  8
RACCORDO
100
AcDbLine
 62
253
  6
CONTINUOUS
 10
152.919313759
 20
125.3599615612
 11
152.8860388701
 21
125.3590990977
  0
LINE
  5
386
100
AcDbEntity
  8
RACCORDO
100
AcDbLine
 62
253
  6
CONTINUOUS
 10
152.8860388701
 20
125.3590990977
 11
152.8485190811
 21
125.3584310434
  0
LINE
  5
387
100
AcDbEntity
  8
RACCORDO
100
AcDbLine
 62
253
  6
CONTINUOUS
 10
152.8485190811
 20
125.3584310434
 11
152.8079149099
 21
125.3579723342
  0
LWPOLYLINE
  5
388
100
AcDbEntity
  8
RACCORDO
100
AcDbPolyline
 62
253
  6
CONTINUOUS
 90
3
 70
0
 10
152.8079149099
 20
125.3579723342
 10
152.7656273808
 20
125.3577429519
 10
152.7442361254
 20
125.3577128183
  0
LINE
  5
389
100
AcDbEntity
  8
RACCORDO
100
AcDbLine
 62
253
  6
CONTINUOUS
 10
165.4633697868
 20
124.6366599566
 11
155.0617577642
 21
124.6366599566
  0
LINE
  5
38A
100
AcDbEntity
  8
RACCORDO
100
AcDbLine
 62
253
  6
CONTINUOUS
 10
149.1266801439
 20
124.66982458
 11
150.3809296757
 21
124.66982458
  0
LINE
  5
38B
100
AcDbEntity
  8
RACCORDO
100
AcDbLine
 62
253
  6
CONTINUOUS
 10
170.1441978753
 20
124.66982458
 11
171.3984474071
 21
124.66982458
  0
LINE
  5
38C
100
AcDbEntity
  8
RACCORDO
100
AcDbLine
 62
253
  6
CONTINUOUS
 10
165.463224085
 20
125.1365838042
 11
155.0619034653
 21
125.1365838042
  0
LINE
  5
38D
100
AcDbEntity
  8
DRAFT
100
AcDbLine
 62
7
  6
CONTINUOUS
 10
164.7012188474
 20
125.1611732115
 11
163.7625637755
 21
125.1611732115
  0
LINE
  5
38E
100
AcDbEntity
  8
DRAFT
100
AcDbLine
 62
7
  6
CONTINUOUS
 10
156.7625637755
 20
125.1611732115
 11
155.8239087036
 21
125.1611732115
  0
LINE
  5
38F
100
AcDbEntity
  8
RACCORDO
100
AcDbLine
 62
7
  6
CONTINUOUS
 10
153.1160077393
 20
125.1611732117
 11
155.0125639612
 21
125.1611732115
  0
LINE
  5
390
100
AcDbEntity
  8
RACCORDO
100
AcDbLine
 62
7
  6
CONTINUOUS
 10
165.5125635898
 20
125.1611732115
 11
167.4091198145
 21
125.161173212
  0
LINE
  5
391
100
AcDbEntity
  8
RACCORDO
100
AcDbLine
 62
253
  6
CONTINUOUS
 10
170.598416265
 20
125.1697477464
 11
170.8985235595
 21
125.1697484275
  0
LINE
  5
392
100
AcDbEntity
  8
RACCORDO
100
AcDbLine
 62
253
  6
CONTINUOUS
 10
149.6266039915
 20
125.1697484275
 11
149.9267112605
 21
125.1697477719
  0
LINE
  5
393
100
AcDbEntity
  8
RACCORDO
100
AcDbLine
 62
7
  6
CONTINUOUS
 10
156.7625637755
 20
125.1751372635
 11
159.0081619273
 21
125.1751372635
  0
LINE
  5
394
100
AcDbEntity
  8
RACCORDO
100
AcDbLine
 62
7
  6
CONTINUOUS
 10
161.5169656238
 20
125.1751372635
 11
163.7625637755
 21
125.1751372635
  0
LINE
  5
395
100
AcDbEntity
  8
RACCORDO
100
AcDbLine
 62
7
  6
CONTINUOUS
 10
149.6124876231
 20
125.1838647959
 11
149.9125942373
 21
125.1838647959
  0
LINE
  5
396
100
AcDbEntity
  8
RACCORDO
100
AcDbLine
 62
7
  6
CONTINUOUS
 10
153.2125333138
 20
125.1838647959
 11
155.8125637755
 21
125.1838647959
  0
LINE
  5
397
100
AcDbEntity
  8
DRAFT
100
AcDbLine
 62
7
  6
CONTINUOUS
 10
159.2625637755
 20
125.1838647959
 11
161.2625637755
 21
125.1838647959
  0
LINE
  5
398
100
AcDbEntity
  8
RACCORDO
100
AcDbLine
 62
7
  6
CONTINUOUS
 10
164.7125637755
 20
125.1838647959
 11
167.3125942373
 21
125.1838647959
  0
LINE
  5
399
100
AcDbEntity
  8
RACCORDO
100
AcDbLine
 62
7
  6
CONTINUOUS
 10
170.6125333138
 20
125.1838647959
 11
170.9126399279
 21
125.1838647959
  0
LINE
  5
39A
100
AcDbEntity
  8
RACCORDO
100
AcDbLine
 62
253
  6
CONTINUOUS
 10
167.7809171247
 20
125.3577127146
 11
167.7382255549
 21
125.3578299651
  0
LINE
  5
39B
100
AcDbEntity
  8
RACCORDO
100
AcDbLine
 62
253
  6
CONTINUOUS
 10
167.7382255549
 20
125.3578299651
 11
167.6968492426
 21
125.3581704632
  0
LINE
  5
39C
100
AcDbEntity
  8
RACCORDO
100
AcDbLine
 62
253
  6
CONTINUOUS
 10
167.6968492426
 20
125.3581704632
 11
167.6579820937
 21
125.3587285599
  0
LWPOLYLINE
  5
39D
100
AcDbEntity
  8
RACCORDO
100
AcDbPolyline
 62
253
  6
CONTINUOUS
 90
12
 70
0
 10
167.6579820937
 20
125.3587285599
 10
167.6227143986
 20
125.3594875376
 10
167.6067578719
 20
125.3599327474
 10
167.5920867296
 20
125.3604192304
 10
167.5787958349
 20
125.3609465883
 10
167.5669580604
 20
125.3615048082
 10
167.5566975449
 20
125.362092473
 10
167.5480605393
 20
125.362711
 10
167.5410526655
 20
125.3633546281
 10
167.535780038
 20
125.3640214371
 10
167.5323846483
 20
125.3647133472
 10
167.5309677519
 20
125.3654303586
  0
LWPOLYLINE
  5
39E
100
AcDbEntity
  8
RACCORDO
100
AcDbPolyline
 62
253
  6
CONTINUOUS
 90
7
 70
0
 10
167.409119797
 20
125.161173212
 10
167.3865668632
 20
125.1618081009
 10
167.3678269973
 20
125.1624748748
 10
167.3529001993
 20
125.1631735336
 10
167.3417864692
 20
125.1639040773
 10
167.3344858071
 20
125.164666506
 10
167.3309982129
 20
125.1654608195
  0
LWPOLYLINE
  5
39F
100
AcDbEntity
  8
RACCORDO
100
AcDbPolyline
 62
7
  6
CONTINUOUS
 90
13
 70
0
 10
153.1160077393
 20
125.1611732117
 10
153.0858640784
 20
125.1626825922
 10
153.0553587155
 20
125.1671860357
 10
153.0244916509
 20
125.1746835421
 10
152.9930731334
 20
125.185328224
 10
152.9612929141
 20
125.1989669688
 10
152.9297202458
 20
125.215140439
 10
152.8986021088
 20
125.2339478145
 10
152.8676915229
 20
125.2552899152
 10
152.8368168005
 20
125.2784098633
 10
152.8059207123
 20
125.3030553658
 10
152.7750604875
 20
125.3294787157
 10
152.7442361262
 20
125.3576799127
  0
LWPOLYLINE
  5
3A0
100
AcDbEntity
  8
RACCORDO
100
AcDbPolyline
 62
253
  6
CONTINUOUS
 90
16
 70
0
 10
170.8985235595
 20
125.1697484275
 10
170.9507697372
 20
125.16699494
 10
171.0024437167
 20
125.1587964603
 10
171.0529795667
 20
125.1452427779
 10
171.1018238202
 20
125.1264823321
 10
171.1484415366
 20
125.1027205867
 10
171.1923221601
 20
125.0742177794
 10
171.2329851115
 20
125.0412860722
 10
171.2699850518
 20
125.0042861319
 10
171.302916759
 20
124.9636231805
 10
171.3314195662
 20
124.919742557
 10
171.3551813117
 20
124.8731248407
 10
171.3739417574
 20
124.8242805872
 10
171.3874954399
 20
124.7737447373
 10
171.3956939196
 20
124.7220707577
 10
171.3984474071
 20
124.66982458
  0
LWPOLYLINE
  5
3A1
100
AcDbEntity
  8
RACCORDO
100
AcDbPolyline
 62
253
  6
CONTINUOUS
 90
13
 70
0
 10
170.5984169462
 20
125.1697484275
 10
170.5723207146
 20
125.1714664808
 10
170.546670824
 20
125.1765753584
 10
170.521905981
 20
125.18498768
 10
170.498449755
 20
125.1965595641
 10
170.476703333
 20
125.2110930892
 10
170.4570386583
 20
125.2283396789
 10
170.4397920686
 20
125.2480043536
 10
170.4252585436
 20
125.2697507756
 10
170.4136866596
 20
125.2932070015
 10
170.405274338
 20
125.3179718444
 10
170.4001654604
 20
125.3436217349
 10
170.3984474071
 20
125.3697179662
  0
LWPOLYLINE
  5
3A2
100
AcDbEntity
  8
RACCORDO
100
AcDbPolyline
 62
253
  6
CONTINUOUS
 90
13
 70
0
 10
170.5941293382
 20
125.1346603067
 10
170.5681336529
 20
125.1363935066
 10
170.5425791567
 20
125.1412528919
 10
170.5178995499
 20
125.149155991
 10
170.4945136847
 20
125.1599686757
 10
170.4728184564
 20
125.1735074377
 10
170.4531820675
 20
125.1895425025
 10
170.4359377787
 20
125.2078017297
 10
170.421378253
 20
125.2279752311
 10
170.4097505888
 20
125.2497206304
 10
170.4012521259
 20
125.2726688736
 10
170.3960270967
 20
125.2964304925
 10
170.3941641785
 20
125.3206022147
  0
LINE
  5
3A3
100
AcDbEntity
  8
RACCORDO
100
AcDbLine
 62
253
  6
CONTINUOUS
 10
167.5125637755
 20
127.0339028721
 11
167.5309677519
 21
127.0154988957
  0
LINE
  5
3A4
100
AcDbEntity
  8
RACCORDO
100
AcDbLine
 62
253
  6
CONTINUOUS
 10
167.7625256993
 20
127.2838647959
 11
167.7809296757
 21
127.2654608195
  0
LWPOLYLINE
  5
3A5
100
AcDbEntity
  8
RACCORDO
100
AcDbPolyline
 62
7
  6
CONTINUOUS
 90
13
 70
0
 10
150.3625256993
 20
127.2838647959
 10
150.3298980407
 20
127.2817269657
 10
150.2978290679
 20
127.2753492452
 10
150.2668671661
 20
127.2648405187
 10
150.237541595
 20
127.2503802173
 10
150.2103543377
 20
127.2322154834
 10
150.1857713102
 20
127.2106572612
 10
150.164213088
 20
127.1860742337
 10
150.1460483541
 20
127.1588869764
 10
150.1315880527
 20
127.1295614053
 10
150.1210793262
 20
127.0985995035
 10
150.1147016057
 20
127.0665305307
 10
150.1125637755
 20
127.0339028721
  0
LWPOLYLINE
  5
3A6
100
AcDbEntity
  8
RACCORDO
100
AcDbPolyline
 62
7
  6
CONTINUOUS
 90
16
 70
0
 10
161.5169656238
 20
126.7816640401
 10
161.4907079248
 20
126.7802769133
 10
161.4647476901
 20
126.7761403588
 10
161.4393716779
 20
126.7693023187
 10
161.4148743769
 20
126.7598470458
 10
161.3915096863
 20
126.7478776039
 10
161.3694955973
 20
126.7334997111
 10
161.3490399542
 20
126.7168229449
 10
161.3304287474
 20
126.6980521298
 10
161.3139521397
 20
126.6774896428
 10
161.2997846686
 20
126.6554019283
 10
161.2880437767
 20
126.6320282065
 10
161.2788499953
 20
126.6076848633
 10
161.2722670217
 20
126.582667198
 10
161.2683180248
 20
126.5572381484
 10
161.2670037
 20
126.5316735594
  0
LINE
  5
3A7
100
AcDbEntity
  8
RACCORDO
100
AcDbLine
 62
253
  6
CONTINUOUS
 10
164.7012188474
 20
126.5246920651
 11
163.7625637755
 21
126.5246920651
  0
LINE
  5
3A8
100
AcDbEntity
  8
RACCORDO
100
AcDbLine
 62
253
  6
CONTINUOUS
 10
156.7625637755
 20
126.5246920651
 11
155.8239087036
 21
126.5246920651
  0
LINE
  5
3A9
100
AcDbEntity
  8
RACCORDO
100
AcDbLine
 62
253
  6
CONTINUOUS
 10
156.7625637755
 20
126.5316735594
 11
159.2581238511
 21
126.5316735594
  0
LINE
  5
3AA
100
AcDbEntity
  8
RACCORDO
100
AcDbLine
 62
253
  6
CONTINUOUS
 10
161.2670037
 20
126.5316735594
 11
163.7625637755
 21
126.5316735594
  0
LINE
  5
3AB
100
AcDbEntity
  8
RACCORDO
100
AcDbLine
 62
7
  6
CONTINUOUS
 10
164.7033815255
 20
126.7746825459
 11
163.7625637755
 21
126.7746825459
  0
LINE
  5
3AC
100
AcDbEntity
  8
RACCORDO
100
AcDbLine
 62
7
  6
CONTINUOUS
 10
156.7625637755
 20
126.7746825459
 11
155.8217460255
 21
126.7746825459
  0
LINE
  5
3AD
100
AcDbEntity
  8
RACCORDO
100
AcDbLine
 62
7
  6
CONTINUOUS
 10
163.7625637755
 20
126.7816640401
 11
161.5169656238
 21
126.7816640401
  0
LINE
  5
3AE
100
AcDbEntity
  8
RACCORDO
100
AcDbLine
 62
7
  6
CONTINUOUS
 10
159.0081619273
 20
126.7816640401
 11
156.7625637755
 21
126.7816640401
  0
LINE
  5
3AF
100
AcDbEntity
  8
RACCORDO
100
AcDbLine
 62
7
  6
CONTINUOUS
 10
155.8125637755
 20
126.7838647959
 11
156.7625637755
 21
126.7838647959
  0
LINE
  5
3B0
100
AcDbEntity
  8
RACCORDO
100
AcDbLine
 62
7
  6
CONTINUOUS
 10
163.7625637755
 20
126.7838647959
 11
164.7125637755
 21
126.7838647959
  0
LINE
  5
3B1
100
AcDbEntity
  8
RACCORDO
100
AcDbLine
 62
253
  6
CONTINUOUS
 10
150.1309677519
 20
127.0154988957
 11
152.9941597991
 21
127.0154988957
  0
LINE
  5
3B2
100
AcDbEntity
  8
RACCORDO
100
AcDbLine
 62
253
  6
CONTINUOUS
 10
167.5309677519
 20
127.0154988957
 11
170.3941597991
 21
127.0154988957
  0
LINE
  5
3B3
100
AcDbEntity
  8
RACCORDO
100
AcDbLine
 62
253
  6
CONTINUOUS
 10
150.3809296757
 20
127.2654608195
 11
152.7441978753
 21
127.2654608195
  0
LINE
  5
3B4
100
AcDbEntity
  8
RACCORDO
100
AcDbLine
 62
253
  6
CONTINUOUS
 10
167.7809296757
 20
127.2654608195
 11
170.1441978753
 21
127.2654608195
  0
LINE
  5
3B5
100
AcDbEntity
  8
RACCORDO
100
AcDbLine
 62
7
  6
CONTINUOUS
 10
150.3625256993
 20
127.2838647959
 11
152.7626018517
 21
127.2838647959
  0
LINE
  5
3B6
100
AcDbEntity
  8
RACCORDO
100
AcDbLine
 62
7
  6
CONTINUOUS
 10
167.7625256993
 20
127.2838647959
 11
170.1626018517
 21
127.2838647959
  0
LWPOLYLINE
  5
3B7
100
AcDbEntity
  8
RACCORDO
100
AcDbPolyline
 62
253
  6
CONTINUOUS
 90
16
 70
0
 10
152.7441978753
 20
127.2654608195
 10
152.7703209859
 20
127.2640840734
 10
152.7961580014
 20
127.2599848258
 10
152.821425955
 20
127.25320797
 10
152.8458481175
 20
127.243827722
 10
152.8691570107
 20
127.2319468143
 10
152.8910973398
 20
127.2176953762
 10
152.9114288115
 20
127.2012294977
 10
152.9299287648
 20
127.1827295125
 10
152.9463945934
 20
127.1623980331
 10
152.9606459654
 20
127.140457734
 10
152.9725268059
 20
127.1171489036
 10
152.9819070039
 20
127.0927268083
 10
152.9886838285
 20
127.0674589131
 10
152.9927830586
 20
127.041621954
 10
152.9941597991
 20
127.0154988957
  0
LWPOLYLINE
  5
3B8
100
AcDbEntity
  8
RACCORDO
100
AcDbPolyline
 62
253
  6
CONTINUOUS
 90
16
 70
0
 10
170.1441978753
 20
127.2654608195
 10
170.1703209845
 20
127.2640840736
 10
170.1961579984
 20
127.2599848264
 10
170.2214259501
 20
127.2532079715
 10
170.2458481095
 20
127.2438277255
 10
170.2691569998
 20
127.2319468205
 10
170.2910973294
 20
127.2176953837
 10
170.3114288072
 20
127.2012295015
 10
170.3299287681
 20
127.1827295088
 10
170.3463946005
 20
127.1623980234
 10
170.3606459713
 20
127.1404577239
 10
170.372526809
 20
127.1171488967
 10
170.3819070051
 20
127.0927268045
 10
170.388683829
 20
127.0674589109
 10
170.3927830587
 20
127.041621953
 10
170.3941597991
 20
127.0154988957
  0
LWPOLYLINE
  5
3B9
100
AcDbEntity
  8
RACCORDO
100
AcDbPolyline
 62
7
  6
CONTINUOUS
 90
13
 70
0
 10
170.1626018517
 20
127.2838647959
 10
170.1952295103
 20
127.2817269657
 10
170.2272984831
 20
127.2753492452
 10
170.2582603849
 20
127.2648405187
 10
170.287585956
 20
127.2503802173
 10
170.3147732133
 20
127.2322154834
 10
170.3393562408
 20
127.2106572612
 10
170.360914463
 20
127.1860742337
 10
170.3790791969
 20
127.1588869764
 10
170.3935394983
 20
127.1295614053
 10
170.4040482248
 20
127.0985995035
 10
170.4104259453
 20
127.0665305307
 10
170.4125637755
 20
127.0339028721
  0
LINE
  5
3BA
100
AcDbEntity
  8
RACCORDO
100
AcDbLine
 62
7
  6
CONTINUOUS
 10
127.4789859694
 20
78.2838647959
 11
128.233349071
 21
78.2970322528
  0
LINE
  5
3BB
100
AcDbEntity
  8
RACCORDO
100
AcDbLine
 62
253
  6
CONTINUOUS
 10
127.4789859694
 20
78.5338267197
 11
128.233349071
 21
78.5469941766
  0
LINE
  5
3BC
100
AcDbEntity
  8
ASSI
100
AcDbLine
 62
7
  6
CONTINUOUS
 10
134.9833492371
 20
78.849354382
 11
128.4789859694
 21
78.7925916637
  0
LINE
  5
3BD
100
AcDbEntity
  8
RACCORDO
100
AcDbLine
 62
253
  6
CONTINUOUS
 10
128.233349071
 20
78.5469941766
 11
128.4789859694
 21
78.5469941766
  0
LINE
  5
3BE
100
AcDbEntity
  8
RACCORDO
100
AcDbLine
 62
253
  6
CONTINUOUS
 10
126.4246228678
 20
78.5522306961
 11
126.1789859694
 21
78.5522306961
  0
LINE
  5
3BF
100
AcDbEntity
  8
RACCORDO
100
AcDbLine
 62
253
  6
CONTINUOUS
 10
128.233349071
 20
78.9395272286
 11
128.4789859694
 21
78.9395272286
  0
LINE
  5
3C0
100
AcDbEntity
  8
RACCORDO
100
AcDbLine
 62
7
  6
CONTINUOUS
 10
126.4246228678
 20
78.3022687723
 11
127.4789859694
 21
78.2838647959
  0
LINE
  5
3C1
100
AcDbEntity
  8
RACCORDO
100
AcDbLine
 62
253
  6
CONTINUOUS
 10
126.4246228678
 20
78.5522306961
 11
127.4789859694
 21
78.5338267197
  0
LINE
  5
3C2
100
AcDbEntity
  8
RACCORDO
100
AcDbLine
 62
253
  6
CONTINUOUS
 10
127.4789859694
 20
126.1926706234
 11
128.233349071
 21
126.6282023632
  0
LINE
  5
3C3
100
AcDbEntity
  8
RACCORDO
100
AcDbLine
 62
7
  6
CONTINUOUS
 10
127.4789859694
 20
125.9065145267
 11
128.3539859694
 21
126.4116960123
  0
LWPOLYLINE
  5
3C4
100
AcDbEntity
  8
RACCORDO
100
AcDbPolyline
 62
253
  6
CONTINUOUS
 90
7
 70
0
 10
126.4246228678
 20
125.3206022146
 10
126.4645111969
 20
125.3349796402
 10
126.5048199877
 20
125.346880479
 10
126.5455492399
 20
125.356304731
 10
126.5866989538
 20
125.3632523963
 10
126.6282691292
 20
125.3677234748
 10
126.6702597662
 20
125.3697179666
  0
LINE
  5
3C5
100
AcDbEntity
  8
RACCORDO
100
AcDbLine
 62
7
  6
CONTINUOUS
 10
127.4789859694
 20
80.3838647959
 11
138.4964383758
 21
80.576175143
  0
LINE
  5
3C6
100
AcDbEntity
  8
RACCORDO
100
AcDbLine
 62
253
  6
CONTINUOUS
 10
127.4789859694
 20
80.1838952569
 11
126.6702597662
 21
80.1980116253
  0
LINE
  5
3C7
100
AcDbEntity
  8
RACCORDO
100
AcDbLine
 62
7
  6
CONTINUOUS
 10
126.1789859694
 20
80.4065563803
 11
124.7702597662
 21
80.4311457877
  0
LINE
  5
3C8
100
AcDbEntity
  8
RACCORDO
100
AcDbLine
 62
7
  6
CONTINUOUS
 10
126.6702597662
 20
80.3979811643
 11
127.4789859694
 21
80.3838647959
  0
LWPOLYLINE
  5
3C9
100
AcDbEntity
  8
RACCORDO
100
AcDbPolyline
 62
253
  6
CONTINUOUS
 90
7
 70
0
 10
126.6702597662
 20
80.1980116253
 10
126.6282460525
 20
80.2000107332
 10
126.5866620311
 20
80.2044845815
 10
126.545507702
 20
80.21143317
 10
126.504783065
 20
80.2208564988
 10
126.4644881203
 20
80.2327545678
 10
126.4246228678
 20
80.2471273772
  0
LINE
  5
3CA
100
AcDbEntity
  8
RACCORDO
100
AcDbLine
 62
253
  6
CONTINUOUS
 10
128.233349071
 20
78.9395272286
 11
127.4789859694
 21
79.3750589684
  0
LINE
  5
3CB
100
AcDbEntity
  8
RACCORDO
100
AcDbLine
 62
7
  6
CONTINUOUS
 10
128.3539859694
 20
79.1560335796
 11
127.4789859694
 21
79.6612150651
  0
LINE
  5
3CC
100
AcDbEntity
  8
RACCORDO
100
AcDbLine
 62
253
  6
CONTINUOUS
 10
127.4789859694
 20
80.8837886435
 11
128.4789859694
 21
80.9012437084
  0
LINE
  5
3CD
100
AcDbEntity
  8
RACCORDO
100
AcDbLine
 62
253
  6
CONTINUOUS
 10
126.6702597662
 20
80.8979050119
 11
126.1789859694
 21
80.8979050119
  0
LINE
  5
3CE
100
AcDbEntity
  8
RACCORDO
100
AcDbLine
 62
253
  6
CONTINUOUS
 10
139.4789859694
 20
81.5760228382
 11
138.9833492371
 21
81.5760228382
  0
LINE
  5
3CF
100
AcDbEntity
  8
RACCORDO
100
AcDbLine
 62
253
  6
CONTINUOUS
 10
124.2789859694
 20
82.4303843678
 11
124.761536221
 21
82.4303843678
  0
LINE
  5
3D0
100
AcDbEntity
  8
RACCORDO
100
AcDbLine
 62
7
  6
CONTINUOUS
 10
128.4789859694
 20
81.3838647959
 11
138.8955095133
 21
81.2929611721
  0
LINE
  5
3D1
100
AcDbEntity
  8
RACCORDO
100
AcDbLine
 62
7
  6
CONTINUOUS
 10
128.4789859694
 20
81.8838647959
 11
139.4789859694
 21
81.7878692502
  0
LINE
  5
3D2
100
AcDbEntity
  8
RACCORDO
100
AcDbLine
 62
253
  6
CONTINUOUS
 10
126.6702597662
 20
80.8979050119
 11
127.4789859694
 21
80.8837886435
  0
LINE
  5
3D3
100
AcDbEntity
  8
RACCORDO
100
AcDbLine
 62
253
  6
CONTINUOUS
 10
126.1789859694
 20
82.4056426905
 11
124.761536221
 21
82.4303843678
  0
LWPOLYLINE
  5
3D4
100
AcDbEntity
  8
RACCORDO
100
AcDbPolyline
 62
253
  6
CONTINUOUS
 90
28
 70
0
 10
126.4246228678
 20
80.2471273772
 10
126.4116292092
 20
80.2568463651
 10
126.3985835221
 20
80.2676827316
 10
126.3855231584
 20
80.2796364767
 10
126.3724701563
 20
80.2927120816
 10
126.3594818277
 20
80.3069050651
 10
126.3466483307
 20
80.3222019837
 10
126.3340260596
 20
80.3386032519
 10
126.321637173
 20
80.3561084552
 10
126.309518726
 20
80.3747029062
 10
126.2977171104
 20
80.3943847383
 10
126.2862644892
 20
80.4151558183
 10
126.2751787983
 20
80.4370070589
 10
126.2645054865
 20
80.4599348046
 10
126.2542809137
 20
80.4839427109
 10
126.2445162952
 20
80.509032658
 10
126.2352616052
 20
80.5351966801
 10
126.2265569544
 20
80.5624427429
 10
126.2184122059
 20
80.5907966244
 10
126.2108854275
 20
80.6202498019
 10
126.2040254151
 20
80.6508107981
 10
126.1978511157
 20
80.6825309586
 10
126.1924345382
 20
80.7154048821
 10
126.1878386345
 20
80.74943797
 10
126.1841055598
 20
80.784697772
 10
126.1813201869
 20
80.8212068046
 10
126.1795840265
 20
80.8589425512
 10
126.1789859694
 20
80.8979050119
  0
LINE
  5
3D5
100
AcDbEntity
  8
ASSI
100
AcDbLine
 62
253
  6
CONTINUOUS
 10
127.4789859694
 20
85.2838647959
 11
128.4789859694
 21
85.2838647959
  0
LINE
  5
3D6
100
AcDbEntity
  8
RACCORDO
100
AcDbLine
 62
253
  6
CONTINUOUS
 10
139.4789859694
 20
121.729900233
 11
128.4789859694
 21
117.8280829594
  0
LINE
  5
3D7
100
AcDbEntity
  8
ASSI
100
AcDbLine
 62
253
  6
CONTINUOUS
 10
127.4789859694
 20
86.2838647959
 11
128.4789859694
 21
86.2838647959
  0
LINE
  5
3D8
100
AcDbEntity
  8
RACCORDO
100
AcDbLine
 62
253
  6
CONTINUOUS
 10
139.4789859694
 20
83.8378293588
 11
128.4789859694
 21
87.7396466324
  0
LINE
  5
3D9
100
AcDbEntity
  8
RACCORDO
100
AcDbLine
 62
7
  6
CONTINUOUS
 10
128.4789859694
 20
117.430192219
 11
139.4789859694
 21
121.4338647959
  0
LINE
  5
3DA
100
AcDbEntity
  8
RACCORDO
100
AcDbLine
 62
7
  6
CONTINUOUS
 10
139.4789859694
 20
84.1338647959
 11
128.4789859694
 21
88.1375373728
  0
LWPOLYLINE
  5
3DB
100
AcDbEntity
  8
RACCORDO
100
AcDbPolyline
 62
253
  6
CONTINUOUS
 90
8
 70
0
 10
126.4246228678
 20
127.2654608195
 10
126.4241909184
 20
127.2640840736
 10
126.4238114843
 20
127.2599848264
 10
126.423488721
 20
127.2532079715
 10
126.4232261634
 20
127.2438277255
 10
126.4230266872
 20
127.2319468205
 10
126.4228924771
 20
127.2176953837
 10
126.4228250034
 20
127.1827295088
  0
LWPOLYLINE
  5
3DC
100
AcDbEntity
  8
RACCORDO
100
AcDbPolyline
 62
253
  6
CONTINUOUS
 90
6
 70
0
 10
124.7702600213
 20
80.4311457832
 10
124.7691604898
 20
80.4354415129
 10
124.7680754916
 20
80.4482881277
 10
124.7670246829
 20
80.4696263721
 10
124.7660374872
 20
80.4993591191
 10
124.7651187918
 20
80.5373558866
  0
LWPOLYLINE
  5
3DD
100
AcDbEntity
  8
RACCORDO
100
AcDbPolyline
 62
253
  6
CONTINUOUS
 90
8
 70
0
 10
126.6702597662
 20
125.1697484275
 10
126.6706852884
 20
125.1714664808
 10
126.6710438329
 20
125.1765753584
 10
126.6713292671
 20
125.18498768
 10
126.6715367091
 20
125.1965595641
 10
126.671662611
 20
125.2110930892
 10
126.6717048191
 20
125.2283396789
 10
126.6715367098
 20
125.2697507756
  0
LWPOLYLINE
  5
3DE
100
AcDbEntity
  8
RACCORDO
100
AcDbPolyline
 62
253
  6
CONTINUOUS
 90
8
 70
0
 10
126.6702597662
 20
125.1697484275
 10
126.6693958681
 20
125.16699494
 10
126.6686370004
 20
125.1587964603
 10
126.6679914742
 20
125.1452427779
 10
126.6674663594
 20
125.1264823321
 10
126.667067407
 20
125.1027205867
 10
126.6667989862
 20
125.0742177794
 10
126.6666640368
 20
125.0042861319
  0
LWPOLYLINE
  5
3DF
100
AcDbEntity
  8
RACCORDO
100
AcDbPolyline
 62
253
  6
CONTINUOUS
 90
7
 70
0
 10
126.6702597662
 20
80.3979811643
 10
126.6706852742
 20
80.3962632323
 10
126.6710438111
 20
80.3911546797
 10
126.6713292439
 20
80.3827428255
 10
126.6715366896
 20
80.3711715013
 10
126.6716625994
 20
80.3566385572
 10
126.6717048183
 20
80.3393924485
  0
LINE
  5
3E0
100
AcDbEntity
  8
RACCORDO
100
AcDbLine
 62
253
  6
CONTINUOUS
 10
124.761536221
 20
93.735584706
 11
126.1789859694
 21
93.7850831419
  0
LINE
  5
3E1
100
AcDbEntity
  8
RACCORDO
100
AcDbLine
 62
253
  6
CONTINUOUS
 10
124.2789859694
 20
93.735584706
 11
124.761536221
 21
93.7355847041
  0
LINE
  5
3E2
100
AcDbEntity
  8
RACCORDO
100
AcDbLine
 62
253
  6
CONTINUOUS
 10
124.7651187918
 20
80.5373558866
 11
124.7634405007
 21
80.637465806
  0
LINE
  5
3E3
100
AcDbEntity
  8
RACCORDO
100
AcDbLine
 62
253
  6
CONTINUOUS
 10
124.7568632152
 20
109.9395955312
 11
124.7556253064
 21
110.0396709861
  0
LINE
  5
3E4
100
AcDbEntity
  8
RACCORDO
100
AcDbLine
 62
253
  6
CONTINUOUS
 10
124.7634405007
 20
80.637465806
 11
124.7614411536
 21
80.8444503373
  0
LINE
  5
3E5
100
AcDbEntity
  8
RACCORDO
100
AcDbLine
 62
253
  6
CONTINUOUS
 10
124.761536221
 20
93.735584706
 11
124.7556253064
 21
94.6196774062
  0
LINE
  5
3E6
100
AcDbEntity
  8
RACCORDO
100
AcDbLine
 62
253
  6
CONTINUOUS
 10
124.7556253064
 20
110.0396709861
 11
124.7545309816
 21
110.2465586866
  0
LINE
  5
3E7
100
AcDbEntity
  8
RACCORDO
100
AcDbLine
 62
253
  6
CONTINUOUS
 10
124.7614411536
 20
80.8444503373
 11
124.7596342103
 21
81.3197897355
  0
LINE
  5
3E8
100
AcDbEntity
  8
RACCORDO
100
AcDbLine
 62
253
  6
CONTINUOUS
 10
124.7556253064
 20
94.6196774062
 11
124.7543233001
 21
95.1488326318
  0
LINE
  5
3E9
100
AcDbEntity
  8
RACCORDO
100
AcDbLine
 62
253
  6
CONTINUOUS
 10
124.761536221
 20
123.137345224
 11
124.7594791593
 21
124.0215022944
  0
LINE
  5
3EA
100
AcDbEntity
  8
RACCORDO
100
AcDbLine
 62
7
  6
CONTINUOUS
 10
124.2789859694
 20
80.9310696352
 11
124.2789859694
 21
95.2346709465
  0
LINE
  5
3EB
100
AcDbEntity
  8
RACCORDO
100
AcDbLine
 62
7
  6
CONTINUOUS
 10
124.2789859694
 20
110.3330586454
 11
124.2789859694
 21
124.6366599566
  0
LINE
  5
3EC
100
AcDbEntity
  8
RACCORDO
100
AcDbLine
 62
253
  6
CONTINUOUS
 10
124.761536221
 20
111.8321448859
 11
124.761536221
 21
123.137345224
  0
LINE
  5
3ED
100
AcDbEntity
  8
RACCORDO
100
AcDbLine
 62
253
  6
CONTINUOUS
 10
124.7545309816
 20
110.2465586866
 11
124.7545310501
 21
110.6154037223
  0
LINE
  5
3EE
100
AcDbEntity
  8
RACCORDO
100
AcDbLine
 62
253
  6
CONTINUOUS
 10
124.7596342103
 20
81.3197897355
 11
124.7605543861
 21
82.1694341524
  0
LINE
  5
3EF
100
AcDbEntity
  8
RACCORDO
100
AcDbLine
 62
253
  6
CONTINUOUS
 10
124.7543233001
 20
95.1488326318
 11
124.7547963379
 21
95.3973418021
  0
LINE
  5
3F0
100
AcDbEntity
  8
RACCORDO
100
AcDbLine
 62
253
  6
CONTINUOUS
 10
124.7594791593
 20
124.0215022944
 11
124.760481959
 21
124.5508579808
  0
LINE
  5
3F1
100
AcDbEntity
  8
RACCORDO
100
AcDbLine
 62
253
  6
CONTINUOUS
 10
124.7605543861
 20
82.1694341524
 11
124.761536221
 21
93.735584706
  0
LINE
  5
3F2
100
AcDbEntity
  8
RACCORDO
100
AcDbLine
 62
253
  6
CONTINUOUS
 10
124.7545310501
 20
110.6154037223
 11
124.7584730547
 21
111.4421092267
  0
LINE
  5
3F3
100
AcDbEntity
  8
RACCORDO
100
AcDbLine
 62
253
  6
CONTINUOUS
 10
124.7547963379
 20
95.3973418021
 11
124.7556254848
 21
95.5280587015
  0
LINE
  5
3F4
100
AcDbEntity
  8
RACCORDO
100
AcDbLine
 62
253
  6
CONTINUOUS
 10
124.760481959
 20
124.5508579808
 11
124.7620401672
 21
124.799486692
  0
LINE
  5
3F5
100
AcDbEntity
  8
RACCORDO
100
AcDbLine
 62
253
  6
CONTINUOUS
 10
124.7584730547
 20
111.4421092267
 11
124.761536221
 21
111.8321448859
  0
LINE
  5
3F6
100
AcDbEntity
  8
RACCORDO
100
AcDbLine
 62
253
  6
CONTINUOUS
 10
124.7620401672
 20
124.799486692
 11
124.7634405007
 21
124.9302637858
  0
LWPOLYLINE
  5
3F7
100
AcDbEntity
  8
RACCORDO
100
AcDbPolyline
 62
253
  6
CONTINUOUS
 90
7
 70
0
 10
124.7556254848
 20
95.5280587015
 10
124.7568633983
 20
95.6281341023
 10
124.757616741
 20
95.666123456
 10
124.7584730547
 20
95.6958520216
 10
124.7594274665
 20
95.7171914809
 10
124.7604543375
 20
95.7300484867
 10
124.761536221
 20
95.73436636
  0
LWPOLYLINE
  5
3F8
100
AcDbEntity
  8
RACCORDO
100
AcDbPolyline
 62
253
  6
CONTINUOUS
 90
7
 70
0
 10
124.7634405007
 20
124.9302637858
 10
124.7651187918
 20
125.0303737052
 10
124.7660374872
 20
125.0683704727
 10
124.7670246829
 20
125.0981032197
 10
124.7680754916
 20
125.1194414641
 10
124.7691604898
 20
125.132288079
 10
124.7702600213
 20
125.1365838086
  0
LINE
  5
3F9
100
AcDbEntity
  8
RACCORDO
100
AcDbLine
 62
7
  6
CONTINUOUS
 10
124.761536221
 20
95.73436636
 11
126.1789859694
 21
95.7838647959
  0
LINE
  5
3FA
100
AcDbEntity
  8
RACCORDO
100
AcDbLine
 62
253
  6
CONTINUOUS
 10
126.4234887229
 20
127.0927268045
 11
126.4246228678
 21
127.0154988957
  0
LWPOLYLINE
  5
3FB
100
AcDbEntity
  8
RACCORDO
100
AcDbPolyline
 62
253
  6
CONTINUOUS
 90
7
 70
0
 10
126.4228924786
 20
78.350033978
 10
126.4230266893
 20
78.335782606
 10
126.4232261656
 20
78.3239017655
 10
126.4234887229
 20
78.3145215676
 10
126.4238114857
 20
78.3077447429
 10
126.4241909192
 20
78.3036455129
 10
126.4246228678
 20
78.3022687723
  0
LWPOLYLINE
  5
3FC
100
AcDbEntity
  8
RACCORDO
100
AcDbPolyline
 62
253
  6
CONTINUOUS
 90
7
 70
0
 10
126.6667989862
 20
80.4935118124
 10
126.667067407
 20
80.4650090052
 10
126.6674663594
 20
80.4412472597
 10
126.6679914742
 20
80.4224868139
 10
126.6686370004
 20
80.4089331315
 10
126.6693958681
 20
80.4007346519
 10
126.6702597662
 20
80.3979811643
  0
LINE
  5
3FD
100
AcDbEntity
  8
RACCORDO
100
AcDbLine
 62
253
  6
CONTINUOUS
 10
126.6715367098
 20
125.2697507756
 11
126.6710438335
 21
125.3179718444
  0
LINE
  5
3FE
100
AcDbEntity
  8
RACCORDO
100
AcDbLine
 62
253
  6
CONTINUOUS
 10
126.4230266894
 20
127.1404577239
 11
126.4234887229
 21
127.0927268045
  0
LINE
  5
3FF
100
AcDbEntity
  8
RACCORDO
100
AcDbLine
 62
253
  6
CONTINUOUS
 10
126.667067407
 20
124.919742557
 11
126.6686370004
 21
124.7737447373
  0
LINE
  5
400
100
AcDbEntity
  8
RACCORDO
100
AcDbLine
 62
253
  6
CONTINUOUS
 10
126.4228250034
 20
127.1827295088
 11
126.4230266894
 21
127.1404577239
  0
LINE
  5
401
100
AcDbEntity
  8
RACCORDO
100
AcDbLine
 62
253
  6
CONTINUOUS
 10
126.6666640368
 20
125.0042861319
 11
126.667067407
 21
124.919742557
  0
LINE
  5
402
100
AcDbEntity
  8
RACCORDO
100
AcDbLine
 62
7
  6
CONTINUOUS
 10
126.1789859694
 20
78.5522306961
 11
126.1789859694
 21
127.0154988957
  0
LINE
  5
403
100
AcDbEntity
  8
RACCORDO
100
AcDbLine
 62
253
  6
CONTINUOUS
 10
126.4228250028
 20
78.38499976
 11
126.4228924786
 21
78.350033978
  0
LINE
  5
404
100
AcDbEntity
  8
RACCORDO
100
AcDbLine
 62
253
  6
CONTINUOUS
 10
126.4246228678
 20
80.2471273772
 11
126.4246228678
 21
78.5522306961
  0
LINE
  5
405
100
AcDbEntity
  8
RACCORDO
100
AcDbLine
 62
253
  6
CONTINUOUS
 10
126.4246228678
 20
125.3206022146
 11
126.4246228678
 21
127.0154988957
  0
LINE
  5
406
100
AcDbEntity
  8
RACCORDO
100
AcDbLine
 62
253
  6
CONTINUOUS
 10
126.6666640368
 20
80.5634434599
 11
126.6667989862
 21
80.4935118124
  0
LINE
  5
407
100
AcDbEntity
  8
RACCORDO
100
AcDbLine
 62
253
  6
CONTINUOUS
 10
126.6702597662
 20
124.66982458
 11
126.6702597662
 21
80.8979050119
  0
LINE
  5
408
100
AcDbEntity
  8
RACCORDO
100
AcDbLine
 62
253
  6
CONTINUOUS
 10
126.6717048183
 20
80.3393924485
 11
126.6715367302
 21
80.2979816829
  0
LINE
  5
409
100
AcDbEntity
  8
RACCORDO
100
AcDbLine
 62
253
  6
CONTINUOUS
 10
126.4230266871
 20
78.4272715607
 11
126.4228250028
 21
78.38499976
  0
LINE
  5
40A
100
AcDbEntity
  8
RACCORDO
100
AcDbLine
 62
253
  6
CONTINUOUS
 10
126.667067407
 20
80.6479870348
 11
126.6666640368
 21
80.5634434599
  0
LINE
  5
40B
100
AcDbEntity
  8
RACCORDO
100
AcDbLine
 62
253
  6
CONTINUOUS
 10
126.6715367302
 20
80.2979816829
 11
126.6710438592
 21
80.2497597947
  0
LINE
  5
40C
100
AcDbEntity
  8
RACCORDO
100
AcDbLine
 62
253
  6
CONTINUOUS
 10
126.4238114842
 20
78.50027057
 11
126.4230266871
 21
78.4272715607
  0
LINE
  5
40D
100
AcDbEntity
  8
RACCORDO
100
AcDbLine
 62
253
  6
CONTINUOUS
 10
126.6686370004
 20
80.7939848545
 11
126.667067407
 21
80.6479870348
  0
LWPOLYLINE
  5
40E
100
AcDbEntity
  8
RACCORDO
100
AcDbPolyline
 62
253
  6
CONTINUOUS
 90
28
 70
0
 10
126.1789859694
 20
124.66982458
 10
126.1795840264
 20
124.7087870408
 10
126.1813201868
 20
124.7465227876
 10
126.1841055596
 20
124.7830318202
 10
126.1878386344
 20
124.8182916221
 10
126.1924345381
 20
124.8523247098
 10
126.1978511157
 20
124.8851986333
 10
126.2040254151
 20
124.9169187938
 10
126.2108854275
 20
124.9474797899
 10
126.2184122059
 20
124.9769329674
 10
126.2265569544
 20
125.0052868489
 10
126.2352616052
 20
125.0325329118
 10
126.2445162951
 20
125.0586969338
 10
126.2542809138
 20
125.0837868808
 10
126.2645054869
 20
125.107794787
 10
126.2751787986
 20
125.1307225326
 10
126.2862644887
 20
125.152573774
 10
126.2977171089
 20
125.1733448548
 10
126.3095187243
 20
125.193026687
 10
126.3216371739
 20
125.2116211355
 10
126.3340260643
 20
125.2291263353
 10
126.3466483364
 20
125.245527603
 10
126.3594818278
 20
125.2608245277
 10
126.3724701476
 20
125.2750175202
 10
126.3855231445
 20
125.2880931302
 10
126.398583509
 20
125.3000468742
 10
126.4116292007
 20
125.3108832357
 10
126.4246228678
 20
125.3206022146
  0
LINE
  5
40F
100
AcDbEntity
  8
RACCORDO
100
AcDbLine
 62
253
  6
CONTINUOUS
 10
126.4246228678
 20
78.5522306961
 11
126.4238114842
 21
78.50027057
  0
LWPOLYLINE
  5
410
100
AcDbEntity
  8
RACCORDO
100
AcDbPolyline
 62
253
  6
CONTINUOUS
 90
6
 70
0
 10
124.761536221
 20
109.8333632318
 10
124.7604542963
 20
109.8376811073
 10
124.7594273875
 20
109.850538117
 10
124.7584729411
 20
109.8718775835
 10
124.7576165909
 20
109.9016061607
 10
124.7568632152
 20
109.9395955312
  0
LINE
  5
411
100
AcDbEntity
  8
RACCORDO
100
AcDbLine
 62
253
  6
CONTINUOUS
 10
126.6686370004
 20
124.7737447373
 11
126.6702597662
 21
124.66982458
  0
LINE
  5
412
100
AcDbEntity
  8
RACCORDO
100
AcDbLine
 62
253
  6
CONTINUOUS
 10
126.6710438335
 20
125.3179718444
 11
126.6702597657
 21
125.3697179662
  0
LINE
  5
413
100
AcDbEntity
  8
RACCORDO
100
AcDbLine
 62
253
  6
CONTINUOUS
 10
128.233349071
 20
78.5469941766
 11
128.2344873886
 21
78.4694115935
  0
LWPOLYLINE
  5
414
100
AcDbEntity
  8
RACCORDO
100
AcDbPolyline
 62
253
  6
CONTINUOUS
 90
7
 70
0
 10
128.2350741494
 20
127.223724436
 10
128.2349360347
 20
127.2378940094
 10
128.234733126
 20
127.2496383658
 10
128.2344688266
 20
127.2588366505
 10
128.234147165
 20
127.2654246585
 10
128.2337723155
 20
127.2693786378
 10
128.233349071
 20
127.270697339
  0
LINE
  5
415
100
AcDbEntity
  8
RACCORDO
100
AcDbLine
 62
253
  6
CONTINUOUS
 10
128.2344873886
 20
78.4694115935
 11
128.2349487762
 21
78.4215554248
  0
LINE
  5
416
100
AcDbEntity
  8
RACCORDO
100
AcDbLine
 62
253
  6
CONTINUOUS
 10
128.2349487762
 20
78.4215554248
 11
128.2351480655
 21
78.379090972
  0
LINE
  5
417
100
AcDbEntity
  8
RACCORDO
100
AcDbLine
 62
253
  6
CONTINUOUS
 10
128.2351480655
 20
127.188638617
 11
128.2350741494
 21
127.223724436
  0
LINE
  5
418
100
AcDbEntity
  8
RACCORDO
100
AcDbLine
 62
7
  6
CONTINUOUS
 10
127.4789859694
 20
78.2838647959
 11
127.4789859694
 21
85.0659198487
  0
LINE
  5
419
100
AcDbEntity
  8
ASSI
100
AcDbLine
 62
7
  6
CONTINUOUS
 10
127.4789859694
 20
85.0659198487
 11
127.4789859694
 21
120.5018097431
  0
LINE
  5
41A
100
AcDbEntity
  8
RACCORDO
100
AcDbLine
 62
7
  6
CONTINUOUS
 10
127.4789859694
 20
120.5018097431
 11
127.4789859694
 21
127.2838647959
  0
LINE
  5
41B
100
AcDbEntity
  8
RACCORDO
100
AcDbLine
 62
253
  6
CONTINUOUS
 10
128.233349071
 20
78.5469941766
 11
128.233349071
 21
78.9395272286
  0
LINE
  5
41C
100
AcDbEntity
  8
RACCORDO
100
AcDbLine
 62
253
  6
CONTINUOUS
 10
128.233349071
 20
126.6282023632
 11
128.233349071
 21
127.0207354152
  0
LINE
  5
41D
100
AcDbEntity
  8
RACCORDO
100
AcDbLine
 62
7
  6
CONTINUOUS
 10
128.4789859694
 20
78.5469941766
 11
128.4789859694
 21
78.9395272286
  0
LINE
  5
41E
100
AcDbEntity
  8
RACCORDO
100
AcDbLine
 62
7
  6
CONTINUOUS
 10
128.4789859694
 20
80.4013198608
 11
128.4789859694
 21
85.0330563448
  0
LINE
  5
41F
100
AcDbEntity
  8
ASSI
100
AcDbLine
 62
7
  6
CONTINUOUS
 10
128.4789859694
 20
85.0330563448
 11
128.4789859694
 21
120.534673247
  0
LINE
  5
420
100
AcDbEntity
  8
RACCORDO
100
AcDbLine
 62
7
  6
CONTINUOUS
 10
128.4789859694
 20
120.534673247
 11
128.4789859694
 21
125.166409731
  0
LINE
  5
421
100
AcDbEntity
  8
RACCORDO
100
AcDbLine
 62
7
  6
CONTINUOUS
 10
128.4789859694
 20
126.6282023632
 11
128.4789859694
 21
127.0207354152
  0
LWPOLYLINE
  5
422
100
AcDbEntity
  8
RACCORDO
100
AcDbPolyline
 62
253
  6
CONTINUOUS
 90
8
 70
0
 10
128.2351480655
 20
78.379090972
 10
128.2350741494
 20
78.3440051528
 10
128.2349360346
 20
78.32983558
 10
128.2347331259
 20
78.3180912244
 10
128.2344688266
 20
78.3088929404
 10
128.2341471649
 20
78.3023049329
 10
128.2337723154
 20
78.2983509539
 10
128.233349071
 20
78.2970322528
  0
LINE
  5
423
100
AcDbEntity
  8
RACCORDO
100
AcDbLine
 62
253
  6
CONTINUOUS
 10
128.2349487762
 20
127.1461741651
 11
128.2351480655
 21
127.188638617
  0
LINE
  5
424
100
AcDbEntity
  8
RACCORDO
100
AcDbLine
 62
253
  6
CONTINUOUS
 10
128.2341638882
 20
127.0729456103
 11
128.2349487762
 21
127.1461741651
  0
LINE
  5
425
100
AcDbEntity
  8
RACCORDO
100
AcDbLine
 62
253
  6
CONTINUOUS
 10
126.6710438592
 20
80.2497597947
 11
126.6702597662
 21
80.1980116253
  0
LINE
  5
426
100
AcDbEntity
  8
RACCORDO
100
AcDbLine
 62
253
  6
CONTINUOUS
 10
126.6702597662
 20
80.8979050119
 11
126.6686370004
 21
80.7939848545
  0
LINE
  5
427
100
AcDbEntity
  8
RACCORDO
100
AcDbLine
 62
253
  6
CONTINUOUS
 10
128.233349071
 20
127.0207354152
 11
128.2341638882
 21
127.0729456103
  0
LINE
  5
428
100
AcDbEntity
  8
RACCORDO
100
AcDbLine
 62
7
  6
CONTINUOUS
 10
135.8522749125
 20
99.5130904863
 11
128.4789859694
 21
99.2556095627
  0
LWPOLYLINE
  5
429
100
AcDbEntity
  8
RACCORDO
100
AcDbPolyline
 62
253
  6
CONTINUOUS
 90
6
 70
0
 10
126.4948043679
 20
80.4330626566
 10
126.4945714508
 20
80.4313296323
 10
126.4930922129
 20
80.426470546
 10
126.4903917583
 20
80.4185678604
 10
126.4865159165
 20
80.4077556909
 10
126.4815304644
 20
80.3942175294
  0
LWPOLYLINE
  5
42A
100
AcDbEntity
  8
RACCORDO
100
AcDbPolyline
 62
253
  6
CONTINUOUS
 90
8
 70
0
 10
126.494806996
 20
125.1346603067
 10
126.4945740173
 20
125.1363935066
 10
126.4930946686
 20
125.1412528919
 10
126.4903940568
 20
125.149155991
 10
126.4865180156
 20
125.1599686757
 10
126.4815323276
 20
125.1735074377
 10
126.4755216077
 20
125.1895425025
 10
126.4608487836
 20
125.2279752311
  0
LINE
  5
42B
100
AcDbEntity
  8
DRAFT
100
AcDbLine
 62
7
  6
CONTINUOUS
 10
134.9789859694
 20
126.3054523452
 11
134.9789859694
 21
125.5622772466
  0
LINE
  5
42C
100
AcDbEntity
  8
DRAFT
100
AcDbLine
 62
7
  6
CONTINUOUS
 10
134.9789859694
 20
80.0054523452
 11
134.9789859694
 21
79.2622772466
  0
LINE
  5
42D
100
AcDbEntity
  8
ASSI
100
AcDbLine
 62
253
  6
CONTINUOUS
 10
135.0408304029
 20
126.7145664939
 11
135.0408304029
 21
125.0518723104
  0
LINE
  5
42E
100
AcDbEntity
  8
ASSI
100
AcDbLine
 62
253
  6
CONTINUOUS
 10
135.0408304029
 20
80.5158572815
 11
135.0408304029
 21
78.853163098
  0
LINE
  5
42F
100
AcDbEntity
  8
RACCORDO
100
AcDbLine
 62
7
  6
CONTINUOUS
 10
135.4789859694
 20
126.2183942483
 11
135.4789859694
 21
125.044229434
  0
LINE
  5
430
100
AcDbEntity
  8
RACCORDO
100
AcDbLine
 62
7
  6
CONTINUOUS
 10
135.4789859694
 20
80.5235001578
 11
135.4789859694
 21
79.3493353435
  0
LINE
  5
431
100
AcDbEntity
  8
RACCORDO
100
AcDbLine
 62
253
  6
CONTINUOUS
 10
126.4815304644
 20
80.3942175294
 11
126.4685865559
 21
80.359924611
  0
LINE
  5
432
100
AcDbEntity
  8
RACCORDO
100
AcDbLine
 62
253
  6
CONTINUOUS
 10
126.4685865559
 20
80.359924611
 11
126.4524349858
 21
80.3180071509
  0
LWPOLYLINE
  5
433
100
AcDbEntity
  8
RACCORDO
100
AcDbPolyline
 62
253
  6
CONTINUOUS
 90
3
 70
0
 10
126.4524349858
 20
80.3180071509
 10
126.4341675311
 20
80.2712985796
 10
126.4246228758
 20
80.2471273772
  0
LINE
  5
434
100
AcDbEntity
  8
RACCORDO
100
AcDbLine
 62
7
  6
CONTINUOUS
 10
135.8522749125
 20
106.0546391056
 11
128.4789859694
 21
106.3121200291
  0
LINE
  5
435
100
AcDbEntity
  8
RACCORDO
100
AcDbLine
 62
253
  6
CONTINUOUS
 10
126.4434914016
 20
125.2726688736
 11
126.4246227919
 21
125.3206022147
  0
LINE
  5
436
100
AcDbEntity
  8
RACCORDO
100
AcDbLine
 62
253
  6
CONTINUOUS
 10
126.4608487836
 20
125.2279752311
 11
126.4434914016
 21
125.2726688736
  0
LINE
  5
437
100
AcDbEntity
  8
RACCORDO
100
AcDbLine
 62
253
  6
CONTINUOUS
 10
135.8522749125
 20
106.0546391018
 11
135.8522749125
 21
99.5130904863
  0
LINE
  5
438
100
AcDbEntity
  8
RACCORDO
100
AcDbLine
 62
7
  6
CONTINUOUS
 10
137.8789859694
 20
103.9559183688
 11
137.8789859694
 21
101.611811223
  0
LINE
  5
439
100
AcDbEntity
  8
RACCORDO
100
AcDbLine
 62
7
  6
CONTINUOUS
 10
124.761536221
 20
109.8333632318
 11
126.1789859694
 21
109.7838647959
  0
LWPOLYLINE
  5
43A
100
AcDbEntity
  8
RACCORDO
100
AcDbPolyline
 62
253
  6
CONTINUOUS
 90
10
 70
0
 10
138.9833492371
 20
123.9917067537
 10
138.9819316112
 20
124.0267126518
 10
138.9784120541
 20
124.0607854139
 10
138.9727905658
 20
124.0939250399
 10
138.9650453525
 20
124.1260722157
 10
138.955198208
 20
124.1572862553
 10
138.9433145137
 20
124.1877451013
 10
138.9294160633
 20
124.2175080678
 10
138.9134810632
 20
124.2465158406
 10
138.8955095133
 20
124.2747684197
  0
LINE
  5
43B
100
AcDbEntity
  8
RACCORDO
100
AcDbLine
 62
253
  6
CONTINUOUS
 10
138.9833492371
 20
81.7921946065
 11
138.9833492371
 21
81.5760228382
  0
LINE
  5
43C
100
AcDbEntity
  8
RACCORDO
100
AcDbLine
 62
253
  6
CONTINUOUS
 10
138.9833492371
 20
123.7755349854
 11
138.9833492371
 21
123.9917067537
  0
LINE
  5
43D
100
AcDbEntity
  8
RACCORDO
100
AcDbLine
 62
7
  6
CONTINUOUS
 10
139.4789859694
 20
84.1339569299
 11
139.4789859694
 21
81.5760228382
  0
LINE
  5
43E
100
AcDbEntity
  8
RACCORDO
100
AcDbLine
 62
7
  6
CONTINUOUS
 10
139.4789859694
 20
121.4337702504
 11
139.4789859694
 21
123.9917067537
  0
LWPOLYLINE
  5
43F
100
AcDbEntity
  8
RACCORDO
100
AcDbPolyline
 62
253
  6
CONTINUOUS
 90
10
 70
0
 10
138.9833492371
 20
81.5760228382
 10
138.9819886097
 20
81.5412560638
 10
138.9784948892
 20
81.5073069266
 10
138.9728680758
 20
81.4741754265
 10
138.9650638261
 20
81.4418465871
 10
138.9551264834
 20
81.4103353848
 10
138.9431890778
 20
81.3796867492
 10
138.9292959525
 20
81.3499156568
 10
138.9134027644
 20
81.3210071311
 10
138.8955095133
 20
81.2929611721
  0
LWPOLYLINE
  5
440
100
AcDbEntity
  8
RACCORDO
100
AcDbPolyline
 62
253
  6
CONTINUOUS
 90
7
 70
0
 10
128.3324111084
 20
79.1142552133
 10
128.3391621368
 20
79.1266108883
 10
128.3447127773
 20
79.136927477
 10
128.3490027234
 20
79.1450921246
 10
128.3519917959
 20
79.151026918
 10
128.3536564287
 20
79.1546830025
 10
128.3539859694
 20
79.1560335796
  0
LINE
  5
441
100
AcDbEntity
  8
RACCORDO
100
AcDbLine
 62
253
  6
CONTINUOUS
 10
128.3155995358
 20
79.0839603932
 11
128.3324111084
 21
79.1142552133
  0
LINE
  5
442
100
AcDbEntity
  8
RACCORDO
100
AcDbLine
 62
253
  6
CONTINUOUS
 10
128.2950355056
 20
79.0474090389
 11
128.3155995358
 21
79.0839603932
  0
LINE
  5
443
100
AcDbEntity
  8
RACCORDO
100
AcDbLine
 62
253
  6
CONTINUOUS
 10
128.259149888
 20
78.9843932511
 11
128.2950355056
 21
79.0474090389
  0
LINE
  5
444
100
AcDbEntity
  8
RACCORDO
100
AcDbLine
 62
253
  6
CONTINUOUS
 10
128.233349071
 20
78.9395272286
 11
128.259149888
 21
78.9843932511
  0
LINE
  5
445
100
AcDbEntity
  8
RACCORDO
100
AcDbLine
 62
253
  6
CONTINUOUS
 10
128.233349071
 20
126.6282023632
 11
128.2716231233
 21
126.5615221422
  0
LINE
  5
446
100
AcDbEntity
  8
RACCORDO
100
AcDbLine
 62
253
  6
CONTINUOUS
 10
128.2716231233
 20
126.5615221422
 11
128.3057299515
 21
126.5013638516
  0
LWPOLYLINE
  5
447
100
AcDbEntity
  8
RACCORDO
100
AcDbPolyline
 62
253
  6
CONTINUOUS
 90
9
 70
0
 10
128.3057299515
 20
126.5013638516
 10
128.3245290595
 20
126.4677417447
 10
128.332411109
 20
126.4534743774
 10
128.3391621373
 20
126.4411187026
 10
128.3447127777
 20
126.4308021142
 10
128.3490027236
 20
126.4226374669
 10
128.3519917959
 20
126.4167026737
 10
128.3536564287
 20
126.4130465893
 10
128.3539859694
 20
126.4116960123
  0
LINE
  5
448
100
AcDbEntity
  8
RACCORDO
100
AcDbLine
 62
253
  6
CONTINUOUS
 10
124.2789859694
 20
111.8321448859
 11
124.761536221
 21
111.8321448859
  0
LINE
  5
449
100
AcDbEntity
  8
RACCORDO
100
AcDbLine
 62
253
  6
CONTINUOUS
 10
124.761536221
 20
111.8321448859
 11
126.1789859694
 21
111.78264645
  0
LINE
  5
44A
100
AcDbEntity
  8
ASSI
100
AcDbLine
 62
253
  6
CONTINUOUS
 10
127.4789859694
 20
119.2838647959
 11
128.4789859694
 21
119.2838647959
  0
LINE
  5
44B
100
AcDbEntity
  8
ASSI
100
AcDbLine
 62
253
  6
CONTINUOUS
 10
127.4789859694
 20
120.2838647959
 11
128.4789859694
 21
120.2838647959
  0
LINE
  5
44C
100
AcDbEntity
  8
RACCORDO
100
AcDbLine
 62
253
  6
CONTINUOUS
 10
124.761536221
 20
123.137345224
 11
126.1789859694
 21
123.1620869014
  0
LINE
  5
44D
100
AcDbEntity
  8
RACCORDO
100
AcDbLine
 62
253
  6
CONTINUOUS
 10
124.2789859694
 20
123.137345224
 11
124.761536221
 21
123.1373452222
  0
LWPOLYLINE
  5
44E
100
AcDbEntity
  8
RACCORDO
100
AcDbPolyline
 62
7
  6
CONTINUOUS
 90
25
 70
0
 10
139.1020222423
 20
80.7938210271
 10
139.1370869993
 20
80.8250478418
 10
139.1671512712
 20
80.8564588278
 10
139.1922150579
 20
80.8880539851
 10
139.2121111621
 20
80.9200904295
 10
139.2270067812
 20
80.9523110452
 10
139.2374035072
 20
80.983944485
 10
139.2432593148
 20
81.0149552216
 10
139.2446162293
 20
81.0453787821
 10
139.2421019182
 20
81.0745504009
 10
139.2356789702
 20
81.1024216555
 10
139.2253847965
 20
81.1290409683
 10
139.2119592985
 20
81.1538888402
 10
139.1953483231
 20
81.1769157208
 10
139.1756060234
 20
81.1981711605
 10
139.1536347598
 20
81.2172843117
 10
139.1293480073
 20
81.2341612914
 10
139.1028322908
 20
81.2488959826
 10
139.0752495463
 20
81.2613991872
 10
139.0467707836
 20
81.271508492
 10
139.0172249928
 20
81.2793863101
 10
138.9872610798
 20
81.285430683
 10
138.9570953465
 20
81.2897742912
 10
138.926511491
 20
81.2922844543
 10
138.8955095133
 20
81.2929611721
  0
LWPOLYLINE
  5
44F
100
AcDbEntity
  8
RACCORDO
100
AcDbPolyline
 62
7
  6
CONTINUOUS
 90
25
 70
0
 10
138.8955095133
 20
124.2747684197
 10
138.9260061635
 20
124.2754799313
 10
138.9559730459
 20
124.2778885103
 10
138.9854101605
 20
124.2819941567
 10
139.0144055816
 20
124.2876371048
 10
139.042871235
 20
124.2949771203
 10
139.0705428972
 20
124.3044935003
 10
139.09773693
 20
124.3163390184
 10
139.1241369716
 20
124.330360901
 10
139.1485297138
 20
124.3465801247
 10
139.1708485881
 20
124.3650871246
 10
139.1911601629
 20
124.3857914655
 10
139.2084508355
 20
124.4084428189
 10
139.2226903188
 20
124.4331469453
 10
139.2339088999
 20
124.459798084
 10
139.2411838364
 20
124.4878286251
 10
139.2444482552
 20
124.5172816466
 10
139.2437690295
 20
124.5481140704
 10
139.2384240367
 20
124.5796290516
 10
139.2283509545
 20
124.6118848587
 10
139.2136121053
 20
124.6448232233
 10
139.1936723337
 20
124.6775724945
 10
139.1683532546
 20
124.7098421222
 10
139.1378332532
 20
124.7419226566
 10
139.1021123294
 20
124.7738140977
  0
LINE
  5
450
100
AcDbEntity
  8
RACCORDO
100
AcDbLine
 62
253
  6
CONTINUOUS
 10
127.4789859694
 20
124.6839409483
 11
126.6702597662
 21
124.66982458
  0
LINE
  5
451
100
AcDbEntity
  8
RACCORDO
100
AcDbLine
 62
7
  6
CONTINUOUS
 10
139.4789859694
 20
123.7798603416
 11
128.4789859694
 21
123.6838647959
  0
LINE
  5
452
100
AcDbEntity
  8
RACCORDO
100
AcDbLine
 62
7
  6
CONTINUOUS
 10
128.4789859694
 20
124.1838647959
 11
138.8955095133
 21
124.2747684197
  0
LINE
  5
453
100
AcDbEntity
  8
RACCORDO
100
AcDbLine
 62
253
  6
CONTINUOUS
 10
138.9833492371
 20
123.9917067537
 11
139.4789859694
 21
123.9917067522
  0
LINE
  5
454
100
AcDbEntity
  8
RACCORDO
100
AcDbLine
 62
253
  6
CONTINUOUS
 10
126.6702597662
 20
124.66982458
 11
126.1789859694
 21
124.66982458
  0
LINE
  5
455
100
AcDbEntity
  8
RACCORDO
100
AcDbLine
 62
253
  6
CONTINUOUS
 10
128.4789859694
 20
124.6664858834
 11
127.4789859694
 21
124.6839409483
  0
LINE
  5
456
100
AcDbEntity
  8
RACCORDO
100
AcDbLine
 62
7
  6
CONTINUOUS
 10
127.4789859694
 20
125.1838647959
 11
138.4964383758
 21
124.9915544488
  0
LINE
  5
457
100
AcDbEntity
  8
RACCORDO
100
AcDbLine
 62
7
  6
CONTINUOUS
 10
127.4789859694
 20
125.1838647959
 11
126.6702597662
 21
125.1697484275
  0
LINE
  5
458
100
AcDbEntity
  8
RACCORDO
100
AcDbLine
 62
7
  6
CONTINUOUS
 10
124.7702597662
 20
125.1365838042
 11
126.1789859694
 21
125.1611732115
  0
LINE
  5
459
100
AcDbEntity
  8
RACCORDO
100
AcDbLine
 62
253
  6
CONTINUOUS
 10
126.6702597662
 20
125.3697179666
 11
127.4789859694
 21
125.3838343349
  0
LINE
  5
45A
100
AcDbEntity
  8
RACCORDO
100
AcDbLine
 62
253
  6
CONTINUOUS
 10
127.4789859694
 20
127.0339028721
 11
126.4246228678
 21
127.0154988957
  0
LINE
  5
45B
100
AcDbEntity
  8
RACCORDO
100
AcDbLine
 62
7
  6
CONTINUOUS
 10
127.4789859694
 20
127.2838647959
 11
126.4246228678
 21
127.2654608195
  0
LINE
  5
45C
100
AcDbEntity
  8
RACCORDO
100
AcDbLine
 62
253
  6
CONTINUOUS
 10
128.233349071
 20
126.6282023632
 11
128.4789859694
 21
126.6282023632
  0
LINE
  5
45D
100
AcDbEntity
  8
RACCORDO
100
AcDbLine
 62
253
  6
CONTINUOUS
 10
126.4246228678
 20
127.0154988957
 11
126.1789859694
 21
127.0154988957
  0
LINE
  5
45E
100
AcDbEntity
  8
RACCORDO
100
AcDbLine
 62
253
  6
CONTINUOUS
 10
128.233349071
 20
127.0207354152
 11
128.4789859694
 21
127.0207354152
  0
LINE
  5
45F
100
AcDbEntity
  8
ASSI
100
AcDbLine
 62
7
  6
CONTINUOUS
 10
134.9833492371
 20
126.7183752098
 11
128.4789859694
 21
126.7751379281
  0
LINE
  5
460
100
AcDbEntity
  8
RACCORDO
100
AcDbLine
 62
253
  6
CONTINUOUS
 10
128.233349071
 20
127.0207354152
 11
127.4789859694
 21
127.0339028721
  0
LINE
  5
461
100
AcDbEntity
  8
RACCORDO
100
AcDbLine
 62
7
  6
CONTINUOUS
 10
128.233349071
 20
127.270697339
 11
127.4789859694
 21
127.2838647959
  0
ARC
  5
462
100
AcDbEntity
  8
RACCORDO
100
AcDbCircle
 62
253
  6
CONTINUOUS
 10
163.1125637755
 20
102.7838647959
 40
2.2294739483
100
AcDbArc
 50
270.0
 51
90.0
  0
ARC
  5
463
100
AcDbEntity
  8
RACCORDO
100
AcDbCircle
 62
253
  6
CONTINUOUS
 10
157.4125637755
 20
102.7838647959
 40
2.2294739483
100
AcDbArc
 50
90.0000000001
 51
269.9999999999
  0
ARC
  5
464
100
AcDbEntity
  8
RACCORDO
100
AcDbCircle
 62
253
  6
CONTINUOUS
 10
163.1125637755
 20
102.7838647959
 40
1.9269616395
100
AcDbArc
 50
270.0
 51
90.0
  0
ARC
  5
465
100
AcDbEntity
  8
RACCORDO
100
AcDbCircle
 62
253
  6
CONTINUOUS
 10
157.4125637755
 20
102.7838647959
 40
1.9269616395
100
AcDbArc
 50
90.0
 51
270.0
  0
ARC
  5
466
100
AcDbEntity
  8
ASSI
100
AcDbCircle
 62
7
  6
CONTINUOUS
 10
170.9625637755
 20
85.2838647959
 40
0.5
100
AcDbArc
 50
334.1580672368
 51
360.0
  0
ARC
  5
467
100
AcDbEntity
  8
ASSI
100
AcDbCircle
 62
7
  6
CONTINUOUS
 10
170.9625637755
 20
86.2838647959
 40
0.5
100
AcDbArc
 50
0.0
 51
25.8419327632
  0
ARC
  5
468
100
AcDbEntity
  8
ASSI
100
AcDbCircle
 62
7
  6
CONTINUOUS
 10
170.9625637755
 20
119.2838647959
 40
0.5
100
AcDbArc
 50
334.1580672368
 51
360.0
  0
ARC
  5
469
100
AcDbEntity
  8
ASSI
100
AcDbCircle
 62
7
  6
CONTINUOUS
 10
170.9625637755
 20
120.2838647959
 40
0.5
100
AcDbArc
 50
0.0
 51
25.8419327632
  0
ARC
  5
46A
100
AcDbEntity
  8
ASSI
100
AcDbCircle
 62
7
  6
CONTINUOUS
 10
149.5625637755
 20
86.2838647959
 40
0.5
100
AcDbArc
 50
154.1580672368
 51
180.0
  0
ARC
  5
46B
100
AcDbEntity
  8
ASSI
100
AcDbCircle
 62
7
  6
CONTINUOUS
 10
149.5625637755
 20
85.2838647959
 40
0.5
100
AcDbArc
 50
180.0
 51
205.8419327632
  0
ARC
  5
46C
100
AcDbEntity
  8
ASSI
100
AcDbCircle
 62
7
  6
CONTINUOUS
 10
149.5625637755
 20
120.2838647959
 40
0.5
100
AcDbArc
 50
154.1580672368
 51
180.0
  0
ARC
  5
46D
100
AcDbEntity
  8
ASSI
100
AcDbCircle
 62
7
  6
CONTINUOUS
 10
149.5625637755
 20
119.2838647959
 40
0.5
100
AcDbArc
 50
180.0
 51
205.8419327632
  0
ARC
  5
46E
100
AcDbEntity
  8
DRAFT
100
AcDbCircle
 62
7
  6
CONTINUOUS
 10
156.2125637755
 20
79.6338647959
 40
0.5
100
AcDbArc
 50
143.1301023542
 51
216.8698976458
  0
ARC
  5
46F
100
AcDbEntity
  8
DRAFT
100
AcDbCircle
 62
7
  6
CONTINUOUS
 10
164.3125637755
 20
79.6338647959
 40
0.5
100
AcDbArc
 50
323.1301023542
 51
36.8698976458
  0
ARC
  5
470
100
AcDbEntity
  8
DRAFT
100
AcDbCircle
 62
7
  6
CONTINUOUS
 10
156.2125637755
 20
125.9338647959
 40
0.5
100
AcDbArc
 50
143.1301023542
 51
216.8698976458
  0
ARC
  5
471
100
AcDbEntity
  8
DRAFT
100
AcDbCircle
 62
7
  6
CONTINUOUS
 10
164.3125637755
 20
125.9338647959
 40
0.5
100
AcDbArc
 50
323.1301023542
 51
36.8698976458
  0
ARC
  5
472
100
AcDbEntity
  8
RACCORDO
100
AcDbCircle
 62
7
  6
CONTINUOUS
 10
126.6789859694
 20
80.8979050119
 40
0.5
100
AcDbArc
 50
180.0
 51
269.0
  0
ARC
  5
473
100
AcDbEntity
  8
RACCORDO
100
AcDbCircle
 62
7
  6
CONTINUOUS
 10
124.7789859694
 20
95.2346709465
 40
0.5
100
AcDbArc
 50
92.0
 51
180.0
  0
ARC
  5
474
100
AcDbEntity
  8
RACCORDO
100
AcDbCircle
 62
7
  6
CONTINUOUS
 10
124.7789859694
 20
80.9310696352
 40
0.5
100
AcDbArc
 50
180.0
 51
269.0
  0
ARC
  5
475
100
AcDbEntity
  8
RACCORDO
100
AcDbCircle
 62
7
  6
CONTINUOUS
 10
126.4289859694
 20
78.5522306961
 40
0.25
100
AcDbArc
 50
180.0
 51
269.0
  0
ARC
  5
476
100
AcDbEntity
  8
RACCORDO
100
AcDbCircle
 62
7
  6
CONTINUOUS
 10
128.2289859694
 20
78.9395272286
 40
0.25
100
AcDbArc
 50
0.0
 51
60.0
  0
ARC
  5
477
100
AcDbEntity
  8
RACCORDO
100
AcDbCircle
 62
7
  6
CONTINUOUS
 10
128.2289859694
 20
78.5469941766
 40
0.25
100
AcDbArc
 50
271.0
 51
360.0
  0
ARC
  5
478
100
AcDbEntity
  8
RACCORDO
100
AcDbCircle
 62
7
  6
CONTINUOUS
 10
124.7789859694
 20
110.3330586454
 40
0.5
100
AcDbArc
 50
180.0
 51
268.0
  0
ARC
  5
479
100
AcDbEntity
  8
RACCORDO
100
AcDbCircle
 62
7
  6
CONTINUOUS
 10
124.7789859694
 20
124.6366599566
 40
0.5
100
AcDbArc
 50
91.0
 51
180.0
  0
ARC
  5
47A
100
AcDbEntity
  8
RACCORDO
100
AcDbCircle
 62
7
  6
CONTINUOUS
 10
126.4289859694
 20
127.0154988957
 40
0.25
100
AcDbArc
 50
91.0
 51
180.0
  0
ARC
  5
47B
100
AcDbEntity
  8
RACCORDO
100
AcDbCircle
 62
7
  6
CONTINUOUS
 10
126.6789859694
 20
124.66982458
 40
0.5
100
AcDbArc
 50
91.0044725587
 51
180.0
  0
ARC
  5
47C
100
AcDbEntity
  8
RACCORDO
100
AcDbCircle
 62
7
  6
CONTINUOUS
 10
128.2289859694
 20
126.6282023632
 40
0.25
100
AcDbArc
 50
300.0
 51
360.0
  0
ARC
  5
47D
100
AcDbEntity
  8
RACCORDO
100
AcDbCircle
 62
7
  6
CONTINUOUS
 10
128.2289859694
 20
127.0207354152
 40
0.25
100
AcDbArc
 50
0.0
 51
89.0
  0
ARC
  5
47E
100
AcDbEntity
  8
RACCORDO
100
AcDbCircle
 62
7
  6
CONTINUOUS
 10
135.7789859694
 20
101.6118151938
 40
2.1
100
AcDbArc
 50
271.9999962192
 51
359.9998916634
  0
ARC
  5
47F
100
AcDbEntity
  8
RACCORDO
100
AcDbCircle
 62
7
  6
CONTINUOUS
 10
138.4789859694
 20
81.5760228382
 40
1.0
100
AcDbArc
 50
271.0
 51
360.0
  0
ARC
  5
480
100
AcDbEntity
  8
ASSI
100
AcDbCircle
 62
7
  6
CONTINUOUS
 10
134.9789859694
 20
79.3493353435
 40
0.5
100
AcDbArc
 50
270.5
 51
360.0
  0
ARC
  5
481
100
AcDbEntity
  8
RACCORDO
100
AcDbCircle
 62
7
  6
CONTINUOUS
 10
135.7789859694
 20
103.9559183688
 40
2.1
100
AcDbArc
 50
0.0
 51
88.0
  0
ARC
  5
482
100
AcDbEntity
  8
RACCORDO
100
AcDbCircle
 62
7
  6
CONTINUOUS
 10
138.4789859694
 20
123.9917067537
 40
1.0
100
AcDbArc
 50
0.0
 51
89.0
  0
ARC
  5
483
100
AcDbEntity
  8
ASSI
100
AcDbCircle
 62
7
  6
CONTINUOUS
 10
134.9789859694
 20
126.2183942483
 40
0.5
100
AcDbArc
 50
0.0
 51
89.5
  0
ELLIPSE
  5
484
100
AcDbEntity
  8
RACCORDO
100
AcDbEllipse
 62
7
  6
CONTINUOUS
 10
167.3125333099
 20
80.1838343303
 30
0.0
 11
-0.1414644378
 21
-0.1414644378
 31
0.0
 40
0.9996954599
 41
2.3563467834
 42
3.9268385159
  0
ELLIPSE
  5
485
100
AcDbEntity
  8
RACCORDO
100
AcDbEllipse
 62
7
  6
CONTINUOUS
 10
170.6125942411
 20
80.1838343303
 30
0.0
 11
0.1414644378
 21
-0.1414644378
 31
0.0
 40
0.9996954599
 41
2.3563467912
 42
3.9268385237
  0
ELLIPSE
  5
486
100
AcDbEntity
  8
RACCORDO
100
AcDbEllipse
 62
7
  6
CONTINUOUS
 10
153.2125942411
 20
80.1838343303
 30
0.0
 11
-0.1414644378
 21
0.1414644378
 31
0.0
 40
0.9996954599
 41
-0.7852458623
 42
0.7852458701
  0
ELLIPSE
  5
487
100
AcDbEntity
  8
RACCORDO
100
AcDbEllipse
 62
7
  6
CONTINUOUS
 10
149.9125333099
 20
80.1838343303
 30
0.0
 11
0.1414644378
 21
0.1414644378
 31
0.0
 40
0.9996954599
 41
-0.7852458701
 42
0.7852458623
  0
ELLIPSE
  5
488
100
AcDbEntity
  8
RACCORDO
100
AcDbEllipse
 62
7
  6
CONTINUOUS
 10
167.3125333099
 20
125.3838952615
 30
0.0
 11
0.1414644378
 21
-0.1414644378
 31
0.0
 40
0.9996954599
 41
-0.7852458623
 42
0.7852458701
  0
ELLIPSE
  5
489
100
AcDbEntity
  8
RACCORDO
100
AcDbEllipse
 62
7
  6
CONTINUOUS
 10
170.6125942411
 20
125.3838952615
 30
0.0
 11
-0.1414644378
 21
-0.1414644378
 31
0.0
 40
0.9996954599
 41
-0.7852458701
 42
0.7852458623
  0
ELLIPSE
  5
48A
100
AcDbEntity
  8
RACCORDO
100
AcDbEllipse
 62
7
  6
CONTINUOUS
 10
153.2125942411
 20
125.3838952615
 30
0.0
 11
0.1414644378
 21
0.1414644378
 31
0.0
 40
0.9996954599
 41
2.3563467834
 42
3.9268385159
  0
ELLIPSE
  5
48B
100
AcDbEntity
  8
RACCORDO
100
AcDbEllipse
 62
7
  6
CONTINUOUS
 10
149.9125333099
 20
125.3838952615
 30
0.0
 11
-0.1414644378
 21
0.1414644378
 31
0.0
 40
0.9996954599
 41
2.3563467912
 42
3.9268385237
  0
ELLIPSE
  5
48C
100
AcDbEntity
  8
RACCORDO
100
AcDbEllipse
 62
7
  6
CONTINUOUS
 10
155.0137828641
 20
82.4068610364
 30
0.0
 11
1.7903261765
 21
0.8948903506
 31
0.0
 40
0.9992388003
 41
2.6783713943
 42
4.2485586408
  0
ELLIPSE
  5
48D
100
AcDbEntity
  8
RACCORDO
100
AcDbEllipse
 62
7
  6
CONTINUOUS
 10
165.5113446869
 20
82.4068610364
 30
0.0
 11
1.7903261765
 21
-0.8948903506
 31
0.0
 40
0.9992388003
 41
-1.1069659872
 42
0.4632212593
  0
ELLIPSE
  5
48E
100
AcDbEntity
  8
RACCORDO
100
AcDbEllipse
 62
7
  6
CONTINUOUS
 10
155.0137828641
 20
123.1608685554
 30
0.0
 11
1.7903261765
 21
-0.8948903506
 31
0.0
 40
0.9992388003
 41
2.0346266664
 42
3.6048139129
  0
ELLIPSE
  5
48F
100
AcDbEntity
  8
RACCORDO
100
AcDbEllipse
 62
7
  6
CONTINUOUS
 10
165.5113446869
 20
123.1608685554
 30
0.0
 11
1.7903261765
 21
0.8948903506
 31
0.0
 40
0.9992388003
 41
-0.4632212593
 42
1.1069659872
  0
ELLIPSE
  5
490
100
AcDbEntity
  8
RACCORDO
100
AcDbEllipse
 62
7
  6
CONTINUOUS
 10
165.5113446869
 20
93.7826457073
 30
0.0
 11
1.4159370892
 21
1.4159370892
 31
0.0
 40
0.998782766
 41
-0.7847891758
 42
0.7847891758
  0
ELLIPSE
  5
491
100
AcDbEntity
  8
RACCORDO
100
AcDbEllipse
 62
7
  6
CONTINUOUS
 10
155.0137828641
 20
93.7826457073
 30
0.0
 11
1.4159370892
 21
-1.4159370892
 31
0.0
 40
0.998782766
 41
2.3568034778
 42
3.9263818294
  0
ELLIPSE
  5
492
100
AcDbEntity
  8
RACCORDO
100
AcDbEllipse
 62
7
  6
CONTINUOUS
 10
165.5113446869
 20
111.7850838845
 30
0.0
 11
1.4159370892
 21
-1.4159370892
 31
0.0
 40
0.998782766
 41
-0.7847891758
 42
0.7847891758
  0
ELLIPSE
  5
493
100
AcDbEntity
  8
RACCORDO
100
AcDbEllipse
 62
7
  6
CONTINUOUS
 10
155.0137828641
 20
111.7850838845
 30
0.0
 11
1.4159370892
 21
1.4159370892
 31
0.0
 40
0.998782766
 41
-3.9263818294
 42
-2.3568034778
  0
ELLIPSE
  5
494
100
AcDbEntity
  8
RACCORDO
100
AcDbEllipse
 62
7
  6
CONTINUOUS
 10
161.5169656238
 20
80.3882285622
 30
0.0
 11
0.25
 21
0.0
 31
0.0
 40
0.0174550649
 41
1.5707963268
 42
3.1241393611
  0
ELLIPSE
  5
495
100
AcDbEntity
  8
RACCORDO
100
AcDbEllipse
 62
7
  6
CONTINUOUS
 10
159.0081619273
 20
80.3882285622
 30
0.0
 11
0.25
 21
0.0
 31
0.0
 40
0.0174550649
 41
0.0174532925
 42
1.5707963268
  0
ELLIPSE
  5
496
100
AcDbEntity
  8
RACCORDO
100
AcDbEllipse
 62
7
  6
CONTINUOUS
 10
159.0081619273
 20
125.1795010297
 30
0.0
 11
0.25
 21
-0.0
 31
0.0
 40
0.0174550649
 41
-1.5707963268
 42
-0.0174532925
  0
ELLIPSE
  5
497
100
AcDbEntity
  8
RACCORDO
100
AcDbEllipse
 62
7
  6
CONTINUOUS
 10
161.5169656238
 20
125.1795010297
 30
0.0
 11
0.25
 21
-0.0
 31
0.0
 40
0.0174550649
 41
-3.1241393611
 42
-1.5707963268
  0
ELLIPSE
  5
498
100
AcDbEntity
  8
RACCORDO
100
AcDbEllipse
 62
7
  6
CONTINUOUS
 10
155.8217269867
 20
126.5246920651
 30
0.0
 11
-0.0
 21
0.25
 31
0.0
 40
0.0087268678
 41
-1.5707963268
 42
-0.0087266463
  0
ELLIPSE
  5
499
100
AcDbEntity
  8
RACCORDO
100
AcDbEllipse
 62
7
  6
CONTINUOUS
 10
155.8217269867
 20
79.0430375267
 30
0.0
 11
-0.0
 21
0.25
 31
0.0
 40
0.0087268678
 41
-3.1328660073
 42
-1.5707963268
  0
ELLIPSE
  5
49A
100
AcDbEntity
  8
RACCORDO
100
AcDbEllipse
 62
7
  6
CONTINUOUS
 10
164.7034005643
 20
79.0430375267
 30
0.0
 11
-0.0
 21
0.25
 31
0.0
 40
0.0087268678
 41
-4.7123889804
 42
-3.1503192998
  0
ELLIPSE
  5
49B
100
AcDbEntity
  8
RACCORDO
100
AcDbEllipse
 62
7
  6
CONTINUOUS
 10
164.7034005643
 20
126.5246920651
 30
0.0
 11
-0.0
 21
0.25
 31
0.0
 40
0.0087268678
 41
0.0087266463
 42
1.5707963268
  0
ELLIPSE
  5
49C
100
AcDbEntity
  8
ASSI
100
AcDbEllipse
 62
7
  6
CONTINUOUS
 10
153.2594687032
 20
86.2838647959
 30
0.0
 11
28.6449808154
 21
0.0
 31
0.0
 40
0.0174550649
 41
2.6161258317
 42
2.6905658418
  0
ELLIPSE
  5
49D
100
AcDbEntity
  8
ASSI
100
AcDbEllipse
 62
7
  6
CONTINUOUS
 10
153.2594687032
 20
119.2838647959
 30
0.0
 11
28.6449808154
 21
-0.0
 31
0.0
 40
0.0174550649
 41
-2.6905658418
 42
-2.6161258317
  0
ELLIPSE
  5
49E
100
AcDbEntity
  8
ASSI
100
AcDbEllipse
 62
7
  6
CONTINUOUS
 10
153.2594687032
 20
120.2838647959
 30
0.0
 11
28.6449808154
 21
-0.0
 31
0.0
 40
0.0174550649
 41
2.6161258317
 42
2.6905658418
  0
ELLIPSE
  5
49F
100
AcDbEntity
  8
ASSI
100
AcDbEllipse
 62
7
  6
CONTINUOUS
 10
153.2594687032
 20
85.2838647959
 30
0.0
 11
28.6449808154
 21
0.0
 31
0.0
 40
0.0174550649
 41
-2.6905658418
 42
-2.6161258317
  0
ELLIPSE
  5
4A0
100
AcDbEntity
  8
DRAFT
100
AcDbEllipse
 62
7
  6
CONTINUOUS
 10
173.3144460211
 20
79.6338647959
 30
0.0
 11
57.2943250647
 21
0.0
 31
0.0
 40
0.0087268678
 41
2.303789369
 42
2.4980915448
  0
ELLIPSE
  5
4A1
100
AcDbEntity
  8
DRAFT
100
AcDbEllipse
 62
7
  6
CONTINUOUS
 10
173.3144460211
 20
79.6338647959
 30
0.0
 11
57.2943250647
 21
0.0
 31
0.0
 40
0.0087268678
 41
-2.4814525805
 42
-2.303789369
  0
ELLIPSE
  5
4A2
100
AcDbEntity
  8
DRAFT
100
AcDbEllipse
 62
7
  6
CONTINUOUS
 10
173.3144460211
 20
125.9338647959
 30
0.0
 11
57.2943250647
 21
0.0
 31
0.0
 40
0.0087268678
 41
2.303789369
 42
2.4814525805
  0
ELLIPSE
  5
4A3
100
AcDbEntity
  8
DRAFT
100
AcDbEllipse
 62
7
  6
CONTINUOUS
 10
173.3144460211
 20
125.9338647959
 30
0.0
 11
57.2943250647
 21
0.0
 31
0.0
 40
0.0087268678
 41
-2.4980915448
 42
-2.303789369
  0
ENDSEC
  0
SECTION
  2
OBJECTS
  0
DICTIONARY
  5
C
100
AcDbDictionary
280
0
281
1
  3
ACAD_GROUP
350
D
  3
ACAD_MLINESTYLE
350
17
  3
ACAD_LAYOUT
350
1A
  3
ACAD_PLOTSETTINGS
350
19
  3
ACAD_PLOTSTYLENAME
350
E
  0
DICTIONARY
  5
D
102
{ACAD_REACTORS
330
C
102
}
100
AcDbDictionary
280
0
281
1
  0
ACDBDICTIONARYWDFLT
  5
E
102
{ACAD_REACTORS
330
C
102
}
100
AcDbDictionary
281
1
  3
Normal
350
F
100
AcDbDictionaryWithDefault
340
F
  0
DICTIONARY
  5
17
102
{ACAD_REACTORS
330
C
102
}
100
AcDbDictionary
280
0
281
1
  3
Standard
350
18
  0
DICTIONARY
  5
19
102
{ACAD_REACTORS
330
C
102
}
100
AcDbDictionary
281
1
  0
DICTIONARY
  5
1A
102
{ACAD_REACTORS
330
C
102
}
100
AcDbDictionary
281
1
  3
Model
350
4A4
  3
Layout1
350
4A5
  0
ACDBPLACEHOLDER
  5
F
102
{ACAD_REACTORS
330
E
102
}
  0
MLINESTYLE
  5
18
102
{ACAD_REACTORS
330
17
102
}
100
AcDbMlineStyle
  2
STANDARD
 70
0
  3

 62
256
 51
90.0
 52
90.0
 71
2
 49
0.5
 62
256
  6
BYLAYER
 49
-0.5
 62
256
  6
BYLAYER
  0
LAYOUT
  5
4A4
102
{ACAD_REACTORS
330
1A
102
}
100
AcDbPlotSettings
  1

  2
none_device
  4
ISO_A4_(297.00_x_210.00_MM)
  6

 40
0.0
 41
0.0
 42
0.0
 43
0.0
 44
297.0
 45
210.0
 46
0.0
 47
0.0
 48
0.0
 49
0.0
140
0.0
141
0.0
142
1.0
143
1.0
 70
1024
 72
1
 73
0
 74
0
  7

 75
0
147
1.0
148
0.0
149
0.0
100
AcDbLayout
  1
Model
 70
0
 71
0
 10
0.0
 20
0.0
 11
297.0
 21
210.0
 12
0.0
 22
0.0
 32
0.0
 14
0.0
 24
0.0
 34
0.0
 15
0.0
 25
0.0
 35
0.0
146
0.0
 13
0.0
 23
0.0
 33
0.0
 16
1.0
 26
0.0
 36
0.0
 17
0.0
 27
1.0
 37
0.0
 76
0
330
212
345
0
346
0
  0
LAYOUT
  5
4A5
102
{ACAD_REACTORS
330
1A
102
}
100
AcDbPlotSettings
  1

  2
none_device
  4
ISO_A4_(297.00_x_210.00_MM)
  6

 40
0.0
 41
0.0
 42
0.0
 43
0.0
 44
297.0
 45
210.0
 46
0.0
 47
0.0
 48
0.0
 49
0.0
140
0.0
141
0.0
142
1.0
143
1.0
 70
0
 72
1
 73
0
 74
0
  7

 75
0
147
1.0
148
0.0
149
0.0
100
AcDbLayout
  1
Layout1
 70
0
 71
1
 10
0.0
 20
0.0
 11
297.0
 21
210.0
 12
0.0
 22
0.0
 32
0.0
 14
0.0
 24
0.0
 34
0.0
 15
0.0
 25
0.0
 35
0.0
146
0.0
 13
0.0
 23
0.0
 33
0.0
 16
1.0
 26
0.0
 36
0.0
 17
0.0
 27
1.0
 37
0.0
 76
0
330
213
345
0
346
0
  0
ENDSEC
  0
EOF
