  0
SECTION
  2
HEADER
  9
$ACADVER
  1
AC1015
  9
$DWGCODEPAGE
  3
ANSI_1252
  9
$EXTMAX
 10
297.0
 20
210.0
 30
0.0
  9
$EXTMIN
 10
0.0
 20
0.0
 30
0.0
  9
$LIMMIN
 10
0.0
 20
0.0
  9
$LIMMAX
 10
297.0
 20
210.0
  9
$VIEWCTR
 10
148.5
 20
105.0
  9
$VIEWSIZE
 40
210.0
  9
$CLAYER
  8
0
  9
$LTSCALE
 40
16.335
  9
$CELTYPE
  6
BYLAYER
  9
$DIMSCALE
 40
1.0
  9
$DIMASZ
 40
3.0
  9
$DIMEXO
 40
1.85625
  9
$DIMDLI
 40
11.286
  9
$DIMEXE
 40
5.346
  9
$DIMCEN
 40
2.673
  9
$DIMLFAC
 40
1.0
  9
$DIMBLK
  1
_FILLED
  9
$DIMTXT
 40
3.0
  9
$DIMTOL
 70
1
  9
$DIMLIM
 70
0
  9
$DIMTFAC
 40
1.0
  9
$DIMTP
 40
0.01
  9
$DIMTM
 40
0.01
  9
$PDMODE
 70
3
  9
$PDSIZE
 40
3.0
  9
$HANDSEED
  5
36C
  9
$TILEMODE
 70
1
  9
$MEASUREMENT
 70
1
  9
$INSUNITS
 70
4
  0
ENDSEC
  0
SECTION
  2
CLASSES
  0
CLASS
  1
ACDBDICTIONARYWDFLT
  2
AcDbDictionaryWithDefault
  3
AutoCAD 2000
 90
0
280
0
281
0
  0
CLASS
  1
ACDBPLACEHOLDER
  2
AcDbPlaceHolder
  3
AutoCAD 2000
 90
0
280
0
281
0
  0
CLASS
  1
LAYOUT
  2
AcDbLayout
  3
AutoCAD 2000
 90
0
280
0
281
0
  0
ENDSEC
  0
SECTION
  2
TABLES
  0
TABLE
  2
VPORT
  5
8
100
AcDbSymbolTable
 70
2
  0
VPORT
  5
1F4
100
AcDbSymbolTableRecord
100
AcDbViewportTableRecord
  2
*ACTIVE
 70
0
 10
0.0
 20
0.0
 11
1.0
 21
1.0
 12
148.5
 22
105.0
 13
0.0
 23
0.0
 14
1.0
 24
1.0
 15
0.0
 25
0.0
 16
0.0
 26
0.0
 36
1.0
 17
0.0
 27
0.0
 37
0.0
 40
210.0
 41
1.4142857143
 42
50.0
 43
0.0
 44
0.0
 50
0.0
 51
0.0
 71
0
 72
100
 73
1
 74
1
 75
0
 76
0
 77
0
 78
0
  0
ENDTAB
  0
TABLE
  2
LTYPE
  5
5
100
AcDbSymbolTable
 70
6
  0
LTYPE
  5
14
100
AcDbSymbolTableRecord
100
AcDbLinetypeTableRecord
  2
BYBLOCK
 70
0
  3

 72
65
 73
0
 40
0.0
  0
LTYPE
  5
15
100
AcDbSymbolTableRecord
100
AcDbLinetypeTableRecord
  2
BYLAYER
 70
0
  3

 72
65
 73
0
 40
0.0
  0
LTYPE
  5
16
100
AcDbSymbolTableRecord
100
AcDbLinetypeTableRecord
  2
CONTINUOUS
 70
64
  3
Solid line
 72
65
 73
0
 40
0.0
  0
LTYPE
  5
1F5
100
AcDbSymbolTableRecord
100
AcDbLinetypeTableRecord
  2
CENTER
 70
64
  3
____ _ ____ _ ____ _ ____ _ ____ _ ____ _ ____
 72
65
 73
4
 40
0.6
 49
0.375
 74
0
 49
-0.075
 74
0
 49
0.075
 74
0
 49
-0.075
 74
0
  0
LTYPE
  5
1F6
100
AcDbSymbolTableRecord
100
AcDbLinetypeTableRecord
  2
HIDDEN
 70
64
  3
- - - - - - - - - - - - - - - - - - - -
 72
65
 73
2
 40
0.2
 49
0.1
 74
0
 49
-0.1
 74
0
  0
LTYPE
  5
1F7
100
AcDbSymbolTableRecord
100
AcDbLinetypeTableRecord
  2
PHANTOM
 70
64
  3
_____ _ _ _____ _ _ _____ _ _ _____
 72
65
 73
6
 40
0.8
 49
0.45
 74
0
 49
-0.05
 74
0
 49
0.1
 74
0
 49
-0.05
 74
0
 49
0.1
 74
0
 49
-0.05
 74
0
  0
LTYPE
  5
1F8
100
AcDbSymbolTableRecord
100
AcDbLinetypeTableRecord
  2
DOT
 70
64
  3
. . . . . . . . . . . . . . . . . . . .
 72
65
 73
2
 40
0.2
 49
0.1
 74
0
 49
-0.1
 74
0
  0
LTYPE
  5
1F9
100
AcDbSymbolTableRecord
100
AcDbLinetypeTableRecord
  2
DASHED
 70
64
  3
- - - - - - - - - - - - - - - - - - - -
 72
65
 73
2
 40
0.2
 49
0.1
 74
0
 49
-0.1
 74
0
  0
ENDTAB
  0
TABLE
  2
LAYER
  5
2
100
AcDbSymbolTable
 70
36
  0
LAYER
  5
10
100
AcDbSymbolTableRecord
100
AcDbLayerTableRecord
  2
0
 70
0
 62
7
  6
CONTINUOUS
370
-3
390
F
  0
LAYER
  5
1FA
100
AcDbSymbolTableRecord
100
AcDbLayerTableRecord
  2
DEFAULT_1
 70
0
 62
7
  6
CENTER
370
-3
390
F
  0
LAYER
  5
1FB
100
AcDbSymbolTableRecord
100
AcDbLayerTableRecord
  2
DEFAULT_2
 70
0
 62
7
  6
HIDDEN
370
-3
390
F
  0
LAYER
  5
1FC
100
AcDbSymbolTableRecord
100
AcDbLayerTableRecord
  2
DEFAULT_3
 70
0
 62
7
  6
PHANTOM
370
-3
390
F
  0
LAYER
  5
1FD
100
AcDbSymbolTableRecord
100
AcDbLayerTableRecord
  2
ASSI
 70
0
 62
7
  6
CONTINUOUS
370
-3
390
F
  0
LAYER
  5
1FE
100
AcDbSymbolTableRecord
100
AcDbLayerTableRecord
  2
COORDINATE
 70
0
 62
7
  6
CONTINUOUS
370
-3
390
F
  0
LAYER
  5
1FF
100
AcDbSymbolTableRecord
100
AcDbLayerTableRecord
  2
COORD_ORIGINE
 70
0
 62
7
  6
CONTINUOUS
370
-3
390
F
  0
LAYER
  5
200
100
AcDbSymbolTableRecord
100
AcDbLayerTableRecord
  2
COPY_PUBLISH
 70
0
 62
7
  6
CONTINUOUS
370
-3
390
F
  0
LAYER
  5
201
100
AcDbSymbolTableRecord
100
AcDbLayerTableRecord
  2
COSMETIC
 70
0
 62
7
  6
CONTINUOUS
370
-3
390
F
  0
LAYER
  5
202
100
AcDbSymbolTableRecord
100
AcDbLayerTableRecord
  2
CURVE
 70
0
 62
7
  6
CONTINUOUS
370
-3
390
F
  0
LAYER
  5
203
100
AcDbSymbolTableRecord
100
AcDbLayerTableRecord
  2
DRAFT
 70
0
 62
7
  6
CONTINUOUS
370
-3
390
F
  0
LAYER
  5
204
100
AcDbSymbolTableRecord
100
AcDbLayerTableRecord
  2
IMPORT_IGES
 70
0
 62
7
  6
CONTINUOUS
370
-3
390
F
  0
LAYER
  5
205
100
AcDbSymbolTableRecord
100
AcDbLayerTableRecord
  2
INTFCLR_2
 70
0
 62
7
  6
CONTINUOUS
370
-3
390
F
  0
LAYER
  5
206
100
AcDbSymbolTableRecord
100
AcDbLayerTableRecord
  2
PIANI
 70
0
 62
7
  6
CONTINUOUS
370
-3
390
F
  0
LAYER
  5
207
100
AcDbSymbolTableRecord
100
AcDbLayerTableRecord
  2
PIANI_ORIGINE
 70
0
 62
7
  6
CONTINUOUS
370
-3
390
F
  0
LAYER
  5
208
100
AcDbSymbolTableRecord
100
AcDbLayerTableRecord
  2
PIANI_RIFERIMENTO
 70
0
 62
7
  6
CONTINUOUS
370
-3
390
F
  0
LAYER
  5
209
100
AcDbSymbolTableRecord
100
AcDbLayerTableRecord
  2
PUNTI
 70
0
 62
7
  6
CONTINUOUS
370
-3
390
F
  0
LAYER
  5
20A
100
AcDbSymbolTableRecord
100
AcDbLayerTableRecord
  2
RACCORDO
 70
0
 62
7
  6
CONTINUOUS
370
-3
390
F
  0
LAYER
  5
20B
100
AcDbSymbolTableRecord
100
AcDbLayerTableRecord
  2
SMUSSO
 70
0
 62
7
  6
CONTINUOUS
370
-3
390
F
  0
LAYER
  5
20C
100
AcDbSymbolTableRecord
100
AcDbLayerTableRecord
  2
SNAPLINE
 70
0
 62
7
  6
CONTINUOUS
370
-3
390
F
  0
LAYER
  5
20D
100
AcDbSymbolTableRecord
100
AcDbLayerTableRecord
  2
SUPERFICI
 70
0
 62
7
  6
CONTINUOUS
370
-3
390
F
  0
LAYER
  5
20E
100
AcDbSymbolTableRecord
100
AcDbLayerTableRecord
  2
TRASH
 70
0
 62
7
  6
CONTINUOUS
370
-3
390
F
  0
LAYER
  5
20F
100
AcDbSymbolTableRecord
100
AcDbLayerTableRecord
  2
XSEC_DATUMS
 70
0
 62
7
  6
CONTINUOUS
370
-3
390
F
  0
ENDTAB
  0
TABLE
  2
STYLE
  5
3
100
AcDbSymbolTable
 70
1
  0
STYLE
  5
11
100
AcDbSymbolTableRecord
100
AcDbTextStyleTableRecord
  2
STANDARD
 70
0
 40
0.0
 41
0.8
 50
0.0
 71
0
 42
0.2
  3
txt
  4

  0
STYLE
  5
210
100
AcDbSymbolTableRecord
100
AcDbTextStyleTableRecord
  2
TEXTSTYLE_1
 70
0
 40
0.0
 41
0.8
 50
0.0
 71
0
 42
0.2
  3
gdt
  4

  0
ENDTAB
  0
TABLE
  2
VIEW
  5
6
100
AcDbSymbolTable
 70
0
  0
ENDTAB
  0
TABLE
  2
UCS
  5
7
100
AcDbSymbolTable
 70
0
  0
ENDTAB
  0
TABLE
  2
APPID
  5
9
100
AcDbSymbolTable
 70
1
  0
APPID
  5
211
100
AcDbSymbolTableRecord
100
AcDbRegAppTableRecord
  2
ACAD
 70
0
  0
ENDTAB
  0
TABLE
  2
BLOCK_RECORD
  5
1
100
AcDbSymbolTable
 70
0
  0
BLOCK_RECORD
  5
212
100
AcDbSymbolTableRecord
100
AcDbBlockTableRecord
  2
*Model_Space
  0
BLOCK_RECORD
  5
213
100
AcDbSymbolTableRecord
100
AcDbBlockTableRecord
  2
*Paper_Space
  0
BLOCK_RECORD
  5
214
100
AcDbSymbolTableRecord
100
AcDbBlockTableRecord
  2
_FILLED
  0
BLOCK_RECORD
  5
215
100
AcDbSymbolTableRecord
100
AcDbBlockTableRecord
  2
*D0
  0
BLOCK_RECORD
  5
216
100
AcDbSymbolTableRecord
100
AcDbBlockTableRecord
  2
*D1
  0
BLOCK_RECORD
  5
217
100
AcDbSymbolTableRecord
100
AcDbBlockTableRecord
  2
*D2
  0
BLOCK_RECORD
  5
218
100
AcDbSymbolTableRecord
100
AcDbBlockTableRecord
  2
*D3
  0
ENDTAB
  0
TABLE
  2
DIMSTYLE
  5
A
100
AcDbSymbolTable
 70
1
100
AcDbDimStyleTable
 71
0
  0
DIMSTYLE
105
219
100
AcDbSymbolTableRecord
100
AcDbDimStyleTableRecord
  2
STANDARD
 70
0
  3

  4

 40
1.0
 41
3.0
 42
0.0625
 43
0.38
 44
0.18
 45
0.0
 46
0.0
 47
0.01
 48
0.01
140
3.0
141
0.09
142
0.0
143
25.4
144
1.0
145
0.0
146
1.0
147
0.09
 71
1.0
 72
0.0
 73
0
 74
0
 75
0
 76
0
 77
1
 78
8
170
0
171
2
172
0
173
0
174
0
175
0
176
0
177
0
178
0
270
2
271
2
272
2
273
2
274
2
275
0
280
0
281
0
282
0
283
1
284
8
285
0
286
0
287
3
288
0
340
11
341
214
342
214
343
214
344
214
  0
DIMSTYLE
105
21A
100
AcDbSymbolTableRecord
100
AcDbDimStyleTableRecord
  2
DIMSTYLE_1
 70
0
  3

  4

 40
1.0
 41
3.0
 42
0.0625
 43
0.38
 44
0.18
 45
0.0
 46
0.0
 47
0.0
 48
0.0
140
3.0
141
0.09
142
0.0
143
25.4
144
1.0
145
0.0
146
1.0
147
0.09
 71
0.0
 72
0.0
 73
0
 74
0
 75
0
 76
0
 77
1
 78
8
170
0
171
2
172
0
173
0
174
0
175
0
176
0
177
0
178
0
270
2
271
2
272
2
273
2
274
2
275
0
280
0
281
0
282
0
283
1
284
8
285
0
286
0
287
3
288
0
340
11
341
214
342
214
343
214
344
214
  0
ENDTAB
  0
ENDSEC
  0
SECTION
  2
BLOCKS
  0
BLOCK
  5
20
100
AcDbEntity
  8
0
100
AcDbBlockBegin
  2
*Model_Space
 70
0
 10
0.0
 20
0.0
 30
0.0
  3
*Model_Space
  1

  0
ENDBLK
  5
21
100
AcDbEntity
  8
0
100
AcDbBlockEnd
  0
BLOCK
  5
1C
100
AcDbEntity
  8
0
100
AcDbBlockBegin
  2
*Paper_Space
 70
0
 10
0.0
 20
0.0
 30
0.0
  3
*Paper_Space
  1

  0
ENDBLK
  5
1D
100
AcDbEntity
  8
0
100
AcDbBlockEnd
  0
BLOCK
  5
21B
100
AcDbEntity
  8
0
100
AcDbBlockBegin
  2
_FILLED
 70
64
 10
0.0
 20
0.0
  3
_FILLED
  1

  0
SOLID
  5
21C
100
AcDbEntity
  8
0
  6
BYBLOCK
 62
0
100
AcDbTrace
 10
0.0
 20
0.0
 11
-1.0
 21
0.3166666667
 12
-1.0
 22
-0.3166666667
 13
-1.0
 23
-0.3166666667
  0
ENDBLK
  5
21D
100
AcDbEntity
  8
0
  6
BYBLOCK
 62
0
100
AcDbBlockEnd
  0
BLOCK
  5
21E
100
AcDbEntity
  8
0
100
AcDbBlockBegin
 62
7
  6
CONTINUOUS
  2
*D0
 70
65
 10
0.0
 20
0.0
  3
*D0
  1

  0
MTEXT
  5
21F
100
AcDbEntity
  8
0
100
AcDbMText
 62
7
  6
CONTINUOUS
  7
STANDARD
 71
2
 72
1
 10
53.6
 20
0.0
 30
0.0
 11
0.0
 21
1.0
 31
0.0
 44
0.9
  1
94,7
 40
3.0
 41
8.7857142857
  0
LINE
  5
220
100
AcDbEntity
  8
0
100
AcDbLine
 62
7
  6
CONTINUOUS
 10
46.85
 20
-47.35
 11
58.85
 21
-47.35
  0
LINE
  5
221
100
AcDbEntity
  8
0
100
AcDbLine
 62
7
  6
CONTINUOUS
 10
46.85
 20
47.35
 11
58.85
 21
47.35
  0
LINE
  5
222
100
AcDbEntity
  8
0
100
AcDbLine
 62
7
  6
CONTINUOUS
 10
57.35
 20
-47.35
 11
57.35
 21
0.0
  0
LINE
  5
223
100
AcDbEntity
  8
0
100
AcDbLine
 62
7
  6
CONTINUOUS
 10
57.35
 20
47.35
 11
57.35
 21
0.0
  0
INSERT
  5
224
100
AcDbEntity
  8
0
100
AcDbBlockReference
 62
7
  6
CONTINUOUS
  2
_FILLED
 10
57.35
 20
-47.35
 41
3.0
 42
3.0
 43
3.0
 50
270.0
  0
INSERT
  5
225
100
AcDbEntity
  8
0
100
AcDbBlockReference
 62
7
  6
CONTINUOUS
  2
_FILLED
 10
57.35
 20
47.35
 41
3.0
 42
3.0
 43
3.0
 50
90.0
  0
ENDBLK
  5
226
100
AcDbEntity
  8
0
  6
BYBLOCK
 62
0
100
AcDbBlockEnd
  0
BLOCK
  5
227
100
AcDbEntity
  8
0
100
AcDbBlockBegin
 62
7
  6
CONTINUOUS
  2
*D1
 70
65
 10
0.0
 20
0.0
  3
*D1
  1

  0
MTEXT
  5
228
100
AcDbEntity
  8
0
100
AcDbMText
 62
7
  6
CONTINUOUS
  7
STANDARD
 71
2
 72
1
 10
0.0
 20
61.1
 30
0.0
 11
1.0
 21
0.0
 31
0.0
 44
0.9
  1
94,7
 40
3.0
 41
8.7857142857
  0
LINE
  5
229
100
AcDbEntity
  8
0
100
AcDbLine
 62
7
  6
CONTINUOUS
 10
47.35
 20
46.85
 11
47.35
 21
58.85
  0
LINE
  5
22A
100
AcDbEntity
  8
0
100
AcDbLine
 62
7
  6
CONTINUOUS
 10
-47.35
 20
46.85
 11
-47.35
 21
58.85
  0
LINE
  5
22B
100
AcDbEntity
  8
0
100
AcDbLine
 62
7
  6
CONTINUOUS
 10
47.35
 20
57.35
 11
0.0
 21
57.35
  0
LINE
  5
22C
100
AcDbEntity
  8
0
100
AcDbLine
 62
7
  6
CONTINUOUS
 10
-47.35
 20
57.35
 11
0.0
 21
57.35
  0
INSERT
  5
22D
100
AcDbEntity
  8
0
100
AcDbBlockReference
 62
7
  6
CONTINUOUS
  2
_FILLED
 10
47.35
 20
57.35
 41
3.0
 42
3.0
 43
3.0
  0
INSERT
  5
22E
100
AcDbEntity
  8
0
100
AcDbBlockReference
 62
7
  6
CONTINUOUS
  2
_FILLED
 10
-47.35
 20
57.35
 41
3.0
 42
3.0
 43
3.0
 50
180.0
  0
ENDBLK
  5
22F
100
AcDbEntity
  8
0
  6
BYBLOCK
 62
0
100
AcDbBlockEnd
  0
BLOCK
  5
230
100
AcDbEntity
  8
0
100
AcDbBlockBegin
 62
7
  6
CONTINUOUS
  2
*D2
 70
65
 10
0.0
 20
0.0
  3
*D2
  1

  0
MTEXT
  5
231
100
AcDbEntity
  8
0
100
AcDbMText
 62
7
  6
CONTINUOUS
  7
STANDARD
 71
3
 72
1
 10
-81.511539051
 20
69.1
 30
0.0
 11
1.0
 21
0.0
 31
0.0
 44
0.9
  1
9,9
 40
3.0
 41
6.4285714286
  0
LINE
  5
232
100
AcDbEntity
  8
0
100
AcDbLine
 62
7
  6
CONTINUOUS
 10
-80.3149079067
 20
26.0589958209
 11
-80.3149079067
 21
66.85
  0
LINE
  5
233
100
AcDbEntity
  8
0
100
AcDbLine
 62
7
  6
CONTINUOUS
 10
-70.4149079067
 20
26.4897929133
 11
-70.4149079067
 21
66.85
  0
LINE
  5
234
100
AcDbEntity
  8
0
100
AcDbLine
 62
7
  6
CONTINUOUS
 10
-80.3149079067
 20
65.35
 11
-75.3649079067
 21
65.35
  0
LINE
  5
235
100
AcDbEntity
  8
0
100
AcDbLine
 62
7
  6
CONTINUOUS
 10
-75.3649079067
 20
65.35
 11
-87.9401104795
 21
65.35
  0
LINE
  5
236
100
AcDbEntity
  8
0
100
AcDbLine
 62
7
  6
CONTINUOUS
 10
-70.4149079067
 20
65.35
 11
-75.3649079067
 21
65.35
  0
INSERT
  5
237
100
AcDbEntity
  8
0
100
AcDbBlockReference
 62
7
  6
CONTINUOUS
  2
_FILLED
 10
-80.3149079067
 20
65.35
 41
3.0
 42
3.0
 43
3.0
 50
180.0
  0
INSERT
  5
238
100
AcDbEntity
  8
0
100
AcDbBlockReference
 62
7
  6
CONTINUOUS
  2
_FILLED
 10
-70.4149079067
 20
65.35
 41
3.0
 42
3.0
 43
3.0
  0
ENDBLK
  5
239
100
AcDbEntity
  8
0
  6
BYBLOCK
 62
0
100
AcDbBlockEnd
  0
BLOCK
  5
23A
100
AcDbEntity
  8
0
100
AcDbBlockBegin
 62
7
  6
CONTINUOUS
  2
*D3
 70
65
 10
0.0
 20
0.0
  3
*D3
  1

  0
MTEXT
  5
23B
100
AcDbEntity
  8
0
100
AcDbMText
 62
7
  6
CONTINUOUS
  7
STANDARD
 71
3
 72
1
 10
-81.0245841764
 20
61.1
 30
0.0
 11
1.0
 21
0.0
 31
0.0
 44
0.9
  1
8,2
 40
3.0
 41
6.4285714286
  0
LINE
  5
23C
100
AcDbEntity
  8
0
100
AcDbLine
 62
7
  6
CONTINUOUS
 10
-72.1149079067
 20
43.8101579604
 11
-72.1149079067
 21
58.85
  0
LINE
  5
23D
100
AcDbEntity
  8
0
100
AcDbLine
 62
7
  6
CONTINUOUS
 10
-80.3149079067
 20
26.0589958209
 11
-80.3149079067
 21
58.85
  0
LINE
  5
23E
100
AcDbEntity
  8
0
100
AcDbLine
 62
7
  6
CONTINUOUS
 10
-72.1149079067
 20
57.35
 11
-76.2149079067
 21
57.35
  0
LINE
  5
23F
100
AcDbEntity
  8
0
100
AcDbLine
 62
7
  6
CONTINUOUS
 10
-80.3149079067
 20
57.35
 11
-76.2149079067
 21
57.35
  0
LINE
  5
240
100
AcDbEntity
  8
0
100
AcDbLine
 62
7
  6
CONTINUOUS
 10
-76.2149079067
 20
57.35
 11
-87.4531556049
 21
57.35
  0
INSERT
  5
241
100
AcDbEntity
  8
0
100
AcDbBlockReference
 62
7
  6
CONTINUOUS
  2
_FILLED
 10
-72.1149079067
 20
57.35
 41
3.0
 42
3.0
 43
3.0
  0
INSERT
  5
242
100
AcDbEntity
  8
0
100
AcDbBlockReference
 62
7
  6
CONTINUOUS
  2
_FILLED
 10
-80.3149079067
 20
57.35
 41
3.0
 42
3.0
 43
3.0
 50
180.0
  0
ENDBLK
  5
243
100
AcDbEntity
  8
0
  6
BYBLOCK
 62
0
100
AcDbBlockEnd
  0
ENDSEC
  0
SECTION
  2
ENTITIES
  0
DIMENSION
  5
244
100
AcDbEntity
  8
0
100
AcDbDimension
 62
7
  6
CONTINUOUS
  2
*D0
 10
57.35
 20
47.35
 11
57.0683233851
 21
-3.9271996294
 70
160
 71
2
 42
94.7
  3
DIMSTYLE_1
100
AcDbAlignedDimension
 13
46.85
 23
-47.35
 14
46.85
 24
47.35
 50
90.0
100
AcDbRotatedDimension
  0
DIMENSION
  5
245
100
AcDbEntity
  8
0
100
AcDbDimension
 62
7
  6
CONTINUOUS
  2
*D1
 10
-47.35
 20
57.35
 11
-4.3928571429
 21
59.6
 70
160
 71
2
 42
94.7
  3
DIMSTYLE_1
100
AcDbAlignedDimension
 13
47.35
 23
46.85
 14
-47.35
 24
46.85
 50
180.0
100
AcDbRotatedDimension
  0
DIMENSION
  5
246
100
AcDbEntity
  8
0
100
AcDbDimension
 62
7
  6
CONTINUOUS
  2
*D2
 10
-70.4149079067
 20
65.35
 11
-91.1543961938
 21
67.6
 70
160
 71
3
 42
9.9
  3
DIMSTYLE_1
100
AcDbAlignedDimension
 13
-80.3149079067
 23
26.0589958209
 14
-70.4149079067
 24
26.4897929133
100
AcDbRotatedDimension
  0
DIMENSION
  5
247
100
AcDbEntity
  8
0
100
AcDbDimension
 62
7
  6
CONTINUOUS
  2
*D3
 10
-80.3149079067
 20
57.35
 11
-90.6674413192
 21
59.6
 70
160
 71
3
 42
8.2
  3
DIMSTYLE_1
100
AcDbAlignedDimension
 13
-72.1149079067
 23
43.8101579604
 14
-80.3149079067
 24
26.0589958209
 50
180.0
100
AcDbRotatedDimension
  0
LINE
  5
248
100
AcDbEntity
  8
SMUSSO
100
AcDbLine
 62
7
  6
CONTINUOUS
 10
-46.35
 20
47.35
 11
-47.35
 21
46.35
  0
LINE
  5
249
100
AcDbEntity
  8
SMUSSO
100
AcDbLine
 62
7
  6
CONTINUOUS
 10
-45.9357864376
 20
46.35
 11
-46.35
 21
45.9357864376
  0
LINE
  5
24A
100
AcDbEntity
  8
SMUSSO
100
AcDbLine
 62
7
  6
CONTINUOUS
 10
-47.35
 20
-46.35
 11
-46.35
 21
-47.35
  0
LINE
  5
24B
100
AcDbEntity
  8
SMUSSO
100
AcDbLine
 62
7
  6
CONTINUOUS
 10
-46.35
 20
-45.9357864376
 11
-45.9357864376
 21
-46.35
  0
LINE
  5
24C
100
AcDbEntity
  8
SMUSSO
100
AcDbLine
 62
7
  6
CONTINUOUS
 10
-47.35
 20
46.35
 11
-47.35
 21
-46.35
  0
LINE
  5
24D
100
AcDbEntity
  8
SMUSSO
100
AcDbLine
 62
7
  6
CONTINUOUS
 10
-46.35
 20
45.9357864376
 11
-46.35
 21
-45.9357864376
  0
LINE
  5
24E
100
AcDbEntity
  8
SMUSSO
100
AcDbLine
 62
7
  6
CONTINUOUS
 10
-46.35
 20
-47.35
 11
46.35
 21
-47.35
  0
LINE
  5
24F
100
AcDbEntity
  8
SMUSSO
100
AcDbLine
 62
7
  6
CONTINUOUS
 10
-45.9357864376
 20
-46.35
 11
45.9357864376
 21
-46.35
  0
LINE
  5
250
100
AcDbEntity
  8
RACCORDO
100
AcDbLine
 62
7
  6
CONTINUOUS
 10
-25.2431245874
 20
-26.293017974
 11
25.2431245874
 21
-26.293017974
  0
LINE
  5
251
100
AcDbEntity
  8
RACCORDO
100
AcDbLine
 62
253
  6
CONTINUOUS
 10
-25.2089958209
 20
-26.2588892076
 11
25.2089958209
 21
-26.2588892076
  0
LINE
  5
252
100
AcDbEntity
  8
RACCORDO
100
AcDbLine
 62
7
  6
CONTINUOUS
 10
-25.943017974
 20
25.5931245874
 11
-25.943017974
 21
-25.5931245874
  0
LINE
  5
253
100
AcDbEntity
  8
RACCORDO
100
AcDbLine
 62
253
  6
CONTINUOUS
 10
-25.9088892076
 20
25.5589958209
 11
-25.9088892076
 21
-25.5589958209
  0
LINE
  5
254
100
AcDbEntity
  8
RACCORDO
100
AcDbLine
 62
253
  6
CONTINUOUS
 10
-25.608934899
 20
25.5589958209
 11
-25.608934899
 21
-25.5622249597
  0
LINE
  5
255
100
AcDbEntity
  8
RACCORDO
100
AcDbLine
 62
253
  6
CONTINUOUS
 10
-25.208995819
 20
26.2588892076
 11
-25.2089958209
 21
25.958934899
  0
LINE
  5
256
100
AcDbEntity
  8
RACCORDO
100
AcDbLine
 62
253
  6
CONTINUOUS
 10
-25.2089958196
 20
-26.2588892076
 11
-25.2089958209
 21
-25.958934899
  0
LINE
  5
257
100
AcDbEntity
  8
RACCORDO
100
AcDbLine
 62
253
  6
CONTINUOUS
 10
-23.2014857566
 20
-22.828226657
 11
-23.2014857566
 21
22.828226657
  0
LINE
  5
258
100
AcDbEntity
  8
RACCORDO
100
AcDbLine
 62
253
  6
CONTINUOUS
 10
-22.9060434307
 20
-22.8282269838
 11
-22.9060434307
 21
22.8282269714
  0
LINE
  5
259
100
AcDbEntity
  8
RACCORDO
100
AcDbLine
 62
253
  6
CONTINUOUS
 10
-22.656833204
 20
22.2993589244
 11
-22.656833204
 21
-22.2993589244
  0
LINE
  5
25A
100
AcDbEntity
  8
RACCORDO
100
AcDbLine
 62
253
  6
CONTINUOUS
 10
-22.6493132329
 20
22.2993589244
 11
-22.6493132329
 21
-22.2993589244
  0
LINE
  5
25B
100
AcDbEntity
  8
RACCORDO
100
AcDbLine
 62
7
  6
CONTINUOUS
 10
-22.6421452208
 20
-22.2921909122
 11
-22.6421452208
 21
22.2921909122
  0
LINE
  5
25C
100
AcDbEntity
  8
RACCORDO
100
AcDbLine
 62
253
  6
CONTINUOUS
 10
-22.628414217
 20
23.4288116597
 11
-22.628414217
 21
23.1469038735
  0
LINE
  5
25D
100
AcDbEntity
  8
RACCORDO
100
AcDbLine
 62
253
  6
CONTINUOUS
 10
-22.628414217
 20
-23.4288116597
 11
-22.628414217
 21
-23.1469038735
  0
LINE
  5
25E
100
AcDbEntity
  8
RACCORDO
100
AcDbLine
 62
253
  6
CONTINUOUS
 10
-22.3485854258
 20
22.5985397344
 11
-22.3485854225
 21
22.6286172708
  0
LINE
  5
25F
100
AcDbEntity
  8
RACCORDO
100
AcDbLine
 62
253
  6
CONTINUOUS
 10
-22.3485854258
 20
-22.5985397344
 11
-22.3485854258
 21
-22.6286172716
  0
LINE
  5
260
100
AcDbEntity
  8
SMUSSO
100
AcDbLine
 62
7
  6
CONTINUOUS
 10
-46.35
 20
-47.35
 11
-45.9357864376
 21
-46.35
  0
LINE
  5
261
100
AcDbEntity
  8
SMUSSO
100
AcDbLine
 62
7
  6
CONTINUOUS
 10
47.35
 20
46.35
 11
46.35
 21
45.9357864376
  0
LINE
  5
262
100
AcDbEntity
  8
RACCORDO
100
AcDbLine
 62
253
  6
CONTINUOUS
 10
-25.2089958209
 20
-25.958934899
 11
25.212224949
 21
-25.958934899
  0
LINE
  5
263
100
AcDbEntity
  8
0
100
AcDbLine
 62
7
  6
CONTINUOUS
 10
-3.446727
 20
-25.765174
 11
-3.060461
 21
-25.765174
  0
LINE
  5
264
100
AcDbEntity
  8
0
100
AcDbLine
 62
7
  6
CONTINUOUS
 10
-2.222834
 20
-25.765174
 11
-1.784518
 21
-25.765174
  0
LINE
  5
265
100
AcDbEntity
  8
0
100
AcDbLine
 62
7
  6
CONTINUOUS
 10
-1.548559
 20
-25.765174
 11
-1.129234
 21
-25.765174
  0
LINE
  5
266
100
AcDbEntity
  8
0
100
AcDbLine
 62
7
  6
CONTINUOUS
 10
-0.520448
 20
-25.765174
 11
-0.458975
 21
-25.765174
  0
LINE
  5
267
100
AcDbEntity
  8
0
100
AcDbLine
 62
7
  6
CONTINUOUS
 10
0.152236
 20
-25.765174
 11
0.581025
 21
-25.765174
  0
LINE
  5
268
100
AcDbEntity
  8
0
100
AcDbLine
 62
7
  6
CONTINUOUS
 10
0.649852
 20
-25.765174
 11
1.083412
 21
-25.765174
  0
LINE
  5
269
100
AcDbEntity
  8
0
100
AcDbLine
 62
7
  6
CONTINUOUS
 10
1.91482
 20
-25.765174
 11
2.376786
 21
-25.765174
  0
LINE
  5
26A
100
AcDbEntity
  8
0
100
AcDbLine
 62
7
  6
CONTINUOUS
 10
2.505496876
 20
-25.7651743977
 11
2.9420487595
 21
-25.7651743977
  0
LINE
  5
26B
100
AcDbEntity
  8
0
100
AcDbLine
 62
7
  6
CONTINUOUS
 10
3.613268538
 20
-25.7651743977
 11
4.0348771327
 21
-25.7651743977
  0
LINE
  5
26C
100
AcDbEntity
  8
RACCORDO
100
AcDbLine
 62
253
  6
CONTINUOUS
 10
-25.9088892076
 20
-25.558995819
 11
-25.608934899
 21
-25.5589958209
  0
LINE
  5
26D
100
AcDbEntity
  8
RACCORDO
100
AcDbLine
 62
253
  6
CONTINUOUS
 10
25.9088892076
 20
-25.5589958196
 11
25.608934899
 21
-25.5589958209
  0
LINE
  5
26E
100
AcDbEntity
  8
0
100
AcDbLine
 62
7
  6
CONTINUOUS
 10
1.20436
 20
-25.345975
 11
1.801273
 21
-25.345975
  0
LINE
  5
26F
100
AcDbEntity
  8
0
100
AcDbLine
 62
7
  6
CONTINUOUS
 10
1.713676
 20
-25.0216
 11
1.29402
 21
-25.0216
  0
LINE
  5
270
100
AcDbEntity
  8
0
100
AcDbLine
 62
7
  6
CONTINUOUS
 10
2.9420487595
 20
-24.943419487
 11
3.1770630743
 21
-24.943419487
  0
LINE
  5
271
100
AcDbEntity
  8
0
100
AcDbLine
 62
7
  6
CONTINUOUS
 10
3.1780078554
 20
-24.5995191431
 11
2.927514876
 21
-24.5995191431
  0
LINE
  5
272
100
AcDbEntity
  8
0
100
AcDbLine
 62
7
  6
CONTINUOUS
 10
1.732508
 20
-23.665351
 11
1.308491
 21
-23.665351
  0
LINE
  5
273
100
AcDbEntity
  8
0
100
AcDbLine
 62
7
  6
CONTINUOUS
 10
0.384668
 20
-23.665351
 11
-0.049002
 21
-23.665351
  0
LINE
  5
274
100
AcDbEntity
  8
0
100
AcDbLine
 62
7
  6
CONTINUOUS
 10
-0.921004
 20
-23.665351
 11
-1.358957
 21
-23.665351
  0
LINE
  5
275
100
AcDbEntity
  8
0
100
AcDbLine
 62
7
  6
CONTINUOUS
 10
-2.385493
 20
-23.665351
 11
-2.82351
 21
-23.665351
  0
LINE
  5
276
100
AcDbEntity
  8
0
100
AcDbLine
 62
7
  6
CONTINUOUS
 10
-3.636266
 20
-23.665351
 11
-4.112412
 21
-23.665351
  0
LINE
  5
277
100
AcDbEntity
  8
0
100
AcDbLine
 62
7
  6
CONTINUOUS
 10
-1.784518
 20
-23.665225
 11
-2.222834
 21
-23.665225
  0
LINE
  5
278
100
AcDbEntity
  8
RACCORDO
100
AcDbLine
 62
253
  6
CONTINUOUS
 10
22.628414217
 20
-23.4288116597
 11
-22.628414217
 21
-23.4288116597
  0
LINE
  5
279
100
AcDbEntity
  8
RACCORDO
100
AcDbLine
 62
253
  6
CONTINUOUS
 10
22.6284013657
 20
-23.1469038735
 11
-22.628435318
 21
-23.1469038735
  0
LINE
  5
27A
100
AcDbEntity
  8
RACCORDO
100
AcDbLine
 62
253
  6
CONTINUOUS
 10
-23.2014857566
 20
-22.828226657
 11
-22.9060434307
 21
-22.828226657
  0
LINE
  5
27B
100
AcDbEntity
  8
RACCORDO
100
AcDbLine
 62
253
  6
CONTINUOUS
 10
23.2014857566
 20
-22.828226657
 11
22.9060434307
 21
-22.8282266572
  0
LINE
  5
27C
100
AcDbEntity
  8
RACCORDO
100
AcDbLine
 62
253
  6
CONTINUOUS
 10
-22.3485854258
 20
-22.6286172716
 11
22.3485854258
 21
-22.6286172716
  0
LINE
  5
27D
100
AcDbEntity
  8
RACCORDO
100
AcDbLine
 62
253
  6
CONTINUOUS
 10
-22.3485854258
 20
-22.5985397344
 11
22.3485854258
 21
-22.5985397344
  0
LINE
  5
27E
100
AcDbEntity
  8
RACCORDO
100
AcDbLine
 62
7
  6
CONTINUOUS
 10
22.3421909122
 20
-22.5921452208
 11
-22.3421909122
 21
-22.5921452208
  0
LINE
  5
27F
100
AcDbEntity
  8
RACCORDO
100
AcDbLine
 62
253
  6
CONTINUOUS
 10
22.6493132329
 20
-22.2993589244
 11
22.656833204
 21
-22.2993589244
  0
LINE
  5
280
100
AcDbEntity
  8
RACCORDO
100
AcDbLine
 62
253
  6
CONTINUOUS
 10
-22.6493132329
 20
-22.2993589244
 11
-22.656833204
 21
-22.2993589244
  0
LINE
  5
281
100
AcDbEntity
  8
SMUSSO
100
AcDbLine
 62
7
  6
CONTINUOUS
 10
47.35
 20
-46.35
 11
46.35
 21
-45.9357864376
  0
LINE
  5
282
100
AcDbEntity
  8
SMUSSO
100
AcDbLine
 62
7
  6
CONTINUOUS
 10
-46.35
 20
47.35
 11
-45.9357864376
 21
46.35
  0
LINE
  5
283
100
AcDbEntity
  8
RACCORDO
100
AcDbLine
 62
253
  6
CONTINUOUS
 10
-22.628435318
 20
-23.1469038735
 11
-22.3772146433
 21
-22.6280795015
  0
LINE
  5
284
100
AcDbEntity
  8
RACCORDO
100
AcDbLine
 62
253
  6
CONTINUOUS
 10
-22.9060434307
 20
-22.8282269838
 11
-22.6566937466
 21
-22.3135245816
  0
LINE
  5
285
100
AcDbEntity
  8
RACCORDO
100
AcDbLine
 62
253
  6
CONTINUOUS
 10
-22.6566937466
 20
22.3135245816
 11
-22.9060434307
 21
22.8282269714
  0
LINE
  5
286
100
AcDbEntity
  8
RACCORDO
100
AcDbLine
 62
253
  6
CONTINUOUS
 10
-22.3771423363
 20
22.6280816649
 11
-22.6284262722
 21
23.1469038735
  0
LINE
  5
287
100
AcDbEntity
  8
0
100
AcDbLine
 62
7
  6
CONTINUOUS
 10
-1.034645
 20
-24.394029
 11
-0.520448
 21
-25.765174
  0
LINE
  5
288
100
AcDbEntity
  8
0
100
AcDbLine
 62
7
  6
CONTINUOUS
 10
-0.487318
 20
-24.831179
 11
-0.921004
 21
-23.665351
  0
LINE
  5
289
100
AcDbEntity
  8
0
100
AcDbLine
 62
7
  6
CONTINUOUS
 10
-4.112412
 20
-23.665351
 11
-3.446727
 21
-25.765174
  0
LINE
  5
28A
100
AcDbEntity
  8
0
100
AcDbLine
 62
7
  6
CONTINUOUS
 10
-3.236001
 20
-25.110724
 11
-3.636266
 21
-23.665351
  0
LINE
  5
28B
100
AcDbEntity
  8
0
100
AcDbLine
 62
7
  6
CONTINUOUS
 10
2.376786
 20
-25.765174
 11
1.732508
 21
-23.665351
  0
LINE
  5
28C
100
AcDbEntity
  8
0
100
AcDbLine
 62
7
  6
CONTINUOUS
 10
1.801273
 20
-25.345975
 11
1.91482
 21
-25.765174
  0
LINE
  5
28D
100
AcDbEntity
  8
0
100
AcDbLine
 62
7
  6
CONTINUOUS
 10
1.512264
 20
-24.242329
 11
1.713676
 21
-25.0216
  0
LINE
  5
28E
100
AcDbEntity
  8
0
100
AcDbLine
 62
7
  6
CONTINUOUS
 10
0.581025
 20
-25.765174
 11
0.384668
 21
-23.665351
  0
LINE
  5
28F
100
AcDbEntity
  8
0
100
AcDbLine
 62
7
  6
CONTINUOUS
 10
0.062183
 20
-24.399745
 11
0.152236
 21
-25.765174
  0
LINE
  5
290
100
AcDbEntity
  8
0
100
AcDbLine
 62
7
  6
CONTINUOUS
 10
-2.222834
 20
-23.665225
 11
-2.222834
 21
-25.765174
  0
LINE
  5
291
100
AcDbEntity
  8
0
100
AcDbLine
 62
7
  6
CONTINUOUS
 10
-1.784518
 20
-25.765174
 11
-1.784518
 21
-23.665225
  0
LINE
  5
292
100
AcDbEntity
  8
RACCORDO
100
AcDbLine
 62
253
  6
CONTINUOUS
 10
25.2089958209
 20
26.2588892076
 11
25.2431245874
 21
26.293017974
  0
LINE
  5
293
100
AcDbEntity
  8
RACCORDO
100
AcDbLine
 62
253
  6
CONTINUOUS
 10
-22.6493132329
 20
-22.2993589244
 11
-22.6421452208
 21
-22.2921909122
  0
LINE
  5
294
100
AcDbEntity
  8
RACCORDO
100
AcDbLine
 62
253
  6
CONTINUOUS
 10
-25.9088892076
 20
-25.5589958209
 11
-25.943017974
 21
-25.5931245874
  0
LINE
  5
295
100
AcDbEntity
  8
RACCORDO
100
AcDbLine
 62
253
  6
CONTINUOUS
 10
22.3485854258
 20
22.5985397344
 11
22.3421909122
 21
22.5921452208
  0
LINE
  5
296
100
AcDbEntity
  8
RACCORDO
100
AcDbLine
 62
253
  6
CONTINUOUS
 10
-22.3485854258
 20
-22.5985397344
 11
-22.3421909122
 21
-22.5921452208
  0
LINE
  5
297
100
AcDbEntity
  8
RACCORDO
100
AcDbLine
 62
253
  6
CONTINUOUS
 10
25.9088892076
 20
25.5589958209
 11
25.943017974
 21
25.5931245874
  0
LINE
  5
298
100
AcDbEntity
  8
RACCORDO
100
AcDbLine
 62
253
  6
CONTINUOUS
 10
22.6493132329
 20
22.2993589244
 11
22.6421452208
 21
22.2921909122
  0
LINE
  5
299
100
AcDbEntity
  8
RACCORDO
100
AcDbLine
 62
253
  6
CONTINUOUS
 10
25.2089958209
 20
-26.2588892076
 11
25.2431245874
 21
-26.293017974
  0
LINE
  5
29A
100
AcDbEntity
  8
RACCORDO
100
AcDbLine
 62
253
  6
CONTINUOUS
 10
-22.6421452208
 20
22.2921909122
 11
-22.6493132329
 21
22.2993589244
  0
LINE
  5
29B
100
AcDbEntity
  8
RACCORDO
100
AcDbLine
 62
253
  6
CONTINUOUS
 10
-25.9088892076
 20
25.5589958209
 11
-25.943017974
 21
25.5931245874
  0
LINE
  5
29C
100
AcDbEntity
  8
RACCORDO
100
AcDbLine
 62
253
  6
CONTINUOUS
 10
22.3485854258
 20
-22.5985397344
 11
22.3421909122
 21
-22.5921452208
  0
LINE
  5
29D
100
AcDbEntity
  8
RACCORDO
100
AcDbLine
 62
253
  6
CONTINUOUS
 10
-22.3421909122
 20
22.5921452208
 11
-22.3485854258
 21
22.5985397344
  0
LINE
  5
29E
100
AcDbEntity
  8
RACCORDO
100
AcDbLine
 62
253
  6
CONTINUOUS
 10
25.9088892076
 20
-25.5589958209
 11
25.943017974
 21
-25.5931245874
  0
LINE
  5
29F
100
AcDbEntity
  8
RACCORDO
100
AcDbLine
 62
253
  6
CONTINUOUS
 10
22.6493132329
 20
-22.2993589244
 11
22.6421452208
 21
-22.2921909122
  0
LINE
  5
2A0
100
AcDbEntity
  8
0
100
AcDbLine
 62
7
  6
CONTINUOUS
 10
2.505496876
 20
-23.6898838377
 11
2.505496876
 21
-25.7651743977
  0
LINE
  5
2A1
100
AcDbEntity
  8
0
100
AcDbLine
 62
7
  6
CONTINUOUS
 10
2.927514876
 20
-24.5995191431
 11
2.927514876
 21
-24.0230766618
  0
LINE
  5
2A2
100
AcDbEntity
  8
0
100
AcDbLine
 62
7
  6
CONTINUOUS
 10
2.9420487595
 20
-25.7651743977
 11
2.9420487595
 21
-24.943419487
  0
LINE
  5
2A3
100
AcDbEntity
  8
0
100
AcDbLine
 62
7
  6
CONTINUOUS
 10
3.6323846102
 20
-24.784995432
 11
3.6323846102
 21
-24.7725873061
  0
LINE
  5
2A4
100
AcDbEntity
  8
0
100
AcDbLine
 62
7
  6
CONTINUOUS
 10
-1.129234
 20
-25.765174
 11
-1.034645
 21
-24.394029
  0
LINE
  5
2A5
100
AcDbEntity
  8
0
100
AcDbLine
 62
7
  6
CONTINUOUS
 10
-1.358957
 20
-23.665351
 11
-1.548559
 21
-25.765174
  0
LINE
  5
2A6
100
AcDbEntity
  8
0
100
AcDbLine
 62
7
  6
CONTINUOUS
 10
-2.82351
 20
-23.665351
 11
-3.236001
 21
-25.110724
  0
LINE
  5
2A7
100
AcDbEntity
  8
0
100
AcDbLine
 62
7
  6
CONTINUOUS
 10
-3.060461
 20
-25.765174
 11
-2.385493
 21
-23.665351
  0
LINE
  5
2A8
100
AcDbEntity
  8
RACCORDO
100
AcDbLine
 62
253
  6
CONTINUOUS
 10
-25.2089958209
 20
-26.2588892076
 11
-25.2431245874
 21
-26.293017974
  0
LINE
  5
2A9
100
AcDbEntity
  8
RACCORDO
100
AcDbLine
 62
253
  6
CONTINUOUS
 10
-25.2089958209
 20
26.2588892076
 11
-25.2431245874
 21
26.293017974
  0
LINE
  5
2AA
100
AcDbEntity
  8
0
100
AcDbLine
 62
7
  6
CONTINUOUS
 10
1.29402
 20
-25.0216
 11
1.512264
 21
-24.242329
  0
LINE
  5
2AB
100
AcDbEntity
  8
0
100
AcDbLine
 62
7
  6
CONTINUOUS
 10
1.083412
 20
-25.765174
 11
1.20436
 21
-25.345975
  0
LINE
  5
2AC
100
AcDbEntity
  8
0
100
AcDbLine
 62
7
  6
CONTINUOUS
 10
1.308491
 20
-23.665351
 11
0.649852
 21
-25.765174
  0
LINE
  5
2AD
100
AcDbEntity
  8
0
100
AcDbLine
 62
7
  6
CONTINUOUS
 10
-0.049002
 20
-23.665351
 11
-0.487318
 21
-24.831179
  0
LINE
  5
2AE
100
AcDbEntity
  8
0
100
AcDbLine
 62
7
  6
CONTINUOUS
 10
-0.458975
 20
-25.765174
 11
0.062183
 21
-24.399745
  0
LINE
  5
2AF
100
AcDbEntity
  8
RACCORDO
100
AcDbLine
 62
253
  6
CONTINUOUS
 10
22.628435318
 20
23.1469038735
 11
22.3772146433
 21
22.6280795015
  0
LINE
  5
2B0
100
AcDbEntity
  8
RACCORDO
100
AcDbLine
 62
253
  6
CONTINUOUS
 10
22.9060434307
 20
22.8282269838
 11
22.6566937466
 21
22.3135245816
  0
LINE
  5
2B1
100
AcDbEntity
  8
RACCORDO
100
AcDbLine
 62
253
  6
CONTINUOUS
 10
22.6284013657
 20
-23.1469038735
 11
22.3771335321
 21
-22.6280818721
  0
LINE
  5
2B2
100
AcDbEntity
  8
RACCORDO
100
AcDbLine
 62
253
  6
CONTINUOUS
 10
22.9060434307
 20
-22.8282584332
 11
22.6566937465
 21
-22.3135245877
  0
LINE
  5
2B3
100
AcDbEntity
  8
RACCORDO
100
AcDbLine
 62
253
  6
CONTINUOUS
 10
22.3485854258
 20
22.5985397344
 11
22.3485854258
 21
22.6286172716
  0
LINE
  5
2B4
100
AcDbEntity
  8
RACCORDO
100
AcDbLine
 62
253
  6
CONTINUOUS
 10
22.3485854258
 20
-22.5985397344
 11
22.3485854232
 21
-22.6286172712
  0
LINE
  5
2B5
100
AcDbEntity
  8
RACCORDO
100
AcDbLine
 62
253
  6
CONTINUOUS
 10
22.628414217
 20
23.4288116597
 11
22.628414217
 21
23.1469038735
  0
LINE
  5
2B6
100
AcDbEntity
  8
RACCORDO
100
AcDbLine
 62
253
  6
CONTINUOUS
 10
22.628414217
 20
-23.4288116597
 11
22.628414217
 21
-23.1469038735
  0
LINE
  5
2B7
100
AcDbEntity
  8
RACCORDO
100
AcDbLine
 62
7
  6
CONTINUOUS
 10
22.6421452208
 20
22.2921909122
 11
22.6421452208
 21
-22.2921909122
  0
LINE
  5
2B8
100
AcDbEntity
  8
RACCORDO
100
AcDbLine
 62
253
  6
CONTINUOUS
 10
22.6493132329
 20
-22.2993589244
 11
22.6493132329
 21
22.2993589244
  0
LINE
  5
2B9
100
AcDbEntity
  8
RACCORDO
100
AcDbLine
 62
253
  6
CONTINUOUS
 10
22.656833204
 20
-22.2993589244
 11
22.656833204
 21
22.2993589244
  0
LINE
  5
2BA
100
AcDbEntity
  8
RACCORDO
100
AcDbLine
 62
253
  6
CONTINUOUS
 10
22.9060434307
 20
22.8282269838
 11
22.9060434307
 21
-22.8282584332
  0
LINE
  5
2BB
100
AcDbEntity
  8
RACCORDO
100
AcDbLine
 62
253
  6
CONTINUOUS
 10
-22.6493132329
 20
22.2993589244
 11
-22.656833204
 21
22.2993589244
  0
LINE
  5
2BC
100
AcDbEntity
  8
RACCORDO
100
AcDbLine
 62
253
  6
CONTINUOUS
 10
22.6493132329
 20
22.2993589244
 11
22.656833204
 21
22.2993589244
  0
LINE
  5
2BD
100
AcDbEntity
  8
RACCORDO
100
AcDbLine
 62
7
  6
CONTINUOUS
 10
-22.3421909122
 20
22.5921452208
 11
22.3421909122
 21
22.5921452208
  0
LINE
  5
2BE
100
AcDbEntity
  8
RACCORDO
100
AcDbLine
 62
253
  6
CONTINUOUS
 10
22.3485854258
 20
22.5985397344
 11
-22.3485854258
 21
22.5985397344
  0
LINE
  5
2BF
100
AcDbEntity
  8
RACCORDO
100
AcDbLine
 62
253
  6
CONTINUOUS
 10
22.3485854258
 20
22.6286172716
 11
-22.3485854258
 21
22.6286172716
  0
LINE
  5
2C0
100
AcDbEntity
  8
RACCORDO
100
AcDbLine
 62
253
  6
CONTINUOUS
 10
-23.2014857566
 20
22.828226657
 11
-22.9060434307
 21
22.828226657
  0
LINE
  5
2C1
100
AcDbEntity
  8
RACCORDO
100
AcDbLine
 62
253
  6
CONTINUOUS
 10
23.2014857566
 20
22.828226657
 11
22.9060434307
 21
22.828226657
  0
LINE
  5
2C2
100
AcDbEntity
  8
RACCORDO
100
AcDbLine
 62
253
  6
CONTINUOUS
 10
23.2014857566
 20
22.828226657
 11
23.2014857566
 21
-22.828226657
  0
LINE
  5
2C3
100
AcDbEntity
  8
RACCORDO
100
AcDbLine
 62
253
  6
CONTINUOUS
 10
25.2089958196
 20
26.2588892076
 11
25.2089958209
 21
25.958934899
  0
LINE
  5
2C4
100
AcDbEntity
  8
RACCORDO
100
AcDbLine
 62
253
  6
CONTINUOUS
 10
25.208995819
 20
-26.2588892076
 11
25.2089958209
 21
-25.958934899
  0
LINE
  5
2C5
100
AcDbEntity
  8
RACCORDO
100
AcDbLine
 62
253
  6
CONTINUOUS
 10
25.608934899
 20
-25.5589958209
 11
25.608934899
 21
25.5622249503
  0
LINE
  5
2C6
100
AcDbEntity
  8
RACCORDO
100
AcDbLine
 62
253
  6
CONTINUOUS
 10
25.9088892076
 20
-25.5589958209
 11
25.9088892076
 21
25.5589958209
  0
LINE
  5
2C7
100
AcDbEntity
  8
RACCORDO
100
AcDbLine
 62
7
  6
CONTINUOUS
 10
25.943017974
 20
-25.5931245874
 11
25.943017974
 21
25.5931245874
  0
LINE
  5
2C8
100
AcDbEntity
  8
SMUSSO
100
AcDbLine
 62
7
  6
CONTINUOUS
 10
46.35
 20
47.35
 11
45.9357864376
 21
46.35
  0
LINE
  5
2C9
100
AcDbEntity
  8
SMUSSO
100
AcDbLine
 62
7
  6
CONTINUOUS
 10
-47.35
 20
-46.35
 11
-46.35
 21
-45.9357864376
  0
LINE
  5
2CA
100
AcDbEntity
  8
RACCORDO
100
AcDbLine
 62
253
  6
CONTINUOUS
 10
-22.6284262722
 20
23.1469038735
 11
22.628435318
 21
23.1469038735
  0
LINE
  5
2CB
100
AcDbEntity
  8
RACCORDO
100
AcDbLine
 62
253
  6
CONTINUOUS
 10
-22.628414217
 20
23.4288116597
 11
22.628414217
 21
23.4288116597
  0
LINE
  5
2CC
100
AcDbEntity
  8
RACCORDO
100
AcDbLine
 62
253
  6
CONTINUOUS
 10
-25.9088892076
 20
25.5589958196
 11
-25.608934899
 21
25.5589958209
  0
LINE
  5
2CD
100
AcDbEntity
  8
RACCORDO
100
AcDbLine
 62
253
  6
CONTINUOUS
 10
25.9088892076
 20
25.558995819
 11
25.608934899
 21
25.5589958209
  0
LINE
  5
2CE
100
AcDbEntity
  8
RACCORDO
100
AcDbLine
 62
253
  6
CONTINUOUS
 10
25.2089958209
 20
25.958934899
 11
-25.2122249614
 21
25.958934899
  0
LINE
  5
2CF
100
AcDbEntity
  8
RACCORDO
100
AcDbLine
 62
253
  6
CONTINUOUS
 10
25.2089958209
 20
26.2588892076
 11
-25.2089958209
 21
26.2588892076
  0
LINE
  5
2D0
100
AcDbEntity
  8
RACCORDO
100
AcDbLine
 62
7
  6
CONTINUOUS
 10
25.2431245874
 20
26.293017974
 11
-25.2431245874
 21
26.293017974
  0
LINE
  5
2D1
100
AcDbEntity
  8
SMUSSO
100
AcDbLine
 62
7
  6
CONTINUOUS
 10
-47.35
 20
46.35
 11
-46.35
 21
45.9357864376
  0
LINE
  5
2D2
100
AcDbEntity
  8
SMUSSO
100
AcDbLine
 62
7
  6
CONTINUOUS
 10
46.35
 20
-47.35
 11
45.9357864376
 21
-46.35
  0
LINE
  5
2D3
100
AcDbEntity
  8
SMUSSO
100
AcDbLine
 62
7
  6
CONTINUOUS
 10
46.35
 20
-45.9357864376
 11
46.35
 21
45.9357864376
  0
LINE
  5
2D4
100
AcDbEntity
  8
SMUSSO
100
AcDbLine
 62
7
  6
CONTINUOUS
 10
47.35
 20
-46.35
 11
47.35
 21
46.35
  0
LINE
  5
2D5
100
AcDbEntity
  8
SMUSSO
100
AcDbLine
 62
7
  6
CONTINUOUS
 10
45.9357864376
 20
46.35
 11
-45.9357864376
 21
46.35
  0
LINE
  5
2D6
100
AcDbEntity
  8
SMUSSO
100
AcDbLine
 62
7
  6
CONTINUOUS
 10
46.35
 20
47.35
 11
-46.35
 21
47.35
  0
LINE
  5
2D7
100
AcDbEntity
  8
SMUSSO
100
AcDbLine
 62
7
  6
CONTINUOUS
 10
45.9357864376
 20
-46.35
 11
46.35
 21
-45.9357864376
  0
LINE
  5
2D8
100
AcDbEntity
  8
SMUSSO
100
AcDbLine
 62
7
  6
CONTINUOUS
 10
46.35
 20
-47.35
 11
47.35
 21
-46.35
  0
LINE
  5
2D9
100
AcDbEntity
  8
SMUSSO
100
AcDbLine
 62
7
  6
CONTINUOUS
 10
46.35
 20
45.9357864376
 11
45.9357864376
 21
46.35
  0
LINE
  5
2DA
100
AcDbEntity
  8
SMUSSO
100
AcDbLine
 62
7
  6
CONTINUOUS
 10
47.35
 20
46.35
 11
46.35
 21
47.35
  0
LINE
  5
2DB
100
AcDbEntity
  8
SMUSSO
100
AcDbLine
 62
7
  6
CONTINUOUS
 10
-77.0649079067
 20
-47.35
 11
-73.6149079067
 21
-47.35
  0
LINE
  5
2DC
100
AcDbEntity
  8
RACCORDO
100
AcDbLine
 62
7
  6
CONTINUOUS
 10
-73.1149079067
 20
-45.3273084156
 11
-72.1149079067
 21
-45.3098533507
  0
LINE
  5
2DD
100
AcDbEntity
  8
SMUSSO
100
AcDbLine
 62
7
  6
CONTINUOUS
 10
-77.0649079067
 20
-46.35
 11
-73.6149079067
 21
-46.35
  0
LINE
  5
2DE
100
AcDbEntity
  8
SMUSSO
100
AcDbLine
 62
7
  6
CONTINUOUS
 10
-77.0649079067
 20
46.35
 11
-78.0649079067
 21
45.9357864376
  0
LINE
  5
2DF
100
AcDbEntity
  8
RACCORDO
100
AcDbLine
 62
253
  6
CONTINUOUS
 10
-73.1149079067
 20
-43.3276130253
 11
-72.1149079067
 21
-43.3101579604
  0
LINE
  5
2E0
100
AcDbEntity
  8
SMUSSO
100
AcDbLine
 62
7
  6
CONTINUOUS
 10
-77.0649079067
 20
-46.35
 11
-78.0649079067
 21
-45.9357864376
  0
LINE
  5
2E1
100
AcDbEntity
  8
SMUSSO
100
AcDbLine
 62
7
  6
CONTINUOUS
 10
-77.0649079067
 20
47.35
 11
-78.0649079067
 21
46.35
  0
LINE
  5
2E2
100
AcDbEntity
  8
SMUSSO
100
AcDbLine
 62
7
  6
CONTINUOUS
 10
-77.0649079067
 20
-47.35
 11
-78.0649079067
 21
-46.35
  0
LINE
  5
2E3
100
AcDbEntity
  8
ASSI
100
AcDbLine
 62
7
  6
CONTINUOUS
 10
-70.4149079067
 20
-26.35
 11
-72.1149079067
 21
-26.3598903107
  0
LINE
  5
2E4
100
AcDbEntity
  8
DRAFT
100
AcDbLine
 62
7
  6
CONTINUOUS
 10
-72.1149079067
 20
-27.1459857386
 11
-70.4149079067
 21
-27.1430186759
  0
LINE
  5
2E5
100
AcDbEntity
  8
DRAFT
100
AcDbLine
 62
253
  6
CONTINUOUS
 10
-72.1149079067
 20
-26.8937435176
 11
-70.4149079067
 21
-26.8929755853
  0
LINE
  5
2E6
100
AcDbEntity
  8
0
100
AcDbLine
 62
7
  6
CONTINUOUS
 10
-80.3149079067
 20
-25.7651743977
 11
-80.5149079067
 21
-25.7651743977
  0
LINE
  5
2E7
100
AcDbEntity
  8
RACCORDO
100
AcDbLine
 62
253
  6
CONTINUOUS
 10
-80.0201436286
 20
-25.5589958196
 11
-80.3149079067
 21
-25.5589958209
  0
LINE
  5
2E8
100
AcDbEntity
  8
ASSI
100
AcDbLine
 62
7
  6
CONTINUOUS
 10
-70.6149079067
 20
-25.2
 11
-72.1149079067
 21
-25.2
  0
LINE
  5
2E9
100
AcDbEntity
  8
0
100
AcDbLine
 62
253
  6
CONTINUOUS
 10
-80.3149079067
 20
-25.1968412881
 11
-80.5149079067
 21
-25.1968412881
  0
LINE
  5
2EA
100
AcDbEntity
  8
ASSI
100
AcDbLine
 62
7
  6
CONTINUOUS
 10
-71.9649079067
 20
-25.05
 11
-71.7649079067
 21
-25.05
  0
LINE
  5
2EB
100
AcDbEntity
  8
ASSI
100
AcDbLine
 62
7
  6
CONTINUOUS
 10
-71.4649079067
 20
-25.05
 11
-71.2649079067
 21
-25.05
  0
LINE
  5
2EC
100
AcDbEntity
  8
ASSI
100
AcDbLine
 62
7
  6
CONTINUOUS
 10
-70.9649079067
 20
-25.05
 11
-70.7649079067
 21
-25.05
  0
LINE
  5
2ED
100
AcDbEntity
  8
RACCORDO
100
AcDbLine
 62
7
  6
CONTINUOUS
 10
-80.0201436286
 20
-26.2588892076
 11
-78.0649079067
 21
-26.293017974
  0
LINE
  5
2EE
100
AcDbEntity
  8
RACCORDO
100
AcDbLine
 62
253
  6
CONTINUOUS
 10
-80.0201436286
 20
-25.5589958209
 11
-78.0649079067
 21
-25.5931245874
  0
LINE
  5
2EF
100
AcDbEntity
  8
ASSI
100
AcDbLine
 62
7
  6
CONTINUOUS
 10
-70.6044407155
 20
-25.7916264167
 11
-72.1149079067
 21
-25.7248937867
  0
LINE
  5
2F0
100
AcDbEntity
  8
0
100
AcDbLine
 62
7
  6
CONTINUOUS
 10
-80.3149079067
 20
-24.784995432
 11
-80.5149079067
 21
-24.784995432
  0
LINE
  5
2F1
100
AcDbEntity
  8
0
100
AcDbLine
 62
7
  6
CONTINUOUS
 10
-80.3149079067
 20
-24.7725873061
 11
-80.5149079067
 21
-24.7725873061
  0
LINE
  5
2F2
100
AcDbEntity
  8
0
100
AcDbLine
 62
253
  6
CONTINUOUS
 10
-80.3149079067
 20
-23.7119917169
 11
-80.5149079067
 21
-23.7119917169
  0
LINE
  5
2F3
100
AcDbEntity
  8
0
100
AcDbLine
 62
7
  6
CONTINUOUS
 10
-80.3149079067
 20
-23.6407136252
 11
-80.5149079067
 21
-23.6407136252
  0
LINE
  5
2F4
100
AcDbEntity
  8
ASSI
100
AcDbLine
 62
7
  6
CONTINUOUS
 10
-71.7649079067
 20
25.05
 11
-71.6149079067
 21
25.2
  0
LINE
  5
2F5
100
AcDbEntity
  8
ASSI
100
AcDbLine
 62
7
  6
CONTINUOUS
 10
-71.2649079067
 20
25.05
 11
-71.1149079067
 21
25.2
  0
LINE
  5
2F6
100
AcDbEntity
  8
ASSI
100
AcDbLine
 62
7
  6
CONTINUOUS
 10
-70.7649079067
 20
25.05
 11
-70.6149079067
 21
25.2
  0
LINE
  5
2F7
100
AcDbEntity
  8
ASSI
100
AcDbLine
 62
7
  6
CONTINUOUS
 10
-71.7649079067
 20
-25.05
 11
-71.6149079067
 21
-25.2
  0
LINE
  5
2F8
100
AcDbEntity
  8
ASSI
100
AcDbLine
 62
7
  6
CONTINUOUS
 10
-71.2649079067
 20
-25.05
 11
-71.1149079067
 21
-25.2
  0
LINE
  5
2F9
100
AcDbEntity
  8
ASSI
100
AcDbLine
 62
7
  6
CONTINUOUS
 10
-70.7649079067
 20
-25.05
 11
-70.6149079067
 21
-25.2
  0
LINE
  5
2FA
100
AcDbEntity
  8
0
100
AcDbLine
 62
7
  6
CONTINUOUS
 10
-80.5149079067
 20
-25.7651743977
 11
-80.5149079067
 21
-23.6407142115
  0
LINE
  5
2FB
100
AcDbEntity
  8
RACCORDO
100
AcDbLine
 62
7
  6
CONTINUOUS
 10
-80.3149079067
 20
-25.958934899
 11
-80.3149079067
 21
25.958934899
  0
LINE
  5
2FC
100
AcDbEntity
  8
RACCORDO
100
AcDbLine
 62
253
  6
CONTINUOUS
 10
-80.0201436286
 20
-25.5589958209
 11
-80.0201436286
 21
25.5589958209
  0
LINE
  5
2FD
100
AcDbEntity
  8
SMUSSO
100
AcDbLine
 62
7
  6
CONTINUOUS
 10
-78.0649079067
 20
-46.35
 11
-78.0649079067
 21
46.35
  0
LINE
  5
2FE
100
AcDbEntity
  8
SMUSSO
100
AcDbLine
 62
7
  6
CONTINUOUS
 10
-77.0649079067
 20
-47.35
 11
-77.0649079067
 21
47.35
  0
LINE
  5
2FF
100
AcDbEntity
  8
SMUSSO
100
AcDbLine
 62
7
  6
CONTINUOUS
 10
-73.6149079067
 20
47.35
 11
-73.6149079067
 21
-47.35
  0
LINE
  5
300
100
AcDbEntity
  8
SMUSSO
100
AcDbLine
 62
7
  6
CONTINUOUS
 10
-73.1149079067
 20
46.85
 11
-73.1149079067
 21
-46.85
  0
LINE
  5
301
100
AcDbEntity
  8
RACCORDO
100
AcDbLine
 62
7
  6
CONTINUOUS
 10
-72.1149079067
 20
-45.3098533507
 11
-72.1149079067
 21
45.3098533507
  0
LINE
  5
302
100
AcDbEntity
  8
ASSI
100
AcDbLine
 62
253
  6
CONTINUOUS
 10
-70.6044407155
 20
25.7916264167
 11
-70.6044407155
 21
25.200274093
  0
LINE
  5
303
100
AcDbEntity
  8
ASSI
100
AcDbLine
 62
253
  6
CONTINUOUS
 10
-70.6044407155
 20
-25.200274093
 11
-70.6044407155
 21
-25.7916264167
  0
LINE
  5
304
100
AcDbEntity
  8
ASSI
100
AcDbLine
 62
7
  6
CONTINUOUS
 10
-70.4149079067
 20
-25.4
 11
-70.4149079067
 21
-26.35
  0
LINE
  5
305
100
AcDbEntity
  8
DRAFT
100
AcDbLine
 62
7
  6
CONTINUOUS
 10
-70.4149079067
 20
-26.35
 11
-70.4149079067
 21
-27.1430467116
  0
LINE
  5
306
100
AcDbEntity
  8
ASSI
100
AcDbLine
 62
7
  6
CONTINUOUS
 10
-70.4149079067
 20
25.4
 11
-70.4149079067
 21
26.35
  0
LINE
  5
307
100
AcDbEntity
  8
DRAFT
100
AcDbLine
 62
7
  6
CONTINUOUS
 10
-70.4149079067
 20
26.35
 11
-70.4149079067
 21
27.1430467116
  0
LINE
  5
308
100
AcDbEntity
  8
ASSI
100
AcDbLine
 62
7
  6
CONTINUOUS
 10
-72.1149079067
 20
-25.2
 11
-71.9649079067
 21
-25.05
  0
LINE
  5
309
100
AcDbEntity
  8
ASSI
100
AcDbLine
 62
7
  6
CONTINUOUS
 10
-71.6149079067
 20
-25.2
 11
-71.4649079067
 21
-25.05
  0
LINE
  5
30A
100
AcDbEntity
  8
ASSI
100
AcDbLine
 62
7
  6
CONTINUOUS
 10
-71.1149079067
 20
-25.2
 11
-70.9649079067
 21
-25.05
  0
LINE
  5
30B
100
AcDbEntity
  8
ASSI
100
AcDbLine
 62
7
  6
CONTINUOUS
 10
-72.1149079067
 20
25.2
 11
-71.9649079067
 21
25.05
  0
LINE
  5
30C
100
AcDbEntity
  8
ASSI
100
AcDbLine
 62
7
  6
CONTINUOUS
 10
-71.6149079067
 20
25.2
 11
-71.4649079067
 21
25.05
  0
LINE
  5
30D
100
AcDbEntity
  8
ASSI
100
AcDbLine
 62
7
  6
CONTINUOUS
 10
-71.1149079067
 20
25.2
 11
-70.9649079067
 21
25.05
  0
LINE
  5
30E
100
AcDbEntity
  8
ASSI
100
AcDbLine
 62
7
  6
CONTINUOUS
 10
-70.6044407155
 20
25.7916264167
 11
-72.1149079067
 21
25.7248937867
  0
LINE
  5
30F
100
AcDbEntity
  8
RACCORDO
100
AcDbLine
 62
253
  6
CONTINUOUS
 10
-80.0201436286
 20
25.5589958209
 11
-78.0649079067
 21
25.5931245874
  0
LINE
  5
310
100
AcDbEntity
  8
ASSI
100
AcDbLine
 62
7
  6
CONTINUOUS
 10
-71.9649079067
 20
25.05
 11
-71.7649079067
 21
25.05
  0
LINE
  5
311
100
AcDbEntity
  8
ASSI
100
AcDbLine
 62
7
  6
CONTINUOUS
 10
-71.4649079067
 20
25.05
 11
-71.2649079067
 21
25.05
  0
LINE
  5
312
100
AcDbEntity
  8
ASSI
100
AcDbLine
 62
7
  6
CONTINUOUS
 10
-70.9649079067
 20
25.05
 11
-70.7649079067
 21
25.05
  0
LINE
  5
313
100
AcDbEntity
  8
ASSI
100
AcDbLine
 62
7
  6
CONTINUOUS
 10
-70.6149079067
 20
25.2
 11
-72.1149079067
 21
25.2
  0
LINE
  5
314
100
AcDbEntity
  8
RACCORDO
100
AcDbLine
 62
253
  6
CONTINUOUS
 10
-80.0201436286
 20
25.558995819
 11
-80.3149079067
 21
25.5589958209
  0
LINE
  5
315
100
AcDbEntity
  8
RACCORDO
100
AcDbLine
 62
7
  6
CONTINUOUS
 10
-80.0201436286
 20
26.2588892076
 11
-78.0649079067
 21
26.293017974
  0
LINE
  5
316
100
AcDbEntity
  8
DRAFT
100
AcDbLine
 62
253
  6
CONTINUOUS
 10
-70.4149079067
 20
26.8929755853
 11
-72.1149079067
 21
26.8937435176
  0
LINE
  5
317
100
AcDbEntity
  8
DRAFT
100
AcDbLine
 62
7
  6
CONTINUOUS
 10
-72.1149079067
 20
27.1459857386
 11
-70.4149079067
 21
27.1430186759
  0
LINE
  5
318
100
AcDbEntity
  8
ASSI
100
AcDbLine
 62
7
  6
CONTINUOUS
 10
-70.4149079067
 20
26.35
 11
-72.1149079067
 21
26.3598903107
  0
LINE
  5
319
100
AcDbEntity
  8
SMUSSO
100
AcDbLine
 62
7
  6
CONTINUOUS
 10
-73.6149079067
 20
-47.35
 11
-73.1149079067
 21
-46.85
  0
LINE
  5
31A
100
AcDbEntity
  8
SMUSSO
100
AcDbLine
 62
7
  6
CONTINUOUS
 10
-73.6149079067
 20
47.35
 11
-73.1149079067
 21
46.85
  0
LINE
  5
31B
100
AcDbEntity
  8
SMUSSO
100
AcDbLine
 62
7
  6
CONTINUOUS
 10
-73.6149079067
 20
-46.35
 11
-73.1149079067
 21
-46.1428932188
  0
LINE
  5
31C
100
AcDbEntity
  8
SMUSSO
100
AcDbLine
 62
7
  6
CONTINUOUS
 10
-77.0649079067
 20
46.35
 11
-73.6149079067
 21
46.35
  0
LINE
  5
31D
100
AcDbEntity
  8
SMUSSO
100
AcDbLine
 62
7
  6
CONTINUOUS
 10
-77.0649079067
 20
47.35
 11
-73.6149079067
 21
47.35
  0
LINE
  5
31E
100
AcDbEntity
  8
RACCORDO
100
AcDbLine
 62
253
  6
CONTINUOUS
 10
-73.1149079067
 20
43.3276130253
 11
-72.1149079067
 21
43.3101579604
  0
LINE
  5
31F
100
AcDbEntity
  8
RACCORDO
100
AcDbLine
 62
7
  6
CONTINUOUS
 10
-73.1149079067
 20
45.3273084156
 11
-72.1149079067
 21
45.3098533507
  0
LINE
  5
320
100
AcDbEntity
  8
SMUSSO
100
AcDbLine
 62
7
  6
CONTINUOUS
 10
-73.6149079067
 20
46.35
 11
-73.1149079067
 21
46.1428932188
  0
ARC
  5
321
100
AcDbEntity
  8
RACCORDO
100
AcDbCircle
 62
253
  6
CONTINUOUS
 10
-22.3481928336
 20
21.8461340104
 40
0.7824833596
100
AcDbArc
 50
90.0287467845
 51
92.1202533316
  0
ARC
  5
322
100
AcDbEntity
  8
RACCORDO
100
AcDbCircle
 62
253
  6
CONTINUOUS
 10
22.3482429658
 20
-21.8489805769
 40
0.7796367699
100
AcDbArc
 50
270.0251675059
 51
272.1236640583
  0
ARC
  5
323
100
AcDbEntity
  8
RACCORDO
100
AcDbCircle
 62
253
  6
CONTINUOUS
 10
21.89858972
 20
-22.2989777221
 40
0.7582435798
100
AcDbArc
 50
358.9007158585
 51
359.9711949014
  0
ARC
  5
324
100
AcDbEntity
  8
RACCORDO
100
AcDbCircle
 62
253
  6
CONTINUOUS
 10
-21.9031127594
 20
22.2990222483
 40
0.7537205198
100
AcDbArc
 50
178.8975041154
 51
179.9744068002
  0
ARC
  5
325
100
AcDbEntity
  8
RACCORDO
100
AcDbCircle
 62
253
  6
CONTINUOUS
 10
-22.3488256748
 20
-21.8790729267
 40
0.7495443834
100
AcDbArc
 50
267.8294050908
 51
270.0183648229
  0
ARC
  5
326
100
AcDbEntity
  8
RACCORDO
100
AcDbCircle
 62
253
  6
CONTINUOUS
 10
22.3488256748
 20
21.8790729267
 40
0.7495443833
100
AcDbArc
 50
87.8294050907
 51
90.018364823
  0
ARC
  5
327
100
AcDbEntity
  8
RACCORDO
100
AcDbCircle
 62
253
  6
CONTINUOUS
 10
-21.9432908408
 20
-22.2994177915
 40
0.7135423656
100
AcDbArc
 50
179.9952731043
 51
181.1328159804
  0
ARC
  5
328
100
AcDbEntity
  8
RACCORDO
100
AcDbCircle
 62
253
  6
CONTINUOUS
 10
21.9432908409
 20
22.2994177915
 40
0.7135423655
100
AcDbArc
 50
359.9952731043
 51
1.1328159804
  0
ARC
  5
329
100
AcDbEntity
  8
RACCORDO
100
AcDbCircle
 62
253
  6
CONTINUOUS
 10
-25.208903789
 20
25.558903789
 40
0.6999862456
100
AcDbArc
 50
90.0075330706
 51
179.9924669294
  0
ARC
  5
32A
100
AcDbEntity
  8
RACCORDO
100
AcDbCircle
 62
253
  6
CONTINUOUS
 10
25.208903789
 20
25.558903789
 40
0.6999862456
100
AcDbArc
 50
0.0075330701
 51
89.9924669299
  0
ARC
  5
32B
100
AcDbEntity
  8
RACCORDO
100
AcDbCircle
 62
253
  6
CONTINUOUS
 10
25.208903789
 20
-25.558903789
 40
0.6999862456
100
AcDbArc
 50
270.0075330706
 51
359.9924669294
  0
ARC
  5
32C
100
AcDbEntity
  8
RACCORDO
100
AcDbCircle
 62
253
  6
CONTINUOUS
 10
-25.208903789
 20
-25.558903789
 40
0.6999862456
100
AcDbArc
 50
180.0075330706
 51
269.9924669294
  0
ARC
  5
32D
100
AcDbEntity
  8
RACCORDO
100
AcDbCircle
 62
253
  6
CONTINUOUS
 10
-22.3486975555
 20
22.3340255473
 40
0.2645142108
100
AcDbArc
 50
89.9757118726
 51
92.2877047219
  0
ARC
  5
32E
100
AcDbEntity
  8
RACCORDO
100
AcDbCircle
 62
253
  6
CONTINUOUS
 10
22.3487019579
 20
-22.3342484023
 40
0.2642913578
100
AcDbArc
 50
269.9747369958
 51
272.2886795019
  0
ARC
  5
32F
100
AcDbEntity
  8
RACCORDO
100
AcDbCircle
 62
253
  6
CONTINUOUS
 10
22.3487561979
 20
22.3369940929
 40
0.2615456972
100
AcDbArc
 50
87.6991731403
 51
90.0374103615
  0
ARC
  5
330
100
AcDbEntity
  8
RACCORDO
100
AcDbCircle
 62
253
  6
CONTINUOUS
 10
-22.3487561979
 20
-22.336994093
 40
0.2615456972
100
AcDbArc
 50
267.6991731401
 51
270.0374103618
  0
ARC
  5
331
100
AcDbEntity
  8
RACCORDO
100
AcDbCircle
 62
253
  6
CONTINUOUS
 10
-22.4162338679
 20
22.2994536209
 40
0.2330793843
100
AcDbArc
 50
178.71880479
 51
180.0232783828
  0
ARC
  5
332
100
AcDbEntity
  8
RACCORDO
100
AcDbCircle
 62
253
  6
CONTINUOUS
 10
22.416322912
 20
-22.2994545984
 40
0.2329903405
100
AcDbArc
 50
358.7185555087
 51
0.023527664
  0
ARC
  5
333
100
AcDbEntity
  8
RACCORDO
100
AcDbCircle
 62
253
  6
CONTINUOUS
 10
22.4194888647
 20
22.2994893537
 40
0.2298244053
100
AcDbArc
 50
359.9674836481
 51
1.2904331791
  0
ARC
  5
334
100
AcDbEntity
  8
RACCORDO
100
AcDbCircle
 62
253
  6
CONTINUOUS
 10
-22.4194888646
 20
-22.2994893537
 40
0.2298244053
100
AcDbArc
 50
179.9674836481
 51
181.290433179
  0
ARC
  5
335
100
AcDbEntity
  8
RACCORDO
100
AcDbCircle
 62
7
  6
CONTINUOUS
 10
-80.0149079067
 20
25.958934899
 40
0.3
100
AcDbArc
 50
91.0
 51
180.0
  0
ARC
  5
336
100
AcDbEntity
  8
RACCORDO
100
AcDbCircle
 62
7
  6
CONTINUOUS
 10
-80.0149079067
 20
-25.958934899
 40
0.3
100
AcDbArc
 50
180.0
 51
269.0
  0
ARC
  5
337
100
AcDbEntity
  8
ASSI
100
AcDbCircle
 62
7
  6
CONTINUOUS
 10
-70.6149079067
 20
-25.4
 40
0.2
100
AcDbArc
 50
0.0
 51
90.0
  0
ARC
  5
338
100
AcDbEntity
  8
ASSI
100
AcDbCircle
 62
7
  6
CONTINUOUS
 10
-70.6149079067
 20
25.4
 40
0.2
100
AcDbArc
 50
270.0
 51
360.0
  0
SPLINE
  5
339
100
AcDbEntity
  8
0
100
AcDbSpline
 62
7
  6
CONTINUOUS
 70
0
 71
3
 72
9
 73
5
 74
3
 42
0.0000001
 43
0.0000001
 44
0.0000000001
 12
0.384402302
 22
-0.0446290201
 32
0.0
 13
0.0060518841
 23
-0.3869370154
 33
0.0
 40
0.0
 40
0.0
 40
0.0
 40
0.0
 40
0.5013510385
 40
1.0
 40
1.0
 40
1.0
 40
1.0
 10
3.2708955903
 20
-24.0107157749
 30
0.0
 10
3.3351357547
 20
-24.0181740434
 30
0.0
 10
3.4650689916
 20
-24.0747468423
 30
0.0
 10
3.5174853189
 20
-24.2088922282
 30
0.0
 10
3.5184912408
 20
-24.2732074751
 30
0.0
 11
3.2708955903
 21
-24.0107157749
 31
0.0
 11
3.445935984
 21
-24.0943977982
 31
0.0
 11
3.5184912408
 21
-24.2732074751
 31
0.0
  0
SPLINE
  5
33A
100
AcDbEntity
  8
0
100
AcDbSpline
 62
7
  6
CONTINUOUS
 70
0
 71
3
 72
9
 73
5
 74
3
 42
0.0000001
 43
0.0000001
 44
0.0000000001
 12
0.0080713833
 22
-0.5230864262
 32
0.0
 13
-0.5230182478
 23
-0.0116819936
 33
0.0
 40
0.0
 40
0.0
 40
0.0
 40
0.0
 40
0.5206208722
 40
1.0
 40
1.0
 40
1.0
 40
1.0
 10
3.5184912408
 20
-24.2732074751
 30
0.0
 10
3.519891951
 20
-24.3639840456
 30
0.0
 10
3.4557627102
 20
-24.5622845708
 30
0.0
 10
3.2615825326
 20
-24.5976524418
 30
0.0
 10
3.1780078554
 20
-24.5995191431
 30
0.0
 11
3.5184912408
 21
-24.2732074751
 31
0.0
 11
3.4178681102
 21
-24.5263005711
 31
0.0
 11
3.1780078554
 21
-24.5995191431
 31
0.0
  0
SPLINE
  5
33B
100
AcDbEntity
  8
0
100
AcDbSpline
 62
7
  6
CONTINUOUS
 70
0
 71
3
 72
9
 73
5
 74
3
 42
0.0000001
 43
0.0000001
 44
0.0000000001
 12
0.3394200167
 22
0.0579167448
 32
0.0
 13
0.3420295105
 23
-0.0397002646
 33
0.0
 40
0.0
 40
0.0
 40
0.0
 40
0.0
 40
0.2703953699
 40
1.0
 40
1.0
 40
1.0
 40
1.0
 10
2.927514876
 20
-24.0230766618
 30
0.0
 10
2.9581074096
 20
-24.0178565219
 30
0.0
 10
3.0716013975
 20
-24.0006878979
 30
0.0
 10
3.1877134854
 20
-24.0010606092
 30
0.0
 10
3.2708955903
 20
-24.0107157749
 30
0.0
 11
2.927514876
 21
-24.0230766618
 31
0.0
 11
3.0196753261
 21
-24.0098544002
 31
0.0
 11
3.2708955903
 21
-24.0107157749
 31
0.0
  0
SPLINE
  5
33C
100
AcDbEntity
  8
0
100
AcDbSpline
 62
7
  6
CONTINUOUS
 70
0
 71
3
 72
9
 73
5
 74
3
 42
0.0000001
 43
0.0000001
 44
0.0000000001
 12
0.3219543356
 22
0.0
 32
0.0
 13
0.1131217834
 23
-0.3014267015
 33
0.0
 40
0.0
 40
0.0
 40
0.0
 40
0.0
 40
0.3559141631
 40
1.0
 40
1.0
 40
1.0
 40
1.0
 10
3.1770630743
 20
-24.943419487
 30
0.0
 10
3.2152591102
 20
-24.943419487
 30
0.0
 10
3.3251388628
 20
-24.9665483985
 30
0.0
 10
3.3973172195
 20
-25.063724242
 30
0.0
 10
3.4216039324
 20
-25.1284391318
 30
0.0
 11
3.1770630743
 21
-24.943419487
 31
0.0
 11
3.2886988103
 21
-24.9692631885
 31
0.0
 11
3.4216039324
 21
-25.1284391318
 31
0.0
  0
SPLINE
  5
33D
100
AcDbEntity
  8
0
100
AcDbSpline
 62
7
  6
CONTINUOUS
 70
0
 71
3
 72
9
 73
5
 74
3
 42
0.0000001
 43
0.0000001
 44
0.0000000001
 12
0.2338635552
 22
-0.622497147
 32
0.0
 13
0.1837405462
 23
-0.6390886262
 33
0.0
 40
0.0
 40
0.0
 40
0.0
 40
0.0
 40
0.5586214172
 40
1.0
 40
1.0
 40
1.0
 40
1.0
 10
3.4216039324
 20
-25.1284391318
 30
0.0
 10
3.4651509959
 20
-25.2443525446
 30
0.0
 10
3.522419256
 20
-25.4589914658
 30
0.0
 10
3.5862354907
 20
-25.6711477203
 30
0.0
 10
3.613268538
 20
-25.7651743977
 30
0.0
 11
3.4216039324
 21
-25.1284391318
 31
0.0
 11
3.5311768963
 21
-25.4833816056
 31
0.0
 11
3.613268538
 21
-25.7651743977
 31
0.0
  0
SPLINE
  5
33E
100
AcDbEntity
  8
0
100
AcDbSpline
 62
7
  6
CONTINUOUS
 70
0
 71
3
 72
9
 73
5
 74
3
 42
0.0000001
 43
0.0000001
 44
0.0000000001
 12
-0.1540517408
 22
0.5672067283
 32
0.0
 13
-0.1544993035
 23
0.5670849819
 33
0.0
 40
0.0
 40
0.0
 40
0.0
 40
0.0
 40
0.1980141723
 40
1.0
 40
1.0
 40
1.0
 40
1.0
 10
4.0348771327
 20
-25.7651743977
 30
0.0
 10
4.0247089901
 20
-25.7277360741
 30
0.0
 10
3.974940488
 20
-25.5382421876
 30
0.0
 10
3.926336924
 20
-25.3484393276
 30
0.0
 10
3.88503484
 20
-25.1968412881
 30
0.0
 11
4.0348771327
 21
-25.7651743977
 31
0.0
 11
4.0050449294
 21
-25.6526790092
 31
0.0
 11
3.88503484
 21
-25.1968412881
 31
0.0
  0
SPLINE
  5
33F
100
AcDbEntity
  8
0
100
AcDbSpline
 62
7
  6
CONTINUOUS
 70
0
 71
3
 72
9
 73
5
 74
3
 42
0.0000001
 43
0.0000001
 44
0.0000000001
 12
-0.1285164
 22
0.4717407948
 32
0.0
 13
-0.4541587339
 23
0.1810957951
 33
0.0
 40
0.0
 40
0.0
 40
0.0
 40
0.0
 40
0.2426586216
 40
1.0
 40
1.0
 40
1.0
 40
1.0
 10
3.88503484
 20
-25.1968412881
 30
0.0
 10
3.8746396359
 20
-25.1586839644
 30
0.0
 10
3.8349315603
 20
-25.0045953927
 30
0.0
 10
3.7470356774
 20
-24.8307125451
 30
0.0
 10
3.6323846102
 20
-24.784995432
 30
0.0
 11
3.88503484
 21
-25.1968412881
 31
0.0
 11
3.8525311695
 21
-25.0827365731
 31
0.0
 11
3.6323846102
 21
-24.784995432
 31
0.0
  0
SPLINE
  5
340
100
AcDbEntity
  8
0
100
AcDbSpline
 62
7
  6
CONTINUOUS
 70
0
 71
3
 72
17
 73
13
 74
11
 42
0.0000001
 43
0.0000001
 44
0.0000000001
 12
1.2974582446
 22
0.167413967
 32
0.0
 13
-1.2305868136
 23
0.4439385397
 33
0.0
 40
0.0
 40
0.0
 40
0.0
 40
0.0
 40
0.0559780952
 40
0.1687540387
 40
0.321006234
 40
0.4122750837
 40
0.516613223
 40
0.6013931059
 40
0.6776022439
 40
0.8103422694
 40
0.9200404832
 40
1.0
 40
1.0
 40
1.0
 40
1.0
 10
3.6323846102
 20
-24.7725873061
 30
0.0
 10
3.6565943573
 20
-24.7694634678
 30
0.0
 10
3.7181324038
 20
-24.7209973091
 30
0.0
 10
3.8201860891
 20
-24.6286072901
 30
0.0
 10
3.8953301556
 20
-24.4863871999
 30
0.0
 10
3.9288051152
 20
-24.3380194545
 30
0.0
 10
3.9319500205
 20
-24.2148773229
 30
0.0
 10
3.9153760191
 20
-24.0998635709
 30
0.0
 10
3.8752063301
 20
-23.9776524871
 30
0.0
 10
3.7997594339
 20
-23.8578829609
 30
0.0
 10
3.693234287
 20
-23.764220045
 30
0.0
 10
3.6199916202
 20
-23.7238240873
 30
0.0
 10
3.5871925779
 20
-23.7119917169
 30
0.0
 11
3.6323846102
 21
-24.7725873061
 31
0.0
 11
3.6965524739
 21
-24.7372982534
 31
0.0
 11
3.8025003321
 21
-24.6346256365
 31
0.0
 11
3.8972761531
 21
-24.4594410653
 31
0.0
 11
3.9239270396
 21
-24.3430541748
 31
0.0
 11
3.9279279049
 21
-24.2066161494
 31
0.0
 11
3.9115237729
 21
-24.0969257029
 31
0.0
 11
3.8801574073
 21
-24.002290492
 31
0.0
 11
3.7874979945
 21
-23.8554252441
 31
0.0
 11
3.6798697052
 21
-23.7604993407
 31
0.0
 11
3.5871925779
 21
-23.7119917169
 31
0.0
  0
SPLINE
  5
341
100
AcDbEntity
  8
0
100
AcDbSpline
 62
7
  6
CONTINUOUS
 70
0
 71
3
 72
9
 73
5
 74
3
 42
0.0000001
 43
0.0000001
 44
0.0000000001
 12
-1.0242753953
 22
0.3700472763
 32
0.0
 13
-1.0774730544
 23
-0.1585146335
 33
0.0
 40
0.0
 40
0.0
 40
0.0
 40
0.0
 40
0.2957417834
 40
1.0
 40
1.0
 40
1.0
 40
1.0
 10
3.5871925779
 20
-23.7119917169
 30
0.0
 10
3.4862189005
 20
-23.6755122365
 30
0.0
 10
3.1232796563
 20
-23.616048509
 30
0.0
 10
2.7584366266
 20
-23.6526720933
 30
0.0
 10
2.505496876
 20
-23.6898838377
 30
0.0
 11
3.5871925779
 21
-23.7119917169
 31
0.0
 11
3.2713797906
 21
-23.6487445228
 31
0.0
 11
2.505496876
 21
-23.6898838377
 31
0.0
  0
SPLINE
  5
342
100
AcDbEntity
  8
RACCORDO
100
AcDbSpline
 62
253
  6
CONTINUOUS
 70
0
 71
3
 72
9
 73
5
 74
3
 42
0.0000001
 43
0.0000001
 44
0.0000000001
 12
0.0016454234
 22
-0.0116721833
 32
0.0
 13
0.0098680424
 23
-0.0064474042
 33
0.0
 40
0.0
 40
0.0
 40
0.0
 40
0.0
 40
0.1960236876
 40
1.0
 40
1.0
 40
1.0
 40
1.0
 10
22.6492543307
 20
-22.3046650807
 30
0.0
 10
22.6493618447
 20
-22.3054277555
 30
0.0
 10
22.6506646526
 20
-22.3092195421
 30
0.0
 10
22.6540533941
 20
-22.31179673
 30
0.0
 10
22.6566979515
 20
-22.3135245834
 30
0.0
 11
22.6492543307
 21
-22.3046650807
 31
0.0
 11
22.6499527597
 21
-22.3068676441
 31
0.0
 11
22.6566979515
 21
-22.3135245834
 31
0.0
  0
SPLINE
  5
343
100
AcDbEntity
  8
RACCORDO
100
AcDbSpline
 62
253
  6
CONTINUOUS
 70
0
 71
3
 72
9
 73
5
 74
3
 42
0.0000001
 43
0.0000001
 44
0.0000000001
 12
0.0350776438
 22
-0.0048684521
 32
0.0
 13
0.0108153484
 23
-0.0337219685
 33
0.0
 40
0.0
 40
0.0
 40
0.0
 40
0.0
 40
0.337105154
 40
1.0
 40
1.0
 40
1.0
 40
1.0
 10
22.3592561094
 20
-22.598324448
 30
0.0
 10
22.3631977276
 20
-22.5988715081
 30
0.0
 10
22.3711082388
 20
-22.6102097769
 30
0.0
 10
22.374679637
 20
-22.6206289379
 30
0.0
 10
22.3770694499
 20
-22.628080311
 30
0.0
 11
22.3592561094
 21
-22.598324448
 31
0.0
 11
22.3680379795
 21
-22.6064114385
 31
0.0
 11
22.3770694499
 21
-22.628080311
 31
0.0
  0
SPLINE
  5
344
100
AcDbEntity
  8
RACCORDO
100
AcDbSpline
 62
253
  6
CONTINUOUS
 70
0
 71
3
 72
9
 73
5
 74
3
 42
0.0000001
 43
0.0000001
 44
0.0000000001
 12
-0.0350782653
 22
-0.0048739408
 32
0.0
 13
-0.0108183144
 23
-0.0337224564
 33
0.0
 40
0.0
 40
0.0
 40
0.0
 40
0.0
 40
0.3370815637
 40
1.0
 40
1.0
 40
1.0
 40
1.0
 10
-22.3592562472
 20
-22.5983283827
 30
0.0
 10
-22.3631976594
 20
-22.5988760212
 30
0.0
 10
-22.3711061254
 20
-22.6102162044
 30
0.0
 10
-22.3746788942
 20
-22.6206349002
 30
0.0
 10
-22.3770694476
 20
-22.6280866462
 30
0.0
 11
-22.3592562472
 21
-22.5983283827
 31
0.0
 11
-22.3680366164
 21
-22.6064164515
 31
0.0
 11
-22.3770694476
 21
-22.6280866462
 31
0.0
  0
SPLINE
  5
345
100
AcDbEntity
  8
RACCORDO
100
AcDbSpline
 62
253
  6
CONTINUOUS
 70
0
 71
3
 72
9
 73
5
 74
3
 42
0.0000001
 43
0.0000001
 44
0.0000000001
 12
-0.0016419121
 22
-0.0116767679
 32
0.0
 13
-0.0098749389
 23
-0.0064442506
 33
0.0
 40
0.0
 40
0.0
 40
0.0
 40
0.0
 40
0.1959560346
 40
1.0
 40
1.0
 40
1.0
 40
1.0
 10
-22.6492723134
 20
-22.3046654041
 30
0.0
 10
-22.6493795609
 20
-22.3054281151
 30
0.0
 10
-22.6506828136
 20
-22.3092214601
 30
0.0
 10
-22.6540751595
 20
-22.3117974471
 30
0.0
 10
-22.6567217878
 20
-22.3135246007
 30
0.0
 11
-22.6492723134
 21
-22.3046654041
 31
0.0
 11
-22.64997054
 21
-22.3068680278
 31
0.0
 11
-22.6567217878
 21
-22.3135246007
 31
0.0
  0
SPLINE
  5
346
100
AcDbEntity
  8
RACCORDO
100
AcDbSpline
 62
253
  6
CONTINUOUS
 70
0
 71
3
 72
9
 73
5
 74
3
 42
0.0000001
 43
0.0000001
 44
0.0000000001
 12
-0.0016437748
 22
0.0116712955
 32
0.0
 13
-0.0098674174
 23
0.006446333
 33
0.0
 40
0.0
 40
0.0
 40
0.0
 40
0.0
 40
0.1960788747
 40
1.0
 40
1.0
 40
1.0
 40
1.0
 10
-22.6492545908
 20
22.3046650852
 30
0.0
 10
-22.6493620273
 20
22.3054279167
 30
0.0
 10
-22.6506638389
 20
22.3092196338
 30
0.0
 10
-22.6540521118
 20
22.3117971352
 30
0.0
 10
-22.6566963202
 20
22.313524583
 30
0.0
 11
-22.6492545908
 21
22.3046650852
 31
0.0
 11
-22.6499527608
 21
22.3068681851
 31
0.0
 11
-22.6566963202
 21
22.313524583
 31
0.0
  0
SPLINE
  5
347
100
AcDbEntity
  8
RACCORDO
100
AcDbSpline
 62
253
  6
CONTINUOUS
 70
0
 71
3
 72
9
 73
5
 74
3
 42
0.0000001
 43
0.0000001
 44
0.0000000001
 12
-0.0350792242
 22
0.004867689
 32
0.0
 13
-0.0108153946
 23
0.0337234874
 33
0.0
 40
0.0
 40
0.0
 40
0.0
 40
0.0
 40
0.3370983532
 40
1.0
 40
1.0
 40
1.0
 40
1.0
 10
-22.359255904
 20
22.5983185777
 30
0.0
 10
-22.3631976202
 20
22.598865541
 30
0.0
 10
-22.371108267
 20
22.6102046878
 30
0.0
 10
-22.3746796047
 20
22.6206241968
 30
0.0
 10
-22.3770694524
 20
22.6280759819
 30
0.0
 11
-22.359255904
 21
22.5983185777
 31
0.0
 11
-22.3680378536
 21
22.6064058531
 31
0.0
 11
-22.3770694524
 21
22.6280759819
 31
0.0
  0
SPLINE
  5
348
100
AcDbEntity
  8
RACCORDO
100
AcDbSpline
 62
253
  6
CONTINUOUS
 70
0
 71
3
 72
9
 73
5
 74
3
 42
0.0000001
 43
0.0000001
 44
0.0000000001
 12
0.0350782653
 22
0.0048739408
 32
0.0
 13
0.0108183144
 23
0.0337224564
 33
0.0
 40
0.0
 40
0.0
 40
0.0
 40
0.0
 40
0.3370815637
 40
1.0
 40
1.0
 40
1.0
 40
1.0
 10
22.3592562472
 20
22.5983283827
 30
0.0
 10
22.3631976594
 20
22.5988760212
 30
0.0
 10
22.3711061254
 20
22.6102162044
 30
0.0
 10
22.3746788942
 20
22.6206349002
 30
0.0
 10
22.3770694476
 20
22.6280866462
 30
0.0
 11
22.3592562472
 21
22.5983283827
 31
0.0
 11
22.3680366164
 21
22.6064164515
 31
0.0
 11
22.3770694476
 21
22.6280866462
 31
0.0
  0
SPLINE
  5
349
100
AcDbEntity
  8
RACCORDO
100
AcDbSpline
 62
253
  6
CONTINUOUS
 70
0
 71
3
 72
9
 73
5
 74
3
 42
0.0000001
 43
0.0000001
 44
0.0000000001
 12
0.0016419121
 22
0.0116767679
 32
0.0
 13
0.0098749389
 23
0.0064442506
 33
0.0
 40
0.0
 40
0.0
 40
0.0
 40
0.0
 40
0.1959560346
 40
1.0
 40
1.0
 40
1.0
 40
1.0
 10
22.6492723134
 20
22.3046654041
 30
0.0
 10
22.6493795609
 20
22.3054281151
 30
0.0
 10
22.6506828136
 20
22.3092214601
 30
0.0
 10
22.6540751595
 20
22.3117974471
 30
0.0
 10
22.6567217878
 20
22.3135246007
 30
0.0
 11
22.6492723134
 21
22.3046654041
 31
0.0
 11
22.64997054
 21
22.3068680278
 31
0.0
 11
22.6567217878
 21
22.3135246007
 31
0.0
  0
SPLINE
  5
34A
100
AcDbEntity
  8
RACCORDO
100
AcDbSpline
 62
253
  6
CONTINUOUS
 70
0
 71
3
 72
11
 73
7
 74
5
 42
0.0000001
 43
0.0000001
 44
0.0000000001
 12
0.475583353
 22
0.0253970572
 32
0.0
 13
-0.0235522301
 23
-0.4756782827
 33
0.0
 40
0.0
 40
0.0
 40
0.0
 40
0.0
 40
0.2521799737
 40
0.504537421
 40
0.7538906134
 40
1.0
 40
1.0
 40
1.0
 40
1.0
 10
22.6284355601
 20
23.1469043724
 30
0.0
 10
22.6684130926
 20
23.1490392488
 30
0.0
 10
22.7510613198
 20
23.1350490648
 30
0.0
 10
22.8481531018
 20
23.057050519
 30
0.0
 10
22.9005049287
 20
22.9470192697
 30
0.0
 10
22.9079755874
 20
22.8672499785
 30
0.0
 10
22.9060434458
 20
22.8282270151
 30
0.0
 11
22.6284355601
 21
23.1469043724
 31
0.0
 11
22.7466178424
 21
23.1255082195
 31
0.0
 11
22.8410785986
 21
23.0511958848
 31
0.0
 11
22.8938389718
 21
22.944802203
 31
0.0
 11
22.9060434458
 21
22.8282270151
 31
0.0
  0
SPLINE
  5
34B
100
AcDbEntity
  8
RACCORDO
100
AcDbSpline
 62
253
  6
CONTINUOUS
 70
0
 71
3
 72
11
 73
7
 74
5
 42
0.0000001
 43
0.0000001
 44
0.0000000001
 12
0.0174577466
 22
0.4674042485
 32
0.0
 13
-0.4677217634
 23
0.0028029417
 33
0.0
 40
0.0
 40
0.0
 40
0.0
 40
0.0
 40
0.24815611
 40
0.4981918957
 40
0.7488791185
 40
1.0
 40
1.0
 40
1.0
 40
1.0
 10
22.6566937466
 20
22.3135245816
 30
0.0
 10
22.6581378288
 20
22.352187655
 30
0.0
 10
22.6481749279
 20
22.4310460981
 30
0.0
 10
22.5911637199
 20
22.5363621895
 30
0.0
 10
22.4956440815
 20
22.6103972415
 30
0.0
 10
22.4163661867
 20
22.6278447937
 30
0.0
 10
22.3772146196
 20
22.6280794194
 30
0.0
 11
22.6566937466
 21
22.3135245816
 31
0.0
 11
22.6412742195
 21
22.4285659034
 31
0.0
 11
22.5848558773
 21
22.5310066396
 31
0.0
 11
22.491824733
 21
22.6023768079
 31
0.0
 11
22.3772146196
 21
22.6280794194
 31
0.0
  0
SPLINE
  5
34C
100
AcDbEntity
  8
RACCORDO
100
AcDbSpline
 62
253
  6
CONTINUOUS
 70
0
 71
3
 72
11
 73
7
 74
5
 42
0.0000001
 43
0.0000001
 44
0.0000000001
 12
-0.0101990918
 22
0.451553724
 32
0.0
 13
-0.4513111575
 23
0.01797293
 33
0.0
 40
0.0
 40
0.0
 40
0.0
 40
0.0
 40
0.2441973876
 40
0.4933734642
 40
0.7478789891
 40
1.0
 40
1.0
 40
1.0
 40
1.0
 10
22.6492549827
 20
22.3046650921
 30
0.0
 10
22.6484247855
 20
22.341421172
 30
0.0
 10
22.6325429122
 20
22.4160697163
 30
0.0
 10
22.5689787424
 20
22.5121128515
 30
0.0
 10
22.4735647507
 20
22.5789276964
 30
0.0
 10
22.3971846088
 20
22.596818485
 30
0.0
 10
22.359256267
 20
22.5983289361
 30
0.0
 11
22.6492549827
 21
22.3046650921
 31
0.0
 11
22.6263211544
 21
22.412550806
 31
0.0
 11
22.564346907
 21
22.5064954077
 31
0.0
 11
22.4701287661
 21
22.5723509821
 31
0.0
 11
22.359256267
 21
22.5983289361
 31
0.0
  0
SPLINE
  5
34D
100
AcDbEntity
  8
RACCORDO
100
AcDbSpline
 62
253
  6
CONTINUOUS
 70
0
 71
3
 72
11
 73
7
 74
5
 42
0.0000001
 43
0.0000001
 44
0.0000000001
 12
0.0235528302
 22
-0.475681279
 32
0.0
 13
-0.4755755775
 23
0.0255985369
 33
0.0
 40
0.0
 40
0.0
 40
0.0
 40
0.0
 40
0.2461023178
 40
0.4954535361
 40
0.7478124086
 40
1.0
 40
1.0
 40
1.0
 40
1.0
 10
22.9060449021
 20
-22.8282614738
 30
0.0
 10
22.9079770375
 20
-22.8672835622
 30
0.0
 10
22.9004979105
 20
-22.9470503227
 30
0.0
 10
22.8481426188
 20
-23.057083865
 30
0.0
 10
22.7510292261
 20
-23.1350512139
 30
0.0
 10
22.6683793056
 20
-23.1490554484
 30
0.0
 10
22.6284012191
 20
-23.1469035706
 30
0.0
 11
22.9060449021
 21
-22.8282614738
 31
0.0
 11
22.8938338195
 21
-22.9448333325
 31
0.0
 11
22.8410657368
 21
-23.0512229825
 31
0.0
 11
22.7465899835
 21
-23.1255185819
 31
0.0
 11
22.6284012191
 21
-23.1469035706
 31
0.0
  0
SPLINE
  5
34E
100
AcDbEntity
  8
RACCORDO
100
AcDbSpline
 62
253
  6
CONTINUOUS
 70
0
 71
3
 72
11
 73
7
 74
5
 42
0.0000001
 43
0.0000001
 44
0.0000000001
 12
0.4678024421
 22
0.0028660801
 32
0.0
 13
-0.0173078003
 23
0.4674909403
 33
0.0
 40
0.0
 40
0.0
 40
0.0
 40
0.0
 40
0.2510672081
 40
0.5017509236
 40
0.7518196159
 40
1.0
 40
1.0
 40
1.0
 40
1.0
 10
22.3771335031
 20
-22.6280818058
 30
0.0
 10
22.4162834541
 20
-22.6278419462
 30
0.0
 10
22.4955731074
 20
-22.6104450054
 30
0.0
 10
22.5911206387
 20
-22.5364094229
 30
0.0
 10
22.6481781416
 20
-22.4310814206
 30
0.0
 10
22.6581255656
 20
-22.3521986153
 30
0.0
 10
22.6566937468
 20
-22.3135245883
 30
0.0
 11
22.3771335031
 21
-22.6280818058
 31
0.0
 11
22.4917470385
 21
-22.6024162005
 31
0.0
 11
22.5848106512
 21
-22.5310576716
 31
0.0
 11
22.6412658911
 21
-22.4285965463
 31
0.0
 11
22.6566937468
 21
-22.3135245883
 31
0.0
  0
SPLINE
  5
34F
100
AcDbEntity
  8
RACCORDO
100
AcDbSpline
 62
253
  6
CONTINUOUS
 70
0
 71
3
 72
11
 73
7
 74
5
 42
0.0000001
 43
0.0000001
 44
0.0000000001
 12
0.4513107987
 22
0.0179770836
 32
0.0
 13
0.0101901392
 23
0.4515537328
 33
0.0
 40
0.0
 40
0.0
 40
0.0
 40
0.0
 40
0.2520640572
 40
0.5065659114
 40
0.7557749843
 40
1.0
 40
1.0
 40
1.0
 40
1.0
 10
22.359256267
 20
-22.5983289361
 30
0.0
 10
22.3971760107
 20
-22.5968184773
 30
0.0
 10
22.4735461576
 20
-22.5789323426
 30
0.0
 10
22.5689640474
 20
-22.5121304592
 30
0.0
 10
22.6325387161
 20
-22.4160829331
 30
0.0
 10
22.6484254204
 20
-22.3414253313
 30
0.0
 10
22.6492549827
 20
-22.3046650921
 30
0.0
 11
22.359256267
 21
-22.5983289361
 31
0.0
 11
22.4701046033
 21
-22.5723608336
 31
0.0
 11
22.5643278128
 21
-22.5065154914
 31
0.0
 11
22.6263162912
 21
-22.4125624815
 31
0.0
 11
22.6492549827
 21
-22.3046650921
 31
0.0
  0
SPLINE
  5
350
100
AcDbEntity
  8
RACCORDO
100
AcDbSpline
 62
253
  6
CONTINUOUS
 70
0
 71
3
 72
11
 73
7
 74
5
 42
0.0000001
 43
0.0000001
 44
0.0000000001
 12
-0.0000144823
 22
0.9183629164
 32
0.0
 13
0.9183629157
 23
-0.0000385668
 33
0.0
 40
0.0
 40
0.0
 40
0.0
 40
0.0
 40
0.2502639014
 40
0.5002653067
 40
0.7501013609
 40
1.0
 40
1.0
 40
1.0
 40
1.0
 10
-23.2014857566
 20
22.828226657
 30
0.0
 10
-23.2014869647
 20
22.9048376858
 30
0.0
 10
-23.1746301787
 20
23.0595300321
 30
0.0
 10
-23.0521052024
 20
23.2605276616
 30
0.0
 10
-22.8598819351
 20
23.3974934618
 30
0.0
 10
-22.7049134312
 20
23.4288148723
 30
0.0
 10
-22.628414217
 20
23.4288116597
 30
0.0
 11
-23.2014857566
 21
22.828226657
 31
0.0
 11
-23.1608869827
 21
23.0544455491
 31
0.0
 11
-23.0404438622
 21
23.2499089734
 31
0.0
 11
-22.8531890186
 21
23.3824925846
 31
0.0
 11
-22.628414217
 21
23.4288116597
 31
0.0
  0
SPLINE
  5
351
100
AcDbEntity
  8
RACCORDO
100
AcDbSpline
 62
253
  6
CONTINUOUS
 70
0
 71
3
 72
11
 73
7
 74
5
 42
0.0000001
 43
0.0000001
 44
0.0000000001
 12
-0.4513111687
 22
-0.017972652
 32
0.0
 13
-0.0101988777
 23
-0.4515537289
 33
0.0
 40
0.0
 40
0.0
 40
0.0
 40
0.0
 40
0.2521209989
 40
0.5066265334
 40
0.7558025641
 40
1.0
 40
1.0
 40
1.0
 40
1.0
 10
-22.3592562675
 20
22.5983289361
 30
0.0
 10
-22.3971846084
 20
22.5968185085
 30
0.0
 10
-22.4735647457
 20
22.5789276789
 30
0.0
 10
-22.5689787397
 20
22.5121128616
 30
0.0
 10
-22.632542907
 20
22.4160697245
 30
0.0
 10
-22.6484248027
 20
22.3414211797
 30
0.0
 10
-22.6492549827
 20
22.3046650921
 30
0.0
 11
-22.3592562675
 21
22.5983289361
 31
0.0
 11
-22.4701287605
 21
22.5723509802
 31
0.0
 11
-22.5643469085
 21
22.5064954082
 31
0.0
 11
-22.6263211499
 21
22.4125508274
 31
0.0
 11
-22.6492549827
 21
22.3046650921
 31
0.0
  0
SPLINE
  5
352
100
AcDbEntity
  8
RACCORDO
100
AcDbSpline
 62
253
  6
CONTINUOUS
 70
0
 71
3
 72
11
 73
7
 74
5
 42
0.0000001
 43
0.0000001
 44
0.0000000001
 12
-0.0235526188
 22
0.4756875283
 32
0.0
 13
0.4755942284
 23
-0.0253669126
 33
0.0
 40
0.0
 40
0.0
 40
0.0
 40
0.0
 40
0.2461091508
 40
0.4954615669
 40
0.7478184483
 40
1.0
 40
1.0
 40
1.0
 40
1.0
 10
-22.9060434452
 20
22.8282270015
 30
0.0
 10
-22.9079756169
 20
22.867250686
 30
0.0
 10
-22.9005045434
 20
22.9470215612
 30
0.0
 10
-22.8481506762
 20
23.0570535622
 30
0.0
 10
-22.7510555346
 20
23.1350547953
 30
0.0
 10
-22.6684051069
 20
23.1490365135
 30
0.0
 10
-22.62842641
 20
23.1469041577
 30
0.0
 11
-22.9060434452
 21
22.8282270015
 31
0.0
 11
-22.8938383348
 21
22.9448042997
 31
0.0
 11
-22.8410760314
 21
23.051199187
 31
0.0
 11
-22.7466124096
 21
23.12551122
 31
0.0
 11
-22.62842641
 21
23.1469041577
 31
0.0
  0
SPLINE
  5
353
100
AcDbEntity
  8
RACCORDO
100
AcDbSpline
 62
253
  6
CONTINUOUS
 70
0
 71
3
 72
11
 73
7
 74
5
 42
0.0000001
 43
0.0000001
 44
0.0000000001
 12
-0.4677934171
 22
-0.0027464922
 32
0.0
 13
0.0174691209
 23
-0.4674751909
 33
0.0
 40
0.0
 40
0.0
 40
0.0
 40
0.0
 40
0.2511215547
 40
0.5018086193
 40
0.7518438783
 40
1.0
 40
1.0
 40
1.0
 40
1.0
 10
-22.3771422633
 20
22.6280815059
 30
0.0
 10
-22.4162999333
 20
22.6278516048
 30
0.0
 10
-22.4955945597
 20
22.6104258822
 30
0.0
 10
-22.5911418812
 20
22.5363916048
 30
0.0
 10
-22.6481713025
 20
22.4310644702
 30
0.0
 10
-22.6581387697
 20
22.3521935251
 30
0.0
 10
-22.6566937466
 20
22.3135245816
 30
0.0
 11
-22.3771422633
 21
22.6280815059
 31
0.0
 11
-22.4917757978
 21
22.6024000618
 31
0.0
 11
-22.5848325483
 21
22.5310340229
 31
0.0
 11
-22.6412687136
 21
22.4285830271
 31
0.0
 11
-22.6566937466
 21
22.3135245816
 31
0.0
  0
SPLINE
  5
354
100
AcDbEntity
  8
RACCORDO
100
AcDbSpline
 62
253
  6
CONTINUOUS
 70
0
 71
3
 72
11
 73
7
 74
5
 42
0.0000001
 43
0.0000001
 44
0.0000000001
 12
-0.475583353
 22
-0.0253970572
 32
0.0
 13
0.0235522301
 23
0.4756782827
 33
0.0
 40
0.0
 40
0.0
 40
0.0
 40
0.0
 40
0.2521799737
 40
0.504537421
 40
0.7538906134
 40
1.0
 40
1.0
 40
1.0
 40
1.0
 10
-22.6284355601
 20
-23.1469043724
 30
0.0
 10
-22.6684130926
 20
-23.1490392488
 30
0.0
 10
-22.7510613198
 20
-23.1350490648
 30
0.0
 10
-22.8481531018
 20
-23.057050519
 30
0.0
 10
-22.9005049287
 20
-22.9470192697
 30
0.0
 10
-22.9079755874
 20
-22.8672499785
 30
0.0
 10
-22.9060434458
 20
-22.8282270151
 30
0.0
 11
-22.6284355601
 21
-23.1469043724
 31
0.0
 11
-22.7466178424
 21
-23.1255082195
 31
0.0
 11
-22.8410785986
 21
-23.0511958848
 31
0.0
 11
-22.8938389718
 21
-22.944802203
 31
0.0
 11
-22.9060434458
 21
-22.8282270151
 31
0.0
  0
SPLINE
  5
355
100
AcDbEntity
  8
RACCORDO
100
AcDbSpline
 62
253
  6
CONTINUOUS
 70
0
 71
3
 72
11
 73
7
 74
5
 42
0.0000001
 43
0.0000001
 44
0.0000000001
 12
-0.9183621973
 22
-0.0001042048
 32
0.0
 13
0.0000144934
 23
0.9183622031
 33
0.0
 40
0.0
 40
0.0
 40
0.0
 40
0.0
 40
0.2498969701
 40
0.4997337693
 40
0.7497357692
 40
1.0
 40
1.0
 40
1.0
 40
1.0
 10
-22.628414217
 20
-23.4288116597
 30
0.0
 10
-22.7049128605
 20
-23.4288203399
 30
0.0
 10
-22.8598803775
 20
-23.3974891731
 30
0.0
 10
-23.0521046838
 20
-23.2605290199
 30
0.0
 10
-23.1746299946
 20
-23.0595299466
 30
0.0
 10
-23.2014869656
 20
-22.9048377271
 30
0.0
 10
-23.2014857566
 20
-22.828226657
 30
0.0
 11
-22.628414217
 21
-23.4288116597
 31
0.0
 11
-22.853187152
 21
-23.382492004
 31
0.0
 11
-23.0404431669
 21
-23.2499091716
 31
0.0
 11
-23.1608868255
 21
-23.0544456469
 31
0.0
 11
-23.2014857566
 21
-22.828226657
 31
0.0
  0
SPLINE
  5
356
100
AcDbEntity
  8
RACCORDO
100
AcDbSpline
 62
253
  6
CONTINUOUS
 70
0
 71
3
 72
11
 73
7
 74
5
 42
0.0000001
 43
0.0000001
 44
0.0000000001
 12
-0.0174577466
 22
-0.4674042485
 32
0.0
 13
0.4677217634
 23
-0.0028029417
 33
0.0
 40
0.0
 40
0.0
 40
0.0
 40
0.0
 40
0.24815611
 40
0.4981918957
 40
0.7488791185
 40
1.0
 40
1.0
 40
1.0
 40
1.0
 10
-22.6566937466
 20
-22.3135245816
 30
0.0
 10
-22.6581378288
 20
-22.352187655
 30
0.0
 10
-22.6481749279
 20
-22.4310460981
 30
0.0
 10
-22.5911637199
 20
-22.5363621895
 30
0.0
 10
-22.4956440815
 20
-22.6103972415
 30
0.0
 10
-22.4163661867
 20
-22.6278447937
 30
0.0
 10
-22.3772146196
 20
-22.6280794194
 30
0.0
 11
-22.6566937466
 21
-22.3135245816
 31
0.0
 11
-22.6412742195
 21
-22.4285659034
 31
0.0
 11
-22.5848558773
 21
-22.5310066396
 31
0.0
 11
-22.491824733
 21
-22.6023768079
 31
0.0
 11
-22.3772146196
 21
-22.6280794194
 31
0.0
  0
SPLINE
  5
357
100
AcDbEntity
  8
RACCORDO
100
AcDbSpline
 62
253
  6
CONTINUOUS
 70
0
 71
3
 72
11
 73
7
 74
5
 42
0.0000001
 43
0.0000001
 44
0.0000000001
 12
-0.0000498599
 22
-0.6210287349
 32
0.0
 13
-0.6210287319
 23
-0.0000791702
 33
0.0
 40
0.0
 40
0.0
 40
0.0
 40
0.0
 40
0.2500058224
 40
0.5000008131
 40
0.7499857999
 40
1.0
 40
1.0
 40
1.0
 40
1.0
 10
25.608934899
 20
-25.5589958209
 30
0.0
 10
25.6089307439
 20
-25.6107494208
 30
0.0
 10
25.588341813
 20
-25.7153585852
 30
0.0
 10
25.5002220949
 20
-25.8479314968
 30
0.0
 10
25.3684227213
 20
-25.9368426523
 30
0.0
 10
25.2639802829
 20
-25.9589283011
 30
0.0
 10
25.212224949
 20
-25.958934899
 30
0.0
 11
25.608934899
 21
-25.5589958209
 31
0.0
 11
25.5788012648
 21
-25.7113043241
 31
0.0
 11
25.4929410846
 21
-25.8406560027
 31
0.0
 11
25.3642844268
 21
-25.9275430708
 31
0.0
 11
25.212224949
 21
-25.958934899
 31
0.0
  0
SPLINE
  5
358
100
AcDbEntity
  8
RACCORDO
100
AcDbSpline
 62
253
  6
CONTINUOUS
 70
0
 71
3
 72
11
 73
7
 74
5
 42
0.0000001
 43
0.0000001
 44
0.0000000001
 12
0.0101990918
 22
-0.451553724
 32
0.0
 13
0.4513111575
 23
-0.01797293
 33
0.0
 40
0.0
 40
0.0
 40
0.0
 40
0.0
 40
0.2441973876
 40
0.4933734642
 40
0.7478789891
 40
1.0
 40
1.0
 40
1.0
 40
1.0
 10
-22.6492549827
 20
-22.3046650921
 30
0.0
 10
-22.6484247855
 20
-22.341421172
 30
0.0
 10
-22.6325429122
 20
-22.4160697163
 30
0.0
 10
-22.5689787424
 20
-22.5121128515
 30
0.0
 10
-22.4735647507
 20
-22.5789276964
 30
0.0
 10
-22.3971846088
 20
-22.596818485
 30
0.0
 10
-22.359256267
 20
-22.5983289361
 30
0.0
 11
-22.6492549827
 21
-22.3046650921
 31
0.0
 11
-22.6263211544
 21
-22.412550806
 31
0.0
 11
-22.564346907
 21
-22.5064954077
 31
0.0
 11
-22.4701287661
 21
-22.5723509821
 31
0.0
 11
-22.359256267
 21
-22.5983289361
 31
0.0
  0
SPLINE
  5
359
100
AcDbEntity
  8
RACCORDO
100
AcDbSpline
 62
253
  6
CONTINUOUS
 70
0
 71
3
 72
11
 73
7
 74
5
 42
0.0000001
 43
0.0000001
 44
0.0000000001
 12
-0.6210287244
 22
0.0000498599
 32
0.0
 13
-0.0000791702
 23
0.6210287214
 33
0.0
 40
0.0
 40
0.0
 40
0.0
 40
0.0
 40
0.2500058224
 40
0.5000008131
 40
0.7499857999
 40
1.0
 40
1.0
 40
1.0
 40
1.0
 10
-25.2089958209
 20
-25.958934899
 30
0.0
 10
-25.2607494199
 20
-25.9589307439
 30
0.0
 10
-25.3653585825
 20
-25.9383418137
 30
0.0
 10
-25.4979314928
 20
-25.8502220985
 30
0.0
 10
-25.586842648
 20
-25.7184227287
 30
0.0
 10
-25.6089283011
 20
-25.6139802927
 30
0.0
 10
-25.608934899
 20
-25.5622249597
 30
0.0
 11
-25.2089958209
 21
-25.958934899
 31
0.0
 11
-25.3613043216
 21
-25.9288012658
 31
0.0
 11
-25.4906559989
 21
-25.8429410884
 31
0.0
 11
-25.5775430677
 21
-25.7142844341
 31
0.0
 11
-25.608934899
 21
-25.5622249597
 31
0.0
  0
SPLINE
  5
35A
100
AcDbEntity
  8
RACCORDO
100
AcDbSpline
 62
253
  6
CONTINUOUS
 70
0
 71
3
 72
11
 73
7
 74
5
 42
0.0000001
 43
0.0000001
 44
0.0000000001
 12
0.0000498599
 22
0.6210287227
 32
0.0
 13
0.6210287197
 23
0.0000791702
 33
0.0
 40
0.0
 40
0.0
 40
0.0
 40
0.0
 40
0.2500058224
 40
0.5000008131
 40
0.7499857999
 40
1.0
 40
1.0
 40
1.0
 40
1.0
 10
-25.608934899
 20
25.5589958209
 30
0.0
 10
-25.6089307439
 20
25.6107494198
 30
0.0
 10
-25.5883418139
 20
25.7153585821
 30
0.0
 10
-25.5002220991
 20
25.8479314922
 30
0.0
 10
-25.3684227299
 20
25.9368426473
 30
0.0
 10
-25.2639802943
 20
25.9589283011
 30
0.0
 10
-25.2122249614
 20
25.958934899
 30
0.0
 11
-25.608934899
 21
25.5589958209
 31
0.0
 11
-25.5788012659
 21
25.7113043212
 31
0.0
 11
-25.492941089
 21
25.8406559983
 31
0.0
 11
-25.3642844354
 21
25.9275430671
 31
0.0
 11
-25.2122249614
 21
25.958934899
 31
0.0
  0
SPLINE
  5
35B
100
AcDbEntity
  8
RACCORDO
100
AcDbSpline
 62
253
  6
CONTINUOUS
 70
0
 71
3
 72
11
 73
7
 74
5
 42
0.0000001
 43
0.0000001
 44
0.0000000001
 12
0.6210287337
 22
-0.0000498599
 32
0.0
 13
0.0000791702
 23
-0.6210287306
 33
0.0
 40
0.0
 40
0.0
 40
0.0
 40
0.0
 40
0.2500058224
 40
0.5000008131
 40
0.7499857999
 40
1.0
 40
1.0
 40
1.0
 40
1.0
 10
25.2089958209
 20
25.958934899
 30
0.0
 10
25.2607494207
 20
25.9589307439
 30
0.0
 10
25.3653585849
 20
25.9383418131
 30
0.0
 10
25.4979314963
 20
25.8502220953
 30
0.0
 10
25.5868426518
 20
25.7184227222
 30
0.0
 10
25.6089283011
 20
25.613980284
 30
0.0
 10
25.608934899
 20
25.5622249503
 30
0.0
 11
25.2089958209
 21
25.958934899
 31
0.0
 11
25.3613043238
 21
25.9288012649
 31
0.0
 11
25.4906560023
 21
25.8429410851
 31
0.0
 11
25.5775430704
 21
25.7142844276
 31
0.0
 11
25.608934899
 21
25.5622249503
 31
0.0
  0
SPLINE
  5
35C
100
AcDbEntity
  8
RACCORDO
100
AcDbSpline
 62
253
  6
CONTINUOUS
 70
0
 71
3
 72
11
 73
7
 74
5
 42
0.0000001
 43
0.0000001
 44
0.0000000001
 12
0.0001539294
 22
-0.918359028
 32
0.0
 13
-0.9183590363
 23
-0.0000919294
 33
0.0
 40
0.0
 40
0.0
 40
0.0
 40
0.0
 40
0.2502624158
 40
0.5002644967
 40
0.7500997209
 40
1.0
 40
1.0
 40
1.0
 40
1.0
 10
23.2014857566
 20
-22.828226657
 30
0.0
 10
23.2014985975
 20
-22.9048369066
 30
0.0
 10
23.1746423349
 20
-23.0595306985
 30
0.0
 10
23.052113761
 20
-23.2605284345
 30
0.0
 10
22.8598718288
 20
-23.3974627639
 30
0.0
 10
22.7049136101
 20
-23.428804002
 30
0.0
 10
22.628414217
 20
-23.4288116597
 30
0.0
 11
23.2014857566
 21
-22.828226657
 31
0.0
 11
23.1608986306
 21
-23.0544452677
 31
0.0
 11
23.0404497024
 21
-23.2499047039
 31
0.0
 11
22.853185282
 21
-23.3824717931
 31
0.0
 11
22.628414217
 21
-23.4288116597
 31
0.0
  0
SPLINE
  5
35D
100
AcDbEntity
  8
RACCORDO
100
AcDbSpline
 62
253
  6
CONTINUOUS
 70
0
 71
3
 72
11
 73
7
 74
5
 42
0.0000001
 43
0.0000001
 44
0.0000000001
 12
0.9183621973
 22
0.0001042048
 32
0.0
 13
-0.0000144934
 23
-0.9183622031
 33
0.0
 40
0.0
 40
0.0
 40
0.0
 40
0.0
 40
0.2498969701
 40
0.4997337693
 40
0.7497357692
 40
1.0
 40
1.0
 40
1.0
 40
1.0
 10
22.628414217
 20
23.4288116597
 30
0.0
 10
22.7049128605
 20
23.4288203399
 30
0.0
 10
22.8598803775
 20
23.3974891731
 30
0.0
 10
23.0521046838
 20
23.2605290199
 30
0.0
 10
23.1746299946
 20
23.0595299466
 30
0.0
 10
23.2014869656
 20
22.9048377271
 30
0.0
 10
23.2014857566
 20
22.828226657
 30
0.0
 11
22.628414217
 21
23.4288116597
 31
0.0
 11
22.853187152
 21
23.382492004
 31
0.0
 11
23.0404431669
 21
23.2499091716
 31
0.0
 11
23.1608868255
 21
23.0544456469
 31
0.0
 11
23.2014857566
 21
22.828226657
 31
0.0
  0
SPLINE
  5
35E
100
AcDbEntity
  8
RACCORDO
100
AcDbSpline
 62
253
  6
CONTINUOUS
 70
0
 71
3
 72
23
 73
19
 74
17
 42
0.0000001
 43
0.0000001
 44
0.0000000001
 12
-0.0052250696
 22
0.6999442616
 32
0.0
 13
0.6997738237
 23
0.0163054114
 33
0.0
 40
0.0
 40
0.0
 40
0.0
 40
0.0
 40
0.1950458747
 40
0.3826397505
 40
0.555484779
 40
0.6343043597
 40
0.7070050217
 40
0.7729042947
 40
0.831352309
 40
0.8818043226
 40
0.9237617168
 40
0.9568261729
 40
0.969925046
 40
0.9806839856
 40
0.989079053
 40
0.9950984995
 40
0.9987336937
 40
1.0
 40
1.0
 40
1.0
 40
1.0
 10
-80.0201436286
 20
25.5589958209
 30
0.0
 10
-80.0204833381
 20
25.6045029012
 30
0.0
 10
-80.021087021
 20
25.6937788834
 30
0.0
 10
-80.0217684901
 20
25.8233835513
 30
0.0
 10
-80.0221349506
 20
25.9258712881
 30
0.0
 10
-80.0222844252
 20
26.0015524999
 30
0.0
 10
-80.0223226774
 20
26.0522810088
 30
0.0
 10
-80.02229148
 20
26.098256769
 30
0.0
 10
-80.0221901501
 20
26.139040201
 30
0.0
 10
-80.0220237231
 20
26.1742406637
 30
0.0
 10
-80.0217871536
 20
26.2035082318
 30
0.0
 10
-80.0215380584
 20
26.2240841303
 30
0.0
 10
-80.0212717205
 20
26.2373368749
 30
0.0
 10
-80.0211109085
 20
26.2449149664
 30
0.0
 10
-80.020838641
 20
26.2506422511
 30
0.0
 10
-80.0207961105
 20
26.2551738869
 30
0.0
 10
-80.0203049975
 20
26.2571383499
 30
0.0
 10
-80.0204390046
 20
26.258882325
 30
0.0
 10
-80.0201436286
 20
26.2588892076
 30
0.0
 11
-80.0201436286
 21
25.5589958209
 31
0.0
 11
-80.0210638927
 21
25.6955177639
 31
0.0
 11
-80.0217482593
 21
25.8268248959
 31
0.0
 11
-80.0221690607
 21
25.9478094208
 31
0.0
 11
-80.0222755643
 21
26.0029801684
 31
0.0
 11
-80.0223111273
 21
26.0538679849
 31
0.0
 11
-80.0222755844
 21
26.0999950744
 31
0.0
 11
-80.0221690924
 21
26.1409064279
 31
0.0
 11
-80.0219928062
 21
26.1762205692
 31
0.0
 11
-80.0217482978
 21
26.205588207
 31
0.0
 11
-80.0214377556
 21
26.2287300446
 31
0.0
 11
-80.0212585642
 21
26.2378970299
 31
0.0
 11
-80.0210638913
 21
26.2454253812
 31
0.0
 11
-80.0208543076
 21
26.2512978855
 31
0.0
 11
-80.0206305645
 21
26.255505335
 31
0.0
 11
-80.0203934192
 21
26.2580387642
 31
0.0
 11
-80.0201436286
 21
26.2588892076
 31
0.0
  0
SPLINE
  5
35F
100
AcDbEntity
  8
RACCORDO
100
AcDbSpline
 62
253
  6
CONTINUOUS
 70
0
 71
3
 72
23
 73
19
 74
17
 42
0.0000001
 43
0.0000001
 44
0.0000000001
 12
-0.699723268
 22
0.0183467323
 32
0.0
 13
0.0052239514
 23
0.6999442583
 33
0.0
 40
0.0
 40
0.0
 40
0.0
 40
0.0
 40
0.0012669938
 40
0.0049023045
 40
0.010921506
 40
0.0193161922
 40
0.0300748356
 40
0.0431735956
 40
0.0762381591
 40
0.1181957108
 40
0.1686477238
 40
0.2270956894
 40
0.2929949544
 40
0.3656956318
 40
0.4445152214
 40
0.6173602503
 40
0.8049541264
 40
1.0
 40
1.0
 40
1.0
 40
1.0
 10
-80.0201436286
 20
-26.2588892076
 30
0.0
 10
-80.0204391436
 20
-26.2588814592
 30
0.0
 10
-80.0203049097
 20
-26.2571391275
 30
0.0
 10
-80.0207961959
 20
-26.2551726444
 30
0.0
 10
-80.0208386419
 20
-26.2506422304
 30
0.0
 10
-80.021110917
 20
-26.2449146733
 30
0.0
 10
-80.0212716966
 20
-26.2373369527
 30
0.0
 10
-80.0215380248
 20
-26.2240841909
 30
0.0
 10
-80.0217871127
 20
-26.2035083139
 30
0.0
 10
-80.0220236873
 20
-26.1742406603
 30
0.0
 10
-80.0221901175
 20
-26.1390401816
 30
0.0
 10
-80.0222914593
 20
-26.0982567608
 30
0.0
 10
-80.0223226785
 20
-26.0522810119
 30
0.0
 10
-80.022284448
 20
-26.0015524998
 30
0.0
 10
-80.0221349866
 20
-25.9258712835
 30
0.0
 10
-80.0217685353
 20
-25.8233835461
 30
0.0
 10
-80.0210870348
 20
-25.6937788806
 30
0.0
 10
-80.0204832654
 20
-25.6045029007
 30
0.0
 10
-80.0201436286
 20
-25.5589958209
 30
0.0
 11
-80.0201436286
 21
-26.2588892076
 31
0.0
 11
-80.0203934547
 21
-26.2580382732
 31
0.0
 11
-80.0206306045
 21
-26.2555047625
 31
0.0
 11
-80.0208543324
 21
-26.2512974839
 31
0.0
 11
-80.0210638927
 21
-26.2454252459
 31
0.0
 11
-80.021258545
 21
-26.2378971016
 31
0.0
 11
-80.0214377241
 21
-26.2287301954
 31
0.0
 11
-80.0217482593
 21
-26.2055882828
 31
0.0
 11
-80.02199277
 21
-26.1762205354
 31
0.0
 11
-80.0221690607
 21
-26.140906395
 31
0.0
 11
-80.0222755643
 21
-26.0999950764
 31
0.0
 11
-80.0223111273
 21
-26.0538679933
 31
0.0
 11
-80.0222755844
 21
-26.0029801668
 31
0.0
 11
-80.0221690924
 21
-25.9478094139
 31
0.0
 11
-80.0217482978
 21
-25.8268248907
 31
0.0
 11
-80.0210638913
 21
-25.6955177609
 31
0.0
 11
-80.0201436286
 21
-25.5589958209
 31
0.0
  0
ELLIPSE
  5
360
100
AcDbEntity
  8
RACCORDO
100
AcDbEllipse
 62
7
  6
CONTINUOUS
 10
-25.2429113444
 20
-25.5929113444
 30
0.0
 11
0.4951255324
 21
0.4951255324
 31
0.0
 40
0.9996954599
 41
-3.9268385237
 42
-2.3563467834
  0
ELLIPSE
  5
361
100
AcDbEntity
  8
RACCORDO
100
AcDbEllipse
 62
7
  6
CONTINUOUS
 10
25.2429113444
 20
-25.5929113444
 30
0.0
 11
0.4951255324
 21
-0.4951255324
 31
0.0
 40
0.9996954599
 41
-0.7852458702
 42
0.7852458701
  0
ELLIPSE
  5
362
100
AcDbEntity
  8
RACCORDO
100
AcDbEllipse
 62
7
  6
CONTINUOUS
 10
25.2429113444
 20
25.5929113444
 30
0.0
 11
0.4951255324
 21
0.4951255324
 31
0.0
 40
0.9996954599
 41
-0.7852458702
 42
0.7852458701
  0
ELLIPSE
  5
363
100
AcDbEntity
  8
RACCORDO
100
AcDbEllipse
 62
7
  6
CONTINUOUS
 10
-25.2429113444
 20
25.5929113444
 30
0.0
 11
0.4951255324
 21
-0.4951255324
 31
0.0
 40
0.9996954599
 41
2.3563467834
 42
3.9268385237
  0
ELLIPSE
  5
364
100
AcDbEntity
  8
RACCORDO
100
AcDbEllipse
 62
7
  6
CONTINUOUS
 10
22.3420995224
 20
22.2920995224
 30
0.0
 11
-0.2121966568
 21
-0.2121966568
 31
0.0
 40
0.9996954599
 41
2.3563467834
 42
3.9268385237
  0
ELLIPSE
  5
365
100
AcDbEntity
  8
RACCORDO
100
AcDbEllipse
 62
7
  6
CONTINUOUS
 10
22.3420995224
 20
-22.2920995224
 30
0.0
 11
-0.2121966568
 21
0.2121966568
 31
0.0
 40
0.9996954599
 41
2.3563467834
 42
3.9268385237
  0
ELLIPSE
  5
366
100
AcDbEntity
  8
RACCORDO
100
AcDbEllipse
 62
7
  6
CONTINUOUS
 10
-22.3420995224
 20
22.2920995224
 30
0.0
 11
-0.2121966568
 21
0.2121966568
 31
0.0
 40
0.9996954599
 41
-0.7852458701
 42
0.7852458701
  0
ELLIPSE
  5
367
100
AcDbEntity
  8
RACCORDO
100
AcDbEllipse
 62
7
  6
CONTINUOUS
 10
-22.3420995224
 20
-22.2920995224
 30
0.0
 11
0.2121966568
 21
0.2121966568
 31
0.0
 40
0.9996954599
 41
2.3563467834
 42
3.9268385237
  0
ELLIPSE
  5
368
100
AcDbEntity
  8
ASSI
100
AcDbEllipse
 62
7
  6
CONTINUOUS
 10
-70.6149079067
 20
-25.9914384441
 30
0.0
 11
0.1417119467
 21
0.1422961243
 31
0.0
 40
0.9918061237
 41
-0.7833412615
 42
0.7350951877
  0
ELLIPSE
  5
369
100
AcDbEntity
  8
ASSI
100
AcDbEllipse
 62
7
  6
CONTINUOUS
 10
-70.6149079067
 20
25.9914384441
 30
0.0
 11
-0.1417119467
 21
0.1422961243
 31
0.0
 40
0.9918061237
 41
-3.8766878413
 42
-2.358251392
  0
ENDSEC
  0
SECTION
  2
OBJECTS
  0
DICTIONARY
  5
C
100
AcDbDictionary
280
0
281
1
  3
ACAD_GROUP
350
D
  3
ACAD_MLINESTYLE
350
17
  3
ACAD_LAYOUT
350
1A
  3
ACAD_PLOTSETTINGS
350
19
  3
ACAD_PLOTSTYLENAME
350
E
  0
DICTIONARY
  5
D
102
{ACAD_REACTORS
330
C
102
}
100
AcDbDictionary
280
0
281
1
  0
ACDBDICTIONARYWDFLT
  5
E
102
{ACAD_REACTORS
330
C
102
}
100
AcDbDictionary
281
1
  3
Normal
350
F
100
AcDbDictionaryWithDefault
340
F
  0
DICTIONARY
  5
17
102
{ACAD_REACTORS
330
C
102
}
100
AcDbDictionary
280
0
281
1
  3
Standard
350
18
  0
DICTIONARY
  5
19
102
{ACAD_REACTORS
330
C
102
}
100
AcDbDictionary
281
1
  0
DICTIONARY
  5
1A
102
{ACAD_REACTORS
330
C
102
}
100
AcDbDictionary
281
1
  3
Model
350
36A
  3
Layout1
350
36B
  0
ACDBPLACEHOLDER
  5
F
102
{ACAD_REACTORS
330
E
102
}
  0
MLINESTYLE
  5
18
102
{ACAD_REACTORS
330
17
102
}
100
AcDbMlineStyle
  2
STANDARD
 70
0
  3

 62
256
 51
90.0
 52
90.0
 71
2
 49
0.5
 62
256
  6
BYLAYER
 49
-0.5
 62
256
  6
BYLAYER
  0
LAYOUT
  5
36A
102
{ACAD_REACTORS
330
1A
102
}
100
AcDbPlotSettings
  1

  2
none_device
  4
ISO_A4_(297.00_x_210.00_MM)
  6

 40
0.0
 41
0.0
 42
0.0
 43
0.0
 44
297.0
 45
210.0
 46
0.0
 47
0.0
 48
0.0
 49
0.0
140
0.0
141
0.0
142
1.0
143
1.0
 70
1024
 72
1
 73
0
 74
0
  7

 75
0
147
1.0
148
0.0
149
0.0
100
AcDbLayout
  1
Model
 70
0
 71
0
 10
0.0
 20
0.0
 11
297.0
 21
210.0
 12
0.0
 22
0.0
 32
0.0
 14
0.0
 24
0.0
 34
0.0
 15
0.0
 25
0.0
 35
0.0
146
0.0
 13
0.0
 23
0.0
 33
0.0
 16
1.0
 26
0.0
 36
0.0
 17
0.0
 27
1.0
 37
0.0
 76
0
330
212
345
0
346
0
  0
LAYOUT
  5
36B
102
{ACAD_REACTORS
330
1A
102
}
100
AcDbPlotSettings
  1

  2
none_device
  4
ISO_A4_(297.00_x_210.00_MM)
  6

 40
0.0
 41
0.0
 42
0.0
 43
0.0
 44
297.0
 45
210.0
 46
0.0
 47
0.0
 48
0.0
 49
0.0
140
0.0
141
0.0
142
1.0
143
1.0
 70
0
 72
1
 73
0
 74
0
  7

 75
0
147
1.0
148
0.0
149
0.0
100
AcDbLayout
  1
Layout1
 70
0
 71
1
 10
0.0
 20
0.0
 11
297.0
 21
210.0
 12
0.0
 22
0.0
 32
0.0
 14
0.0
 24
0.0
 34
0.0
 15
0.0
 25
0.0
 35
0.0
146
0.0
 13
0.0
 23
0.0
 33
0.0
 16
1.0
 26
0.0
 36
0.0
 17
0.0
 27
1.0
 37
0.0
 76
0
330
213
345
0
346
0
  0
ENDSEC
  0
EOF
