  0
SECTION
  2
HEADER
  9
$ACADVER
  1
AC1015
  9
$DWGCODEPAGE
  3
ANSI_1252
  9
$EXTMAX
 10
297.0
 20
210.0
 30
0.0
  9
$EXTMIN
 10
0.0
 20
0.0
 30
0.0
  9
$LIMMIN
 10
0.0
 20
0.0
  9
$LIMMAX
 10
297.0
 20
210.0
  9
$VIEWCTR
 10
148.5
 20
105.0
  9
$VIEWSIZE
 40
210.0
  9
$CLAYER
  8
0
  9
$LTSCALE
 40
16.335
  9
$CELTYPE
  6
BYLAYER
  9
$DIMSCALE
 40
1.0
  9
$DIMASZ
 40
3.0
  9
$DIMEXO
 40
1.85625
  9
$DIMDLI
 40
11.286
  9
$DIMEXE
 40
5.346
  9
$DIMCEN
 40
2.673
  9
$DIMLFAC
 40
1.0
  9
$DIMBLK
  1
_FILLED
  9
$DIMTXT
 40
3.0
  9
$DIMTOL
 70
1
  9
$DIMLIM
 70
0
  9
$DIMTFAC
 40
1.0
  9
$DIMTP
 40
0.01
  9
$DIMTM
 40
0.01
  9
$PDMODE
 70
3
  9
$PDSIZE
 40
3.0
  9
$HANDSEED
  5
37E
  9
$TILEMODE
 70
1
  9
$MEASUREMENT
 70
1
  9
$INSUNITS
 70
4
  0
ENDSEC
  0
SECTION
  2
CLASSES
  0
CLASS
  1
ACDBDICTIONARYWDFLT
  2
AcDbDictionaryWithDefault
  3
AutoCAD 2000
 90
0
280
0
281
0
  0
CLASS
  1
ACDBPLACEHOLDER
  2
AcDbPlaceHolder
  3
AutoCAD 2000
 90
0
280
0
281
0
  0
CLASS
  1
LAYOUT
  2
AcDbLayout
  3
AutoCAD 2000
 90
0
280
0
281
0
  0
ENDSEC
  0
SECTION
  2
TABLES
  0
TABLE
  2
VPORT
  5
8
100
AcDbSymbolTable
 70
2
  0
VPORT
  5
1F4
100
AcDbSymbolTableRecord
100
AcDbViewportTableRecord
  2
*ACTIVE
 70
0
 10
0.0
 20
0.0
 11
1.0
 21
1.0
 12
148.5
 22
105.0
 13
0.0
 23
0.0
 14
1.0
 24
1.0
 15
0.0
 25
0.0
 16
0.0
 26
0.0
 36
1.0
 17
0.0
 27
0.0
 37
0.0
 40
210.0
 41
1.4142857143
 42
50.0
 43
0.0
 44
0.0
 50
0.0
 51
0.0
 71
0
 72
100
 73
1
 74
1
 75
0
 76
0
 77
0
 78
0
  0
ENDTAB
  0
TABLE
  2
LTYPE
  5
5
100
AcDbSymbolTable
 70
6
  0
LTYPE
  5
14
100
AcDbSymbolTableRecord
100
AcDbLinetypeTableRecord
  2
BYBLOCK
 70
0
  3

 72
65
 73
0
 40
0.0
  0
LTYPE
  5
15
100
AcDbSymbolTableRecord
100
AcDbLinetypeTableRecord
  2
BYLAYER
 70
0
  3

 72
65
 73
0
 40
0.0
  0
LTYPE
  5
16
100
AcDbSymbolTableRecord
100
AcDbLinetypeTableRecord
  2
CONTINUOUS
 70
64
  3
Solid line
 72
65
 73
0
 40
0.0
  0
LTYPE
  5
1F5
100
AcDbSymbolTableRecord
100
AcDbLinetypeTableRecord
  2
CENTER
 70
64
  3
____ _ ____ _ ____ _ ____ _ ____ _ ____ _ ____
 72
65
 73
4
 40
0.6
 49
0.375
 74
0
 49
-0.075
 74
0
 49
0.075
 74
0
 49
-0.075
 74
0
  0
LTYPE
  5
1F6
100
AcDbSymbolTableRecord
100
AcDbLinetypeTableRecord
  2
HIDDEN
 70
64
  3
- - - - - - - - - - - - - - - - - - - -
 72
65
 73
2
 40
0.2
 49
0.1
 74
0
 49
-0.1
 74
0
  0
LTYPE
  5
1F7
100
AcDbSymbolTableRecord
100
AcDbLinetypeTableRecord
  2
PHANTOM
 70
64
  3
_____ _ _ _____ _ _ _____ _ _ _____
 72
65
 73
6
 40
0.8
 49
0.45
 74
0
 49
-0.05
 74
0
 49
0.1
 74
0
 49
-0.05
 74
0
 49
0.1
 74
0
 49
-0.05
 74
0
  0
LTYPE
  5
1F8
100
AcDbSymbolTableRecord
100
AcDbLinetypeTableRecord
  2
DOT
 70
64
  3
. . . . . . . . . . . . . . . . . . . .
 72
65
 73
2
 40
0.2
 49
0.1
 74
0
 49
-0.1
 74
0
  0
LTYPE
  5
1F9
100
AcDbSymbolTableRecord
100
AcDbLinetypeTableRecord
  2
DASHED
 70
64
  3
- - - - - - - - - - - - - - - - - - - -
 72
65
 73
2
 40
0.2
 49
0.1
 74
0
 49
-0.1
 74
0
  0
ENDTAB
  0
TABLE
  2
LAYER
  5
2
100
AcDbSymbolTable
 70
36
  0
LAYER
  5
10
100
AcDbSymbolTableRecord
100
AcDbLayerTableRecord
  2
0
 70
0
 62
7
  6
CONTINUOUS
370
-3
390
F
  0
LAYER
  5
1FA
100
AcDbSymbolTableRecord
100
AcDbLayerTableRecord
  2
DEFAULT_1
 70
0
 62
7
  6
CENTER
370
-3
390
F
  0
LAYER
  5
1FB
100
AcDbSymbolTableRecord
100
AcDbLayerTableRecord
  2
DEFAULT_2
 70
0
 62
7
  6
HIDDEN
370
-3
390
F
  0
LAYER
  5
1FC
100
AcDbSymbolTableRecord
100
AcDbLayerTableRecord
  2
DEFAULT_3
 70
0
 62
7
  6
PHANTOM
370
-3
390
F
  0
LAYER
  5
1FD
100
AcDbSymbolTableRecord
100
AcDbLayerTableRecord
  2
ASSI
 70
0
 62
7
  6
CONTINUOUS
370
-3
390
F
  0
LAYER
  5
1FE
100
AcDbSymbolTableRecord
100
AcDbLayerTableRecord
  2
COORDINATE
 70
0
 62
7
  6
CONTINUOUS
370
-3
390
F
  0
LAYER
  5
1FF
100
AcDbSymbolTableRecord
100
AcDbLayerTableRecord
  2
COORD_ORIGINE
 70
0
 62
7
  6
CONTINUOUS
370
-3
390
F
  0
LAYER
  5
200
100
AcDbSymbolTableRecord
100
AcDbLayerTableRecord
  2
COPY_PUBLISH
 70
0
 62
7
  6
CONTINUOUS
370
-3
390
F
  0
LAYER
  5
201
100
AcDbSymbolTableRecord
100
AcDbLayerTableRecord
  2
COSMETIC
 70
0
 62
7
  6
CONTINUOUS
370
-3
390
F
  0
LAYER
  5
202
100
AcDbSymbolTableRecord
100
AcDbLayerTableRecord
  2
CURVE
 70
0
 62
7
  6
CONTINUOUS
370
-3
390
F
  0
LAYER
  5
203
100
AcDbSymbolTableRecord
100
AcDbLayerTableRecord
  2
DRAFT
 70
0
 62
7
  6
CONTINUOUS
370
-3
390
F
  0
LAYER
  5
204
100
AcDbSymbolTableRecord
100
AcDbLayerTableRecord
  2
IMPORT_IGES
 70
0
 62
7
  6
CONTINUOUS
370
-3
390
F
  0
LAYER
  5
205
100
AcDbSymbolTableRecord
100
AcDbLayerTableRecord
  2
INTFCLR_2
 70
0
 62
7
  6
CONTINUOUS
370
-3
390
F
  0
LAYER
  5
206
100
AcDbSymbolTableRecord
100
AcDbLayerTableRecord
  2
PIANI
 70
0
 62
7
  6
CONTINUOUS
370
-3
390
F
  0
LAYER
  5
207
100
AcDbSymbolTableRecord
100
AcDbLayerTableRecord
  2
PIANI_ORIGINE
 70
0
 62
7
  6
CONTINUOUS
370
-3
390
F
  0
LAYER
  5
208
100
AcDbSymbolTableRecord
100
AcDbLayerTableRecord
  2
PIANI_RIFERIMENTO
 70
0
 62
7
  6
CONTINUOUS
370
-3
390
F
  0
LAYER
  5
209
100
AcDbSymbolTableRecord
100
AcDbLayerTableRecord
  2
PUNTI
 70
0
 62
7
  6
CONTINUOUS
370
-3
390
F
  0
LAYER
  5
20A
100
AcDbSymbolTableRecord
100
AcDbLayerTableRecord
  2
RACCORDO
 70
0
 62
7
  6
CONTINUOUS
370
-3
390
F
  0
LAYER
  5
20B
100
AcDbSymbolTableRecord
100
AcDbLayerTableRecord
  2
SMUSSO
 70
0
 62
7
  6
CONTINUOUS
370
-3
390
F
  0
LAYER
  5
20C
100
AcDbSymbolTableRecord
100
AcDbLayerTableRecord
  2
SNAPLINE
 70
0
 62
7
  6
CONTINUOUS
370
-3
390
F
  0
LAYER
  5
20D
100
AcDbSymbolTableRecord
100
AcDbLayerTableRecord
  2
SUPERFICI
 70
0
 62
7
  6
CONTINUOUS
370
-3
390
F
  0
LAYER
  5
20E
100
AcDbSymbolTableRecord
100
AcDbLayerTableRecord
  2
TRASH
 70
0
 62
7
  6
CONTINUOUS
370
-3
390
F
  0
LAYER
  5
20F
100
AcDbSymbolTableRecord
100
AcDbLayerTableRecord
  2
XSEC_DATUMS
 70
0
 62
7
  6
CONTINUOUS
370
-3
390
F
  0
ENDTAB
  0
TABLE
  2
STYLE
  5
3
100
AcDbSymbolTable
 70
1
  0
STYLE
  5
11
100
AcDbSymbolTableRecord
100
AcDbTextStyleTableRecord
  2
STANDARD
 70
0
 40
0.0
 41
0.8
 50
0.0
 71
0
 42
0.2
  3
txt
  4

  0
STYLE
  5
210
100
AcDbSymbolTableRecord
100
AcDbTextStyleTableRecord
  2
TEXTSTYLE_1
 70
0
 40
0.0
 41
0.8
 50
0.0
 71
0
 42
0.2
  3
gdt
  4

  0
ENDTAB
  0
TABLE
  2
VIEW
  5
6
100
AcDbSymbolTable
 70
0
  0
ENDTAB
  0
TABLE
  2
UCS
  5
7
100
AcDbSymbolTable
 70
0
  0
ENDTAB
  0
TABLE
  2
APPID
  5
9
100
AcDbSymbolTable
 70
1
  0
APPID
  5
211
100
AcDbSymbolTableRecord
100
AcDbRegAppTableRecord
  2
ACAD
 70
0
  0
ENDTAB
  0
TABLE
  2
BLOCK_RECORD
  5
1
100
AcDbSymbolTable
 70
0
  0
BLOCK_RECORD
  5
212
100
AcDbSymbolTableRecord
100
AcDbBlockTableRecord
  2
*Model_Space
  0
BLOCK_RECORD
  5
213
100
AcDbSymbolTableRecord
100
AcDbBlockTableRecord
  2
*Paper_Space
  0
BLOCK_RECORD
  5
214
100
AcDbSymbolTableRecord
100
AcDbBlockTableRecord
  2
_FILLED
  0
BLOCK_RECORD
  5
215
100
AcDbSymbolTableRecord
100
AcDbBlockTableRecord
  2
*D0
  0
BLOCK_RECORD
  5
216
100
AcDbSymbolTableRecord
100
AcDbBlockTableRecord
  2
*D1
  0
BLOCK_RECORD
  5
217
100
AcDbSymbolTableRecord
100
AcDbBlockTableRecord
  2
*D2
  0
BLOCK_RECORD
  5
218
100
AcDbSymbolTableRecord
100
AcDbBlockTableRecord
  2
*D3
  0
ENDTAB
  0
TABLE
  2
DIMSTYLE
  5
A
100
AcDbSymbolTable
 70
1
100
AcDbDimStyleTable
 71
0
  0
DIMSTYLE
105
219
100
AcDbSymbolTableRecord
100
AcDbDimStyleTableRecord
  2
STANDARD
 70
0
  3

  4

 40
1.0
 41
3.0
 42
0.0625
 43
0.38
 44
0.18
 45
0.0
 46
0.0
 47
0.01
 48
0.01
140
3.0
141
0.09
142
0.0
143
25.4
144
1.0
145
0.0
146
1.0
147
0.09
 71
1.0
 72
0.0
 73
0
 74
0
 75
0
 76
0
 77
1
 78
8
170
0
171
2
172
0
173
0
174
0
175
0
176
0
177
0
178
0
270
2
271
2
272
2
273
2
274
2
275
0
280
0
281
0
282
0
283
1
284
8
285
0
286
0
287
3
288
0
340
11
341
214
342
214
343
214
344
214
  0
DIMSTYLE
105
21A
100
AcDbSymbolTableRecord
100
AcDbDimStyleTableRecord
  2
DIMSTYLE_1
 70
0
  3

  4

 40
1.0
 41
3.0
 42
0.0625
 43
0.38
 44
0.18
 45
0.0
 46
0.0
 47
0.0
 48
0.0
140
3.0
141
0.09
142
0.0
143
25.4
144
1.0
145
0.0
146
1.0
147
0.09
 71
0.0
 72
0.0
 73
0
 74
0
 75
0
 76
0
 77
1
 78
8
170
0
171
2
172
0
173
0
174
0
175
0
176
0
177
0
178
0
270
2
271
2
272
2
273
2
274
2
275
0
280
0
281
0
282
0
283
1
284
8
285
0
286
0
287
3
288
0
340
11
341
214
342
214
343
214
344
214
  0
ENDTAB
  0
ENDSEC
  0
SECTION
  2
BLOCKS
  0
BLOCK
  5
20
100
AcDbEntity
  8
0
100
AcDbBlockBegin
  2
*Model_Space
 70
0
 10
0.0
 20
0.0
 30
0.0
  3
*Model_Space
  1

  0
ENDBLK
  5
21
100
AcDbEntity
  8
0
100
AcDbBlockEnd
  0
BLOCK
  5
1C
100
AcDbEntity
  8
0
100
AcDbBlockBegin
  2
*Paper_Space
 70
0
 10
0.0
 20
0.0
 30
0.0
  3
*Paper_Space
  1

  0
ENDBLK
  5
1D
100
AcDbEntity
  8
0
100
AcDbBlockEnd
  0
BLOCK
  5
21B
100
AcDbEntity
  8
0
100
AcDbBlockBegin
  2
_FILLED
 70
64
 10
0.0
 20
0.0
  3
_FILLED
  1

  0
SOLID
  5
21C
100
AcDbEntity
  8
0
  6
BYBLOCK
 62
0
100
AcDbTrace
 10
0.0
 20
0.0
 11
-1.0
 21
0.3166666667
 12
-1.0
 22
-0.3166666667
 13
-1.0
 23
-0.3166666667
  0
ENDBLK
  5
21D
100
AcDbEntity
  8
0
  6
BYBLOCK
 62
0
100
AcDbBlockEnd
  0
BLOCK
  5
21E
100
AcDbEntity
  8
0
100
AcDbBlockBegin
 62
7
  6
CONTINUOUS
  2
*D0
 70
65
 10
0.0
 20
0.0
  3
*D0
  1

  0
MTEXT
  5
21F
100
AcDbEntity
  8
0
100
AcDbMText
 62
7
  6
CONTINUOUS
  7
STANDARD
 71
2
 72
1
 10
53.9499999996
 20
0.0
 30
0.0
 11
0.0
 21
1.0
 31
0.0
 44
0.9
  1
95,4
 40
3.0
 41
8.5714285714
  0
LINE
  5
220
100
AcDbEntity
  8
0
100
AcDbLine
 62
7
  6
CONTINUOUS
 10
47.2000000004
 20
47.7
 11
59.1999999996
 21
47.7
  0
LINE
  5
221
100
AcDbEntity
  8
0
100
AcDbLine
 62
7
  6
CONTINUOUS
 10
47.2000000004
 20
-47.7
 11
59.1999999996
 21
-47.7
  0
LINE
  5
222
100
AcDbEntity
  8
0
100
AcDbLine
 62
7
  6
CONTINUOUS
 10
57.6999999996
 20
47.7
 11
57.6999999996
 21
0.0
  0
LINE
  5
223
100
AcDbEntity
  8
0
100
AcDbLine
 62
7
  6
CONTINUOUS
 10
57.6999999996
 20
-47.7
 11
57.6999999996
 21
0.0
  0
INSERT
  5
224
100
AcDbEntity
  8
0
100
AcDbBlockReference
 62
7
  6
CONTINUOUS
  2
_FILLED
 10
57.6999999996
 20
47.7
 41
3.0
 42
3.0
 43
3.0
 50
90.0
  0
INSERT
  5
225
100
AcDbEntity
  8
0
100
AcDbBlockReference
 62
7
  6
CONTINUOUS
  2
_FILLED
 10
57.6999999996
 20
-47.7
 41
3.0
 42
3.0
 43
3.0
 50
270.0
  0
ENDBLK
  5
226
100
AcDbEntity
  8
0
  6
BYBLOCK
 62
0
100
AcDbBlockEnd
  0
BLOCK
  5
227
100
AcDbEntity
  8
0
100
AcDbBlockBegin
 62
7
  6
CONTINUOUS
  2
*D1
 70
65
 10
0.0
 20
0.0
  3
*D1
  1

  0
MTEXT
  5
228
100
AcDbEntity
  8
0
100
AcDbMText
 62
7
  6
CONTINUOUS
  7
STANDARD
 71
2
 72
1
 10
0.0000000004
 20
61.4499999991
 30
0.0
 11
1.0
 21
0.0
 31
0.0
 44
0.9
  1
95,4
 40
3.0
 41
8.5714285714
  0
LINE
  5
229
100
AcDbEntity
  8
0
100
AcDbLine
 62
7
  6
CONTINUOUS
 10
47.7000000004
 20
47.2
 11
47.7000000004
 21
59.1999999991
  0
LINE
  5
22A
100
AcDbEntity
  8
0
100
AcDbLine
 62
7
  6
CONTINUOUS
 10
-47.6999999996
 20
47.2
 11
-47.6999999996
 21
59.1999999991
  0
LINE
  5
22B
100
AcDbEntity
  8
0
100
AcDbLine
 62
7
  6
CONTINUOUS
 10
47.7000000004
 20
57.6999999991
 11
0.0000000004
 21
57.6999999991
  0
LINE
  5
22C
100
AcDbEntity
  8
0
100
AcDbLine
 62
7
  6
CONTINUOUS
 10
-47.6999999996
 20
57.6999999991
 11
0.0000000004
 21
57.6999999991
  0
INSERT
  5
22D
100
AcDbEntity
  8
0
100
AcDbBlockReference
 62
7
  6
CONTINUOUS
  2
_FILLED
 10
47.7000000004
 20
57.6999999991
 41
3.0
 42
3.0
 43
3.0
 50
0.0
  0
INSERT
  5
22E
100
AcDbEntity
  8
0
100
AcDbBlockReference
 62
7
  6
CONTINUOUS
  2
_FILLED
 10
-47.6999999996
 20
57.6999999991
 41
3.0
 42
3.0
 43
3.0
 50
180.0
  0
ENDBLK
  5
22F
100
AcDbEntity
  8
0
  6
BYBLOCK
 62
0
100
AcDbBlockEnd
  0
BLOCK
  5
230
100
AcDbEntity
  8
0
100
AcDbBlockBegin
 62
7
  6
CONTINUOUS
  2
*D2
 70
65
 10
0.0
 20
0.0
  3
*D2
  1

  0
MTEXT
  5
231
100
AcDbEntity
  8
0
100
AcDbMText
 62
7
  6
CONTINUOUS
  7
STANDARD
 71
3
 72
1
 10
-82.0261611022
 20
61.4499999991
 30
0.0
 11
1.0
 21
0.0
 31
0.0
 44
0.9
  1
8,6
 40
3.0
 41
6.4285714286
  0
LINE
  5
232
100
AcDbEntity
  8
0
100
AcDbLine
 62
7
  6
CONTINUOUS
 10
-81.1025000805
 20
26.052013795
 11
-81.1025000805
 21
59.1999999991
  0
LINE
  5
233
100
AcDbEntity
  8
0
100
AcDbLine
 62
7
  6
CONTINUOUS
 10
-72.5025000805
 20
46.65
 11
-72.5025000805
 21
59.1999999991
  0
LINE
  5
234
100
AcDbEntity
  8
0
100
AcDbLine
 62
7
  6
CONTINUOUS
 10
-81.1025000805
 20
57.6999999991
 11
-76.8025000805
 21
57.6999999991
  0
LINE
  5
235
100
AcDbEntity
  8
0
100
AcDbLine
 62
7
  6
CONTINUOUS
 10
-76.8025000805
 20
57.6999999991
 11
-88.4547325308
 21
57.6999999991
  0
LINE
  5
236
100
AcDbEntity
  8
0
100
AcDbLine
 62
7
  6
CONTINUOUS
 10
-72.5025000805
 20
57.6999999991
 11
-76.8025000805
 21
57.6999999991
  0
INSERT
  5
237
100
AcDbEntity
  8
0
100
AcDbBlockReference
 62
7
  6
CONTINUOUS
  2
_FILLED
 10
-81.1025000805
 20
57.6999999991
 41
3.0
 42
3.0
 43
3.0
 50
180.0
  0
INSERT
  5
238
100
AcDbEntity
  8
0
100
AcDbBlockReference
 62
7
  6
CONTINUOUS
  2
_FILLED
 10
-72.5025000805
 20
57.6999999991
 41
3.0
 42
3.0
 43
3.0
  0
ENDBLK
  5
239
100
AcDbEntity
  8
0
  6
BYBLOCK
 62
0
100
AcDbBlockEnd
  0
BLOCK
  5
23A
100
AcDbEntity
  8
0
100
AcDbBlockBegin
 62
7
  6
CONTINUOUS
  2
*D3
 70
65
 10
0.0
 20
0.0
  3
*D3
  1

  0
MTEXT
  5
23B
100
AcDbEntity
  8
0
100
AcDbMText
 62
7
  6
CONTINUOUS
  7
STANDARD
 71
3
 72
1
 10
-82.6025297805
 20
69.4499999991
 30
0.0
 11
1.0
 21
0.0
 31
0.0
 44
0.9
  1
10,3
 40
3.0
 41
7.9285714286
  0
LINE
  5
23C
100
AcDbEntity
  8
0
100
AcDbLine
 62
7
  6
CONTINUOUS
 10
-81.1025000805
 20
26.052013795
 11
-81.1025000805
 21
67.1999999991
  0
LINE
  5
23D
100
AcDbEntity
  8
0
100
AcDbLine
 62
7
  6
CONTINUOUS
 10
-70.8025000805
 20
26.4897929133
 11
-70.8025000805
 21
67.1999999991
  0
LINE
  5
23E
100
AcDbEntity
  8
0
100
AcDbLine
 62
7
  6
CONTINUOUS
 10
-81.1025000805
 20
65.6999999991
 11
-75.9525000805
 21
65.6999999991
  0
LINE
  5
23F
100
AcDbEntity
  8
0
100
AcDbLine
 62
7
  6
CONTINUOUS
 10
-75.9525000805
 20
65.6999999991
 11
-90.5311012091
 21
65.6999999991
  0
LINE
  5
240
100
AcDbEntity
  8
0
100
AcDbLine
 62
7
  6
CONTINUOUS
 10
-70.8025000805
 20
65.6999999991
 11
-75.9525000805
 21
65.6999999991
  0
INSERT
  5
241
100
AcDbEntity
  8
0
100
AcDbBlockReference
 62
7
  6
CONTINUOUS
  2
_FILLED
 10
-81.1025000805
 20
65.6999999991
 41
3.0
 42
3.0
 43
3.0
 50
180.0
  0
INSERT
  5
242
100
AcDbEntity
  8
0
100
AcDbBlockReference
 62
7
  6
CONTINUOUS
  2
_FILLED
 10
-70.8025000805
 20
65.6999999991
 41
3.0
 42
3.0
 43
3.0
  0
ENDBLK
  5
243
100
AcDbEntity
  8
0
  6
BYBLOCK
 62
0
100
AcDbBlockEnd
  0
ENDSEC
  0
SECTION
  2
ENTITIES
  0
DIMENSION
  5
244
100
AcDbEntity
  8
0
100
AcDbDimension
 62
7
  6
CONTINUOUS
  2
*D0
 10
57.6999999996
 20
-47.7
 11
57.3703154972
 21
-3.8314142726
 70
160
 71
2
 42
95.4
  3
DIMSTYLE_1
100
AcDbAlignedDimension
 13
47.2000000004
 23
47.7
 14
47.2000000004
 24
-47.7
 50
270.0
100
AcDbRotatedDimension
  0
DIMENSION
  5
245
100
AcDbEntity
  8
0
100
AcDbDimension
 62
7
  6
CONTINUOUS
  2
*D1
 10
-47.6999999996
 20
57.6999999991
 11
-4.2857142853
 21
59.9499999991
 70
160
 71
2
 42
95.4
  3
DIMSTYLE_1
100
AcDbAlignedDimension
 13
47.7000000004
 23
47.2
 14
-47.6999999996
 24
47.2
 50
180.0
100
AcDbRotatedDimension
  0
DIMENSION
  5
246
100
AcDbEntity
  8
0
100
AcDbDimension
 62
7
  6
CONTINUOUS
  2
*D2
 10
-72.5025000805
 20
57.6999999991
 11
-91.669018245
 21
59.9499999991
 70
160
 71
3
 42
8.6
  3
DIMSTYLE_1
100
AcDbAlignedDimension
 13
-81.1025000805
 23
26.052013795
 14
-72.5025000805
 24
46.65
100
AcDbRotatedDimension
  0
DIMENSION
  5
247
100
AcDbEntity
  8
0
100
AcDbDimension
 62
7
  6
CONTINUOUS
  2
*D3
 10
-70.8025000805
 20
65.6999999991
 11
-94.4953869234
 21
67.9499999991
 70
160
 71
3
 42
10.3
  3
DIMSTYLE_1
100
AcDbAlignedDimension
 13
-81.1025000805
 23
26.052013795
 14
-70.8025000805
 24
26.4897929133
100
AcDbRotatedDimension
  0
LINE
  5
248
100
AcDbEntity
  8
SMUSSO
100
AcDbLine
 62
7
  6
CONTINUOUS
 10
-47.6999999996
 20
46.7
 11
-47.6999999996
 21
-46.7
  0
LINE
  5
249
100
AcDbEntity
  8
SMUSSO
100
AcDbLine
 62
7
  6
CONTINUOUS
 10
-46.6999999996
 20
46.7
 11
-46.6999999996
 21
-46.7
  0
LINE
  5
24A
100
AcDbEntity
  8
SMUSSO
100
AcDbLine
 62
253
  6
CONTINUOUS
 10
-46.6999999996
 20
-46.7
 11
-46.6999999996
 21
-47.7
  0
LINE
  5
24B
100
AcDbEntity
  8
SMUSSO
100
AcDbLine
 62
253
  6
CONTINUOUS
 10
-46.6999999996
 20
46.7
 11
-46.6999999996
 21
47.7
  0
LINE
  5
24C
100
AcDbEntity
  8
SMUSSO
100
AcDbLine
 62
7
  6
CONTINUOUS
 10
-46.6999999996
 20
-47.7
 11
46.7000000004
 21
-47.7
  0
LINE
  5
24D
100
AcDbEntity
  8
SMUSSO
100
AcDbLine
 62
7
  6
CONTINUOUS
 10
-46.6999999996
 20
-46.7
 11
46.7000000004
 21
-46.7
  0
LINE
  5
24E
100
AcDbEntity
  8
SMUSSO
100
AcDbLine
 62
253
  6
CONTINUOUS
 10
46.7000000004
 20
-46.7
 11
47.7000000004
 21
-46.7
  0
LINE
  5
24F
100
AcDbEntity
  8
SMUSSO
100
AcDbLine
 62
253
  6
CONTINUOUS
 10
-46.6999999996
 20
-46.7
 11
-47.6999999996
 21
-46.7
  0
LINE
  5
250
100
AcDbEntity
  8
RACCORDO
100
AcDbLine
 62
7
  6
CONTINUOUS
 10
-25.908980597
 20
-25.5590872108
 11
-25.908980597
 21
25.5590872108
  0
LINE
  5
251
100
AcDbEntity
  8
RACCORDO
100
AcDbLine
 62
253
  6
CONTINUOUS
 10
-25.9019071811
 20
25.552013795
 11
-25.9019071811
 21
-25.552013795
  0
LINE
  5
252
100
AcDbEntity
  8
RACCORDO
100
AcDbLine
 62
253
  6
CONTINUOUS
 10
-25.6019528726
 20
25.552013795
 11
-25.6019528726
 21
-25.5552429259
  0
LINE
  5
253
100
AcDbEntity
  8
RACCORDO
100
AcDbLine
 62
253
  6
CONTINUOUS
 10
-25.2020137925
 20
26.2519071816
 11
-25.2020137945
 21
25.951952873
  0
LINE
  5
254
100
AcDbEntity
  8
RACCORDO
100
AcDbLine
 62
253
  6
CONTINUOUS
 10
-25.2020137931
 20
-26.2519071816
 11
-25.2020137945
 21
-25.951952873
  0
LINE
  5
255
100
AcDbEntity
  8
RACCORDO
100
AcDbLine
 62
253
  6
CONTINUOUS
 10
-23.2014857561
 20
-22.828226657
 11
-23.2014857561
 21
22.828226657
  0
LINE
  5
256
100
AcDbEntity
  8
RACCORDO
100
AcDbLine
 62
253
  6
CONTINUOUS
 10
-22.9060434302
 20
-22.8282269838
 11
-22.9060434302
 21
22.8282269714
  0
LINE
  5
257
100
AcDbEntity
  8
RACCORDO
100
AcDbLine
 62
253
  6
CONTINUOUS
 10
-22.6568332035
 20
22.2993589244
 11
-22.6568332035
 21
-22.2993589244
  0
LINE
  5
258
100
AcDbEntity
  8
RACCORDO
100
AcDbLine
 62
253
  6
CONTINUOUS
 10
-22.6493132325
 20
22.2993589244
 11
-22.6493132325
 21
-22.2993589244
  0
LINE
  5
259
100
AcDbEntity
  8
RACCORDO
100
AcDbLine
 62
7
  6
CONTINUOUS
 10
-22.6412724671
 20
-22.291318159
 11
-22.6412724671
 21
22.291318159
  0
LINE
  5
25A
100
AcDbEntity
  8
RACCORDO
100
AcDbLine
 62
253
  6
CONTINUOUS
 10
-22.6284142165
 20
23.4288116597
 11
-22.6284142165
 21
23.1469038735
  0
LINE
  5
25B
100
AcDbEntity
  8
RACCORDO
100
AcDbLine
 62
253
  6
CONTINUOUS
 10
-22.6284142165
 20
-23.4288116597
 11
-22.6284142165
 21
-23.1469038735
  0
LINE
  5
25C
100
AcDbEntity
  8
RACCORDO
100
AcDbLine
 62
253
  6
CONTINUOUS
 10
-22.3485854254
 20
22.5985397344
 11
-22.348585422
 21
22.6286172708
  0
LINE
  5
25D
100
AcDbEntity
  8
RACCORDO
100
AcDbLine
 62
253
  6
CONTINUOUS
 10
-22.3485854254
 20
-22.5985397344
 11
-22.3485854254
 21
-22.6286172716
  0
LINE
  5
25E
100
AcDbEntity
  8
RACCORDO
100
AcDbLine
 62
7
  6
CONTINUOUS
 10
25.2090872113
 20
-26.2589805974
 11
-25.2090872104
 21
-26.2589805974
  0
LINE
  5
25F
100
AcDbEntity
  8
RACCORDO
100
AcDbLine
 62
253
  6
CONTINUOUS
 10
-25.2020137945
 20
-26.2519071816
 11
25.2020137954
 21
-26.2519071816
  0
LINE
  5
260
100
AcDbEntity
  8
RACCORDO
100
AcDbLine
 62
253
  6
CONTINUOUS
 10
-25.2020137945
 20
-25.951952873
 11
25.2020137954
 21
-25.951952873
  0
LINE
  5
261
100
AcDbEntity
  8
0
100
AcDbLine
 62
7
  6
CONTINUOUS
 10
-3.4467269996
 20
-25.765174
 11
-3.0604609996
 21
-25.765174
  0
LINE
  5
262
100
AcDbEntity
  8
0
100
AcDbLine
 62
7
  6
CONTINUOUS
 10
-2.2228339996
 20
-25.765174
 11
-1.7845179996
 21
-25.765174
  0
LINE
  5
263
100
AcDbEntity
  8
0
100
AcDbLine
 62
7
  6
CONTINUOUS
 10
-1.5485589996
 20
-25.765174
 11
-1.1292339996
 21
-25.765174
  0
LINE
  5
264
100
AcDbEntity
  8
0
100
AcDbLine
 62
7
  6
CONTINUOUS
 10
-0.5204479996
 20
-25.765174
 11
-0.4589749996
 21
-25.765174
  0
LINE
  5
265
100
AcDbEntity
  8
0
100
AcDbLine
 62
7
  6
CONTINUOUS
 10
0.1522360004
 20
-25.765174
 11
0.5810250004
 21
-25.765174
  0
LINE
  5
266
100
AcDbEntity
  8
0
100
AcDbLine
 62
7
  6
CONTINUOUS
 10
0.6498520004
 20
-25.765174
 11
1.0834120004
 21
-25.765174
  0
LINE
  5
267
100
AcDbEntity
  8
0
100
AcDbLine
 62
7
  6
CONTINUOUS
 10
1.9148200004
 20
-25.765174
 11
2.3767860004
 21
-25.765174
  0
LINE
  5
268
100
AcDbEntity
  8
0
100
AcDbLine
 62
7
  6
CONTINUOUS
 10
2.5054968765
 20
-25.7651743977
 11
2.94204876
 21
-25.7651743977
  0
LINE
  5
269
100
AcDbEntity
  8
0
100
AcDbLine
 62
7
  6
CONTINUOUS
 10
3.6132685384
 20
-25.7651743977
 11
4.0348771332
 21
-25.7651743977
  0
LINE
  5
26A
100
AcDbEntity
  8
RACCORDO
100
AcDbLine
 62
253
  6
CONTINUOUS
 10
-25.9019071811
 20
-25.552013793
 11
-25.6019528726
 21
-25.552013795
  0
LINE
  5
26B
100
AcDbEntity
  8
RACCORDO
100
AcDbLine
 62
253
  6
CONTINUOUS
 10
25.901907182
 20
-25.5520137936
 11
25.6019528735
 21
-25.552013795
  0
LINE
  5
26C
100
AcDbEntity
  8
0
100
AcDbLine
 62
7
  6
CONTINUOUS
 10
1.2043600004
 20
-25.345975
 11
1.8012730004
 21
-25.345975
  0
LINE
  5
26D
100
AcDbEntity
  8
0
100
AcDbLine
 62
7
  6
CONTINUOUS
 10
1.7136760004
 20
-25.0216
 11
1.2940200004
 21
-25.0216
  0
LINE
  5
26E
100
AcDbEntity
  8
0
100
AcDbLine
 62
7
  6
CONTINUOUS
 10
2.94204876
 20
-24.943419487
 11
3.1770630747
 21
-24.943419487
  0
LINE
  5
26F
100
AcDbEntity
  8
0
100
AcDbLine
 62
7
  6
CONTINUOUS
 10
3.1780078559
 20
-24.5995191431
 11
2.9275148764
 21
-24.5995191431
  0
LINE
  5
270
100
AcDbEntity
  8
0
100
AcDbLine
 62
7
  6
CONTINUOUS
 10
1.7325080004
 20
-23.665351
 11
1.3084910004
 21
-23.665351
  0
LINE
  5
271
100
AcDbEntity
  8
0
100
AcDbLine
 62
7
  6
CONTINUOUS
 10
0.3846680004
 20
-23.665351
 11
-0.0490019996
 21
-23.665351
  0
LINE
  5
272
100
AcDbEntity
  8
0
100
AcDbLine
 62
7
  6
CONTINUOUS
 10
-0.9210039996
 20
-23.665351
 11
-1.3589569996
 21
-23.665351
  0
LINE
  5
273
100
AcDbEntity
  8
0
100
AcDbLine
 62
7
  6
CONTINUOUS
 10
-2.3854929996
 20
-23.665351
 11
-2.8235099996
 21
-23.665351
  0
LINE
  5
274
100
AcDbEntity
  8
0
100
AcDbLine
 62
7
  6
CONTINUOUS
 10
-3.6362659996
 20
-23.665351
 11
-4.1124119996
 21
-23.665351
  0
LINE
  5
275
100
AcDbEntity
  8
0
100
AcDbLine
 62
7
  6
CONTINUOUS
 10
-1.7845179996
 20
-23.665225
 11
-2.2228339996
 21
-23.665225
  0
LINE
  5
276
100
AcDbEntity
  8
RACCORDO
100
AcDbLine
 62
253
  6
CONTINUOUS
 10
22.6284142174
 20
-23.4288116597
 11
-22.6284142165
 21
-23.4288116597
  0
LINE
  5
277
100
AcDbEntity
  8
RACCORDO
100
AcDbLine
 62
253
  6
CONTINUOUS
 10
22.6284013661
 20
-23.1469038735
 11
-22.6284353184
 21
-23.1469038735
  0
LINE
  5
278
100
AcDbEntity
  8
RACCORDO
100
AcDbLine
 62
253
  6
CONTINUOUS
 10
-23.2014857561
 20
-22.828226657
 11
-22.9060434302
 21
-22.828226657
  0
LINE
  5
279
100
AcDbEntity
  8
RACCORDO
100
AcDbLine
 62
253
  6
CONTINUOUS
 10
23.201485757
 20
-22.828226657
 11
22.9060434311
 21
-22.8282266572
  0
LINE
  5
27A
100
AcDbEntity
  8
RACCORDO
100
AcDbLine
 62
253
  6
CONTINUOUS
 10
-22.3485854254
 20
-22.6286172716
 11
22.3485854263
 21
-22.6286172716
  0
LINE
  5
27B
100
AcDbEntity
  8
RACCORDO
100
AcDbLine
 62
253
  6
CONTINUOUS
 10
-22.3485854254
 20
-22.5985397344
 11
22.3485854263
 21
-22.5985397344
  0
LINE
  5
27C
100
AcDbEntity
  8
RACCORDO
100
AcDbLine
 62
7
  6
CONTINUOUS
 10
22.3413181594
 20
-22.5912724675
 11
-22.3413181585
 21
-22.5912724675
  0
LINE
  5
27D
100
AcDbEntity
  8
RACCORDO
100
AcDbLine
 62
253
  6
CONTINUOUS
 10
22.6493132334
 20
-22.2993589244
 11
22.6568332044
 21
-22.2993589244
  0
LINE
  5
27E
100
AcDbEntity
  8
RACCORDO
100
AcDbLine
 62
253
  6
CONTINUOUS
 10
-22.6493132325
 20
-22.2993589244
 11
-22.6568332035
 21
-22.2993589244
  0
LINE
  5
27F
100
AcDbEntity
  8
RACCORDO
100
AcDbLine
 62
253
  6
CONTINUOUS
 10
-22.6284353184
 20
-23.1469038735
 11
-22.3772146555
 21
-22.6280795012
  0
LINE
  5
280
100
AcDbEntity
  8
RACCORDO
100
AcDbLine
 62
253
  6
CONTINUOUS
 10
-22.9060434302
 20
-22.8282269838
 11
-22.6566937461
 21
-22.3135245816
  0
LINE
  5
281
100
AcDbEntity
  8
RACCORDO
100
AcDbLine
 62
253
  6
CONTINUOUS
 10
-22.6566937461
 20
22.3135245816
 11
-22.9060434302
 21
22.8282269714
  0
LINE
  5
282
100
AcDbEntity
  8
RACCORDO
100
AcDbLine
 62
253
  6
CONTINUOUS
 10
-22.3771423421
 20
22.6280816648
 11
-22.6284262718
 21
23.1469038735
  0
LINE
  5
283
100
AcDbEntity
  8
0
100
AcDbLine
 62
7
  6
CONTINUOUS
 10
-1.0346449996
 20
-24.394029
 11
-0.5204479996
 21
-25.765174
  0
LINE
  5
284
100
AcDbEntity
  8
0
100
AcDbLine
 62
7
  6
CONTINUOUS
 10
-0.4873179996
 20
-24.831179
 11
-0.9210039996
 21
-23.665351
  0
LINE
  5
285
100
AcDbEntity
  8
0
100
AcDbLine
 62
7
  6
CONTINUOUS
 10
-4.1124119996
 20
-23.665351
 11
-3.4467269996
 21
-25.765174
  0
LINE
  5
286
100
AcDbEntity
  8
0
100
AcDbLine
 62
7
  6
CONTINUOUS
 10
-3.2360009996
 20
-25.110724
 11
-3.6362659996
 21
-23.665351
  0
LINE
  5
287
100
AcDbEntity
  8
0
100
AcDbLine
 62
7
  6
CONTINUOUS
 10
2.3767860004
 20
-25.765174
 11
1.7325080004
 21
-23.665351
  0
LINE
  5
288
100
AcDbEntity
  8
0
100
AcDbLine
 62
7
  6
CONTINUOUS
 10
1.8012730004
 20
-25.345975
 11
1.9148200004
 21
-25.765174
  0
LINE
  5
289
100
AcDbEntity
  8
0
100
AcDbLine
 62
7
  6
CONTINUOUS
 10
1.5122640004
 20
-24.242329
 11
1.7136760004
 21
-25.0216
  0
LINE
  5
28A
100
AcDbEntity
  8
0
100
AcDbLine
 62
7
  6
CONTINUOUS
 10
0.5810250004
 20
-25.765174
 11
0.3846680004
 21
-23.665351
  0
LINE
  5
28B
100
AcDbEntity
  8
0
100
AcDbLine
 62
7
  6
CONTINUOUS
 10
0.0621830004
 20
-24.399745
 11
0.1522360004
 21
-25.765174
  0
LINE
  5
28C
100
AcDbEntity
  8
0
100
AcDbLine
 62
7
  6
CONTINUOUS
 10
-2.2228339996
 20
-23.665225
 11
-2.2228339996
 21
-25.765174
  0
LINE
  5
28D
100
AcDbEntity
  8
0
100
AcDbLine
 62
7
  6
CONTINUOUS
 10
-1.7845179996
 20
-25.765174
 11
-1.7845179996
 21
-23.665225
  0
LINE
  5
28E
100
AcDbEntity
  8
RACCORDO
100
AcDbLine
 62
253
  6
CONTINUOUS
 10
25.2020137954
 20
26.2519071816
 11
25.2090872113
 21
26.2589805974
  0
LINE
  5
28F
100
AcDbEntity
  8
RACCORDO
100
AcDbLine
 62
253
  6
CONTINUOUS
 10
-22.6493132325
 20
-22.2993589244
 11
-22.6412724671
 21
-22.291318159
  0
LINE
  5
290
100
AcDbEntity
  8
RACCORDO
100
AcDbLine
 62
253
  6
CONTINUOUS
 10
-25.9019071811
 20
-25.552013795
 11
-25.908980597
 21
-25.5590872108
  0
LINE
  5
291
100
AcDbEntity
  8
RACCORDO
100
AcDbLine
 62
253
  6
CONTINUOUS
 10
22.3485854263
 20
22.5985397344
 11
22.3413181594
 21
22.5912724675
  0
LINE
  5
292
100
AcDbEntity
  8
RACCORDO
100
AcDbLine
 62
253
  6
CONTINUOUS
 10
-22.3485854254
 20
-22.5985397344
 11
-22.3413181585
 21
-22.5912724675
  0
LINE
  5
293
100
AcDbEntity
  8
RACCORDO
100
AcDbLine
 62
253
  6
CONTINUOUS
 10
25.901907182
 20
25.552013795
 11
25.9089805979
 21
25.5590872108
  0
LINE
  5
294
100
AcDbEntity
  8
RACCORDO
100
AcDbLine
 62
253
  6
CONTINUOUS
 10
22.6493132334
 20
22.2993589244
 11
22.641272468
 21
22.291318159
  0
LINE
  5
295
100
AcDbEntity
  8
RACCORDO
100
AcDbLine
 62
253
  6
CONTINUOUS
 10
25.2020137954
 20
-26.2519071816
 11
25.2090872113
 21
-26.2589805974
  0
LINE
  5
296
100
AcDbEntity
  8
RACCORDO
100
AcDbLine
 62
253
  6
CONTINUOUS
 10
-22.6412724671
 20
22.291318159
 11
-22.6493132325
 21
22.2993589244
  0
LINE
  5
297
100
AcDbEntity
  8
RACCORDO
100
AcDbLine
 62
253
  6
CONTINUOUS
 10
-25.9019071811
 20
25.552013795
 11
-25.908980597
 21
25.5590872108
  0
LINE
  5
298
100
AcDbEntity
  8
RACCORDO
100
AcDbLine
 62
253
  6
CONTINUOUS
 10
22.3485854263
 20
-22.5985397344
 11
22.3413181594
 21
-22.5912724675
  0
LINE
  5
299
100
AcDbEntity
  8
RACCORDO
100
AcDbLine
 62
253
  6
CONTINUOUS
 10
-22.3413181585
 20
22.5912724675
 11
-22.3485854254
 21
22.5985397344
  0
LINE
  5
29A
100
AcDbEntity
  8
RACCORDO
100
AcDbLine
 62
253
  6
CONTINUOUS
 10
25.901907182
 20
-25.552013795
 11
25.9089805979
 21
-25.5590872108
  0
LINE
  5
29B
100
AcDbEntity
  8
RACCORDO
100
AcDbLine
 62
253
  6
CONTINUOUS
 10
22.6493132334
 20
-22.2993589244
 11
22.641272468
 21
-22.291318159
  0
LINE
  5
29C
100
AcDbEntity
  8
0
100
AcDbLine
 62
7
  6
CONTINUOUS
 10
2.5054968765
 20
-23.6898838377
 11
2.5054968765
 21
-25.7651743977
  0
LINE
  5
29D
100
AcDbEntity
  8
0
100
AcDbLine
 62
7
  6
CONTINUOUS
 10
2.9275148764
 20
-24.5995191431
 11
2.9275148764
 21
-24.0230766618
  0
LINE
  5
29E
100
AcDbEntity
  8
0
100
AcDbLine
 62
7
  6
CONTINUOUS
 10
2.94204876
 20
-25.7651743977
 11
2.94204876
 21
-24.943419487
  0
LINE
  5
29F
100
AcDbEntity
  8
0
100
AcDbLine
 62
7
  6
CONTINUOUS
 10
3.6323846107
 20
-24.784995432
 11
3.6323846107
 21
-24.7725873061
  0
LINE
  5
2A0
100
AcDbEntity
  8
0
100
AcDbLine
 62
7
  6
CONTINUOUS
 10
-1.1292339996
 20
-25.765174
 11
-1.0346449996
 21
-24.394029
  0
LINE
  5
2A1
100
AcDbEntity
  8
0
100
AcDbLine
 62
7
  6
CONTINUOUS
 10
-1.3589569996
 20
-23.665351
 11
-1.5485589996
 21
-25.765174
  0
LINE
  5
2A2
100
AcDbEntity
  8
0
100
AcDbLine
 62
7
  6
CONTINUOUS
 10
-2.8235099996
 20
-23.665351
 11
-3.2360009996
 21
-25.110724
  0
LINE
  5
2A3
100
AcDbEntity
  8
0
100
AcDbLine
 62
7
  6
CONTINUOUS
 10
-3.0604609996
 20
-25.765174
 11
-2.3854929996
 21
-23.665351
  0
LINE
  5
2A4
100
AcDbEntity
  8
RACCORDO
100
AcDbLine
 62
253
  6
CONTINUOUS
 10
-25.2020137945
 20
-26.2519071816
 11
-25.2090872104
 21
-26.2589805974
  0
LINE
  5
2A5
100
AcDbEntity
  8
RACCORDO
100
AcDbLine
 62
253
  6
CONTINUOUS
 10
-25.2020137945
 20
26.2519071816
 11
-25.2090872104
 21
26.2589805974
  0
LINE
  5
2A6
100
AcDbEntity
  8
0
100
AcDbLine
 62
7
  6
CONTINUOUS
 10
1.2940200004
 20
-25.0216
 11
1.5122640004
 21
-24.242329
  0
LINE
  5
2A7
100
AcDbEntity
  8
0
100
AcDbLine
 62
7
  6
CONTINUOUS
 10
1.0834120004
 20
-25.765174
 11
1.2043600004
 21
-25.345975
  0
LINE
  5
2A8
100
AcDbEntity
  8
0
100
AcDbLine
 62
7
  6
CONTINUOUS
 10
1.3084910004
 20
-23.665351
 11
0.6498520004
 21
-25.765174
  0
LINE
  5
2A9
100
AcDbEntity
  8
0
100
AcDbLine
 62
7
  6
CONTINUOUS
 10
-0.0490019996
 20
-23.665351
 11
-0.4873179996
 21
-24.831179
  0
LINE
  5
2AA
100
AcDbEntity
  8
0
100
AcDbLine
 62
7
  6
CONTINUOUS
 10
-0.4589749996
 20
-25.765174
 11
0.0621830004
 21
-24.399745
  0
LINE
  5
2AB
100
AcDbEntity
  8
RACCORDO
100
AcDbLine
 62
253
  6
CONTINUOUS
 10
22.6284353193
 20
23.1469038735
 11
22.3772146563
 21
22.6280795012
  0
LINE
  5
2AC
100
AcDbEntity
  8
RACCORDO
100
AcDbLine
 62
253
  6
CONTINUOUS
 10
22.9060434311
 20
22.8282269838
 11
22.656693747
 21
22.3135245816
  0
LINE
  5
2AD
100
AcDbEntity
  8
RACCORDO
100
AcDbLine
 62
253
  6
CONTINUOUS
 10
22.6284013661
 20
-23.1469038735
 11
22.3771335438
 21
-22.6280818718
  0
LINE
  5
2AE
100
AcDbEntity
  8
RACCORDO
100
AcDbLine
 62
253
  6
CONTINUOUS
 10
22.9060434311
 20
-22.8282584332
 11
22.656693747
 21
-22.3135245877
  0
LINE
  5
2AF
100
AcDbEntity
  8
RACCORDO
100
AcDbLine
 62
253
  6
CONTINUOUS
 10
22.3485854263
 20
22.5985397344
 11
22.3485854263
 21
22.6286172716
  0
LINE
  5
2B0
100
AcDbEntity
  8
RACCORDO
100
AcDbLine
 62
253
  6
CONTINUOUS
 10
22.3485854263
 20
-22.5985397344
 11
22.3485854236
 21
-22.6286172712
  0
LINE
  5
2B1
100
AcDbEntity
  8
RACCORDO
100
AcDbLine
 62
253
  6
CONTINUOUS
 10
22.6284142174
 20
23.4288116597
 11
22.6284142174
 21
23.1469038735
  0
LINE
  5
2B2
100
AcDbEntity
  8
RACCORDO
100
AcDbLine
 62
253
  6
CONTINUOUS
 10
22.6284142174
 20
-23.4288116597
 11
22.6284142174
 21
-23.1469038735
  0
LINE
  5
2B3
100
AcDbEntity
  8
RACCORDO
100
AcDbLine
 62
7
  6
CONTINUOUS
 10
22.641272468
 20
22.291318159
 11
22.641272468
 21
-22.291318159
  0
LINE
  5
2B4
100
AcDbEntity
  8
RACCORDO
100
AcDbLine
 62
253
  6
CONTINUOUS
 10
22.6493132334
 20
-22.2993589244
 11
22.6493132334
 21
22.2993589244
  0
LINE
  5
2B5
100
AcDbEntity
  8
RACCORDO
100
AcDbLine
 62
253
  6
CONTINUOUS
 10
22.6568332044
 20
-22.2993589244
 11
22.6568332044
 21
22.2993589244
  0
LINE
  5
2B6
100
AcDbEntity
  8
RACCORDO
100
AcDbLine
 62
253
  6
CONTINUOUS
 10
22.9060434311
 20
22.8282269838
 11
22.9060434311
 21
-22.8282584332
  0
LINE
  5
2B7
100
AcDbEntity
  8
RACCORDO
100
AcDbLine
 62
253
  6
CONTINUOUS
 10
22.6493132334
 20
22.2993589244
 11
22.6568332044
 21
22.2993589244
  0
LINE
  5
2B8
100
AcDbEntity
  8
RACCORDO
100
AcDbLine
 62
253
  6
CONTINUOUS
 10
-22.6493132325
 20
22.2993589244
 11
-22.6568332035
 21
22.2993589244
  0
LINE
  5
2B9
100
AcDbEntity
  8
RACCORDO
100
AcDbLine
 62
7
  6
CONTINUOUS
 10
-22.3413181585
 20
22.5912724675
 11
22.3413181594
 21
22.5912724675
  0
LINE
  5
2BA
100
AcDbEntity
  8
RACCORDO
100
AcDbLine
 62
253
  6
CONTINUOUS
 10
22.3485854263
 20
22.5985397344
 11
-22.3485854254
 21
22.5985397344
  0
LINE
  5
2BB
100
AcDbEntity
  8
RACCORDO
100
AcDbLine
 62
253
  6
CONTINUOUS
 10
22.3485854263
 20
22.6286172716
 11
-22.3485854254
 21
22.6286172716
  0
LINE
  5
2BC
100
AcDbEntity
  8
RACCORDO
100
AcDbLine
 62
253
  6
CONTINUOUS
 10
-23.2014857561
 20
22.828226657
 11
-22.9060434302
 21
22.828226657
  0
LINE
  5
2BD
100
AcDbEntity
  8
RACCORDO
100
AcDbLine
 62
253
  6
CONTINUOUS
 10
23.201485757
 20
22.828226657
 11
22.9060434311
 21
22.828226657
  0
LINE
  5
2BE
100
AcDbEntity
  8
RACCORDO
100
AcDbLine
 62
253
  6
CONTINUOUS
 10
23.201485757
 20
22.828226657
 11
23.201485757
 21
-22.828226657
  0
LINE
  5
2BF
100
AcDbEntity
  8
RACCORDO
100
AcDbLine
 62
253
  6
CONTINUOUS
 10
25.202013794
 20
26.2519071816
 11
25.2020137954
 21
25.951952873
  0
LINE
  5
2C0
100
AcDbEntity
  8
RACCORDO
100
AcDbLine
 62
253
  6
CONTINUOUS
 10
25.2020137934
 20
-26.2519071816
 11
25.2020137954
 21
-25.951952873
  0
LINE
  5
2C1
100
AcDbEntity
  8
RACCORDO
100
AcDbLine
 62
253
  6
CONTINUOUS
 10
25.6019528735
 20
-25.552013795
 11
25.6019528735
 21
25.552013795
  0
LINE
  5
2C2
100
AcDbEntity
  8
RACCORDO
100
AcDbLine
 62
253
  6
CONTINUOUS
 10
25.901907182
 20
-25.552013795
 11
25.901907182
 21
25.552013795
  0
LINE
  5
2C3
100
AcDbEntity
  8
RACCORDO
100
AcDbLine
 62
7
  6
CONTINUOUS
 10
25.9089805979
 20
25.5590872108
 11
25.9089805979
 21
-25.5590872108
  0
LINE
  5
2C4
100
AcDbEntity
  8
RACCORDO
100
AcDbLine
 62
253
  6
CONTINUOUS
 10
-22.6284262718
 20
23.1469038735
 11
22.6284353193
 21
23.1469038735
  0
LINE
  5
2C5
100
AcDbEntity
  8
RACCORDO
100
AcDbLine
 62
253
  6
CONTINUOUS
 10
-22.6284142165
 20
23.4288116597
 11
22.6284142174
 21
23.4288116597
  0
LINE
  5
2C6
100
AcDbEntity
  8
RACCORDO
100
AcDbLine
 62
253
  6
CONTINUOUS
 10
-25.9019071811
 20
25.5520137936
 11
-25.6019528726
 21
25.552013795
  0
LINE
  5
2C7
100
AcDbEntity
  8
RACCORDO
100
AcDbLine
 62
253
  6
CONTINUOUS
 10
25.901907182
 20
25.552013793
 11
25.6019528735
 21
25.552013795
  0
LINE
  5
2C8
100
AcDbEntity
  8
RACCORDO
100
AcDbLine
 62
253
  6
CONTINUOUS
 10
25.2020137954
 20
25.951952873
 11
-25.2052429276
 21
25.951952873
  0
LINE
  5
2C9
100
AcDbEntity
  8
RACCORDO
100
AcDbLine
 62
253
  6
CONTINUOUS
 10
25.2020137954
 20
26.2519071816
 11
-25.2020137945
 21
26.2519071816
  0
LINE
  5
2CA
100
AcDbEntity
  8
RACCORDO
100
AcDbLine
 62
7
  6
CONTINUOUS
 10
-25.2090872104
 20
26.2589805974
 11
25.2090872113
 21
26.2589805974
  0
LINE
  5
2CB
100
AcDbEntity
  8
SMUSSO
100
AcDbLine
 62
253
  6
CONTINUOUS
 10
46.7000000004
 20
-46.7
 11
46.7000000004
 21
-47.7
  0
LINE
  5
2CC
100
AcDbEntity
  8
SMUSSO
100
AcDbLine
 62
7
  6
CONTINUOUS
 10
46.7000000004
 20
-46.7
 11
46.7000000004
 21
46.7
  0
LINE
  5
2CD
100
AcDbEntity
  8
SMUSSO
100
AcDbLine
 62
253
  6
CONTINUOUS
 10
46.7000000004
 20
46.7
 11
46.7000000004
 21
47.7
  0
LINE
  5
2CE
100
AcDbEntity
  8
SMUSSO
100
AcDbLine
 62
7
  6
CONTINUOUS
 10
47.7000000004
 20
-46.7
 11
47.7000000004
 21
46.7
  0
LINE
  5
2CF
100
AcDbEntity
  8
SMUSSO
100
AcDbLine
 62
7
  6
CONTINUOUS
 10
46.7000000004
 20
46.7
 11
-46.6999999996
 21
46.7
  0
LINE
  5
2D0
100
AcDbEntity
  8
SMUSSO
100
AcDbLine
 62
253
  6
CONTINUOUS
 10
46.7000000004
 20
46.7
 11
47.7000000004
 21
46.7
  0
LINE
  5
2D1
100
AcDbEntity
  8
SMUSSO
100
AcDbLine
 62
253
  6
CONTINUOUS
 10
-46.6999999996
 20
46.7
 11
-47.6999999996
 21
46.7
  0
LINE
  5
2D2
100
AcDbEntity
  8
SMUSSO
100
AcDbLine
 62
7
  6
CONTINUOUS
 10
46.7000000004
 20
47.7
 11
-46.6999999996
 21
47.7
  0
LINE
  5
2D3
100
AcDbEntity
  8
SMUSSO
100
AcDbLine
 62
7
  6
CONTINUOUS
 10
-79.4025000805
 20
-47.7
 11
-76.9025000805
 21
-47.7
  0
LINE
  5
2D4
100
AcDbEntity
  8
DRAFT
100
AcDbLine
 62
7
  6
CONTINUOUS
 10
-75.8942481992
 20
-47.6082518813
 11
-73.5025000805
 21
-47.65
  0
LINE
  5
2D5
100
AcDbEntity
  8
SMUSSO
100
AcDbLine
 62
253
  6
CONTINUOUS
 10
-76.4025000805
 20
-46.7
 11
-80.4025000805
 21
-46.7
  0
LINE
  5
2D6
100
AcDbEntity
  8
DRAFT
100
AcDbLine
 62
253
  6
CONTINUOUS
 10
-72.5025000805
 20
-46.15
 11
-76.3525000805
 21
-46.15
  0
LINE
  5
2D7
100
AcDbEntity
  8
SMUSSO
100
AcDbLine
 62
7
  6
CONTINUOUS
 10
-80.4025000805
 20
46.7
 11
-79.4025000805
 21
47.7
  0
LINE
  5
2D8
100
AcDbEntity
  8
SMUSSO
100
AcDbLine
 62
7
  6
CONTINUOUS
 10
-80.4025000805
 20
-46.7
 11
-79.4025000805
 21
-47.7
  0
LINE
  5
2D9
100
AcDbEntity
  8
SMUSSO
100
AcDbLine
 62
7
  6
CONTINUOUS
 10
-76.3525000808
 20
47.1499999998
 11
-75.8942481992
 21
47.6082518813
  0
LINE
  5
2DA
100
AcDbEntity
  8
DRAFT
100
AcDbLine
 62
7
  6
CONTINUOUS
 10
-76.3525000805
 20
47.15
 11
-75.8942481992
 21
47.6082518813
  0
LINE
  5
2DB
100
AcDbEntity
  8
DRAFT
100
AcDbLine
 62
7
  6
CONTINUOUS
 10
-76.3525000805
 20
-47.15
 11
-75.8942481992
 21
-47.6082518813
  0
LINE
  5
2DC
100
AcDbEntity
  8
ASSI
100
AcDbLine
 62
7
  6
CONTINUOUS
 10
-70.8025000805
 20
-26.35
 11
-72.5025000805
 21
-26.3598903107
  0
LINE
  5
2DD
100
AcDbEntity
  8
DRAFT
100
AcDbLine
 62
7
  6
CONTINUOUS
 10
-72.5025000805
 20
-27.1459857386
 11
-70.8025000805
 21
-27.1430186759
  0
LINE
  5
2DE
100
AcDbEntity
  8
DRAFT
100
AcDbLine
 62
253
  6
CONTINUOUS
 10
-72.5025000805
 20
-26.8937435176
 11
-70.8025000805
 21
-26.8929755853
  0
LINE
  5
2DF
100
AcDbEntity
  8
0
100
AcDbLine
 62
7
  6
CONTINUOUS
 10
-81.1025000805
 20
-25.7651743977
 11
-81.3025000805
 21
-25.7651743977
  0
LINE
  5
2E0
100
AcDbEntity
  8
RACCORDO
100
AcDbLine
 62
253
  6
CONTINUOUS
 10
-80.8077358025
 20
-25.5520137936
 11
-81.1025000805
 21
-25.552013795
  0
LINE
  5
2E1
100
AcDbEntity
  8
ASSI
100
AcDbLine
 62
7
  6
CONTINUOUS
 10
-71.0025000805
 20
-25.2
 11
-72.5025000805
 21
-25.2
  0
LINE
  5
2E2
100
AcDbEntity
  8
0
100
AcDbLine
 62
253
  6
CONTINUOUS
 10
-81.1025000805
 20
-25.1968412881
 11
-81.3025000805
 21
-25.1968412881
  0
LINE
  5
2E3
100
AcDbEntity
  8
RACCORDO
100
AcDbLine
 62
7
  6
CONTINUOUS
 10
-80.8077358025
 20
-26.2519071816
 11
-80.4025000805
 21
-26.2589805974
  0
LINE
  5
2E4
100
AcDbEntity
  8
DRAFT
100
AcDbLine
 62
7
  6
CONTINUOUS
 10
-76.3525000805
 20
-25.8473817403
 11
-76.4025000805
 21
-25.846508987
  0
LINE
  5
2E5
100
AcDbEntity
  8
RACCORDO
100
AcDbLine
 62
7
  6
CONTINUOUS
 10
-76.4025000805
 20
-25.696508987
 11
-76.3525000805
 21
-25.6973817403
  0
LINE
  5
2E6
100
AcDbEntity
  8
RACCORDO
100
AcDbLine
 62
253
  6
CONTINUOUS
 10
-80.8077358025
 20
-25.552013795
 11
-80.4025000805
 21
-25.5590872108
  0
LINE
  5
2E7
100
AcDbEntity
  8
ASSI
100
AcDbLine
 62
7
  6
CONTINUOUS
 10
-70.9920328893
 20
-25.7916264167
 11
-72.5025000805
 21
-25.7248937867
  0
LINE
  5
2E8
100
AcDbEntity
  8
ASSI
100
AcDbLine
 62
7
  6
CONTINUOUS
 10
-72.3525000805
 20
-25.05
 11
-72.1525000805
 21
-25.05
  0
LINE
  5
2E9
100
AcDbEntity
  8
ASSI
100
AcDbLine
 62
7
  6
CONTINUOUS
 10
-71.8525000805
 20
-25.05
 11
-71.6525000805
 21
-25.05
  0
LINE
  5
2EA
100
AcDbEntity
  8
ASSI
100
AcDbLine
 62
7
  6
CONTINUOUS
 10
-71.3525000805
 20
-25.05
 11
-71.1525000805
 21
-25.05
  0
LINE
  5
2EB
100
AcDbEntity
  8
0
100
AcDbLine
 62
7
  6
CONTINUOUS
 10
-81.1025000805
 20
-24.784995432
 11
-81.3025000805
 21
-24.784995432
  0
LINE
  5
2EC
100
AcDbEntity
  8
0
100
AcDbLine
 62
7
  6
CONTINUOUS
 10
-81.1025000805
 20
-24.7725873061
 11
-81.3025000805
 21
-24.7725873061
  0
LINE
  5
2ED
100
AcDbEntity
  8
0
100
AcDbLine
 62
253
  6
CONTINUOUS
 10
-81.1025000805
 20
-23.7119917169
 11
-81.3025000805
 21
-23.7119917169
  0
LINE
  5
2EE
100
AcDbEntity
  8
0
100
AcDbLine
 62
7
  6
CONTINUOUS
 10
-81.1025000805
 20
-23.6407136252
 11
-81.3025000805
 21
-23.6407136252
  0
LINE
  5
2EF
100
AcDbEntity
  8
RACCORDO
100
AcDbLine
 62
7
  6
CONTINUOUS
 10
-76.3525000805
 20
-22.0
 11
-76.4025000805
 21
-22.0
  0
LINE
  5
2F0
100
AcDbEntity
  8
RACCORDO
100
AcDbLine
 62
253
  6
CONTINUOUS
 10
-76.4025000805
 20
-24.3967069833
 11
-76.3525000805
 21
-24.3975797366
  0
LINE
  5
2F1
100
AcDbEntity
  8
RACCORDO
100
AcDbLine
 62
7
  6
CONTINUOUS
 10
-76.3525000805
 20
-21.0
 11
-76.4025000805
 21
-21.0
  0
LINE
  5
2F2
100
AcDbEntity
  8
ASSI
100
AcDbLine
 62
7
  6
CONTINUOUS
 10
-72.1525000805
 20
25.05
 11
-72.0025000805
 21
25.2
  0
LINE
  5
2F3
100
AcDbEntity
  8
ASSI
100
AcDbLine
 62
7
  6
CONTINUOUS
 10
-71.6525000805
 20
25.05
 11
-71.5025000805
 21
25.2
  0
LINE
  5
2F4
100
AcDbEntity
  8
ASSI
100
AcDbLine
 62
7
  6
CONTINUOUS
 10
-71.1525000805
 20
25.05
 11
-71.0025000805
 21
25.2
  0
LINE
  5
2F5
100
AcDbEntity
  8
RACCORDO
100
AcDbLine
 62
7
  6
CONTINUOUS
 10
-76.3525000805
 20
-14.0
 11
-76.4025000805
 21
-14.0
  0
LINE
  5
2F6
100
AcDbEntity
  8
RACCORDO
100
AcDbLine
 62
7
  6
CONTINUOUS
 10
-76.3525000805
 20
-13.0
 11
-76.4025000805
 21
-13.0
  0
LINE
  5
2F7
100
AcDbEntity
  8
ASSI
100
AcDbLine
 62
7
  6
CONTINUOUS
 10
-72.1525000805
 20
-25.05
 11
-72.0025000805
 21
-25.2
  0
LINE
  5
2F8
100
AcDbEntity
  8
ASSI
100
AcDbLine
 62
7
  6
CONTINUOUS
 10
-71.6525000805
 20
-25.05
 11
-71.5025000805
 21
-25.2
  0
LINE
  5
2F9
100
AcDbEntity
  8
ASSI
100
AcDbLine
 62
7
  6
CONTINUOUS
 10
-71.1525000805
 20
-25.05
 11
-71.0025000805
 21
-25.2
  0
LINE
  5
2FA
100
AcDbEntity
  8
RACCORDO
100
AcDbLine
 62
7
  6
CONTINUOUS
 10
-76.3525000805
 20
-9.2405834257
 11
-76.4025000805
 21
-9.2407559701
  0
LINE
  5
2FB
100
AcDbEntity
  8
RACCORDO
100
AcDbLine
 62
7
  6
CONTINUOUS
 10
-76.3525000805
 20
-10.7594165743
 11
-76.4025000805
 21
-10.7592440299
  0
LINE
  5
2FC
100
AcDbEntity
  8
0
100
AcDbLine
 62
7
  6
CONTINUOUS
 10
-81.3025000805
 20
-25.7651743977
 11
-81.3025000805
 21
-23.6407141835
  0
LINE
  5
2FD
100
AcDbEntity
  8
RACCORDO
100
AcDbLine
 62
7
  6
CONTINUOUS
 10
-81.1025000805
 20
-25.951952873
 11
-81.1025000805
 21
25.951952873
  0
LINE
  5
2FE
100
AcDbEntity
  8
RACCORDO
100
AcDbLine
 62
253
  6
CONTINUOUS
 10
-80.8077358025
 20
-25.552013795
 11
-80.8077358025
 21
25.552013795
  0
LINE
  5
2FF
100
AcDbEntity
  8
SMUSSO
100
AcDbLine
 62
7
  6
CONTINUOUS
 10
-80.4025000805
 20
-46.7
 11
-80.4025000805
 21
46.7
  0
LINE
  5
300
100
AcDbEntity
  8
SMUSSO
100
AcDbLine
 62
7
  6
CONTINUOUS
 10
-79.4025000805
 20
-47.7
 11
-79.4025000805
 21
47.7
  0
LINE
  5
301
100
AcDbEntity
  8
SMUSSO
100
AcDbLine
 62
7
  6
CONTINUOUS
 10
-76.9025000805
 20
47.7
 11
-76.9025000805
 21
-47.7
  0
LINE
  5
302
100
AcDbEntity
  8
SMUSSO
100
AcDbLine
 62
7
  6
CONTINUOUS
 10
-76.4025000805
 20
47.2
 11
-76.4025000805
 21
-47.2
  0
LINE
  5
303
100
AcDbEntity
  8
SMUSSO
100
AcDbLine
 62
7
  6
CONTINUOUS
 10
-76.3525000805
 20
-47.15
 11
-76.3525000805
 21
47.15
  0
LINE
  5
304
100
AcDbEntity
  8
DRAFT
100
AcDbLine
 62
7
  6
CONTINUOUS
 10
-75.8942481992
 20
-47.6082518813
 11
-75.8942481992
 21
47.6082518813
  0
LINE
  5
305
100
AcDbEntity
  8
DRAFT
100
AcDbLine
 62
7
  6
CONTINUOUS
 10
-73.5025000805
 20
47.65
 11
-73.5025000805
 21
-47.65
  0
LINE
  5
306
100
AcDbEntity
  8
SMUSSO
100
AcDbLine
 62
7
  6
CONTINUOUS
 10
-72.5025000805
 20
46.65
 11
-72.5025000805
 21
-46.65
  0
LINE
  5
307
100
AcDbEntity
  8
ASSI
100
AcDbLine
 62
253
  6
CONTINUOUS
 10
-70.9920328893
 20
25.7916264167
 11
-70.9920328893
 21
25.200274093
  0
LINE
  5
308
100
AcDbEntity
  8
ASSI
100
AcDbLine
 62
253
  6
CONTINUOUS
 10
-70.9920328893
 20
-25.200274093
 11
-70.9920328893
 21
-25.7916264167
  0
LINE
  5
309
100
AcDbEntity
  8
ASSI
100
AcDbLine
 62
7
  6
CONTINUOUS
 10
-70.8025000805
 20
-25.4
 11
-70.8025000805
 21
-26.35
  0
LINE
  5
30A
100
AcDbEntity
  8
DRAFT
100
AcDbLine
 62
7
  6
CONTINUOUS
 10
-70.8025000805
 20
-26.35
 11
-70.8025000805
 21
-27.1430467116
  0
LINE
  5
30B
100
AcDbEntity
  8
ASSI
100
AcDbLine
 62
7
  6
CONTINUOUS
 10
-70.8025000805
 20
25.4
 11
-70.8025000805
 21
26.35
  0
LINE
  5
30C
100
AcDbEntity
  8
DRAFT
100
AcDbLine
 62
7
  6
CONTINUOUS
 10
-70.8025000805
 20
26.35
 11
-70.8025000805
 21
27.1430467116
  0
LINE
  5
30D
100
AcDbEntity
  8
RACCORDO
100
AcDbLine
 62
7
  6
CONTINUOUS
 10
-76.3525000805
 20
9.2405834257
 11
-76.4025000805
 21
9.2407559701
  0
LINE
  5
30E
100
AcDbEntity
  8
RACCORDO
100
AcDbLine
 62
7
  6
CONTINUOUS
 10
-76.3525000805
 20
10.7594165743
 11
-76.4025000805
 21
10.7592440299
  0
LINE
  5
30F
100
AcDbEntity
  8
RACCORDO
100
AcDbLine
 62
7
  6
CONTINUOUS
 10
-76.3525000805
 20
13.0
 11
-76.4025000805
 21
13.0
  0
LINE
  5
310
100
AcDbEntity
  8
RACCORDO
100
AcDbLine
 62
7
  6
CONTINUOUS
 10
-76.3525000805
 20
14.0
 11
-76.4025000805
 21
14.0
  0
LINE
  5
311
100
AcDbEntity
  8
ASSI
100
AcDbLine
 62
7
  6
CONTINUOUS
 10
-72.5025000805
 20
-25.2
 11
-72.3525000805
 21
-25.05
  0
LINE
  5
312
100
AcDbEntity
  8
ASSI
100
AcDbLine
 62
7
  6
CONTINUOUS
 10
-72.0025000805
 20
-25.2
 11
-71.8525000805
 21
-25.05
  0
LINE
  5
313
100
AcDbEntity
  8
ASSI
100
AcDbLine
 62
7
  6
CONTINUOUS
 10
-71.5025000805
 20
-25.2
 11
-71.3525000805
 21
-25.05
  0
LINE
  5
314
100
AcDbEntity
  8
RACCORDO
100
AcDbLine
 62
7
  6
CONTINUOUS
 10
-76.3525000805
 20
21.0
 11
-76.4025000805
 21
21.0
  0
LINE
  5
315
100
AcDbEntity
  8
RACCORDO
100
AcDbLine
 62
7
  6
CONTINUOUS
 10
-76.3525000805
 20
22.0
 11
-76.4025000805
 21
22.0
  0
LINE
  5
316
100
AcDbEntity
  8
ASSI
100
AcDbLine
 62
7
  6
CONTINUOUS
 10
-72.5025000805
 20
25.2
 11
-72.3525000805
 21
25.05
  0
LINE
  5
317
100
AcDbEntity
  8
ASSI
100
AcDbLine
 62
7
  6
CONTINUOUS
 10
-72.0025000805
 20
25.2
 11
-71.8525000805
 21
25.05
  0
LINE
  5
318
100
AcDbEntity
  8
ASSI
100
AcDbLine
 62
7
  6
CONTINUOUS
 10
-71.5025000805
 20
25.2
 11
-71.3525000805
 21
25.05
  0
LINE
  5
319
100
AcDbEntity
  8
ASSI
100
AcDbLine
 62
7
  6
CONTINUOUS
 10
-70.9920328893
 20
25.7916264167
 11
-72.5025000805
 21
25.7248937867
  0
LINE
  5
31A
100
AcDbEntity
  8
RACCORDO
100
AcDbLine
 62
253
  6
CONTINUOUS
 10
-76.4025000805
 20
24.3967069833
 11
-76.3525000805
 21
24.3975797366
  0
LINE
  5
31B
100
AcDbEntity
  8
RACCORDO
100
AcDbLine
 62
253
  6
CONTINUOUS
 10
-80.8077358025
 20
25.552013795
 11
-80.4025000805
 21
25.5590872108
  0
LINE
  5
31C
100
AcDbEntity
  8
RACCORDO
100
AcDbLine
 62
7
  6
CONTINUOUS
 10
-76.4025000805
 20
25.696508987
 11
-76.3525000805
 21
25.6973817403
  0
LINE
  5
31D
100
AcDbEntity
  8
DRAFT
100
AcDbLine
 62
7
  6
CONTINUOUS
 10
-76.3525000805
 20
25.8473817403
 11
-76.4025000805
 21
25.846508987
  0
LINE
  5
31E
100
AcDbEntity
  8
ASSI
100
AcDbLine
 62
7
  6
CONTINUOUS
 10
-72.3525000805
 20
25.05
 11
-72.1525000805
 21
25.05
  0
LINE
  5
31F
100
AcDbEntity
  8
ASSI
100
AcDbLine
 62
7
  6
CONTINUOUS
 10
-71.8525000805
 20
25.05
 11
-71.6525000805
 21
25.05
  0
LINE
  5
320
100
AcDbEntity
  8
ASSI
100
AcDbLine
 62
7
  6
CONTINUOUS
 10
-71.3525000805
 20
25.05
 11
-71.1525000805
 21
25.05
  0
LINE
  5
321
100
AcDbEntity
  8
ASSI
100
AcDbLine
 62
7
  6
CONTINUOUS
 10
-71.0025000805
 20
25.2
 11
-72.5025000805
 21
25.2
  0
LINE
  5
322
100
AcDbEntity
  8
RACCORDO
100
AcDbLine
 62
253
  6
CONTINUOUS
 10
-80.8077358025
 20
25.552013793
 11
-81.1025000805
 21
25.552013795
  0
LINE
  5
323
100
AcDbEntity
  8
RACCORDO
100
AcDbLine
 62
7
  6
CONTINUOUS
 10
-80.8077358025
 20
26.2519071816
 11
-80.4025000805
 21
26.2589805974
  0
LINE
  5
324
100
AcDbEntity
  8
DRAFT
100
AcDbLine
 62
253
  6
CONTINUOUS
 10
-70.8025000805
 20
26.8929755853
 11
-72.5025000805
 21
26.8937435176
  0
LINE
  5
325
100
AcDbEntity
  8
DRAFT
100
AcDbLine
 62
7
  6
CONTINUOUS
 10
-72.5025000805
 20
27.1459857386
 11
-70.8025000805
 21
27.1430186759
  0
LINE
  5
326
100
AcDbEntity
  8
ASSI
100
AcDbLine
 62
7
  6
CONTINUOUS
 10
-70.8025000805
 20
26.35
 11
-72.5025000805
 21
26.3598903107
  0
LINE
  5
327
100
AcDbEntity
  8
SMUSSO
100
AcDbLine
 62
7
  6
CONTINUOUS
 10
-76.4025000805
 20
-47.2
 11
-76.9025000805
 21
-47.7
  0
LINE
  5
328
100
AcDbEntity
  8
DRAFT
100
AcDbLine
 62
7
  6
CONTINUOUS
 10
-72.5025000805
 20
-46.65
 11
-73.5025000805
 21
-47.65
  0
LINE
  5
329
100
AcDbEntity
  8
SMUSSO
100
AcDbLine
 62
7
  6
CONTINUOUS
 10
-76.40250008
 20
47.1999999995
 11
-76.9025000795
 21
47.699999999
  0
LINE
  5
32A
100
AcDbEntity
  8
DRAFT
100
AcDbLine
 62
7
  6
CONTINUOUS
 10
-72.5025000805
 20
46.65
 11
-73.5025000805
 21
47.65
  0
LINE
  5
32B
100
AcDbEntity
  8
DRAFT
100
AcDbLine
 62
7
  6
CONTINUOUS
 10
-75.8942481992
 20
47.6082518813
 11
-73.5025000805
 21
47.65
  0
LINE
  5
32C
100
AcDbEntity
  8
DRAFT
100
AcDbLine
 62
253
  6
CONTINUOUS
 10
-72.5025000805
 20
46.15
 11
-76.3525000805
 21
46.15
  0
LINE
  5
32D
100
AcDbEntity
  8
SMUSSO
100
AcDbLine
 62
253
  6
CONTINUOUS
 10
-76.4025000805
 20
46.7
 11
-80.4025000805
 21
46.7
  0
LINE
  5
32E
100
AcDbEntity
  8
SMUSSO
100
AcDbLine
 62
7
  6
CONTINUOUS
 10
-79.4025000805
 20
47.7
 11
-76.9025000805
 21
47.7
  0
ARC
  5
32F
100
AcDbEntity
  8
SMUSSO
100
AcDbCircle
 62
7
  6
CONTINUOUS
 10
-46.6999999996
 20
46.7
 40
1.0
100
AcDbArc
 50
90.0
 51
180.0
  0
ARC
  5
330
100
AcDbEntity
  8
SMUSSO
100
AcDbCircle
 62
7
  6
CONTINUOUS
 10
46.7000000004
 20
46.7
 40
1.0
100
AcDbArc
 50
0.0
 51
90.0
  0
ARC
  5
331
100
AcDbEntity
  8
SMUSSO
100
AcDbCircle
 62
7
  6
CONTINUOUS
 10
-46.6999999996
 20
-46.7
 40
1.0
100
AcDbArc
 50
180.0
 51
270.0
  0
ARC
  5
332
100
AcDbEntity
  8
SMUSSO
100
AcDbCircle
 62
7
  6
CONTINUOUS
 10
46.7000000004
 20
-46.7
 40
1.0
100
AcDbArc
 50
270.0
 51
360.0
  0
ARC
  5
333
100
AcDbEntity
  8
RACCORDO
100
AcDbCircle
 62
253
  6
CONTINUOUS
 10
-22.3481927515
 20
21.8461295245
 40
0.7824878456
100
AcDbArc
 50
90.0287525956
 51
92.1202476107
  0
ARC
  5
334
100
AcDbEntity
  8
RACCORDO
100
AcDbCircle
 62
253
  6
CONTINUOUS
 10
22.3482428599
 20
-21.8489747048
 40
0.779642642
100
AcDbArc
 50
270.0251751348
 51
272.1236567075
  0
ARC
  5
335
100
AcDbEntity
  8
RACCORDO
100
AcDbCircle
 62
253
  6
CONTINUOUS
 10
21.8986043144
 20
-22.2989778658
 40
0.7582289857
100
AcDbArc
 50
358.9007055562
 51
359.9712052038
  0
ARC
  5
336
100
AcDbEntity
  8
RACCORDO
100
AcDbCircle
 62
253
  6
CONTINUOUS
 10
-21.9031691547
 20
22.2990228035
 40
0.7536641238
100
AcDbArc
 50
178.8974638224
 51
179.9744470932
  0
ARC
  5
337
100
AcDbEntity
  8
RACCORDO
100
AcDbCircle
 62
253
  6
CONTINUOUS
 10
-22.3488257041
 20
-21.8790743398
 40
0.7495429703
100
AcDbArc
 50
267.8294023107
 51
270.0183671322
  0
ARC
  5
338
100
AcDbEntity
  8
RACCORDO
100
AcDbCircle
 62
253
  6
CONTINUOUS
 10
22.348825705
 20
21.8790743398
 40
0.7495429703
100
AcDbArc
 50
87.8294023107
 51
90.0183671322
  0
ARC
  5
339
100
AcDbEntity
  8
RACCORDO
100
AcDbCircle
 62
253
  6
CONTINUOUS
 10
-21.9432916533
 20
-22.2994177995
 40
0.7135415527
100
AcDbArc
 50
179.9952724564
 51
181.1328166284
  0
ARC
  5
33A
100
AcDbEntity
  8
RACCORDO
100
AcDbCircle
 62
253
  6
CONTINUOUS
 10
21.9432916542
 20
22.2994177995
 40
0.7135415526
100
AcDbArc
 50
359.9952724563
 51
1.1328166284
  0
ARC
  5
33B
100
AcDbEntity
  8
RACCORDO
100
AcDbCircle
 62
253
  6
CONTINUOUS
 10
25.2019217635
 20
25.5519217631
 40
0.6999862456
100
AcDbArc
 50
0.0075330706
 51
89.9924669294
  0
ARC
  5
33C
100
AcDbEntity
  8
RACCORDO
100
AcDbCircle
 62
253
  6
CONTINUOUS
 10
25.2019217635
 20
-25.5519217631
 40
0.6999862456
100
AcDbArc
 50
270.0075330706
 51
359.9924669294
  0
ARC
  5
33D
100
AcDbEntity
  8
RACCORDO
100
AcDbCircle
 62
253
  6
CONTINUOUS
 10
-25.2019217626
 20
-25.5519217631
 40
0.6999862456
100
AcDbArc
 50
180.007533071
 51
269.992466929
  0
ARC
  5
33E
100
AcDbEntity
  8
RACCORDO
100
AcDbCircle
 62
253
  6
CONTINUOUS
 10
-25.2019217626
 20
25.5519217631
 40
0.6999862456
100
AcDbArc
 50
90.0075330706
 51
179.9924669294
  0
ARC
  5
33F
100
AcDbEntity
  8
RACCORDO
100
AcDbCircle
 62
253
  6
CONTINUOUS
 10
25.2020349478
 20
25.552034503
 40
0.399917083
100
AcDbArc
 50
359.9970331884
 51
90.0030304738
  0
ARC
  5
340
100
AcDbEntity
  8
RACCORDO
100
AcDbCircle
 62
253
  6
CONTINUOUS
 10
25.2020345034
 20
-25.5520349474
 40
0.399917083
100
AcDbArc
 50
269.9970331884
 51
0.0030304738
  0
ARC
  5
341
100
AcDbEntity
  8
RACCORDO
100
AcDbCircle
 62
253
  6
CONTINUOUS
 10
-22.3486975501
 20
22.3340252999
 40
0.2645144583
100
AcDbArc
 50
89.9757129587
 51
92.2877034875
  0
ARC
  5
342
100
AcDbEntity
  8
RACCORDO
100
AcDbCircle
 62
253
  6
CONTINUOUS
 10
22.3487019523
 20
-22.3342480957
 40
0.2642916644
100
AcDbArc
 50
269.9747383382
 51
272.2886781593
  0
ARC
  5
343
100
AcDbEntity
  8
RACCORDO
100
AcDbCircle
 62
253
  6
CONTINUOUS
 10
22.3487562011
 20
22.3369942299
 40
0.2615455602
100
AcDbArc
 50
87.6991725281
 51
90.037410974
  0
ARC
  5
344
100
AcDbEntity
  8
RACCORDO
100
AcDbCircle
 62
253
  6
CONTINUOUS
 10
-22.3487562002
 20
-22.3369942299
 40
0.2615455602
100
AcDbArc
 50
267.6991725284
 51
270.0374109739
  0
ARC
  5
345
100
AcDbEntity
  8
RACCORDO
100
AcDbCircle
 62
253
  6
CONTINUOUS
 10
-22.4162359411
 20
22.2994536437
 40
0.2330773106
100
AcDbArc
 50
178.7187989868
 51
180.023284186
  0
ARC
  5
346
100
AcDbEntity
  8
RACCORDO
100
AcDbCircle
 62
253
  6
CONTINUOUS
 10
22.4163237297
 20
-22.2994546074
 40
0.2329895233
100
AcDbArc
 50
358.71855322
 51
0.0235299528
  0
ARC
  5
347
100
AcDbEntity
  8
RACCORDO
100
AcDbCircle
 62
253
  6
CONTINUOUS
 10
22.4194890293
 20
22.2994893555
 40
0.229824241
100
AcDbArc
 50
359.9674831754
 51
1.2904336518
  0
ARC
  5
348
100
AcDbEntity
  8
RACCORDO
100
AcDbCircle
 62
253
  6
CONTINUOUS
 10
-22.4194890284
 20
-22.2994893555
 40
0.229824241
100
AcDbArc
 50
179.9674831754
 51
181.2904336518
  0
ARC
  5
349
100
AcDbEntity
  8
RACCORDO
100
AcDbCircle
 62
7
  6
CONTINUOUS
 10
-80.8025000805
 20
25.951952873
 40
0.3
100
AcDbArc
 50
91.0
 51
180.0
  0
ARC
  5
34A
100
AcDbEntity
  8
RACCORDO
100
AcDbCircle
 62
7
  6
CONTINUOUS
 10
-80.8025000805
 20
-25.951952873
 40
0.3
100
AcDbArc
 50
180.0
 51
269.0
  0
ARC
  5
34B
100
AcDbEntity
  8
ASSI
100
AcDbCircle
 62
7
  6
CONTINUOUS
 10
-71.0025000805
 20
-25.4
 40
0.2
100
AcDbArc
 50
0.0
 51
90.0
  0
ARC
  5
34C
100
AcDbEntity
  8
ASSI
100
AcDbCircle
 62
7
  6
CONTINUOUS
 10
-71.0025000805
 20
25.4
 40
0.2
100
AcDbArc
 50
270.0
 51
360.0
  0
SPLINE
  5
34D
100
AcDbEntity
  8
0
100
AcDbSpline
 62
7
  6
CONTINUOUS
 70
0
 71
3
 72
9
 73
5
 74
3
 42
0.0000001
 43
0.0000001
 44
0.0000000001
 12
0.384402302
 22
-0.0446290201
 32
0.0
 13
0.0060518841
 23
-0.3869370154
 33
0.0
 40
0.0
 40
0.0
 40
0.0
 40
0.0
 40
0.5013510385
 40
1.0
 40
1.0
 40
1.0
 40
1.0
 10
3.2708955907
 20
-24.0107157749
 30
0.0
 10
3.3351357551
 20
-24.0181740434
 30
0.0
 10
3.465068992
 20
-24.0747468423
 30
0.0
 10
3.5174853194
 20
-24.2088922282
 30
0.0
 10
3.5184912413
 20
-24.2732074751
 30
0.0
 11
3.2708955907
 21
-24.0107157749
 31
0.0
 11
3.4459359844
 21
-24.0943977982
 31
0.0
 11
3.5184912413
 21
-24.2732074751
 31
0.0
  0
SPLINE
  5
34E
100
AcDbEntity
  8
0
100
AcDbSpline
 62
7
  6
CONTINUOUS
 70
0
 71
3
 72
9
 73
5
 74
3
 42
0.0000001
 43
0.0000001
 44
0.0000000001
 12
0.0080713833
 22
-0.5230864262
 32
0.0
 13
-0.5230182478
 23
-0.0116819936
 33
0.0
 40
0.0
 40
0.0
 40
0.0
 40
0.0
 40
0.5206208722
 40
1.0
 40
1.0
 40
1.0
 40
1.0
 10
3.5184912413
 20
-24.2732074751
 30
0.0
 10
3.5198919515
 20
-24.3639840456
 30
0.0
 10
3.4557627107
 20
-24.5622845708
 30
0.0
 10
3.261582533
 20
-24.5976524418
 30
0.0
 10
3.1780078559
 20
-24.5995191431
 30
0.0
 11
3.5184912413
 21
-24.2732074751
 31
0.0
 11
3.4178681106
 21
-24.5263005711
 31
0.0
 11
3.1780078559
 21
-24.5995191431
 31
0.0
  0
SPLINE
  5
34F
100
AcDbEntity
  8
0
100
AcDbSpline
 62
7
  6
CONTINUOUS
 70
0
 71
3
 72
9
 73
5
 74
3
 42
0.0000001
 43
0.0000001
 44
0.0000000001
 12
0.3394200167
 22
0.0579167448
 32
0.0
 13
0.3420295105
 23
-0.0397002646
 33
0.0
 40
0.0
 40
0.0
 40
0.0
 40
0.0
 40
0.2703953699
 40
1.0
 40
1.0
 40
1.0
 40
1.0
 10
2.9275148764
 20
-24.0230766618
 30
0.0
 10
2.95810741
 20
-24.0178565219
 30
0.0
 10
3.0716013979
 20
-24.0006878979
 30
0.0
 10
3.1877134859
 20
-24.0010606092
 30
0.0
 10
3.2708955907
 20
-24.0107157749
 30
0.0
 11
2.9275148764
 21
-24.0230766618
 31
0.0
 11
3.0196753266
 21
-24.0098544002
 31
0.0
 11
3.2708955907
 21
-24.0107157749
 31
0.0
  0
SPLINE
  5
350
100
AcDbEntity
  8
0
100
AcDbSpline
 62
7
  6
CONTINUOUS
 70
0
 71
3
 72
9
 73
5
 74
3
 42
0.0000001
 43
0.0000001
 44
0.0000000001
 12
0.3219543356
 22
0.0
 32
0.0
 13
0.1131217834
 23
-0.3014267015
 33
0.0
 40
0.0
 40
0.0
 40
0.0
 40
0.0
 40
0.3559141631
 40
1.0
 40
1.0
 40
1.0
 40
1.0
 10
3.1770630747
 20
-24.943419487
 30
0.0
 10
3.2152591107
 20
-24.943419487
 30
0.0
 10
3.3251388632
 20
-24.9665483985
 30
0.0
 10
3.39731722
 20
-25.063724242
 30
0.0
 10
3.4216039328
 20
-25.1284391318
 30
0.0
 11
3.1770630747
 21
-24.943419487
 31
0.0
 11
3.2886988108
 21
-24.9692631885
 31
0.0
 11
3.4216039328
 21
-25.1284391318
 31
0.0
  0
SPLINE
  5
351
100
AcDbEntity
  8
0
100
AcDbSpline
 62
7
  6
CONTINUOUS
 70
0
 71
3
 72
9
 73
5
 74
3
 42
0.0000001
 43
0.0000001
 44
0.0000000001
 12
0.2338635552
 22
-0.622497147
 32
0.0
 13
0.1837405462
 23
-0.6390886262
 33
0.0
 40
0.0
 40
0.0
 40
0.0
 40
0.0
 40
0.5586214172
 40
1.0
 40
1.0
 40
1.0
 40
1.0
 10
3.4216039328
 20
-25.1284391318
 30
0.0
 10
3.4651509964
 20
-25.2443525446
 30
0.0
 10
3.5224192564
 20
-25.4589914658
 30
0.0
 10
3.5862354911
 20
-25.6711477203
 30
0.0
 10
3.6132685384
 20
-25.7651743977
 30
0.0
 11
3.4216039328
 21
-25.1284391318
 31
0.0
 11
3.5311768967
 21
-25.4833816056
 31
0.0
 11
3.6132685384
 21
-25.7651743977
 31
0.0
  0
SPLINE
  5
352
100
AcDbEntity
  8
0
100
AcDbSpline
 62
7
  6
CONTINUOUS
 70
0
 71
3
 72
9
 73
5
 74
3
 42
0.0000001
 43
0.0000001
 44
0.0000000001
 12
-0.1540517408
 22
0.5672067283
 32
0.0
 13
-0.1544993035
 23
0.5670849819
 33
0.0
 40
0.0
 40
0.0
 40
0.0
 40
0.0
 40
0.1980141723
 40
1.0
 40
1.0
 40
1.0
 40
1.0
 10
4.0348771332
 20
-25.7651743977
 30
0.0
 10
4.0247089905
 20
-25.7277360741
 30
0.0
 10
3.9749404884
 20
-25.5382421876
 30
0.0
 10
3.9263369244
 20
-25.3484393276
 30
0.0
 10
3.8850348405
 20
-25.1968412881
 30
0.0
 11
4.0348771332
 21
-25.7651743977
 31
0.0
 11
4.0050449298
 21
-25.6526790092
 31
0.0
 11
3.8850348405
 21
-25.1968412881
 31
0.0
  0
SPLINE
  5
353
100
AcDbEntity
  8
0
100
AcDbSpline
 62
7
  6
CONTINUOUS
 70
0
 71
3
 72
9
 73
5
 74
3
 42
0.0000001
 43
0.0000001
 44
0.0000000001
 12
-0.1285164
 22
0.4717407948
 32
0.0
 13
-0.4541587339
 23
0.1810957951
 33
0.0
 40
0.0
 40
0.0
 40
0.0
 40
0.0
 40
0.2426586216
 40
1.0
 40
1.0
 40
1.0
 40
1.0
 10
3.8850348405
 20
-25.1968412881
 30
0.0
 10
3.8746396363
 20
-25.1586839644
 30
0.0
 10
3.8349315608
 20
-25.0045953927
 30
0.0
 10
3.7470356778
 20
-24.8307125451
 30
0.0
 10
3.6323846107
 20
-24.784995432
 30
0.0
 11
3.8850348405
 21
-25.1968412881
 31
0.0
 11
3.8525311699
 21
-25.0827365731
 31
0.0
 11
3.6323846107
 21
-24.784995432
 31
0.0
  0
SPLINE
  5
354
100
AcDbEntity
  8
0
100
AcDbSpline
 62
7
  6
CONTINUOUS
 70
0
 71
3
 72
17
 73
13
 74
11
 42
0.0000001
 43
0.0000001
 44
0.0000000001
 12
1.2974582446
 22
0.167413967
 32
0.0
 13
-1.2305868136
 23
0.4439385397
 33
0.0
 40
0.0
 40
0.0
 40
0.0
 40
0.0
 40
0.0559780952
 40
0.1687540387
 40
0.321006234
 40
0.4122750837
 40
0.516613223
 40
0.6013931059
 40
0.6776022439
 40
0.8103422694
 40
0.9200404832
 40
1.0
 40
1.0
 40
1.0
 40
1.0
 10
3.6323846107
 20
-24.7725873061
 30
0.0
 10
3.6565943577
 20
-24.7694634678
 30
0.0
 10
3.7181324043
 20
-24.7209973091
 30
0.0
 10
3.8201860895
 20
-24.6286072901
 30
0.0
 10
3.895330156
 20
-24.4863871999
 30
0.0
 10
3.9288051156
 20
-24.3380194545
 30
0.0
 10
3.931950021
 20
-24.2148773229
 30
0.0
 10
3.9153760195
 20
-24.0998635709
 30
0.0
 10
3.8752063306
 20
-23.9776524871
 30
0.0
 10
3.7997594344
 20
-23.8578829609
 30
0.0
 10
3.6932342875
 20
-23.764220045
 30
0.0
 10
3.6199916206
 20
-23.7238240873
 30
0.0
 10
3.5871925783
 20
-23.7119917169
 30
0.0
 11
3.6323846107
 21
-24.7725873061
 31
0.0
 11
3.6965524743
 21
-24.7372982534
 31
0.0
 11
3.8025003326
 21
-24.6346256365
 31
0.0
 11
3.8972761535
 21
-24.4594410653
 31
0.0
 11
3.9239270401
 21
-24.3430541748
 31
0.0
 11
3.9279279054
 21
-24.2066161494
 31
0.0
 11
3.9115237733
 21
-24.0969257029
 31
0.0
 11
3.8801574077
 21
-24.002290492
 31
0.0
 11
3.787497995
 21
-23.8554252441
 31
0.0
 11
3.6798697057
 21
-23.7604993407
 31
0.0
 11
3.5871925783
 21
-23.7119917169
 31
0.0
  0
SPLINE
  5
355
100
AcDbEntity
  8
0
100
AcDbSpline
 62
7
  6
CONTINUOUS
 70
0
 71
3
 72
9
 73
5
 74
3
 42
0.0000001
 43
0.0000001
 44
0.0000000001
 12
-1.0242753953
 22
0.3700472763
 32
0.0
 13
-1.0774730544
 23
-0.1585146335
 33
0.0
 40
0.0
 40
0.0
 40
0.0
 40
0.0
 40
0.2957417834
 40
1.0
 40
1.0
 40
1.0
 40
1.0
 10
3.5871925783
 20
-23.7119917169
 30
0.0
 10
3.4862189009
 20
-23.6755122365
 30
0.0
 10
3.1232796567
 20
-23.616048509
 30
0.0
 10
2.7584366271
 20
-23.6526720933
 30
0.0
 10
2.5054968765
 20
-23.6898838377
 30
0.0
 11
3.5871925783
 21
-23.7119917169
 31
0.0
 11
3.2713797911
 21
-23.6487445228
 31
0.0
 11
2.5054968765
 21
-23.6898838377
 31
0.0
  0
SPLINE
  5
356
100
AcDbEntity
  8
RACCORDO
100
AcDbSpline
 62
253
  6
CONTINUOUS
 70
0
 71
3
 72
9
 73
5
 74
3
 42
0.0000001
 43
0.0000001
 44
0.0000000001
 12
0.0350782652
 22
0.0048739413
 32
0.0
 13
0.0108183149
 23
0.0337224563
 33
0.0
 40
0.0
 40
0.0
 40
0.0
 40
0.0
 40
0.3370815594
 40
1.0
 40
1.0
 40
1.0
 40
1.0
 10
22.3592562476
 20
22.5983283826
 30
0.0
 10
22.3631976598
 20
22.5988760212
 30
0.0
 10
22.3711061255
 20
22.6102162047
 30
0.0
 10
22.3746788945
 20
22.6206349003
 30
0.0
 10
22.377069448
 20
22.6280866463
 30
0.0
 11
22.3592562476
 21
22.5983283826
 31
0.0
 11
22.3680366166
 21
22.6064164516
 31
0.0
 11
22.377069448
 21
22.6280866463
 31
0.0
  0
SPLINE
  5
357
100
AcDbEntity
  8
RACCORDO
100
AcDbSpline
 62
253
  6
CONTINUOUS
 70
0
 71
3
 72
9
 73
5
 74
3
 42
0.0000001
 43
0.0000001
 44
0.0000000001
 12
0.0016419144
 22
0.0116767693
 32
0.0
 13
0.0098749407
 23
0.0064442508
 33
0.0
 40
0.0
 40
0.0
 40
0.0
 40
0.0
 40
0.1959560025
 40
1.0
 40
1.0
 40
1.0
 40
1.0
 10
22.6492723153
 20
22.3046654041
 30
0.0
 10
22.6493795629
 20
22.3054281151
 30
0.0
 10
22.6506828168
 20
22.3092214604
 30
0.0
 10
22.6540751635
 20
22.3117974469
 30
0.0
 10
22.6567217924
 20
22.3135246007
 30
0.0
 11
22.6492723153
 21
22.3046654041
 31
0.0
 11
22.6499705423
 21
22.3068680276
 31
0.0
 11
22.6567217924
 21
22.3135246007
 31
0.0
  0
SPLINE
  5
358
100
AcDbEntity
  8
RACCORDO
100
AcDbSpline
 62
253
  6
CONTINUOUS
 70
0
 71
3
 72
9
 73
5
 74
3
 42
0.0000001
 43
0.0000001
 44
0.0000000001
 12
0.001645421
 22
-0.0116721813
 32
0.0
 13
0.0098680397
 23
-0.006447404
 33
0.0
 40
0.0
 40
0.0
 40
0.0
 40
0.0
 40
0.1960237375
 40
1.0
 40
1.0
 40
1.0
 40
1.0
 10
22.6492543316
 20
-22.3046650807
 30
0.0
 10
22.6493618455
 20
-22.3054277555
 30
0.0
 10
22.6506646521
 20
-22.3092195417
 30
0.0
 10
22.6540533922
 20
-22.3117967302
 30
0.0
 10
22.6566979488
 20
-22.3135245834
 30
0.0
 11
22.6492543316
 21
-22.3046650807
 31
0.0
 11
22.6499527602
 21
-22.3068676445
 31
0.0
 11
22.6566979488
 21
-22.3135245834
 31
0.0
  0
SPLINE
  5
359
100
AcDbEntity
  8
RACCORDO
100
AcDbSpline
 62
253
  6
CONTINUOUS
 70
0
 71
3
 72
9
 73
5
 74
3
 42
0.0000001
 43
0.0000001
 44
0.0000000001
 12
0.0350776444
 22
-0.0048684519
 32
0.0
 13
0.0108153484
 23
-0.0337219691
 33
0.0
 40
0.0
 40
0.0
 40
0.0
 40
0.0
 40
0.3371051516
 40
1.0
 40
1.0
 40
1.0
 40
1.0
 10
22.3592561098
 20
-22.5983244457
 30
0.0
 10
22.363197728
 20
-22.5988715058
 30
0.0
 10
22.3711082392
 20
-22.610209775
 30
0.0
 10
22.3746796375
 20
-22.6206289361
 30
0.0
 10
22.3770694504
 20
-22.6280803093
 30
0.0
 11
22.3592561098
 21
-22.5983244457
 31
0.0
 11
22.3680379799
 21
-22.6064114364
 31
0.0
 11
22.3770694504
 21
-22.6280803093
 31
0.0
  0
SPLINE
  5
35A
100
AcDbEntity
  8
RACCORDO
100
AcDbSpline
 62
253
  6
CONTINUOUS
 70
0
 71
3
 72
9
 73
5
 74
3
 42
0.0000001
 43
0.0000001
 44
0.0000000001
 12
-0.0350782652
 22
-0.0048739413
 32
0.0
 13
-0.0108183149
 23
-0.0337224563
 33
0.0
 40
0.0
 40
0.0
 40
0.0
 40
0.0
 40
0.3370815594
 40
1.0
 40
1.0
 40
1.0
 40
1.0
 10
-22.3592562467
 20
-22.5983283826
 30
0.0
 10
-22.3631976589
 20
-22.5988760212
 30
0.0
 10
-22.3711061246
 20
-22.6102162047
 30
0.0
 10
-22.3746788936
 20
-22.6206349003
 30
0.0
 10
-22.3770694471
 20
-22.6280866463
 30
0.0
 11
-22.3592562467
 21
-22.5983283826
 31
0.0
 11
-22.3680366157
 21
-22.6064164516
 31
0.0
 11
-22.3770694471
 21
-22.6280866463
 31
0.0
  0
SPLINE
  5
35B
100
AcDbEntity
  8
RACCORDO
100
AcDbSpline
 62
253
  6
CONTINUOUS
 70
0
 71
3
 72
9
 73
5
 74
3
 42
0.0000001
 43
0.0000001
 44
0.0000000001
 12
-0.0016419144
 22
-0.0116767693
 32
0.0
 13
-0.0098749407
 23
-0.0064442508
 33
0.0
 40
0.0
 40
0.0
 40
0.0
 40
0.0
 40
0.1959560025
 40
1.0
 40
1.0
 40
1.0
 40
1.0
 10
-22.6492723144
 20
-22.3046654041
 30
0.0
 10
-22.649379562
 20
-22.3054281151
 30
0.0
 10
-22.6506828159
 20
-22.3092214604
 30
0.0
 10
-22.6540751626
 20
-22.3117974469
 30
0.0
 10
-22.6567217915
 20
-22.3135246007
 30
0.0
 11
-22.6492723144
 21
-22.3046654041
 31
0.0
 11
-22.6499705414
 21
-22.3068680276
 31
0.0
 11
-22.6567217915
 21
-22.3135246007
 31
0.0
  0
SPLINE
  5
35C
100
AcDbEntity
  8
RACCORDO
100
AcDbSpline
 62
253
  6
CONTINUOUS
 70
0
 71
3
 72
9
 73
5
 74
3
 42
0.0000001
 43
0.0000001
 44
0.0000000001
 12
-0.0016437675
 22
0.0116712894
 32
0.0
 13
-0.0098674092
 23
0.0064463324
 33
0.0
 40
0.0
 40
0.0
 40
0.0
 40
0.0
 40
0.1960790338
 40
1.0
 40
1.0
 40
1.0
 40
1.0
 10
-22.6492545919
 20
22.3046650853
 30
0.0
 10
-22.649362028
 20
22.305427917
 30
0.0
 10
-22.6506638354
 20
22.3092196329
 30
0.0
 10
-22.6540521044
 20
22.3117971357
 30
0.0
 10
-22.6566963101
 20
22.313524583
 30
0.0
 11
-22.6492545919
 21
22.3046650853
 31
0.0
 11
-22.6499527604
 21
22.3068681861
 31
0.0
 11
-22.6566963101
 21
22.313524583
 31
0.0
  0
SPLINE
  5
35D
100
AcDbEntity
  8
RACCORDO
100
AcDbSpline
 62
253
  6
CONTINUOUS
 70
0
 71
3
 72
9
 73
5
 74
3
 42
0.0000001
 43
0.0000001
 44
0.0000000001
 12
-0.035079225
 22
0.0048676887
 32
0.0
 13
-0.0108153946
 23
0.0337234882
 33
0.0
 40
0.0
 40
0.0
 40
0.0
 40
0.0
 40
0.3370983498
 40
1.0
 40
1.0
 40
1.0
 40
1.0
 10
-22.3592559034
 20
22.5983185747
 30
0.0
 10
-22.3631976197
 20
22.5988655379
 30
0.0
 10
-22.3711082666
 20
22.6102046852
 30
0.0
 10
-22.3746796043
 20
22.6206241943
 30
0.0
 10
-22.3770694519
 20
22.6280759797
 30
0.0
 11
-22.3592559034
 21
22.5983185747
 31
0.0
 11
-22.368037853
 21
22.6064058502
 31
0.0
 11
-22.3770694519
 21
22.6280759797
 31
0.0
  0
SPLINE
  5
35E
100
AcDbEntity
  8
RACCORDO
100
AcDbSpline
 62
253
  6
CONTINUOUS
 70
0
 71
3
 72
11
 73
7
 74
5
 42
0.0000001
 43
0.0000001
 44
0.0000000001
 12
0.4755833521
 22
0.0253970598
 32
0.0
 13
-0.0235522301
 23
-0.475678282
 33
0.0
 40
0.0
 40
0.0
 40
0.0
 40
0.0
 40
0.2521799742
 40
0.5045374213
 40
0.7538906135
 40
1.0
 40
1.0
 40
1.0
 40
1.0
 10
22.6284355613
 20
23.1469043724
 30
0.0
 10
22.6684130938
 20
23.1490392491
 30
0.0
 10
22.7510613209
 20
23.1350490643
 30
0.0
 10
22.8481531026
 20
23.0570505185
 30
0.0
 10
22.9005049292
 20
22.9470192694
 30
0.0
 10
22.9079755879
 20
22.8672499784
 30
0.0
 10
22.9060434462
 20
22.8282270151
 30
0.0
 11
22.6284355613
 21
23.1469043724
 31
0.0
 11
22.7466178436
 21
23.1255082191
 31
0.0
 11
22.8410785994
 21
23.0511958843
 31
0.0
 11
22.8938389723
 21
22.9448022028
 31
0.0
 11
22.9060434462
 21
22.8282270151
 31
0.0
  0
SPLINE
  5
35F
100
AcDbEntity
  8
RACCORDO
100
AcDbSpline
 62
253
  6
CONTINUOUS
 70
0
 71
3
 72
11
 73
7
 74
5
 42
0.0000001
 43
0.0000001
 44
0.0000000001
 12
0.0174576275
 22
0.4674042409
 32
0.0
 13
-0.4677217515
 23
0.0028029039
 33
0.0
 40
0.0
 40
0.0
 40
0.0
 40
0.0
 40
0.2481560907
 40
0.4981918096
 40
0.7488790264
 40
1.0
 40
1.0
 40
1.0
 40
1.0
 10
22.656693747
 20
22.3135245816
 30
0.0
 10
22.6581378192
 20
22.3521876513
 30
0.0
 10
22.6481749326
 20
22.4310460767
 30
0.0
 10
22.5911637458
 20
22.5363621613
 30
0.0
 10
22.4956441188
 20
22.6103972231
 30
0.0
 10
22.416366213
 20
22.6278447962
 30
0.0
 10
22.3772146325
 20
22.6280794189
 30
0.0
 11
22.656693747
 21
22.3135245816
 31
0.0
 11
22.6412742224
 21
22.4285658916
 31
0.0
 11
22.5848559103
 21
22.5310066051
 31
0.0
 11
22.4918247819
 21
22.6023767847
 31
0.0
 11
22.3772146325
 21
22.6280794189
 31
0.0
  0
SPLINE
  5
360
100
AcDbEntity
  8
RACCORDO
100
AcDbSpline
 62
253
  6
CONTINUOUS
 70
0
 71
3
 72
11
 73
7
 74
5
 42
0.0000001
 43
0.0000001
 44
0.0000000001
 12
-0.0101990732
 22
0.4515537253
 32
0.0
 13
-0.4513111587
 23
0.0179729214
 33
0.0
 40
0.0
 40
0.0
 40
0.0
 40
0.0
 40
0.2441973669
 40
0.4933733735
 40
0.7478788953
 40
1.0
 40
1.0
 40
1.0
 40
1.0
 10
22.6492549831
 20
22.3046650921
 30
0.0
 10
22.6484247875
 20
22.341421169
 30
0.0
 10
22.6325429153
 20
22.4160696992
 30
0.0
 10
22.5689787657
 20
22.5121128282
 30
0.0
 10
22.4735647796
 20
22.5789276877
 30
0.0
 10
22.3971846234
 20
22.5968184852
 30
0.0
 10
22.3592562674
 20
22.5983289361
 30
0.0
 11
22.6492549831
 21
22.3046650921
 31
0.0
 11
22.6263211582
 21
22.4125507974
 31
0.0
 11
22.5643469373
 21
22.5064953789
 31
0.0
 11
22.4701288063
 21
22.5723509655
 31
0.0
 11
22.3592562674
 21
22.5983289361
 31
0.0
  0
SPLINE
  5
361
100
AcDbEntity
  8
RACCORDO
100
AcDbSpline
 62
253
  6
CONTINUOUS
 70
0
 71
3
 72
11
 73
7
 74
5
 42
0.0000001
 43
0.0000001
 44
0.0000000001
 12
0.0235528302
 22
-0.475681279
 32
0.0
 13
-0.4755755775
 23
0.0255985369
 33
0.0
 40
0.0
 40
0.0
 40
0.0
 40
0.0
 40
0.2461023178
 40
0.4954535361
 40
0.7478124086
 40
1.0
 40
1.0
 40
1.0
 40
1.0
 10
22.9060449026
 20
-22.8282614738
 30
0.0
 10
22.9079770379
 20
-22.8672835622
 30
0.0
 10
22.900497911
 20
-22.9470503227
 30
0.0
 10
22.8481426193
 20
-23.057083865
 30
0.0
 10
22.7510292265
 20
-23.1350512139
 30
0.0
 10
22.668379306
 20
-23.1490554484
 30
0.0
 10
22.6284012195
 20
-23.1469035706
 30
0.0
 11
22.9060449026
 21
-22.8282614738
 31
0.0
 11
22.8938338199
 21
-22.9448333325
 31
0.0
 11
22.8410657373
 21
-23.0512229825
 31
0.0
 11
22.746589984
 21
-23.1255185819
 31
0.0
 11
22.6284012195
 21
-23.1469035706
 31
0.0
  0
SPLINE
  5
362
100
AcDbEntity
  8
RACCORDO
100
AcDbSpline
 62
253
  6
CONTINUOUS
 70
0
 71
3
 72
11
 73
7
 74
5
 42
0.0000001
 43
0.0000001
 44
0.0000000001
 12
0.4678024314
 22
0.0028660177
 32
0.0
 13
-0.0173076586
 23
0.4674909345
 33
0.0
 40
0.0
 40
0.0
 40
0.0
 40
0.0
 40
0.2510672981
 40
0.5017509982
 40
0.7518196292
 40
1.0
 40
1.0
 40
1.0
 40
1.0
 10
22.3771335148
 20
-22.6280818054
 30
0.0
 10
22.4162834789
 20
-22.627841951
 30
0.0
 10
22.4955731406
 20
-22.6104449846
 30
0.0
 10
22.5911206632
 20
-22.5364093992
 30
0.0
 10
22.6481781464
 20
-22.4310814019
 30
0.0
 10
22.6581255543
 20
-22.3521986128
 30
0.0
 10
22.6566937472
 20
-22.3135245883
 30
0.0
 11
22.3771335148
 21
-22.6280818054
 31
0.0
 11
22.4917470852
 21
-22.6024161769
 31
0.0
 11
22.5848106809
 21
-22.5310576421
 31
0.0
 11
22.6412658931
 21
-22.4285965375
 31
0.0
 11
22.6566937472
 21
-22.3135245883
 31
0.0
  0
SPLINE
  5
363
100
AcDbEntity
  8
RACCORDO
100
AcDbSpline
 62
253
  6
CONTINUOUS
 70
0
 71
3
 72
11
 73
7
 74
5
 42
0.0000001
 43
0.0000001
 44
0.0000000001
 12
0.4513107998
 22
0.017977065
 32
0.0
 13
0.0101901151
 23
0.4515537338
 33
0.0
 40
0.0
 40
0.0
 40
0.0
 40
0.0
 40
0.2520641495
 40
0.5065659907
 40
0.7557749983
 40
1.0
 40
1.0
 40
1.0
 40
1.0
 10
22.3592562674
 20
-22.5983289361
 30
0.0
 10
22.3971760251
 20
-22.5968184783
 30
0.0
 10
22.4735461841
 20
-22.5789323326
 30
0.0
 10
22.5689640684
 20
-22.512130438
 30
0.0
 10
22.6325387183
 20
-22.4160829186
 30
0.0
 10
22.6484254228
 20
-22.3414253292
 30
0.0
 10
22.6492549831
 20
-22.3046650921
 30
0.0
 11
22.3592562674
 21
-22.5983289361
 31
0.0
 11
22.4701046426
 21
-22.5723608164
 31
0.0
 11
22.5643278393
 21
-22.506515466
 31
0.0
 11
22.6263162939
 21
-22.4125624756
 31
0.0
 11
22.6492549831
 21
-22.3046650921
 31
0.0
  0
SPLINE
  5
364
100
AcDbEntity
  8
RACCORDO
100
AcDbSpline
 62
253
  6
CONTINUOUS
 70
0
 71
3
 72
11
 73
7
 74
5
 42
0.0000001
 43
0.0000001
 44
0.0000000001
 12
-0.0000144823
 22
0.9183629164
 32
0.0
 13
0.9183629157
 23
-0.0000385668
 33
0.0
 40
0.0
 40
0.0
 40
0.0
 40
0.0
 40
0.2502639014
 40
0.5002653067
 40
0.7501013609
 40
1.0
 40
1.0
 40
1.0
 40
1.0
 10
-23.2014857561
 20
22.828226657
 30
0.0
 10
-23.2014869642
 20
22.9048376858
 30
0.0
 10
-23.1746301782
 20
23.0595300321
 30
0.0
 10
-23.052105202
 20
23.2605276616
 30
0.0
 10
-22.8598819347
 20
23.3974934618
 30
0.0
 10
-22.7049134308
 20
23.4288148723
 30
0.0
 10
-22.6284142165
 20
23.4288116597
 30
0.0
 11
-23.2014857561
 21
22.828226657
 31
0.0
 11
-23.1608869822
 21
23.0544455491
 31
0.0
 11
-23.0404438618
 21
23.2499089734
 31
0.0
 11
-22.8531890182
 21
23.3824925846
 31
0.0
 11
-22.6284142165
 21
23.4288116597
 31
0.0
  0
SPLINE
  5
365
100
AcDbEntity
  8
RACCORDO
100
AcDbSpline
 62
253
  6
CONTINUOUS
 70
0
 71
3
 72
11
 73
7
 74
5
 42
0.0000001
 43
0.0000001
 44
0.0000000001
 12
-0.4513111706
 22
-0.0179726428
 32
0.0
 13
-0.0101988593
 23
-0.4515537309
 33
0.0
 40
0.0
 40
0.0
 40
0.0
 40
0.0
 40
0.2521210927
 40
0.5066266242
 40
0.7558025848
 40
1.0
 40
1.0
 40
1.0
 40
1.0
 10
-22.3592562663
 20
22.5983289362
 30
0.0
 10
-22.3971846215
 20
22.5968185087
 30
0.0
 10
-22.4735647732
 20
22.5789276705
 30
0.0
 10
-22.5689787619
 20
22.5121128385
 30
0.0
 10
-22.6325429091
 20
22.4160697076
 30
0.0
 10
-22.6484248039
 20
22.3414211767
 30
0.0
 10
-22.6492549822
 20
22.3046650921
 30
0.0
 11
-22.3592562663
 21
22.5983289362
 31
0.0
 11
-22.4701287994
 21
22.5723509638
 31
0.0
 11
-22.5643469377
 21
22.5064953797
 31
0.0
 11
-22.6263211527
 21
22.4125508189
 31
0.0
 11
-22.6492549822
 21
22.3046650921
 31
0.0
  0
SPLINE
  5
366
100
AcDbEntity
  8
RACCORDO
100
AcDbSpline
 62
253
  6
CONTINUOUS
 70
0
 71
3
 72
11
 73
7
 74
5
 42
0.0000001
 43
0.0000001
 44
0.0000000001
 12
-0.0235526188
 22
0.4756875283
 32
0.0
 13
0.4755942284
 23
-0.0253669126
 33
0.0
 40
0.0
 40
0.0
 40
0.0
 40
0.0
 40
0.2461091508
 40
0.4954615669
 40
0.7478184483
 40
1.0
 40
1.0
 40
1.0
 40
1.0
 10
-22.9060434448
 20
22.8282270015
 30
0.0
 10
-22.9079756164
 20
22.867250686
 30
0.0
 10
-22.900504543
 20
22.9470215612
 30
0.0
 10
-22.8481506757
 20
23.0570535622
 30
0.0
 10
-22.7510555342
 20
23.1350547953
 30
0.0
 10
-22.6684051064
 20
23.1490365135
 30
0.0
 10
-22.6284264096
 20
23.1469041577
 30
0.0
 11
-22.9060434448
 21
22.8282270015
 31
0.0
 11
-22.8938383344
 21
22.9448042997
 31
0.0
 11
-22.8410760309
 21
23.051199187
 31
0.0
 11
-22.7466124091
 21
23.12551122
 31
0.0
 11
-22.6284264096
 21
23.1469041577
 31
0.0
  0
SPLINE
  5
367
100
AcDbEntity
  8
RACCORDO
100
AcDbSpline
 62
253
  6
CONTINUOUS
 70
0
 71
3
 72
11
 73
7
 74
5
 42
0.0000001
 43
0.0000001
 44
0.0000000001
 12
-0.4677934115
 22
-0.0027464494
 32
0.0
 13
0.0174690012
 23
-0.4674751895
 33
0.0
 40
0.0
 40
0.0
 40
0.0
 40
0.0
 40
0.251121647
 40
0.5018087056
 40
0.7518438977
 40
1.0
 40
1.0
 40
1.0
 40
1.0
 10
-22.377142269
 20
22.6280815057
 30
0.0
 10
-22.416299953
 20
22.627851608
 30
0.0
 10
-22.4955945918
 20
22.6104258662
 30
0.0
 10
-22.5911419044
 20
22.5363915791
 30
0.0
 10
-22.6481713061
 20
22.4310644504
 30
0.0
 10
-22.6581387592
 20
22.3521935219
 30
0.0
 10
-22.6566937461
 20
22.3135245816
 30
0.0
 11
-22.377142269
 21
22.6280815057
 31
0.0
 11
-22.4917758416
 21
22.6024000406
 31
0.0
 11
-22.5848325784
 21
22.5310339909
 31
0.0
 11
-22.6412687151
 21
22.4285830167
 31
0.0
 11
-22.6566937461
 21
22.3135245816
 31
0.0
  0
SPLINE
  5
368
100
AcDbEntity
  8
RACCORDO
100
AcDbSpline
 62
253
  6
CONTINUOUS
 70
0
 71
3
 72
11
 73
7
 74
5
 42
0.0000001
 43
0.0000001
 44
0.0000000001
 12
-0.4755833521
 22
-0.0253970598
 32
0.0
 13
0.0235522301
 23
0.475678282
 33
0.0
 40
0.0
 40
0.0
 40
0.0
 40
0.0
 40
0.2521799742
 40
0.5045374213
 40
0.7538906135
 40
1.0
 40
1.0
 40
1.0
 40
1.0
 10
-22.6284355604
 20
-23.1469043724
 30
0.0
 10
-22.6684130929
 20
-23.1490392491
 30
0.0
 10
-22.7510613201
 20
-23.1350490643
 30
0.0
 10
-22.8481531017
 20
-23.0570505185
 30
0.0
 10
-22.9005049283
 20
-22.9470192694
 30
0.0
 10
-22.907975587
 20
-22.8672499784
 30
0.0
 10
-22.9060434453
 20
-22.8282270151
 30
0.0
 11
-22.6284355604
 21
-23.1469043724
 31
0.0
 11
-22.7466178427
 21
-23.1255082191
 31
0.0
 11
-22.8410785985
 21
-23.0511958843
 31
0.0
 11
-22.8938389714
 21
-22.9448022028
 31
0.0
 11
-22.9060434453
 21
-22.8282270151
 31
0.0
  0
SPLINE
  5
369
100
AcDbEntity
  8
RACCORDO
100
AcDbSpline
 62
253
  6
CONTINUOUS
 70
0
 71
3
 72
11
 73
7
 74
5
 42
0.0000001
 43
0.0000001
 44
0.0000000001
 12
-0.0174576275
 22
-0.4674042409
 32
0.0
 13
0.4677217515
 23
-0.0028029039
 33
0.0
 40
0.0
 40
0.0
 40
0.0
 40
0.0
 40
0.2481560907
 40
0.4981918096
 40
0.7488790264
 40
1.0
 40
1.0
 40
1.0
 40
1.0
 10
-22.6566937461
 20
-22.3135245816
 30
0.0
 10
-22.6581378183
 20
-22.3521876513
 30
0.0
 10
-22.6481749317
 20
-22.4310460767
 30
0.0
 10
-22.5911637449
 20
-22.5363621613
 30
0.0
 10
-22.4956441179
 20
-22.6103972231
 30
0.0
 10
-22.4163662121
 20
-22.6278447962
 30
0.0
 10
-22.3772146316
 20
-22.6280794189
 30
0.0
 11
-22.6566937461
 21
-22.3135245816
 31
0.0
 11
-22.6412742215
 21
-22.4285658916
 31
0.0
 11
-22.5848559094
 21
-22.5310066051
 31
0.0
 11
-22.4918247811
 21
-22.6023767847
 31
0.0
 11
-22.3772146316
 21
-22.6280794189
 31
0.0
  0
SPLINE
  5
36A
100
AcDbEntity
  8
RACCORDO
100
AcDbSpline
 62
253
  6
CONTINUOUS
 70
0
 71
3
 72
11
 73
7
 74
5
 42
0.0000001
 43
0.0000001
 44
0.0000000001
 12
0.0101990732
 22
-0.4515537253
 32
0.0
 13
0.4513111587
 23
-0.0179729214
 33
0.0
 40
0.0
 40
0.0
 40
0.0
 40
0.0
 40
0.2441973669
 40
0.4933733735
 40
0.7478788953
 40
1.0
 40
1.0
 40
1.0
 40
1.0
 10
-22.6492549822
 20
-22.3046650921
 30
0.0
 10
-22.6484247866
 20
-22.341421169
 30
0.0
 10
-22.6325429144
 20
-22.4160696992
 30
0.0
 10
-22.5689787648
 20
-22.5121128282
 30
0.0
 10
-22.4735647787
 20
-22.5789276877
 30
0.0
 10
-22.3971846225
 20
-22.5968184852
 30
0.0
 10
-22.3592562665
 20
-22.5983289361
 30
0.0
 11
-22.6492549822
 21
-22.3046650921
 31
0.0
 11
-22.6263211573
 21
-22.4125507974
 31
0.0
 11
-22.5643469364
 21
-22.5064953789
 31
0.0
 11
-22.4701288054
 21
-22.5723509655
 31
0.0
 11
-22.3592562665
 21
-22.5983289361
 31
0.0
  0
SPLINE
  5
36B
100
AcDbEntity
  8
RACCORDO
100
AcDbSpline
 62
253
  6
CONTINUOUS
 70
0
 71
3
 72
11
 73
7
 74
5
 42
0.0000001
 43
0.0000001
 44
0.0000000001
 12
-0.9183621973
 22
-0.0001042104
 32
0.0
 13
0.0000144934
 23
0.9183622031
 33
0.0
 40
0.0
 40
0.0
 40
0.0
 40
0.0
 40
0.2498969706
 40
0.4997337696
 40
0.7497357693
 40
1.0
 40
1.0
 40
1.0
 40
1.0
 10
-22.6284142165
 20
-23.4288116597
 30
0.0
 10
-22.7049128602
 20
-23.4288203403
 30
0.0
 10
-22.8598803773
 20
-23.3974891728
 30
0.0
 10
-23.0521046834
 20
-23.2605290197
 30
0.0
 10
-23.1746299942
 20
-23.0595299465
 30
0.0
 10
-23.2014869652
 20
-22.9048377271
 30
0.0
 10
-23.2014857561
 20
-22.828226657
 30
0.0
 11
-22.6284142165
 21
-23.4288116597
 31
0.0
 11
-22.8531871519
 21
-23.3824920037
 31
0.0
 11
-23.0404431666
 21
-23.2499091713
 31
0.0
 11
-23.1608868251
 21
-23.0544456468
 31
0.0
 11
-23.2014857561
 21
-22.828226657
 31
0.0
  0
SPLINE
  5
36C
100
AcDbEntity
  8
RACCORDO
100
AcDbSpline
 62
253
  6
CONTINUOUS
 70
0
 71
3
 72
11
 73
7
 74
5
 42
0.0000001
 43
0.0000001
 44
0.0000000001
 12
0.0000498599
 22
0.62102873
 32
0.0
 13
0.6210287269
 23
0.0000791702
 33
0.0
 40
0.0
 40
0.0
 40
0.0
 40
0.0
 40
0.2500058224
 40
0.5000008131
 40
0.7499857999
 40
1.0
 40
1.0
 40
1.0
 40
1.0
 10
-25.6019528726
 20
25.552013795
 30
0.0
 10
-25.6019487175
 20
25.6037673944
 30
0.0
 10
-25.5813597869
 20
25.708376558
 30
0.0
 10
-25.4932400702
 20
25.8409494689
 30
0.0
 10
-25.3614406984
 20
25.9298606243
 30
0.0
 10
-25.2569982611
 20
25.9519462751
 30
0.0
 10
-25.2052429276
 20
25.951952873
 30
0.0
 11
-25.6019528726
 21
25.552013795
 31
0.0
 11
-25.5718192388
 21
25.704322297
 31
0.0
 11
-25.48595906
 21
25.8336739749
 31
0.0
 11
-25.3573024038
 21
25.9205610433
 31
0.0
 11
-25.2052429276
 21
25.951952873
 31
0.0
  0
SPLINE
  5
36D
100
AcDbEntity
  8
RACCORDO
100
AcDbSpline
 62
253
  6
CONTINUOUS
 70
0
 71
3
 72
11
 73
7
 74
5
 42
0.0000001
 43
0.0000001
 44
0.0000000001
 12
-0.6210287321
 22
0.0000498599
 32
0.0
 13
-0.0000791702
 23
0.621028729
 33
0.0
 40
0.0
 40
0.0
 40
0.0
 40
0.0
 40
0.2500058224
 40
0.5000008131
 40
0.7499857999
 40
1.0
 40
1.0
 40
1.0
 40
1.0
 10
-25.2020137945
 20
-25.951952873
 30
0.0
 10
-25.2537673942
 20
-25.9519487179
 30
0.0
 10
-25.3583765581
 20
-25.9313597872
 30
0.0
 10
-25.4909494693
 20
-25.8432400699
 30
0.0
 10
-25.5798606247
 20
-25.7114406974
 30
0.0
 10
-25.6019462747
 20
-25.6069982596
 30
0.0
 10
-25.6019528726
 20
-25.5552429259
 30
0.0
 11
-25.2020137945
 21
-25.951952873
 31
0.0
 11
-25.354322297
 21
-25.9218192391
 31
0.0
 11
-25.4836739753
 21
-25.8359590597
 31
0.0
 11
-25.5705610435
 21
-25.7073024028
 31
0.0
 11
-25.6019528726
 21
-25.5552429259
 31
0.0
  0
SPLINE
  5
36E
100
AcDbEntity
  8
RACCORDO
100
AcDbSpline
 62
253
  6
CONTINUOUS
 70
0
 71
3
 72
11
 73
7
 74
5
 42
0.0000001
 43
0.0000001
 44
0.0000000001
 12
0.0001539294
 22
-0.918359028
 32
0.0
 13
-0.9183590363
 23
-0.0000919294
 33
0.0
 40
0.0
 40
0.0
 40
0.0
 40
0.0
 40
0.2502624158
 40
0.5002644967
 40
0.7500997209
 40
1.0
 40
1.0
 40
1.0
 40
1.0
 10
23.201485757
 20
-22.828226657
 30
0.0
 10
23.2014985979
 20
-22.9048369066
 30
0.0
 10
23.1746423354
 20
-23.0595306985
 30
0.0
 10
23.0521137614
 20
-23.2605284345
 30
0.0
 10
22.8598718292
 20
-23.3974627639
 30
0.0
 10
22.7049136106
 20
-23.428804002
 30
0.0
 10
22.6284142174
 20
-23.4288116597
 30
0.0
 11
23.201485757
 21
-22.828226657
 31
0.0
 11
23.1608986311
 21
-23.0544452677
 31
0.0
 11
23.0404497029
 21
-23.2499047039
 31
0.0
 11
22.8531852825
 21
-23.3824717931
 31
0.0
 11
22.6284142174
 21
-23.4288116597
 31
0.0
  0
SPLINE
  5
36F
100
AcDbEntity
  8
RACCORDO
100
AcDbSpline
 62
253
  6
CONTINUOUS
 70
0
 71
3
 72
11
 73
7
 74
5
 42
0.0000001
 43
0.0000001
 44
0.0000000001
 12
0.9183621973
 22
0.0001042104
 32
0.0
 13
-0.0000144934
 23
-0.9183622031
 33
0.0
 40
0.0
 40
0.0
 40
0.0
 40
0.0
 40
0.2498969706
 40
0.4997337696
 40
0.7497357693
 40
1.0
 40
1.0
 40
1.0
 40
1.0
 10
22.6284142174
 20
23.4288116597
 30
0.0
 10
22.7049128611
 20
23.4288203403
 30
0.0
 10
22.8598803782
 20
23.3974891728
 30
0.0
 10
23.0521046843
 20
23.2605290197
 30
0.0
 10
23.1746299951
 20
23.0595299465
 30
0.0
 10
23.2014869661
 20
22.9048377271
 30
0.0
 10
23.201485757
 20
22.828226657
 30
0.0
 11
22.6284142174
 21
23.4288116597
 31
0.0
 11
22.8531871528
 21
23.3824920037
 31
0.0
 11
23.0404431675
 21
23.2499091713
 31
0.0
 11
23.160886826
 21
23.0544456468
 31
0.0
 11
23.201485757
 21
22.828226657
 31
0.0
  0
SPLINE
  5
370
100
AcDbEntity
  8
RACCORDO
100
AcDbSpline
 62
253
  6
CONTINUOUS
 70
0
 71
3
 72
23
 73
19
 74
17
 42
0.0000001
 43
0.0000001
 44
0.0000000001
 12
-0.0052250696
 22
0.6999442616
 32
0.0
 13
0.6997738237
 23
0.0163054114
 33
0.0
 40
0.0
 40
0.0
 40
0.0
 40
0.0
 40
0.1950458747
 40
0.3826397505
 40
0.555484779
 40
0.6343043597
 40
0.7070050217
 40
0.7729042947
 40
0.831352309
 40
0.8818043226
 40
0.9237617168
 40
0.9568261729
 40
0.969925046
 40
0.9806839856
 40
0.989079053
 40
0.9950984995
 40
0.9987336937
 40
1.0
 40
1.0
 40
1.0
 40
1.0
 10
-80.8077358025
 20
25.552013795
 30
0.0
 10
-80.8080755119
 20
25.5975208752
 30
0.0
 10
-80.8086791948
 20
25.6867968574
 30
0.0
 10
-80.8093606639
 20
25.8164015253
 30
0.0
 10
-80.8097271245
 20
25.9188892621
 30
0.0
 10
-80.8098765991
 20
25.9945704739
 30
0.0
 10
-80.8099148513
 20
26.0452989828
 30
0.0
 10
-80.8098836539
 20
26.091274743
 30
0.0
 10
-80.809782324
 20
26.132058175
 30
0.0
 10
-80.809615897
 20
26.1672586377
 30
0.0
 10
-80.8093793275
 20
26.1965262058
 30
0.0
 10
-80.8091302322
 20
26.2171021043
 30
0.0
 10
-80.8088638944
 20
26.230354849
 30
0.0
 10
-80.8087030823
 20
26.2379329404
 30
0.0
 10
-80.8084308148
 20
26.2436602251
 30
0.0
 10
-80.8083882844
 20
26.2481918609
 30
0.0
 10
-80.8078971713
 20
26.2501563239
 30
0.0
 10
-80.8080311785
 20
26.251900299
 30
0.0
 10
-80.8077358025
 20
26.2519071816
 30
0.0
 11
-80.8077358025
 21
25.552013795
 31
0.0
 11
-80.8086560665
 21
25.6885357379
 31
0.0
 11
-80.8093404332
 21
25.8198428699
 31
0.0
 11
-80.8097612346
 21
25.9408273948
 31
0.0
 11
-80.8098677382
 21
25.9959981424
 31
0.0
 11
-80.8099033011
 21
26.0468859589
 31
0.0
 11
-80.8098677582
 21
26.0930130484
 31
0.0
 11
-80.8097612662
 21
26.1339244019
 31
0.0
 11
-80.80958498
 21
26.1692385432
 31
0.0
 11
-80.8093404716
 21
26.198606181
 31
0.0
 11
-80.8090299294
 21
26.2217480186
 31
0.0
 11
-80.808850738
 21
26.2309150039
 31
0.0
 11
-80.8086560652
 21
26.2384433552
 31
0.0
 11
-80.8084464814
 21
26.2443158595
 31
0.0
 11
-80.8082227384
 21
26.248523309
 31
0.0
 11
-80.807985593
 21
26.2510567383
 31
0.0
 11
-80.8077358025
 21
26.2519071816
 31
0.0
  0
SPLINE
  5
371
100
AcDbEntity
  8
RACCORDO
100
AcDbSpline
 62
253
  6
CONTINUOUS
 70
0
 71
3
 72
23
 73
19
 74
17
 42
0.0000001
 43
0.0000001
 44
0.0000000001
 12
-0.699723268
 22
0.0183467323
 32
0.0
 13
0.0052239514
 23
0.6999442583
 33
0.0
 40
0.0
 40
0.0
 40
0.0
 40
0.0
 40
0.0012669938
 40
0.0049023045
 40
0.010921506
 40
0.0193161922
 40
0.0300748356
 40
0.0431735956
 40
0.0762381591
 40
0.1181957108
 40
0.1686477238
 40
0.2270956894
 40
0.2929949544
 40
0.3656956318
 40
0.4445152214
 40
0.6173602503
 40
0.8049541264
 40
1.0
 40
1.0
 40
1.0
 40
1.0
 10
-80.8077358025
 20
-26.2519071816
 30
0.0
 10
-80.8080313175
 20
-26.2518994332
 30
0.0
 10
-80.8078970835
 20
-26.2501571015
 30
0.0
 10
-80.8083883697
 20
-26.2481906184
 30
0.0
 10
-80.8084308158
 20
-26.2436602045
 30
0.0
 10
-80.8087030909
 20
-26.2379326474
 30
0.0
 10
-80.8088638704
 20
-26.2303549268
 30
0.0
 10
-80.8091301986
 20
-26.2171021649
 30
0.0
 10
-80.8093792866
 20
-26.1965262879
 30
0.0
 10
-80.8096158612
 20
-26.1672586343
 30
0.0
 10
-80.8097822913
 20
-26.1320581556
 30
0.0
 10
-80.8098836332
 20
-26.0912747349
 30
0.0
 10
-80.8099148524
 20
-26.045298986
 30
0.0
 10
-80.8098766218
 20
-25.9945704738
 30
0.0
 10
-80.8097271604
 20
-25.9188892576
 30
0.0
 10
-80.8093607092
 20
-25.8164015201
 30
0.0
 10
-80.8086792086
 20
-25.6867968546
 30
0.0
 10
-80.8080754392
 20
-25.5975208747
 30
0.0
 10
-80.8077358025
 20
-25.552013795
 30
0.0
 11
-80.8077358025
 21
-26.2519071816
 31
0.0
 11
-80.8079856285
 21
-26.2510562472
 31
0.0
 11
-80.8082227783
 21
-26.2485227365
 31
0.0
 11
-80.8084465062
 21
-26.2443154579
 31
0.0
 11
-80.8086560665
 21
-26.2384432199
 31
0.0
 11
-80.8088507188
 21
-26.2309150756
 31
0.0
 11
-80.809029898
 21
-26.2217481694
 31
0.0
 11
-80.8093404332
 21
-26.1986062568
 31
0.0
 11
-80.8095849438
 21
-26.1692385094
 31
0.0
 11
-80.8097612346
 21
-26.1339243691
 31
0.0
 11
-80.8098677382
 21
-26.0930130504
 31
0.0
 11
-80.8099033011
 21
-26.0468859673
 31
0.0
 11
-80.8098677582
 21
-25.9959981408
 31
0.0
 11
-80.8097612662
 21
-25.9408273879
 31
0.0
 11
-80.8093404716
 21
-25.8198428647
 31
0.0
 11
-80.8086560652
 21
-25.6885357349
 31
0.0
 11
-80.8077358025
 21
-25.552013795
 31
0.0
  0
ELLIPSE
  5
372
100
AcDbEntity
  8
RACCORDO
100
AcDbEllipse
 62
7
  6
CONTINUOUS
 10
22.3412267696
 20
22.2912267691
 30
0.0
 11
-0.2121966568
 21
-0.2121966568
 31
0.0
 40
0.9996954599
 41
2.3563467834
 42
3.9268385237
  0
ELLIPSE
  5
373
100
AcDbEntity
  8
RACCORDO
100
AcDbEllipse
 62
7
  6
CONTINUOUS
 10
22.3412267696
 20
-22.2912267691
 30
0.0
 11
-0.2121966568
 21
0.2121966568
 31
0.0
 40
0.9996954599
 41
2.3563467834
 42
3.9268385237
  0
ELLIPSE
  5
374
100
AcDbEntity
  8
RACCORDO
100
AcDbEllipse
 62
7
  6
CONTINUOUS
 10
-22.3412267687
 20
22.2912267691
 30
0.0
 11
-0.2121966568
 21
0.2121966568
 31
0.0
 40
0.9996954599
 41
-0.7852458701
 42
0.7852458701
  0
ELLIPSE
  5
375
100
AcDbEntity
  8
RACCORDO
100
AcDbEllipse
 62
7
  6
CONTINUOUS
 10
-22.3412267687
 20
-22.2912267691
 30
0.0
 11
0.2121966568
 21
0.2121966568
 31
0.0
 40
0.9996954599
 41
2.3563467834
 42
3.9268385237
  0
ELLIPSE
  5
376
100
AcDbEntity
  8
RACCORDO
100
AcDbEllipse
 62
7
  6
CONTINUOUS
 10
25.2088739682
 20
25.5588739678
 30
0.0
 11
0.4951255324
 21
0.4951255324
 31
0.0
 40
0.9996954599
 41
-0.7852458701
 42
0.7852458702
  0
ELLIPSE
  5
377
100
AcDbEntity
  8
RACCORDO
100
AcDbEllipse
 62
7
  6
CONTINUOUS
 10
25.2088739682
 20
-25.5588739678
 30
0.0
 11
0.4951255324
 21
-0.4951255324
 31
0.0
 40
0.9996954599
 41
-0.7852458702
 42
0.7852458701
  0
ELLIPSE
  5
378
100
AcDbEntity
  8
RACCORDO
100
AcDbEllipse
 62
7
  6
CONTINUOUS
 10
-25.2088739673
 20
-25.5588739678
 30
0.0
 11
0.4951255324
 21
0.4951255324
 31
0.0
 40
0.9996954599
 41
-3.9268385237
 42
-2.3563467834
  0
ELLIPSE
  5
379
100
AcDbEntity
  8
RACCORDO
100
AcDbEllipse
 62
7
  6
CONTINUOUS
 10
-25.2088739673
 20
25.5588739678
 30
0.0
 11
0.4951255324
 21
-0.4951255324
 31
0.0
 40
0.9996954599
 41
2.3563467834
 42
3.9268385237
  0
ELLIPSE
  5
37A
100
AcDbEntity
  8
ASSI
100
AcDbEllipse
 62
7
  6
CONTINUOUS
 10
-71.0025000805
 20
25.9914384441
 30
0.0
 11
-0.1417119467
 21
0.1422961243
 31
0.0
 40
0.9918061237
 41
-3.8766878413
 42
-2.358251392
  0
ELLIPSE
  5
37B
100
AcDbEntity
  8
ASSI
100
AcDbEllipse
 62
7
  6
CONTINUOUS
 10
-71.0025000805
 20
-25.9914384441
 30
0.0
 11
0.1417119467
 21
0.1422961243
 31
0.0
 40
0.9918061237
 41
-0.7833412615
 42
0.7350951877
  0
ENDSEC
  0
SECTION
  2
OBJECTS
  0
DICTIONARY
  5
C
100
AcDbDictionary
280
0
281
1
  3
ACAD_GROUP
350
D
  3
ACAD_MLINESTYLE
350
17
  3
ACAD_LAYOUT
350
1A
  3
ACAD_PLOTSETTINGS
350
19
  3
ACAD_PLOTSTYLENAME
350
E
  0
DICTIONARY
  5
D
102
{ACAD_REACTORS
330
C
102
}
100
AcDbDictionary
280
0
281
1
  0
ACDBDICTIONARYWDFLT
  5
E
102
{ACAD_REACTORS
330
C
102
}
100
AcDbDictionary
281
1
  3
Normal
350
F
100
AcDbDictionaryWithDefault
340
F
  0
DICTIONARY
  5
17
102
{ACAD_REACTORS
330
C
102
}
100
AcDbDictionary
280
0
281
1
  3
Standard
350
18
  0
DICTIONARY
  5
19
102
{ACAD_REACTORS
330
C
102
}
100
AcDbDictionary
281
1
  0
DICTIONARY
  5
1A
102
{ACAD_REACTORS
330
C
102
}
100
AcDbDictionary
281
1
  3
Model
350
37C
  3
Layout1
350
37D
  0
ACDBPLACEHOLDER
  5
F
102
{ACAD_REACTORS
330
E
102
}
  0
MLINESTYLE
  5
18
102
{ACAD_REACTORS
330
17
102
}
100
AcDbMlineStyle
  2
STANDARD
 70
0
  3

 62
256
 51
90.0
 52
90.0
 71
2
 49
0.5
 62
256
  6
BYLAYER
 49
-0.5
 62
256
  6
BYLAYER
  0
LAYOUT
  5
37C
102
{ACAD_REACTORS
330
1A
102
}
100
AcDbPlotSettings
  1

  2
none_device
  4
ISO_A4_(297.00_x_210.00_MM)
  6

 40
0.0
 41
0.0
 42
0.0
 43
0.0
 44
297.0
 45
210.0
 46
0.0
 47
0.0
 48
0.0
 49
0.0
140
0.0
141
0.0
142
1.0
143
1.0
 70
1024
 72
1
 73
0
 74
0
  7

 75
0
147
1.0
148
0.0
149
0.0
100
AcDbLayout
  1
Model
 70
0
 71
0
 10
0.0
 20
0.0
 11
297.0
 21
210.0
 12
0.0
 22
0.0
 32
0.0
 14
0.0
 24
0.0
 34
0.0
 15
0.0
 25
0.0
 35
0.0
146
0.0
 13
0.0
 23
0.0
 33
0.0
 16
1.0
 26
0.0
 36
0.0
 17
0.0
 27
1.0
 37
0.0
 76
0
330
212
345
0
346
0
  0
LAYOUT
  5
37D
102
{ACAD_REACTORS
330
1A
102
}
100
AcDbPlotSettings
  1

  2
none_device
  4
ISO_A4_(297.00_x_210.00_MM)
  6

 40
0.0
 41
0.0
 42
0.0
 43
0.0
 44
297.0
 45
210.0
 46
0.0
 47
0.0
 48
0.0
 49
0.0
140
0.0
141
0.0
142
1.0
143
1.0
 70
0
 72
1
 73
0
 74
0
  7

 75
0
147
1.0
148
0.0
149
0.0
100
AcDbLayout
  1
Layout1
 70
0
 71
1
 10
0.0
 20
0.0
 11
297.0
 21
210.0
 12
0.0
 22
0.0
 32
0.0
 14
0.0
 24
0.0
 34
0.0
 15
0.0
 25
0.0
 35
0.0
146
0.0
 13
0.0
 23
0.0
 33
0.0
 16
1.0
 26
0.0
 36
0.0
 17
0.0
 27
1.0
 37
0.0
 76
0
330
213
345
0
346
0
  0
ENDSEC
  0
EOF
