  0
SECTION
  2
HEADER
  9
$ACADVER
  1
AC1015
  9
$DWGCODEPAGE
  3
ANSI_1252
  9
$EXTMAX
 10
297.0
 20
210.0
 30
0.0
  9
$EXTMIN
 10
0.0
 20
0.0
 30
0.0
  9
$LIMMIN
 10
0.0
 20
0.0
  9
$LIMMAX
 10
297.0
 20
210.0
  9
$VIEWCTR
 10
148.5
 20
105.0
  9
$VIEWSIZE
 40
210.0
  9
$CLAYER
  8
0
  9
$LTSCALE
 40
16.335
  9
$CELTYPE
  6
BYLAYER
  9
$DIMSCALE
 40
1.0
  9
$DIMASZ
 40
3.0
  9
$DIMEXO
 40
1.85625
  9
$DIMDLI
 40
11.286
  9
$DIMEXE
 40
5.346
  9
$DIMCEN
 40
2.673
  9
$DIMLFAC
 40
1.0
  9
$DIMBLK
  1
_FILLED
  9
$DIMTXT
 40
3.0
  9
$DIMTOL
 70
1
  9
$DIMLIM
 70
0
  9
$DIMTFAC
 40
1.0
  9
$DIMTP
 40
0.01
  9
$DIMTM
 40
0.01
  9
$PDMODE
 70
3
  9
$PDSIZE
 40
3.0
  9
$HANDSEED
  5
368
  9
$TILEMODE
 70
1
  9
$MEASUREMENT
 70
1
  9
$INSUNITS
 70
4
  0
ENDSEC
  0
SECTION
  2
CLASSES
  0
CLASS
  1
ACDBDICTIONARYWDFLT
  2
AcDbDictionaryWithDefault
  3
AutoCAD 2000
 90
0
280
0
281
0
  0
CLASS
  1
ACDBPLACEHOLDER
  2
AcDbPlaceHolder
  3
AutoCAD 2000
 90
0
280
0
281
0
  0
CLASS
  1
LAYOUT
  2
AcDbLayout
  3
AutoCAD 2000
 90
0
280
0
281
0
  0
ENDSEC
  0
SECTION
  2
TABLES
  0
TABLE
  2
VPORT
  5
8
100
AcDbSymbolTable
 70
2
  0
VPORT
  5
1F4
100
AcDbSymbolTableRecord
100
AcDbViewportTableRecord
  2
*ACTIVE
 70
0
 10
0.0
 20
0.0
 11
1.0
 21
1.0
 12
148.5
 22
105.0
 13
0.0
 23
0.0
 14
1.0
 24
1.0
 15
0.0
 25
0.0
 16
0.0
 26
0.0
 36
1.0
 17
0.0
 27
0.0
 37
0.0
 40
210.0
 41
1.4142857143
 42
50.0
 43
0.0
 44
0.0
 50
0.0
 51
0.0
 71
0
 72
100
 73
1
 74
1
 75
0
 76
0
 77
0
 78
0
  0
ENDTAB
  0
TABLE
  2
LTYPE
  5
5
100
AcDbSymbolTable
 70
6
  0
LTYPE
  5
14
100
AcDbSymbolTableRecord
100
AcDbLinetypeTableRecord
  2
BYBLOCK
 70
0
  3

 72
65
 73
0
 40
0.0
  0
LTYPE
  5
15
100
AcDbSymbolTableRecord
100
AcDbLinetypeTableRecord
  2
BYLAYER
 70
0
  3

 72
65
 73
0
 40
0.0
  0
LTYPE
  5
16
100
AcDbSymbolTableRecord
100
AcDbLinetypeTableRecord
  2
CONTINUOUS
 70
64
  3
Solid line
 72
65
 73
0
 40
0.0
  0
LTYPE
  5
1F5
100
AcDbSymbolTableRecord
100
AcDbLinetypeTableRecord
  2
CENTER
 70
64
  3
____ _ ____ _ ____ _ ____ _ ____ _ ____ _ ____
 72
65
 73
4
 40
0.6
 49
0.375
 74
0
 49
-0.075
 74
0
 49
0.075
 74
0
 49
-0.075
 74
0
  0
LTYPE
  5
1F6
100
AcDbSymbolTableRecord
100
AcDbLinetypeTableRecord
  2
HIDDEN
 70
64
  3
- - - - - - - - - - - - - - - - - - - -
 72
65
 73
2
 40
0.2
 49
0.1
 74
0
 49
-0.1
 74
0
  0
LTYPE
  5
1F7
100
AcDbSymbolTableRecord
100
AcDbLinetypeTableRecord
  2
PHANTOM
 70
64
  3
_____ _ _ _____ _ _ _____ _ _ _____
 72
65
 73
6
 40
0.8
 49
0.45
 74
0
 49
-0.05
 74
0
 49
0.1
 74
0
 49
-0.05
 74
0
 49
0.1
 74
0
 49
-0.05
 74
0
  0
LTYPE
  5
1F8
100
AcDbSymbolTableRecord
100
AcDbLinetypeTableRecord
  2
DOT
 70
64
  3
. . . . . . . . . . . . . . . . . . . .
 72
65
 73
2
 40
0.2
 49
0.1
 74
0
 49
-0.1
 74
0
  0
LTYPE
  5
1F9
100
AcDbSymbolTableRecord
100
AcDbLinetypeTableRecord
  2
DASHED
 70
64
  3
- - - - - - - - - - - - - - - - - - - -
 72
65
 73
2
 40
0.2
 49
0.1
 74
0
 49
-0.1
 74
0
  0
ENDTAB
  0
TABLE
  2
LAYER
  5
2
100
AcDbSymbolTable
 70
36
  0
LAYER
  5
10
100
AcDbSymbolTableRecord
100
AcDbLayerTableRecord
  2
0
 70
0
 62
7
  6
CONTINUOUS
370
-3
390
F
  0
LAYER
  5
1FA
100
AcDbSymbolTableRecord
100
AcDbLayerTableRecord
  2
DEFAULT_1
 70
0
 62
7
  6
CENTER
370
-3
390
F
  0
LAYER
  5
1FB
100
AcDbSymbolTableRecord
100
AcDbLayerTableRecord
  2
DEFAULT_2
 70
0
 62
7
  6
HIDDEN
370
-3
390
F
  0
LAYER
  5
1FC
100
AcDbSymbolTableRecord
100
AcDbLayerTableRecord
  2
DEFAULT_3
 70
0
 62
7
  6
PHANTOM
370
-3
390
F
  0
LAYER
  5
1FD
100
AcDbSymbolTableRecord
100
AcDbLayerTableRecord
  2
ASSI
 70
0
 62
7
  6
CONTINUOUS
370
-3
390
F
  0
LAYER
  5
1FE
100
AcDbSymbolTableRecord
100
AcDbLayerTableRecord
  2
COORDINATE
 70
0
 62
7
  6
CONTINUOUS
370
-3
390
F
  0
LAYER
  5
1FF
100
AcDbSymbolTableRecord
100
AcDbLayerTableRecord
  2
COORD_ORIGINE
 70
0
 62
7
  6
CONTINUOUS
370
-3
390
F
  0
LAYER
  5
200
100
AcDbSymbolTableRecord
100
AcDbLayerTableRecord
  2
COPY_PUBLISH
 70
0
 62
7
  6
CONTINUOUS
370
-3
390
F
  0
LAYER
  5
201
100
AcDbSymbolTableRecord
100
AcDbLayerTableRecord
  2
COSMETIC
 70
0
 62
7
  6
CONTINUOUS
370
-3
390
F
  0
LAYER
  5
202
100
AcDbSymbolTableRecord
100
AcDbLayerTableRecord
  2
CURVE
 70
0
 62
7
  6
CONTINUOUS
370
-3
390
F
  0
LAYER
  5
203
100
AcDbSymbolTableRecord
100
AcDbLayerTableRecord
  2
DRAFT
 70
0
 62
7
  6
CONTINUOUS
370
-3
390
F
  0
LAYER
  5
204
100
AcDbSymbolTableRecord
100
AcDbLayerTableRecord
  2
IMPORT_IGES
 70
0
 62
7
  6
CONTINUOUS
370
-3
390
F
  0
LAYER
  5
205
100
AcDbSymbolTableRecord
100
AcDbLayerTableRecord
  2
INTFCLR_2
 70
0
 62
7
  6
CONTINUOUS
370
-3
390
F
  0
LAYER
  5
206
100
AcDbSymbolTableRecord
100
AcDbLayerTableRecord
  2
PIANI
 70
0
 62
7
  6
CONTINUOUS
370
-3
390
F
  0
LAYER
  5
207
100
AcDbSymbolTableRecord
100
AcDbLayerTableRecord
  2
PIANI_ORIGINE
 70
0
 62
7
  6
CONTINUOUS
370
-3
390
F
  0
LAYER
  5
208
100
AcDbSymbolTableRecord
100
AcDbLayerTableRecord
  2
PIANI_RIFERIMENTO
 70
0
 62
7
  6
CONTINUOUS
370
-3
390
F
  0
LAYER
  5
209
100
AcDbSymbolTableRecord
100
AcDbLayerTableRecord
  2
PUNTI
 70
0
 62
7
  6
CONTINUOUS
370
-3
390
F
  0
LAYER
  5
20A
100
AcDbSymbolTableRecord
100
AcDbLayerTableRecord
  2
RACCORDO
 70
0
 62
7
  6
CONTINUOUS
370
-3
390
F
  0
LAYER
  5
20B
100
AcDbSymbolTableRecord
100
AcDbLayerTableRecord
  2
SMUSSO
 70
0
 62
7
  6
CONTINUOUS
370
-3
390
F
  0
LAYER
  5
20C
100
AcDbSymbolTableRecord
100
AcDbLayerTableRecord
  2
SNAPLINE
 70
0
 62
7
  6
CONTINUOUS
370
-3
390
F
  0
LAYER
  5
20D
100
AcDbSymbolTableRecord
100
AcDbLayerTableRecord
  2
SUPERFICI
 70
0
 62
7
  6
CONTINUOUS
370
-3
390
F
  0
LAYER
  5
20E
100
AcDbSymbolTableRecord
100
AcDbLayerTableRecord
  2
TRASH
 70
0
 62
7
  6
CONTINUOUS
370
-3
390
F
  0
LAYER
  5
20F
100
AcDbSymbolTableRecord
100
AcDbLayerTableRecord
  2
XSEC_DATUMS
 70
0
 62
7
  6
CONTINUOUS
370
-3
390
F
  0
ENDTAB
  0
TABLE
  2
STYLE
  5
3
100
AcDbSymbolTable
 70
1
  0
STYLE
  5
11
100
AcDbSymbolTableRecord
100
AcDbTextStyleTableRecord
  2
STANDARD
 70
0
 40
0.0
 41
0.8
 50
0.0
 71
0
 42
0.2
  3
txt
  4

  0
STYLE
  5
210
100
AcDbSymbolTableRecord
100
AcDbTextStyleTableRecord
  2
TEXTSTYLE_1
 70
0
 40
0.0
 41
0.8
 50
0.0
 71
0
 42
0.2
  3
gdt
  4

  0
ENDTAB
  0
TABLE
  2
VIEW
  5
6
100
AcDbSymbolTable
 70
0
  0
ENDTAB
  0
TABLE
  2
UCS
  5
7
100
AcDbSymbolTable
 70
0
  0
ENDTAB
  0
TABLE
  2
APPID
  5
9
100
AcDbSymbolTable
 70
1
  0
APPID
  5
211
100
AcDbSymbolTableRecord
100
AcDbRegAppTableRecord
  2
ACAD
 70
0
  0
ENDTAB
  0
TABLE
  2
BLOCK_RECORD
  5
1
100
AcDbSymbolTable
 70
0
  0
BLOCK_RECORD
  5
212
100
AcDbSymbolTableRecord
100
AcDbBlockTableRecord
  2
*Model_Space
  0
BLOCK_RECORD
  5
213
100
AcDbSymbolTableRecord
100
AcDbBlockTableRecord
  2
*Paper_Space
  0
BLOCK_RECORD
  5
214
100
AcDbSymbolTableRecord
100
AcDbBlockTableRecord
  2
_FILLED
  0
BLOCK_RECORD
  5
215
100
AcDbSymbolTableRecord
100
AcDbBlockTableRecord
  2
*D0
  0
BLOCK_RECORD
  5
216
100
AcDbSymbolTableRecord
100
AcDbBlockTableRecord
  2
*D1
  0
BLOCK_RECORD
  5
217
100
AcDbSymbolTableRecord
100
AcDbBlockTableRecord
  2
*D2
  0
BLOCK_RECORD
  5
218
100
AcDbSymbolTableRecord
100
AcDbBlockTableRecord
  2
*D3
  0
ENDTAB
  0
TABLE
  2
DIMSTYLE
  5
A
100
AcDbSymbolTable
 70
1
100
AcDbDimStyleTable
 71
0
  0
DIMSTYLE
105
219
100
AcDbSymbolTableRecord
100
AcDbDimStyleTableRecord
  2
STANDARD
 70
0
  3

  4

 40
1.0
 41
3.0
 42
0.0625
 43
0.38
 44
0.18
 45
0.0
 46
0.0
 47
0.01
 48
0.01
140
3.0
141
0.09
142
0.0
143
25.4
144
1.0
145
0.0
146
1.0
147
0.09
 71
1.0
 72
0.0
 73
0
 74
0
 75
0
 76
0
 77
1
 78
8
170
0
171
2
172
0
173
0
174
0
175
0
176
0
177
0
178
0
270
2
271
2
272
2
273
2
274
2
275
0
280
0
281
0
282
0
283
1
284
8
285
0
286
0
287
3
288
0
340
11
341
214
342
214
343
214
344
214
  0
DIMSTYLE
105
21A
100
AcDbSymbolTableRecord
100
AcDbDimStyleTableRecord
  2
DIMSTYLE_1
 70
0
  3

  4

 40
1.0
 41
3.0
 42
0.0625
 43
0.38
 44
0.18
 45
0.0
 46
0.0
 47
0.0
 48
0.0
140
3.0
141
0.09
142
0.0
143
25.4
144
1.0
145
0.0
146
1.0
147
0.09
 71
0.0
 72
0.0
 73
0
 74
0
 75
0
 76
0
 77
1
 78
8
170
0
171
2
172
0
173
0
174
0
175
0
176
0
177
0
178
0
270
2
271
2
272
2
273
2
274
2
275
0
280
0
281
0
282
0
283
1
284
8
285
0
286
0
287
3
288
0
340
11
341
214
342
214
343
214
344
214
  0
ENDTAB
  0
ENDSEC
  0
SECTION
  2
BLOCKS
  0
BLOCK
  5
20
100
AcDbEntity
  8
0
100
AcDbBlockBegin
  2
*Model_Space
 70
0
 10
0.0
 20
0.0
 30
0.0
  3
*Model_Space
  1

  0
ENDBLK
  5
21
100
AcDbEntity
  8
0
100
AcDbBlockEnd
  0
BLOCK
  5
1C
100
AcDbEntity
  8
0
100
AcDbBlockBegin
  2
*Paper_Space
 70
0
 10
0.0
 20
0.0
 30
0.0
  3
*Paper_Space
  1

  0
ENDBLK
  5
1D
100
AcDbEntity
  8
0
100
AcDbBlockEnd
  0
BLOCK
  5
21B
100
AcDbEntity
  8
0
100
AcDbBlockBegin
  2
_FILLED
 70
64
 10
0.0
 20
0.0
  3
_FILLED
  1

  0
SOLID
  5
21C
100
AcDbEntity
  8
0
  6
BYBLOCK
 62
0
100
AcDbTrace
 10
0.0
 20
0.0
 11
-1.0
 21
0.3166666667
 12
-1.0
 22
-0.3166666667
 13
-1.0
 23
-0.3166666667
  0
ENDBLK
  5
21D
100
AcDbEntity
  8
0
  6
BYBLOCK
 62
0
100
AcDbBlockEnd
  0
BLOCK
  5
21E
100
AcDbEntity
  8
0
100
AcDbBlockBegin
 62
7
  6
CONTINUOUS
  2
*D0
 70
65
 10
0.0
 20
0.0
  3
*D0
  1

  0
MTEXT
  5
21F
100
AcDbEntity
  8
0
100
AcDbMText
 62
7
  6
CONTINUOUS
  7
STANDARD
 71
2
 72
1
 10
51.95
 20
-0.7718295218
 30
0.0
 11
0.0
 21
1.0
 31
0.0
 44
0.9
  1
95,4
 40
3.0
 41
8.5714285714
  0
LINE
  5
220
100
AcDbEntity
  8
0
100
AcDbLine
 62
7
  6
CONTINUOUS
 10
47.1999999997
 20
-48.4718295218
 11
57.2
 21
-48.4718295218
  0
LINE
  5
221
100
AcDbEntity
  8
0
100
AcDbLine
 62
7
  6
CONTINUOUS
 10
47.2
 20
46.9281704782
 11
57.2
 21
46.9281704782
  0
LINE
  5
222
100
AcDbEntity
  8
0
100
AcDbLine
 62
7
  6
CONTINUOUS
 10
55.7
 20
-48.4718295218
 11
55.7
 21
-0.7718295218
  0
LINE
  5
223
100
AcDbEntity
  8
0
100
AcDbLine
 62
7
  6
CONTINUOUS
 10
55.7
 20
46.9281704782
 11
55.7
 21
-0.7718295218
  0
INSERT
  5
224
100
AcDbEntity
  8
0
100
AcDbBlockReference
 62
7
  6
CONTINUOUS
  2
_FILLED
 10
55.7
 20
-48.4718295218
 41
3.0
 42
3.0
 43
3.0
 50
270.0
  0
INSERT
  5
225
100
AcDbEntity
  8
0
100
AcDbBlockReference
 62
7
  6
CONTINUOUS
  2
_FILLED
 10
55.7
 20
46.9281704782
 41
3.0
 42
3.0
 43
3.0
 50
90.0
  0
ENDBLK
  5
226
100
AcDbEntity
  8
0
  6
BYBLOCK
 62
0
100
AcDbBlockEnd
  0
BLOCK
  5
227
100
AcDbEntity
  8
0
100
AcDbBlockBegin
 62
7
  6
CONTINUOUS
  2
*D1
 70
65
 10
0.0
 20
0.0
  3
*D1
  1

  0
MTEXT
  5
228
100
AcDbEntity
  8
0
100
AcDbMText
 62
7
  6
CONTINUOUS
  7
STANDARD
 71
2
 72
1
 10
-0.0
 20
58.6781704782
 30
0.0
 11
1.0
 21
0.0
 31
0.0
 44
0.9
  1
95,4
 40
3.0
 41
8.5714285714
  0
LINE
  5
229
100
AcDbEntity
  8
0
100
AcDbLine
 62
7
  6
CONTINUOUS
 10
47.7
 20
46.4281704779
 11
47.7
 21
56.4281704782
  0
LINE
  5
22A
100
AcDbEntity
  8
0
100
AcDbLine
 62
7
  6
CONTINUOUS
 10
-47.7
 20
46.4281704782
 11
-47.7
 21
56.4281704782
  0
LINE
  5
22B
100
AcDbEntity
  8
0
100
AcDbLine
 62
7
  6
CONTINUOUS
 10
47.7
 20
54.9281704782
 11
-0.0
 21
54.9281704782
  0
LINE
  5
22C
100
AcDbEntity
  8
0
100
AcDbLine
 62
7
  6
CONTINUOUS
 10
-47.7
 20
54.9281704782
 11
-0.0
 21
54.9281704782
  0
INSERT
  5
22D
100
AcDbEntity
  8
0
100
AcDbBlockReference
 62
7
  6
CONTINUOUS
  2
_FILLED
 10
47.7
 20
54.9281704782
 41
3.0
 42
3.0
 43
3.0
 50
0.0
  0
INSERT
  5
22E
100
AcDbEntity
  8
0
100
AcDbBlockReference
 62
7
  6
CONTINUOUS
  2
_FILLED
 10
-47.7
 20
54.9281704782
 41
3.0
 42
3.0
 43
3.0
 50
180.0
  0
ENDBLK
  5
22F
100
AcDbEntity
  8
0
  6
BYBLOCK
 62
0
100
AcDbBlockEnd
  0
BLOCK
  5
230
100
AcDbEntity
  8
0
100
AcDbBlockBegin
 62
7
  6
CONTINUOUS
  2
*D2
 70
65
 10
0.0
 20
0.0
  3
*D2
  1

  0
MTEXT
  5
231
100
AcDbEntity
  8
0
100
AcDbMText
 62
7
  6
CONTINUOUS
  7
STANDARD
 71
3
 72
1
 10
-75.6485688066
 20
68.6781704782
 30
0.0
 11
1.0
 21
0.0
 31
0.0
 44
0.9
  1
9,9
 40
3.0
 41
6.4285714286
  0
LINE
  5
232
100
AcDbEntity
  8
0
100
AcDbLine
 62
7
  6
CONTINUOUS
 10
-74.4480368243
 20
25.2871662991
 11
-74.4480368243
 21
66.4281704782
  0
LINE
  5
233
100
AcDbEntity
  8
0
100
AcDbLine
 62
7
  6
CONTINUOUS
 10
-64.5480368243
 20
25.7179633915
 11
-64.5480368243
 21
66.4281704782
  0
LINE
  5
234
100
AcDbEntity
  8
0
100
AcDbLine
 62
7
  6
CONTINUOUS
 10
-74.4480368243
 20
64.9281704782
 11
-69.4980368243
 21
64.9281704782
  0
LINE
  5
235
100
AcDbEntity
  8
0
100
AcDbLine
 62
7
  6
CONTINUOUS
 10
-69.4980368243
 20
64.9281704782
 11
-82.0771402352
 21
64.9281704782
  0
LINE
  5
236
100
AcDbEntity
  8
0
100
AcDbLine
 62
7
  6
CONTINUOUS
 10
-64.5480368243
 20
64.9281704782
 11
-69.4980368243
 21
64.9281704782
  0
INSERT
  5
237
100
AcDbEntity
  8
0
100
AcDbBlockReference
 62
7
  6
CONTINUOUS
  2
_FILLED
 10
-74.4480368243
 20
64.9281704782
 41
3.0
 42
3.0
 43
3.0
 50
180.0
  0
INSERT
  5
238
100
AcDbEntity
  8
0
100
AcDbBlockReference
 62
7
  6
CONTINUOUS
  2
_FILLED
 10
-64.5480368243
 20
64.9281704782
 41
3.0
 42
3.0
 43
3.0
  0
ENDBLK
  5
239
100
AcDbEntity
  8
0
  6
BYBLOCK
 62
0
100
AcDbBlockEnd
  0
BLOCK
  5
23A
100
AcDbEntity
  8
0
100
AcDbBlockBegin
 62
7
  6
CONTINUOUS
  2
*D3
 70
65
 10
0.0
 20
0.0
  3
*D3
  1

  0
MTEXT
  5
23B
100
AcDbEntity
  8
0
100
AcDbMText
 62
7
  6
CONTINUOUS
  7
STANDARD
 71
3
 72
1
 10
-77.7477086195
 20
58.6781704782
 30
0.0
 11
1.0
 21
0.0
 31
0.0
 44
0.9
  1
8,2
 40
3.0
 41
6.4285714286
  0
LINE
  5
23C
100
AcDbEntity
  8
0
100
AcDbLine
 62
7
  6
CONTINUOUS
 10
-66.2480368243
 20
43.0383284385
 11
-66.2480368243
 21
56.4281704782
  0
LINE
  5
23D
100
AcDbEntity
  8
0
100
AcDbLine
 62
7
  6
CONTINUOUS
 10
-74.4480368243
 20
25.2871662991
 11
-74.4480368243
 21
56.4281704782
  0
LINE
  5
23E
100
AcDbEntity
  8
0
100
AcDbLine
 62
7
  6
CONTINUOUS
 10
-66.2480368243
 20
54.9281704782
 11
-70.3480368243
 21
54.9281704782
  0
LINE
  5
23F
100
AcDbEntity
  8
0
100
AcDbLine
 62
7
  6
CONTINUOUS
 10
-74.4480368243
 20
54.9281704782
 11
-70.3480368243
 21
54.9281704782
  0
LINE
  5
240
100
AcDbEntity
  8
0
100
AcDbLine
 62
7
  6
CONTINUOUS
 10
-70.3480368243
 20
54.9281704782
 11
-84.1762800481
 21
54.9281704782
  0
INSERT
  5
241
100
AcDbEntity
  8
0
100
AcDbBlockReference
 62
7
  6
CONTINUOUS
  2
_FILLED
 10
-66.2480368243
 20
54.9281704782
 41
3.0
 42
3.0
 43
3.0
  0
INSERT
  5
242
100
AcDbEntity
  8
0
100
AcDbBlockReference
 62
7
  6
CONTINUOUS
  2
_FILLED
 10
-74.4480368243
 20
54.9281704782
 41
3.0
 42
3.0
 43
3.0
 50
180.0
  0
ENDBLK
  5
243
100
AcDbEntity
  8
0
  6
BYBLOCK
 62
0
100
AcDbBlockEnd
  0
ENDSEC
  0
SECTION
  2
ENTITIES
  0
DIMENSION
  5
244
100
AcDbEntity
  8
0
100
AcDbDimension
 62
7
  6
CONTINUOUS
  2
*D0
 10
55.7
 20
46.9281704782
 11
55.3703154977
 21
-4.6032437944
 70
160
 71
2
 42
95.4
  3
DIMSTYLE_1
100
AcDbAlignedDimension
 13
47.1999999997
 23
-48.4718295218
 14
47.2
 24
46.9281704782
 50
90.0
100
AcDbRotatedDimension
  0
DIMENSION
  5
245
100
AcDbEntity
  8
0
100
AcDbDimension
 62
7
  6
CONTINUOUS
  2
*D1
 10
-47.7
 20
54.9281704782
 11
-4.2857142857
 21
57.1781704782
 70
160
 71
2
 42
95.4
  3
DIMSTYLE_1
100
AcDbAlignedDimension
 13
47.7
 23
46.4281704779
 14
-47.7
 24
46.4281704782
 50
180.0
100
AcDbRotatedDimension
  0
DIMENSION
  5
246
100
AcDbEntity
  8
0
100
AcDbDimension
 62
7
  6
CONTINUOUS
  2
*D2
 10
-64.5480368243
 20
64.9281704782
 11
-85.2914259495
 21
67.1781704782
 70
160
 71
3
 42
9.9
  3
DIMSTYLE_1
100
AcDbAlignedDimension
 13
-74.4480368243
 23
25.2871662991
 14
-64.5480368243
 24
25.7179633915
100
AcDbRotatedDimension
  0
DIMENSION
  5
247
100
AcDbEntity
  8
0
100
AcDbDimension
 62
7
  6
CONTINUOUS
  2
*D3
 10
-74.4480368243
 20
54.9281704782
 11
-87.3905657624
 21
57.1781704782
 70
160
 71
3
 42
8.2
  3
DIMSTYLE_1
100
AcDbAlignedDimension
 13
-66.2480368243
 23
43.0383284385
 14
-74.4480368243
 24
25.2871662991
 50
180.0
100
AcDbRotatedDimension
  0
LINE
  5
248
100
AcDbEntity
  8
RACCORDO
100
AcDbLine
 62
7
  6
CONTINUOUS
 10
-47.7
 20
45.9281704782
 11
-47.7
 21
-47.4718295218
  0
LINE
  5
249
100
AcDbEntity
  8
RACCORDO
100
AcDbLine
 62
253
  6
CONTINUOUS
 10
-47.2
 20
45.9281704782
 11
-47.2
 21
-47.4718295218
  0
LINE
  5
24A
100
AcDbEntity
  8
RACCORDO
100
AcDbLine
 62
253
  6
CONTINUOUS
 10
-46.7
 20
-47.9718295218
 11
-46.7
 21
-48.4718295218
  0
LINE
  5
24B
100
AcDbEntity
  8
RACCORDO
100
AcDbLine
 62
253
  6
CONTINUOUS
 10
-46.7
 20
46.4281704782
 11
-46.6999999997
 21
46.9281704782
  0
LINE
  5
24C
100
AcDbEntity
  8
RACCORDO
100
AcDbLine
 62
7
  6
CONTINUOUS
 10
-46.7
 20
-48.4718295218
 11
46.7
 21
-48.4718295218
  0
LINE
  5
24D
100
AcDbEntity
  8
RACCORDO
100
AcDbLine
 62
253
  6
CONTINUOUS
 10
-46.7
 20
-47.9718295218
 11
46.7
 21
-47.9718295218
  0
LINE
  5
24E
100
AcDbEntity
  8
RACCORDO
100
AcDbLine
 62
253
  6
CONTINUOUS
 10
47.2
 20
-47.4718295218
 11
47.7
 21
-47.4718295218
  0
LINE
  5
24F
100
AcDbEntity
  8
RACCORDO
100
AcDbLine
 62
253
  6
CONTINUOUS
 10
-47.2
 20
-47.4718295218
 11
-47.7
 21
-47.4718295216
  0
LINE
  5
250
100
AcDbEntity
  8
RACCORDO
100
AcDbLine
 62
7
  6
CONTINUOUS
 10
-25.943017974
 20
24.8212950656
 11
-25.943017974
 21
-26.3649541092
  0
LINE
  5
251
100
AcDbEntity
  8
RACCORDO
100
AcDbLine
 62
253
  6
CONTINUOUS
 10
-25.9088892076
 20
24.7871662991
 11
-25.9088892076
 21
-26.3308253428
  0
LINE
  5
252
100
AcDbEntity
  8
RACCORDO
100
AcDbLine
 62
253
  6
CONTINUOUS
 10
-25.608934899
 20
24.7871662991
 11
-25.608934899
 21
-26.3340544815
  0
LINE
  5
253
100
AcDbEntity
  8
RACCORDO
100
AcDbLine
 62
253
  6
CONTINUOUS
 10
-25.208995819
 20
25.4870596857
 11
-25.2089958209
 21
25.1871053772
  0
LINE
  5
254
100
AcDbEntity
  8
RACCORDO
100
AcDbLine
 62
253
  6
CONTINUOUS
 10
-25.2089958196
 20
-27.0307187294
 11
-25.2089958209
 21
-26.7307644208
  0
LINE
  5
255
100
AcDbEntity
  8
RACCORDO
100
AcDbLine
 62
253
  6
CONTINUOUS
 10
-23.2014857566
 20
-23.6000561788
 11
-23.2014857566
 21
22.0563971351
  0
LINE
  5
256
100
AcDbEntity
  8
RACCORDO
100
AcDbLine
 62
253
  6
CONTINUOUS
 10
-22.9060434307
 20
-23.6000565056
 11
-22.9060434307
 21
22.0563974496
  0
LINE
  5
257
100
AcDbEntity
  8
RACCORDO
100
AcDbLine
 62
253
  6
CONTINUOUS
 10
-22.656833204
 20
21.5275294025
 11
-22.656833204
 21
-23.0711884462
  0
LINE
  5
258
100
AcDbEntity
  8
RACCORDO
100
AcDbLine
 62
253
  6
CONTINUOUS
 10
-22.6493132329
 20
21.5275294025
 11
-22.6493132329
 21
-23.0711884462
  0
LINE
  5
259
100
AcDbEntity
  8
RACCORDO
100
AcDbLine
 62
7
  6
CONTINUOUS
 10
-22.6421452208
 20
-23.0640204341
 11
-22.6421452208
 21
21.5203613904
  0
LINE
  5
25A
100
AcDbEntity
  8
RACCORDO
100
AcDbLine
 62
253
  6
CONTINUOUS
 10
-22.628414217
 20
22.6569821379
 11
-22.628414217
 21
22.3750743517
  0
LINE
  5
25B
100
AcDbEntity
  8
RACCORDO
100
AcDbLine
 62
253
  6
CONTINUOUS
 10
-22.628414217
 20
-24.2006411815
 11
-22.628414217
 21
-23.9187333953
  0
LINE
  5
25C
100
AcDbEntity
  8
RACCORDO
100
AcDbLine
 62
253
  6
CONTINUOUS
 10
-22.3485854258
 20
21.8267102126
 11
-22.3485854225
 21
21.856787749
  0
LINE
  5
25D
100
AcDbEntity
  8
RACCORDO
100
AcDbLine
 62
253
  6
CONTINUOUS
 10
-22.3485854258
 20
-23.3703692562
 11
-22.3485854258
 21
-23.4004467934
  0
LINE
  5
25E
100
AcDbEntity
  8
RACCORDO
100
AcDbLine
 62
7
  6
CONTINUOUS
 10
-25.2431245874
 20
-27.0648474959
 11
25.2431245874
 21
-27.0648474959
  0
LINE
  5
25F
100
AcDbEntity
  8
RACCORDO
100
AcDbLine
 62
253
  6
CONTINUOUS
 10
-25.2089958209
 20
-27.0307187294
 11
25.2089958209
 21
-27.0307187294
  0
LINE
  5
260
100
AcDbEntity
  8
RACCORDO
100
AcDbLine
 62
253
  6
CONTINUOUS
 10
-25.2089958209
 20
-26.7307644208
 11
25.212224949
 21
-26.7307644208
  0
LINE
  5
261
100
AcDbEntity
  8
0
100
AcDbLine
 62
7
  6
CONTINUOUS
 10
-3.446727
 20
-26.5370035218
 11
-3.060461
 21
-26.5370035218
  0
LINE
  5
262
100
AcDbEntity
  8
0
100
AcDbLine
 62
7
  6
CONTINUOUS
 10
-2.222834
 20
-26.5370035218
 11
-1.784518
 21
-26.5370035218
  0
LINE
  5
263
100
AcDbEntity
  8
0
100
AcDbLine
 62
7
  6
CONTINUOUS
 10
-1.548559
 20
-26.5370035218
 11
-1.129234
 21
-26.5370035218
  0
LINE
  5
264
100
AcDbEntity
  8
0
100
AcDbLine
 62
7
  6
CONTINUOUS
 10
-0.520448
 20
-26.5370035218
 11
-0.458975
 21
-26.5370035218
  0
LINE
  5
265
100
AcDbEntity
  8
0
100
AcDbLine
 62
7
  6
CONTINUOUS
 10
0.152236
 20
-26.5370035218
 11
0.581025
 21
-26.5370035218
  0
LINE
  5
266
100
AcDbEntity
  8
0
100
AcDbLine
 62
7
  6
CONTINUOUS
 10
0.649852
 20
-26.5370035218
 11
1.083412
 21
-26.5370035218
  0
LINE
  5
267
100
AcDbEntity
  8
0
100
AcDbLine
 62
7
  6
CONTINUOUS
 10
1.91482
 20
-26.5370035218
 11
2.376786
 21
-26.5370035218
  0
LINE
  5
268
100
AcDbEntity
  8
0
100
AcDbLine
 62
7
  6
CONTINUOUS
 10
2.505496876
 20
-26.5370039196
 11
2.9420487595
 21
-26.5370039196
  0
LINE
  5
269
100
AcDbEntity
  8
0
100
AcDbLine
 62
7
  6
CONTINUOUS
 10
3.613268538
 20
-26.5370039196
 11
4.0348771327
 21
-26.5370039196
  0
LINE
  5
26A
100
AcDbEntity
  8
RACCORDO
100
AcDbLine
 62
253
  6
CONTINUOUS
 10
-25.9088892076
 20
-26.3308253408
 11
-25.608934899
 21
-26.3308253428
  0
LINE
  5
26B
100
AcDbEntity
  8
RACCORDO
100
AcDbLine
 62
253
  6
CONTINUOUS
 10
25.9088892076
 20
-26.3308253414
 11
25.608934899
 21
-26.3308253428
  0
LINE
  5
26C
100
AcDbEntity
  8
0
100
AcDbLine
 62
7
  6
CONTINUOUS
 10
1.20436
 20
-26.1178045218
 11
1.801273
 21
-26.1178045218
  0
LINE
  5
26D
100
AcDbEntity
  8
0
100
AcDbLine
 62
7
  6
CONTINUOUS
 10
1.713676
 20
-25.7934295218
 11
1.29402
 21
-25.7934295218
  0
LINE
  5
26E
100
AcDbEntity
  8
0
100
AcDbLine
 62
7
  6
CONTINUOUS
 10
2.9420487595
 20
-25.7152490088
 11
3.1770630743
 21
-25.7152490088
  0
LINE
  5
26F
100
AcDbEntity
  8
0
100
AcDbLine
 62
7
  6
CONTINUOUS
 10
3.1780078554
 20
-25.3713486649
 11
2.927514876
 21
-25.3713486649
  0
LINE
  5
270
100
AcDbEntity
  8
0
100
AcDbLine
 62
7
  6
CONTINUOUS
 10
1.732508
 20
-24.4371805218
 11
1.308491
 21
-24.4371805218
  0
LINE
  5
271
100
AcDbEntity
  8
0
100
AcDbLine
 62
7
  6
CONTINUOUS
 10
0.384668
 20
-24.4371805218
 11
-0.049002
 21
-24.4371805218
  0
LINE
  5
272
100
AcDbEntity
  8
0
100
AcDbLine
 62
7
  6
CONTINUOUS
 10
-0.921004
 20
-24.4371805218
 11
-1.358957
 21
-24.4371805218
  0
LINE
  5
273
100
AcDbEntity
  8
0
100
AcDbLine
 62
7
  6
CONTINUOUS
 10
-2.385493
 20
-24.4371805218
 11
-2.82351
 21
-24.4371805218
  0
LINE
  5
274
100
AcDbEntity
  8
0
100
AcDbLine
 62
7
  6
CONTINUOUS
 10
-3.636266
 20
-24.4371805218
 11
-4.112412
 21
-24.4371805218
  0
LINE
  5
275
100
AcDbEntity
  8
0
100
AcDbLine
 62
7
  6
CONTINUOUS
 10
-1.784518
 20
-24.4370545218
 11
-2.222834
 21
-24.4370545218
  0
LINE
  5
276
100
AcDbEntity
  8
RACCORDO
100
AcDbLine
 62
253
  6
CONTINUOUS
 10
22.628414217
 20
-24.2006411815
 11
-22.628414217
 21
-24.2006411815
  0
LINE
  5
277
100
AcDbEntity
  8
RACCORDO
100
AcDbLine
 62
253
  6
CONTINUOUS
 10
22.6284013657
 20
-23.9187333953
 11
-22.628435318
 21
-23.9187333953
  0
LINE
  5
278
100
AcDbEntity
  8
RACCORDO
100
AcDbLine
 62
253
  6
CONTINUOUS
 10
-23.2014857566
 20
-23.6000561788
 11
-22.9060434307
 21
-23.6000561788
  0
LINE
  5
279
100
AcDbEntity
  8
RACCORDO
100
AcDbLine
 62
253
  6
CONTINUOUS
 10
23.2014857566
 20
-23.6000561788
 11
22.9060434307
 21
-23.600056179
  0
LINE
  5
27A
100
AcDbEntity
  8
RACCORDO
100
AcDbLine
 62
253
  6
CONTINUOUS
 10
-22.3485854258
 20
-23.4004467934
 11
22.3485854258
 21
-23.4004467934
  0
LINE
  5
27B
100
AcDbEntity
  8
RACCORDO
100
AcDbLine
 62
253
  6
CONTINUOUS
 10
-22.3485854258
 20
-23.3703692562
 11
22.3485854258
 21
-23.3703692562
  0
LINE
  5
27C
100
AcDbEntity
  8
RACCORDO
100
AcDbLine
 62
7
  6
CONTINUOUS
 10
22.3421909122
 20
-23.3639747426
 11
-22.3421909122
 21
-23.3639747426
  0
LINE
  5
27D
100
AcDbEntity
  8
RACCORDO
100
AcDbLine
 62
253
  6
CONTINUOUS
 10
22.6493132329
 20
-23.0711884462
 11
22.656833204
 21
-23.0711884462
  0
LINE
  5
27E
100
AcDbEntity
  8
RACCORDO
100
AcDbLine
 62
253
  6
CONTINUOUS
 10
-22.6493132329
 20
-23.0711884462
 11
-22.656833204
 21
-23.0711884462
  0
LINE
  5
27F
100
AcDbEntity
  8
RACCORDO
100
AcDbLine
 62
253
  6
CONTINUOUS
 10
-22.628435318
 20
-23.9187333953
 11
-22.3772146433
 21
-23.3999090233
  0
LINE
  5
280
100
AcDbEntity
  8
RACCORDO
100
AcDbLine
 62
253
  6
CONTINUOUS
 10
-22.9060434307
 20
-23.6000565056
 11
-22.6566937466
 21
-23.0853541034
  0
LINE
  5
281
100
AcDbEntity
  8
RACCORDO
100
AcDbLine
 62
253
  6
CONTINUOUS
 10
-22.6566937466
 20
21.5416950598
 11
-22.9060434307
 21
22.0563974496
  0
LINE
  5
282
100
AcDbEntity
  8
RACCORDO
100
AcDbLine
 62
253
  6
CONTINUOUS
 10
-22.3771423363
 20
21.8562521431
 11
-22.6284262722
 21
22.3750743517
  0
LINE
  5
283
100
AcDbEntity
  8
0
100
AcDbLine
 62
7
  6
CONTINUOUS
 10
-1.034645
 20
-25.1658585218
 11
-0.520448
 21
-26.5370035218
  0
LINE
  5
284
100
AcDbEntity
  8
0
100
AcDbLine
 62
7
  6
CONTINUOUS
 10
-0.487318
 20
-25.6030085218
 11
-0.921004
 21
-24.4371805218
  0
LINE
  5
285
100
AcDbEntity
  8
0
100
AcDbLine
 62
7
  6
CONTINUOUS
 10
-4.112412
 20
-24.4371805218
 11
-3.446727
 21
-26.5370035218
  0
LINE
  5
286
100
AcDbEntity
  8
0
100
AcDbLine
 62
7
  6
CONTINUOUS
 10
-3.236001
 20
-25.8825535218
 11
-3.636266
 21
-24.4371805218
  0
LINE
  5
287
100
AcDbEntity
  8
0
100
AcDbLine
 62
7
  6
CONTINUOUS
 10
2.376786
 20
-26.5370035218
 11
1.732508
 21
-24.4371805218
  0
LINE
  5
288
100
AcDbEntity
  8
0
100
AcDbLine
 62
7
  6
CONTINUOUS
 10
1.801273
 20
-26.1178045218
 11
1.91482
 21
-26.5370035218
  0
LINE
  5
289
100
AcDbEntity
  8
0
100
AcDbLine
 62
7
  6
CONTINUOUS
 10
1.512264
 20
-25.0141585218
 11
1.713676
 21
-25.7934295218
  0
LINE
  5
28A
100
AcDbEntity
  8
0
100
AcDbLine
 62
7
  6
CONTINUOUS
 10
0.581025
 20
-26.5370035218
 11
0.384668
 21
-24.4371805218
  0
LINE
  5
28B
100
AcDbEntity
  8
0
100
AcDbLine
 62
7
  6
CONTINUOUS
 10
0.062183
 20
-25.1715745218
 11
0.152236
 21
-26.5370035218
  0
LINE
  5
28C
100
AcDbEntity
  8
0
100
AcDbLine
 62
7
  6
CONTINUOUS
 10
-2.222834
 20
-24.4370545218
 11
-2.222834
 21
-26.5370035218
  0
LINE
  5
28D
100
AcDbEntity
  8
0
100
AcDbLine
 62
7
  6
CONTINUOUS
 10
-1.784518
 20
-26.5370035218
 11
-1.784518
 21
-24.4370545218
  0
LINE
  5
28E
100
AcDbEntity
  8
RACCORDO
100
AcDbLine
 62
253
  6
CONTINUOUS
 10
25.2089958209
 20
25.4870596857
 11
25.2431245874
 21
25.5211884522
  0
LINE
  5
28F
100
AcDbEntity
  8
RACCORDO
100
AcDbLine
 62
253
  6
CONTINUOUS
 10
-22.6493132329
 20
-23.0711884462
 11
-22.6421452208
 21
-23.0640204341
  0
LINE
  5
290
100
AcDbEntity
  8
RACCORDO
100
AcDbLine
 62
253
  6
CONTINUOUS
 10
-25.9088892076
 20
-26.3308253428
 11
-25.943017974
 21
-26.3649541092
  0
LINE
  5
291
100
AcDbEntity
  8
RACCORDO
100
AcDbLine
 62
253
  6
CONTINUOUS
 10
22.3485854258
 20
21.8267102126
 11
22.3421909122
 21
21.820315699
  0
LINE
  5
292
100
AcDbEntity
  8
RACCORDO
100
AcDbLine
 62
253
  6
CONTINUOUS
 10
-22.3485854258
 20
-23.3703692562
 11
-22.3421909122
 21
-23.3639747426
  0
LINE
  5
293
100
AcDbEntity
  8
RACCORDO
100
AcDbLine
 62
253
  6
CONTINUOUS
 10
25.9088892076
 20
24.7871662991
 11
25.943017974
 21
24.8212950656
  0
LINE
  5
294
100
AcDbEntity
  8
RACCORDO
100
AcDbLine
 62
253
  6
CONTINUOUS
 10
22.6493132329
 20
21.5275294025
 11
22.6421452208
 21
21.5203613904
  0
LINE
  5
295
100
AcDbEntity
  8
RACCORDO
100
AcDbLine
 62
253
  6
CONTINUOUS
 10
25.2089958209
 20
-27.0307187294
 11
25.2431245874
 21
-27.0648474959
  0
LINE
  5
296
100
AcDbEntity
  8
RACCORDO
100
AcDbLine
 62
253
  6
CONTINUOUS
 10
-22.6421452208
 20
21.5203613904
 11
-22.6493132329
 21
21.5275294025
  0
LINE
  5
297
100
AcDbEntity
  8
RACCORDO
100
AcDbLine
 62
253
  6
CONTINUOUS
 10
-25.9088892076
 20
24.7871662991
 11
-25.943017974
 21
24.8212950656
  0
LINE
  5
298
100
AcDbEntity
  8
RACCORDO
100
AcDbLine
 62
253
  6
CONTINUOUS
 10
22.3485854258
 20
-23.3703692562
 11
22.3421909122
 21
-23.3639747426
  0
LINE
  5
299
100
AcDbEntity
  8
RACCORDO
100
AcDbLine
 62
253
  6
CONTINUOUS
 10
-22.3421909122
 20
21.820315699
 11
-22.3485854258
 21
21.8267102126
  0
LINE
  5
29A
100
AcDbEntity
  8
RACCORDO
100
AcDbLine
 62
253
  6
CONTINUOUS
 10
25.9088892076
 20
-26.3308253428
 11
25.943017974
 21
-26.3649541092
  0
LINE
  5
29B
100
AcDbEntity
  8
RACCORDO
100
AcDbLine
 62
253
  6
CONTINUOUS
 10
22.6493132329
 20
-23.0711884462
 11
22.6421452208
 21
-23.0640204341
  0
LINE
  5
29C
100
AcDbEntity
  8
0
100
AcDbLine
 62
7
  6
CONTINUOUS
 10
2.505496876
 20
-24.4617133595
 11
2.505496876
 21
-26.5370039196
  0
LINE
  5
29D
100
AcDbEntity
  8
0
100
AcDbLine
 62
7
  6
CONTINUOUS
 10
2.927514876
 20
-25.3713486649
 11
2.927514876
 21
-24.7949061836
  0
LINE
  5
29E
100
AcDbEntity
  8
0
100
AcDbLine
 62
7
  6
CONTINUOUS
 10
2.9420487595
 20
-26.5370039196
 11
2.9420487595
 21
-25.7152490088
  0
LINE
  5
29F
100
AcDbEntity
  8
0
100
AcDbLine
 62
7
  6
CONTINUOUS
 10
3.6323846102
 20
-25.5568249539
 11
3.6323846102
 21
-25.5444168279
  0
LINE
  5
2A0
100
AcDbEntity
  8
0
100
AcDbLine
 62
7
  6
CONTINUOUS
 10
-1.129234
 20
-26.5370035218
 11
-1.034645
 21
-25.1658585218
  0
LINE
  5
2A1
100
AcDbEntity
  8
0
100
AcDbLine
 62
7
  6
CONTINUOUS
 10
-1.358957
 20
-24.4371805218
 11
-1.548559
 21
-26.5370035218
  0
LINE
  5
2A2
100
AcDbEntity
  8
0
100
AcDbLine
 62
7
  6
CONTINUOUS
 10
-2.82351
 20
-24.4371805218
 11
-3.236001
 21
-25.8825535218
  0
LINE
  5
2A3
100
AcDbEntity
  8
0
100
AcDbLine
 62
7
  6
CONTINUOUS
 10
-3.060461
 20
-26.5370035218
 11
-2.385493
 21
-24.4371805218
  0
LINE
  5
2A4
100
AcDbEntity
  8
RACCORDO
100
AcDbLine
 62
253
  6
CONTINUOUS
 10
-25.2089958209
 20
-27.0307187294
 11
-25.2431245874
 21
-27.0648474959
  0
LINE
  5
2A5
100
AcDbEntity
  8
RACCORDO
100
AcDbLine
 62
253
  6
CONTINUOUS
 10
-25.2089958209
 20
25.4870596857
 11
-25.2431245874
 21
25.5211884522
  0
LINE
  5
2A6
100
AcDbEntity
  8
0
100
AcDbLine
 62
7
  6
CONTINUOUS
 10
1.29402
 20
-25.7934295218
 11
1.512264
 21
-25.0141585218
  0
LINE
  5
2A7
100
AcDbEntity
  8
0
100
AcDbLine
 62
7
  6
CONTINUOUS
 10
1.083412
 20
-26.5370035218
 11
1.20436
 21
-26.1178045218
  0
LINE
  5
2A8
100
AcDbEntity
  8
0
100
AcDbLine
 62
7
  6
CONTINUOUS
 10
1.308491
 20
-24.4371805218
 11
0.649852
 21
-26.5370035218
  0
LINE
  5
2A9
100
AcDbEntity
  8
0
100
AcDbLine
 62
7
  6
CONTINUOUS
 10
-0.049002
 20
-24.4371805218
 11
-0.487318
 21
-25.6030085218
  0
LINE
  5
2AA
100
AcDbEntity
  8
0
100
AcDbLine
 62
7
  6
CONTINUOUS
 10
-0.458975
 20
-26.5370035218
 11
0.062183
 21
-25.1715745218
  0
LINE
  5
2AB
100
AcDbEntity
  8
RACCORDO
100
AcDbLine
 62
253
  6
CONTINUOUS
 10
22.628435318
 20
22.3750743517
 11
22.3772146433
 21
21.8562499797
  0
LINE
  5
2AC
100
AcDbEntity
  8
RACCORDO
100
AcDbLine
 62
253
  6
CONTINUOUS
 10
22.9060434307
 20
22.056397462
 11
22.6566937466
 21
21.5416950598
  0
LINE
  5
2AD
100
AcDbEntity
  8
RACCORDO
100
AcDbLine
 62
253
  6
CONTINUOUS
 10
22.6284013657
 20
-23.9187333953
 11
22.3771335321
 21
-23.3999113939
  0
LINE
  5
2AE
100
AcDbEntity
  8
RACCORDO
100
AcDbLine
 62
253
  6
CONTINUOUS
 10
22.9060434307
 20
-23.600087955
 11
22.6566937465
 21
-23.0853541096
  0
LINE
  5
2AF
100
AcDbEntity
  8
RACCORDO
100
AcDbLine
 62
253
  6
CONTINUOUS
 10
22.3485854258
 20
21.8267102126
 11
22.3485854258
 21
21.8567877497
  0
LINE
  5
2B0
100
AcDbEntity
  8
RACCORDO
100
AcDbLine
 62
253
  6
CONTINUOUS
 10
22.3485854258
 20
-23.3703692562
 11
22.3485854232
 21
-23.4004467931
  0
LINE
  5
2B1
100
AcDbEntity
  8
RACCORDO
100
AcDbLine
 62
253
  6
CONTINUOUS
 10
22.628414217
 20
22.6569821379
 11
22.628414217
 21
22.3750743517
  0
LINE
  5
2B2
100
AcDbEntity
  8
RACCORDO
100
AcDbLine
 62
253
  6
CONTINUOUS
 10
22.628414217
 20
-24.2006411815
 11
22.628414217
 21
-23.9187333953
  0
LINE
  5
2B3
100
AcDbEntity
  8
RACCORDO
100
AcDbLine
 62
7
  6
CONTINUOUS
 10
22.6421452208
 20
21.5203613904
 11
22.6421452208
 21
-23.0640204341
  0
LINE
  5
2B4
100
AcDbEntity
  8
RACCORDO
100
AcDbLine
 62
253
  6
CONTINUOUS
 10
22.6493132329
 20
-23.0711884462
 11
22.6493132329
 21
21.5275294025
  0
LINE
  5
2B5
100
AcDbEntity
  8
RACCORDO
100
AcDbLine
 62
253
  6
CONTINUOUS
 10
22.656833204
 20
-23.0711884462
 11
22.656833204
 21
21.5275294025
  0
LINE
  5
2B6
100
AcDbEntity
  8
RACCORDO
100
AcDbLine
 62
253
  6
CONTINUOUS
 10
22.9060434307
 20
22.056397462
 11
22.9060434307
 21
-23.600087955
  0
LINE
  5
2B7
100
AcDbEntity
  8
RACCORDO
100
AcDbLine
 62
253
  6
CONTINUOUS
 10
-22.6493132329
 20
21.5275294025
 11
-22.656833204
 21
21.5275294025
  0
LINE
  5
2B8
100
AcDbEntity
  8
RACCORDO
100
AcDbLine
 62
253
  6
CONTINUOUS
 10
22.6493132329
 20
21.5275294025
 11
22.656833204
 21
21.5275294026
  0
LINE
  5
2B9
100
AcDbEntity
  8
RACCORDO
100
AcDbLine
 62
7
  6
CONTINUOUS
 10
-22.3421909122
 20
21.820315699
 11
22.3421909122
 21
21.820315699
  0
LINE
  5
2BA
100
AcDbEntity
  8
RACCORDO
100
AcDbLine
 62
253
  6
CONTINUOUS
 10
22.3485854258
 20
21.8267102126
 11
-22.3485854258
 21
21.8267102126
  0
LINE
  5
2BB
100
AcDbEntity
  8
RACCORDO
100
AcDbLine
 62
253
  6
CONTINUOUS
 10
22.3485854258
 20
21.8567877497
 11
-22.3485854258
 21
21.8567877497
  0
LINE
  5
2BC
100
AcDbEntity
  8
RACCORDO
100
AcDbLine
 62
253
  6
CONTINUOUS
 10
-23.2014857566
 20
22.0563971351
 11
-22.9060434307
 21
22.0563971351
  0
LINE
  5
2BD
100
AcDbEntity
  8
RACCORDO
100
AcDbLine
 62
253
  6
CONTINUOUS
 10
23.2014857566
 20
22.0563971351
 11
22.9060434307
 21
22.0563971351
  0
LINE
  5
2BE
100
AcDbEntity
  8
RACCORDO
100
AcDbLine
 62
253
  6
CONTINUOUS
 10
23.2014857566
 20
22.0563971351
 11
23.2014857566
 21
-23.6000561788
  0
LINE
  5
2BF
100
AcDbEntity
  8
RACCORDO
100
AcDbLine
 62
253
  6
CONTINUOUS
 10
25.2089958196
 20
25.4870596857
 11
25.2089958209
 21
25.1871053772
  0
LINE
  5
2C0
100
AcDbEntity
  8
RACCORDO
100
AcDbLine
 62
253
  6
CONTINUOUS
 10
25.208995819
 20
-27.0307187294
 11
25.2089958209
 21
-26.7307644208
  0
LINE
  5
2C1
100
AcDbEntity
  8
RACCORDO
100
AcDbLine
 62
253
  6
CONTINUOUS
 10
25.608934899
 20
-26.3308253428
 11
25.608934899
 21
24.7903954284
  0
LINE
  5
2C2
100
AcDbEntity
  8
RACCORDO
100
AcDbLine
 62
253
  6
CONTINUOUS
 10
25.9088892076
 20
-26.3308253428
 11
25.9088892076
 21
24.7871662991
  0
LINE
  5
2C3
100
AcDbEntity
  8
RACCORDO
100
AcDbLine
 62
7
  6
CONTINUOUS
 10
25.943017974
 20
-26.3649541092
 11
25.943017974
 21
24.8212950656
  0
LINE
  5
2C4
100
AcDbEntity
  8
RACCORDO
100
AcDbLine
 62
253
  6
CONTINUOUS
 10
-22.6284262722
 20
22.3750743517
 11
22.628435318
 21
22.3750743517
  0
LINE
  5
2C5
100
AcDbEntity
  8
RACCORDO
100
AcDbLine
 62
253
  6
CONTINUOUS
 10
-22.628414217
 20
22.6569821379
 11
22.628414217
 21
22.6569821379
  0
LINE
  5
2C6
100
AcDbEntity
  8
RACCORDO
100
AcDbLine
 62
253
  6
CONTINUOUS
 10
-25.9088892076
 20
24.7871662977
 11
-25.608934899
 21
24.7871662991
  0
LINE
  5
2C7
100
AcDbEntity
  8
RACCORDO
100
AcDbLine
 62
253
  6
CONTINUOUS
 10
25.9088892076
 20
24.7871662971
 11
25.608934899
 21
24.7871662991
  0
LINE
  5
2C8
100
AcDbEntity
  8
RACCORDO
100
AcDbLine
 62
253
  6
CONTINUOUS
 10
25.2089958209
 20
25.1871053772
 11
-25.2122249614
 21
25.1871053772
  0
LINE
  5
2C9
100
AcDbEntity
  8
RACCORDO
100
AcDbLine
 62
253
  6
CONTINUOUS
 10
25.2089958209
 20
25.4870596857
 11
-25.2089958209
 21
25.4870596857
  0
LINE
  5
2CA
100
AcDbEntity
  8
RACCORDO
100
AcDbLine
 62
7
  6
CONTINUOUS
 10
25.2431245874
 20
25.5211884522
 11
-25.2431245874
 21
25.5211884522
  0
LINE
  5
2CB
100
AcDbEntity
  8
RACCORDO
100
AcDbLine
 62
253
  6
CONTINUOUS
 10
46.7
 20
-47.9718295218
 11
46.6999999997
 21
-48.4718295218
  0
LINE
  5
2CC
100
AcDbEntity
  8
RACCORDO
100
AcDbLine
 62
253
  6
CONTINUOUS
 10
46.7
 20
46.4281704782
 11
46.7
 21
46.9281704782
  0
LINE
  5
2CD
100
AcDbEntity
  8
RACCORDO
100
AcDbLine
 62
253
  6
CONTINUOUS
 10
47.2
 20
-47.4718295218
 11
47.2
 21
45.9281704782
  0
LINE
  5
2CE
100
AcDbEntity
  8
RACCORDO
100
AcDbLine
 62
7
  6
CONTINUOUS
 10
47.7
 20
-47.4718295218
 11
47.7
 21
45.9281704782
  0
LINE
  5
2CF
100
AcDbEntity
  8
RACCORDO
100
AcDbLine
 62
253
  6
CONTINUOUS
 10
47.2
 20
45.9281704782
 11
47.7
 21
45.9281704779
  0
LINE
  5
2D0
100
AcDbEntity
  8
RACCORDO
100
AcDbLine
 62
253
  6
CONTINUOUS
 10
-47.2
 20
45.9281704782
 11
-47.7
 21
45.9281704782
  0
LINE
  5
2D1
100
AcDbEntity
  8
RACCORDO
100
AcDbLine
 62
253
  6
CONTINUOUS
 10
46.7
 20
46.4281704782
 11
-46.7
 21
46.4281704782
  0
LINE
  5
2D2
100
AcDbEntity
  8
RACCORDO
100
AcDbLine
 62
7
  6
CONTINUOUS
 10
46.7
 20
46.9281704782
 11
-46.7
 21
46.9281704782
  0
LINE
  5
2D3
100
AcDbEntity
  8
RACCORDO
100
AcDbLine
 62
7
  6
CONTINUOUS
 10
-71.6980368243
 20
-48.4718295218
 11
-67.7480368243
 21
-48.4718295218
  0
LINE
  5
2D4
100
AcDbEntity
  8
RACCORDO
100
AcDbLine
 62
7
  6
CONTINUOUS
 10
-67.2480368243
 20
-46.0991379374
 11
-66.2480368243
 21
-46.0816828725
  0
LINE
  5
2D5
100
AcDbEntity
  8
RACCORDO
100
AcDbLine
 62
253
  6
CONTINUOUS
 10
-67.2480368243
 20
-47.4718295218
 11
-72.1980368243
 21
-47.4718295218
  0
LINE
  5
2D6
100
AcDbEntity
  8
RACCORDO
100
AcDbLine
 62
253
  6
CONTINUOUS
 10
-67.2480368243
 20
-44.0994425471
 11
-66.2480368243
 21
-44.0819874822
  0
LINE
  5
2D7
100
AcDbEntity
  8
ASSI
100
AcDbLine
 62
7
  6
CONTINUOUS
 10
-64.5480368243
 20
-27.1218295218
 11
-66.2480368243
 21
-27.1317198325
  0
LINE
  5
2D8
100
AcDbEntity
  8
DRAFT
100
AcDbLine
 62
7
  6
CONTINUOUS
 10
-66.2480368243
 20
-27.9178152605
 11
-64.5480368243
 21
-27.9148481977
  0
LINE
  5
2D9
100
AcDbEntity
  8
DRAFT
100
AcDbLine
 62
253
  6
CONTINUOUS
 10
-66.2480368243
 20
-27.6655730395
 11
-64.5480368243
 21
-27.6648051071
  0
LINE
  5
2DA
100
AcDbEntity
  8
0
100
AcDbLine
 62
7
  6
CONTINUOUS
 10
-74.4480368243
 20
-26.5370039196
 11
-74.6480368243
 21
-26.5370039196
  0
LINE
  5
2DB
100
AcDbEntity
  8
RACCORDO
100
AcDbLine
 62
253
  6
CONTINUOUS
 10
-74.1532725463
 20
-26.3308253414
 11
-74.4480368243
 21
-26.3308253428
  0
LINE
  5
2DC
100
AcDbEntity
  8
ASSI
100
AcDbLine
 62
7
  6
CONTINUOUS
 10
-64.7480368243
 20
-25.9718295218
 11
-66.2480368243
 21
-25.9718295218
  0
LINE
  5
2DD
100
AcDbEntity
  8
0
100
AcDbLine
 62
253
  6
CONTINUOUS
 10
-74.4480368243
 20
-25.9686708099
 11
-74.6480368243
 21
-25.9686708099
  0
LINE
  5
2DE
100
AcDbEntity
  8
RACCORDO
100
AcDbLine
 62
7
  6
CONTINUOUS
 10
-74.1532725463
 20
-27.0307187294
 11
-72.1980368243
 21
-27.0648474959
  0
LINE
  5
2DF
100
AcDbEntity
  8
RACCORDO
100
AcDbLine
 62
253
  6
CONTINUOUS
 10
-74.1532725463
 20
-26.3308253428
 11
-72.1980368243
 21
-26.3649541092
  0
LINE
  5
2E0
100
AcDbEntity
  8
ASSI
100
AcDbLine
 62
7
  6
CONTINUOUS
 10
-64.7375696331
 20
-26.5634559386
 11
-66.2480368243
 21
-26.4967233085
  0
LINE
  5
2E1
100
AcDbEntity
  8
ASSI
100
AcDbLine
 62
7
  6
CONTINUOUS
 10
-66.0980368243
 20
-25.8218295218
 11
-65.8980368243
 21
-25.8218295218
  0
LINE
  5
2E2
100
AcDbEntity
  8
ASSI
100
AcDbLine
 62
7
  6
CONTINUOUS
 10
-65.5980368243
 20
-25.8218295218
 11
-65.3980368243
 21
-25.8218295218
  0
LINE
  5
2E3
100
AcDbEntity
  8
ASSI
100
AcDbLine
 62
7
  6
CONTINUOUS
 10
-65.0980368243
 20
-25.8218295218
 11
-64.8980368243
 21
-25.8218295218
  0
LINE
  5
2E4
100
AcDbEntity
  8
0
100
AcDbLine
 62
7
  6
CONTINUOUS
 10
-74.4480368243
 20
-25.5568249539
 11
-74.6480368243
 21
-25.5568249539
  0
LINE
  5
2E5
100
AcDbEntity
  8
0
100
AcDbLine
 62
7
  6
CONTINUOUS
 10
-74.4480368243
 20
-25.5444168279
 11
-74.6480368243
 21
-25.5444168279
  0
LINE
  5
2E6
100
AcDbEntity
  8
0
100
AcDbLine
 62
253
  6
CONTINUOUS
 10
-74.4480368243
 20
-24.4838212388
 11
-74.6480368243
 21
-24.4838212388
  0
LINE
  5
2E7
100
AcDbEntity
  8
0
100
AcDbLine
 62
7
  6
CONTINUOUS
 10
-74.4480368243
 20
-24.412543147
 11
-74.6480368243
 21
-24.412543147
  0
LINE
  5
2E8
100
AcDbEntity
  8
ASSI
100
AcDbLine
 62
7
  6
CONTINUOUS
 10
-65.8980368243
 20
24.2781704782
 11
-65.7480368243
 21
24.4281704782
  0
LINE
  5
2E9
100
AcDbEntity
  8
ASSI
100
AcDbLine
 62
7
  6
CONTINUOUS
 10
-65.3980368243
 20
24.2781704782
 11
-65.2480368243
 21
24.4281704782
  0
LINE
  5
2EA
100
AcDbEntity
  8
ASSI
100
AcDbLine
 62
7
  6
CONTINUOUS
 10
-64.8980368243
 20
24.2781704782
 11
-64.7480368243
 21
24.4281704782
  0
LINE
  5
2EB
100
AcDbEntity
  8
ASSI
100
AcDbLine
 62
7
  6
CONTINUOUS
 10
-65.8980368243
 20
-25.8218295218
 11
-65.7480368243
 21
-25.9718295218
  0
LINE
  5
2EC
100
AcDbEntity
  8
ASSI
100
AcDbLine
 62
7
  6
CONTINUOUS
 10
-65.3980368243
 20
-25.8218295218
 11
-65.2480368243
 21
-25.9718295218
  0
LINE
  5
2ED
100
AcDbEntity
  8
ASSI
100
AcDbLine
 62
7
  6
CONTINUOUS
 10
-64.8980368243
 20
-25.8218295218
 11
-64.7480368243
 21
-25.9718295218
  0
LINE
  5
2EE
100
AcDbEntity
  8
0
100
AcDbLine
 62
7
  6
CONTINUOUS
 10
-74.6480368243
 20
-26.5370039196
 11
-74.6480368243
 21
-24.4125437334
  0
LINE
  5
2EF
100
AcDbEntity
  8
RACCORDO
100
AcDbLine
 62
7
  6
CONTINUOUS
 10
-74.4480368243
 20
-26.7307644208
 11
-74.4480368243
 21
25.1871053772
  0
LINE
  5
2F0
100
AcDbEntity
  8
RACCORDO
100
AcDbLine
 62
253
  6
CONTINUOUS
 10
-74.1532725463
 20
-26.3308253428
 11
-74.1532725463
 21
24.7871662991
  0
LINE
  5
2F1
100
AcDbEntity
  8
RACCORDO
100
AcDbLine
 62
7
  6
CONTINUOUS
 10
-72.1980368243
 20
-47.9718295218
 11
-72.1980368243
 21
46.4281704782
  0
LINE
  5
2F2
100
AcDbEntity
  8
RACCORDO
100
AcDbLine
 62
253
  6
CONTINUOUS
 10
-71.6980368243
 20
-48.4718295218
 11
-71.6980368243
 21
46.9281704782
  0
LINE
  5
2F3
100
AcDbEntity
  8
RACCORDO
100
AcDbLine
 62
253
  6
CONTINUOUS
 10
-67.7480368243
 20
46.9281704782
 11
-67.7480368243
 21
-48.4718295218
  0
LINE
  5
2F4
100
AcDbEntity
  8
RACCORDO
100
AcDbLine
 62
7
  6
CONTINUOUS
 10
-67.2480368243
 20
46.4281704782
 11
-67.2480368243
 21
-47.9718295218
  0
LINE
  5
2F5
100
AcDbEntity
  8
RACCORDO
100
AcDbLine
 62
7
  6
CONTINUOUS
 10
-66.2480368243
 20
-46.0816828725
 11
-66.2480368243
 21
44.5380238288
  0
LINE
  5
2F6
100
AcDbEntity
  8
ASSI
100
AcDbLine
 62
253
  6
CONTINUOUS
 10
-64.7375696331
 20
25.0197968949
 11
-64.7375696331
 21
24.4284445712
  0
LINE
  5
2F7
100
AcDbEntity
  8
ASSI
100
AcDbLine
 62
253
  6
CONTINUOUS
 10
-64.7375696331
 20
-25.9721036149
 11
-64.7375696331
 21
-26.5634559386
  0
LINE
  5
2F8
100
AcDbEntity
  8
ASSI
100
AcDbLine
 62
7
  6
CONTINUOUS
 10
-64.5480368243
 20
-26.1718295218
 11
-64.5480368243
 21
-27.1218295218
  0
LINE
  5
2F9
100
AcDbEntity
  8
DRAFT
100
AcDbLine
 62
7
  6
CONTINUOUS
 10
-64.5480368243
 20
-27.1218295218
 11
-64.5480368243
 21
-27.9148762334
  0
LINE
  5
2FA
100
AcDbEntity
  8
ASSI
100
AcDbLine
 62
7
  6
CONTINUOUS
 10
-64.5480368243
 20
24.6281704782
 11
-64.5480368243
 21
25.5781704782
  0
LINE
  5
2FB
100
AcDbEntity
  8
DRAFT
100
AcDbLine
 62
7
  6
CONTINUOUS
 10
-64.5480368243
 20
25.5781704782
 11
-64.5480368243
 21
26.3712171897
  0
LINE
  5
2FC
100
AcDbEntity
  8
ASSI
100
AcDbLine
 62
7
  6
CONTINUOUS
 10
-66.2480368243
 20
-25.9718295218
 11
-66.0980368243
 21
-25.8218295218
  0
LINE
  5
2FD
100
AcDbEntity
  8
ASSI
100
AcDbLine
 62
7
  6
CONTINUOUS
 10
-65.7480368243
 20
-25.9718295218
 11
-65.5980368243
 21
-25.8218295218
  0
LINE
  5
2FE
100
AcDbEntity
  8
ASSI
100
AcDbLine
 62
7
  6
CONTINUOUS
 10
-65.2480368243
 20
-25.9718295218
 11
-65.0980368243
 21
-25.8218295218
  0
LINE
  5
2FF
100
AcDbEntity
  8
ASSI
100
AcDbLine
 62
7
  6
CONTINUOUS
 10
-66.2480368243
 20
24.4281704782
 11
-66.0980368243
 21
24.2781704782
  0
LINE
  5
300
100
AcDbEntity
  8
ASSI
100
AcDbLine
 62
7
  6
CONTINUOUS
 10
-65.7480368243
 20
24.4281704782
 11
-65.5980368243
 21
24.2781704782
  0
LINE
  5
301
100
AcDbEntity
  8
ASSI
100
AcDbLine
 62
7
  6
CONTINUOUS
 10
-65.2480368243
 20
24.4281704782
 11
-65.0980368243
 21
24.2781704782
  0
LINE
  5
302
100
AcDbEntity
  8
ASSI
100
AcDbLine
 62
7
  6
CONTINUOUS
 10
-64.7375696331
 20
25.0197968949
 11
-66.2480368243
 21
24.9530642649
  0
LINE
  5
303
100
AcDbEntity
  8
RACCORDO
100
AcDbLine
 62
253
  6
CONTINUOUS
 10
-74.1532725463
 20
24.7871662991
 11
-72.1980368243
 21
24.8212950656
  0
LINE
  5
304
100
AcDbEntity
  8
ASSI
100
AcDbLine
 62
7
  6
CONTINUOUS
 10
-66.0980368243
 20
24.2781704782
 11
-65.8980368243
 21
24.2781704782
  0
LINE
  5
305
100
AcDbEntity
  8
ASSI
100
AcDbLine
 62
7
  6
CONTINUOUS
 10
-65.5980368243
 20
24.2781704782
 11
-65.3980368243
 21
24.2781704782
  0
LINE
  5
306
100
AcDbEntity
  8
ASSI
100
AcDbLine
 62
7
  6
CONTINUOUS
 10
-65.0980368243
 20
24.2781704782
 11
-64.8980368243
 21
24.2781704782
  0
LINE
  5
307
100
AcDbEntity
  8
ASSI
100
AcDbLine
 62
7
  6
CONTINUOUS
 10
-64.7480368243
 20
24.4281704782
 11
-66.2480368243
 21
24.4281704782
  0
LINE
  5
308
100
AcDbEntity
  8
RACCORDO
100
AcDbLine
 62
253
  6
CONTINUOUS
 10
-74.1532725463
 20
24.7871662971
 11
-74.4480368243
 21
24.7871662991
  0
LINE
  5
309
100
AcDbEntity
  8
RACCORDO
100
AcDbLine
 62
7
  6
CONTINUOUS
 10
-74.1532725463
 20
25.4870596857
 11
-72.1980368243
 21
25.5211884522
  0
LINE
  5
30A
100
AcDbEntity
  8
DRAFT
100
AcDbLine
 62
253
  6
CONTINUOUS
 10
-64.5480368243
 20
26.1211460635
 11
-66.2480368243
 21
26.1219139958
  0
LINE
  5
30B
100
AcDbEntity
  8
DRAFT
100
AcDbLine
 62
7
  6
CONTINUOUS
 10
-66.2480368243
 20
26.3741562168
 11
-64.5480368243
 21
26.3711891541
  0
LINE
  5
30C
100
AcDbEntity
  8
ASSI
100
AcDbLine
 62
7
  6
CONTINUOUS
 10
-64.5480368243
 20
25.5781704782
 11
-66.2480368243
 21
25.5880607888
  0
LINE
  5
30D
100
AcDbEntity
  8
RACCORDO
100
AcDbLine
 62
253
  6
CONTINUOUS
 10
-67.2480368243
 20
45.9281704782
 11
-72.1980368243
 21
45.9281704782
  0
LINE
  5
30E
100
AcDbEntity
  8
RACCORDO
100
AcDbLine
 62
7
  6
CONTINUOUS
 10
-71.6980368243
 20
46.9281704782
 11
-67.7480368243
 21
46.9281704782
  0
LINE
  5
30F
100
AcDbEntity
  8
RACCORDO
100
AcDbLine
 62
253
  6
CONTINUOUS
 10
-67.2480368243
 20
42.5557835035
 11
-66.2480368243
 21
42.5383284385
  0
LINE
  5
310
100
AcDbEntity
  8
RACCORDO
100
AcDbLine
 62
7
  6
CONTINUOUS
 10
-67.2480368243
 20
44.5554788938
 11
-66.2480368243
 21
44.5380238288
  0
ARC
  5
311
100
AcDbEntity
  8
RACCORDO
100
AcDbCircle
 62
7
  6
CONTINUOUS
 10
-46.7
 20
45.9281704782
 40
1.0
100
AcDbArc
 50
90.0
 51
180.0
  0
ARC
  5
312
100
AcDbEntity
  8
RACCORDO
100
AcDbCircle
 62
7
  6
CONTINUOUS
 10
46.7
 20
45.9281704782
 40
1.0
100
AcDbArc
 50
0.0
 51
90.0
  0
ARC
  5
313
100
AcDbEntity
  8
RACCORDO
100
AcDbCircle
 62
7
  6
CONTINUOUS
 10
46.7
 20
-47.4718295218
 40
1.0
100
AcDbArc
 50
270.0
 51
360.0
  0
ARC
  5
314
100
AcDbEntity
  8
RACCORDO
100
AcDbCircle
 62
7
  6
CONTINUOUS
 10
-46.7
 20
-47.4718295218
 40
1.0
100
AcDbArc
 50
180.0
 51
270.0
  0
ARC
  5
315
100
AcDbEntity
  8
RACCORDO
100
AcDbCircle
 62
253
  6
CONTINUOUS
 10
-22.3481928336
 20
21.0743044886
 40
0.7824833596
100
AcDbArc
 50
90.0287467845
 51
92.1202533316
  0
ARC
  5
316
100
AcDbEntity
  8
RACCORDO
100
AcDbCircle
 62
253
  6
CONTINUOUS
 10
22.3482429658
 20
-22.6208100988
 40
0.7796367699
100
AcDbArc
 50
270.0251675059
 51
272.1236640583
  0
ARC
  5
317
100
AcDbEntity
  8
RACCORDO
100
AcDbCircle
 62
253
  6
CONTINUOUS
 10
21.8985897201
 20
-23.0708072439
 40
0.7582435797
100
AcDbArc
 50
358.9007158584
 51
359.9711949015
  0
ARC
  5
318
100
AcDbEntity
  8
RACCORDO
100
AcDbCircle
 62
253
  6
CONTINUOUS
 10
-21.9031127594
 20
21.5271927264
 40
0.7537205198
100
AcDbArc
 50
178.8975041154
 51
179.9744068002
  0
ARC
  5
319
100
AcDbEntity
  8
RACCORDO
100
AcDbCircle
 62
253
  6
CONTINUOUS
 10
-22.3488256748
 20
-22.6509024485
 40
0.7495443834
100
AcDbArc
 50
267.8294050908
 51
270.0183648229
  0
ARC
  5
31A
100
AcDbEntity
  8
RACCORDO
100
AcDbCircle
 62
253
  6
CONTINUOUS
 10
22.3488256748
 20
21.1072434049
 40
0.7495443834
100
AcDbArc
 50
87.8294050908
 51
90.0183648229
  0
ARC
  5
31B
100
AcDbEntity
  8
RACCORDO
100
AcDbCircle
 62
253
  6
CONTINUOUS
 10
-21.9432908409
 20
-23.0712473134
 40
0.7135423655
100
AcDbArc
 50
179.9952731042
 51
181.1328159804
  0
ARC
  5
31C
100
AcDbEntity
  8
RACCORDO
100
AcDbCircle
 62
253
  6
CONTINUOUS
 10
21.9432908409
 20
21.5275882697
 40
0.7135423655
100
AcDbArc
 50
359.9952731043
 51
1.1328159804
  0
ARC
  5
31D
100
AcDbEntity
  8
RACCORDO
100
AcDbCircle
 62
253
  6
CONTINUOUS
 10
-25.208903789
 20
24.7870742672
 40
0.6999862456
100
AcDbArc
 50
90.0075330702
 51
179.9924669298
  0
ARC
  5
31E
100
AcDbEntity
  8
RACCORDO
100
AcDbCircle
 62
253
  6
CONTINUOUS
 10
25.208903789
 20
24.7870742672
 40
0.6999862456
100
AcDbArc
 50
0.0075330706
 51
89.9924669294
  0
ARC
  5
31F
100
AcDbEntity
  8
RACCORDO
100
AcDbCircle
 62
253
  6
CONTINUOUS
 10
25.208903789
 20
-26.3307333109
 40
0.6999862456
100
AcDbArc
 50
270.0075330706
 51
359.9924669294
  0
ARC
  5
320
100
AcDbEntity
  8
RACCORDO
100
AcDbCircle
 62
253
  6
CONTINUOUS
 10
-25.208903789
 20
-26.3307333109
 40
0.6999862456
100
AcDbArc
 50
180.0075330706
 51
269.9924669294
  0
ARC
  5
321
100
AcDbEntity
  8
RACCORDO
100
AcDbCircle
 62
253
  6
CONTINUOUS
 10
-46.7
 20
45.9281704782
 40
0.5
100
AcDbArc
 50
90.0
 51
180.0
  0
ARC
  5
322
100
AcDbEntity
  8
RACCORDO
100
AcDbCircle
 62
253
  6
CONTINUOUS
 10
46.7
 20
45.9281704782
 40
0.5
100
AcDbArc
 50
0.0
 51
90.0
  0
ARC
  5
323
100
AcDbEntity
  8
RACCORDO
100
AcDbCircle
 62
253
  6
CONTINUOUS
 10
46.7
 20
-47.4718295218
 40
0.5
100
AcDbArc
 50
270.0
 51
360.0
  0
ARC
  5
324
100
AcDbEntity
  8
RACCORDO
100
AcDbCircle
 62
253
  6
CONTINUOUS
 10
-46.7
 20
-47.4718295218
 40
0.5
100
AcDbArc
 50
180.0
 51
270.0
  0
ARC
  5
325
100
AcDbEntity
  8
RACCORDO
100
AcDbCircle
 62
253
  6
CONTINUOUS
 10
-22.3486975555
 20
21.5621960255
 40
0.2645142108
100
AcDbArc
 50
89.9757118727
 51
92.2877047218
  0
ARC
  5
326
100
AcDbEntity
  8
RACCORDO
100
AcDbCircle
 62
253
  6
CONTINUOUS
 10
22.3487019579
 20
-23.1060779241
 40
0.2642913578
100
AcDbArc
 50
269.9747369958
 51
272.2886795019
  0
ARC
  5
327
100
AcDbEntity
  8
RACCORDO
100
AcDbCircle
 62
253
  6
CONTINUOUS
 10
22.3487561979
 20
21.5651645711
 40
0.2615456972
100
AcDbArc
 50
87.6991731402
 51
90.0374103616
  0
ARC
  5
328
100
AcDbEntity
  8
RACCORDO
100
AcDbCircle
 62
253
  6
CONTINUOUS
 10
-22.3487561979
 20
-23.1088236148
 40
0.2615456972
100
AcDbArc
 50
267.6991731401
 51
270.0374103618
  0
ARC
  5
329
100
AcDbEntity
  8
RACCORDO
100
AcDbCircle
 62
253
  6
CONTINUOUS
 10
-22.4162338679
 20
21.5276240991
 40
0.2330793842
100
AcDbArc
 50
178.7188047898
 51
180.023278383
  0
ARC
  5
32A
100
AcDbEntity
  8
RACCORDO
100
AcDbCircle
 62
253
  6
CONTINUOUS
 10
22.416322912
 20
-23.0712841202
 40
0.2329903406
100
AcDbArc
 50
358.7185555089
 51
0.0235276639
  0
ARC
  5
32B
100
AcDbEntity
  8
RACCORDO
100
AcDbCircle
 62
253
  6
CONTINUOUS
 10
22.4194888646
 20
21.5276598319
 40
0.2298244053
100
AcDbArc
 50
359.9674836483
 51
1.290433179
  0
ARC
  5
32C
100
AcDbEntity
  8
RACCORDO
100
AcDbCircle
 62
253
  6
CONTINUOUS
 10
-22.4194888646
 20
-23.0713188755
 40
0.2298244053
100
AcDbArc
 50
179.9674836481
 51
181.290433179
  0
ARC
  5
32D
100
AcDbEntity
  8
RACCORDO
100
AcDbCircle
 62
7
  6
CONTINUOUS
 10
-71.6980368243
 20
46.4281704782
 40
0.5
100
AcDbArc
 50
90.0
 51
180.0
  0
ARC
  5
32E
100
AcDbEntity
  8
RACCORDO
100
AcDbCircle
 62
7
  6
CONTINUOUS
 10
-67.7480368243
 20
-47.9718295218
 40
0.5
100
AcDbArc
 50
270.0
 51
360.0
  0
ARC
  5
32F
100
AcDbEntity
  8
RACCORDO
100
AcDbCircle
 62
7
  6
CONTINUOUS
 10
-67.7480368243
 20
46.4281704782
 40
0.5
100
AcDbArc
 50
0.0
 51
90.0
  0
ARC
  5
330
100
AcDbEntity
  8
RACCORDO
100
AcDbCircle
 62
7
  6
CONTINUOUS
 10
-71.6980368243
 20
-47.9718295218
 40
0.5
100
AcDbArc
 50
180.0
 51
270.0
  0
ARC
  5
331
100
AcDbEntity
  8
RACCORDO
100
AcDbCircle
 62
7
  6
CONTINUOUS
 10
-74.1480368243
 20
25.1871053772
 40
0.3
100
AcDbArc
 50
91.0
 51
180.0
  0
ARC
  5
332
100
AcDbEntity
  8
RACCORDO
100
AcDbCircle
 62
7
  6
CONTINUOUS
 10
-74.1480368243
 20
-26.7307644208
 40
0.3
100
AcDbArc
 50
180.0
 51
269.0
  0
ARC
  5
333
100
AcDbEntity
  8
ASSI
100
AcDbCircle
 62
7
  6
CONTINUOUS
 10
-64.7480368243
 20
-26.1718295218
 40
0.2
100
AcDbArc
 50
0.0
 51
90.0
  0
ARC
  5
334
100
AcDbEntity
  8
ASSI
100
AcDbCircle
 62
7
  6
CONTINUOUS
 10
-64.7480368243
 20
24.6281704782
 40
0.2
100
AcDbArc
 50
270.0
 51
360.0
  0
SPLINE
  5
335
100
AcDbEntity
  8
0
100
AcDbSpline
 62
7
  6
CONTINUOUS
 70
0
 71
3
 72
9
 73
5
 74
3
 42
0.0000001
 43
0.0000001
 44
0.0000000001
 12
0.384402302
 22
-0.0446290201
 32
0.0
 13
0.0060518841
 23
-0.3869370154
 33
0.0
 40
0.0
 40
0.0
 40
0.0
 40
0.0
 40
0.5013510385
 40
1.0
 40
1.0
 40
1.0
 40
1.0
 10
3.2708955903
 20
-24.7825452967
 30
0.0
 10
3.3351357547
 20
-24.7900035652
 30
0.0
 10
3.4650689916
 20
-24.8465763641
 30
0.0
 10
3.5174853189
 20
-24.98072175
 30
0.0
 10
3.5184912408
 20
-25.045036997
 30
0.0
 11
3.2708955903
 21
-24.7825452967
 31
0.0
 11
3.445935984
 21
-24.8662273201
 31
0.0
 11
3.5184912408
 21
-25.045036997
 31
0.0
  0
SPLINE
  5
336
100
AcDbEntity
  8
0
100
AcDbSpline
 62
7
  6
CONTINUOUS
 70
0
 71
3
 72
9
 73
5
 74
3
 42
0.0000001
 43
0.0000001
 44
0.0000000001
 12
0.0080713833
 22
-0.5230864262
 32
0.0
 13
-0.5230182478
 23
-0.0116819936
 33
0.0
 40
0.0
 40
0.0
 40
0.0
 40
0.0
 40
0.5206208722
 40
1.0
 40
1.0
 40
1.0
 40
1.0
 10
3.5184912408
 20
-25.045036997
 30
0.0
 10
3.519891951
 20
-25.1358135674
 30
0.0
 10
3.4557627102
 20
-25.3341140926
 30
0.0
 10
3.2615825326
 20
-25.3694819636
 30
0.0
 10
3.1780078554
 20
-25.3713486649
 30
0.0
 11
3.5184912408
 21
-25.045036997
 31
0.0
 11
3.4178681102
 21
-25.2981300929
 31
0.0
 11
3.1780078554
 21
-25.3713486649
 31
0.0
  0
SPLINE
  5
337
100
AcDbEntity
  8
0
100
AcDbSpline
 62
7
  6
CONTINUOUS
 70
0
 71
3
 72
9
 73
5
 74
3
 42
0.0000001
 43
0.0000001
 44
0.0000000001
 12
0.3394200167
 22
0.0579167448
 32
0.0
 13
0.3420295105
 23
-0.0397002646
 33
0.0
 40
0.0
 40
0.0
 40
0.0
 40
0.0
 40
0.2703953699
 40
1.0
 40
1.0
 40
1.0
 40
1.0
 10
2.927514876
 20
-24.7949061836
 30
0.0
 10
2.9581074096
 20
-24.7896860437
 30
0.0
 10
3.0716013975
 20
-24.7725174197
 30
0.0
 10
3.1877134854
 20
-24.7728901311
 30
0.0
 10
3.2708955903
 20
-24.7825452967
 30
0.0
 11
2.927514876
 21
-24.7949061836
 31
0.0
 11
3.0196753261
 21
-24.781683922
 31
0.0
 11
3.2708955903
 21
-24.7825452967
 31
0.0
  0
SPLINE
  5
338
100
AcDbEntity
  8
0
100
AcDbSpline
 62
7
  6
CONTINUOUS
 70
0
 71
3
 72
9
 73
5
 74
3
 42
0.0000001
 43
0.0000001
 44
0.0000000001
 12
0.3219543356
 22
0.0
 32
0.0
 13
0.1131217834
 23
-0.3014267015
 33
0.0
 40
0.0
 40
0.0
 40
0.0
 40
0.0
 40
0.3559141631
 40
1.0
 40
1.0
 40
1.0
 40
1.0
 10
3.1770630743
 20
-25.7152490088
 30
0.0
 10
3.2152591102
 20
-25.7152490088
 30
0.0
 10
3.3251388628
 20
-25.7383779204
 30
0.0
 10
3.3973172195
 20
-25.8355537638
 30
0.0
 10
3.4216039324
 20
-25.9002686536
 30
0.0
 11
3.1770630743
 21
-25.7152490088
 31
0.0
 11
3.2886988103
 21
-25.7410927103
 31
0.0
 11
3.4216039324
 21
-25.9002686536
 31
0.0
  0
SPLINE
  5
339
100
AcDbEntity
  8
0
100
AcDbSpline
 62
7
  6
CONTINUOUS
 70
0
 71
3
 72
9
 73
5
 74
3
 42
0.0000001
 43
0.0000001
 44
0.0000000001
 12
0.2338635552
 22
-0.622497147
 32
0.0
 13
0.1837405462
 23
-0.6390886262
 33
0.0
 40
0.0
 40
0.0
 40
0.0
 40
0.0
 40
0.5586214172
 40
1.0
 40
1.0
 40
1.0
 40
1.0
 10
3.4216039324
 20
-25.9002686536
 30
0.0
 10
3.4651509959
 20
-26.0161820664
 30
0.0
 10
3.522419256
 20
-26.2308209877
 30
0.0
 10
3.5862354907
 20
-26.4429772422
 30
0.0
 10
3.613268538
 20
-26.5370039196
 30
0.0
 11
3.4216039324
 21
-25.9002686536
 31
0.0
 11
3.5311768963
 21
-26.2552111274
 31
0.0
 11
3.613268538
 21
-26.5370039196
 31
0.0
  0
SPLINE
  5
33A
100
AcDbEntity
  8
0
100
AcDbSpline
 62
7
  6
CONTINUOUS
 70
0
 71
3
 72
9
 73
5
 74
3
 42
0.0000001
 43
0.0000001
 44
0.0000000001
 12
-0.1540517408
 22
0.5672067283
 32
0.0
 13
-0.1544993035
 23
0.5670849819
 33
0.0
 40
0.0
 40
0.0
 40
0.0
 40
0.0
 40
0.1980141723
 40
1.0
 40
1.0
 40
1.0
 40
1.0
 10
4.0348771327
 20
-26.5370039196
 30
0.0
 10
4.0247089901
 20
-26.4995655959
 30
0.0
 10
3.974940488
 20
-26.3100717095
 30
0.0
 10
3.926336924
 20
-26.1202688494
 30
0.0
 10
3.88503484
 20
-25.9686708099
 30
0.0
 11
4.0348771327
 21
-26.5370039196
 31
0.0
 11
4.0050449294
 21
-26.424508531
 31
0.0
 11
3.88503484
 21
-25.9686708099
 31
0.0
  0
SPLINE
  5
33B
100
AcDbEntity
  8
0
100
AcDbSpline
 62
7
  6
CONTINUOUS
 70
0
 71
3
 72
9
 73
5
 74
3
 42
0.0000001
 43
0.0000001
 44
0.0000000001
 12
-0.1285164
 22
0.4717407948
 32
0.0
 13
-0.4541587339
 23
0.1810957951
 33
0.0
 40
0.0
 40
0.0
 40
0.0
 40
0.0
 40
0.2426586216
 40
1.0
 40
1.0
 40
1.0
 40
1.0
 10
3.88503484
 20
-25.9686708099
 30
0.0
 10
3.8746396359
 20
-25.9305134862
 30
0.0
 10
3.8349315603
 20
-25.7764249145
 30
0.0
 10
3.7470356774
 20
-25.6025420669
 30
0.0
 10
3.6323846102
 20
-25.5568249539
 30
0.0
 11
3.88503484
 21
-25.9686708099
 31
0.0
 11
3.8525311695
 21
-25.8545660949
 31
0.0
 11
3.6323846102
 21
-25.5568249539
 31
0.0
  0
SPLINE
  5
33C
100
AcDbEntity
  8
0
100
AcDbSpline
 62
7
  6
CONTINUOUS
 70
0
 71
3
 72
17
 73
13
 74
11
 42
0.0000001
 43
0.0000001
 44
0.0000000001
 12
1.2974582446
 22
0.167413967
 32
0.0
 13
-1.2305868136
 23
0.4439385397
 33
0.0
 40
0.0
 40
0.0
 40
0.0
 40
0.0
 40
0.0559780952
 40
0.1687540387
 40
0.321006234
 40
0.4122750837
 40
0.516613223
 40
0.6013931059
 40
0.6776022439
 40
0.8103422694
 40
0.9200404832
 40
1.0
 40
1.0
 40
1.0
 40
1.0
 10
3.6323846102
 20
-25.5444168279
 30
0.0
 10
3.6565943573
 20
-25.5412929896
 30
0.0
 10
3.7181324038
 20
-25.492826831
 30
0.0
 10
3.8201860891
 20
-25.4004368119
 30
0.0
 10
3.8953301556
 20
-25.2582167217
 30
0.0
 10
3.9288051152
 20
-25.1098489763
 30
0.0
 10
3.9319500205
 20
-24.9867068447
 30
0.0
 10
3.9153760191
 20
-24.8716930927
 30
0.0
 10
3.8752063301
 20
-24.749482009
 30
0.0
 10
3.7997594339
 20
-24.6297124827
 30
0.0
 10
3.693234287
 20
-24.5360495669
 30
0.0
 10
3.6199916202
 20
-24.4956536091
 30
0.0
 10
3.5871925779
 20
-24.4838212388
 30
0.0
 11
3.6323846102
 21
-25.5444168279
 31
0.0
 11
3.6965524739
 21
-25.5091277752
 31
0.0
 11
3.8025003321
 21
-25.4064551583
 31
0.0
 11
3.8972761531
 21
-25.2312705871
 31
0.0
 11
3.9239270396
 21
-25.1148836966
 31
0.0
 11
3.9279279049
 21
-24.9784456712
 31
0.0
 11
3.9115237729
 21
-24.8687552248
 31
0.0
 11
3.8801574073
 21
-24.7741200138
 31
0.0
 11
3.7874979945
 21
-24.6272547659
 31
0.0
 11
3.6798697052
 21
-24.5323288625
 31
0.0
 11
3.5871925779
 21
-24.4838212388
 31
0.0
  0
SPLINE
  5
33D
100
AcDbEntity
  8
0
100
AcDbSpline
 62
7
  6
CONTINUOUS
 70
0
 71
3
 72
9
 73
5
 74
3
 42
0.0000001
 43
0.0000001
 44
0.0000000001
 12
-1.0242753953
 22
0.3700472763
 32
0.0
 13
-1.0774730544
 23
-0.1585146335
 33
0.0
 40
0.0
 40
0.0
 40
0.0
 40
0.0
 40
0.2957417834
 40
1.0
 40
1.0
 40
1.0
 40
1.0
 10
3.5871925779
 20
-24.4838212388
 30
0.0
 10
3.4862189005
 20
-24.4473417583
 30
0.0
 10
3.1232796563
 20
-24.3878780308
 30
0.0
 10
2.7584366266
 20
-24.4245016151
 30
0.0
 10
2.505496876
 20
-24.4617133595
 30
0.0
 11
3.5871925779
 21
-24.4838212388
 31
0.0
 11
3.2713797906
 21
-24.4205740447
 31
0.0
 11
2.505496876
 21
-24.4617133595
 31
0.0
  0
SPLINE
  5
33E
100
AcDbEntity
  8
RACCORDO
100
AcDbSpline
 62
253
  6
CONTINUOUS
 70
0
 71
3
 72
9
 73
5
 74
3
 42
0.0000001
 43
0.0000001
 44
0.0000000001
 12
0.0016454234
 22
-0.0116721833
 32
0.0
 13
0.0098680424
 23
-0.0064474042
 33
0.0
 40
0.0
 40
0.0
 40
0.0
 40
0.0
 40
0.1960236876
 40
1.0
 40
1.0
 40
1.0
 40
1.0
 10
22.6492543307
 20
-23.0764946025
 30
0.0
 10
22.6493618447
 20
-23.0772572773
 30
0.0
 10
22.6506646526
 20
-23.0810490639
 30
0.0
 10
22.6540533941
 20
-23.0836262518
 30
0.0
 10
22.6566979515
 20
-23.0853541053
 30
0.0
 11
22.6492543307
 21
-23.0764946025
 31
0.0
 11
22.6499527597
 21
-23.078697166
 31
0.0
 11
22.6566979515
 21
-23.0853541053
 31
0.0
  0
SPLINE
  5
33F
100
AcDbEntity
  8
RACCORDO
100
AcDbSpline
 62
253
  6
CONTINUOUS
 70
0
 71
3
 72
9
 73
5
 74
3
 42
0.0000001
 43
0.0000001
 44
0.0000000001
 12
0.0350776438
 22
-0.0048684521
 32
0.0
 13
0.0108153484
 23
-0.0337219685
 33
0.0
 40
0.0
 40
0.0
 40
0.0
 40
0.0
 40
0.337105154
 40
1.0
 40
1.0
 40
1.0
 40
1.0
 10
22.3592561094
 20
-23.3701539698
 30
0.0
 10
22.3631977276
 20
-23.3707010299
 30
0.0
 10
22.3711082388
 20
-23.3820392987
 30
0.0
 10
22.374679637
 20
-23.3924584597
 30
0.0
 10
22.3770694499
 20
-23.3999098328
 30
0.0
 11
22.3592561094
 21
-23.3701539698
 31
0.0
 11
22.3680379795
 21
-23.3782409603
 31
0.0
 11
22.3770694499
 21
-23.3999098328
 31
0.0
  0
SPLINE
  5
340
100
AcDbEntity
  8
RACCORDO
100
AcDbSpline
 62
253
  6
CONTINUOUS
 70
0
 71
3
 72
9
 73
5
 74
3
 42
0.0000001
 43
0.0000001
 44
0.0000000001
 12
-0.0350782653
 22
-0.0048739408
 32
0.0
 13
-0.0108183144
 23
-0.0337224564
 33
0.0
 40
0.0
 40
0.0
 40
0.0
 40
0.0
 40
0.3370815637
 40
1.0
 40
1.0
 40
1.0
 40
1.0
 10
-22.3592562472
 20
-23.3701579045
 30
0.0
 10
-22.3631976594
 20
-23.370705543
 30
0.0
 10
-22.3711061254
 20
-23.3820457263
 30
0.0
 10
-22.3746788942
 20
-23.392464422
 30
0.0
 10
-22.3770694476
 20
-23.399916168
 30
0.0
 11
-22.3592562472
 21
-23.3701579045
 31
0.0
 11
-22.3680366164
 21
-23.3782459733
 31
0.0
 11
-22.3770694476
 21
-23.399916168
 31
0.0
  0
SPLINE
  5
341
100
AcDbEntity
  8
RACCORDO
100
AcDbSpline
 62
253
  6
CONTINUOUS
 70
0
 71
3
 72
9
 73
5
 74
3
 42
0.0000001
 43
0.0000001
 44
0.0000000001
 12
-0.0016419121
 22
-0.0116767679
 32
0.0
 13
-0.0098749389
 23
-0.0064442506
 33
0.0
 40
0.0
 40
0.0
 40
0.0
 40
0.0
 40
0.1959560346
 40
1.0
 40
1.0
 40
1.0
 40
1.0
 10
-22.6492723134
 20
-23.0764949259
 30
0.0
 10
-22.6493795609
 20
-23.0772576369
 30
0.0
 10
-22.6506828136
 20
-23.081050982
 30
0.0
 10
-22.6540751595
 20
-23.0836269689
 30
0.0
 10
-22.6567217878
 20
-23.0853541225
 30
0.0
 11
-22.6492723134
 21
-23.0764949259
 31
0.0
 11
-22.64997054
 21
-23.0786975496
 31
0.0
 11
-22.6567217878
 21
-23.0853541225
 31
0.0
  0
SPLINE
  5
342
100
AcDbEntity
  8
RACCORDO
100
AcDbSpline
 62
253
  6
CONTINUOUS
 70
0
 71
3
 72
9
 73
5
 74
3
 42
0.0000001
 43
0.0000001
 44
0.0000000001
 12
-0.0016437748
 22
0.0116712955
 32
0.0
 13
-0.0098674174
 23
0.006446333
 33
0.0
 40
0.0
 40
0.0
 40
0.0
 40
0.0
 40
0.1960788747
 40
1.0
 40
1.0
 40
1.0
 40
1.0
 10
-22.6492545908
 20
21.5328355634
 30
0.0
 10
-22.6493620273
 20
21.5335983949
 30
0.0
 10
-22.6506638389
 20
21.537390112
 30
0.0
 10
-22.6540521118
 20
21.5399676134
 30
0.0
 10
-22.6566963202
 20
21.5416950612
 30
0.0
 11
-22.6492545908
 21
21.5328355634
 31
0.0
 11
-22.6499527608
 21
21.5350386633
 31
0.0
 11
-22.6566963202
 21
21.5416950612
 31
0.0
  0
SPLINE
  5
343
100
AcDbEntity
  8
RACCORDO
100
AcDbSpline
 62
253
  6
CONTINUOUS
 70
0
 71
3
 72
9
 73
5
 74
3
 42
0.0000001
 43
0.0000001
 44
0.0000000001
 12
-0.0350792242
 22
0.004867689
 32
0.0
 13
-0.0108153946
 23
0.0337234874
 33
0.0
 40
0.0
 40
0.0
 40
0.0
 40
0.0
 40
0.3370983532
 40
1.0
 40
1.0
 40
1.0
 40
1.0
 10
-22.359255904
 20
21.8264890559
 30
0.0
 10
-22.3631976202
 20
21.8270360192
 30
0.0
 10
-22.371108267
 20
21.838375166
 30
0.0
 10
-22.3746796047
 20
21.848794675
 30
0.0
 10
-22.3770694524
 20
21.8562464601
 30
0.0
 11
-22.359255904
 21
21.8264890559
 31
0.0
 11
-22.3680378536
 21
21.8345763313
 31
0.0
 11
-22.3770694524
 21
21.8562464601
 31
0.0
  0
SPLINE
  5
344
100
AcDbEntity
  8
RACCORDO
100
AcDbSpline
 62
253
  6
CONTINUOUS
 70
0
 71
3
 72
9
 73
5
 74
3
 42
0.0000001
 43
0.0000001
 44
0.0000000001
 12
0.0350782653
 22
0.0048739408
 32
0.0
 13
0.0108183144
 23
0.0337224564
 33
0.0
 40
0.0
 40
0.0
 40
0.0
 40
0.0
 40
0.3370815637
 40
1.0
 40
1.0
 40
1.0
 40
1.0
 10
22.3592562472
 20
21.8264988608
 30
0.0
 10
22.3631976594
 20
21.8270464994
 30
0.0
 10
22.3711061254
 20
21.8383866826
 30
0.0
 10
22.3746788942
 20
21.8488053783
 30
0.0
 10
22.3770694476
 20
21.8562571244
 30
0.0
 11
22.3592562472
 21
21.8264988608
 31
0.0
 11
22.3680366164
 21
21.8345869297
 31
0.0
 11
22.3770694476
 21
21.8562571244
 31
0.0
  0
SPLINE
  5
345
100
AcDbEntity
  8
RACCORDO
100
AcDbSpline
 62
253
  6
CONTINUOUS
 70
0
 71
3
 72
9
 73
5
 74
3
 42
0.0000001
 43
0.0000001
 44
0.0000000001
 12
0.0016419121
 22
0.0116767679
 32
0.0
 13
0.0098749389
 23
0.0064442506
 33
0.0
 40
0.0
 40
0.0
 40
0.0
 40
0.0
 40
0.1959560346
 40
1.0
 40
1.0
 40
1.0
 40
1.0
 10
22.6492723134
 20
21.5328358822
 30
0.0
 10
22.6493795609
 20
21.5335985933
 30
0.0
 10
22.6506828136
 20
21.5373919383
 30
0.0
 10
22.6540751595
 20
21.5399679252
 30
0.0
 10
22.6567217878
 20
21.5416950788
 30
0.0
 11
22.6492723134
 21
21.5328358822
 31
0.0
 11
22.64997054
 21
21.5350385059
 31
0.0
 11
22.6567217878
 21
21.5416950788
 31
0.0
  0
SPLINE
  5
346
100
AcDbEntity
  8
RACCORDO
100
AcDbSpline
 62
253
  6
CONTINUOUS
 70
0
 71
3
 72
11
 73
7
 74
5
 42
0.0000001
 43
0.0000001
 44
0.0000000001
 12
0.475583353
 22
0.0253970572
 32
0.0
 13
-0.0235522301
 23
-0.4756782827
 33
0.0
 40
0.0
 40
0.0
 40
0.0
 40
0.0
 40
0.2521799737
 40
0.504537421
 40
0.7538906134
 40
1.0
 40
1.0
 40
1.0
 40
1.0
 10
22.6284355601
 20
22.3750748506
 30
0.0
 10
22.6684130926
 20
22.377209727
 30
0.0
 10
22.7510613198
 20
22.363219543
 30
0.0
 10
22.8481531018
 20
22.2852209971
 30
0.0
 10
22.9005049287
 20
22.1751897478
 30
0.0
 10
22.9079755874
 20
22.0954204567
 30
0.0
 10
22.9060434458
 20
22.0563974932
 30
0.0
 11
22.6284355601
 21
22.3750748506
 31
0.0
 11
22.7466178424
 21
22.3536786976
 31
0.0
 11
22.8410785986
 21
22.2793663629
 31
0.0
 11
22.8938389718
 21
22.1729726812
 31
0.0
 11
22.9060434458
 21
22.0563974932
 31
0.0
  0
SPLINE
  5
347
100
AcDbEntity
  8
RACCORDO
100
AcDbSpline
 62
253
  6
CONTINUOUS
 70
0
 71
3
 72
11
 73
7
 74
5
 42
0.0000001
 43
0.0000001
 44
0.0000000001
 12
0.0174577466
 22
0.4674042485
 32
0.0
 13
-0.4677217634
 23
0.0028029417
 33
0.0
 40
0.0
 40
0.0
 40
0.0
 40
0.0
 40
0.24815611
 40
0.4981918957
 40
0.7488791185
 40
1.0
 40
1.0
 40
1.0
 40
1.0
 10
22.6566937466
 20
21.5416950598
 30
0.0
 10
22.6581378288
 20
21.5803581331
 30
0.0
 10
22.6481749279
 20
21.6592165762
 30
0.0
 10
22.5911637199
 20
21.7645326677
 30
0.0
 10
22.4956440815
 20
21.8385677197
 30
0.0
 10
22.4163661867
 20
21.8560152719
 30
0.0
 10
22.3772146196
 20
21.8562498976
 30
0.0
 11
22.6566937466
 21
21.5416950598
 31
0.0
 11
22.6412742195
 21
21.6567363816
 31
0.0
 11
22.5848558773
 21
21.7591771177
 31
0.0
 11
22.491824733
 21
21.830547286
 31
0.0
 11
22.3772146196
 21
21.8562498976
 31
0.0
  0
SPLINE
  5
348
100
AcDbEntity
  8
RACCORDO
100
AcDbSpline
 62
253
  6
CONTINUOUS
 70
0
 71
3
 72
11
 73
7
 74
5
 42
0.0000001
 43
0.0000001
 44
0.0000000001
 12
-0.0101990918
 22
0.451553724
 32
0.0
 13
-0.4513111575
 23
0.01797293
 33
0.0
 40
0.0
 40
0.0
 40
0.0
 40
0.0
 40
0.2441973876
 40
0.4933734642
 40
0.7478789891
 40
1.0
 40
1.0
 40
1.0
 40
1.0
 10
22.6492549827
 20
21.5328355703
 30
0.0
 10
22.6484247855
 20
21.5695916502
 30
0.0
 10
22.6325429122
 20
21.6442401945
 30
0.0
 10
22.5689787424
 20
21.7402833297
 30
0.0
 10
22.4735647507
 20
21.8070981746
 30
0.0
 10
22.3971846088
 20
21.8249889632
 30
0.0
 10
22.359256267
 20
21.8264994143
 30
0.0
 11
22.6492549827
 21
21.5328355703
 31
0.0
 11
22.6263211544
 21
21.6407212842
 31
0.0
 11
22.564346907
 21
21.7346658859
 31
0.0
 11
22.4701287661
 21
21.8005214603
 31
0.0
 11
22.359256267
 21
21.8264994143
 31
0.0
  0
SPLINE
  5
349
100
AcDbEntity
  8
RACCORDO
100
AcDbSpline
 62
253
  6
CONTINUOUS
 70
0
 71
3
 72
11
 73
7
 74
5
 42
0.0000001
 43
0.0000001
 44
0.0000000001
 12
0.0235528302
 22
-0.475681279
 32
0.0
 13
-0.4755755775
 23
0.0255985369
 33
0.0
 40
0.0
 40
0.0
 40
0.0
 40
0.0
 40
0.2461023178
 40
0.4954535361
 40
0.7478124086
 40
1.0
 40
1.0
 40
1.0
 40
1.0
 10
22.9060449021
 20
-23.6000909956
 30
0.0
 10
22.9079770375
 20
-23.639113084
 30
0.0
 10
22.9004979105
 20
-23.7188798445
 30
0.0
 10
22.8481426188
 20
-23.8289133869
 30
0.0
 10
22.7510292261
 20
-23.9068807357
 30
0.0
 10
22.6683793056
 20
-23.9208849702
 30
0.0
 10
22.6284012191
 20
-23.9187330924
 30
0.0
 11
22.9060449021
 21
-23.6000909956
 31
0.0
 11
22.8938338195
 21
-23.7166628544
 31
0.0
 11
22.8410657368
 21
-23.8230525043
 31
0.0
 11
22.7465899835
 21
-23.8973481037
 31
0.0
 11
22.6284012191
 21
-23.9187330924
 31
0.0
  0
SPLINE
  5
34A
100
AcDbEntity
  8
RACCORDO
100
AcDbSpline
 62
253
  6
CONTINUOUS
 70
0
 71
3
 72
11
 73
7
 74
5
 42
0.0000001
 43
0.0000001
 44
0.0000000001
 12
0.4678024421
 22
0.0028660801
 32
0.0
 13
-0.0173078003
 23
0.4674909403
 33
0.0
 40
0.0
 40
0.0
 40
0.0
 40
0.0
 40
0.2510672081
 40
0.5017509236
 40
0.7518196159
 40
1.0
 40
1.0
 40
1.0
 40
1.0
 10
22.3771335031
 20
-23.3999113276
 30
0.0
 10
22.4162834541
 20
-23.3996714681
 30
0.0
 10
22.4955731074
 20
-23.3822745272
 30
0.0
 10
22.5911206387
 20
-23.3082389448
 30
0.0
 10
22.6481781416
 20
-23.2029109425
 30
0.0
 10
22.6581255656
 20
-23.1240281372
 30
0.0
 10
22.6566937468
 20
-23.0853541101
 30
0.0
 11
22.3771335031
 21
-23.3999113276
 31
0.0
 11
22.4917470385
 21
-23.3742457223
 31
0.0
 11
22.5848106512
 21
-23.3028871934
 31
0.0
 11
22.6412658911
 21
-23.2004260682
 31
0.0
 11
22.6566937468
 21
-23.0853541101
 31
0.0
  0
SPLINE
  5
34B
100
AcDbEntity
  8
RACCORDO
100
AcDbSpline
 62
253
  6
CONTINUOUS
 70
0
 71
3
 72
11
 73
7
 74
5
 42
0.0000001
 43
0.0000001
 44
0.0000000001
 12
0.4513107987
 22
0.0179770836
 32
0.0
 13
0.0101901392
 23
0.4515537328
 33
0.0
 40
0.0
 40
0.0
 40
0.0
 40
0.0
 40
0.2520640572
 40
0.5065659114
 40
0.7557749843
 40
1.0
 40
1.0
 40
1.0
 40
1.0
 10
22.359256267
 20
-23.370158458
 30
0.0
 10
22.3971760107
 20
-23.3686479991
 30
0.0
 10
22.4735461576
 20
-23.3507618644
 30
0.0
 10
22.5689640474
 20
-23.2839599811
 30
0.0
 10
22.6325387161
 20
-23.1879124549
 30
0.0
 10
22.6484254204
 20
-23.1132548531
 30
0.0
 10
22.6492549827
 20
-23.0764946139
 30
0.0
 11
22.359256267
 21
-23.370158458
 31
0.0
 11
22.4701046033
 21
-23.3441903554
 31
0.0
 11
22.5643278128
 21
-23.2783450132
 31
0.0
 11
22.6263162912
 21
-23.1843920034
 31
0.0
 11
22.6492549827
 21
-23.0764946139
 31
0.0
  0
SPLINE
  5
34C
100
AcDbEntity
  8
RACCORDO
100
AcDbSpline
 62
253
  6
CONTINUOUS
 70
0
 71
3
 72
11
 73
7
 74
5
 42
0.0000001
 43
0.0000001
 44
0.0000000001
 12
-0.0000144823
 22
0.9183629164
 32
0.0
 13
0.9183629157
 23
-0.0000385668
 33
0.0
 40
0.0
 40
0.0
 40
0.0
 40
0.0
 40
0.2502639014
 40
0.5002653067
 40
0.7501013609
 40
1.0
 40
1.0
 40
1.0
 40
1.0
 10
-23.2014857566
 20
22.0563971351
 30
0.0
 10
-23.2014869647
 20
22.1330081639
 30
0.0
 10
-23.1746301787
 20
22.2877005103
 30
0.0
 10
-23.0521052024
 20
22.4886981398
 30
0.0
 10
-22.8598819351
 20
22.62566394
 30
0.0
 10
-22.7049134312
 20
22.6569853505
 30
0.0
 10
-22.628414217
 20
22.6569821379
 30
0.0
 11
-23.2014857566
 21
22.0563971351
 31
0.0
 11
-23.1608869827
 21
22.2826160273
 31
0.0
 11
-23.0404438622
 21
22.4780794516
 31
0.0
 11
-22.8531890186
 21
22.6106630628
 31
0.0
 11
-22.628414217
 21
22.6569821379
 31
0.0
  0
SPLINE
  5
34D
100
AcDbEntity
  8
RACCORDO
100
AcDbSpline
 62
253
  6
CONTINUOUS
 70
0
 71
3
 72
11
 73
7
 74
5
 42
0.0000001
 43
0.0000001
 44
0.0000000001
 12
-0.4513111687
 22
-0.017972652
 32
0.0
 13
-0.0101988777
 23
-0.4515537289
 33
0.0
 40
0.0
 40
0.0
 40
0.0
 40
0.0
 40
0.2521209989
 40
0.5066265334
 40
0.7558025641
 40
1.0
 40
1.0
 40
1.0
 40
1.0
 10
-22.3592562675
 20
21.8264994143
 30
0.0
 10
-22.3971846084
 20
21.8249889866
 30
0.0
 10
-22.4735647457
 20
21.8070981571
 30
0.0
 10
-22.5689787397
 20
21.7402833398
 30
0.0
 10
-22.632542907
 20
21.6442402027
 30
0.0
 10
-22.6484248027
 20
21.5695916579
 30
0.0
 10
-22.6492549827
 20
21.5328355703
 30
0.0
 11
-22.3592562675
 21
21.8264994143
 31
0.0
 11
-22.4701287605
 21
21.8005214584
 31
0.0
 11
-22.5643469085
 21
21.7346658864
 31
0.0
 11
-22.6263211499
 21
21.6407213056
 31
0.0
 11
-22.6492549827
 21
21.5328355703
 31
0.0
  0
SPLINE
  5
34E
100
AcDbEntity
  8
RACCORDO
100
AcDbSpline
 62
253
  6
CONTINUOUS
 70
0
 71
3
 72
11
 73
7
 74
5
 42
0.0000001
 43
0.0000001
 44
0.0000000001
 12
-0.0235526188
 22
0.4756875283
 32
0.0
 13
0.4755942284
 23
-0.0253669126
 33
0.0
 40
0.0
 40
0.0
 40
0.0
 40
0.0
 40
0.2461091508
 40
0.4954615669
 40
0.7478184483
 40
1.0
 40
1.0
 40
1.0
 40
1.0
 10
-22.9060434452
 20
22.0563974797
 30
0.0
 10
-22.9079756169
 20
22.0954211642
 30
0.0
 10
-22.9005045434
 20
22.1751920393
 30
0.0
 10
-22.8481506762
 20
22.2852240404
 30
0.0
 10
-22.7510555346
 20
22.3632252735
 30
0.0
 10
-22.6684051069
 20
22.3772069917
 30
0.0
 10
-22.62842641
 20
22.3750746359
 30
0.0
 11
-22.9060434452
 21
22.0563974797
 31
0.0
 11
-22.8938383348
 21
22.1729747779
 31
0.0
 11
-22.8410760314
 21
22.2793696652
 31
0.0
 11
-22.7466124096
 21
22.3536816982
 31
0.0
 11
-22.62842641
 21
22.3750746359
 31
0.0
  0
SPLINE
  5
34F
100
AcDbEntity
  8
RACCORDO
100
AcDbSpline
 62
253
  6
CONTINUOUS
 70
0
 71
3
 72
11
 73
7
 74
5
 42
0.0000001
 43
0.0000001
 44
0.0000000001
 12
-0.4677934171
 22
-0.0027464922
 32
0.0
 13
0.0174691209
 23
-0.4674751909
 33
0.0
 40
0.0
 40
0.0
 40
0.0
 40
0.0
 40
0.2511215547
 40
0.5018086193
 40
0.7518438783
 40
1.0
 40
1.0
 40
1.0
 40
1.0
 10
-22.3771422633
 20
21.8562519841
 30
0.0
 10
-22.4162999333
 20
21.856022083
 30
0.0
 10
-22.4955945597
 20
21.8385963604
 30
0.0
 10
-22.5911418812
 20
21.7645620829
 30
0.0
 10
-22.6481713025
 20
21.6592349484
 30
0.0
 10
-22.6581387697
 20
21.5803640032
 30
0.0
 10
-22.6566937466
 20
21.5416950598
 30
0.0
 11
-22.3771422633
 21
21.8562519841
 31
0.0
 11
-22.4917757978
 21
21.83057054
 31
0.0
 11
-22.5848325483
 21
21.7592045011
 31
0.0
 11
-22.6412687136
 21
21.6567535052
 31
0.0
 11
-22.6566937466
 21
21.5416950598
 31
0.0
  0
SPLINE
  5
350
100
AcDbEntity
  8
RACCORDO
100
AcDbSpline
 62
253
  6
CONTINUOUS
 70
0
 71
3
 72
11
 73
7
 74
5
 42
0.0000001
 43
0.0000001
 44
0.0000000001
 12
-0.475583353
 22
-0.0253970572
 32
0.0
 13
0.0235522301
 23
0.4756782827
 33
0.0
 40
0.0
 40
0.0
 40
0.0
 40
0.0
 40
0.2521799737
 40
0.504537421
 40
0.7538906134
 40
1.0
 40
1.0
 40
1.0
 40
1.0
 10
-22.6284355601
 20
-23.9187338943
 30
0.0
 10
-22.6684130926
 20
-23.9208687707
 30
0.0
 10
-22.7510613198
 20
-23.9068785866
 30
0.0
 10
-22.8481531018
 20
-23.8288800408
 30
0.0
 10
-22.9005049287
 20
-23.7188487915
 30
0.0
 10
-22.9079755874
 20
-23.6390795003
 30
0.0
 10
-22.9060434458
 20
-23.6000565369
 30
0.0
 11
-22.6284355601
 21
-23.9187338943
 31
0.0
 11
-22.7466178424
 21
-23.8973377413
 31
0.0
 11
-22.8410785986
 21
-23.8230254066
 31
0.0
 11
-22.8938389718
 21
-23.7166317249
 31
0.0
 11
-22.9060434458
 21
-23.6000565369
 31
0.0
  0
SPLINE
  5
351
100
AcDbEntity
  8
RACCORDO
100
AcDbSpline
 62
253
  6
CONTINUOUS
 70
0
 71
3
 72
11
 73
7
 74
5
 42
0.0000001
 43
0.0000001
 44
0.0000000001
 12
-0.9183621973
 22
-0.0001042048
 32
0.0
 13
0.0000144934
 23
0.9183622031
 33
0.0
 40
0.0
 40
0.0
 40
0.0
 40
0.0
 40
0.2498969701
 40
0.4997337693
 40
0.7497357692
 40
1.0
 40
1.0
 40
1.0
 40
1.0
 10
-22.628414217
 20
-24.2006411815
 30
0.0
 10
-22.7049128605
 20
-24.2006498617
 30
0.0
 10
-22.8598803775
 20
-24.1693186949
 30
0.0
 10
-23.0521046838
 20
-24.0323585417
 30
0.0
 10
-23.1746299946
 20
-23.8313594685
 30
0.0
 10
-23.2014869656
 20
-23.6766672489
 30
0.0
 10
-23.2014857566
 20
-23.6000561788
 30
0.0
 11
-22.628414217
 21
-24.2006411815
 31
0.0
 11
-22.853187152
 21
-24.1543215258
 31
0.0
 11
-23.0404431669
 21
-24.0217386934
 31
0.0
 11
-23.1608868255
 21
-23.8262751688
 31
0.0
 11
-23.2014857566
 21
-23.6000561788
 31
0.0
  0
SPLINE
  5
352
100
AcDbEntity
  8
RACCORDO
100
AcDbSpline
 62
253
  6
CONTINUOUS
 70
0
 71
3
 72
11
 73
7
 74
5
 42
0.0000001
 43
0.0000001
 44
0.0000000001
 12
-0.0174577466
 22
-0.4674042485
 32
0.0
 13
0.4677217634
 23
-0.0028029417
 33
0.0
 40
0.0
 40
0.0
 40
0.0
 40
0.0
 40
0.24815611
 40
0.4981918957
 40
0.7488791185
 40
1.0
 40
1.0
 40
1.0
 40
1.0
 10
-22.6566937466
 20
-23.0853541034
 30
0.0
 10
-22.6581378288
 20
-23.1240171768
 30
0.0
 10
-22.6481749279
 20
-23.2028756199
 30
0.0
 10
-22.5911637199
 20
-23.3081917113
 30
0.0
 10
-22.4956440815
 20
-23.3822267633
 30
0.0
 10
-22.4163661867
 20
-23.3996743155
 30
0.0
 10
-22.3772146196
 20
-23.3999089412
 30
0.0
 11
-22.6566937466
 21
-23.0853541034
 31
0.0
 11
-22.6412742195
 21
-23.2003954253
 31
0.0
 11
-22.5848558773
 21
-23.3028361614
 31
0.0
 11
-22.491824733
 21
-23.3742063297
 31
0.0
 11
-22.3772146196
 21
-23.3999089412
 31
0.0
  0
SPLINE
  5
353
100
AcDbEntity
  8
RACCORDO
100
AcDbSpline
 62
253
  6
CONTINUOUS
 70
0
 71
3
 72
11
 73
7
 74
5
 42
0.0000001
 43
0.0000001
 44
0.0000000001
 12
-0.0000498599
 22
-0.6210287349
 32
0.0
 13
-0.6210287319
 23
-0.0000791702
 33
0.0
 40
0.0
 40
0.0
 40
0.0
 40
0.0
 40
0.2500058224
 40
0.5000008131
 40
0.7499857999
 40
1.0
 40
1.0
 40
1.0
 40
1.0
 10
25.608934899
 20
-26.3308253428
 30
0.0
 10
25.6089307439
 20
-26.3825789426
 30
0.0
 10
25.588341813
 20
-26.4871881071
 30
0.0
 10
25.5002220949
 20
-26.6197610186
 30
0.0
 10
25.3684227213
 20
-26.7086721741
 30
0.0
 10
25.2639802829
 20
-26.7307578229
 30
0.0
 10
25.212224949
 20
-26.7307644208
 30
0.0
 11
25.608934899
 21
-26.3308253428
 31
0.0
 11
25.5788012648
 21
-26.4831338459
 31
0.0
 11
25.4929410846
 21
-26.6124855245
 31
0.0
 11
25.3642844268
 21
-26.6993725927
 31
0.0
 11
25.212224949
 21
-26.7307644208
 31
0.0
  0
SPLINE
  5
354
100
AcDbEntity
  8
RACCORDO
100
AcDbSpline
 62
253
  6
CONTINUOUS
 70
0
 71
3
 72
11
 73
7
 74
5
 42
0.0000001
 43
0.0000001
 44
0.0000000001
 12
0.0101990918
 22
-0.451553724
 32
0.0
 13
0.4513111575
 23
-0.01797293
 33
0.0
 40
0.0
 40
0.0
 40
0.0
 40
0.0
 40
0.2441973876
 40
0.4933734642
 40
0.7478789891
 40
1.0
 40
1.0
 40
1.0
 40
1.0
 10
-22.6492549827
 20
-23.0764946139
 30
0.0
 10
-22.6484247855
 20
-23.1132506939
 30
0.0
 10
-22.6325429122
 20
-23.1878992381
 30
0.0
 10
-22.5689787424
 20
-23.2839423734
 30
0.0
 10
-22.4735647507
 20
-23.3507572182
 30
0.0
 10
-22.3971846088
 20
-23.3686480069
 30
0.0
 10
-22.359256267
 20
-23.370158458
 30
0.0
 11
-22.6492549827
 21
-23.0764946139
 31
0.0
 11
-22.6263211544
 21
-23.1843803279
 31
0.0
 11
-22.564346907
 21
-23.2783249295
 31
0.0
 11
-22.4701287661
 21
-23.344180504
 31
0.0
 11
-22.359256267
 21
-23.370158458
 31
0.0
  0
SPLINE
  5
355
100
AcDbEntity
  8
RACCORDO
100
AcDbSpline
 62
253
  6
CONTINUOUS
 70
0
 71
3
 72
11
 73
7
 74
5
 42
0.0000001
 43
0.0000001
 44
0.0000000001
 12
-0.6210287244
 22
0.0000498599
 32
0.0
 13
-0.0000791702
 23
0.6210287214
 33
0.0
 40
0.0
 40
0.0
 40
0.0
 40
0.0
 40
0.2500058224
 40
0.5000008131
 40
0.7499857999
 40
1.0
 40
1.0
 40
1.0
 40
1.0
 10
-25.2089958209
 20
-26.7307644208
 30
0.0
 10
-25.2607494199
 20
-26.7307602658
 30
0.0
 10
-25.3653585825
 20
-26.7101713356
 30
0.0
 10
-25.4979314928
 20
-26.6220516203
 30
0.0
 10
-25.586842648
 20
-26.4902522505
 30
0.0
 10
-25.6089283011
 20
-26.3858098145
 30
0.0
 10
-25.608934899
 20
-26.3340544815
 30
0.0
 11
-25.2089958209
 21
-26.7307644208
 31
0.0
 11
-25.3613043216
 21
-26.7006307876
 31
0.0
 11
-25.4906559989
 21
-26.6147706102
 31
0.0
 11
-25.5775430677
 21
-26.486113956
 31
0.0
 11
-25.608934899
 21
-26.3340544815
 31
0.0
  0
SPLINE
  5
356
100
AcDbEntity
  8
RACCORDO
100
AcDbSpline
 62
253
  6
CONTINUOUS
 70
0
 71
3
 72
11
 73
7
 74
5
 42
0.0000001
 43
0.0000001
 44
0.0000000001
 12
0.0000498599
 22
0.6210287227
 32
0.0
 13
0.6210287197
 23
0.0000791702
 33
0.0
 40
0.0
 40
0.0
 40
0.0
 40
0.0
 40
0.2500058224
 40
0.5000008131
 40
0.7499857999
 40
1.0
 40
1.0
 40
1.0
 40
1.0
 10
-25.608934899
 20
24.7871662991
 30
0.0
 10
-25.6089307439
 20
24.838919898
 30
0.0
 10
-25.5883418139
 20
24.9435290602
 30
0.0
 10
-25.5002220991
 20
25.0761019704
 30
0.0
 10
-25.3684227299
 20
25.1650131255
 30
0.0
 10
-25.2639802943
 20
25.1870987793
 30
0.0
 10
-25.2122249614
 20
25.1871053772
 30
0.0
 11
-25.608934899
 21
24.7871662991
 31
0.0
 11
-25.5788012659
 21
24.9394747994
 31
0.0
 11
-25.492941089
 21
25.0688264765
 31
0.0
 11
-25.3642844354
 21
25.1557135453
 31
0.0
 11
-25.2122249614
 21
25.1871053772
 31
0.0
  0
SPLINE
  5
357
100
AcDbEntity
  8
RACCORDO
100
AcDbSpline
 62
253
  6
CONTINUOUS
 70
0
 71
3
 72
11
 73
7
 74
5
 42
0.0000001
 43
0.0000001
 44
0.0000000001
 12
0.6210287337
 22
-0.0000498599
 32
0.0
 13
0.0000791702
 23
-0.6210287306
 33
0.0
 40
0.0
 40
0.0
 40
0.0
 40
0.0
 40
0.2500058224
 40
0.5000008131
 40
0.7499857999
 40
1.0
 40
1.0
 40
1.0
 40
1.0
 10
25.2089958209
 20
25.1871053772
 30
0.0
 10
25.2607494207
 20
25.1871012221
 30
0.0
 10
25.3653585849
 20
25.1665122913
 30
0.0
 10
25.4979314963
 20
25.0783925735
 30
0.0
 10
25.5868426518
 20
24.9465932004
 30
0.0
 10
25.6089283011
 20
24.8421507622
 30
0.0
 10
25.608934899
 20
24.7903954284
 30
0.0
 11
25.2089958209
 21
25.1871053772
 31
0.0
 11
25.3613043238
 21
25.156971743
 31
0.0
 11
25.4906560023
 21
25.0711115633
 31
0.0
 11
25.5775430704
 21
24.9424549058
 31
0.0
 11
25.608934899
 21
24.7903954284
 31
0.0
  0
SPLINE
  5
358
100
AcDbEntity
  8
RACCORDO
100
AcDbSpline
 62
253
  6
CONTINUOUS
 70
0
 71
3
 72
11
 73
7
 74
5
 42
0.0000001
 43
0.0000001
 44
0.0000000001
 12
0.0001539294
 22
-0.918359028
 32
0.0
 13
-0.9183590363
 23
-0.0000919294
 33
0.0
 40
0.0
 40
0.0
 40
0.0
 40
0.0
 40
0.2502624158
 40
0.5002644967
 40
0.7500997209
 40
1.0
 40
1.0
 40
1.0
 40
1.0
 10
23.2014857566
 20
-23.6000561788
 30
0.0
 10
23.2014985975
 20
-23.6766664284
 30
0.0
 10
23.1746423349
 20
-23.8313602203
 30
0.0
 10
23.052113761
 20
-24.0323579563
 30
0.0
 10
22.8598718288
 20
-24.1692922858
 30
0.0
 10
22.7049136101
 20
-24.2006335238
 30
0.0
 10
22.628414217
 20
-24.2006411815
 30
0.0
 11
23.2014857566
 21
-23.6000561788
 31
0.0
 11
23.1608986306
 21
-23.8262747895
 31
0.0
 11
23.0404497024
 21
-24.0217342257
 31
0.0
 11
22.853185282
 21
-24.1543013149
 31
0.0
 11
22.628414217
 21
-24.2006411815
 31
0.0
  0
SPLINE
  5
359
100
AcDbEntity
  8
RACCORDO
100
AcDbSpline
 62
253
  6
CONTINUOUS
 70
0
 71
3
 72
11
 73
7
 74
5
 42
0.0000001
 43
0.0000001
 44
0.0000000001
 12
0.9183621973
 22
0.0001042048
 32
0.0
 13
-0.0000144934
 23
-0.9183622031
 33
0.0
 40
0.0
 40
0.0
 40
0.0
 40
0.0
 40
0.2498969701
 40
0.4997337693
 40
0.7497357692
 40
1.0
 40
1.0
 40
1.0
 40
1.0
 10
22.628414217
 20
22.6569821379
 30
0.0
 10
22.7049128605
 20
22.656990818
 30
0.0
 10
22.8598803775
 20
22.6256596513
 30
0.0
 10
23.0521046838
 20
22.488699498
 30
0.0
 10
23.1746299946
 20
22.2877004248
 30
0.0
 10
23.2014869656
 20
22.1330082053
 30
0.0
 10
23.2014857566
 20
22.0563971351
 30
0.0
 11
22.628414217
 21
22.6569821379
 31
0.0
 11
22.853187152
 21
22.6106624821
 31
0.0
 11
23.0404431669
 21
22.4780796497
 31
0.0
 11
23.1608868255
 21
22.2826161251
 31
0.0
 11
23.2014857566
 21
22.0563971351
 31
0.0
  0
SPLINE
  5
35A
100
AcDbEntity
  8
RACCORDO
100
AcDbSpline
 62
253
  6
CONTINUOUS
 70
0
 71
3
 72
23
 73
19
 74
17
 42
0.0000001
 43
0.0000001
 44
0.0000000001
 12
-0.0052250696
 22
0.6999442616
 32
0.0
 13
0.6997738236
 23
0.0163054114
 33
0.0
 40
0.0
 40
0.0
 40
0.0
 40
0.0
 40
0.1950458747
 40
0.3826397505
 40
0.555484779
 40
0.6343043597
 40
0.7070050217
 40
0.7729042947
 40
0.831352309
 40
0.8818043226
 40
0.9237617168
 40
0.9568261729
 40
0.969925046
 40
0.9806839856
 40
0.989079053
 40
0.9950984995
 40
0.9987336937
 40
1.0
 40
1.0
 40
1.0
 40
1.0
 10
-74.1532725463
 20
24.7871662991
 30
0.0
 10
-74.1536122557
 20
24.8326733794
 30
0.0
 10
-74.1542159386
 20
24.9219493616
 30
0.0
 10
-74.1548974077
 20
25.0515540294
 30
0.0
 10
-74.1552638682
 20
25.1540417662
 30
0.0
 10
-74.1554133429
 20
25.229722978
 30
0.0
 10
-74.155451595
 20
25.2804514869
 30
0.0
 10
-74.1554203977
 20
25.3264272472
 30
0.0
 10
-74.1553190677
 20
25.3672106791
 30
0.0
 10
-74.1551526407
 20
25.4024111418
 30
0.0
 10
-74.1549160713
 20
25.4316787099
 30
0.0
 10
-74.154666976
 20
25.4522546085
 30
0.0
 10
-74.1544006382
 20
25.4655073531
 30
0.0
 10
-74.1542398261
 20
25.4730854446
 30
0.0
 10
-74.1539675586
 20
25.4788127292
 30
0.0
 10
-74.1539250281
 20
25.4833443651
 30
0.0
 10
-74.1534339151
 20
25.4853088281
 30
0.0
 10
-74.1535679223
 20
25.4870528032
 30
0.0
 10
-74.1532725463
 20
25.4870596857
 30
0.0
 11
-74.1532725463
 21
24.7871662991
 31
0.0
 11
-74.1541928103
 21
24.9236882421
 31
0.0
 11
-74.1548771769
 21
25.0549953741
 31
0.0
 11
-74.1552979784
 21
25.1759798989
 31
0.0
 11
-74.155404482
 21
25.2311506465
 31
0.0
 11
-74.1554400449
 21
25.2820384631
 31
0.0
 11
-74.155404502
 21
25.3281655525
 31
0.0
 11
-74.15529801
 21
25.369076906
 31
0.0
 11
-74.1551217238
 21
25.4043910474
 31
0.0
 11
-74.1548772154
 21
25.4337586851
 31
0.0
 11
-74.1545666732
 21
25.4569005227
 31
0.0
 11
-74.1543874818
 21
25.4660675081
 31
0.0
 11
-74.1541928089
 21
25.4735958594
 31
0.0
 11
-74.1539832252
 21
25.4794683636
 31
0.0
 11
-74.1537594821
 21
25.4836758132
 31
0.0
 11
-74.1535223368
 21
25.4862092424
 31
0.0
 11
-74.1532725463
 21
25.4870596857
 31
0.0
  0
SPLINE
  5
35B
100
AcDbEntity
  8
RACCORDO
100
AcDbSpline
 62
253
  6
CONTINUOUS
 70
0
 71
3
 72
23
 73
19
 74
17
 42
0.0000001
 43
0.0000001
 44
0.0000000001
 12
-0.699723268
 22
0.0183467323
 32
0.0
 13
0.0052239514
 23
0.6999442583
 33
0.0
 40
0.0
 40
0.0
 40
0.0
 40
0.0
 40
0.0012669938
 40
0.0049023045
 40
0.010921506
 40
0.0193161922
 40
0.0300748356
 40
0.0431735956
 40
0.0762381591
 40
0.1181957108
 40
0.1686477238
 40
0.2270956894
 40
0.2929949544
 40
0.3656956318
 40
0.4445152214
 40
0.6173602503
 40
0.8049541264
 40
1.0
 40
1.0
 40
1.0
 40
1.0
 10
-74.1532725463
 20
-27.0307187294
 30
0.0
 10
-74.1535680613
 20
-27.030710981
 30
0.0
 10
-74.1534338273
 20
-27.0289686493
 30
0.0
 10
-74.1539251135
 20
-27.0270021662
 30
0.0
 10
-74.1539675596
 20
-27.0224717523
 30
0.0
 10
-74.1542398347
 20
-27.0167441952
 30
0.0
 10
-74.1544006142
 20
-27.0091664746
 30
0.0
 10
-74.1546669424
 20
-26.9959137127
 30
0.0
 10
-74.1549160304
 20
-26.9753378357
 30
0.0
 10
-74.155152605
 20
-26.9460701821
 30
0.0
 10
-74.1553190351
 20
-26.9108697034
 30
0.0
 10
-74.1554203769
 20
-26.8700862827
 30
0.0
 10
-74.1554515962
 20
-26.8241105338
 30
0.0
 10
-74.1554133656
 20
-26.7733820216
 30
0.0
 10
-74.1552639042
 20
-26.6977008054
 30
0.0
 10
-74.1548974529
 20
-26.5952130679
 30
0.0
 10
-74.1542159524
 20
-26.4656084024
 30
0.0
 10
-74.153612183
 20
-26.3763324225
 30
0.0
 10
-74.1532725463
 20
-26.3308253428
 30
0.0
 11
-74.1532725463
 21
-27.0307187294
 31
0.0
 11
-74.1535223723
 21
-27.029867795
 31
0.0
 11
-74.1537595221
 21
-27.0273342843
 31
0.0
 11
-74.15398325
 21
-27.0231270057
 31
0.0
 11
-74.1541928103
 21
-27.0172547677
 31
0.0
 11
-74.1543874626
 21
-27.0097266234
 31
0.0
 11
-74.1545666418
 21
-27.0005597172
 31
0.0
 11
-74.1548771769
 21
-26.9774178046
 31
0.0
 11
-74.1551216876
 21
-26.9480500572
 31
0.0
 11
-74.1552979784
 21
-26.9127359169
 31
0.0
 11
-74.155404482
 21
-26.8718245982
 31
0.0
 11
-74.1554400449
 21
-26.8256975151
 31
0.0
 11
-74.155404502
 21
-26.7748096886
 31
0.0
 11
-74.15529801
 21
-26.7196389357
 31
0.0
 11
-74.1548772154
 21
-26.5986544125
 31
0.0
 11
-74.1541928089
 21
-26.4673472827
 31
0.0
 11
-74.1532725463
 21
-26.3308253428
 31
0.0
  0
ELLIPSE
  5
35C
100
AcDbEntity
  8
RACCORDO
100
AcDbEllipse
 62
7
  6
CONTINUOUS
 10
-25.2429113444
 20
-26.3647408662
 30
0.0
 11
0.4951255324
 21
0.4951255324
 31
0.0
 40
0.9996954599
 41
-3.9268385237
 42
-2.3563467834
  0
ELLIPSE
  5
35D
100
AcDbEntity
  8
RACCORDO
100
AcDbEllipse
 62
7
  6
CONTINUOUS
 10
25.2429113444
 20
-26.3647408662
 30
0.0
 11
0.4951255324
 21
-0.4951255324
 31
0.0
 40
0.9996954599
 41
-0.7852458701
 42
0.7852458702
  0
ELLIPSE
  5
35E
100
AcDbEntity
  8
RACCORDO
100
AcDbEllipse
 62
7
  6
CONTINUOUS
 10
25.2429113444
 20
24.8210818226
 30
0.0
 11
0.4951255324
 21
0.4951255324
 31
0.0
 40
0.9996954599
 41
-0.7852458701
 42
0.7852458702
  0
ELLIPSE
  5
35F
100
AcDbEntity
  8
RACCORDO
100
AcDbEllipse
 62
7
  6
CONTINUOUS
 10
-25.2429113444
 20
24.8210818226
 30
0.0
 11
0.4951255324
 21
-0.4951255324
 31
0.0
 40
0.9996954599
 41
2.3563467834
 42
3.9268385237
  0
ELLIPSE
  5
360
100
AcDbEntity
  8
RACCORDO
100
AcDbEllipse
 62
7
  6
CONTINUOUS
 10
22.3420995224
 20
21.5202700005
 30
0.0
 11
-0.2121966568
 21
-0.2121966568
 31
0.0
 40
0.9996954599
 41
2.3563467834
 42
3.9268385237
  0
ELLIPSE
  5
361
100
AcDbEntity
  8
RACCORDO
100
AcDbEllipse
 62
7
  6
CONTINUOUS
 10
22.3420995224
 20
-23.0639290442
 30
0.0
 11
-0.2121966568
 21
0.2121966568
 31
0.0
 40
0.9996954599
 41
2.3563467834
 42
3.9268385237
  0
ELLIPSE
  5
362
100
AcDbEntity
  8
RACCORDO
100
AcDbEllipse
 62
7
  6
CONTINUOUS
 10
-22.3420995224
 20
21.5202700005
 30
0.0
 11
-0.2121966568
 21
0.2121966568
 31
0.0
 40
0.9996954599
 41
-0.7852458701
 42
0.7852458701
  0
ELLIPSE
  5
363
100
AcDbEntity
  8
RACCORDO
100
AcDbEllipse
 62
7
  6
CONTINUOUS
 10
-22.3420995224
 20
-23.0639290442
 30
0.0
 11
0.2121966568
 21
0.2121966568
 31
0.0
 40
0.9996954599
 41
2.3563467834
 42
3.9268385237
  0
ELLIPSE
  5
364
100
AcDbEntity
  8
ASSI
100
AcDbEllipse
 62
7
  6
CONTINUOUS
 10
-64.7480368243
 20
-26.7632679659
 30
0.0
 11
0.1417119467
 21
0.1422961243
 31
0.0
 40
0.9918061237
 41
-0.7833412615
 42
0.7350951877
  0
ELLIPSE
  5
365
100
AcDbEntity
  8
ASSI
100
AcDbEllipse
 62
7
  6
CONTINUOUS
 10
-64.7480368243
 20
25.2196089223
 30
0.0
 11
-0.1417119467
 21
0.1422961243
 31
0.0
 40
0.9918061237
 41
-3.8766878413
 42
-2.358251392
  0
ENDSEC
  0
SECTION
  2
OBJECTS
  0
DICTIONARY
  5
C
100
AcDbDictionary
280
0
281
1
  3
ACAD_GROUP
350
D
  3
ACAD_MLINESTYLE
350
17
  3
ACAD_LAYOUT
350
1A
  3
ACAD_PLOTSETTINGS
350
19
  3
ACAD_PLOTSTYLENAME
350
E
  0
DICTIONARY
  5
D
102
{ACAD_REACTORS
330
C
102
}
100
AcDbDictionary
280
0
281
1
  0
ACDBDICTIONARYWDFLT
  5
E
102
{ACAD_REACTORS
330
C
102
}
100
AcDbDictionary
281
1
  3
Normal
350
F
100
AcDbDictionaryWithDefault
340
F
  0
DICTIONARY
  5
17
102
{ACAD_REACTORS
330
C
102
}
100
AcDbDictionary
280
0
281
1
  3
Standard
350
18
  0
DICTIONARY
  5
19
102
{ACAD_REACTORS
330
C
102
}
100
AcDbDictionary
281
1
  0
DICTIONARY
  5
1A
102
{ACAD_REACTORS
330
C
102
}
100
AcDbDictionary
281
1
  3
Model
350
366
  3
Layout1
350
367
  0
ACDBPLACEHOLDER
  5
F
102
{ACAD_REACTORS
330
E
102
}
  0
MLINESTYLE
  5
18
102
{ACAD_REACTORS
330
17
102
}
100
AcDbMlineStyle
  2
STANDARD
 70
0
  3

 62
256
 51
90.0
 52
90.0
 71
2
 49
0.5
 62
256
  6
BYLAYER
 49
-0.5
 62
256
  6
BYLAYER
  0
LAYOUT
  5
366
102
{ACAD_REACTORS
330
1A
102
}
100
AcDbPlotSettings
  1

  2
none_device
  4
ISO_A4_(297.00_x_210.00_MM)
  6

 40
0.0
 41
0.0
 42
0.0
 43
0.0
 44
297.0
 45
210.0
 46
0.0
 47
0.0
 48
0.0
 49
0.0
140
0.0
141
0.0
142
1.0
143
1.0
 70
1024
 72
1
 73
0
 74
0
  7

 75
0
147
1.0
148
0.0
149
0.0
100
AcDbLayout
  1
Model
 70
0
 71
0
 10
0.0
 20
0.0
 11
297.0
 21
210.0
 12
0.0
 22
0.0
 32
0.0
 14
0.0
 24
0.0
 34
0.0
 15
0.0
 25
0.0
 35
0.0
146
0.0
 13
0.0
 23
0.0
 33
0.0
 16
1.0
 26
0.0
 36
0.0
 17
0.0
 27
1.0
 37
0.0
 76
0
330
212
345
0
346
0
  0
LAYOUT
  5
367
102
{ACAD_REACTORS
330
1A
102
}
100
AcDbPlotSettings
  1

  2
none_device
  4
ISO_A4_(297.00_x_210.00_MM)
  6

 40
0.0
 41
0.0
 42
0.0
 43
0.0
 44
297.0
 45
210.0
 46
0.0
 47
0.0
 48
0.0
 49
0.0
140
0.0
141
0.0
142
1.0
143
1.0
 70
0
 72
1
 73
0
 74
0
  7

 75
0
147
1.0
148
0.0
149
0.0
100
AcDbLayout
  1
Layout1
 70
0
 71
1
 10
0.0
 20
0.0
 11
297.0
 21
210.0
 12
0.0
 22
0.0
 32
0.0
 14
0.0
 24
0.0
 34
0.0
 15
0.0
 25
0.0
 35
0.0
146
0.0
 13
0.0
 23
0.0
 33
0.0
 16
1.0
 26
0.0
 36
0.0
 17
0.0
 27
1.0
 37
0.0
 76
0
330
213
345
0
346
0
  0
ENDSEC
  0
EOF
