  0
SECTION
  2
HEADER
  9
$ACADVER
  1
AC1015
  9
$DWGCODEPAGE
  3
ANSI_1252
  9
$EXTMAX
 10
297.0
 20
210.0
 30
0.0
  9
$EXTMIN
 10
0.0
 20
0.0
 30
0.0
  9
$LIMMIN
 10
0.0
 20
0.0
  9
$LIMMAX
 10
297.0
 20
210.0
  9
$VIEWCTR
 10
148.5
 20
105.0
  9
$VIEWSIZE
 40
210.0
  9
$CLAYER
  8
0
  9
$LTSCALE
 40
16.335
  9
$CELTYPE
  6
BYLAYER
  9
$DIMSCALE
 40
1.0
  9
$DIMASZ
 40
3.0
  9
$DIMEXO
 40
1.85625
  9
$DIMDLI
 40
11.286
  9
$DIMEXE
 40
5.346
  9
$DIMCEN
 40
2.673
  9
$DIMLFAC
 40
1.0
  9
$DIMBLK
  1
_FILLED
  9
$DIMTXT
 40
3.0
  9
$DIMTOL
 70
1
  9
$DIMLIM
 70
0
  9
$DIMTFAC
 40
1.0
  9
$DIMTP
 40
0.01
  9
$DIMTM
 40
0.01
  9
$PDMODE
 70
3
  9
$PDSIZE
 40
3.0
  9
$HANDSEED
  5
37C
  9
$TILEMODE
 70
1
  9
$MEASUREMENT
 70
1
  9
$INSUNITS
 70
4
  0
ENDSEC
  0
SECTION
  2
CLASSES
  0
CLASS
  1
ACDBDICTIONARYWDFLT
  2
AcDbDictionaryWithDefault
  3
AutoCAD 2000
 90
0
280
0
281
0
  0
CLASS
  1
ACDBPLACEHOLDER
  2
AcDbPlaceHolder
  3
AutoCAD 2000
 90
0
280
0
281
0
  0
CLASS
  1
LAYOUT
  2
AcDbLayout
  3
AutoCAD 2000
 90
0
280
0
281
0
  0
ENDSEC
  0
SECTION
  2
TABLES
  0
TABLE
  2
VPORT
  5
8
100
AcDbSymbolTable
 70
2
  0
VPORT
  5
1F4
100
AcDbSymbolTableRecord
100
AcDbViewportTableRecord
  2
*ACTIVE
 70
0
 10
0.0
 20
0.0
 11
1.0
 21
1.0
 12
148.5
 22
105.0
 13
0.0
 23
0.0
 14
1.0
 24
1.0
 15
0.0
 25
0.0
 16
0.0
 26
0.0
 36
1.0
 17
0.0
 27
0.0
 37
0.0
 40
210.0
 41
1.4142857143
 42
50.0
 43
0.0
 44
0.0
 50
0.0
 51
0.0
 71
0
 72
100
 73
1
 74
1
 75
0
 76
0
 77
0
 78
0
  0
ENDTAB
  0
TABLE
  2
LTYPE
  5
5
100
AcDbSymbolTable
 70
6
  0
LTYPE
  5
14
100
AcDbSymbolTableRecord
100
AcDbLinetypeTableRecord
  2
BYBLOCK
 70
0
  3

 72
65
 73
0
 40
0.0
  0
LTYPE
  5
15
100
AcDbSymbolTableRecord
100
AcDbLinetypeTableRecord
  2
BYLAYER
 70
0
  3

 72
65
 73
0
 40
0.0
  0
LTYPE
  5
16
100
AcDbSymbolTableRecord
100
AcDbLinetypeTableRecord
  2
CONTINUOUS
 70
64
  3
Solid line
 72
65
 73
0
 40
0.0
  0
LTYPE
  5
1F5
100
AcDbSymbolTableRecord
100
AcDbLinetypeTableRecord
  2
CENTER
 70
64
  3
____ _ ____ _ ____ _ ____ _ ____ _ ____ _ ____
 72
65
 73
4
 40
0.6
 49
0.375
 74
0
 49
-0.075
 74
0
 49
0.075
 74
0
 49
-0.075
 74
0
  0
LTYPE
  5
1F6
100
AcDbSymbolTableRecord
100
AcDbLinetypeTableRecord
  2
HIDDEN
 70
64
  3
- - - - - - - - - - - - - - - - - - - -
 72
65
 73
2
 40
0.2
 49
0.1
 74
0
 49
-0.1
 74
0
  0
LTYPE
  5
1F7
100
AcDbSymbolTableRecord
100
AcDbLinetypeTableRecord
  2
PHANTOM
 70
64
  3
_____ _ _ _____ _ _ _____ _ _ _____
 72
65
 73
6
 40
0.8
 49
0.45
 74
0
 49
-0.05
 74
0
 49
0.1
 74
0
 49
-0.05
 74
0
 49
0.1
 74
0
 49
-0.05
 74
0
  0
LTYPE
  5
1F8
100
AcDbSymbolTableRecord
100
AcDbLinetypeTableRecord
  2
DOT
 70
64
  3
. . . . . . . . . . . . . . . . . . . .
 72
65
 73
2
 40
0.2
 49
0.1
 74
0
 49
-0.1
 74
0
  0
LTYPE
  5
1F9
100
AcDbSymbolTableRecord
100
AcDbLinetypeTableRecord
  2
DASHED
 70
64
  3
- - - - - - - - - - - - - - - - - - - -
 72
65
 73
2
 40
0.2
 49
0.1
 74
0
 49
-0.1
 74
0
  0
ENDTAB
  0
TABLE
  2
LAYER
  5
2
100
AcDbSymbolTable
 70
36
  0
LAYER
  5
10
100
AcDbSymbolTableRecord
100
AcDbLayerTableRecord
  2
0
 70
0
 62
7
  6
CONTINUOUS
370
-3
390
F
  0
LAYER
  5
1FA
100
AcDbSymbolTableRecord
100
AcDbLayerTableRecord
  2
DEFAULT_1
 70
0
 62
7
  6
CENTER
370
-3
390
F
  0
LAYER
  5
1FB
100
AcDbSymbolTableRecord
100
AcDbLayerTableRecord
  2
DEFAULT_2
 70
0
 62
7
  6
HIDDEN
370
-3
390
F
  0
LAYER
  5
1FC
100
AcDbSymbolTableRecord
100
AcDbLayerTableRecord
  2
DEFAULT_3
 70
0
 62
7
  6
PHANTOM
370
-3
390
F
  0
LAYER
  5
1FD
100
AcDbSymbolTableRecord
100
AcDbLayerTableRecord
  2
ASSI
 70
0
 62
7
  6
CONTINUOUS
370
-3
390
F
  0
LAYER
  5
1FE
100
AcDbSymbolTableRecord
100
AcDbLayerTableRecord
  2
COORDINATE
 70
0
 62
7
  6
CONTINUOUS
370
-3
390
F
  0
LAYER
  5
1FF
100
AcDbSymbolTableRecord
100
AcDbLayerTableRecord
  2
COORD_ORIGINE
 70
0
 62
7
  6
CONTINUOUS
370
-3
390
F
  0
LAYER
  5
200
100
AcDbSymbolTableRecord
100
AcDbLayerTableRecord
  2
COPY_PUBLISH
 70
0
 62
7
  6
CONTINUOUS
370
-3
390
F
  0
LAYER
  5
201
100
AcDbSymbolTableRecord
100
AcDbLayerTableRecord
  2
COSMETIC
 70
0
 62
7
  6
CONTINUOUS
370
-3
390
F
  0
LAYER
  5
202
100
AcDbSymbolTableRecord
100
AcDbLayerTableRecord
  2
CURVE
 70
0
 62
7
  6
CONTINUOUS
370
-3
390
F
  0
LAYER
  5
203
100
AcDbSymbolTableRecord
100
AcDbLayerTableRecord
  2
DRAFT
 70
0
 62
7
  6
CONTINUOUS
370
-3
390
F
  0
LAYER
  5
204
100
AcDbSymbolTableRecord
100
AcDbLayerTableRecord
  2
IMPORT_IGES
 70
0
 62
7
  6
CONTINUOUS
370
-3
390
F
  0
LAYER
  5
205
100
AcDbSymbolTableRecord
100
AcDbLayerTableRecord
  2
INTFCLR_2
 70
0
 62
7
  6
CONTINUOUS
370
-3
390
F
  0
LAYER
  5
206
100
AcDbSymbolTableRecord
100
AcDbLayerTableRecord
  2
PIANI
 70
0
 62
7
  6
CONTINUOUS
370
-3
390
F
  0
LAYER
  5
207
100
AcDbSymbolTableRecord
100
AcDbLayerTableRecord
  2
PIANI_ORIGINE
 70
0
 62
7
  6
CONTINUOUS
370
-3
390
F
  0
LAYER
  5
208
100
AcDbSymbolTableRecord
100
AcDbLayerTableRecord
  2
PIANI_RIFERIMENTO
 70
0
 62
7
  6
CONTINUOUS
370
-3
390
F
  0
LAYER
  5
209
100
AcDbSymbolTableRecord
100
AcDbLayerTableRecord
  2
PUNTI
 70
0
 62
7
  6
CONTINUOUS
370
-3
390
F
  0
LAYER
  5
20A
100
AcDbSymbolTableRecord
100
AcDbLayerTableRecord
  2
RACCORDO
 70
0
 62
7
  6
CONTINUOUS
370
-3
390
F
  0
LAYER
  5
20B
100
AcDbSymbolTableRecord
100
AcDbLayerTableRecord
  2
SMUSSO
 70
0
 62
7
  6
CONTINUOUS
370
-3
390
F
  0
LAYER
  5
20C
100
AcDbSymbolTableRecord
100
AcDbLayerTableRecord
  2
SNAPLINE
 70
0
 62
7
  6
CONTINUOUS
370
-3
390
F
  0
LAYER
  5
20D
100
AcDbSymbolTableRecord
100
AcDbLayerTableRecord
  2
SUPERFICI
 70
0
 62
7
  6
CONTINUOUS
370
-3
390
F
  0
LAYER
  5
20E
100
AcDbSymbolTableRecord
100
AcDbLayerTableRecord
  2
TRASH
 70
0
 62
7
  6
CONTINUOUS
370
-3
390
F
  0
LAYER
  5
20F
100
AcDbSymbolTableRecord
100
AcDbLayerTableRecord
  2
XSEC_DATUMS
 70
0
 62
7
  6
CONTINUOUS
370
-3
390
F
  0
ENDTAB
  0
TABLE
  2
STYLE
  5
3
100
AcDbSymbolTable
 70
1
  0
STYLE
  5
11
100
AcDbSymbolTableRecord
100
AcDbTextStyleTableRecord
  2
STANDARD
 70
0
 40
0.0
 41
0.8
 50
0.0
 71
0
 42
0.2
  3
txt
  4

  0
STYLE
  5
210
100
AcDbSymbolTableRecord
100
AcDbTextStyleTableRecord
  2
TEXTSTYLE_1
 70
0
 40
0.0
 41
0.8
 50
0.0
 71
0
 42
0.2
  3
gdt
  4

  0
ENDTAB
  0
TABLE
  2
VIEW
  5
6
100
AcDbSymbolTable
 70
0
  0
ENDTAB
  0
TABLE
  2
UCS
  5
7
100
AcDbSymbolTable
 70
0
  0
ENDTAB
  0
TABLE
  2
APPID
  5
9
100
AcDbSymbolTable
 70
1
  0
APPID
  5
211
100
AcDbSymbolTableRecord
100
AcDbRegAppTableRecord
  2
ACAD
 70
0
  0
ENDTAB
  0
TABLE
  2
BLOCK_RECORD
  5
1
100
AcDbSymbolTable
 70
0
  0
BLOCK_RECORD
  5
212
100
AcDbSymbolTableRecord
100
AcDbBlockTableRecord
  2
*Model_Space
  0
BLOCK_RECORD
  5
213
100
AcDbSymbolTableRecord
100
AcDbBlockTableRecord
  2
*Paper_Space
  0
BLOCK_RECORD
  5
214
100
AcDbSymbolTableRecord
100
AcDbBlockTableRecord
  2
_FILLED
  0
BLOCK_RECORD
  5
215
100
AcDbSymbolTableRecord
100
AcDbBlockTableRecord
  2
*D0
  0
BLOCK_RECORD
  5
216
100
AcDbSymbolTableRecord
100
AcDbBlockTableRecord
  2
*D1
  0
BLOCK_RECORD
  5
217
100
AcDbSymbolTableRecord
100
AcDbBlockTableRecord
  2
*D2
  0
BLOCK_RECORD
  5
218
100
AcDbSymbolTableRecord
100
AcDbBlockTableRecord
  2
*D3
  0
ENDTAB
  0
TABLE
  2
DIMSTYLE
  5
A
100
AcDbSymbolTable
 70
1
100
AcDbDimStyleTable
 71
0
  0
DIMSTYLE
105
219
100
AcDbSymbolTableRecord
100
AcDbDimStyleTableRecord
  2
STANDARD
 70
0
  3

  4

 40
1.0
 41
3.0
 42
0.0625
 43
0.38
 44
0.18
 45
0.0
 46
0.0
 47
0.01
 48
0.01
140
3.0
141
0.09
142
0.0
143
25.4
144
1.0
145
0.0
146
1.0
147
0.09
 71
1.0
 72
0.0
 73
0
 74
0
 75
0
 76
0
 77
1
 78
8
170
0
171
2
172
0
173
0
174
0
175
0
176
0
177
0
178
0
270
2
271
2
272
2
273
2
274
2
275
0
280
0
281
0
282
0
283
1
284
8
285
0
286
0
287
3
288
0
340
11
341
214
342
214
343
214
344
214
  0
DIMSTYLE
105
21A
100
AcDbSymbolTableRecord
100
AcDbDimStyleTableRecord
  2
DIMSTYLE_1
 70
0
  3

  4

 40
1.0
 41
3.0
 42
0.0625
 43
0.38
 44
0.18
 45
0.0
 46
0.0
 47
0.0
 48
0.0
140
3.0
141
0.09
142
0.0
143
25.4
144
1.0
145
0.0
146
1.0
147
0.09
 71
0.0
 72
0.0
 73
0
 74
0
 75
0
 76
0
 77
1
 78
8
170
0
171
2
172
0
173
0
174
0
175
0
176
0
177
0
178
0
270
2
271
2
272
2
273
2
274
2
275
0
280
0
281
0
282
0
283
1
284
8
285
0
286
0
287
3
288
0
340
11
341
214
342
214
343
214
344
214
  0
ENDTAB
  0
ENDSEC
  0
SECTION
  2
BLOCKS
  0
BLOCK
  5
20
100
AcDbEntity
  8
0
100
AcDbBlockBegin
  2
*Model_Space
 70
0
 10
0.0
 20
0.0
 30
0.0
  3
*Model_Space
  1

  0
ENDBLK
  5
21
100
AcDbEntity
  8
0
100
AcDbBlockEnd
  0
BLOCK
  5
1C
100
AcDbEntity
  8
0
100
AcDbBlockBegin
  2
*Paper_Space
 70
0
 10
0.0
 20
0.0
 30
0.0
  3
*Paper_Space
  1

  0
ENDBLK
  5
1D
100
AcDbEntity
  8
0
100
AcDbBlockEnd
  0
BLOCK
  5
21B
100
AcDbEntity
  8
0
100
AcDbBlockBegin
  2
_FILLED
 70
64
 10
0.0
 20
0.0
  3
_FILLED
  1

  0
SOLID
  5
21C
100
AcDbEntity
  8
0
  6
BYBLOCK
 62
0
100
AcDbTrace
 10
0.0
 20
0.0
 11
-1.0
 21
0.3166666667
 12
-1.0
 22
-0.3166666667
 13
-1.0
 23
-0.3166666667
  0
ENDBLK
  5
21D
100
AcDbEntity
  8
0
  6
BYBLOCK
 62
0
100
AcDbBlockEnd
  0
BLOCK
  5
21E
100
AcDbEntity
  8
0
100
AcDbBlockBegin
 62
7
  6
CONTINUOUS
  2
*D0
 70
65
 10
0.0
 20
0.0
  3
*D0
  1

  0
MTEXT
  5
21F
100
AcDbEntity
  8
0
100
AcDbMText
 62
7
  6
CONTINUOUS
  7
STANDARD
 71
2
 72
1
 10
53.95
 20
0.0
 30
0.0
 11
0.0
 21
1.0
 31
0.0
 44
0.9
  1
95,4
 40
3.0
 41
8.5714285714
  0
LINE
  5
220
100
AcDbEntity
  8
0
100
AcDbLine
 62
7
  6
CONTINUOUS
 10
47.8510397538
 20
47.7
 11
59.2
 21
47.7
  0
LINE
  5
221
100
AcDbEntity
  8
0
100
AcDbLine
 62
7
  6
CONTINUOUS
 10
47.9243635584
 20
-47.7
 11
59.2
 21
-47.7
  0
LINE
  5
222
100
AcDbEntity
  8
0
100
AcDbLine
 62
7
  6
CONTINUOUS
 10
57.7
 20
47.7
 11
57.7
 21
0.0
  0
LINE
  5
223
100
AcDbEntity
  8
0
100
AcDbLine
 62
7
  6
CONTINUOUS
 10
57.7
 20
-47.7
 11
57.7
 21
0.0
  0
INSERT
  5
224
100
AcDbEntity
  8
0
100
AcDbBlockReference
 62
7
  6
CONTINUOUS
  2
_FILLED
 10
57.7
 20
47.7
 41
3.0
 42
3.0
 43
3.0
 50
90.0
  0
INSERT
  5
225
100
AcDbEntity
  8
0
100
AcDbBlockReference
 62
7
  6
CONTINUOUS
  2
_FILLED
 10
57.7
 20
-47.7
 41
3.0
 42
3.0
 43
3.0
 50
270.0
  0
ENDBLK
  5
226
100
AcDbEntity
  8
0
  6
BYBLOCK
 62
0
100
AcDbBlockEnd
  0
BLOCK
  5
227
100
AcDbEntity
  8
0
100
AcDbBlockBegin
 62
7
  6
CONTINUOUS
  2
*D1
 70
65
 10
0.0
 20
0.0
  3
*D1
  1

  0
MTEXT
  5
228
100
AcDbEntity
  8
0
100
AcDbMText
 62
7
  6
CONTINUOUS
  7
STANDARD
 71
2
 72
1
 10
-0.0
 20
61.45
 30
0.0
 11
1.0
 21
0.0
 31
0.0
 44
0.9
  1
95,4
 40
3.0
 41
8.5714285714
  0
LINE
  5
229
100
AcDbEntity
  8
0
100
AcDbLine
 62
7
  6
CONTINUOUS
 10
47.7
 20
47.2
 11
47.7
 21
59.2
  0
LINE
  5
22A
100
AcDbEntity
  8
0
100
AcDbLine
 62
7
  6
CONTINUOUS
 10
-47.7
 20
47.2
 11
-47.7
 21
59.2
  0
LINE
  5
22B
100
AcDbEntity
  8
0
100
AcDbLine
 62
7
  6
CONTINUOUS
 10
47.7
 20
57.7
 11
-0.0
 21
57.7
  0
LINE
  5
22C
100
AcDbEntity
  8
0
100
AcDbLine
 62
7
  6
CONTINUOUS
 10
-47.7
 20
57.7
 11
-0.0
 21
57.7
  0
INSERT
  5
22D
100
AcDbEntity
  8
0
100
AcDbBlockReference
 62
7
  6
CONTINUOUS
  2
_FILLED
 10
47.7
 20
57.7
 41
3.0
 42
3.0
 43
3.0
 50
0.0
  0
INSERT
  5
22E
100
AcDbEntity
  8
0
100
AcDbBlockReference
 62
7
  6
CONTINUOUS
  2
_FILLED
 10
-47.7
 20
57.7
 41
3.0
 42
3.0
 43
3.0
 50
180.0
  0
ENDBLK
  5
22F
100
AcDbEntity
  8
0
  6
BYBLOCK
 62
0
100
AcDbBlockEnd
  0
BLOCK
  5
230
100
AcDbEntity
  8
0
100
AcDbBlockBegin
 62
7
  6
CONTINUOUS
  2
*D2
 70
65
 10
0.0
 20
0.0
  3
*D2
  1

  0
MTEXT
  5
231
100
AcDbEntity
  8
0
100
AcDbMText
 62
7
  6
CONTINUOUS
  7
STANDARD
 71
3
 72
1
 10
-84.1414016825
 20
61.45
 30
0.0
 11
1.0
 21
0.0
 31
0.0
 44
0.9
  1
8,6
 40
3.0
 41
6.4285714286
  0
LINE
  5
232
100
AcDbEntity
  8
0
100
AcDbLine
 62
7
  6
CONTINUOUS
 10
-74.9496161642
 20
46.65
 11
-74.9496161642
 21
59.2
  0
LINE
  5
233
100
AcDbEntity
  8
0
100
AcDbLine
 62
7
  6
CONTINUOUS
 10
-83.5496161642
 20
26.052013795
 11
-83.5496161642
 21
59.2
  0
LINE
  5
234
100
AcDbEntity
  8
0
100
AcDbLine
 62
7
  6
CONTINUOUS
 10
-74.9496161642
 20
57.7
 11
-79.2496161642
 21
57.7
  0
LINE
  5
235
100
AcDbEntity
  8
0
100
AcDbLine
 62
7
  6
CONTINUOUS
 10
-83.5496161642
 20
57.7
 11
-79.2496161642
 21
57.7
  0
LINE
  5
236
100
AcDbEntity
  8
0
100
AcDbLine
 62
7
  6
CONTINUOUS
 10
-79.2496161642
 20
57.7
 11
-90.5699731111
 21
57.7
  0
INSERT
  5
237
100
AcDbEntity
  8
0
100
AcDbBlockReference
 62
7
  6
CONTINUOUS
  2
_FILLED
 10
-74.9496161642
 20
57.7
 41
3.0
 42
3.0
 43
3.0
  0
INSERT
  5
238
100
AcDbEntity
  8
0
100
AcDbBlockReference
 62
7
  6
CONTINUOUS
  2
_FILLED
 10
-83.5496161642
 20
57.7
 41
3.0
 42
3.0
 43
3.0
 50
180.0
  0
ENDBLK
  5
239
100
AcDbEntity
  8
0
  6
BYBLOCK
 62
0
100
AcDbBlockEnd
  0
BLOCK
  5
23A
100
AcDbEntity
  8
0
100
AcDbBlockBegin
 62
7
  6
CONTINUOUS
  2
*D3
 70
65
 10
0.0
 20
0.0
  3
*D3
  1

  0
MTEXT
  5
23B
100
AcDbEntity
  8
0
100
AcDbMText
 62
7
  6
CONTINUOUS
  7
STANDARD
 71
3
 72
1
 10
-83.8172578393
 20
69.45
 30
0.0
 11
1.0
 21
0.0
 31
0.0
 44
0.9
  1
10,3
 40
3.0
 41
7.9285714286
  0
LINE
  5
23C
100
AcDbEntity
  8
0
100
AcDbLine
 62
7
  6
CONTINUOUS
 10
-83.5496161642
 20
26.052013795
 11
-83.5496161642
 21
67.2
  0
LINE
  5
23D
100
AcDbEntity
  8
0
100
AcDbLine
 62
7
  6
CONTINUOUS
 10
-73.2496161642
 20
26.4897929133
 11
-73.2496161642
 21
67.2
  0
LINE
  5
23E
100
AcDbEntity
  8
0
100
AcDbLine
 62
7
  6
CONTINUOUS
 10
-83.5496161642
 20
65.7
 11
-78.3996161642
 21
65.7
  0
LINE
  5
23F
100
AcDbEntity
  8
0
100
AcDbLine
 62
7
  6
CONTINUOUS
 10
-78.3996161642
 20
65.7
 11
-91.7458292679
 21
65.7
  0
LINE
  5
240
100
AcDbEntity
  8
0
100
AcDbLine
 62
7
  6
CONTINUOUS
 10
-73.2496161642
 20
65.7
 11
-78.3996161642
 21
65.7
  0
INSERT
  5
241
100
AcDbEntity
  8
0
100
AcDbBlockReference
 62
7
  6
CONTINUOUS
  2
_FILLED
 10
-83.5496161642
 20
65.7
 41
3.0
 42
3.0
 43
3.0
 50
180.0
  0
INSERT
  5
242
100
AcDbEntity
  8
0
100
AcDbBlockReference
 62
7
  6
CONTINUOUS
  2
_FILLED
 10
-73.2496161642
 20
65.7
 41
3.0
 42
3.0
 43
3.0
  0
ENDBLK
  5
243
100
AcDbEntity
  8
0
  6
BYBLOCK
 62
0
100
AcDbBlockEnd
  0
ENDSEC
  0
SECTION
  2
ENTITIES
  0
DIMENSION
  5
244
100
AcDbEntity
  8
0
100
AcDbDimension
 62
7
  6
CONTINUOUS
  2
*D0
 10
57.7
 20
-47.7
 11
57.3703154977
 21
-3.8314142726
 70
160
 71
2
 42
95.4
  3
DIMSTYLE_1
100
AcDbAlignedDimension
 13
47.8510397538
 23
47.7
 14
47.9243635584
 24
-47.7
 50
270.0
100
AcDbRotatedDimension
  0
DIMENSION
  5
245
100
AcDbEntity
  8
0
100
AcDbDimension
 62
7
  6
CONTINUOUS
  2
*D1
 10
-47.7
 20
57.7
 11
-4.2857142857
 21
59.95
 70
160
 71
2
 42
95.4
  3
DIMSTYLE_1
100
AcDbAlignedDimension
 13
47.7
 23
47.2
 14
-47.7
 24
47.2
 50
180.0
100
AcDbRotatedDimension
  0
DIMENSION
  5
246
100
AcDbEntity
  8
0
100
AcDbDimension
 62
7
  6
CONTINUOUS
  2
*D2
 10
-83.5496161642
 20
57.7
 11
-93.7842588254
 21
59.95
 70
160
 71
3
 42
8.6
  3
DIMSTYLE_1
100
AcDbAlignedDimension
 13
-74.9496161642
 23
46.65
 14
-83.5496161642
 24
26.052013795
 50
180.0
100
AcDbRotatedDimension
  0
DIMENSION
  5
247
100
AcDbEntity
  8
0
100
AcDbDimension
 62
7
  6
CONTINUOUS
  2
*D3
 10
-73.2496161642
 20
65.7
 11
-95.7101149822
 21
67.95
 70
160
 71
3
 42
10.3
  3
DIMSTYLE_1
100
AcDbAlignedDimension
 13
-83.5496161642
 23
26.052013795
 14
-73.2496161642
 24
26.4897929133
100
AcDbRotatedDimension
  0
LINE
  5
248
100
AcDbEntity
  8
SMUSSO
100
AcDbLine
 62
7
  6
CONTINUOUS
 10
-47.7
 20
46.7
 11
-47.7
 21
-46.7
  0
LINE
  5
249
100
AcDbEntity
  8
SMUSSO
100
AcDbLine
 62
7
  6
CONTINUOUS
 10
-46.7
 20
-47.7
 11
46.7
 21
-47.7
  0
LINE
  5
24A
100
AcDbEntity
  8
SMUSSO
100
AcDbLine
 62
7
  6
CONTINUOUS
 10
-41.7
 20
41.7
 11
-41.7
 21
-41.7
  0
LINE
  5
24B
100
AcDbEntity
  8
SMUSSO
100
AcDbLine
 62
7
  6
CONTINUOUS
 10
-41.7
 20
-41.7
 11
41.7
 21
-41.7
  0
LINE
  5
24C
100
AcDbEntity
  8
RACCORDO
100
AcDbLine
 62
7
  6
CONTINUOUS
 10
-25.9089805974
 20
-25.5590872108
 11
-25.9089805974
 21
25.5590872108
  0
LINE
  5
24D
100
AcDbEntity
  8
RACCORDO
100
AcDbLine
 62
253
  6
CONTINUOUS
 10
-25.9019071816
 20
25.552013795
 11
-25.9019071816
 21
-25.552013795
  0
LINE
  5
24E
100
AcDbEntity
  8
RACCORDO
100
AcDbLine
 62
253
  6
CONTINUOUS
 10
-25.601952873
 20
25.552013795
 11
-25.601952873
 21
-25.5552429259
  0
LINE
  5
24F
100
AcDbEntity
  8
RACCORDO
100
AcDbLine
 62
253
  6
CONTINUOUS
 10
-25.202013793
 20
26.2519071816
 11
-25.202013795
 21
25.951952873
  0
LINE
  5
250
100
AcDbEntity
  8
RACCORDO
100
AcDbLine
 62
253
  6
CONTINUOUS
 10
-25.2020137936
 20
-26.2519071816
 11
-25.202013795
 21
-25.951952873
  0
LINE
  5
251
100
AcDbEntity
  8
RACCORDO
100
AcDbLine
 62
253
  6
CONTINUOUS
 10
-23.2014857566
 20
-22.828226657
 11
-23.2014857566
 21
22.828226657
  0
LINE
  5
252
100
AcDbEntity
  8
RACCORDO
100
AcDbLine
 62
253
  6
CONTINUOUS
 10
-22.9060434307
 20
-22.8282269838
 11
-22.9060434307
 21
22.8282269714
  0
LINE
  5
253
100
AcDbEntity
  8
RACCORDO
100
AcDbLine
 62
253
  6
CONTINUOUS
 10
-22.656833204
 20
22.2993589244
 11
-22.656833204
 21
-22.2993589244
  0
LINE
  5
254
100
AcDbEntity
  8
RACCORDO
100
AcDbLine
 62
253
  6
CONTINUOUS
 10
-22.6493132329
 20
22.2993589244
 11
-22.6493132329
 21
-22.2993589244
  0
LINE
  5
255
100
AcDbEntity
  8
RACCORDO
100
AcDbLine
 62
7
  6
CONTINUOUS
 10
-22.6412724675
 20
-22.291318159
 11
-22.6412724675
 21
22.291318159
  0
LINE
  5
256
100
AcDbEntity
  8
RACCORDO
100
AcDbLine
 62
253
  6
CONTINUOUS
 10
-22.628414217
 20
23.4288116597
 11
-22.628414217
 21
23.1469038735
  0
LINE
  5
257
100
AcDbEntity
  8
RACCORDO
100
AcDbLine
 62
253
  6
CONTINUOUS
 10
-22.628414217
 20
-23.4288116597
 11
-22.628414217
 21
-23.1469038735
  0
LINE
  5
258
100
AcDbEntity
  8
RACCORDO
100
AcDbLine
 62
253
  6
CONTINUOUS
 10
-22.3485854258
 20
22.5985397344
 11
-22.3485854225
 21
22.6286172708
  0
LINE
  5
259
100
AcDbEntity
  8
RACCORDO
100
AcDbLine
 62
253
  6
CONTINUOUS
 10
-22.3485854258
 20
-22.5985397344
 11
-22.3485854258
 21
-22.6286172716
  0
LINE
  5
25A
100
AcDbEntity
  8
RACCORDO
100
AcDbLine
 62
7
  6
CONTINUOUS
 10
25.2090872108
 20
-26.2589805974
 11
-25.2090872108
 21
-26.2589805974
  0
LINE
  5
25B
100
AcDbEntity
  8
RACCORDO
100
AcDbLine
 62
253
  6
CONTINUOUS
 10
-25.202013795
 20
-26.2519071816
 11
25.202013795
 21
-26.2519071816
  0
LINE
  5
25C
100
AcDbEntity
  8
RACCORDO
100
AcDbLine
 62
253
  6
CONTINUOUS
 10
-25.202013795
 20
-25.951952873
 11
25.202013795
 21
-25.951952873
  0
LINE
  5
25D
100
AcDbEntity
  8
0
100
AcDbLine
 62
7
  6
CONTINUOUS
 10
-3.446727
 20
-25.765174
 11
-3.060461
 21
-25.765174
  0
LINE
  5
25E
100
AcDbEntity
  8
0
100
AcDbLine
 62
7
  6
CONTINUOUS
 10
-2.222834
 20
-25.765174
 11
-1.784518
 21
-25.765174
  0
LINE
  5
25F
100
AcDbEntity
  8
0
100
AcDbLine
 62
7
  6
CONTINUOUS
 10
-1.548559
 20
-25.765174
 11
-1.129234
 21
-25.765174
  0
LINE
  5
260
100
AcDbEntity
  8
0
100
AcDbLine
 62
7
  6
CONTINUOUS
 10
-0.520448
 20
-25.765174
 11
-0.458975
 21
-25.765174
  0
LINE
  5
261
100
AcDbEntity
  8
0
100
AcDbLine
 62
7
  6
CONTINUOUS
 10
0.152236
 20
-25.765174
 11
0.581025
 21
-25.765174
  0
LINE
  5
262
100
AcDbEntity
  8
0
100
AcDbLine
 62
7
  6
CONTINUOUS
 10
0.649852
 20
-25.765174
 11
1.083412
 21
-25.765174
  0
LINE
  5
263
100
AcDbEntity
  8
0
100
AcDbLine
 62
7
  6
CONTINUOUS
 10
1.91482
 20
-25.765174
 11
2.376786
 21
-25.765174
  0
LINE
  5
264
100
AcDbEntity
  8
0
100
AcDbLine
 62
7
  6
CONTINUOUS
 10
2.505496876
 20
-25.7651743977
 11
2.9420487595
 21
-25.7651743977
  0
LINE
  5
265
100
AcDbEntity
  8
0
100
AcDbLine
 62
7
  6
CONTINUOUS
 10
3.613268538
 20
-25.7651743977
 11
4.0348771327
 21
-25.7651743977
  0
LINE
  5
266
100
AcDbEntity
  8
RACCORDO
100
AcDbLine
 62
253
  6
CONTINUOUS
 10
-25.9019071816
 20
-25.552013793
 11
-25.601952873
 21
-25.552013795
  0
LINE
  5
267
100
AcDbEntity
  8
RACCORDO
100
AcDbLine
 62
253
  6
CONTINUOUS
 10
25.9019071816
 20
-25.5520137936
 11
25.601952873
 21
-25.552013795
  0
LINE
  5
268
100
AcDbEntity
  8
0
100
AcDbLine
 62
7
  6
CONTINUOUS
 10
1.20436
 20
-25.345975
 11
1.801273
 21
-25.345975
  0
LINE
  5
269
100
AcDbEntity
  8
0
100
AcDbLine
 62
7
  6
CONTINUOUS
 10
1.713676
 20
-25.0216
 11
1.29402
 21
-25.0216
  0
LINE
  5
26A
100
AcDbEntity
  8
0
100
AcDbLine
 62
7
  6
CONTINUOUS
 10
2.9420487595
 20
-24.943419487
 11
3.1770630743
 21
-24.943419487
  0
LINE
  5
26B
100
AcDbEntity
  8
0
100
AcDbLine
 62
7
  6
CONTINUOUS
 10
3.1780078554
 20
-24.5995191431
 11
2.927514876
 21
-24.5995191431
  0
LINE
  5
26C
100
AcDbEntity
  8
0
100
AcDbLine
 62
7
  6
CONTINUOUS
 10
1.732508
 20
-23.665351
 11
1.308491
 21
-23.665351
  0
LINE
  5
26D
100
AcDbEntity
  8
0
100
AcDbLine
 62
7
  6
CONTINUOUS
 10
0.384668
 20
-23.665351
 11
-0.049002
 21
-23.665351
  0
LINE
  5
26E
100
AcDbEntity
  8
0
100
AcDbLine
 62
7
  6
CONTINUOUS
 10
-0.921004
 20
-23.665351
 11
-1.358957
 21
-23.665351
  0
LINE
  5
26F
100
AcDbEntity
  8
0
100
AcDbLine
 62
7
  6
CONTINUOUS
 10
-2.385493
 20
-23.665351
 11
-2.82351
 21
-23.665351
  0
LINE
  5
270
100
AcDbEntity
  8
0
100
AcDbLine
 62
7
  6
CONTINUOUS
 10
-3.636266
 20
-23.665351
 11
-4.112412
 21
-23.665351
  0
LINE
  5
271
100
AcDbEntity
  8
0
100
AcDbLine
 62
7
  6
CONTINUOUS
 10
-1.784518
 20
-23.665225
 11
-2.222834
 21
-23.665225
  0
LINE
  5
272
100
AcDbEntity
  8
RACCORDO
100
AcDbLine
 62
253
  6
CONTINUOUS
 10
22.628414217
 20
-23.4288116597
 11
-22.628414217
 21
-23.4288116597
  0
LINE
  5
273
100
AcDbEntity
  8
RACCORDO
100
AcDbLine
 62
253
  6
CONTINUOUS
 10
22.6284013657
 20
-23.1469038735
 11
-22.6284353188
 21
-23.1469038735
  0
LINE
  5
274
100
AcDbEntity
  8
RACCORDO
100
AcDbLine
 62
253
  6
CONTINUOUS
 10
-23.2014857566
 20
-22.828226657
 11
-22.9060434307
 21
-22.828226657
  0
LINE
  5
275
100
AcDbEntity
  8
RACCORDO
100
AcDbLine
 62
253
  6
CONTINUOUS
 10
23.2014857566
 20
-22.828226657
 11
22.9060434307
 21
-22.8282266572
  0
LINE
  5
276
100
AcDbEntity
  8
RACCORDO
100
AcDbLine
 62
253
  6
CONTINUOUS
 10
-22.3485854258
 20
-22.6286172716
 11
22.3485854258
 21
-22.6286172716
  0
LINE
  5
277
100
AcDbEntity
  8
RACCORDO
100
AcDbLine
 62
253
  6
CONTINUOUS
 10
-22.3485854258
 20
-22.5985397344
 11
22.3485854258
 21
-22.5985397344
  0
LINE
  5
278
100
AcDbEntity
  8
RACCORDO
100
AcDbLine
 62
7
  6
CONTINUOUS
 10
22.341318159
 20
-22.5912724675
 11
-22.341318159
 21
-22.5912724675
  0
LINE
  5
279
100
AcDbEntity
  8
RACCORDO
100
AcDbLine
 62
253
  6
CONTINUOUS
 10
22.6493132329
 20
-22.2993589244
 11
22.656833204
 21
-22.2993589244
  0
LINE
  5
27A
100
AcDbEntity
  8
RACCORDO
100
AcDbLine
 62
253
  6
CONTINUOUS
 10
-22.6493132329
 20
-22.2993589244
 11
-22.656833204
 21
-22.2993589244
  0
LINE
  5
27B
100
AcDbEntity
  8
RACCORDO
100
AcDbLine
 62
253
  6
CONTINUOUS
 10
-22.6284353188
 20
-23.1469038735
 11
-22.3772146559
 21
-22.6280795012
  0
LINE
  5
27C
100
AcDbEntity
  8
RACCORDO
100
AcDbLine
 62
253
  6
CONTINUOUS
 10
-22.9060434307
 20
-22.8282269838
 11
-22.6566937466
 21
-22.3135245816
  0
LINE
  5
27D
100
AcDbEntity
  8
RACCORDO
100
AcDbLine
 62
253
  6
CONTINUOUS
 10
-22.6566937466
 20
22.3135245816
 11
-22.9060434307
 21
22.8282269714
  0
LINE
  5
27E
100
AcDbEntity
  8
RACCORDO
100
AcDbLine
 62
253
  6
CONTINUOUS
 10
-22.3771423425
 20
22.6280816648
 11
-22.6284262722
 21
23.1469038735
  0
LINE
  5
27F
100
AcDbEntity
  8
0
100
AcDbLine
 62
7
  6
CONTINUOUS
 10
-1.034645
 20
-24.394029
 11
-0.520448
 21
-25.765174
  0
LINE
  5
280
100
AcDbEntity
  8
0
100
AcDbLine
 62
7
  6
CONTINUOUS
 10
-0.487318
 20
-24.831179
 11
-0.921004
 21
-23.665351
  0
LINE
  5
281
100
AcDbEntity
  8
0
100
AcDbLine
 62
7
  6
CONTINUOUS
 10
-4.112412
 20
-23.665351
 11
-3.446727
 21
-25.765174
  0
LINE
  5
282
100
AcDbEntity
  8
0
100
AcDbLine
 62
7
  6
CONTINUOUS
 10
-3.236001
 20
-25.110724
 11
-3.636266
 21
-23.665351
  0
LINE
  5
283
100
AcDbEntity
  8
0
100
AcDbLine
 62
7
  6
CONTINUOUS
 10
2.376786
 20
-25.765174
 11
1.732508
 21
-23.665351
  0
LINE
  5
284
100
AcDbEntity
  8
0
100
AcDbLine
 62
7
  6
CONTINUOUS
 10
1.801273
 20
-25.345975
 11
1.91482
 21
-25.765174
  0
LINE
  5
285
100
AcDbEntity
  8
0
100
AcDbLine
 62
7
  6
CONTINUOUS
 10
1.512264
 20
-24.242329
 11
1.713676
 21
-25.0216
  0
LINE
  5
286
100
AcDbEntity
  8
0
100
AcDbLine
 62
7
  6
CONTINUOUS
 10
0.581025
 20
-25.765174
 11
0.384668
 21
-23.665351
  0
LINE
  5
287
100
AcDbEntity
  8
0
100
AcDbLine
 62
7
  6
CONTINUOUS
 10
0.062183
 20
-24.399745
 11
0.152236
 21
-25.765174
  0
LINE
  5
288
100
AcDbEntity
  8
0
100
AcDbLine
 62
7
  6
CONTINUOUS
 10
-2.222834
 20
-23.665225
 11
-2.222834
 21
-25.765174
  0
LINE
  5
289
100
AcDbEntity
  8
0
100
AcDbLine
 62
7
  6
CONTINUOUS
 10
-1.784518
 20
-25.765174
 11
-1.784518
 21
-23.665225
  0
LINE
  5
28A
100
AcDbEntity
  8
RACCORDO
100
AcDbLine
 62
253
  6
CONTINUOUS
 10
25.202013795
 20
26.2519071816
 11
25.2090872108
 21
26.2589805974
  0
LINE
  5
28B
100
AcDbEntity
  8
RACCORDO
100
AcDbLine
 62
253
  6
CONTINUOUS
 10
-22.6493132329
 20
-22.2993589244
 11
-22.6412724675
 21
-22.291318159
  0
LINE
  5
28C
100
AcDbEntity
  8
RACCORDO
100
AcDbLine
 62
253
  6
CONTINUOUS
 10
-25.9019071816
 20
-25.552013795
 11
-25.9089805974
 21
-25.5590872108
  0
LINE
  5
28D
100
AcDbEntity
  8
RACCORDO
100
AcDbLine
 62
253
  6
CONTINUOUS
 10
22.3485854258
 20
22.5985397344
 11
22.341318159
 21
22.5912724675
  0
LINE
  5
28E
100
AcDbEntity
  8
SMUSSO
100
AcDbLine
 62
7
  6
CONTINUOUS
 10
47.4071067812
 20
47.4071067812
 11
41.7
 21
41.7
  0
LINE
  5
28F
100
AcDbEntity
  8
SMUSSO
100
AcDbLine
 62
7
  6
CONTINUOUS
 10
-41.7
 20
-41.7
 11
-47.4071067812
 21
-47.4071067812
  0
LINE
  5
290
100
AcDbEntity
  8
RACCORDO
100
AcDbLine
 62
253
  6
CONTINUOUS
 10
-22.3485854258
 20
-22.5985397344
 11
-22.341318159
 21
-22.5912724675
  0
LINE
  5
291
100
AcDbEntity
  8
RACCORDO
100
AcDbLine
 62
253
  6
CONTINUOUS
 10
25.9019071816
 20
25.552013795
 11
25.9089805974
 21
25.5590872108
  0
LINE
  5
292
100
AcDbEntity
  8
RACCORDO
100
AcDbLine
 62
253
  6
CONTINUOUS
 10
22.6493132329
 20
22.2993589244
 11
22.6412724675
 21
22.291318159
  0
LINE
  5
293
100
AcDbEntity
  8
RACCORDO
100
AcDbLine
 62
253
  6
CONTINUOUS
 10
25.202013795
 20
-26.2519071816
 11
25.2090872108
 21
-26.2589805974
  0
LINE
  5
294
100
AcDbEntity
  8
RACCORDO
100
AcDbLine
 62
253
  6
CONTINUOUS
 10
-22.6412724675
 20
22.291318159
 11
-22.6493132329
 21
22.2993589244
  0
LINE
  5
295
100
AcDbEntity
  8
RACCORDO
100
AcDbLine
 62
253
  6
CONTINUOUS
 10
-25.9019071816
 20
25.552013795
 11
-25.9089805974
 21
25.5590872108
  0
LINE
  5
296
100
AcDbEntity
  8
RACCORDO
100
AcDbLine
 62
253
  6
CONTINUOUS
 10
22.3485854258
 20
-22.5985397344
 11
22.341318159
 21
-22.5912724675
  0
LINE
  5
297
100
AcDbEntity
  8
SMUSSO
100
AcDbLine
 62
7
  6
CONTINUOUS
 10
-47.4071067812
 20
47.4071067812
 11
-41.7
 21
41.7
  0
LINE
  5
298
100
AcDbEntity
  8
SMUSSO
100
AcDbLine
 62
7
  6
CONTINUOUS
 10
47.4071067812
 20
-47.4071067812
 11
41.7
 21
-41.7
  0
LINE
  5
299
100
AcDbEntity
  8
RACCORDO
100
AcDbLine
 62
253
  6
CONTINUOUS
 10
-22.341318159
 20
22.5912724675
 11
-22.3485854258
 21
22.5985397344
  0
LINE
  5
29A
100
AcDbEntity
  8
RACCORDO
100
AcDbLine
 62
253
  6
CONTINUOUS
 10
25.9019071816
 20
-25.552013795
 11
25.9089805974
 21
-25.5590872108
  0
LINE
  5
29B
100
AcDbEntity
  8
RACCORDO
100
AcDbLine
 62
253
  6
CONTINUOUS
 10
22.6493132329
 20
-22.2993589244
 11
22.6412724675
 21
-22.291318159
  0
LINE
  5
29C
100
AcDbEntity
  8
0
100
AcDbLine
 62
7
  6
CONTINUOUS
 10
2.505496876
 20
-23.6898838377
 11
2.505496876
 21
-25.7651743977
  0
LINE
  5
29D
100
AcDbEntity
  8
0
100
AcDbLine
 62
7
  6
CONTINUOUS
 10
2.927514876
 20
-24.5995191431
 11
2.927514876
 21
-24.0230766618
  0
LINE
  5
29E
100
AcDbEntity
  8
0
100
AcDbLine
 62
7
  6
CONTINUOUS
 10
2.9420487595
 20
-25.7651743977
 11
2.9420487595
 21
-24.943419487
  0
LINE
  5
29F
100
AcDbEntity
  8
0
100
AcDbLine
 62
7
  6
CONTINUOUS
 10
3.6323846102
 20
-24.784995432
 11
3.6323846102
 21
-24.7725873061
  0
LINE
  5
2A0
100
AcDbEntity
  8
0
100
AcDbLine
 62
7
  6
CONTINUOUS
 10
-1.129234
 20
-25.765174
 11
-1.034645
 21
-24.394029
  0
LINE
  5
2A1
100
AcDbEntity
  8
0
100
AcDbLine
 62
7
  6
CONTINUOUS
 10
-1.358957
 20
-23.665351
 11
-1.548559
 21
-25.765174
  0
LINE
  5
2A2
100
AcDbEntity
  8
0
100
AcDbLine
 62
7
  6
CONTINUOUS
 10
-2.82351
 20
-23.665351
 11
-3.236001
 21
-25.110724
  0
LINE
  5
2A3
100
AcDbEntity
  8
0
100
AcDbLine
 62
7
  6
CONTINUOUS
 10
-3.060461
 20
-25.765174
 11
-2.385493
 21
-23.665351
  0
LINE
  5
2A4
100
AcDbEntity
  8
RACCORDO
100
AcDbLine
 62
253
  6
CONTINUOUS
 10
-25.202013795
 20
-26.2519071816
 11
-25.2090872108
 21
-26.2589805974
  0
LINE
  5
2A5
100
AcDbEntity
  8
RACCORDO
100
AcDbLine
 62
253
  6
CONTINUOUS
 10
-25.202013795
 20
26.2519071816
 11
-25.2090872108
 21
26.2589805974
  0
LINE
  5
2A6
100
AcDbEntity
  8
0
100
AcDbLine
 62
7
  6
CONTINUOUS
 10
1.29402
 20
-25.0216
 11
1.512264
 21
-24.242329
  0
LINE
  5
2A7
100
AcDbEntity
  8
0
100
AcDbLine
 62
7
  6
CONTINUOUS
 10
1.083412
 20
-25.765174
 11
1.20436
 21
-25.345975
  0
LINE
  5
2A8
100
AcDbEntity
  8
0
100
AcDbLine
 62
7
  6
CONTINUOUS
 10
1.308491
 20
-23.665351
 11
0.649852
 21
-25.765174
  0
LINE
  5
2A9
100
AcDbEntity
  8
0
100
AcDbLine
 62
7
  6
CONTINUOUS
 10
-0.049002
 20
-23.665351
 11
-0.487318
 21
-24.831179
  0
LINE
  5
2AA
100
AcDbEntity
  8
0
100
AcDbLine
 62
7
  6
CONTINUOUS
 10
-0.458975
 20
-25.765174
 11
0.062183
 21
-24.399745
  0
LINE
  5
2AB
100
AcDbEntity
  8
RACCORDO
100
AcDbLine
 62
253
  6
CONTINUOUS
 10
22.6284353188
 20
23.1469038735
 11
22.3772146559
 21
22.6280795012
  0
LINE
  5
2AC
100
AcDbEntity
  8
RACCORDO
100
AcDbLine
 62
253
  6
CONTINUOUS
 10
22.9060434307
 20
22.8282269838
 11
22.6566937466
 21
22.3135245816
  0
LINE
  5
2AD
100
AcDbEntity
  8
RACCORDO
100
AcDbLine
 62
253
  6
CONTINUOUS
 10
22.6284013657
 20
-23.1469038735
 11
22.3771335433
 21
-22.6280818718
  0
LINE
  5
2AE
100
AcDbEntity
  8
RACCORDO
100
AcDbLine
 62
253
  6
CONTINUOUS
 10
22.9060434307
 20
-22.8282584332
 11
22.6566937465
 21
-22.3135245877
  0
LINE
  5
2AF
100
AcDbEntity
  8
RACCORDO
100
AcDbLine
 62
253
  6
CONTINUOUS
 10
22.3485854258
 20
22.5985397344
 11
22.3485854258
 21
22.6286172716
  0
LINE
  5
2B0
100
AcDbEntity
  8
RACCORDO
100
AcDbLine
 62
253
  6
CONTINUOUS
 10
22.3485854258
 20
-22.5985397344
 11
22.3485854232
 21
-22.6286172712
  0
LINE
  5
2B1
100
AcDbEntity
  8
RACCORDO
100
AcDbLine
 62
253
  6
CONTINUOUS
 10
22.628414217
 20
23.4288116597
 11
22.628414217
 21
23.1469038735
  0
LINE
  5
2B2
100
AcDbEntity
  8
RACCORDO
100
AcDbLine
 62
253
  6
CONTINUOUS
 10
22.628414217
 20
-23.4288116597
 11
22.628414217
 21
-23.1469038735
  0
LINE
  5
2B3
100
AcDbEntity
  8
RACCORDO
100
AcDbLine
 62
7
  6
CONTINUOUS
 10
22.6412724675
 20
22.291318159
 11
22.6412724675
 21
-22.291318159
  0
LINE
  5
2B4
100
AcDbEntity
  8
RACCORDO
100
AcDbLine
 62
253
  6
CONTINUOUS
 10
22.6493132329
 20
-22.2993589244
 11
22.6493132329
 21
22.2993589244
  0
LINE
  5
2B5
100
AcDbEntity
  8
RACCORDO
100
AcDbLine
 62
253
  6
CONTINUOUS
 10
22.656833204
 20
-22.2993589244
 11
22.656833204
 21
22.2993589244
  0
LINE
  5
2B6
100
AcDbEntity
  8
RACCORDO
100
AcDbLine
 62
253
  6
CONTINUOUS
 10
22.9060434307
 20
22.8282269838
 11
22.9060434307
 21
-22.8282584332
  0
LINE
  5
2B7
100
AcDbEntity
  8
RACCORDO
100
AcDbLine
 62
253
  6
CONTINUOUS
 10
22.6493132329
 20
22.2993589244
 11
22.656833204
 21
22.2993589244
  0
LINE
  5
2B8
100
AcDbEntity
  8
RACCORDO
100
AcDbLine
 62
253
  6
CONTINUOUS
 10
-22.6493132329
 20
22.2993589244
 11
-22.656833204
 21
22.2993589244
  0
LINE
  5
2B9
100
AcDbEntity
  8
RACCORDO
100
AcDbLine
 62
7
  6
CONTINUOUS
 10
-22.341318159
 20
22.5912724675
 11
22.341318159
 21
22.5912724675
  0
LINE
  5
2BA
100
AcDbEntity
  8
RACCORDO
100
AcDbLine
 62
253
  6
CONTINUOUS
 10
22.3485854258
 20
22.5985397344
 11
-22.3485854258
 21
22.5985397344
  0
LINE
  5
2BB
100
AcDbEntity
  8
RACCORDO
100
AcDbLine
 62
253
  6
CONTINUOUS
 10
22.3485854258
 20
22.6286172716
 11
-22.3485854258
 21
22.6286172716
  0
LINE
  5
2BC
100
AcDbEntity
  8
RACCORDO
100
AcDbLine
 62
253
  6
CONTINUOUS
 10
-23.2014857566
 20
22.828226657
 11
-22.9060434307
 21
22.828226657
  0
LINE
  5
2BD
100
AcDbEntity
  8
RACCORDO
100
AcDbLine
 62
253
  6
CONTINUOUS
 10
23.2014857566
 20
22.828226657
 11
22.9060434307
 21
22.828226657
  0
LINE
  5
2BE
100
AcDbEntity
  8
RACCORDO
100
AcDbLine
 62
253
  6
CONTINUOUS
 10
23.2014857566
 20
22.828226657
 11
23.2014857566
 21
-22.828226657
  0
LINE
  5
2BF
100
AcDbEntity
  8
RACCORDO
100
AcDbLine
 62
253
  6
CONTINUOUS
 10
25.2020137936
 20
26.2519071816
 11
25.202013795
 21
25.951952873
  0
LINE
  5
2C0
100
AcDbEntity
  8
RACCORDO
100
AcDbLine
 62
253
  6
CONTINUOUS
 10
25.202013793
 20
-26.2519071816
 11
25.202013795
 21
-25.951952873
  0
LINE
  5
2C1
100
AcDbEntity
  8
RACCORDO
100
AcDbLine
 62
253
  6
CONTINUOUS
 10
25.601952873
 20
-25.552013795
 11
25.601952873
 21
25.552013795
  0
LINE
  5
2C2
100
AcDbEntity
  8
RACCORDO
100
AcDbLine
 62
253
  6
CONTINUOUS
 10
25.9019071816
 20
-25.552013795
 11
25.9019071816
 21
25.552013795
  0
LINE
  5
2C3
100
AcDbEntity
  8
RACCORDO
100
AcDbLine
 62
7
  6
CONTINUOUS
 10
25.9089805974
 20
25.5590872108
 11
25.9089805974
 21
-25.5590872108
  0
LINE
  5
2C4
100
AcDbEntity
  8
RACCORDO
100
AcDbLine
 62
253
  6
CONTINUOUS
 10
-22.6284262722
 20
23.1469038735
 11
22.6284353188
 21
23.1469038735
  0
LINE
  5
2C5
100
AcDbEntity
  8
RACCORDO
100
AcDbLine
 62
253
  6
CONTINUOUS
 10
-22.628414217
 20
23.4288116597
 11
22.628414217
 21
23.4288116597
  0
LINE
  5
2C6
100
AcDbEntity
  8
RACCORDO
100
AcDbLine
 62
253
  6
CONTINUOUS
 10
-25.9019071816
 20
25.5520137936
 11
-25.601952873
 21
25.552013795
  0
LINE
  5
2C7
100
AcDbEntity
  8
RACCORDO
100
AcDbLine
 62
253
  6
CONTINUOUS
 10
25.9019071816
 20
25.552013793
 11
25.601952873
 21
25.552013795
  0
LINE
  5
2C8
100
AcDbEntity
  8
RACCORDO
100
AcDbLine
 62
253
  6
CONTINUOUS
 10
25.202013795
 20
25.951952873
 11
-25.2052429281
 21
25.951952873
  0
LINE
  5
2C9
100
AcDbEntity
  8
RACCORDO
100
AcDbLine
 62
253
  6
CONTINUOUS
 10
25.202013795
 20
26.2519071816
 11
-25.202013795
 21
26.2519071816
  0
LINE
  5
2CA
100
AcDbEntity
  8
RACCORDO
100
AcDbLine
 62
7
  6
CONTINUOUS
 10
-25.2090872108
 20
26.2589805974
 11
25.2090872108
 21
26.2589805974
  0
LINE
  5
2CB
100
AcDbEntity
  8
SMUSSO
100
AcDbLine
 62
7
  6
CONTINUOUS
 10
41.7
 20
-41.7
 11
41.7
 21
41.7
  0
LINE
  5
2CC
100
AcDbEntity
  8
SMUSSO
100
AcDbLine
 62
7
  6
CONTINUOUS
 10
41.7
 20
41.7
 11
-41.7
 21
41.7
  0
LINE
  5
2CD
100
AcDbEntity
  8
SMUSSO
100
AcDbLine
 62
7
  6
CONTINUOUS
 10
47.7
 20
-46.7
 11
47.7
 21
46.7
  0
LINE
  5
2CE
100
AcDbEntity
  8
SMUSSO
100
AcDbLine
 62
7
  6
CONTINUOUS
 10
46.7
 20
47.7
 11
-46.7
 21
47.7
  0
LINE
  5
2CF
100
AcDbEntity
  8
SMUSSO
100
AcDbLine
 62
7
  6
CONTINUOUS
 10
-80.8496161642
 20
-47.7
 11
-79.3496161642
 21
-47.7
  0
LINE
  5
2D0
100
AcDbEntity
  8
DRAFT
100
AcDbLine
 62
7
  6
CONTINUOUS
 10
-78.3413642829
 20
-47.6082518813
 11
-75.9496161642
 21
-47.65
  0
LINE
  5
2D1
100
AcDbEntity
  8
SMUSSO
100
AcDbLine
 62
253
  6
CONTINUOUS
 10
-78.8496161642
 20
-46.7
 11
-80.8496161642
 21
-46.7
  0
LINE
  5
2D2
100
AcDbEntity
  8
DRAFT
100
AcDbLine
 62
253
  6
CONTINUOUS
 10
-74.9496161642
 20
-46.15
 11
-78.7996161642
 21
-46.15
  0
LINE
  5
2D3
100
AcDbEntity
  8
SMUSSO
100
AcDbLine
 62
7
  6
CONTINUOUS
 10
-78.7996161645
 20
47.1499999998
 11
-78.3413642829
 21
47.6082518813
  0
LINE
  5
2D4
100
AcDbEntity
  8
DRAFT
100
AcDbLine
 62
7
  6
CONTINUOUS
 10
-78.7996161642
 20
47.15
 11
-78.3413642829
 21
47.6082518813
  0
LINE
  5
2D5
100
AcDbEntity
  8
DRAFT
100
AcDbLine
 62
7
  6
CONTINUOUS
 10
-78.7996161642
 20
-47.15
 11
-78.3413642829
 21
-47.6082518813
  0
LINE
  5
2D6
100
AcDbEntity
  8
ASSI
100
AcDbLine
 62
7
  6
CONTINUOUS
 10
-73.2496161642
 20
-26.35
 11
-74.9496161642
 21
-26.3598903107
  0
LINE
  5
2D7
100
AcDbEntity
  8
DRAFT
100
AcDbLine
 62
7
  6
CONTINUOUS
 10
-74.9496161642
 20
-27.1459857386
 11
-73.2496161642
 21
-27.1430186759
  0
LINE
  5
2D8
100
AcDbEntity
  8
DRAFT
100
AcDbLine
 62
253
  6
CONTINUOUS
 10
-74.9496161642
 20
-26.8937435176
 11
-73.2496161642
 21
-26.8929755853
  0
LINE
  5
2D9
100
AcDbEntity
  8
0
100
AcDbLine
 62
7
  6
CONTINUOUS
 10
-83.5496161642
 20
-25.7651743977
 11
-83.7496161642
 21
-25.7651743977
  0
LINE
  5
2DA
100
AcDbEntity
  8
RACCORDO
100
AcDbLine
 62
253
  6
CONTINUOUS
 10
-83.2548518862
 20
-25.5520137936
 11
-83.5496161642
 21
-25.552013795
  0
LINE
  5
2DB
100
AcDbEntity
  8
ASSI
100
AcDbLine
 62
7
  6
CONTINUOUS
 10
-73.4496161642
 20
-25.2
 11
-74.9496161642
 21
-25.2
  0
LINE
  5
2DC
100
AcDbEntity
  8
0
100
AcDbLine
 62
253
  6
CONTINUOUS
 10
-83.5496161642
 20
-25.1968412881
 11
-83.7496161642
 21
-25.1968412881
  0
LINE
  5
2DD
100
AcDbEntity
  8
RACCORDO
100
AcDbLine
 62
7
  6
CONTINUOUS
 10
-83.2548518862
 20
-26.2519071816
 11
-82.8496161642
 21
-26.2589805974
  0
LINE
  5
2DE
100
AcDbEntity
  8
DRAFT
100
AcDbLine
 62
7
  6
CONTINUOUS
 10
-78.7996161642
 20
-25.8473817403
 11
-78.8496161642
 21
-25.846508987
  0
LINE
  5
2DF
100
AcDbEntity
  8
RACCORDO
100
AcDbLine
 62
7
  6
CONTINUOUS
 10
-78.8496161642
 20
-25.696508987
 11
-78.7996161642
 21
-25.6973817403
  0
LINE
  5
2E0
100
AcDbEntity
  8
RACCORDO
100
AcDbLine
 62
253
  6
CONTINUOUS
 10
-83.2548518862
 20
-25.552013795
 11
-82.8496161642
 21
-25.5590872108
  0
LINE
  5
2E1
100
AcDbEntity
  8
ASSI
100
AcDbLine
 62
7
  6
CONTINUOUS
 10
-73.439148973
 20
-25.7916264167
 11
-74.9496161642
 21
-25.7248937867
  0
LINE
  5
2E2
100
AcDbEntity
  8
ASSI
100
AcDbLine
 62
7
  6
CONTINUOUS
 10
-74.7996161642
 20
-25.05
 11
-74.5996161642
 21
-25.05
  0
LINE
  5
2E3
100
AcDbEntity
  8
ASSI
100
AcDbLine
 62
7
  6
CONTINUOUS
 10
-74.2996161642
 20
-25.05
 11
-74.0996161642
 21
-25.05
  0
LINE
  5
2E4
100
AcDbEntity
  8
ASSI
100
AcDbLine
 62
7
  6
CONTINUOUS
 10
-73.7996161642
 20
-25.05
 11
-73.5996161642
 21
-25.05
  0
LINE
  5
2E5
100
AcDbEntity
  8
0
100
AcDbLine
 62
7
  6
CONTINUOUS
 10
-83.5496161642
 20
-24.784995432
 11
-83.7496161642
 21
-24.784995432
  0
LINE
  5
2E6
100
AcDbEntity
  8
0
100
AcDbLine
 62
7
  6
CONTINUOUS
 10
-83.5496161642
 20
-24.7725873061
 11
-83.7496161642
 21
-24.7725873061
  0
LINE
  5
2E7
100
AcDbEntity
  8
0
100
AcDbLine
 62
253
  6
CONTINUOUS
 10
-83.5496161642
 20
-23.7119917169
 11
-83.7496161642
 21
-23.7119917169
  0
LINE
  5
2E8
100
AcDbEntity
  8
0
100
AcDbLine
 62
7
  6
CONTINUOUS
 10
-83.5496161642
 20
-23.6407136252
 11
-83.7496161642
 21
-23.6407136252
  0
LINE
  5
2E9
100
AcDbEntity
  8
RACCORDO
100
AcDbLine
 62
7
  6
CONTINUOUS
 10
-78.7996161642
 20
-22.0
 11
-78.8496161642
 21
-22.0
  0
LINE
  5
2EA
100
AcDbEntity
  8
RACCORDO
100
AcDbLine
 62
253
  6
CONTINUOUS
 10
-78.8496161642
 20
-24.3967069833
 11
-78.7996161642
 21
-24.3975797366
  0
LINE
  5
2EB
100
AcDbEntity
  8
RACCORDO
100
AcDbLine
 62
7
  6
CONTINUOUS
 10
-78.7996161642
 20
-21.0
 11
-78.8496161642
 21
-21.0
  0
LINE
  5
2EC
100
AcDbEntity
  8
SMUSSO
100
AcDbLine
 62
7
  6
CONTINUOUS
 10
-80.8496161642
 20
47.7
 11
-82.8496161642
 21
41.7
  0
LINE
  5
2ED
100
AcDbEntity
  8
SMUSSO
100
AcDbLine
 62
7
  6
CONTINUOUS
 10
-80.8496161642
 20
-47.7
 11
-82.8496161642
 21
-41.7
  0
LINE
  5
2EE
100
AcDbEntity
  8
ASSI
100
AcDbLine
 62
7
  6
CONTINUOUS
 10
-74.5996161642
 20
25.05
 11
-74.4496161642
 21
25.2
  0
LINE
  5
2EF
100
AcDbEntity
  8
ASSI
100
AcDbLine
 62
7
  6
CONTINUOUS
 10
-74.0996161642
 20
25.05
 11
-73.9496161642
 21
25.2
  0
LINE
  5
2F0
100
AcDbEntity
  8
ASSI
100
AcDbLine
 62
7
  6
CONTINUOUS
 10
-73.5996161642
 20
25.05
 11
-73.4496161642
 21
25.2
  0
LINE
  5
2F1
100
AcDbEntity
  8
RACCORDO
100
AcDbLine
 62
7
  6
CONTINUOUS
 10
-78.7996161642
 20
-14.0
 11
-78.8496161642
 21
-14.0
  0
LINE
  5
2F2
100
AcDbEntity
  8
RACCORDO
100
AcDbLine
 62
7
  6
CONTINUOUS
 10
-78.7996161642
 20
-13.0
 11
-78.8496161642
 21
-13.0
  0
LINE
  5
2F3
100
AcDbEntity
  8
ASSI
100
AcDbLine
 62
7
  6
CONTINUOUS
 10
-74.5996161642
 20
-25.05
 11
-74.4496161642
 21
-25.2
  0
LINE
  5
2F4
100
AcDbEntity
  8
ASSI
100
AcDbLine
 62
7
  6
CONTINUOUS
 10
-74.0996161642
 20
-25.05
 11
-73.9496161642
 21
-25.2
  0
LINE
  5
2F5
100
AcDbEntity
  8
ASSI
100
AcDbLine
 62
7
  6
CONTINUOUS
 10
-73.5996161642
 20
-25.05
 11
-73.4496161642
 21
-25.2
  0
LINE
  5
2F6
100
AcDbEntity
  8
RACCORDO
100
AcDbLine
 62
7
  6
CONTINUOUS
 10
-78.7996161642
 20
-9.2405834257
 11
-78.8496161642
 21
-9.2407559701
  0
LINE
  5
2F7
100
AcDbEntity
  8
RACCORDO
100
AcDbLine
 62
7
  6
CONTINUOUS
 10
-78.7996161642
 20
-10.7594165743
 11
-78.8496161642
 21
-10.7592440299
  0
LINE
  5
2F8
100
AcDbEntity
  8
0
100
AcDbLine
 62
7
  6
CONTINUOUS
 10
-83.7496161642
 20
-25.7651743977
 11
-83.7496161642
 21
-23.6407141835
  0
LINE
  5
2F9
100
AcDbEntity
  8
RACCORDO
100
AcDbLine
 62
7
  6
CONTINUOUS
 10
-83.5496161642
 20
-25.951952873
 11
-83.5496161642
 21
25.951952873
  0
LINE
  5
2FA
100
AcDbEntity
  8
RACCORDO
100
AcDbLine
 62
253
  6
CONTINUOUS
 10
-83.2548518862
 20
-25.552013795
 11
-83.2548518862
 21
25.552013795
  0
LINE
  5
2FB
100
AcDbEntity
  8
SMUSSO
100
AcDbLine
 62
7
  6
CONTINUOUS
 10
-82.8496161642
 20
-41.7
 11
-82.8496161642
 21
41.7
  0
LINE
  5
2FC
100
AcDbEntity
  8
SMUSSO
100
AcDbLine
 62
7
  6
CONTINUOUS
 10
-80.8496161642
 20
-46.7
 11
-80.8496161642
 21
46.7
  0
LINE
  5
2FD
100
AcDbEntity
  8
SMUSSO
100
AcDbLine
 62
7
  6
CONTINUOUS
 10
-79.3496161642
 20
47.7
 11
-79.3496161642
 21
-47.7
  0
LINE
  5
2FE
100
AcDbEntity
  8
SMUSSO
100
AcDbLine
 62
7
  6
CONTINUOUS
 10
-78.8496161642
 20
47.2
 11
-78.8496161642
 21
-47.2
  0
LINE
  5
2FF
100
AcDbEntity
  8
SMUSSO
100
AcDbLine
 62
7
  6
CONTINUOUS
 10
-78.7996161642
 20
-47.15
 11
-78.7996161642
 21
47.15
  0
LINE
  5
300
100
AcDbEntity
  8
DRAFT
100
AcDbLine
 62
7
  6
CONTINUOUS
 10
-78.3413642829
 20
-47.6082518813
 11
-78.3413642829
 21
47.6082518813
  0
LINE
  5
301
100
AcDbEntity
  8
DRAFT
100
AcDbLine
 62
7
  6
CONTINUOUS
 10
-75.9496161642
 20
47.65
 11
-75.9496161642
 21
-47.65
  0
LINE
  5
302
100
AcDbEntity
  8
SMUSSO
100
AcDbLine
 62
7
  6
CONTINUOUS
 10
-74.9496161642
 20
46.65
 11
-74.9496161642
 21
-46.65
  0
LINE
  5
303
100
AcDbEntity
  8
ASSI
100
AcDbLine
 62
253
  6
CONTINUOUS
 10
-73.439148973
 20
25.7916264167
 11
-73.439148973
 21
25.200274093
  0
LINE
  5
304
100
AcDbEntity
  8
ASSI
100
AcDbLine
 62
253
  6
CONTINUOUS
 10
-73.439148973
 20
-25.200274093
 11
-73.439148973
 21
-25.7916264167
  0
LINE
  5
305
100
AcDbEntity
  8
ASSI
100
AcDbLine
 62
7
  6
CONTINUOUS
 10
-73.2496161642
 20
-25.4
 11
-73.2496161642
 21
-26.35
  0
LINE
  5
306
100
AcDbEntity
  8
DRAFT
100
AcDbLine
 62
7
  6
CONTINUOUS
 10
-73.2496161642
 20
-26.35
 11
-73.2496161642
 21
-27.1430467116
  0
LINE
  5
307
100
AcDbEntity
  8
ASSI
100
AcDbLine
 62
7
  6
CONTINUOUS
 10
-73.2496161642
 20
25.4
 11
-73.2496161642
 21
26.35
  0
LINE
  5
308
100
AcDbEntity
  8
DRAFT
100
AcDbLine
 62
7
  6
CONTINUOUS
 10
-73.2496161642
 20
26.35
 11
-73.2496161642
 21
27.1430467116
  0
LINE
  5
309
100
AcDbEntity
  8
RACCORDO
100
AcDbLine
 62
7
  6
CONTINUOUS
 10
-78.7996161642
 20
9.2405834257
 11
-78.8496161642
 21
9.2407559701
  0
LINE
  5
30A
100
AcDbEntity
  8
RACCORDO
100
AcDbLine
 62
7
  6
CONTINUOUS
 10
-78.7996161642
 20
10.7594165743
 11
-78.8496161642
 21
10.7592440299
  0
LINE
  5
30B
100
AcDbEntity
  8
RACCORDO
100
AcDbLine
 62
7
  6
CONTINUOUS
 10
-78.7996161642
 20
13.0
 11
-78.8496161642
 21
13.0
  0
LINE
  5
30C
100
AcDbEntity
  8
RACCORDO
100
AcDbLine
 62
7
  6
CONTINUOUS
 10
-78.7996161642
 20
14.0
 11
-78.8496161642
 21
14.0
  0
LINE
  5
30D
100
AcDbEntity
  8
ASSI
100
AcDbLine
 62
7
  6
CONTINUOUS
 10
-74.9496161642
 20
-25.2
 11
-74.7996161642
 21
-25.05
  0
LINE
  5
30E
100
AcDbEntity
  8
ASSI
100
AcDbLine
 62
7
  6
CONTINUOUS
 10
-74.4496161642
 20
-25.2
 11
-74.2996161642
 21
-25.05
  0
LINE
  5
30F
100
AcDbEntity
  8
ASSI
100
AcDbLine
 62
7
  6
CONTINUOUS
 10
-73.9496161642
 20
-25.2
 11
-73.7996161642
 21
-25.05
  0
LINE
  5
310
100
AcDbEntity
  8
RACCORDO
100
AcDbLine
 62
7
  6
CONTINUOUS
 10
-78.7996161642
 20
21.0
 11
-78.8496161642
 21
21.0
  0
LINE
  5
311
100
AcDbEntity
  8
RACCORDO
100
AcDbLine
 62
7
  6
CONTINUOUS
 10
-78.7996161642
 20
22.0
 11
-78.8496161642
 21
22.0
  0
LINE
  5
312
100
AcDbEntity
  8
ASSI
100
AcDbLine
 62
7
  6
CONTINUOUS
 10
-74.9496161642
 20
25.2
 11
-74.7996161642
 21
25.05
  0
LINE
  5
313
100
AcDbEntity
  8
ASSI
100
AcDbLine
 62
7
  6
CONTINUOUS
 10
-74.4496161642
 20
25.2
 11
-74.2996161642
 21
25.05
  0
LINE
  5
314
100
AcDbEntity
  8
ASSI
100
AcDbLine
 62
7
  6
CONTINUOUS
 10
-73.9496161642
 20
25.2
 11
-73.7996161642
 21
25.05
  0
LINE
  5
315
100
AcDbEntity
  8
ASSI
100
AcDbLine
 62
7
  6
CONTINUOUS
 10
-73.439148973
 20
25.7916264167
 11
-74.9496161642
 21
25.7248937867
  0
LINE
  5
316
100
AcDbEntity
  8
RACCORDO
100
AcDbLine
 62
253
  6
CONTINUOUS
 10
-78.8496161642
 20
24.3967069833
 11
-78.7996161642
 21
24.3975797366
  0
LINE
  5
317
100
AcDbEntity
  8
RACCORDO
100
AcDbLine
 62
253
  6
CONTINUOUS
 10
-83.2548518862
 20
25.552013795
 11
-82.8496161642
 21
25.5590872108
  0
LINE
  5
318
100
AcDbEntity
  8
RACCORDO
100
AcDbLine
 62
7
  6
CONTINUOUS
 10
-78.8496161642
 20
25.696508987
 11
-78.7996161642
 21
25.6973817403
  0
LINE
  5
319
100
AcDbEntity
  8
DRAFT
100
AcDbLine
 62
7
  6
CONTINUOUS
 10
-78.7996161642
 20
25.8473817403
 11
-78.8496161642
 21
25.846508987
  0
LINE
  5
31A
100
AcDbEntity
  8
ASSI
100
AcDbLine
 62
7
  6
CONTINUOUS
 10
-74.7996161642
 20
25.05
 11
-74.5996161642
 21
25.05
  0
LINE
  5
31B
100
AcDbEntity
  8
ASSI
100
AcDbLine
 62
7
  6
CONTINUOUS
 10
-74.2996161642
 20
25.05
 11
-74.0996161642
 21
25.05
  0
LINE
  5
31C
100
AcDbEntity
  8
ASSI
100
AcDbLine
 62
7
  6
CONTINUOUS
 10
-73.7996161642
 20
25.05
 11
-73.5996161642
 21
25.05
  0
LINE
  5
31D
100
AcDbEntity
  8
ASSI
100
AcDbLine
 62
7
  6
CONTINUOUS
 10
-73.4496161642
 20
25.2
 11
-74.9496161642
 21
25.2
  0
LINE
  5
31E
100
AcDbEntity
  8
RACCORDO
100
AcDbLine
 62
253
  6
CONTINUOUS
 10
-83.2548518862
 20
25.552013793
 11
-83.5496161642
 21
25.552013795
  0
LINE
  5
31F
100
AcDbEntity
  8
RACCORDO
100
AcDbLine
 62
7
  6
CONTINUOUS
 10
-83.2548518862
 20
26.2519071816
 11
-82.8496161642
 21
26.2589805974
  0
LINE
  5
320
100
AcDbEntity
  8
DRAFT
100
AcDbLine
 62
253
  6
CONTINUOUS
 10
-73.2496161642
 20
26.8929755853
 11
-74.9496161642
 21
26.8937435176
  0
LINE
  5
321
100
AcDbEntity
  8
DRAFT
100
AcDbLine
 62
7
  6
CONTINUOUS
 10
-74.9496161642
 20
27.1459857386
 11
-73.2496161642
 21
27.1430186759
  0
LINE
  5
322
100
AcDbEntity
  8
ASSI
100
AcDbLine
 62
7
  6
CONTINUOUS
 10
-73.2496161642
 20
26.35
 11
-74.9496161642
 21
26.3598903107
  0
LINE
  5
323
100
AcDbEntity
  8
SMUSSO
100
AcDbLine
 62
7
  6
CONTINUOUS
 10
-78.8496161642
 20
-47.2
 11
-79.3496161642
 21
-47.7
  0
LINE
  5
324
100
AcDbEntity
  8
DRAFT
100
AcDbLine
 62
7
  6
CONTINUOUS
 10
-74.9496161642
 20
-46.65
 11
-75.9496161642
 21
-47.65
  0
LINE
  5
325
100
AcDbEntity
  8
SMUSSO
100
AcDbLine
 62
7
  6
CONTINUOUS
 10
-78.8496161637
 20
47.1999999995
 11
-79.3496161632
 21
47.699999999
  0
LINE
  5
326
100
AcDbEntity
  8
DRAFT
100
AcDbLine
 62
7
  6
CONTINUOUS
 10
-74.9496161642
 20
46.65
 11
-75.9496161642
 21
47.65
  0
LINE
  5
327
100
AcDbEntity
  8
DRAFT
100
AcDbLine
 62
7
  6
CONTINUOUS
 10
-78.3413642829
 20
47.6082518813
 11
-75.9496161642
 21
47.65
  0
LINE
  5
328
100
AcDbEntity
  8
DRAFT
100
AcDbLine
 62
253
  6
CONTINUOUS
 10
-74.9496161642
 20
46.15
 11
-78.7996161642
 21
46.15
  0
LINE
  5
329
100
AcDbEntity
  8
SMUSSO
100
AcDbLine
 62
253
  6
CONTINUOUS
 10
-78.8496161642
 20
46.7
 11
-80.8496161642
 21
46.7
  0
LINE
  5
32A
100
AcDbEntity
  8
SMUSSO
100
AcDbLine
 62
7
  6
CONTINUOUS
 10
-80.8496161642
 20
47.7
 11
-79.3496161642
 21
47.7
  0
ARC
  5
32B
100
AcDbEntity
  8
SMUSSO
100
AcDbCircle
 62
7
  6
CONTINUOUS
 10
-46.7
 20
46.7
 40
1.0
100
AcDbArc
 50
90.0
 51
180.0
  0
ARC
  5
32C
100
AcDbEntity
  8
SMUSSO
100
AcDbCircle
 62
7
  6
CONTINUOUS
 10
46.7
 20
46.7
 40
1.0
100
AcDbArc
 50
0.0
 51
90.0
  0
ARC
  5
32D
100
AcDbEntity
  8
SMUSSO
100
AcDbCircle
 62
7
  6
CONTINUOUS
 10
-46.7
 20
-46.7
 40
1.0
100
AcDbArc
 50
180.0
 51
270.0
  0
ARC
  5
32E
100
AcDbEntity
  8
SMUSSO
100
AcDbCircle
 62
7
  6
CONTINUOUS
 10
46.7
 20
-46.7
 40
1.0
100
AcDbArc
 50
270.0
 51
360.0
  0
ARC
  5
32F
100
AcDbEntity
  8
RACCORDO
100
AcDbCircle
 62
253
  6
CONTINUOUS
 10
-22.348192752
 20
21.8461295245
 40
0.7824878456
100
AcDbArc
 50
90.0287525955
 51
92.1202476108
  0
ARC
  5
330
100
AcDbEntity
  8
RACCORDO
100
AcDbCircle
 62
253
  6
CONTINUOUS
 10
22.3482428595
 20
-21.8489747048
 40
0.779642642
100
AcDbArc
 50
270.0251751348
 51
272.1236567075
  0
ARC
  5
331
100
AcDbEntity
  8
RACCORDO
100
AcDbCircle
 62
253
  6
CONTINUOUS
 10
21.8986043141
 20
-22.2989778658
 40
0.7582289856
100
AcDbArc
 50
358.9007055561
 51
359.9712052038
  0
ARC
  5
332
100
AcDbEntity
  8
RACCORDO
100
AcDbCircle
 62
253
  6
CONTINUOUS
 10
-21.9031691551
 20
22.2990228035
 40
0.7536641238
100
AcDbArc
 50
178.8974638224
 51
179.9744470932
  0
ARC
  5
333
100
AcDbEntity
  8
RACCORDO
100
AcDbCircle
 62
253
  6
CONTINUOUS
 10
-22.3488257045
 20
-21.8790743398
 40
0.7495429703
100
AcDbArc
 50
267.8294023107
 51
270.0183671322
  0
ARC
  5
334
100
AcDbEntity
  8
RACCORDO
100
AcDbCircle
 62
253
  6
CONTINUOUS
 10
22.3488257045
 20
21.8790743398
 40
0.7495429703
100
AcDbArc
 50
87.8294023107
 51
90.0183671323
  0
ARC
  5
335
100
AcDbEntity
  8
RACCORDO
100
AcDbCircle
 62
253
  6
CONTINUOUS
 10
-21.9432916538
 20
-22.2994177995
 40
0.7135415526
100
AcDbArc
 50
179.9952724563
 51
181.1328166284
  0
ARC
  5
336
100
AcDbEntity
  8
RACCORDO
100
AcDbCircle
 62
253
  6
CONTINUOUS
 10
21.9432916538
 20
22.2994177995
 40
0.7135415526
100
AcDbArc
 50
359.9952724563
 51
1.1328166284
  0
ARC
  5
337
100
AcDbEntity
  8
RACCORDO
100
AcDbCircle
 62
253
  6
CONTINUOUS
 10
25.2019217631
 20
25.5519217631
 40
0.6999862456
100
AcDbArc
 50
0.0075330706
 51
89.9924669294
  0
ARC
  5
338
100
AcDbEntity
  8
RACCORDO
100
AcDbCircle
 62
253
  6
CONTINUOUS
 10
25.2019217631
 20
-25.5519217631
 40
0.6999862456
100
AcDbArc
 50
270.0075330706
 51
359.9924669294
  0
ARC
  5
339
100
AcDbEntity
  8
RACCORDO
100
AcDbCircle
 62
253
  6
CONTINUOUS
 10
-25.2019217631
 20
-25.5519217631
 40
0.6999862456
100
AcDbArc
 50
180.0075330706
 51
269.9924669294
  0
ARC
  5
33A
100
AcDbEntity
  8
RACCORDO
100
AcDbCircle
 62
253
  6
CONTINUOUS
 10
-25.2019217631
 20
25.5519217631
 40
0.6999862456
100
AcDbArc
 50
90.0075330702
 51
179.9924669298
  0
ARC
  5
33B
100
AcDbEntity
  8
RACCORDO
100
AcDbCircle
 62
253
  6
CONTINUOUS
 10
25.2020349474
 20
25.552034503
 40
0.399917083
100
AcDbArc
 50
359.9970331886
 51
90.0030304736
  0
ARC
  5
33C
100
AcDbEntity
  8
RACCORDO
100
AcDbCircle
 62
253
  6
CONTINUOUS
 10
25.202034503
 20
-25.5520349474
 40
0.399917083
100
AcDbArc
 50
269.9970331884
 51
0.0030304738
  0
ARC
  5
33D
100
AcDbEntity
  8
RACCORDO
100
AcDbCircle
 62
253
  6
CONTINUOUS
 10
-22.3486975506
 20
22.3340252999
 40
0.2645144583
100
AcDbArc
 50
89.9757129587
 51
92.2877034874
  0
ARC
  5
33E
100
AcDbEntity
  8
RACCORDO
100
AcDbCircle
 62
253
  6
CONTINUOUS
 10
22.3487019518
 20
-22.3342480957
 40
0.2642916644
100
AcDbArc
 50
269.9747383382
 51
272.2886781593
  0
ARC
  5
33F
100
AcDbEntity
  8
RACCORDO
100
AcDbCircle
 62
253
  6
CONTINUOUS
 10
22.3487562006
 20
22.3369942299
 40
0.2615455603
100
AcDbArc
 50
87.6991725283
 51
90.0374109738
  0
ARC
  5
340
100
AcDbEntity
  8
RACCORDO
100
AcDbCircle
 62
253
  6
CONTINUOUS
 10
-22.3487562006
 20
-22.3369942299
 40
0.2615455602
100
AcDbArc
 50
267.6991725284
 51
270.0374109739
  0
ARC
  5
341
100
AcDbEntity
  8
RACCORDO
100
AcDbCircle
 62
253
  6
CONTINUOUS
 10
-22.4162359416
 20
22.2994536437
 40
0.2330773105
100
AcDbArc
 50
178.7187989866
 51
180.0232841862
  0
ARC
  5
342
100
AcDbEntity
  8
RACCORDO
100
AcDbCircle
 62
253
  6
CONTINUOUS
 10
22.4163237293
 20
-22.2994546074
 40
0.2329895232
100
AcDbArc
 50
358.7185532198
 51
0.023529953
  0
ARC
  5
343
100
AcDbEntity
  8
RACCORDO
100
AcDbCircle
 62
253
  6
CONTINUOUS
 10
22.4194890289
 20
22.2994893555
 40
0.229824241
100
AcDbArc
 50
359.9674831752
 51
1.290433652
  0
ARC
  5
344
100
AcDbEntity
  8
RACCORDO
100
AcDbCircle
 62
253
  6
CONTINUOUS
 10
-22.4194890289
 20
-22.2994893555
 40
0.229824241
100
AcDbArc
 50
179.9674831752
 51
181.290433652
  0
ARC
  5
345
100
AcDbEntity
  8
RACCORDO
100
AcDbCircle
 62
7
  6
CONTINUOUS
 10
-83.2496161642
 20
25.951952873
 40
0.3
100
AcDbArc
 50
91.0
 51
180.0
  0
ARC
  5
346
100
AcDbEntity
  8
RACCORDO
100
AcDbCircle
 62
7
  6
CONTINUOUS
 10
-83.2496161642
 20
-25.951952873
 40
0.3
100
AcDbArc
 50
180.0
 51
269.0
  0
ARC
  5
347
100
AcDbEntity
  8
ASSI
100
AcDbCircle
 62
7
  6
CONTINUOUS
 10
-73.4496161642
 20
-25.4
 40
0.2
100
AcDbArc
 50
0.0
 51
90.0
  0
ARC
  5
348
100
AcDbEntity
  8
ASSI
100
AcDbCircle
 62
7
  6
CONTINUOUS
 10
-73.4496161642
 20
25.4
 40
0.2
100
AcDbArc
 50
270.0
 51
360.0
  0
SPLINE
  5
349
100
AcDbEntity
  8
0
100
AcDbSpline
 62
7
  6
CONTINUOUS
 70
0
 71
3
 72
9
 73
5
 74
3
 42
0.0000001
 43
0.0000001
 44
0.0000000001
 12
0.384402302
 22
-0.0446290201
 32
0.0
 13
0.0060518841
 23
-0.3869370154
 33
0.0
 40
0.0
 40
0.0
 40
0.0
 40
0.0
 40
0.5013510385
 40
1.0
 40
1.0
 40
1.0
 40
1.0
 10
3.2708955903
 20
-24.0107157749
 30
0.0
 10
3.3351357547
 20
-24.0181740434
 30
0.0
 10
3.4650689916
 20
-24.0747468423
 30
0.0
 10
3.5174853189
 20
-24.2088922282
 30
0.0
 10
3.5184912408
 20
-24.2732074751
 30
0.0
 11
3.2708955903
 21
-24.0107157749
 31
0.0
 11
3.445935984
 21
-24.0943977982
 31
0.0
 11
3.5184912408
 21
-24.2732074751
 31
0.0
  0
SPLINE
  5
34A
100
AcDbEntity
  8
0
100
AcDbSpline
 62
7
  6
CONTINUOUS
 70
0
 71
3
 72
9
 73
5
 74
3
 42
0.0000001
 43
0.0000001
 44
0.0000000001
 12
0.0080713833
 22
-0.5230864262
 32
0.0
 13
-0.5230182478
 23
-0.0116819936
 33
0.0
 40
0.0
 40
0.0
 40
0.0
 40
0.0
 40
0.5206208722
 40
1.0
 40
1.0
 40
1.0
 40
1.0
 10
3.5184912408
 20
-24.2732074751
 30
0.0
 10
3.519891951
 20
-24.3639840456
 30
0.0
 10
3.4557627102
 20
-24.5622845708
 30
0.0
 10
3.2615825326
 20
-24.5976524418
 30
0.0
 10
3.1780078554
 20
-24.5995191431
 30
0.0
 11
3.5184912408
 21
-24.2732074751
 31
0.0
 11
3.4178681102
 21
-24.5263005711
 31
0.0
 11
3.1780078554
 21
-24.5995191431
 31
0.0
  0
SPLINE
  5
34B
100
AcDbEntity
  8
0
100
AcDbSpline
 62
7
  6
CONTINUOUS
 70
0
 71
3
 72
9
 73
5
 74
3
 42
0.0000001
 43
0.0000001
 44
0.0000000001
 12
0.3394200167
 22
0.0579167448
 32
0.0
 13
0.3420295105
 23
-0.0397002646
 33
0.0
 40
0.0
 40
0.0
 40
0.0
 40
0.0
 40
0.2703953699
 40
1.0
 40
1.0
 40
1.0
 40
1.0
 10
2.927514876
 20
-24.0230766618
 30
0.0
 10
2.9581074096
 20
-24.0178565219
 30
0.0
 10
3.0716013975
 20
-24.0006878979
 30
0.0
 10
3.1877134854
 20
-24.0010606092
 30
0.0
 10
3.2708955903
 20
-24.0107157749
 30
0.0
 11
2.927514876
 21
-24.0230766618
 31
0.0
 11
3.0196753261
 21
-24.0098544002
 31
0.0
 11
3.2708955903
 21
-24.0107157749
 31
0.0
  0
SPLINE
  5
34C
100
AcDbEntity
  8
0
100
AcDbSpline
 62
7
  6
CONTINUOUS
 70
0
 71
3
 72
9
 73
5
 74
3
 42
0.0000001
 43
0.0000001
 44
0.0000000001
 12
0.3219543356
 22
0.0
 32
0.0
 13
0.1131217834
 23
-0.3014267015
 33
0.0
 40
0.0
 40
0.0
 40
0.0
 40
0.0
 40
0.3559141631
 40
1.0
 40
1.0
 40
1.0
 40
1.0
 10
3.1770630743
 20
-24.943419487
 30
0.0
 10
3.2152591102
 20
-24.943419487
 30
0.0
 10
3.3251388628
 20
-24.9665483985
 30
0.0
 10
3.3973172195
 20
-25.063724242
 30
0.0
 10
3.4216039324
 20
-25.1284391318
 30
0.0
 11
3.1770630743
 21
-24.943419487
 31
0.0
 11
3.2886988103
 21
-24.9692631885
 31
0.0
 11
3.4216039324
 21
-25.1284391318
 31
0.0
  0
SPLINE
  5
34D
100
AcDbEntity
  8
0
100
AcDbSpline
 62
7
  6
CONTINUOUS
 70
0
 71
3
 72
9
 73
5
 74
3
 42
0.0000001
 43
0.0000001
 44
0.0000000001
 12
0.2338635552
 22
-0.622497147
 32
0.0
 13
0.1837405462
 23
-0.6390886262
 33
0.0
 40
0.0
 40
0.0
 40
0.0
 40
0.0
 40
0.5586214172
 40
1.0
 40
1.0
 40
1.0
 40
1.0
 10
3.4216039324
 20
-25.1284391318
 30
0.0
 10
3.4651509959
 20
-25.2443525446
 30
0.0
 10
3.522419256
 20
-25.4589914658
 30
0.0
 10
3.5862354907
 20
-25.6711477203
 30
0.0
 10
3.613268538
 20
-25.7651743977
 30
0.0
 11
3.4216039324
 21
-25.1284391318
 31
0.0
 11
3.5311768963
 21
-25.4833816056
 31
0.0
 11
3.613268538
 21
-25.7651743977
 31
0.0
  0
SPLINE
  5
34E
100
AcDbEntity
  8
0
100
AcDbSpline
 62
7
  6
CONTINUOUS
 70
0
 71
3
 72
9
 73
5
 74
3
 42
0.0000001
 43
0.0000001
 44
0.0000000001
 12
-0.1540517408
 22
0.5672067283
 32
0.0
 13
-0.1544993035
 23
0.5670849819
 33
0.0
 40
0.0
 40
0.0
 40
0.0
 40
0.0
 40
0.1980141723
 40
1.0
 40
1.0
 40
1.0
 40
1.0
 10
4.0348771327
 20
-25.7651743977
 30
0.0
 10
4.0247089901
 20
-25.7277360741
 30
0.0
 10
3.974940488
 20
-25.5382421876
 30
0.0
 10
3.926336924
 20
-25.3484393276
 30
0.0
 10
3.88503484
 20
-25.1968412881
 30
0.0
 11
4.0348771327
 21
-25.7651743977
 31
0.0
 11
4.0050449294
 21
-25.6526790092
 31
0.0
 11
3.88503484
 21
-25.1968412881
 31
0.0
  0
SPLINE
  5
34F
100
AcDbEntity
  8
0
100
AcDbSpline
 62
7
  6
CONTINUOUS
 70
0
 71
3
 72
9
 73
5
 74
3
 42
0.0000001
 43
0.0000001
 44
0.0000000001
 12
-0.1285164
 22
0.4717407948
 32
0.0
 13
-0.4541587339
 23
0.1810957951
 33
0.0
 40
0.0
 40
0.0
 40
0.0
 40
0.0
 40
0.2426586216
 40
1.0
 40
1.0
 40
1.0
 40
1.0
 10
3.88503484
 20
-25.1968412881
 30
0.0
 10
3.8746396359
 20
-25.1586839644
 30
0.0
 10
3.8349315603
 20
-25.0045953927
 30
0.0
 10
3.7470356774
 20
-24.8307125451
 30
0.0
 10
3.6323846102
 20
-24.784995432
 30
0.0
 11
3.88503484
 21
-25.1968412881
 31
0.0
 11
3.8525311695
 21
-25.0827365731
 31
0.0
 11
3.6323846102
 21
-24.784995432
 31
0.0
  0
SPLINE
  5
350
100
AcDbEntity
  8
0
100
AcDbSpline
 62
7
  6
CONTINUOUS
 70
0
 71
3
 72
17
 73
13
 74
11
 42
0.0000001
 43
0.0000001
 44
0.0000000001
 12
1.2974582446
 22
0.167413967
 32
0.0
 13
-1.2305868136
 23
0.4439385397
 33
0.0
 40
0.0
 40
0.0
 40
0.0
 40
0.0
 40
0.0559780952
 40
0.1687540387
 40
0.321006234
 40
0.4122750837
 40
0.516613223
 40
0.6013931059
 40
0.6776022439
 40
0.8103422694
 40
0.9200404832
 40
1.0
 40
1.0
 40
1.0
 40
1.0
 10
3.6323846102
 20
-24.7725873061
 30
0.0
 10
3.6565943573
 20
-24.7694634678
 30
0.0
 10
3.7181324038
 20
-24.7209973091
 30
0.0
 10
3.8201860891
 20
-24.6286072901
 30
0.0
 10
3.8953301556
 20
-24.4863871999
 30
0.0
 10
3.9288051152
 20
-24.3380194545
 30
0.0
 10
3.9319500205
 20
-24.2148773229
 30
0.0
 10
3.9153760191
 20
-24.0998635709
 30
0.0
 10
3.8752063301
 20
-23.9776524871
 30
0.0
 10
3.7997594339
 20
-23.8578829609
 30
0.0
 10
3.693234287
 20
-23.764220045
 30
0.0
 10
3.6199916202
 20
-23.7238240873
 30
0.0
 10
3.5871925779
 20
-23.7119917169
 30
0.0
 11
3.6323846102
 21
-24.7725873061
 31
0.0
 11
3.6965524739
 21
-24.7372982534
 31
0.0
 11
3.8025003321
 21
-24.6346256365
 31
0.0
 11
3.8972761531
 21
-24.4594410653
 31
0.0
 11
3.9239270396
 21
-24.3430541748
 31
0.0
 11
3.9279279049
 21
-24.2066161494
 31
0.0
 11
3.9115237729
 21
-24.0969257029
 31
0.0
 11
3.8801574073
 21
-24.002290492
 31
0.0
 11
3.7874979945
 21
-23.8554252441
 31
0.0
 11
3.6798697052
 21
-23.7604993407
 31
0.0
 11
3.5871925779
 21
-23.7119917169
 31
0.0
  0
SPLINE
  5
351
100
AcDbEntity
  8
0
100
AcDbSpline
 62
7
  6
CONTINUOUS
 70
0
 71
3
 72
9
 73
5
 74
3
 42
0.0000001
 43
0.0000001
 44
0.0000000001
 12
-1.0242753953
 22
0.3700472763
 32
0.0
 13
-1.0774730544
 23
-0.1585146335
 33
0.0
 40
0.0
 40
0.0
 40
0.0
 40
0.0
 40
0.2957417834
 40
1.0
 40
1.0
 40
1.0
 40
1.0
 10
3.5871925779
 20
-23.7119917169
 30
0.0
 10
3.4862189005
 20
-23.6755122365
 30
0.0
 10
3.1232796563
 20
-23.616048509
 30
0.0
 10
2.7584366266
 20
-23.6526720933
 30
0.0
 10
2.505496876
 20
-23.6898838377
 30
0.0
 11
3.5871925779
 21
-23.7119917169
 31
0.0
 11
3.2713797906
 21
-23.6487445228
 31
0.0
 11
2.505496876
 21
-23.6898838377
 31
0.0
  0
SPLINE
  5
352
100
AcDbEntity
  8
RACCORDO
100
AcDbSpline
 62
253
  6
CONTINUOUS
 70
0
 71
3
 72
9
 73
5
 74
3
 42
0.0000001
 43
0.0000001
 44
0.0000000001
 12
0.0350782652
 22
0.0048739413
 32
0.0
 13
0.0108183149
 23
0.0337224563
 33
0.0
 40
0.0
 40
0.0
 40
0.0
 40
0.0
 40
0.3370815594
 40
1.0
 40
1.0
 40
1.0
 40
1.0
 10
22.3592562472
 20
22.5983283826
 30
0.0
 10
22.3631976593
 20
22.5988760212
 30
0.0
 10
22.371106125
 20
22.6102162047
 30
0.0
 10
22.3746788941
 20
22.6206349003
 30
0.0
 10
22.3770694476
 20
22.6280866463
 30
0.0
 11
22.3592562472
 21
22.5983283826
 31
0.0
 11
22.3680366161
 21
22.6064164516
 31
0.0
 11
22.3770694476
 21
22.6280866463
 31
0.0
  0
SPLINE
  5
353
100
AcDbEntity
  8
RACCORDO
100
AcDbSpline
 62
253
  6
CONTINUOUS
 70
0
 71
3
 72
9
 73
5
 74
3
 42
0.0000001
 43
0.0000001
 44
0.0000000001
 12
0.0016419144
 22
0.0116767693
 32
0.0
 13
0.0098749407
 23
0.0064442508
 33
0.0
 40
0.0
 40
0.0
 40
0.0
 40
0.0
 40
0.1959560025
 40
1.0
 40
1.0
 40
1.0
 40
1.0
 10
22.6492723148
 20
22.3046654041
 30
0.0
 10
22.6493795625
 20
22.3054281151
 30
0.0
 10
22.6506828163
 20
22.3092214604
 30
0.0
 10
22.654075163
 20
22.3117974469
 30
0.0
 10
22.656721792
 20
22.3135246007
 30
0.0
 11
22.6492723148
 21
22.3046654041
 31
0.0
 11
22.6499705419
 21
22.3068680276
 31
0.0
 11
22.656721792
 21
22.3135246007
 31
0.0
  0
SPLINE
  5
354
100
AcDbEntity
  8
RACCORDO
100
AcDbSpline
 62
253
  6
CONTINUOUS
 70
0
 71
3
 72
9
 73
5
 74
3
 42
0.0000001
 43
0.0000001
 44
0.0000000001
 12
0.001645421
 22
-0.0116721813
 32
0.0
 13
0.0098680397
 23
-0.006447404
 33
0.0
 40
0.0
 40
0.0
 40
0.0
 40
0.0
 40
0.1960237375
 40
1.0
 40
1.0
 40
1.0
 40
1.0
 10
22.6492543312
 20
-22.3046650807
 30
0.0
 10
22.649361845
 20
-22.3054277555
 30
0.0
 10
22.6506646517
 20
-22.3092195417
 30
0.0
 10
22.6540533918
 20
-22.3117967302
 30
0.0
 10
22.6566979483
 20
-22.3135245834
 30
0.0
 11
22.6492543312
 21
-22.3046650807
 31
0.0
 11
22.6499527597
 21
-22.3068676445
 31
0.0
 11
22.6566979483
 21
-22.3135245834
 31
0.0
  0
SPLINE
  5
355
100
AcDbEntity
  8
RACCORDO
100
AcDbSpline
 62
253
  6
CONTINUOUS
 70
0
 71
3
 72
9
 73
5
 74
3
 42
0.0000001
 43
0.0000001
 44
0.0000000001
 12
0.0350776444
 22
-0.0048684519
 32
0.0
 13
0.0108153484
 23
-0.0337219691
 33
0.0
 40
0.0
 40
0.0
 40
0.0
 40
0.0
 40
0.3371051516
 40
1.0
 40
1.0
 40
1.0
 40
1.0
 10
22.3592561093
 20
-22.5983244457
 30
0.0
 10
22.3631977276
 20
-22.5988715058
 30
0.0
 10
22.3711082388
 20
-22.610209775
 30
0.0
 10
22.374679637
 20
-22.6206289361
 30
0.0
 10
22.3770694499
 20
-22.6280803093
 30
0.0
 11
22.3592561093
 21
-22.5983244457
 31
0.0
 11
22.3680379794
 21
-22.6064114364
 31
0.0
 11
22.3770694499
 21
-22.6280803093
 31
0.0
  0
SPLINE
  5
356
100
AcDbEntity
  8
RACCORDO
100
AcDbSpline
 62
253
  6
CONTINUOUS
 70
0
 71
3
 72
9
 73
5
 74
3
 42
0.0000001
 43
0.0000001
 44
0.0000000001
 12
-0.0350782652
 22
-0.0048739413
 32
0.0
 13
-0.0108183149
 23
-0.0337224563
 33
0.0
 40
0.0
 40
0.0
 40
0.0
 40
0.0
 40
0.3370815594
 40
1.0
 40
1.0
 40
1.0
 40
1.0
 10
-22.3592562472
 20
-22.5983283826
 30
0.0
 10
-22.3631976593
 20
-22.5988760212
 30
0.0
 10
-22.371106125
 20
-22.6102162047
 30
0.0
 10
-22.3746788941
 20
-22.6206349003
 30
0.0
 10
-22.3770694476
 20
-22.6280866463
 30
0.0
 11
-22.3592562472
 21
-22.5983283826
 31
0.0
 11
-22.3680366161
 21
-22.6064164516
 31
0.0
 11
-22.3770694476
 21
-22.6280866463
 31
0.0
  0
SPLINE
  5
357
100
AcDbEntity
  8
RACCORDO
100
AcDbSpline
 62
253
  6
CONTINUOUS
 70
0
 71
3
 72
9
 73
5
 74
3
 42
0.0000001
 43
0.0000001
 44
0.0000000001
 12
-0.0016419144
 22
-0.0116767693
 32
0.0
 13
-0.0098749407
 23
-0.0064442508
 33
0.0
 40
0.0
 40
0.0
 40
0.0
 40
0.0
 40
0.1959560025
 40
1.0
 40
1.0
 40
1.0
 40
1.0
 10
-22.6492723148
 20
-22.3046654041
 30
0.0
 10
-22.6493795625
 20
-22.3054281151
 30
0.0
 10
-22.6506828163
 20
-22.3092214604
 30
0.0
 10
-22.654075163
 20
-22.3117974469
 30
0.0
 10
-22.656721792
 20
-22.3135246007
 30
0.0
 11
-22.6492723148
 21
-22.3046654041
 31
0.0
 11
-22.6499705419
 21
-22.3068680276
 31
0.0
 11
-22.656721792
 21
-22.3135246007
 31
0.0
  0
SPLINE
  5
358
100
AcDbEntity
  8
RACCORDO
100
AcDbSpline
 62
253
  6
CONTINUOUS
 70
0
 71
3
 72
9
 73
5
 74
3
 42
0.0000001
 43
0.0000001
 44
0.0000000001
 12
-0.0016437675
 22
0.0116712894
 32
0.0
 13
-0.0098674092
 23
0.0064463324
 33
0.0
 40
0.0
 40
0.0
 40
0.0
 40
0.0
 40
0.1960790338
 40
1.0
 40
1.0
 40
1.0
 40
1.0
 10
-22.6492545923
 20
22.3046650853
 30
0.0
 10
-22.6493620284
 20
22.305427917
 30
0.0
 10
-22.6506638358
 20
22.3092196329
 30
0.0
 10
-22.6540521048
 20
22.3117971357
 30
0.0
 10
-22.6566963106
 20
22.313524583
 30
0.0
 11
-22.6492545923
 21
22.3046650853
 31
0.0
 11
-22.6499527609
 21
22.3068681861
 31
0.0
 11
-22.6566963106
 21
22.313524583
 31
0.0
  0
SPLINE
  5
359
100
AcDbEntity
  8
RACCORDO
100
AcDbSpline
 62
253
  6
CONTINUOUS
 70
0
 71
3
 72
9
 73
5
 74
3
 42
0.0000001
 43
0.0000001
 44
0.0000000001
 12
-0.035079225
 22
0.0048676887
 32
0.0
 13
-0.0108153946
 23
0.0337234882
 33
0.0
 40
0.0
 40
0.0
 40
0.0
 40
0.0
 40
0.3370983498
 40
1.0
 40
1.0
 40
1.0
 40
1.0
 10
-22.3592559039
 20
22.5983185747
 30
0.0
 10
-22.3631976202
 20
22.5988655379
 30
0.0
 10
-22.371108267
 20
22.6102046852
 30
0.0
 10
-22.3746796047
 20
22.6206241943
 30
0.0
 10
-22.3770694524
 20
22.6280759797
 30
0.0
 11
-22.3592559039
 21
22.5983185747
 31
0.0
 11
-22.3680378535
 21
22.6064058502
 31
0.0
 11
-22.3770694524
 21
22.6280759797
 31
0.0
  0
SPLINE
  5
35A
100
AcDbEntity
  8
RACCORDO
100
AcDbSpline
 62
253
  6
CONTINUOUS
 70
0
 71
3
 72
11
 73
7
 74
5
 42
0.0000001
 43
0.0000001
 44
0.0000000001
 12
0.4755833521
 22
0.0253970598
 32
0.0
 13
-0.0235522301
 23
-0.475678282
 33
0.0
 40
0.0
 40
0.0
 40
0.0
 40
0.0
 40
0.2521799742
 40
0.5045374213
 40
0.7538906135
 40
1.0
 40
1.0
 40
1.0
 40
1.0
 10
22.6284355609
 20
23.1469043724
 30
0.0
 10
22.6684130934
 20
23.1490392491
 30
0.0
 10
22.7510613205
 20
23.1350490643
 30
0.0
 10
22.8481531022
 20
23.0570505185
 30
0.0
 10
22.9005049287
 20
22.9470192694
 30
0.0
 10
22.9079755874
 20
22.8672499784
 30
0.0
 10
22.9060434458
 20
22.8282270151
 30
0.0
 11
22.6284355609
 21
23.1469043724
 31
0.0
 11
22.7466178432
 21
23.1255082191
 31
0.0
 11
22.8410785989
 21
23.0511958843
 31
0.0
 11
22.8938389718
 21
22.9448022028
 31
0.0
 11
22.9060434458
 21
22.8282270151
 31
0.0
  0
SPLINE
  5
35B
100
AcDbEntity
  8
RACCORDO
100
AcDbSpline
 62
253
  6
CONTINUOUS
 70
0
 71
3
 72
11
 73
7
 74
5
 42
0.0000001
 43
0.0000001
 44
0.0000000001
 12
0.0174576275
 22
0.4674042409
 32
0.0
 13
-0.4677217515
 23
0.0028029039
 33
0.0
 40
0.0
 40
0.0
 40
0.0
 40
0.0
 40
0.2481560907
 40
0.4981918096
 40
0.7488790264
 40
1.0
 40
1.0
 40
1.0
 40
1.0
 10
22.6566937466
 20
22.3135245816
 30
0.0
 10
22.6581378188
 20
22.3521876513
 30
0.0
 10
22.6481749322
 20
22.4310460767
 30
0.0
 10
22.5911637454
 20
22.5363621613
 30
0.0
 10
22.4956441183
 20
22.6103972231
 30
0.0
 10
22.4163662126
 20
22.6278447962
 30
0.0
 10
22.377214632
 20
22.6280794189
 30
0.0
 11
22.6566937466
 21
22.3135245816
 31
0.0
 11
22.6412742219
 21
22.4285658916
 31
0.0
 11
22.5848559098
 21
22.5310066051
 31
0.0
 11
22.4918247815
 21
22.6023767847
 31
0.0
 11
22.377214632
 21
22.6280794189
 31
0.0
  0
SPLINE
  5
35C
100
AcDbEntity
  8
RACCORDO
100
AcDbSpline
 62
253
  6
CONTINUOUS
 70
0
 71
3
 72
11
 73
7
 74
5
 42
0.0000001
 43
0.0000001
 44
0.0000000001
 12
-0.0101990732
 22
0.4515537253
 32
0.0
 13
-0.4513111587
 23
0.0179729214
 33
0.0
 40
0.0
 40
0.0
 40
0.0
 40
0.0
 40
0.2441973669
 40
0.4933733735
 40
0.7478788953
 40
1.0
 40
1.0
 40
1.0
 40
1.0
 10
22.6492549827
 20
22.3046650921
 30
0.0
 10
22.6484247871
 20
22.341421169
 30
0.0
 10
22.6325429148
 20
22.4160696992
 30
0.0
 10
22.5689787652
 20
22.5121128282
 30
0.0
 10
22.4735647792
 20
22.5789276877
 30
0.0
 10
22.397184623
 20
22.5968184852
 30
0.0
 10
22.359256267
 20
22.5983289361
 30
0.0
 11
22.6492549827
 21
22.3046650921
 31
0.0
 11
22.6263211577
 21
22.4125507974
 31
0.0
 11
22.5643469368
 21
22.5064953789
 31
0.0
 11
22.4701288059
 21
22.5723509655
 31
0.0
 11
22.359256267
 21
22.5983289361
 31
0.0
  0
SPLINE
  5
35D
100
AcDbEntity
  8
RACCORDO
100
AcDbSpline
 62
253
  6
CONTINUOUS
 70
0
 71
3
 72
11
 73
7
 74
5
 42
0.0000001
 43
0.0000001
 44
0.0000000001
 12
0.0235528302
 22
-0.475681279
 32
0.0
 13
-0.4755755775
 23
0.0255985369
 33
0.0
 40
0.0
 40
0.0
 40
0.0
 40
0.0
 40
0.2461023178
 40
0.4954535361
 40
0.7478124086
 40
1.0
 40
1.0
 40
1.0
 40
1.0
 10
22.9060449021
 20
-22.8282614738
 30
0.0
 10
22.9079770375
 20
-22.8672835622
 30
0.0
 10
22.9004979105
 20
-22.9470503227
 30
0.0
 10
22.8481426188
 20
-23.057083865
 30
0.0
 10
22.7510292261
 20
-23.1350512139
 30
0.0
 10
22.6683793056
 20
-23.1490554484
 30
0.0
 10
22.6284012191
 20
-23.1469035706
 30
0.0
 11
22.9060449021
 21
-22.8282614738
 31
0.0
 11
22.8938338195
 21
-22.9448333325
 31
0.0
 11
22.8410657368
 21
-23.0512229825
 31
0.0
 11
22.7465899835
 21
-23.1255185819
 31
0.0
 11
22.6284012191
 21
-23.1469035706
 31
0.0
  0
SPLINE
  5
35E
100
AcDbEntity
  8
RACCORDO
100
AcDbSpline
 62
253
  6
CONTINUOUS
 70
0
 71
3
 72
11
 73
7
 74
5
 42
0.0000001
 43
0.0000001
 44
0.0000000001
 12
0.4678024314
 22
0.0028660177
 32
0.0
 13
-0.0173076586
 23
0.4674909345
 33
0.0
 40
0.0
 40
0.0
 40
0.0
 40
0.0
 40
0.2510672981
 40
0.5017509982
 40
0.7518196292
 40
1.0
 40
1.0
 40
1.0
 40
1.0
 10
22.3771335143
 20
-22.6280818054
 30
0.0
 10
22.4162834785
 20
-22.627841951
 30
0.0
 10
22.4955731401
 20
-22.6104449846
 30
0.0
 10
22.5911206627
 20
-22.5364093992
 30
0.0
 10
22.6481781459
 20
-22.4310814019
 30
0.0
 10
22.6581255538
 20
-22.3521986128
 30
0.0
 10
22.6566937468
 20
-22.3135245883
 30
0.0
 11
22.3771335143
 21
-22.6280818054
 31
0.0
 11
22.4917470848
 21
-22.6024161769
 31
0.0
 11
22.5848106804
 21
-22.5310576421
 31
0.0
 11
22.6412658926
 21
-22.4285965375
 31
0.0
 11
22.6566937468
 21
-22.3135245883
 31
0.0
  0
SPLINE
  5
35F
100
AcDbEntity
  8
RACCORDO
100
AcDbSpline
 62
253
  6
CONTINUOUS
 70
0
 71
3
 72
11
 73
7
 74
5
 42
0.0000001
 43
0.0000001
 44
0.0000000001
 12
0.4513107998
 22
0.017977065
 32
0.0
 13
0.0101901151
 23
0.4515537338
 33
0.0
 40
0.0
 40
0.0
 40
0.0
 40
0.0
 40
0.2520641495
 40
0.5065659907
 40
0.7557749983
 40
1.0
 40
1.0
 40
1.0
 40
1.0
 10
22.359256267
 20
-22.5983289361
 30
0.0
 10
22.3971760246
 20
-22.5968184783
 30
0.0
 10
22.4735461837
 20
-22.5789323326
 30
0.0
 10
22.5689640679
 20
-22.512130438
 30
0.0
 10
22.6325387178
 20
-22.4160829186
 30
0.0
 10
22.6484254224
 20
-22.3414253292
 30
0.0
 10
22.6492549827
 20
-22.3046650921
 30
0.0
 11
22.359256267
 21
-22.5983289361
 31
0.0
 11
22.4701046422
 21
-22.5723608164
 31
0.0
 11
22.5643278389
 21
-22.506515466
 31
0.0
 11
22.6263162934
 21
-22.4125624756
 31
0.0
 11
22.6492549827
 21
-22.3046650921
 31
0.0
  0
SPLINE
  5
360
100
AcDbEntity
  8
RACCORDO
100
AcDbSpline
 62
253
  6
CONTINUOUS
 70
0
 71
3
 72
11
 73
7
 74
5
 42
0.0000001
 43
0.0000001
 44
0.0000000001
 12
-0.0000144823
 22
0.9183629164
 32
0.0
 13
0.9183629157
 23
-0.0000385668
 33
0.0
 40
0.0
 40
0.0
 40
0.0
 40
0.0
 40
0.2502639014
 40
0.5002653067
 40
0.7501013609
 40
1.0
 40
1.0
 40
1.0
 40
1.0
 10
-23.2014857566
 20
22.828226657
 30
0.0
 10
-23.2014869647
 20
22.9048376858
 30
0.0
 10
-23.1746301787
 20
23.0595300321
 30
0.0
 10
-23.0521052024
 20
23.2605276616
 30
0.0
 10
-22.8598819351
 20
23.3974934618
 30
0.0
 10
-22.7049134312
 20
23.4288148723
 30
0.0
 10
-22.628414217
 20
23.4288116597
 30
0.0
 11
-23.2014857566
 21
22.828226657
 31
0.0
 11
-23.1608869827
 21
23.0544455491
 31
0.0
 11
-23.0404438622
 21
23.2499089734
 31
0.0
 11
-22.8531890186
 21
23.3824925846
 31
0.0
 11
-22.628414217
 21
23.4288116597
 31
0.0
  0
SPLINE
  5
361
100
AcDbEntity
  8
RACCORDO
100
AcDbSpline
 62
253
  6
CONTINUOUS
 70
0
 71
3
 72
11
 73
7
 74
5
 42
0.0000001
 43
0.0000001
 44
0.0000000001
 12
-0.4513111706
 22
-0.0179726428
 32
0.0
 13
-0.0101988593
 23
-0.4515537309
 33
0.0
 40
0.0
 40
0.0
 40
0.0
 40
0.0
 40
0.2521210927
 40
0.5066266242
 40
0.7558025848
 40
1.0
 40
1.0
 40
1.0
 40
1.0
 10
-22.3592562667
 20
22.5983289362
 30
0.0
 10
-22.3971846219
 20
22.5968185087
 30
0.0
 10
-22.4735647737
 20
22.5789276705
 30
0.0
 10
-22.5689787623
 20
22.5121128385
 30
0.0
 10
-22.6325429095
 20
22.4160697076
 30
0.0
 10
-22.6484248043
 20
22.3414211767
 30
0.0
 10
-22.6492549827
 20
22.3046650921
 30
0.0
 11
-22.3592562667
 21
22.5983289362
 31
0.0
 11
-22.4701287999
 21
22.5723509638
 31
0.0
 11
-22.5643469381
 21
22.5064953797
 31
0.0
 11
-22.6263211532
 21
22.4125508189
 31
0.0
 11
-22.6492549827
 21
22.3046650921
 31
0.0
  0
SPLINE
  5
362
100
AcDbEntity
  8
RACCORDO
100
AcDbSpline
 62
253
  6
CONTINUOUS
 70
0
 71
3
 72
11
 73
7
 74
5
 42
0.0000001
 43
0.0000001
 44
0.0000000001
 12
-0.0235526188
 22
0.4756875283
 32
0.0
 13
0.4755942284
 23
-0.0253669126
 33
0.0
 40
0.0
 40
0.0
 40
0.0
 40
0.0
 40
0.2461091508
 40
0.4954615669
 40
0.7478184483
 40
1.0
 40
1.0
 40
1.0
 40
1.0
 10
-22.9060434452
 20
22.8282270015
 30
0.0
 10
-22.9079756169
 20
22.867250686
 30
0.0
 10
-22.9005045434
 20
22.9470215612
 30
0.0
 10
-22.8481506762
 20
23.0570535622
 30
0.0
 10
-22.7510555346
 20
23.1350547953
 30
0.0
 10
-22.6684051069
 20
23.1490365135
 30
0.0
 10
-22.62842641
 20
23.1469041577
 30
0.0
 11
-22.9060434452
 21
22.8282270015
 31
0.0
 11
-22.8938383348
 21
22.9448042997
 31
0.0
 11
-22.8410760314
 21
23.051199187
 31
0.0
 11
-22.7466124096
 21
23.12551122
 31
0.0
 11
-22.62842641
 21
23.1469041577
 31
0.0
  0
SPLINE
  5
363
100
AcDbEntity
  8
RACCORDO
100
AcDbSpline
 62
253
  6
CONTINUOUS
 70
0
 71
3
 72
11
 73
7
 74
5
 42
0.0000001
 43
0.0000001
 44
0.0000000001
 12
-0.4677934115
 22
-0.0027464494
 32
0.0
 13
0.0174690012
 23
-0.4674751895
 33
0.0
 40
0.0
 40
0.0
 40
0.0
 40
0.0
 40
0.251121647
 40
0.5018087056
 40
0.7518438977
 40
1.0
 40
1.0
 40
1.0
 40
1.0
 10
-22.3771422695
 20
22.6280815057
 30
0.0
 10
-22.4162999535
 20
22.627851608
 30
0.0
 10
-22.4955945923
 20
22.6104258662
 30
0.0
 10
-22.5911419048
 20
22.5363915791
 30
0.0
 10
-22.6481713066
 20
22.4310644504
 30
0.0
 10
-22.6581387597
 20
22.3521935219
 30
0.0
 10
-22.6566937466
 20
22.3135245816
 30
0.0
 11
-22.3771422695
 21
22.6280815057
 31
0.0
 11
-22.4917758421
 21
22.6024000406
 31
0.0
 11
-22.5848325788
 21
22.5310339909
 31
0.0
 11
-22.6412687155
 21
22.4285830167
 31
0.0
 11
-22.6566937466
 21
22.3135245816
 31
0.0
  0
SPLINE
  5
364
100
AcDbEntity
  8
RACCORDO
100
AcDbSpline
 62
253
  6
CONTINUOUS
 70
0
 71
3
 72
11
 73
7
 74
5
 42
0.0000001
 43
0.0000001
 44
0.0000000001
 12
-0.4755833521
 22
-0.0253970598
 32
0.0
 13
0.0235522301
 23
0.475678282
 33
0.0
 40
0.0
 40
0.0
 40
0.0
 40
0.0
 40
0.2521799742
 40
0.5045374213
 40
0.7538906135
 40
1.0
 40
1.0
 40
1.0
 40
1.0
 10
-22.6284355609
 20
-23.1469043724
 30
0.0
 10
-22.6684130934
 20
-23.1490392491
 30
0.0
 10
-22.7510613205
 20
-23.1350490643
 30
0.0
 10
-22.8481531022
 20
-23.0570505185
 30
0.0
 10
-22.9005049287
 20
-22.9470192694
 30
0.0
 10
-22.9079755874
 20
-22.8672499784
 30
0.0
 10
-22.9060434458
 20
-22.8282270151
 30
0.0
 11
-22.6284355609
 21
-23.1469043724
 31
0.0
 11
-22.7466178432
 21
-23.1255082191
 31
0.0
 11
-22.8410785989
 21
-23.0511958843
 31
0.0
 11
-22.8938389718
 21
-22.9448022028
 31
0.0
 11
-22.9060434458
 21
-22.8282270151
 31
0.0
  0
SPLINE
  5
365
100
AcDbEntity
  8
RACCORDO
100
AcDbSpline
 62
253
  6
CONTINUOUS
 70
0
 71
3
 72
11
 73
7
 74
5
 42
0.0000001
 43
0.0000001
 44
0.0000000001
 12
-0.0174576275
 22
-0.4674042409
 32
0.0
 13
0.4677217515
 23
-0.0028029039
 33
0.0
 40
0.0
 40
0.0
 40
0.0
 40
0.0
 40
0.2481560907
 40
0.4981918096
 40
0.7488790264
 40
1.0
 40
1.0
 40
1.0
 40
1.0
 10
-22.6566937466
 20
-22.3135245816
 30
0.0
 10
-22.6581378188
 20
-22.3521876513
 30
0.0
 10
-22.6481749322
 20
-22.4310460767
 30
0.0
 10
-22.5911637454
 20
-22.5363621613
 30
0.0
 10
-22.4956441183
 20
-22.6103972231
 30
0.0
 10
-22.4163662126
 20
-22.6278447962
 30
0.0
 10
-22.377214632
 20
-22.6280794189
 30
0.0
 11
-22.6566937466
 21
-22.3135245816
 31
0.0
 11
-22.6412742219
 21
-22.4285658916
 31
0.0
 11
-22.5848559098
 21
-22.5310066051
 31
0.0
 11
-22.4918247815
 21
-22.6023767847
 31
0.0
 11
-22.377214632
 21
-22.6280794189
 31
0.0
  0
SPLINE
  5
366
100
AcDbEntity
  8
RACCORDO
100
AcDbSpline
 62
253
  6
CONTINUOUS
 70
0
 71
3
 72
11
 73
7
 74
5
 42
0.0000001
 43
0.0000001
 44
0.0000000001
 12
0.0101990732
 22
-0.4515537253
 32
0.0
 13
0.4513111587
 23
-0.0179729214
 33
0.0
 40
0.0
 40
0.0
 40
0.0
 40
0.0
 40
0.2441973669
 40
0.4933733735
 40
0.7478788953
 40
1.0
 40
1.0
 40
1.0
 40
1.0
 10
-22.6492549827
 20
-22.3046650921
 30
0.0
 10
-22.6484247871
 20
-22.341421169
 30
0.0
 10
-22.6325429148
 20
-22.4160696992
 30
0.0
 10
-22.5689787652
 20
-22.5121128282
 30
0.0
 10
-22.4735647792
 20
-22.5789276877
 30
0.0
 10
-22.397184623
 20
-22.5968184852
 30
0.0
 10
-22.359256267
 20
-22.5983289361
 30
0.0
 11
-22.6492549827
 21
-22.3046650921
 31
0.0
 11
-22.6263211577
 21
-22.4125507974
 31
0.0
 11
-22.5643469368
 21
-22.5064953789
 31
0.0
 11
-22.4701288059
 21
-22.5723509655
 31
0.0
 11
-22.359256267
 21
-22.5983289361
 31
0.0
  0
SPLINE
  5
367
100
AcDbEntity
  8
RACCORDO
100
AcDbSpline
 62
253
  6
CONTINUOUS
 70
0
 71
3
 72
11
 73
7
 74
5
 42
0.0000001
 43
0.0000001
 44
0.0000000001
 12
-0.9183621973
 22
-0.0001042104
 32
0.0
 13
0.0000144934
 23
0.9183622031
 33
0.0
 40
0.0
 40
0.0
 40
0.0
 40
0.0
 40
0.2498969706
 40
0.4997337696
 40
0.7497357693
 40
1.0
 40
1.0
 40
1.0
 40
1.0
 10
-22.628414217
 20
-23.4288116597
 30
0.0
 10
-22.7049128606
 20
-23.4288203403
 30
0.0
 10
-22.8598803778
 20
-23.3974891728
 30
0.0
 10
-23.0521046839
 20
-23.2605290197
 30
0.0
 10
-23.1746299946
 20
-23.0595299465
 30
0.0
 10
-23.2014869656
 20
-22.9048377271
 30
0.0
 10
-23.2014857566
 20
-22.828226657
 30
0.0
 11
-22.628414217
 21
-23.4288116597
 31
0.0
 11
-22.8531871523
 21
-23.3824920037
 31
0.0
 11
-23.0404431671
 21
-23.2499091713
 31
0.0
 11
-23.1608868255
 21
-23.0544456468
 31
0.0
 11
-23.2014857566
 21
-22.828226657
 31
0.0
  0
SPLINE
  5
368
100
AcDbEntity
  8
RACCORDO
100
AcDbSpline
 62
253
  6
CONTINUOUS
 70
0
 71
3
 72
11
 73
7
 74
5
 42
0.0000001
 43
0.0000001
 44
0.0000000001
 12
0.0000498599
 22
0.62102873
 32
0.0
 13
0.6210287269
 23
0.0000791702
 33
0.0
 40
0.0
 40
0.0
 40
0.0
 40
0.0
 40
0.2500058224
 40
0.5000008131
 40
0.7499857999
 40
1.0
 40
1.0
 40
1.0
 40
1.0
 10
-25.601952873
 20
25.552013795
 30
0.0
 10
-25.6019487179
 20
25.6037673944
 30
0.0
 10
-25.5813597874
 20
25.708376558
 30
0.0
 10
-25.4932400706
 20
25.8409494689
 30
0.0
 10
-25.3614406989
 20
25.9298606243
 30
0.0
 10
-25.2569982616
 20
25.9519462751
 30
0.0
 10
-25.2052429281
 20
25.951952873
 30
0.0
 11
-25.601952873
 21
25.552013795
 31
0.0
 11
-25.5718192393
 21
25.704322297
 31
0.0
 11
-25.4859590605
 21
25.8336739749
 31
0.0
 11
-25.3573024043
 21
25.9205610433
 31
0.0
 11
-25.2052429281
 21
25.951952873
 31
0.0
  0
SPLINE
  5
369
100
AcDbEntity
  8
RACCORDO
100
AcDbSpline
 62
253
  6
CONTINUOUS
 70
0
 71
3
 72
11
 73
7
 74
5
 42
0.0000001
 43
0.0000001
 44
0.0000000001
 12
-0.6210287321
 22
0.0000498599
 32
0.0
 13
-0.0000791702
 23
0.621028729
 33
0.0
 40
0.0
 40
0.0
 40
0.0
 40
0.0
 40
0.2500058224
 40
0.5000008131
 40
0.7499857999
 40
1.0
 40
1.0
 40
1.0
 40
1.0
 10
-25.202013795
 20
-25.951952873
 30
0.0
 10
-25.2537673946
 20
-25.9519487179
 30
0.0
 10
-25.3583765585
 20
-25.9313597872
 30
0.0
 10
-25.4909494697
 20
-25.8432400699
 30
0.0
 10
-25.5798606252
 20
-25.7114406974
 30
0.0
 10
-25.6019462751
 20
-25.6069982596
 30
0.0
 10
-25.601952873
 20
-25.5552429259
 30
0.0
 11
-25.202013795
 21
-25.951952873
 31
0.0
 11
-25.3543222975
 21
-25.9218192391
 31
0.0
 11
-25.4836739757
 21
-25.8359590597
 31
0.0
 11
-25.570561044
 21
-25.7073024028
 31
0.0
 11
-25.601952873
 21
-25.5552429259
 31
0.0
  0
SPLINE
  5
36A
100
AcDbEntity
  8
RACCORDO
100
AcDbSpline
 62
253
  6
CONTINUOUS
 70
0
 71
3
 72
11
 73
7
 74
5
 42
0.0000001
 43
0.0000001
 44
0.0000000001
 12
0.0001539294
 22
-0.918359028
 32
0.0
 13
-0.9183590363
 23
-0.0000919294
 33
0.0
 40
0.0
 40
0.0
 40
0.0
 40
0.0
 40
0.2502624158
 40
0.5002644967
 40
0.7500997209
 40
1.0
 40
1.0
 40
1.0
 40
1.0
 10
23.2014857566
 20
-22.828226657
 30
0.0
 10
23.2014985975
 20
-22.9048369066
 30
0.0
 10
23.1746423349
 20
-23.0595306985
 30
0.0
 10
23.052113761
 20
-23.2605284345
 30
0.0
 10
22.8598718288
 20
-23.3974627639
 30
0.0
 10
22.7049136101
 20
-23.428804002
 30
0.0
 10
22.628414217
 20
-23.4288116597
 30
0.0
 11
23.2014857566
 21
-22.828226657
 31
0.0
 11
23.1608986306
 21
-23.0544452677
 31
0.0
 11
23.0404497024
 21
-23.2499047039
 31
0.0
 11
22.853185282
 21
-23.3824717931
 31
0.0
 11
22.628414217
 21
-23.4288116597
 31
0.0
  0
SPLINE
  5
36B
100
AcDbEntity
  8
RACCORDO
100
AcDbSpline
 62
253
  6
CONTINUOUS
 70
0
 71
3
 72
11
 73
7
 74
5
 42
0.0000001
 43
0.0000001
 44
0.0000000001
 12
0.9183621973
 22
0.0001042104
 32
0.0
 13
-0.0000144934
 23
-0.9183622031
 33
0.0
 40
0.0
 40
0.0
 40
0.0
 40
0.0
 40
0.2498969706
 40
0.4997337696
 40
0.7497357693
 40
1.0
 40
1.0
 40
1.0
 40
1.0
 10
22.628414217
 20
23.4288116597
 30
0.0
 10
22.7049128606
 20
23.4288203403
 30
0.0
 10
22.8598803778
 20
23.3974891728
 30
0.0
 10
23.0521046839
 20
23.2605290197
 30
0.0
 10
23.1746299946
 20
23.0595299465
 30
0.0
 10
23.2014869656
 20
22.9048377271
 30
0.0
 10
23.2014857566
 20
22.828226657
 30
0.0
 11
22.628414217
 21
23.4288116597
 31
0.0
 11
22.8531871523
 21
23.3824920037
 31
0.0
 11
23.0404431671
 21
23.2499091713
 31
0.0
 11
23.1608868255
 21
23.0544456468
 31
0.0
 11
23.2014857566
 21
22.828226657
 31
0.0
  0
SPLINE
  5
36C
100
AcDbEntity
  8
RACCORDO
100
AcDbSpline
 62
253
  6
CONTINUOUS
 70
0
 71
3
 72
23
 73
19
 74
17
 42
0.0000001
 43
0.0000001
 44
0.0000000001
 12
-0.0052250696
 22
0.6999442616
 32
0.0
 13
0.6997738237
 23
0.0163054114
 33
0.0
 40
0.0
 40
0.0
 40
0.0
 40
0.0
 40
0.1950458747
 40
0.3826397505
 40
0.555484779
 40
0.6343043597
 40
0.7070050217
 40
0.7729042947
 40
0.831352309
 40
0.8818043226
 40
0.9237617168
 40
0.9568261729
 40
0.969925046
 40
0.9806839856
 40
0.989079053
 40
0.9950984995
 40
0.9987336937
 40
1.0
 40
1.0
 40
1.0
 40
1.0
 10
-83.2548518862
 20
25.552013795
 30
0.0
 10
-83.2551915956
 20
25.5975208752
 30
0.0
 10
-83.2557952785
 20
25.6867968574
 30
0.0
 10
-83.2564767476
 20
25.8164015253
 30
0.0
 10
-83.2568432082
 20
25.9188892621
 30
0.0
 10
-83.2569926828
 20
25.9945704739
 30
0.0
 10
-83.257030935
 20
26.0452989828
 30
0.0
 10
-83.2569997376
 20
26.091274743
 30
0.0
 10
-83.2568984077
 20
26.132058175
 30
0.0
 10
-83.2567319807
 20
26.1672586377
 30
0.0
 10
-83.2564954112
 20
26.1965262058
 30
0.0
 10
-83.2562463159
 20
26.2171021043
 30
0.0
 10
-83.2559799781
 20
26.230354849
 30
0.0
 10
-83.255819166
 20
26.2379329404
 30
0.0
 10
-83.2555468985
 20
26.2436602251
 30
0.0
 10
-83.2555043681
 20
26.2481918609
 30
0.0
 10
-83.255013255
 20
26.2501563239
 30
0.0
 10
-83.2551472622
 20
26.251900299
 30
0.0
 10
-83.2548518862
 20
26.2519071816
 30
0.0
 11
-83.2548518862
 21
25.552013795
 31
0.0
 11
-83.2557721502
 21
25.6885357379
 31
0.0
 11
-83.2564565169
 21
25.8198428699
 31
0.0
 11
-83.2568773183
 21
25.9408273948
 31
0.0
 11
-83.2569838219
 21
25.9959981424
 31
0.0
 11
-83.2570193848
 21
26.0468859589
 31
0.0
 11
-83.2569838419
 21
26.0930130484
 31
0.0
 11
-83.2568773499
 21
26.1339244019
 31
0.0
 11
-83.2567010637
 21
26.1692385432
 31
0.0
 11
-83.2564565553
 21
26.198606181
 31
0.0
 11
-83.2561460131
 21
26.2217480186
 31
0.0
 11
-83.2559668217
 21
26.2309150039
 31
0.0
 11
-83.2557721489
 21
26.2384433552
 31
0.0
 11
-83.2555625651
 21
26.2443158595
 31
0.0
 11
-83.2553388221
 21
26.248523309
 31
0.0
 11
-83.2551016767
 21
26.2510567383
 31
0.0
 11
-83.2548518862
 21
26.2519071816
 31
0.0
  0
SPLINE
  5
36D
100
AcDbEntity
  8
RACCORDO
100
AcDbSpline
 62
253
  6
CONTINUOUS
 70
0
 71
3
 72
23
 73
19
 74
17
 42
0.0000001
 43
0.0000001
 44
0.0000000001
 12
-0.699723268
 22
0.0183467323
 32
0.0
 13
0.0052239514
 23
0.6999442583
 33
0.0
 40
0.0
 40
0.0
 40
0.0
 40
0.0
 40
0.0012669938
 40
0.0049023045
 40
0.010921506
 40
0.0193161922
 40
0.0300748356
 40
0.0431735956
 40
0.0762381591
 40
0.1181957108
 40
0.1686477238
 40
0.2270956894
 40
0.2929949544
 40
0.3656956318
 40
0.4445152214
 40
0.6173602503
 40
0.8049541264
 40
1.0
 40
1.0
 40
1.0
 40
1.0
 10
-83.2548518862
 20
-26.2519071816
 30
0.0
 10
-83.2551474012
 20
-26.2518994332
 30
0.0
 10
-83.2550131672
 20
-26.2501571015
 30
0.0
 10
-83.2555044534
 20
-26.2481906184
 30
0.0
 10
-83.2555468995
 20
-26.2436602045
 30
0.0
 10
-83.2558191746
 20
-26.2379326474
 30
0.0
 10
-83.2559799541
 20
-26.2303549268
 30
0.0
 10
-83.2562462823
 20
-26.2171021649
 30
0.0
 10
-83.2564953703
 20
-26.1965262879
 30
0.0
 10
-83.2567319449
 20
-26.1672586343
 30
0.0
 10
-83.256898375
 20
-26.1320581556
 30
0.0
 10
-83.2569997169
 20
-26.0912747349
 30
0.0
 10
-83.2570309361
 20
-26.045298986
 30
0.0
 10
-83.2569927055
 20
-25.9945704738
 30
0.0
 10
-83.2568432441
 20
-25.9188892576
 30
0.0
 10
-83.2564767929
 20
-25.8164015201
 30
0.0
 10
-83.2557952923
 20
-25.6867968546
 30
0.0
 10
-83.2551915229
 20
-25.5975208747
 30
0.0
 10
-83.2548518862
 20
-25.552013795
 30
0.0
 11
-83.2548518862
 21
-26.2519071816
 31
0.0
 11
-83.2551017122
 21
-26.2510562472
 31
0.0
 11
-83.255338862
 21
-26.2485227365
 31
0.0
 11
-83.2555625899
 21
-26.2443154579
 31
0.0
 11
-83.2557721502
 21
-26.2384432199
 31
0.0
 11
-83.2559668025
 21
-26.2309150756
 31
0.0
 11
-83.2561459817
 21
-26.2217481694
 31
0.0
 11
-83.2564565169
 21
-26.1986062568
 31
0.0
 11
-83.2567010275
 21
-26.1692385094
 31
0.0
 11
-83.2568773183
 21
-26.1339243691
 31
0.0
 11
-83.2569838219
 21
-26.0930130504
 31
0.0
 11
-83.2570193848
 21
-26.0468859673
 31
0.0
 11
-83.2569838419
 21
-25.9959981408
 31
0.0
 11
-83.2568773499
 21
-25.9408273879
 31
0.0
 11
-83.2564565553
 21
-25.8198428647
 31
0.0
 11
-83.2557721489
 21
-25.6885357349
 31
0.0
 11
-83.2548518862
 21
-25.552013795
 31
0.0
  0
ELLIPSE
  5
36E
100
AcDbEntity
  8
RACCORDO
100
AcDbEllipse
 62
7
  6
CONTINUOUS
 10
22.3412267691
 20
22.2912267691
 30
0.0
 11
-0.2121966568
 21
-0.2121966568
 31
0.0
 40
0.9996954599
 41
2.3563467834
 42
3.9268385237
  0
ELLIPSE
  5
36F
100
AcDbEntity
  8
RACCORDO
100
AcDbEllipse
 62
7
  6
CONTINUOUS
 10
22.3412267691
 20
-22.2912267691
 30
0.0
 11
-0.2121966568
 21
0.2121966568
 31
0.0
 40
0.9996954599
 41
2.3563467834
 42
3.9268385237
  0
ELLIPSE
  5
370
100
AcDbEntity
  8
RACCORDO
100
AcDbEllipse
 62
7
  6
CONTINUOUS
 10
-22.3412267691
 20
22.2912267691
 30
0.0
 11
-0.2121966568
 21
0.2121966568
 31
0.0
 40
0.9996954599
 41
-0.7852458701
 42
0.7852458701
  0
ELLIPSE
  5
371
100
AcDbEntity
  8
RACCORDO
100
AcDbEllipse
 62
7
  6
CONTINUOUS
 10
-22.3412267691
 20
-22.2912267691
 30
0.0
 11
0.2121966568
 21
0.2121966568
 31
0.0
 40
0.9996954599
 41
2.3563467834
 42
3.9268385237
  0
ELLIPSE
  5
372
100
AcDbEntity
  8
RACCORDO
100
AcDbEllipse
 62
7
  6
CONTINUOUS
 10
25.2088739678
 20
25.5588739678
 30
0.0
 11
0.4951255324
 21
0.4951255324
 31
0.0
 40
0.9996954599
 41
-0.7852458702
 42
0.7852458701
  0
ELLIPSE
  5
373
100
AcDbEntity
  8
RACCORDO
100
AcDbEllipse
 62
7
  6
CONTINUOUS
 10
25.2088739678
 20
-25.5588739678
 30
0.0
 11
0.4951255324
 21
-0.4951255324
 31
0.0
 40
0.9996954599
 41
-0.7852458702
 42
0.7852458701
  0
ELLIPSE
  5
374
100
AcDbEntity
  8
RACCORDO
100
AcDbEllipse
 62
7
  6
CONTINUOUS
 10
-25.2088739678
 20
-25.5588739678
 30
0.0
 11
0.4951255324
 21
0.4951255324
 31
0.0
 40
0.9996954599
 41
-3.9268385237
 42
-2.3563467834
  0
ELLIPSE
  5
375
100
AcDbEntity
  8
RACCORDO
100
AcDbEllipse
 62
7
  6
CONTINUOUS
 10
-25.2088739678
 20
25.5588739678
 30
0.0
 11
-0.4951255324
 21
0.4951255324
 31
0.0
 40
0.9996954599
 41
-0.7852458701
 42
0.7852458702
  0
ELLIPSE
  5
376
100
AcDbEntity
  8
SMUSSO
100
AcDbEllipse
 62
7
  6
CONTINUOUS
 10
-81.1829494976
 20
46.7
 30
0.0
 11
0.0
 21
1.0
 31
0.0
 40
0.3333333333
 41
-1.5707963268
 42
-0.7853981634
  0
ELLIPSE
  5
377
100
AcDbEntity
  8
SMUSSO
100
AcDbEllipse
 62
7
  6
CONTINUOUS
 10
-81.1829494976
 20
-46.7
 30
0.0
 11
0.0
 21
1.0
 31
0.0
 40
0.3333333333
 41
-2.3561944902
 42
-1.5707963268
  0
ELLIPSE
  5
378
100
AcDbEntity
  8
ASSI
100
AcDbEllipse
 62
7
  6
CONTINUOUS
 10
-73.4496161642
 20
-25.9914384441
 30
0.0
 11
0.1417119467
 21
0.1422961243
 31
0.0
 40
0.9918061237
 41
-0.7833412615
 42
0.7350951877
  0
ELLIPSE
  5
379
100
AcDbEntity
  8
ASSI
100
AcDbEllipse
 62
7
  6
CONTINUOUS
 10
-73.4496161642
 20
25.9914384441
 30
0.0
 11
-0.1417119467
 21
0.1422961243
 31
0.0
 40
0.9918061237
 41
-3.8766878413
 42
-2.358251392
  0
ENDSEC
  0
SECTION
  2
OBJECTS
  0
DICTIONARY
  5
C
100
AcDbDictionary
280
0
281
1
  3
ACAD_GROUP
350
D
  3
ACAD_MLINESTYLE
350
17
  3
ACAD_LAYOUT
350
1A
  3
ACAD_PLOTSETTINGS
350
19
  3
ACAD_PLOTSTYLENAME
350
E
  0
DICTIONARY
  5
D
102
{ACAD_REACTORS
330
C
102
}
100
AcDbDictionary
280
0
281
1
  0
ACDBDICTIONARYWDFLT
  5
E
102
{ACAD_REACTORS
330
C
102
}
100
AcDbDictionary
281
1
  3
Normal
350
F
100
AcDbDictionaryWithDefault
340
F
  0
DICTIONARY
  5
17
102
{ACAD_REACTORS
330
C
102
}
100
AcDbDictionary
280
0
281
1
  3
Standard
350
18
  0
DICTIONARY
  5
19
102
{ACAD_REACTORS
330
C
102
}
100
AcDbDictionary
281
1
  0
DICTIONARY
  5
1A
102
{ACAD_REACTORS
330
C
102
}
100
AcDbDictionary
281
1
  3
Model
350
37A
  3
Layout1
350
37B
  0
ACDBPLACEHOLDER
  5
F
102
{ACAD_REACTORS
330
E
102
}
  0
MLINESTYLE
  5
18
102
{ACAD_REACTORS
330
17
102
}
100
AcDbMlineStyle
  2
STANDARD
 70
0
  3

 62
256
 51
90.0
 52
90.0
 71
2
 49
0.5
 62
256
  6
BYLAYER
 49
-0.5
 62
256
  6
BYLAYER
  0
LAYOUT
  5
37A
102
{ACAD_REACTORS
330
1A
102
}
100
AcDbPlotSettings
  1

  2
none_device
  4
ISO_A4_(297.00_x_210.00_MM)
  6

 40
0.0
 41
0.0
 42
0.0
 43
0.0
 44
297.0
 45
210.0
 46
0.0
 47
0.0
 48
0.0
 49
0.0
140
0.0
141
0.0
142
1.0
143
1.0
 70
1024
 72
1
 73
0
 74
0
  7

 75
0
147
1.0
148
0.0
149
0.0
100
AcDbLayout
  1
Model
 70
0
 71
0
 10
0.0
 20
0.0
 11
297.0
 21
210.0
 12
0.0
 22
0.0
 32
0.0
 14
0.0
 24
0.0
 34
0.0
 15
0.0
 25
0.0
 35
0.0
146
0.0
 13
0.0
 23
0.0
 33
0.0
 16
1.0
 26
0.0
 36
0.0
 17
0.0
 27
1.0
 37
0.0
 76
0
330
212
345
0
346
0
  0
LAYOUT
  5
37B
102
{ACAD_REACTORS
330
1A
102
}
100
AcDbPlotSettings
  1

  2
none_device
  4
ISO_A4_(297.00_x_210.00_MM)
  6

 40
0.0
 41
0.0
 42
0.0
 43
0.0
 44
297.0
 45
210.0
 46
0.0
 47
0.0
 48
0.0
 49
0.0
140
0.0
141
0.0
142
1.0
143
1.0
 70
0
 72
1
 73
0
 74
0
  7

 75
0
147
1.0
148
0.0
149
0.0
100
AcDbLayout
  1
Layout1
 70
0
 71
1
 10
0.0
 20
0.0
 11
297.0
 21
210.0
 12
0.0
 22
0.0
 32
0.0
 14
0.0
 24
0.0
 34
0.0
 15
0.0
 25
0.0
 35
0.0
146
0.0
 13
0.0
 23
0.0
 33
0.0
 16
1.0
 26
0.0
 36
0.0
 17
0.0
 27
1.0
 37
0.0
 76
0
330
213
345
0
346
0
  0
ENDSEC
  0
EOF
