  0
SECTION
  2
HEADER
  9
$ACADVER
  1
AC1015
  9
$DWGCODEPAGE
  3
ANSI_1252
  9
$EXTMAX
 10
297.0
 20
210.0
 30
0.0
  9
$EXTMIN
 10
0.0
 20
0.0
 30
0.0
  9
$LIMMIN
 10
0.0
 20
0.0
  9
$LIMMAX
 10
297.0
 20
210.0
  9
$VIEWCTR
 10
148.5
 20
105.0
  9
$VIEWSIZE
 40
210.0
  9
$CLAYER
  8
0
  9
$LTSCALE
 40
16.335
  9
$CELTYPE
  6
BYLAYER
  9
$DIMSCALE
 40
1.0
  9
$DIMASZ
 40
3.0
  9
$DIMEXO
 40
1.85625
  9
$DIMDLI
 40
11.286
  9
$DIMEXE
 40
5.346
  9
$DIMCEN
 40
2.673
  9
$DIMLFAC
 40
1.0
  9
$DIMBLK
  1
_FILLED
  9
$DIMTXT
 40
3.0
  9
$DIMTOL
 70
1
  9
$DIMLIM
 70
0
  9
$DIMTFAC
 40
1.0
  9
$DIMTP
 40
0.01
  9
$DIMTM
 40
0.01
  9
$PDMODE
 70
3
  9
$PDSIZE
 40
3.0
  9
$HANDSEED
  5
44F
  9
$TILEMODE
 70
1
  9
$MEASUREMENT
 70
1
  9
$INSUNITS
 70
4
  0
ENDSEC
  0
SECTION
  2
CLASSES
  0
CLASS
  1
ACDBDICTIONARYWDFLT
  2
AcDbDictionaryWithDefault
  3
AutoCAD 2000
 90
0
280
0
281
0
  0
CLASS
  1
ACDBPLACEHOLDER
  2
AcDbPlaceHolder
  3
AutoCAD 2000
 90
0
280
0
281
0
  0
CLASS
  1
LAYOUT
  2
AcDbLayout
  3
AutoCAD 2000
 90
0
280
0
281
0
  0
ENDSEC
  0
SECTION
  2
TABLES
  0
TABLE
  2
VPORT
  5
8
100
AcDbSymbolTable
 70
2
  0
VPORT
  5
1F4
100
AcDbSymbolTableRecord
100
AcDbViewportTableRecord
  2
*ACTIVE
 70
0
 10
0.0
 20
0.0
 11
1.0
 21
1.0
 12
148.5
 22
105.0
 13
0.0
 23
0.0
 14
1.0
 24
1.0
 15
0.0
 25
0.0
 16
0.0
 26
0.0
 36
1.0
 17
0.0
 27
0.0
 37
0.0
 40
210.0
 41
1.4142857143
 42
50.0
 43
0.0
 44
0.0
 50
0.0
 51
0.0
 71
0
 72
100
 73
1
 74
1
 75
0
 76
0
 77
0
 78
0
  0
ENDTAB
  0
TABLE
  2
LTYPE
  5
5
100
AcDbSymbolTable
 70
6
  0
LTYPE
  5
14
100
AcDbSymbolTableRecord
100
AcDbLinetypeTableRecord
  2
BYBLOCK
 70
0
  3

 72
65
 73
0
 40
0.0
  0
LTYPE
  5
15
100
AcDbSymbolTableRecord
100
AcDbLinetypeTableRecord
  2
BYLAYER
 70
0
  3

 72
65
 73
0
 40
0.0
  0
LTYPE
  5
16
100
AcDbSymbolTableRecord
100
AcDbLinetypeTableRecord
  2
CONTINUOUS
 70
64
  3
Solid line
 72
65
 73
0
 40
0.0
  0
LTYPE
  5
1F5
100
AcDbSymbolTableRecord
100
AcDbLinetypeTableRecord
  2
CENTER
 70
64
  3
____ _ ____ _ ____ _ ____ _ ____ _ ____ _ ____
 72
65
 73
4
 40
0.6
 49
0.375
 74
0
 49
-0.075
 74
0
 49
0.075
 74
0
 49
-0.075
 74
0
  0
LTYPE
  5
1F6
100
AcDbSymbolTableRecord
100
AcDbLinetypeTableRecord
  2
HIDDEN
 70
64
  3
- - - - - - - - - - - - - - - - - - - -
 72
65
 73
2
 40
0.2
 49
0.1
 74
0
 49
-0.1
 74
0
  0
LTYPE
  5
1F7
100
AcDbSymbolTableRecord
100
AcDbLinetypeTableRecord
  2
PHANTOM
 70
64
  3
_____ _ _ _____ _ _ _____ _ _ _____
 72
65
 73
6
 40
0.8
 49
0.45
 74
0
 49
-0.05
 74
0
 49
0.1
 74
0
 49
-0.05
 74
0
 49
0.1
 74
0
 49
-0.05
 74
0
  0
LTYPE
  5
1F8
100
AcDbSymbolTableRecord
100
AcDbLinetypeTableRecord
  2
DOT
 70
64
  3
. . . . . . . . . . . . . . . . . . . .
 72
65
 73
2
 40
0.2
 49
0.1
 74
0
 49
-0.1
 74
0
  0
LTYPE
  5
1F9
100
AcDbSymbolTableRecord
100
AcDbLinetypeTableRecord
  2
DASHED
 70
64
  3
- - - - - - - - - - - - - - - - - - - -
 72
65
 73
2
 40
0.2
 49
0.1
 74
0
 49
-0.1
 74
0
  0
ENDTAB
  0
TABLE
  2
LAYER
  5
2
100
AcDbSymbolTable
 70
36
  0
LAYER
  5
10
100
AcDbSymbolTableRecord
100
AcDbLayerTableRecord
  2
0
 70
0
 62
7
  6
CONTINUOUS
370
-3
390
F
  0
LAYER
  5
1FA
100
AcDbSymbolTableRecord
100
AcDbLayerTableRecord
  2
DEFAULT_1
 70
0
 62
7
  6
CENTER
370
-3
390
F
  0
LAYER
  5
1FB
100
AcDbSymbolTableRecord
100
AcDbLayerTableRecord
  2
DEFAULT_2
 70
0
 62
7
  6
HIDDEN
370
-3
390
F
  0
LAYER
  5
1FC
100
AcDbSymbolTableRecord
100
AcDbLayerTableRecord
  2
DEFAULT_3
 70
0
 62
7
  6
PHANTOM
370
-3
390
F
  0
LAYER
  5
1FD
100
AcDbSymbolTableRecord
100
AcDbLayerTableRecord
  2
ASSI
 70
0
 62
7
  6
CONTINUOUS
370
-3
390
F
  0
LAYER
  5
1FE
100
AcDbSymbolTableRecord
100
AcDbLayerTableRecord
  2
COORDINATE
 70
0
 62
7
  6
CONTINUOUS
370
-3
390
F
  0
LAYER
  5
1FF
100
AcDbSymbolTableRecord
100
AcDbLayerTableRecord
  2
COORD_ORIGINE
 70
0
 62
7
  6
CONTINUOUS
370
-3
390
F
  0
LAYER
  5
200
100
AcDbSymbolTableRecord
100
AcDbLayerTableRecord
  2
COPY_PUBLISH
 70
0
 62
7
  6
CONTINUOUS
370
-3
390
F
  0
LAYER
  5
201
100
AcDbSymbolTableRecord
100
AcDbLayerTableRecord
  2
COSMETIC
 70
0
 62
7
  6
CONTINUOUS
370
-3
390
F
  0
LAYER
  5
202
100
AcDbSymbolTableRecord
100
AcDbLayerTableRecord
  2
COSMETICI
 70
0
 62
7
  6
CONTINUOUS
370
-3
390
F
  0
LAYER
  5
203
100
AcDbSymbolTableRecord
100
AcDbLayerTableRecord
  2
CURVE
 70
0
 62
7
  6
CONTINUOUS
370
-3
390
F
  0
LAYER
  5
204
100
AcDbSymbolTableRecord
100
AcDbLayerTableRecord
  2
DRAFT
 70
0
 62
7
  6
CONTINUOUS
370
-3
390
F
  0
LAYER
  5
205
100
AcDbSymbolTableRecord
100
AcDbLayerTableRecord
  2
IMPORT_IGES
 70
0
 62
7
  6
CONTINUOUS
370
-3
390
F
  0
LAYER
  5
206
100
AcDbSymbolTableRecord
100
AcDbLayerTableRecord
  2
INTFCLR_2
 70
0
 62
7
  6
CONTINUOUS
370
-3
390
F
  0
LAYER
  5
207
100
AcDbSymbolTableRecord
100
AcDbLayerTableRecord
  2
NOTE
 70
0
 62
7
  6
CONTINUOUS
370
-3
390
F
  0
LAYER
  5
208
100
AcDbSymbolTableRecord
100
AcDbLayerTableRecord
  2
PIANI
 70
0
 62
7
  6
CONTINUOUS
370
-3
390
F
  0
LAYER
  5
209
100
AcDbSymbolTableRecord
100
AcDbLayerTableRecord
  2
PIANI_ORIGINE
 70
0
 62
7
  6
CONTINUOUS
370
-3
390
F
  0
LAYER
  5
20A
100
AcDbSymbolTableRecord
100
AcDbLayerTableRecord
  2
PIANI_RIFERIMENTO
 70
0
 62
7
  6
CONTINUOUS
370
-3
390
F
  0
LAYER
  5
20B
100
AcDbSymbolTableRecord
100
AcDbLayerTableRecord
  2
PUNTI
 70
0
 62
7
  6
CONTINUOUS
370
-3
390
F
  0
LAYER
  5
20C
100
AcDbSymbolTableRecord
100
AcDbLayerTableRecord
  2
RACCORDO
 70
0
 62
7
  6
CONTINUOUS
370
-3
390
F
  0
LAYER
  5
20D
100
AcDbSymbolTableRecord
100
AcDbLayerTableRecord
  2
SIMBOLI
 70
0
 62
7
  6
CONTINUOUS
370
-3
390
F
  0
LAYER
  5
20E
100
AcDbSymbolTableRecord
100
AcDbLayerTableRecord
  2
SMUSSO
 70
0
 62
7
  6
CONTINUOUS
370
-3
390
F
  0
LAYER
  5
20F
100
AcDbSymbolTableRecord
100
AcDbLayerTableRecord
  2
SNAPLINE
 70
0
 62
7
  6
CONTINUOUS
370
-3
390
F
  0
LAYER
  5
210
100
AcDbSymbolTableRecord
100
AcDbLayerTableRecord
  2
SUPERFICI
 70
0
 62
7
  6
CONTINUOUS
370
-3
390
F
  0
LAYER
  5
211
100
AcDbSymbolTableRecord
100
AcDbLayerTableRecord
  2
TRASH
 70
0
 62
7
  6
CONTINUOUS
370
-3
390
F
  0
LAYER
  5
212
100
AcDbSymbolTableRecord
100
AcDbLayerTableRecord
  2
XSEC_DATUMS
 70
0
 62
7
  6
CONTINUOUS
370
-3
390
F
  0
ENDTAB
  0
TABLE
  2
STYLE
  5
3
100
AcDbSymbolTable
 70
1
  0
STYLE
  5
11
100
AcDbSymbolTableRecord
100
AcDbTextStyleTableRecord
  2
STANDARD
 70
0
 40
0.0
 41
0.8
 50
0.0
 71
0
 42
0.2
  3
txt
  4

  0
STYLE
  5
213
100
AcDbSymbolTableRecord
100
AcDbTextStyleTableRecord
  2
TEXTSTYLE_1
 70
0
 40
0.0
 41
0.8
 50
0.0
 71
0
 42
0.2
  3
gdt
  4

  0
ENDTAB
  0
TABLE
  2
VIEW
  5
6
100
AcDbSymbolTable
 70
0
  0
ENDTAB
  0
TABLE
  2
UCS
  5
7
100
AcDbSymbolTable
 70
0
  0
ENDTAB
  0
TABLE
  2
APPID
  5
9
100
AcDbSymbolTable
 70
1
  0
APPID
  5
214
100
AcDbSymbolTableRecord
100
AcDbRegAppTableRecord
  2
ACAD
 70
0
  0
ENDTAB
  0
TABLE
  2
BLOCK_RECORD
  5
1
100
AcDbSymbolTable
 70
0
  0
BLOCK_RECORD
  5
215
100
AcDbSymbolTableRecord
100
AcDbBlockTableRecord
  2
*Model_Space
  0
BLOCK_RECORD
  5
216
100
AcDbSymbolTableRecord
100
AcDbBlockTableRecord
  2
*Paper_Space
  0
BLOCK_RECORD
  5
217
100
AcDbSymbolTableRecord
100
AcDbBlockTableRecord
  2
_FILLED
  0
BLOCK_RECORD
  5
218
100
AcDbSymbolTableRecord
100
AcDbBlockTableRecord
  2
*D0
  0
BLOCK_RECORD
  5
219
100
AcDbSymbolTableRecord
100
AcDbBlockTableRecord
  2
*D1
  0
BLOCK_RECORD
  5
21A
100
AcDbSymbolTableRecord
100
AcDbBlockTableRecord
  2
*D2
  0
BLOCK_RECORD
  5
21B
100
AcDbSymbolTableRecord
100
AcDbBlockTableRecord
  2
*D3
  0
ENDTAB
  0
TABLE
  2
DIMSTYLE
  5
A
100
AcDbSymbolTable
 70
1
100
AcDbDimStyleTable
 71
0
  0
DIMSTYLE
105
21C
100
AcDbSymbolTableRecord
100
AcDbDimStyleTableRecord
  2
STANDARD
 70
0
  3

  4

 40
1.0
 41
3.0
 42
0.0625
 43
0.38
 44
0.18
 45
0.0
 46
0.0
 47
0.01
 48
0.01
140
3.0
141
0.09
142
0.0
143
25.4
144
1.0
145
0.0
146
1.0
147
0.09
 71
1.0
 72
0.0
 73
0
 74
0
 75
0
 76
0
 77
1
 78
8
170
0
171
2
172
0
173
0
174
0
175
0
176
0
177
0
178
0
270
2
271
2
272
2
273
2
274
2
275
0
280
0
281
0
282
0
283
1
284
8
285
0
286
0
287
3
288
0
340
11
341
217
342
217
343
217
344
217
  0
DIMSTYLE
105
21D
100
AcDbSymbolTableRecord
100
AcDbDimStyleTableRecord
  2
DIMSTYLE_1
 70
0
  3

  4

 40
1.0
 41
3.0
 42
0.0625
 43
0.38
 44
0.18
 45
0.0
 46
0.0
 47
0.0
 48
0.0
140
3.0
141
0.09
142
0.0
143
25.4
144
1.0
145
0.0
146
1.0
147
0.09
 71
0.0
 72
0.0
 73
0
 74
0
 75
0
 76
0
 77
1
 78
8
170
0
171
2
172
0
173
0
174
0
175
0
176
0
177
0
178
0
270
2
271
2
272
2
273
2
274
2
275
0
280
0
281
0
282
0
283
1
284
8
285
0
286
0
287
3
288
0
340
11
341
217
342
217
343
217
344
217
  0
ENDTAB
  0
ENDSEC
  0
SECTION
  2
BLOCKS
  0
BLOCK
  5
20
100
AcDbEntity
  8
0
100
AcDbBlockBegin
  2
*Model_Space
 70
0
 10
0.0
 20
0.0
 30
0.0
  3
*Model_Space
  1

  0
ENDBLK
  5
21
100
AcDbEntity
  8
0
100
AcDbBlockEnd
  0
BLOCK
  5
1C
100
AcDbEntity
  8
0
100
AcDbBlockBegin
  2
*Paper_Space
 70
0
 10
0.0
 20
0.0
 30
0.0
  3
*Paper_Space
  1

  0
ENDBLK
  5
1D
100
AcDbEntity
  8
0
100
AcDbBlockEnd
  0
BLOCK
  5
21E
100
AcDbEntity
  8
0
100
AcDbBlockBegin
  2
_FILLED
 70
64
 10
0.0
 20
0.0
  3
_FILLED
  1

  0
SOLID
  5
21F
100
AcDbEntity
  8
0
  6
BYBLOCK
 62
0
100
AcDbTrace
 10
0.0
 20
0.0
 11
-1.0
 21
0.3166666667
 12
-1.0
 22
-0.3166666667
 13
-1.0
 23
-0.3166666667
  0
ENDBLK
  5
220
100
AcDbEntity
  8
0
  6
BYBLOCK
 62
0
100
AcDbBlockEnd
  0
BLOCK
  5
221
100
AcDbEntity
  8
0
100
AcDbBlockBegin
 62
7
  6
CONTINUOUS
  2
*D0
 70
65
 10
0.0
 20
0.0
  3
*D0
  1

  0
LINE
  5
222
100
AcDbEntity
  8
0
100
AcDbLine
 62
7
  6
CONTINUOUS
 10
-47.7
 20
82.7
 11
-47.7
 21
92.7
  0
LINE
  5
223
100
AcDbEntity
  8
0
100
AcDbLine
 62
7
  6
CONTINUOUS
 10
47.7
 20
82.7
 11
47.7
 21
92.7
  0
LINE
  5
224
100
AcDbEntity
  8
0
100
AcDbLine
 62
7
  6
CONTINUOUS
 10
-47.7
 20
91.2
 11
0.0
 21
91.2
  0
LINE
  5
225
100
AcDbEntity
  8
0
100
AcDbLine
 62
7
  6
CONTINUOUS
 10
47.7
 20
91.2
 11
0.0
 21
91.2
  0
INSERT
  5
226
100
AcDbEntity
  8
0
100
AcDbBlockReference
 62
7
  6
CONTINUOUS
  2
_FILLED
 10
-47.7
 20
91.2
 41
3.0
 42
3.0
 43
3.0
 50
180.0
  0
INSERT
  5
227
100
AcDbEntity
  8
0
100
AcDbBlockReference
 62
7
  6
CONTINUOUS
  2
_FILLED
 10
47.7
 20
91.2
 41
3.0
 42
3.0
 43
3.0
  0
ENDBLK
  5
228
100
AcDbEntity
  8
0
  6
BYBLOCK
 62
0
100
AcDbBlockEnd
  0
BLOCK
  5
229
100
AcDbEntity
  8
0
100
AcDbBlockBegin
 62
7
  6
CONTINUOUS
  2
*D1
 70
65
 10
0.0
 20
0.0
  3
*D1
  1

  0
LINE
  5
22A
100
AcDbEntity
  8
0
100
AcDbLine
 62
7
  6
CONTINUOUS
 10
100.4617465996
 20
61.5589958209
 11
100.4617465996
 21
92.7
  0
LINE
  5
22B
100
AcDbEntity
  8
0
100
AcDbLine
 62
7
  6
CONTINUOUS
 10
92.2617465996
 20
79.6601579604
 11
92.2617465996
 21
92.7
  0
LINE
  5
22C
100
AcDbEntity
  8
0
100
AcDbLine
 62
7
  6
CONTINUOUS
 10
100.4617465996
 20
91.2
 11
96.3617465996
 21
91.2
  0
LINE
  5
22D
100
AcDbEntity
  8
0
100
AcDbLine
 62
7
  6
CONTINUOUS
 10
96.3617465996
 20
91.2
 11
108.2900168416
 21
91.2
  0
LINE
  5
22E
100
AcDbEntity
  8
0
100
AcDbLine
 62
7
  6
CONTINUOUS
 10
92.2617465996
 20
91.2
 11
96.3617465996
 21
91.2
  0
INSERT
  5
22F
100
AcDbEntity
  8
0
100
AcDbBlockReference
 62
7
  6
CONTINUOUS
  2
_FILLED
 10
100.4617465996
 20
91.2
 41
3.0
 42
3.0
 43
3.0
  0
INSERT
  5
230
100
AcDbEntity
  8
0
100
AcDbBlockReference
 62
7
  6
CONTINUOUS
  2
_FILLED
 10
92.2617465996
 20
91.2
 41
3.0
 42
3.0
 43
3.0
 50
180.0
  0
ENDBLK
  5
231
100
AcDbEntity
  8
0
  6
BYBLOCK
 62
0
100
AcDbBlockEnd
  0
BLOCK
  5
232
100
AcDbEntity
  8
0
100
AcDbBlockBegin
 62
7
  6
CONTINUOUS
  2
*D2
 70
65
 10
0.0
 20
0.0
  3
*D2
  1

  0
LINE
  5
233
100
AcDbEntity
  8
0
100
AcDbLine
 62
7
  6
CONTINUOUS
 10
100.4617465996
 20
61.5589958209
 11
100.4617465996
 21
102.7
  0
LINE
  5
234
100
AcDbEntity
  8
0
100
AcDbLine
 62
7
  6
CONTINUOUS
 10
90.8617465996
 20
48.05
 11
90.8617465996
 21
102.7
  0
LINE
  5
235
100
AcDbEntity
  8
0
100
AcDbLine
 62
7
  6
CONTINUOUS
 10
100.4617465996
 20
101.2
 11
95.6617465996
 21
101.2
  0
LINE
  5
236
100
AcDbEntity
  8
0
100
AcDbLine
 62
7
  6
CONTINUOUS
 10
90.8617465996
 20
101.2
 11
95.6617465996
 21
101.2
  0
INSERT
  5
237
100
AcDbEntity
  8
0
100
AcDbBlockReference
 62
7
  6
CONTINUOUS
  2
_FILLED
 10
100.4617465996
 20
101.2
 41
3.0
 42
3.0
 43
3.0
  0
INSERT
  5
238
100
AcDbEntity
  8
0
100
AcDbBlockReference
 62
7
  6
CONTINUOUS
  2
_FILLED
 10
90.8617465996
 20
101.2
 41
3.0
 42
3.0
 43
3.0
 50
180.0
  0
ENDBLK
  5
239
100
AcDbEntity
  8
0
  6
BYBLOCK
 62
0
100
AcDbBlockEnd
  0
BLOCK
  5
23A
100
AcDbEntity
  8
0
100
AcDbBlockBegin
 62
7
  6
CONTINUOUS
  2
*D3
 70
65
 10
0.0
 20
0.0
  3
*D3
  1

  0
LINE
  5
23B
100
AcDbEntity
  8
0
100
AcDbLine
 62
7
  6
CONTINUOUS
 10
-47.2
 20
83.2
 11
-58.410560336
 21
83.2
  0
LINE
  5
23C
100
AcDbEntity
  8
0
100
AcDbLine
 62
7
  6
CONTINUOUS
 10
-47.2
 20
-83.2
 11
-58.410560336
 21
-83.2
  0
LINE
  5
23D
100
AcDbEntity
  8
0
100
AcDbLine
 62
7
  6
CONTINUOUS
 10
-56.910560336
 20
83.2
 11
-56.910560336
 21
0.0
  0
LINE
  5
23E
100
AcDbEntity
  8
0
100
AcDbLine
 62
7
  6
CONTINUOUS
 10
-56.910560336
 20
-83.2
 11
-56.910560336
 21
0.0
  0
INSERT
  5
23F
100
AcDbEntity
  8
0
100
AcDbBlockReference
 62
7
  6
CONTINUOUS
  2
_FILLED
 10
-56.910560336
 20
83.2
 41
3.0
 42
3.0
 43
3.0
 50
90.0
  0
INSERT
  5
240
100
AcDbEntity
  8
0
100
AcDbBlockReference
 62
7
  6
CONTINUOUS
  2
_FILLED
 10
-56.910560336
 20
-83.2
 41
3.0
 42
3.0
 43
3.0
 50
270.0
  0
ENDBLK
  5
241
100
AcDbEntity
  8
0
  6
BYBLOCK
 62
0
100
AcDbBlockEnd
  0
ENDSEC
  0
SECTION
  2
ENTITIES
  0
DIMENSION
  5
242
100
AcDbEntity
  8
0
100
AcDbDimension
 62
7
  6
CONTINUOUS
  2
*D0
 10
47.7
 20
91.2
 11
-4.2857142857
 21
91.95
 70
160
 71
2
 42
95.4
  3
DIMSTYLE_1
100
AcDbAlignedDimension
 13
-47.7
 23
82.7
 14
47.7
 24
82.7
100
AcDbRotatedDimension
  0
DIMENSION
  5
243
100
AcDbEntity
  8
0
100
AcDbDimension
 62
7
  6
CONTINUOUS
  2
*D1
 10
92.2617465996
 20
91.2
 11
101.861445413
 21
91.95
 70
160
 71
1
 42
8.2
  3
DIMSTYLE_1
100
AcDbAlignedDimension
 13
100.4617465996
 23
61.5589958209
 14
92.2617465996
 24
79.6601579604
 50
180.0
100
AcDbRotatedDimension
  0
DIMENSION
  5
244
100
AcDbEntity
  8
0
100
AcDbDimension
 62
7
  6
CONTINUOUS
  2
*D2
 10
90.8617465996
 20
101.2
 11
92.4474608853
 21
101.95
 70
160
 71
2
 42
9.6
  3
DIMSTYLE_1
100
AcDbAlignedDimension
 13
100.4617465996
 23
61.5589958209
 14
90.8617465996
 24
48.05
 50
180.0
100
AcDbRotatedDimension
  0
DIMENSION
  5
245
100
AcDbEntity
  8
0
100
AcDbDimension
 62
7
  6
CONTINUOUS
  2
*D3
 10
-56.910560336
 20
-83.2
 11
-57.660560336
 21
-5.25
 70
160
 71
2
 42
166.4
  3
DIMSTYLE_1
100
AcDbAlignedDimension
 13
-47.2
 23
83.2
 14
-47.2
 24
-83.2
 50
270.0
100
AcDbRotatedDimension
  0
LINE
  5
246
100
AcDbEntity
  8
SMUSSO
100
AcDbLine
 62
7
  6
CONTINUOUS
 10
-46.7
 20
83.2
 11
-47.7
 21
82.2
  0
LINE
  5
247
100
AcDbEntity
  8
SMUSSO
100
AcDbLine
 62
7
  6
CONTINUOUS
 10
-46.2857864376
 20
82.2
 11
-46.7
 21
81.7857864376
  0
LINE
  5
248
100
AcDbEntity
  8
SMUSSO
100
AcDbLine
 62
7
  6
CONTINUOUS
 10
-47.7
 20
-82.2
 11
-46.7
 21
-83.2
  0
LINE
  5
249
100
AcDbEntity
  8
SMUSSO
100
AcDbLine
 62
7
  6
CONTINUOUS
 10
-46.7
 20
-81.7857864376
 11
-46.2857864376
 21
-82.2
  0
LINE
  5
24A
100
AcDbEntity
  8
SMUSSO
100
AcDbLine
 62
7
  6
CONTINUOUS
 10
-46.7
 20
-83.2
 11
46.7
 21
-83.2
  0
LINE
  5
24B
100
AcDbEntity
  8
SMUSSO
100
AcDbLine
 62
7
  6
CONTINUOUS
 10
-46.2857864376
 20
-82.2
 11
46.2857864376
 21
-82.2
  0
LWPOLYLINE
  5
24C
100
AcDbEntity
  8
0
100
AcDbPolyline
 62
7
  6
CONTINUOUS
 90
10
 70
0
 43
0.3500000006
 10
-3.8571428204
 20
91.9500005493
 10
-3.0000000658
 20
92.8071384888
 10
-2.7857141647
 20
93.6642854919
 10
-2.7857141647
 20
94.5214324951
 10
-3.2142856836
 20
94.9500014648
 10
-3.8571428204
 20
94.9500014648
 10
-4.2857143393
 20
94.5214324951
 10
-4.2857143393
 20
93.6642854919
 10
-3.8571428204
 20
93.2357165222
 10
-2.9285714321
 20
93.2357165222
  0
LWPOLYLINE
  5
24D
100
AcDbEntity
  8
0
100
AcDbPolyline
 62
7
  6
CONTINUOUS
 90
3
 70
0
 43
0.3500000006
 10
-58.303416687
 20
4.3928565445
 10
-58.303416687
 20
2.8928560867
 10
-60.6605596161
 20
3.5357140732
  0
LINE
  5
24E
100
AcDbEntity
  8
SMUSSO
100
AcDbLine
 62
7
  6
CONTINUOUS
 10
47.7
 20
82.2
 11
46.7
 21
81.7857864376
  0
LINE
  5
24F
100
AcDbEntity
  8
RACCORDO
100
AcDbLine
 62
7
  6
CONTINUOUS
 10
-25.5931245874
 20
-61.793017974
 11
25.5931245874
 21
-61.793017974
  0
LINE
  5
250
100
AcDbEntity
  8
RACCORDO
100
AcDbLine
 62
253
  6
CONTINUOUS
 10
-25.5589958209
 20
-61.7588892076
 11
25.5589958209
 21
-61.7588892076
  0
LINE
  5
251
100
AcDbEntity
  8
RACCORDO
100
AcDbLine
 62
253
  6
CONTINUOUS
 10
-25.5589958209
 20
-61.458934899
 11
25.5622249454
 21
-61.458934899
  0
LINE
  5
252
100
AcDbEntity
  8
RACCORDO
100
AcDbLine
 62
253
  6
CONTINUOUS
 10
-26.2588892076
 20
-61.058995819
 11
-25.958934899
 21
-61.0589958209
  0
LINE
  5
253
100
AcDbEntity
  8
RACCORDO
100
AcDbLine
 62
253
  6
CONTINUOUS
 10
26.2588892076
 20
-61.0589958196
 11
25.958934899
 21
-61.0589958209
  0
LINE
  5
254
100
AcDbEntity
  8
RACCORDO
100
AcDbLine
 62
253
  6
CONTINUOUS
 10
22.8649960872
 20
-58.9288116597
 11
-22.8649960872
 21
-58.9288116597
  0
LINE
  5
255
100
AcDbEntity
  8
RACCORDO
100
AcDbLine
 62
253
  6
CONTINUOUS
 10
22.8649948583
 20
-58.6469038735
 11
-22.8650067667
 21
-58.6469038735
  0
LINE
  5
256
100
AcDbEntity
  8
RACCORDO
100
AcDbLine
 62
253
  6
CONTINUOUS
 10
-23.4288116597
 20
-58.3649960872
 11
-23.1469038735
 21
-58.3649960872
  0
LINE
  5
257
100
AcDbEntity
  8
RACCORDO
100
AcDbLine
 62
253
  6
CONTINUOUS
 10
23.4288116597
 20
-58.3649960872
 11
23.1469038735
 21
-58.3649960873
  0
LINE
  5
258
100
AcDbEntity
  8
RACCORDO
100
AcDbLine
 62
253
  6
CONTINUOUS
 10
-22.2985854258
 20
-58.1286172716
 11
22.2985854258
 21
-58.1286172716
  0
LINE
  5
259
100
AcDbEntity
  8
RACCORDO
100
AcDbLine
 62
253
  6
CONTINUOUS
 10
-22.2985854258
 20
-58.0985397344
 11
22.2985854258
 21
-58.0985397344
  0
LINE
  5
25A
100
AcDbEntity
  8
RACCORDO
100
AcDbLine
 62
7
  6
CONTINUOUS
 10
22.2921909122
 20
-58.0921452208
 11
-22.2921909122
 21
-58.0921452208
  0
LINE
  5
25B
100
AcDbEntity
  8
RACCORDO
100
AcDbLine
 62
253
  6
CONTINUOUS
 10
22.5985397344
 20
-57.7985854258
 11
22.6286172716
 21
-57.7985854258
  0
LINE
  5
25C
100
AcDbEntity
  8
RACCORDO
100
AcDbLine
 62
253
  6
CONTINUOUS
 10
-22.5985397344
 20
-57.7985854258
 11
-22.6286172712
 21
-57.7985854231
  0
LINE
  5
25D
100
AcDbEntity
  8
SMUSSO
100
AcDbLine
 62
7
  6
CONTINUOUS
 10
47.7
 20
-82.2
 11
46.7
 21
-81.7857864376
  0
LINE
  5
25E
100
AcDbEntity
  8
SMUSSO
100
AcDbLine
 62
7
  6
CONTINUOUS
 10
-47.7
 20
82.2
 11
-47.7
 21
-82.2
  0
LINE
  5
25F
100
AcDbEntity
  8
SMUSSO
100
AcDbLine
 62
7
  6
CONTINUOUS
 10
-46.7
 20
81.7857864376
 11
-46.7
 21
-81.7857864376
  0
LWPOLYLINE
  5
260
100
AcDbEntity
  8
0
100
AcDbPolyline
 62
7
  6
CONTINUOUS
 90
3
 70
0
 43
0.3500000006
 10
-59.8034171448
 20
-5.2499996567
 10
-60.6605596161
 20
-4.3928571854
 10
-57.6605587006
 20
-4.3928571854
  0
LWPOLYLINE
  5
261
100
AcDbEntity
  8
0
100
AcDbPolyline
 62
7
  6
CONTINUOUS
 90
10
 70
0
 43
0.3500000006
 10
-60.6605596161
 20
-2.4642854919
 10
-60.0177016296
 20
-3.1071423454
 10
-59.1605591583
 20
-3.5357147141
 10
-58.0891322021
 20
-3.5357147141
 10
-57.6605587006
 20
-3.1071423454
 10
-57.6605587006
 20
-2.4642854919
 10
-58.0891322021
 20
-2.0357142563
 10
-58.9462746735
 20
-2.0357142563
 10
-59.374848175
 20
-2.4642854919
 10
-59.374848175
 20
-3.3928568802
  0
LWPOLYLINE
  5
262
100
AcDbEntity
  8
0
100
AcDbPolyline
 62
7
  6
CONTINUOUS
 90
10
 70
0
 43
0.3500000006
 10
-60.6605596161
 20
-0.1071425629
 10
-60.0177016296
 20
-0.7500005493
 10
-59.1605591583
 20
-1.178571785
 10
-58.0891322021
 20
-1.178571785
 10
-57.6605587006
 20
-0.7500005493
 10
-57.6605587006
 20
-0.1071425629
 10
-58.0891322021
 20
0.3214286728
 10
-58.9462746735
 20
0.3214286728
 10
-59.374848175
 20
-0.1071425629
 10
-59.374848175
 20
-1.0357139511
  0
LINE
  5
263
100
AcDbEntity
  8
RACCORDO
100
AcDbLine
 62
7
  6
CONTINUOUS
 10
-26.293017974
 20
61.0931245874
 11
-26.293017974
 21
9.9068754126
  0
LINE
  5
264
100
AcDbEntity
  8
RACCORDO
100
AcDbLine
 62
7
  6
CONTINUOUS
 10
-26.293017974
 20
-9.9068754126
 11
-26.293017974
 21
-61.0931245874
  0
LINE
  5
265
100
AcDbEntity
  8
RACCORDO
100
AcDbLine
 62
253
  6
CONTINUOUS
 10
-26.2588892076
 20
61.0589958209
 11
-26.2588892076
 21
9.9410041791
  0
LINE
  5
266
100
AcDbEntity
  8
RACCORDO
100
AcDbLine
 62
253
  6
CONTINUOUS
 10
-26.2588892076
 20
-9.9410041791
 11
-26.2588892076
 21
-61.0589958209
  0
LINE
  5
267
100
AcDbEntity
  8
RACCORDO
100
AcDbLine
 62
253
  6
CONTINUOUS
 10
-25.958934899
 20
61.0589958209
 11
-25.958934899
 21
9.9377750462
  0
LINE
  5
268
100
AcDbEntity
  8
RACCORDO
100
AcDbLine
 62
253
  6
CONTINUOUS
 10
-25.958934899
 20
-9.9410041791
 11
-25.958934899
 21
-61.0622249538
  0
LINE
  5
269
100
AcDbEntity
  8
RACCORDO
100
AcDbLine
 62
253
  6
CONTINUOUS
 10
-25.558995819
 20
61.7588892076
 11
-25.5589958209
 21
61.458934899
  0
LINE
  5
26A
100
AcDbEntity
  8
RACCORDO
100
AcDbLine
 62
253
  6
CONTINUOUS
 10
-25.5589958196
 20
-61.7588892076
 11
-25.5589958209
 21
-61.458934899
  0
LINE
  5
26B
100
AcDbEntity
  8
RACCORDO
100
AcDbLine
 62
253
  6
CONTINUOUS
 10
-25.558995819
 20
-9.2411107924
 11
-25.5589958209
 21
-9.541065101
  0
LINE
  5
26C
100
AcDbEntity
  8
RACCORDO
100
AcDbLine
 62
253
  6
CONTINUOUS
 10
-25.5589958196
 20
9.2411107924
 11
-25.5589958209
 21
9.541065101
  0
LWPOLYLINE
  5
26D
100
AcDbEntity
  8
0
100
AcDbPolyline
 62
7
  6
CONTINUOUS
 90
3
 70
0
 43
0.3500000006
 10
0.9285714591
 20
92.235716217
 10
0.8571428254
 20
92.0214317322
 10
0.7142856996
 20
91.7357160645
  0
LINE
  5
26E
100
AcDbEntity
  8
RACCORDO
100
AcDbLine
 62
253
  6
CONTINUOUS
 10
-26.2588892076
 20
9.9410041791
 11
-26.293017974
 21
9.9068754126
  0
LINE
  5
26F
100
AcDbEntity
  8
RACCORDO
100
AcDbLine
 62
253
  6
CONTINUOUS
 10
25.5589958209
 20
61.7588892076
 11
25.5931245874
 21
61.793017974
  0
LINE
  5
270
100
AcDbEntity
  8
RACCORDO
100
AcDbLine
 62
253
  6
CONTINUOUS
 10
22.2985854258
 20
58.0985397344
 11
22.2921909122
 21
58.0921452208
  0
LINE
  5
271
100
AcDbEntity
  8
RACCORDO
100
AcDbLine
 62
253
  6
CONTINUOUS
 10
-22.5985397344
 20
13.2014145742
 11
-22.5921452208
 21
13.2078090878
  0
LINE
  5
272
100
AcDbEntity
  8
RACCORDO
100
AcDbLine
 62
253
  6
CONTINUOUS
 10
22.8650067667
 20
58.6469038735
 11
22.345273255
 21
58.1271810404
  0
LINE
  5
273
100
AcDbEntity
  8
RACCORDO
100
AcDbLine
 62
253
  6
CONTINUOUS
 10
-23.1469038735
 20
12.6350051417
 11
-22.6271795873
 21
13.1546948153
  0
LINE
  5
274
100
AcDbEntity
  8
RACCORDO
100
AcDbLine
 62
253
  6
CONTINUOUS
 10
23.1469038735
 20
58.3649948583
 11
22.6271795873
 21
57.8453051847
  0
LINE
  5
275
100
AcDbEntity
  8
RACCORDO
100
AcDbLine
 62
253
  6
CONTINUOUS
 10
-22.8650067667
 20
12.3530961265
 11
-22.345273255
 21
12.8728189596
  0
LINE
  5
276
100
AcDbEntity
  8
RACCORDO
100
AcDbLine
 62
253
  6
CONTINUOUS
 10
22.5985397344
 20
57.7985854258
 11
22.5921452208
 21
57.7921909122
  0
LINE
  5
277
100
AcDbEntity
  8
RACCORDO
100
AcDbLine
 62
253
  6
CONTINUOUS
 10
-22.2985854258
 20
12.9014602656
 11
-22.2921909122
 21
12.9078547792
  0
LWPOLYLINE
  5
278
100
AcDbEntity
  8
0
100
AcDbPolyline
 62
7
  6
CONTINUOUS
 90
10
 70
0
 43
0.3500000006
 10
-58.1605588531
 20
1.8214291306
 10
-58.0177010193
 20
1.8928580475
 10
-57.9462743683
 20
1.8928580475
 10
-57.8034165344
 20
1.7500002136
 10
-57.8034165344
 20
1.6785712967
 10
-57.8748477173
 20
1.6071423798
 10
-57.9462743683
 20
1.6071423798
 10
-58.0891322021
 20
1.6785712967
 10
-58.1605588531
 20
1.7500002136
 10
-58.1605588531
 20
1.8214291306
  0
LINE
  5
279
100
AcDbEntity
  8
RACCORDO
100
AcDbLine
 62
253
  6
CONTINUOUS
 10
-26.2588892076
 20
-9.9410041791
 11
-26.293017974
 21
-9.9068754126
  0
LINE
  5
27A
100
AcDbEntity
  8
RACCORDO
100
AcDbLine
 62
253
  6
CONTINUOUS
 10
25.5589958209
 20
-61.7588892076
 11
25.5931245874
 21
-61.793017974
  0
LINE
  5
27B
100
AcDbEntity
  8
RACCORDO
100
AcDbLine
 62
253
  6
CONTINUOUS
 10
22.2985854258
 20
-58.0985397344
 11
22.2921909122
 21
-58.0921452208
  0
LINE
  5
27C
100
AcDbEntity
  8
RACCORDO
100
AcDbLine
 62
253
  6
CONTINUOUS
 10
-22.5921452208
 20
-13.2078090878
 11
-22.5985397344
 21
-13.2014145742
  0
LINE
  5
27D
100
AcDbEntity
  8
RACCORDO
100
AcDbLine
 62
253
  6
CONTINUOUS
 10
-22.6271795883
 20
-13.1546947066
 11
-23.1469038735
 21
-12.6350052588
  0
LINE
  5
27E
100
AcDbEntity
  8
RACCORDO
100
AcDbLine
 62
253
  6
CONTINUOUS
 10
22.8649948583
 20
-58.6469038735
 11
22.3453051847
 21
-58.1271795873
  0
LINE
  5
27F
100
AcDbEntity
  8
RACCORDO
100
AcDbLine
 62
253
  6
CONTINUOUS
 10
-22.345273254
 20
-12.8728189595
 11
-22.8650068917
 21
-12.3530961265
  0
LINE
  5
280
100
AcDbEntity
  8
RACCORDO
100
AcDbLine
 62
253
  6
CONTINUOUS
 10
23.1469038735
 20
-58.3650067667
 11
22.6271810404
 21
-57.845273255
  0
LINE
  5
281
100
AcDbEntity
  8
RACCORDO
100
AcDbLine
 62
253
  6
CONTINUOUS
 10
22.5985397344
 20
-57.7985854258
 11
22.5921452208
 21
-57.7921909122
  0
LINE
  5
282
100
AcDbEntity
  8
RACCORDO
100
AcDbLine
 62
253
  6
CONTINUOUS
 10
-22.2921909122
 20
-12.9078547792
 11
-22.2985854258
 21
-12.9014602656
  0
LINE
  5
283
100
AcDbEntity
  8
RACCORDO
100
AcDbLine
 62
253
  6
CONTINUOUS
 10
-23.4288116597
 20
-58.3649960872
 11
-23.4288116597
 21
-12.6350039128
  0
LINE
  5
284
100
AcDbEntity
  8
RACCORDO
100
AcDbLine
 62
253
  6
CONTINUOUS
 10
-23.4288116597
 20
12.6350039128
 11
-23.4288116597
 21
58.3649960872
  0
LINE
  5
285
100
AcDbEntity
  8
RACCORDO
100
AcDbLine
 62
253
  6
CONTINUOUS
 10
-23.1469038735
 20
-58.3649948583
 11
-23.1469038735
 21
-12.6350052588
  0
LINE
  5
286
100
AcDbEntity
  8
RACCORDO
100
AcDbLine
 62
253
  6
CONTINUOUS
 10
-23.1469038735
 20
12.6350051417
 11
-23.1469038735
 21
58.3649947412
  0
LINE
  5
287
100
AcDbEntity
  8
RACCORDO
100
AcDbLine
 62
253
  6
CONTINUOUS
 10
-22.8649960872
 20
58.9288116597
 11
-22.8649960872
 21
58.6469038735
  0
LINE
  5
288
100
AcDbEntity
  8
RACCORDO
100
AcDbLine
 62
253
  6
CONTINUOUS
 10
-22.8649960872
 20
-58.9288116597
 11
-22.8649960873
 21
-58.6469038735
  0
LINE
  5
289
100
AcDbEntity
  8
RACCORDO
100
AcDbLine
 62
253
  6
CONTINUOUS
 10
-22.8649960872
 20
-12.0711883403
 11
-22.8649960872
 21
-12.3530961265
  0
LINE
  5
28A
100
AcDbEntity
  8
RACCORDO
100
AcDbLine
 62
253
  6
CONTINUOUS
 10
-22.8649960872
 20
12.0711883403
 11
-22.8649960873
 21
12.3530961265
  0
LINE
  5
28B
100
AcDbEntity
  8
RACCORDO
100
AcDbLine
 62
253
  6
CONTINUOUS
 10
-22.6286172716
 20
57.7985854258
 11
-22.6286172716
 21
13.2014145742
  0
LINE
  5
28C
100
AcDbEntity
  8
RACCORDO
100
AcDbLine
 62
253
  6
CONTINUOUS
 10
-22.6286172716
 20
-13.2014145742
 11
-22.6286172716
 21
-57.7985854258
  0
LINE
  5
28D
100
AcDbEntity
  8
RACCORDO
100
AcDbLine
 62
253
  6
CONTINUOUS
 10
-22.5985397344
 20
57.7985854258
 11
-22.5985397344
 21
13.2014145742
  0
LINE
  5
28E
100
AcDbEntity
  8
RACCORDO
100
AcDbLine
 62
253
  6
CONTINUOUS
 10
-22.5985397344
 20
-13.2014145742
 11
-22.5985397344
 21
-57.7985854258
  0
LINE
  5
28F
100
AcDbEntity
  8
RACCORDO
100
AcDbLine
 62
7
  6
CONTINUOUS
 10
-22.5921452208
 20
-57.7921909122
 11
-22.5921452208
 21
-13.2078090878
  0
LINE
  5
290
100
AcDbEntity
  8
RACCORDO
100
AcDbLine
 62
7
  6
CONTINUOUS
 10
-22.5921452208
 20
13.2078090878
 11
-22.5921452208
 21
57.7921909122
  0
LINE
  5
291
100
AcDbEntity
  8
RACCORDO
100
AcDbLine
 62
253
  6
CONTINUOUS
 10
-22.2985854258
 20
12.9014602656
 11
-22.2985854258
 21
12.8713827284
  0
LINE
  5
292
100
AcDbEntity
  8
RACCORDO
100
AcDbLine
 62
253
  6
CONTINUOUS
 10
-22.2985854258
 20
-12.9014602656
 11
-22.2985854265
 21
-12.8713827284
  0
LINE
  5
293
100
AcDbEntity
  8
RACCORDO
100
AcDbLine
 62
253
  6
CONTINUOUS
 10
-22.2985854258
 20
-58.0985397344
 11
-22.2985854258
 21
-58.1286172716
  0
LINE
  5
294
100
AcDbEntity
  8
RACCORDO
100
AcDbLine
 62
253
  6
CONTINUOUS
 10
-22.2985854258
 20
58.0985397344
 11
-22.2985854265
 21
58.1286172716
  0
LINE
  5
295
100
AcDbEntity
  8
RACCORDO
100
AcDbLine
 62
253
  6
CONTINUOUS
 10
-25.5589958209
 20
9.2411107924
 11
-25.5931245874
 21
9.206982026
  0
LINE
  5
296
100
AcDbEntity
  8
RACCORDO
100
AcDbLine
 62
253
  6
CONTINUOUS
 10
26.2588892076
 20
61.0589958209
 11
26.293017974
 21
61.0931245874
  0
LINE
  5
297
100
AcDbEntity
  8
RACCORDO
100
AcDbLine
 62
253
  6
CONTINUOUS
 10
-25.5589958209
 20
-9.2411107924
 11
-25.5931245874
 21
-9.206982026
  0
LINE
  5
298
100
AcDbEntity
  8
RACCORDO
100
AcDbLine
 62
253
  6
CONTINUOUS
 10
26.2588892076
 20
-61.0589958209
 11
26.293017974
 21
-61.0931245874
  0
LINE
  5
299
100
AcDbEntity
  8
RACCORDO
100
AcDbLine
 62
253
  6
CONTINUOUS
 10
-22.5985397344
 20
-13.2014145742
 11
-22.6286172716
 21
-13.2014145742
  0
LINE
  5
29A
100
AcDbEntity
  8
RACCORDO
100
AcDbLine
 62
253
  6
CONTINUOUS
 10
22.5985397344
 20
-13.2014145742
 11
22.6286172712
 21
-13.2014145769
  0
LINE
  5
29B
100
AcDbEntity
  8
RACCORDO
100
AcDbLine
 62
7
  6
CONTINUOUS
 10
-22.2921909122
 20
-12.9078547792
 11
22.2921909122
 21
-12.9078547792
  0
LINE
  5
29C
100
AcDbEntity
  8
RACCORDO
100
AcDbLine
 62
253
  6
CONTINUOUS
 10
22.2985854258
 20
-12.9014602656
 11
-22.2985854258
 21
-12.9014602656
  0
LINE
  5
29D
100
AcDbEntity
  8
RACCORDO
100
AcDbLine
 62
253
  6
CONTINUOUS
 10
22.2985854258
 20
-12.8713827284
 11
-22.2985854258
 21
-12.8713827284
  0
LINE
  5
29E
100
AcDbEntity
  8
RACCORDO
100
AcDbLine
 62
253
  6
CONTINUOUS
 10
-23.4288116597
 20
-12.6350039128
 11
-23.1469038735
 21
-12.6350039128
  0
LINE
  5
29F
100
AcDbEntity
  8
RACCORDO
100
AcDbLine
 62
253
  6
CONTINUOUS
 10
23.4288116597
 20
-12.6350039128
 11
23.1469038735
 21
-12.6350039128
  0
LINE
  5
2A0
100
AcDbEntity
  8
RACCORDO
100
AcDbLine
 62
253
  6
CONTINUOUS
 10
-22.8650068917
 20
-12.3530961265
 11
22.8650067667
 21
-12.3530961265
  0
LINE
  5
2A1
100
AcDbEntity
  8
RACCORDO
100
AcDbLine
 62
253
  6
CONTINUOUS
 10
-22.8649960872
 20
-12.0711883403
 11
22.8649960872
 21
-12.0711883403
  0
LWPOLYLINE
  5
2A2
100
AcDbEntity
  8
0
100
AcDbPolyline
 62
7
  6
CONTINUOUS
 90
3
 70
0
 43
0.3500000006
 10
-57.9462743683
 20
1.8928580475
 10
-57.7319898834
 20
1.8214291306
 10
-57.4462742157
 20
1.6785712967
  0
LINE
  5
2A3
100
AcDbEntity
  8
SMUSSO
100
AcDbLine
 62
7
  6
CONTINUOUS
 10
-46.7
 20
-83.2
 11
-46.2857864376
 21
-82.2
  0
LINE
  5
2A4
100
AcDbEntity
  8
RACCORDO
100
AcDbLine
 62
253
  6
CONTINUOUS
 10
-26.2588892076
 20
-9.9410041804
 11
-25.958934899
 21
-9.9410041791
  0
LINE
  5
2A5
100
AcDbEntity
  8
RACCORDO
100
AcDbLine
 62
253
  6
CONTINUOUS
 10
26.2588892076
 20
-9.941004181
 11
25.958934899
 21
-9.9410041791
  0
LINE
  5
2A6
100
AcDbEntity
  8
RACCORDO
100
AcDbLine
 62
253
  6
CONTINUOUS
 10
25.5589958209
 20
-9.541065101
 11
-25.5622249565
 21
-9.541065101
  0
LINE
  5
2A7
100
AcDbEntity
  8
RACCORDO
100
AcDbLine
 62
253
  6
CONTINUOUS
 10
25.5589958209
 20
-9.2411107924
 11
-25.5589958209
 21
-9.2411107924
  0
LINE
  5
2A8
100
AcDbEntity
  8
RACCORDO
100
AcDbLine
 62
7
  6
CONTINUOUS
 10
25.5931245874
 20
-9.206982026
 11
-25.5931245874
 21
-9.206982026
  0
LINE
  5
2A9
100
AcDbEntity
  8
SMUSSO
100
AcDbLine
 62
7
  6
CONTINUOUS
 10
-46.7
 20
83.2
 11
-46.2857864376
 21
82.2
  0
LWPOLYLINE
  5
2AA
100
AcDbEntity
  8
0
100
AcDbPolyline
 62
7
  6
CONTINUOUS
 90
2
 70
0
 43
0.3500000006
 10
2.9285714321
 20
91.9500005493
 10
2.9285714321
 20
93.4500010071
  0
LWPOLYLINE
  5
2AB
100
AcDbEntity
  8
0
100
AcDbPolyline
 62
7
  6
CONTINUOUS
 90
2
 70
0
 43
0.3500000006
 10
-57.6605587006
 20
3.8928563919
 10
-59.1605591583
 20
3.8928563919
  0
LINE
  5
2AC
100
AcDbEntity
  8
SMUSSO
100
AcDbLine
 62
7
  6
CONTINUOUS
 10
46.7
 20
83.2
 11
46.2857864376
 21
82.2
  0
LINE
  5
2AD
100
AcDbEntity
  8
RACCORDO
100
AcDbLine
 62
7
  6
CONTINUOUS
 10
-25.5931245874
 20
9.206982026
 11
25.5931245874
 21
9.206982026
  0
LINE
  5
2AE
100
AcDbEntity
  8
RACCORDO
100
AcDbLine
 62
253
  6
CONTINUOUS
 10
-25.5589958209
 20
9.2411107924
 11
25.5589958209
 21
9.2411107924
  0
LINE
  5
2AF
100
AcDbEntity
  8
RACCORDO
100
AcDbLine
 62
253
  6
CONTINUOUS
 10
-25.5589958209
 20
9.541065101
 11
25.5622249454
 21
9.541065101
  0
LINE
  5
2B0
100
AcDbEntity
  8
RACCORDO
100
AcDbLine
 62
253
  6
CONTINUOUS
 10
-26.2588892076
 20
9.941004181
 11
-25.958934899
 21
9.9410041791
  0
LINE
  5
2B1
100
AcDbEntity
  8
RACCORDO
100
AcDbLine
 62
253
  6
CONTINUOUS
 10
26.2588892076
 20
9.9410041804
 11
25.958934899
 21
9.9410041791
  0
LINE
  5
2B2
100
AcDbEntity
  8
RACCORDO
100
AcDbLine
 62
253
  6
CONTINUOUS
 10
22.8649960872
 20
12.0711883403
 11
-22.8649960872
 21
12.0711883403
  0
LINE
  5
2B3
100
AcDbEntity
  8
RACCORDO
100
AcDbLine
 62
253
  6
CONTINUOUS
 10
22.8649948583
 20
12.3530961265
 11
-22.8650067667
 21
12.3530961265
  0
LINE
  5
2B4
100
AcDbEntity
  8
RACCORDO
100
AcDbLine
 62
253
  6
CONTINUOUS
 10
-23.4288116597
 20
12.6350039128
 11
-23.1469038735
 21
12.6350039128
  0
LINE
  5
2B5
100
AcDbEntity
  8
RACCORDO
100
AcDbLine
 62
253
  6
CONTINUOUS
 10
23.4288116597
 20
12.6350039128
 11
23.1469038735
 21
12.6350039127
  0
LINE
  5
2B6
100
AcDbEntity
  8
RACCORDO
100
AcDbLine
 62
253
  6
CONTINUOUS
 10
-22.2985854258
 20
12.8713827284
 11
22.2985854258
 21
12.8713827284
  0
LINE
  5
2B7
100
AcDbEntity
  8
RACCORDO
100
AcDbLine
 62
253
  6
CONTINUOUS
 10
-22.2985854258
 20
12.9014602656
 11
22.2985854258
 21
12.9014602656
  0
LINE
  5
2B8
100
AcDbEntity
  8
RACCORDO
100
AcDbLine
 62
7
  6
CONTINUOUS
 10
22.2921909122
 20
12.9078547792
 11
-22.2921909122
 21
12.9078547792
  0
LINE
  5
2B9
100
AcDbEntity
  8
RACCORDO
100
AcDbLine
 62
253
  6
CONTINUOUS
 10
-22.5985397344
 20
13.2014145742
 11
-22.6286172712
 21
13.2014145769
  0
LINE
  5
2BA
100
AcDbEntity
  8
RACCORDO
100
AcDbLine
 62
253
  6
CONTINUOUS
 10
22.5985397344
 20
13.2014145742
 11
22.6286172716
 21
13.2014145742
  0
LINE
  5
2BB
100
AcDbEntity
  8
SMUSSO
100
AcDbLine
 62
7
  6
CONTINUOUS
 10
46.7
 20
-83.2
 11
46.2857864376
 21
-82.2
  0
LINE
  5
2BC
100
AcDbEntity
  8
RACCORDO
100
AcDbLine
 62
253
  6
CONTINUOUS
 10
22.2985854258
 20
12.9014602656
 11
22.2985854231
 21
12.8713827288
  0
LINE
  5
2BD
100
AcDbEntity
  8
RACCORDO
100
AcDbLine
 62
253
  6
CONTINUOUS
 10
22.2985854258
 20
-12.9014602656
 11
22.2985854258
 21
-12.8713827284
  0
LINE
  5
2BE
100
AcDbEntity
  8
RACCORDO
100
AcDbLine
 62
253
  6
CONTINUOUS
 10
22.2985854258
 20
58.0985397344
 11
22.2985854258
 21
58.1286172716
  0
LINE
  5
2BF
100
AcDbEntity
  8
RACCORDO
100
AcDbLine
 62
253
  6
CONTINUOUS
 10
22.2985854258
 20
-58.0985397344
 11
22.2985854231
 21
-58.1286172712
  0
LINE
  5
2C0
100
AcDbEntity
  8
RACCORDO
100
AcDbLine
 62
7
  6
CONTINUOUS
 10
22.5921452208
 20
57.7921909122
 11
22.5921452208
 21
13.2078090878
  0
LINE
  5
2C1
100
AcDbEntity
  8
RACCORDO
100
AcDbLine
 62
7
  6
CONTINUOUS
 10
22.5921452208
 20
-13.2078090878
 11
22.5921452208
 21
-57.7921909122
  0
LINE
  5
2C2
100
AcDbEntity
  8
RACCORDO
100
AcDbLine
 62
253
  6
CONTINUOUS
 10
22.5985397344
 20
-57.7985854258
 11
22.5985397344
 21
-13.2014145742
  0
LINE
  5
2C3
100
AcDbEntity
  8
RACCORDO
100
AcDbLine
 62
253
  6
CONTINUOUS
 10
22.5985397344
 20
13.2014145742
 11
22.5985397344
 21
57.7985854258
  0
LINE
  5
2C4
100
AcDbEntity
  8
RACCORDO
100
AcDbLine
 62
253
  6
CONTINUOUS
 10
22.6286172716
 20
-57.7985854258
 11
22.6286172716
 21
-13.2014145742
  0
LINE
  5
2C5
100
AcDbEntity
  8
RACCORDO
100
AcDbLine
 62
253
  6
CONTINUOUS
 10
22.6286172716
 20
13.2014145742
 11
22.6286172716
 21
57.7985854258
  0
LINE
  5
2C6
100
AcDbEntity
  8
RACCORDO
100
AcDbLine
 62
253
  6
CONTINUOUS
 10
22.8649960872
 20
58.9288116597
 11
22.8649960873
 21
58.6469038735
  0
LINE
  5
2C7
100
AcDbEntity
  8
RACCORDO
100
AcDbLine
 62
253
  6
CONTINUOUS
 10
22.8649960872
 20
-58.9288116597
 11
22.8649960872
 21
-58.6469038735
  0
LINE
  5
2C8
100
AcDbEntity
  8
RACCORDO
100
AcDbLine
 62
253
  6
CONTINUOUS
 10
22.8649960872
 20
-12.0711883403
 11
22.8649960873
 21
-12.3530961265
  0
LINE
  5
2C9
100
AcDbEntity
  8
RACCORDO
100
AcDbLine
 62
253
  6
CONTINUOUS
 10
22.8649960872
 20
12.0711883403
 11
22.8649960872
 21
12.3530961265
  0
LINE
  5
2CA
100
AcDbEntity
  8
RACCORDO
100
AcDbLine
 62
253
  6
CONTINUOUS
 10
23.1469038735
 20
58.3649948583
 11
23.1469038735
 21
12.6349932333
  0
LINE
  5
2CB
100
AcDbEntity
  8
RACCORDO
100
AcDbLine
 62
253
  6
CONTINUOUS
 10
23.1469038735
 20
-12.6350051417
 11
23.1469038735
 21
-58.3650067667
  0
LINE
  5
2CC
100
AcDbEntity
  8
RACCORDO
100
AcDbLine
 62
253
  6
CONTINUOUS
 10
23.4288116597
 20
58.3649960872
 11
23.4288116597
 21
12.6350039128
  0
LINE
  5
2CD
100
AcDbEntity
  8
RACCORDO
100
AcDbLine
 62
253
  6
CONTINUOUS
 10
23.4288116597
 20
-12.6350039128
 11
23.4288116597
 21
-58.3649960872
  0
LINE
  5
2CE
100
AcDbEntity
  8
RACCORDO
100
AcDbLine
 62
253
  6
CONTINUOUS
 10
25.5589958196
 20
61.7588892076
 11
25.5589958209
 21
61.458934899
  0
LINE
  5
2CF
100
AcDbEntity
  8
RACCORDO
100
AcDbLine
 62
253
  6
CONTINUOUS
 10
25.558995819
 20
-61.7588892076
 11
25.5589958209
 21
-61.458934899
  0
LINE
  5
2D0
100
AcDbEntity
  8
RACCORDO
100
AcDbLine
 62
253
  6
CONTINUOUS
 10
25.5589958196
 20
-9.2411107924
 11
25.5589958209
 21
-9.541065101
  0
LINE
  5
2D1
100
AcDbEntity
  8
RACCORDO
100
AcDbLine
 62
253
  6
CONTINUOUS
 10
25.558995819
 20
9.2411107924
 11
25.5589958209
 21
9.541065101
  0
LINE
  5
2D2
100
AcDbEntity
  8
RACCORDO
100
AcDbLine
 62
253
  6
CONTINUOUS
 10
25.958934899
 20
-61.0589958209
 11
25.958934899
 21
-9.9377750486
  0
LINE
  5
2D3
100
AcDbEntity
  8
RACCORDO
100
AcDbLine
 62
253
  6
CONTINUOUS
 10
25.958934899
 20
9.9410041791
 11
25.958934899
 21
61.0622249514
  0
LINE
  5
2D4
100
AcDbEntity
  8
RACCORDO
100
AcDbLine
 62
253
  6
CONTINUOUS
 10
26.2588892076
 20
-61.0589958209
 11
26.2588892076
 21
-9.9410041791
  0
LINE
  5
2D5
100
AcDbEntity
  8
RACCORDO
100
AcDbLine
 62
253
  6
CONTINUOUS
 10
26.2588892076
 20
9.9410041791
 11
26.2588892076
 21
61.0589958209
  0
LINE
  5
2D6
100
AcDbEntity
  8
RACCORDO
100
AcDbLine
 62
7
  6
CONTINUOUS
 10
26.293017974
 20
-61.0931245874
 11
26.293017974
 21
-9.9068754126
  0
LINE
  5
2D7
100
AcDbEntity
  8
RACCORDO
100
AcDbLine
 62
7
  6
CONTINUOUS
 10
26.293017974
 20
9.9068754126
 11
26.293017974
 21
61.0931245874
  0
LINE
  5
2D8
100
AcDbEntity
  8
RACCORDO
100
AcDbLine
 62
253
  6
CONTINUOUS
 10
25.5589958209
 20
-9.2411107924
 11
25.5931245874
 21
-9.206982026
  0
LINE
  5
2D9
100
AcDbEntity
  8
RACCORDO
100
AcDbLine
 62
253
  6
CONTINUOUS
 10
-26.2588892076
 20
-61.0589958209
 11
-26.293017974
 21
-61.0931245874
  0
LINE
  5
2DA
100
AcDbEntity
  8
RACCORDO
100
AcDbLine
 62
253
  6
CONTINUOUS
 10
-22.5985397344
 20
-57.7985854258
 11
-22.5921452208
 21
-57.7921909122
  0
LINE
  5
2DB
100
AcDbEntity
  8
RACCORDO
100
AcDbLine
 62
253
  6
CONTINUOUS
 10
22.2985854258
 20
-12.9014602656
 11
22.2921909122
 21
-12.9078547792
  0
LINE
  5
2DC
100
AcDbEntity
  8
RACCORDO
100
AcDbLine
 62
253
  6
CONTINUOUS
 10
22.8650067667
 20
-12.3530961265
 11
22.345273255
 21
-12.8728189596
  0
LINE
  5
2DD
100
AcDbEntity
  8
RACCORDO
100
AcDbLine
 62
253
  6
CONTINUOUS
 10
-23.1469038735
 20
-58.3649948583
 11
-22.6271795873
 21
-57.8453051847
  0
LINE
  5
2DE
100
AcDbEntity
  8
RACCORDO
100
AcDbLine
 62
253
  6
CONTINUOUS
 10
23.1469038735
 20
-12.6350051417
 11
22.6271795873
 21
-13.1546948153
  0
LINE
  5
2DF
100
AcDbEntity
  8
RACCORDO
100
AcDbLine
 62
253
  6
CONTINUOUS
 10
-22.8650067667
 20
-58.6469038735
 11
-22.345273255
 21
-58.1271810404
  0
LINE
  5
2E0
100
AcDbEntity
  8
RACCORDO
100
AcDbLine
 62
253
  6
CONTINUOUS
 10
-22.2985854258
 20
-58.0985397344
 11
-22.2921909122
 21
-58.0921452208
  0
LINE
  5
2E1
100
AcDbEntity
  8
RACCORDO
100
AcDbLine
 62
253
  6
CONTINUOUS
 10
22.5985397344
 20
-13.2014145742
 11
22.5921452208
 21
-13.2078090878
  0
LINE
  5
2E2
100
AcDbEntity
  8
RACCORDO
100
AcDbLine
 62
253
  6
CONTINUOUS
 10
26.2588892076
 20
-9.9410041791
 11
26.293017974
 21
-9.9068754126
  0
LINE
  5
2E3
100
AcDbEntity
  8
RACCORDO
100
AcDbLine
 62
253
  6
CONTINUOUS
 10
-25.5589958209
 20
-61.7588892076
 11
-25.5931245874
 21
-61.793017974
  0
LINE
  5
2E4
100
AcDbEntity
  8
RACCORDO
100
AcDbLine
 62
253
  6
CONTINUOUS
 10
25.5589958209
 20
9.2411107924
 11
25.5931245874
 21
9.206982026
  0
LINE
  5
2E5
100
AcDbEntity
  8
RACCORDO
100
AcDbLine
 62
253
  6
CONTINUOUS
 10
-26.2588892076
 20
61.0589958209
 11
-26.293017974
 21
61.0931245874
  0
LINE
  5
2E6
100
AcDbEntity
  8
RACCORDO
100
AcDbLine
 62
253
  6
CONTINUOUS
 10
22.2985854258
 20
12.9014602656
 11
22.2921909122
 21
12.9078547792
  0
LINE
  5
2E7
100
AcDbEntity
  8
RACCORDO
100
AcDbLine
 62
253
  6
CONTINUOUS
 10
-22.5921452208
 20
57.7921909122
 11
-22.5985397344
 21
57.7985854258
  0
LINE
  5
2E8
100
AcDbEntity
  8
RACCORDO
100
AcDbLine
 62
253
  6
CONTINUOUS
 10
22.8649948583
 20
12.3530961265
 11
22.3453051847
 21
12.8728204127
  0
LINE
  5
2E9
100
AcDbEntity
  8
RACCORDO
100
AcDbLine
 62
253
  6
CONTINUOUS
 10
-22.6271795883
 20
57.8453052934
 11
-23.1469038735
 21
58.3649947412
  0
LINE
  5
2EA
100
AcDbEntity
  8
RACCORDO
100
AcDbLine
 62
253
  6
CONTINUOUS
 10
23.1469038735
 20
12.6349932333
 11
22.6271810404
 21
13.154726745
  0
LINE
  5
2EB
100
AcDbEntity
  8
RACCORDO
100
AcDbLine
 62
253
  6
CONTINUOUS
 10
-22.345273254
 20
58.1271810405
 11
-22.8650068917
 21
58.6469038735
  0
LINE
  5
2EC
100
AcDbEntity
  8
RACCORDO
100
AcDbLine
 62
253
  6
CONTINUOUS
 10
22.5985397344
 20
13.2014145742
 11
22.5921452208
 21
13.2078090878
  0
LINE
  5
2ED
100
AcDbEntity
  8
RACCORDO
100
AcDbLine
 62
253
  6
CONTINUOUS
 10
-22.2921909122
 20
58.0921452208
 11
-22.2985854258
 21
58.0985397344
  0
LINE
  5
2EE
100
AcDbEntity
  8
RACCORDO
100
AcDbLine
 62
253
  6
CONTINUOUS
 10
26.2588892076
 20
9.9410041791
 11
26.293017974
 21
9.9068754126
  0
LINE
  5
2EF
100
AcDbEntity
  8
RACCORDO
100
AcDbLine
 62
253
  6
CONTINUOUS
 10
-25.5589958209
 20
61.7588892076
 11
-25.5931245874
 21
61.793017974
  0
LWPOLYLINE
  5
2F0
100
AcDbEntity
  8
0
100
AcDbPolyline
 62
7
  6
CONTINUOUS
 90
10
 70
0
 43
0.3500000006
 10
0.8571428254
 20
92.4500007019
 10
0.9285714591
 20
92.3071383362
 10
0.9285714591
 20
92.235716217
 10
0.7857142625
 20
92.0928538513
 10
0.7142856996
 20
92.0928538513
 10
0.6428571367
 20
92.1642850342
 10
0.6428571367
 20
92.235716217
 10
0.7142856996
 20
92.378569519
 10
0.7857142625
 20
92.4500007019
 10
0.8571428254
 20
92.4500007019
  0
LINE
  5
2F1
100
AcDbEntity
  8
SMUSSO
100
AcDbLine
 62
7
  6
CONTINUOUS
 10
46.7
 20
-81.7857864376
 11
46.7
 21
81.7857864376
  0
LINE
  5
2F2
100
AcDbEntity
  8
SMUSSO
100
AcDbLine
 62
7
  6
CONTINUOUS
 10
47.7
 20
-82.2
 11
47.7
 21
82.2
  0
LINE
  5
2F3
100
AcDbEntity
  8
SMUSSO
100
AcDbLine
 62
7
  6
CONTINUOUS
 10
-47.7
 20
-82.2
 11
-46.7
 21
-81.7857864376
  0
LINE
  5
2F4
100
AcDbEntity
  8
RACCORDO
100
AcDbLine
 62
253
  6
CONTINUOUS
 10
-22.5985397344
 20
57.7985854258
 11
-22.6286172716
 21
57.7985854258
  0
LINE
  5
2F5
100
AcDbEntity
  8
RACCORDO
100
AcDbLine
 62
253
  6
CONTINUOUS
 10
22.5985397344
 20
57.7985854258
 11
22.6286172712
 21
57.7985854231
  0
LINE
  5
2F6
100
AcDbEntity
  8
RACCORDO
100
AcDbLine
 62
7
  6
CONTINUOUS
 10
-22.2921909122
 20
58.0921452208
 11
22.2921909122
 21
58.0921452208
  0
LINE
  5
2F7
100
AcDbEntity
  8
RACCORDO
100
AcDbLine
 62
253
  6
CONTINUOUS
 10
22.2985854258
 20
58.0985397344
 11
-22.2985854258
 21
58.0985397344
  0
LINE
  5
2F8
100
AcDbEntity
  8
RACCORDO
100
AcDbLine
 62
253
  6
CONTINUOUS
 10
22.2985854258
 20
58.1286172716
 11
-22.2985854258
 21
58.1286172716
  0
LINE
  5
2F9
100
AcDbEntity
  8
RACCORDO
100
AcDbLine
 62
253
  6
CONTINUOUS
 10
-23.4288116597
 20
58.3649960872
 11
-23.1469038735
 21
58.3649960872
  0
LINE
  5
2FA
100
AcDbEntity
  8
RACCORDO
100
AcDbLine
 62
253
  6
CONTINUOUS
 10
23.4288116597
 20
58.3649960872
 11
23.1469038735
 21
58.3649960872
  0
LINE
  5
2FB
100
AcDbEntity
  8
SMUSSO
100
AcDbLine
 62
7
  6
CONTINUOUS
 10
-47.7
 20
82.2
 11
-46.7
 21
81.7857864376
  0
LINE
  5
2FC
100
AcDbEntity
  8
RACCORDO
100
AcDbLine
 62
253
  6
CONTINUOUS
 10
-22.8650068917
 20
58.6469038735
 11
22.8650067667
 21
58.6469038735
  0
LINE
  5
2FD
100
AcDbEntity
  8
RACCORDO
100
AcDbLine
 62
253
  6
CONTINUOUS
 10
-22.8649960872
 20
58.9288116597
 11
22.8649960872
 21
58.9288116597
  0
LINE
  5
2FE
100
AcDbEntity
  8
RACCORDO
100
AcDbLine
 62
253
  6
CONTINUOUS
 10
-26.2588892076
 20
61.0589958196
 11
-25.958934899
 21
61.0589958209
  0
LINE
  5
2FF
100
AcDbEntity
  8
RACCORDO
100
AcDbLine
 62
253
  6
CONTINUOUS
 10
26.2588892076
 20
61.058995819
 11
25.958934899
 21
61.0589958209
  0
LINE
  5
300
100
AcDbEntity
  8
RACCORDO
100
AcDbLine
 62
253
  6
CONTINUOUS
 10
25.5589958209
 20
61.458934899
 11
-25.5622249565
 21
61.458934899
  0
LINE
  5
301
100
AcDbEntity
  8
RACCORDO
100
AcDbLine
 62
253
  6
CONTINUOUS
 10
25.5589958209
 20
61.7588892076
 11
-25.5589958209
 21
61.7588892076
  0
LINE
  5
302
100
AcDbEntity
  8
RACCORDO
100
AcDbLine
 62
7
  6
CONTINUOUS
 10
25.5931245874
 20
61.793017974
 11
-25.5931245874
 21
61.793017974
  0
LINE
  5
303
100
AcDbEntity
  8
SMUSSO
100
AcDbLine
 62
7
  6
CONTINUOUS
 10
46.2857864376
 20
82.2
 11
-46.2857864376
 21
82.2
  0
LINE
  5
304
100
AcDbEntity
  8
SMUSSO
100
AcDbLine
 62
7
  6
CONTINUOUS
 10
46.7
 20
83.2
 11
-46.7
 21
83.2
  0
LINE
  5
305
100
AcDbEntity
  8
SMUSSO
100
AcDbLine
 62
7
  6
CONTINUOUS
 10
46.2857864376
 20
-82.2
 11
46.7
 21
-81.7857864376
  0
LINE
  5
306
100
AcDbEntity
  8
SMUSSO
100
AcDbLine
 62
7
  6
CONTINUOUS
 10
46.7
 20
-83.2
 11
47.7
 21
-82.2
  0
LWPOLYLINE
  5
307
100
AcDbEntity
  8
0
100
AcDbPolyline
 62
7
  6
CONTINUOUS
 90
8
 70
0
 43
0.3500000006
 10
-1.9285714102
 20
91.9500005493
 10
-1.0714285848
 20
91.9500005493
 10
-0.6428571367
 20
92.378569519
 10
-0.6428571367
 20
93.2357165222
 10
-1.0714285848
 20
93.6642854919
 10
-1.9285714102
 20
93.6642854919
 10
-1.9285714102
 20
94.9500014648
 10
-0.6428571367
 20
94.9500014648
  0
LWPOLYLINE
  5
308
100
AcDbEntity
  8
0
100
AcDbPolyline
 62
7
  6
CONTINUOUS
 90
3
 70
0
 43
0.3500000006
 10
3.4285713015
 20
92.5928540039
 10
1.9285714102
 20
92.5928540039
 10
2.5714285469
 20
94.9500014648
  0
LINE
  5
309
100
AcDbEntity
  8
SMUSSO
100
AcDbLine
 62
7
  6
CONTINUOUS
 10
46.7
 20
81.7857864376
 11
46.2857864376
 21
82.2
  0
LINE
  5
30A
100
AcDbEntity
  8
SMUSSO
100
AcDbLine
 62
7
  6
CONTINUOUS
 10
47.7
 20
82.2
 11
46.7
 21
83.2
  0
LINE
  5
30B
100
AcDbEntity
  8
SMUSSO
100
AcDbLine
 62
7
  6
CONTINUOUS
 10
97.2117465996
 20
-83.2
 11
93.7617465996
 21
-83.2
  0
LINE
  5
30C
100
AcDbEntity
  8
SMUSSO
100
AcDbLine
 62
7
  6
CONTINUOUS
 10
97.2117465996
 20
-82.2
 11
93.7617465996
 21
-82.2
  0
LINE
  5
30D
100
AcDbEntity
  8
RACCORDO
100
AcDbLine
 62
7
  6
CONTINUOUS
 10
92.2617465996
 20
-81.1598533507
 11
93.2617465996
 21
-81.1773084156
  0
LINE
  5
30E
100
AcDbEntity
  8
RACCORDO
100
AcDbLine
 62
253
  6
CONTINUOUS
 10
92.2617465996
 20
-79.1601579604
 11
93.2617465996
 21
-79.1776130253
  0
LWPOLYLINE
  5
30F
100
AcDbEntity
  8
0
100
AcDbPolyline
 62
7
  6
CONTINUOUS
 90
10
 70
0
 43
0.3500000006
 10
92.8760366821
 20
101.9500036011
 10
93.7331746216
 20
102.8071415405
 10
93.9474591064
 20
103.6642885437
 10
93.9474591064
 20
104.5214264832
 10
93.5188901367
 20
104.9500045166
 10
92.8760366821
 20
104.9500045166
 10
92.4474586487
 20
104.5214264832
 10
92.4474586487
 20
103.6642885437
 10
92.8760366821
 20
103.2357105103
 10
93.8046058044
 20
103.2357105103
  0
LWPOLYLINE
  5
310
100
AcDbEntity
  8
0
100
AcDbPolyline
 62
7
  6
CONTINUOUS
 90
10
 70
0
 43
0.3500000006
 10
97.5903225403
 20
104.9500045166
 10
96.947460022
 20
104.3071419983
 10
96.5188910522
 20
103.4500040588
 10
96.5188910522
 20
102.3785725708
 10
96.947460022
 20
101.9500036011
 10
97.5903225403
 20
101.9500036011
 10
98.01889151
 20
102.3785725708
 10
98.01889151
 20
103.2357105103
 10
97.5903225403
 20
103.6642885437
 10
96.6617443542
 20
103.6642885437
  0
LINE
  5
311
100
AcDbEntity
  8
SMUSSO
100
AcDbLine
 62
7
  6
CONTINUOUS
 10
93.7617465996
 20
82.2
 11
93.2617465996
 21
81.9928932188
  0
LINE
  5
312
100
AcDbEntity
  8
SMUSSO
100
AcDbLine
 62
7
  6
CONTINUOUS
 10
93.7617465996
 20
-82.2
 11
93.2617465996
 21
-81.9928932188
  0
LINE
  5
313
100
AcDbEntity
  8
0
100
AcDbLine
 62
7
  6
CONTINUOUS
 10
91.0512794083
 20
-61.2916264167
 11
92.2617465996
 21
-61.2381478244
  0
LINE
  5
314
100
AcDbEntity
  8
RACCORDO
100
AcDbLine
 62
7
  6
CONTINUOUS
 10
100.1669823215
 20
-61.7588892076
 11
98.2117465996
 21
-61.793017974
  0
LINE
  5
315
100
AcDbEntity
  8
RACCORDO
100
AcDbLine
 62
253
  6
CONTINUOUS
 10
100.1669823215
 20
-61.0589958209
 11
98.2117465996
 21
-61.0931245874
  0
LINE
  5
316
100
AcDbEntity
  8
RACCORDO
100
AcDbLine
 62
253
  6
CONTINUOUS
 10
100.1669823215
 20
-61.058995819
 11
100.4617465996
 21
-61.0589958209
  0
LINE
  5
317
100
AcDbEntity
  8
0
100
AcDbLine
 62
7
  6
CONTINUOUS
 10
91.0617465996
 20
-60.7
 11
92.2617465996
 21
-60.7
  0
LINE
  5
318
100
AcDbEntity
  8
0
100
AcDbLine
 62
7
  6
CONTINUOUS
 10
92.2617465996
 20
-60.55
 11
92.2367465996
 21
-60.55
  0
LINE
  5
319
100
AcDbEntity
  8
0
100
AcDbLine
 62
7
  6
CONTINUOUS
 10
91.8867465996
 20
-60.55
 11
91.7367465996
 21
-60.55
  0
LINE
  5
31A
100
AcDbEntity
  8
0
100
AcDbLine
 62
7
  6
CONTINUOUS
 10
91.3867465996
 20
-60.55
 11
91.2367465996
 21
-60.55
  0
LINE
  5
31B
100
AcDbEntity
  8
0
100
AcDbLine
 62
253
  6
CONTINUOUS
 10
91.1395177893
 20
-62.4277711897
 11
92.2617465996
 21
-62.4282781284
  0
LINE
  5
31C
100
AcDbEntity
  8
0
100
AcDbLine
 62
7
  6
CONTINUOUS
 10
92.2617465996
 20
-62.6524434634
 11
91.3611358129
 21
-62.6508715995
  0
LINE
  5
31D
100
AcDbEntity
  8
0
100
AcDbLine
 62
7
  6
CONTINUOUS
 10
90.8617465996
 20
-61.85
 11
92.2617465996
 21
-61.8581449617
  0
LINE
  5
31E
100
AcDbEntity
  8
SMUSSO
100
AcDbLine
 62
7
  6
CONTINUOUS
 10
93.7617465996
 20
83.2
 11
93.2617465996
 21
82.7
  0
LINE
  5
31F
100
AcDbEntity
  8
SMUSSO
100
AcDbLine
 62
7
  6
CONTINUOUS
 10
93.7617465996
 20
-83.2
 11
93.2617465996
 21
-82.7
  0
LINE
  5
320
100
AcDbEntity
  8
0
100
AcDbLine
 62
7
  6
CONTINUOUS
 10
91.0512794083
 20
-49.7599329936
 11
92.2617465996
 21
-49.823370891
  0
LINE
  5
321
100
AcDbEntity
  8
ASSI
100
AcDbLine
 62
7
  6
CONTINUOUS
 10
90.8617465996
 20
62.15
 11
91.3625657328
 21
62.6508191332
  0
LINE
  5
322
100
AcDbEntity
  8
ASSI
100
AcDbLine
 62
7
  6
CONTINUOUS
 10
91.5367465996
 20
60.7
 11
91.3867465996
 21
60.55
  0
LINE
  5
323
100
AcDbEntity
  8
ASSI
100
AcDbLine
 62
7
  6
CONTINUOUS
 10
92.0367465996
 20
60.7
 11
91.8867465996
 21
60.55
  0
LINE
  5
324
100
AcDbEntity
  8
0
100
AcDbLine
 62
7
  6
CONTINUOUS
 10
91.1395177893
 20
-48.7902460313
 11
90.8617465996
 21
-48.8641726926
  0
LINE
  5
325
100
AcDbEntity
  8
0
100
AcDbLine
 62
7
  6
CONTINUOUS
 10
90.8617465996
 20
-44.3
 11
92.2617465996
 21
-44.2966262464
  0
LINE
  5
326
100
AcDbEntity
  8
0
100
AcDbLine
 62
253
  6
CONTINUOUS
 10
91.1395177893
 20
-48.2097539687
 11
92.2617465996
 21
-48.2078620477
  0
LINE
  5
327
100
AcDbEntity
  8
0
100
AcDbLine
 62
7
  6
CONTINUOUS
 10
90.8617465996
 20
-47.9830127019
 11
92.2617465996
 21
-47.980830266
  0
LINE
  5
328
100
AcDbEntity
  8
0
100
AcDbLine
 62
7
  6
CONTINUOUS
 10
90.8617465996
 20
-47.55
 11
92.2617465996
 21
-47.5478175641
  0
LINE
  5
329
100
AcDbEntity
  8
0
100
AcDbLine
 62
253
  6
CONTINUOUS
 10
91.1395177893
 20
-44.7097539687
 11
92.2617465996
 21
-44.7078620477
  0
LINE
  5
32A
100
AcDbEntity
  8
0
100
AcDbLine
 62
7
  6
CONTINUOUS
 10
90.8617465996
 20
-48.0554425497
 11
92.2617465996
 21
-48.0550953261
  0
LINE
  5
32B
100
AcDbEntity
  8
0
100
AcDbLine
 62
7
  6
CONTINUOUS
 10
90.8617465996
 20
-44.5554425497
 11
92.2617465996
 21
-44.5550953261
  0
LINE
  5
32C
100
AcDbEntity
  8
0
100
AcDbLine
 62
7
  6
CONTINUOUS
 10
90.8617465996
 20
-48.9445574503
 11
92.2617465996
 21
-48.9449046739
  0
LINE
  5
32D
100
AcDbEntity
  8
0
100
AcDbLine
 62
7
  6
CONTINUOUS
 10
90.8617465996
 20
-45.4445574503
 11
92.2617465996
 21
-45.4449046739
  0
LINE
  5
32E
100
AcDbEntity
  8
0
100
AcDbLine
 62
7
  6
CONTINUOUS
 10
90.8617465996
 20
-45.95
 11
92.2617465996
 21
-45.9521824359
  0
LINE
  5
32F
100
AcDbEntity
  8
0
100
AcDbLine
 62
7
  6
CONTINUOUS
 10
90.8617465996
 20
-45.5169872981
 11
92.2617465996
 21
-45.519169734
  0
LINE
  5
330
100
AcDbEntity
  8
0
100
AcDbLine
 62
253
  6
CONTINUOUS
 10
91.1395177893
 20
-48.7902460313
 11
92.2617465996
 21
-48.7921379523
  0
LINE
  5
331
100
AcDbEntity
  8
0
100
AcDbLine
 62
253
  6
CONTINUOUS
 10
91.1395177893
 20
-45.2902460313
 11
92.2617465996
 21
-45.2921379523
  0
LINE
  5
332
100
AcDbEntity
  8
0
100
AcDbLine
 62
7
  6
CONTINUOUS
 10
90.8617465996
 20
-49.2
 11
92.2617465996
 21
-49.2033737536
  0
LINE
  5
333
100
AcDbEntity
  8
0
100
AcDbLine
 62
7
  6
CONTINUOUS
 10
91.1395177893
 20
-48.2097539687
 11
90.8617465996
 21
-48.1358273074
  0
LINE
  5
334
100
AcDbEntity
  8
0
100
AcDbLine
 62
7
  6
CONTINUOUS
 10
91.1395177893
 20
-44.7097539687
 11
90.8617465996
 21
-44.6358273074
  0
LINE
  5
335
100
AcDbEntity
  8
0
100
AcDbLine
 62
7
  6
CONTINUOUS
 10
90.8617465996
 20
-62.15
 11
91.3625657328
 21
-62.6508191332
  0
LINE
  5
336
100
AcDbEntity
  8
0
100
AcDbLine
 62
7
  6
CONTINUOUS
 10
91.5367465996
 20
-60.7
 11
91.3867465996
 21
-60.55
  0
LINE
  5
337
100
AcDbEntity
  8
0
100
AcDbLine
 62
7
  6
CONTINUOUS
 10
92.0367465996
 20
-60.7
 11
91.8867465996
 21
-60.55
  0
LINE
  5
338
100
AcDbEntity
  8
0
100
AcDbLine
 62
7
  6
CONTINUOUS
 10
91.1395177893
 20
-45.2902460313
 11
90.8617465996
 21
-45.3641726926
  0
LINE
  5
339
100
AcDbEntity
  8
0
100
AcDbLine
 62
7
  6
CONTINUOUS
 10
91.0512794083
 20
-43.7400670064
 11
92.2617465996
 21
-43.676629109
  0
LWPOLYLINE
  5
33A
100
AcDbEntity
  8
0
100
AcDbPolyline
 62
7
  6
CONTINUOUS
 90
3
 70
0
 43
0.3500000006
 10
95.5188907471
 20
102.2357102051
 10
95.4474595642
 20
102.0214257202
 10
95.3046062622
 20
101.7357100525
  0
LINE
  5
33B
100
AcDbEntity
  8
0
100
AcDbLine
 62
7
  6
CONTINUOUS
 10
91.0512794083
 20
-27.2599329936
 11
92.2617465996
 21
-27.323370891
  0
LINE
  5
33C
100
AcDbEntity
  8
0
100
AcDbLine
 62
7
  6
CONTINUOUS
 10
91.1395177893
 20
-26.2902460313
 11
90.8617465996
 21
-26.3641726926
  0
LINE
  5
33D
100
AcDbEntity
  8
0
100
AcDbLine
 62
7
  6
CONTINUOUS
 10
90.8617465996
 20
-21.8
 11
92.2617465996
 21
-21.7966262464
  0
LINE
  5
33E
100
AcDbEntity
  8
0
100
AcDbLine
 62
253
  6
CONTINUOUS
 10
91.1395177893
 20
-25.7097539687
 11
92.2617465996
 21
-25.7078620477
  0
LINE
  5
33F
100
AcDbEntity
  8
0
100
AcDbLine
 62
7
  6
CONTINUOUS
 10
90.8617465996
 20
-25.4830127019
 11
92.2617465996
 21
-25.480830266
  0
LINE
  5
340
100
AcDbEntity
  8
0
100
AcDbLine
 62
7
  6
CONTINUOUS
 10
90.8617465996
 20
-25.05
 11
92.2617465996
 21
-25.0478175641
  0
LINE
  5
341
100
AcDbEntity
  8
0
100
AcDbLine
 62
253
  6
CONTINUOUS
 10
91.1395177893
 20
-22.2097539687
 11
92.2617465996
 21
-22.2078620477
  0
LINE
  5
342
100
AcDbEntity
  8
0
100
AcDbLine
 62
7
  6
CONTINUOUS
 10
90.8617465996
 20
-25.5554425497
 11
92.2617465996
 21
-25.5550953261
  0
LINE
  5
343
100
AcDbEntity
  8
0
100
AcDbLine
 62
7
  6
CONTINUOUS
 10
90.8617465996
 20
-22.0554425497
 11
92.2617465996
 21
-22.0550953261
  0
LINE
  5
344
100
AcDbEntity
  8
0
100
AcDbLine
 62
7
  6
CONTINUOUS
 10
90.8617465996
 20
-26.4445574503
 11
92.2617465996
 21
-26.4449046739
  0
LINE
  5
345
100
AcDbEntity
  8
0
100
AcDbLine
 62
7
  6
CONTINUOUS
 10
90.8617465996
 20
-22.9445574503
 11
92.2617465996
 21
-22.9449046739
  0
LINE
  5
346
100
AcDbEntity
  8
0
100
AcDbLine
 62
7
  6
CONTINUOUS
 10
90.8617465996
 20
-23.45
 11
92.2617465996
 21
-23.4521824359
  0
LINE
  5
347
100
AcDbEntity
  8
0
100
AcDbLine
 62
7
  6
CONTINUOUS
 10
90.8617465996
 20
-23.0169872981
 11
92.2617465996
 21
-23.019169734
  0
LINE
  5
348
100
AcDbEntity
  8
0
100
AcDbLine
 62
253
  6
CONTINUOUS
 10
91.1395177893
 20
-26.2902460313
 11
92.2617465996
 21
-26.2921379523
  0
LINE
  5
349
100
AcDbEntity
  8
0
100
AcDbLine
 62
253
  6
CONTINUOUS
 10
91.1395177893
 20
-22.7902460313
 11
92.2617465996
 21
-22.7921379523
  0
LINE
  5
34A
100
AcDbEntity
  8
0
100
AcDbLine
 62
7
  6
CONTINUOUS
 10
90.8617465996
 20
-26.7
 11
92.2617465996
 21
-26.7033737536
  0
LINE
  5
34B
100
AcDbEntity
  8
0
100
AcDbLine
 62
7
  6
CONTINUOUS
 10
91.1395177893
 20
-25.7097539687
 11
90.8617465996
 21
-25.6358273074
  0
LINE
  5
34C
100
AcDbEntity
  8
0
100
AcDbLine
 62
7
  6
CONTINUOUS
 10
91.1395177893
 20
-22.2097539687
 11
90.8617465996
 21
-22.1358273074
  0
LWPOLYLINE
  5
34D
100
AcDbEntity
  8
0
100
AcDbPolyline
 62
7
  6
CONTINUOUS
 90
3
 70
0
 43
0.3500000006
 10
104.932869873
 20
92.235716217
 10
104.8614477539
 20
92.0214317322
 10
104.7185853882
 20
91.7357160645
  0
LINE
  5
34E
100
AcDbEntity
  8
0
100
AcDbLine
 62
7
  6
CONTINUOUS
 10
91.1395177893
 20
-22.7902460313
 11
90.8617465996
 21
-22.8641726926
  0
LINE
  5
34F
100
AcDbEntity
  8
0
100
AcDbLine
 62
7
  6
CONTINUOUS
 10
91.0512794083
 20
-21.2400670064
 11
92.2617465996
 21
-21.176629109
  0
LINE
  5
350
100
AcDbEntity
  8
0
100
AcDbLine
 62
7
  6
CONTINUOUS
 10
90.8617465996
 20
-9.15
 11
92.2617465996
 21
-9.1418550383
  0
LINE
  5
351
100
AcDbEntity
  8
0
100
AcDbLine
 62
7
  6
CONTINUOUS
 10
92.2617465996
 20
-8.3475565366
 11
91.3611358129
 21
-8.3491284005
  0
LINE
  5
352
100
AcDbEntity
  8
0
100
AcDbLine
 62
253
  6
CONTINUOUS
 10
91.1395177893
 20
-8.5722288103
 11
92.2617465996
 21
-8.5717218716
  0
LINE
  5
353
100
AcDbEntity
  8
0
100
AcDbLine
 62
7
  6
CONTINUOUS
 10
90.8885415188
 20
-10.2
 11
92.2617465996
 21
-10.2
  0
LINE
  5
354
100
AcDbEntity
  8
RACCORDO
100
AcDbLine
 62
253
  6
CONTINUOUS
 10
100.1669823215
 20
-9.9410041804
 11
100.4617465996
 21
-9.9410041791
  0
LINE
  5
355
100
AcDbEntity
  8
RACCORDO
100
AcDbLine
 62
253
  6
CONTINUOUS
 10
100.1669823215
 20
-9.9410041791
 11
98.2117465996
 21
-9.9068754126
  0
LINE
  5
356
100
AcDbEntity
  8
RACCORDO
100
AcDbLine
 62
7
  6
CONTINUOUS
 10
100.1669823215
 20
-9.2411107924
 11
98.2117465996
 21
-9.206982026
  0
LINE
  5
357
100
AcDbEntity
  8
0
100
AcDbLine
 62
7
  6
CONTINUOUS
 10
91.0512794083
 20
-9.7083735833
 11
92.2617465996
 21
-9.7618521756
  0
LINE
  5
358
100
AcDbEntity
  8
0
100
AcDbLine
 62
7
  6
CONTINUOUS
 10
90.8617465996
 20
-62.15
 11
90.8617465996
 21
-60.9
  0
LINE
  5
359
100
AcDbEntity
  8
0
100
AcDbLine
 62
7
  6
CONTINUOUS
 10
90.8617465996
 20
-21.4397929133
 11
90.8617465996
 21
-27.0602070867
  0
LINE
  5
35A
100
AcDbEntity
  8
0
100
AcDbLine
 62
7
  6
CONTINUOUS
 10
90.8617465996
 20
-10.1
 11
90.8617465996
 21
-8.85
  0
LINE
  5
35B
100
AcDbEntity
  8
0
100
AcDbLine
 62
7
  6
CONTINUOUS
 10
90.8617465996
 20
-43.9397929133
 11
90.8617465996
 21
-49.5602070867
  0
LINE
  5
35C
100
AcDbEntity
  8
ASSI
100
AcDbLine
 62
7
  6
CONTINUOUS
 10
90.8617465996
 20
8.85
 11
90.8617465996
 21
10.1
  0
LINE
  5
35D
100
AcDbEntity
  8
0
100
AcDbLine
 62
7
  6
CONTINUOUS
 10
90.8617465996
 20
21.4397929133
 11
90.8617465996
 21
27.0602070867
  0
LINE
  5
35E
100
AcDbEntity
  8
0
100
AcDbLine
 62
7
  6
CONTINUOUS
 10
90.8617465996
 20
43.9397929133
 11
90.8617465996
 21
49.5602070867
  0
LINE
  5
35F
100
AcDbEntity
  8
ASSI
100
AcDbLine
 62
7
  6
CONTINUOUS
 10
90.8617465996
 20
60.9
 11
90.8617465996
 21
62.15
  0
LINE
  5
360
100
AcDbEntity
  8
0
100
AcDbLine
 62
253
  6
CONTINUOUS
 10
91.0512794083
 20
-9.7083735833
 11
91.0512794083
 21
-10.2
  0
LINE
  5
361
100
AcDbEntity
  8
0
100
AcDbLine
 62
253
  6
CONTINUOUS
 10
91.0512794083
 20
9.7083735833
 11
91.0512794083
 21
10.2
  0
LINE
  5
362
100
AcDbEntity
  8
0
100
AcDbLine
 62
253
  6
CONTINUOUS
 10
91.0512794083
 20
-60.700274093
 11
91.0512794083
 21
-61.2916264167
  0
LINE
  5
363
100
AcDbEntity
  8
ASSI
100
AcDbLine
 62
253
  6
CONTINUOUS
 10
91.0512794083
 20
60.700274093
 11
91.0512794083
 21
61.2916264167
  0
LINE
  5
364
100
AcDbEntity
  8
RACCORDO
100
AcDbLine
 62
7
  6
CONTINUOUS
 10
92.2617465996
 20
-81.1598533507
 11
92.2617465996
 21
81.1598533507
  0
LINE
  5
365
100
AcDbEntity
  8
SMUSSO
100
AcDbLine
 62
7
  6
CONTINUOUS
 10
93.2617465996
 20
-82.7
 11
93.2617465996
 21
82.7
  0
LINE
  5
366
100
AcDbEntity
  8
SMUSSO
100
AcDbLine
 62
7
  6
CONTINUOUS
 10
93.7617465996
 20
-83.2
 11
93.7617465996
 21
83.2
  0
LINE
  5
367
100
AcDbEntity
  8
SMUSSO
100
AcDbLine
 62
7
  6
CONTINUOUS
 10
97.2117465996
 20
83.2
 11
97.2117465996
 21
-83.2
  0
LINE
  5
368
100
AcDbEntity
  8
SMUSSO
100
AcDbLine
 62
7
  6
CONTINUOUS
 10
98.2117465996
 20
82.2
 11
98.2117465996
 21
-82.2
  0
LINE
  5
369
100
AcDbEntity
  8
RACCORDO
100
AcDbLine
 62
253
  6
CONTINUOUS
 10
100.1669823215
 20
61.0589958209
 11
100.1669823215
 21
9.9410041791
  0
LINE
  5
36A
100
AcDbEntity
  8
RACCORDO
100
AcDbLine
 62
253
  6
CONTINUOUS
 10
100.1669823215
 20
-9.9410041791
 11
100.1669823215
 21
-61.0589958209
  0
LINE
  5
36B
100
AcDbEntity
  8
RACCORDO
100
AcDbLine
 62
7
  6
CONTINUOUS
 10
100.4617465996
 20
-61.458934899
 11
100.4617465996
 21
-9.541065101
  0
LINE
  5
36C
100
AcDbEntity
  8
RACCORDO
100
AcDbLine
 62
7
  6
CONTINUOUS
 10
100.4617465996
 20
9.541065101
 11
100.4617465996
 21
61.458934899
  0
LWPOLYLINE
  5
36D
100
AcDbEntity
  8
0
100
AcDbPolyline
 62
7
  6
CONTINUOUS
 90
4
 70
0
 43
0.3500000006
 10
101.8614468384
 20
92.378569519
 10
101.8614468384
 20
93.2357165222
 10
102.2900158081
 20
93.6642854919
 10
102.9328783264
 20
93.6642854919
  0
LINE
  5
36E
100
AcDbEntity
  8
0
100
AcDbLine
 62
7
  6
CONTINUOUS
 10
91.3625657328
 20
-8.3491808668
 11
90.8617465996
 21
-8.85
  0
LINE
  5
36F
100
AcDbEntity
  8
ASSI
100
AcDbLine
 62
7
  6
CONTINUOUS
 10
91.3625657328
 20
8.3491808668
 11
90.8617465996
 21
8.85
  0
LINE
  5
370
100
AcDbEntity
  8
ASSI
100
AcDbLine
 62
7
  6
CONTINUOUS
 10
91.0512794083
 20
9.7083735833
 11
92.2617465996
 21
9.7618521756
  0
LINE
  5
371
100
AcDbEntity
  8
RACCORDO
100
AcDbLine
 62
7
  6
CONTINUOUS
 10
100.1669823215
 20
9.2411107924
 11
98.2117465996
 21
9.206982026
  0
LINE
  5
372
100
AcDbEntity
  8
RACCORDO
100
AcDbLine
 62
253
  6
CONTINUOUS
 10
100.1669823215
 20
9.9410041791
 11
98.2117465996
 21
9.9068754126
  0
LINE
  5
373
100
AcDbEntity
  8
RACCORDO
100
AcDbLine
 62
253
  6
CONTINUOUS
 10
100.1669823215
 20
9.941004181
 11
100.4617465996
 21
9.9410041791
  0
LINE
  5
374
100
AcDbEntity
  8
0
100
AcDbLine
 62
7
  6
CONTINUOUS
 10
90.8885415188
 20
10.2
 11
92.2617465996
 21
10.2
  0
LINE
  5
375
100
AcDbEntity
  8
ASSI
100
AcDbLine
 62
253
  6
CONTINUOUS
 10
91.1395177893
 20
8.5722288103
 11
92.2617465996
 21
8.5717218716
  0
LINE
  5
376
100
AcDbEntity
  8
ASSI
100
AcDbLine
 62
7
  6
CONTINUOUS
 10
91.3611358129
 20
8.3491284005
 11
92.2617465996
 21
8.3475565366
  0
LINE
  5
377
100
AcDbEntity
  8
ASSI
100
AcDbLine
 62
7
  6
CONTINUOUS
 10
90.8617465996
 20
9.15
 11
92.2617465996
 21
9.1418550383
  0
LINE
  5
378
100
AcDbEntity
  8
0
100
AcDbLine
 62
7
  6
CONTINUOUS
 10
91.1395177893
 20
22.2097539687
 11
90.8617465996
 21
22.1358273074
  0
LINE
  5
379
100
AcDbEntity
  8
0
100
AcDbLine
 62
253
  6
CONTINUOUS
 10
91.1395177893
 20
22.7902460313
 11
92.2617465996
 21
22.7921379523
  0
LINE
  5
37A
100
AcDbEntity
  8
0
100
AcDbLine
 62
7
  6
CONTINUOUS
 10
90.8617465996
 20
22.9445574503
 11
92.2617465996
 21
22.9449046739
  0
LINE
  5
37B
100
AcDbEntity
  8
0
100
AcDbLine
 62
7
  6
CONTINUOUS
 10
90.8617465996
 20
22.0554425497
 11
92.2617465996
 21
22.0550953261
  0
LINE
  5
37C
100
AcDbEntity
  8
0
100
AcDbLine
 62
253
  6
CONTINUOUS
 10
91.1395177893
 20
22.2097539687
 11
92.2617465996
 21
22.2078620477
  0
LINE
  5
37D
100
AcDbEntity
  8
0
100
AcDbLine
 62
7
  6
CONTINUOUS
 10
90.8617465996
 20
21.8
 11
92.2617465996
 21
21.7966262464
  0
LINE
  5
37E
100
AcDbEntity
  8
0
100
AcDbLine
 62
7
  6
CONTINUOUS
 10
91.0512794083
 20
21.2400670064
 11
92.2617465996
 21
21.176629109
  0
LINE
  5
37F
100
AcDbEntity
  8
0
100
AcDbLine
 62
7
  6
CONTINUOUS
 10
91.1395177893
 20
22.7902460313
 11
90.8617465996
 21
22.8641726926
  0
LINE
  5
380
100
AcDbEntity
  8
0
100
AcDbLine
 62
7
  6
CONTINUOUS
 10
91.1395177893
 20
25.7097539687
 11
90.8617465996
 21
25.6358273074
  0
LINE
  5
381
100
AcDbEntity
  8
0
100
AcDbLine
 62
7
  6
CONTINUOUS
 10
91.0512794083
 20
27.2599329936
 11
92.2617465996
 21
27.323370891
  0
LINE
  5
382
100
AcDbEntity
  8
0
100
AcDbLine
 62
7
  6
CONTINUOUS
 10
90.8617465996
 20
26.7
 11
92.2617465996
 21
26.7033737536
  0
LINE
  5
383
100
AcDbEntity
  8
0
100
AcDbLine
 62
7
  6
CONTINUOUS
 10
90.8617465996
 20
23.0169872981
 11
92.2617465996
 21
23.019169734
  0
LINE
  5
384
100
AcDbEntity
  8
0
100
AcDbLine
 62
7
  6
CONTINUOUS
 10
90.8617465996
 20
23.45
 11
92.2617465996
 21
23.4521824359
  0
LINE
  5
385
100
AcDbEntity
  8
0
100
AcDbLine
 62
253
  6
CONTINUOUS
 10
91.1395177893
 20
26.2902460313
 11
92.2617465996
 21
26.2921379523
  0
LINE
  5
386
100
AcDbEntity
  8
0
100
AcDbLine
 62
7
  6
CONTINUOUS
 10
90.8617465996
 20
26.4445574503
 11
92.2617465996
 21
26.4449046739
  0
LINE
  5
387
100
AcDbEntity
  8
0
100
AcDbLine
 62
7
  6
CONTINUOUS
 10
90.8617465996
 20
25.5554425497
 11
92.2617465996
 21
25.5550953261
  0
LINE
  5
388
100
AcDbEntity
  8
0
100
AcDbLine
 62
7
  6
CONTINUOUS
 10
90.8617465996
 20
25.05
 11
92.2617465996
 21
25.0478175641
  0
LINE
  5
389
100
AcDbEntity
  8
0
100
AcDbLine
 62
7
  6
CONTINUOUS
 10
90.8617465996
 20
25.4830127019
 11
92.2617465996
 21
25.480830266
  0
LINE
  5
38A
100
AcDbEntity
  8
0
100
AcDbLine
 62
253
  6
CONTINUOUS
 10
91.1395177893
 20
25.7097539687
 11
92.2617465996
 21
25.7078620477
  0
LINE
  5
38B
100
AcDbEntity
  8
0
100
AcDbLine
 62
7
  6
CONTINUOUS
 10
91.1395177893
 20
26.2902460313
 11
90.8617465996
 21
26.3641726926
  0
LINE
  5
38C
100
AcDbEntity
  8
0
100
AcDbLine
 62
7
  6
CONTINUOUS
 10
91.2367465996
 20
-60.55
 11
91.0867465996
 21
-60.7
  0
LINE
  5
38D
100
AcDbEntity
  8
0
100
AcDbLine
 62
7
  6
CONTINUOUS
 10
91.7367465996
 20
-60.55
 11
91.5867465996
 21
-60.7
  0
LINE
  5
38E
100
AcDbEntity
  8
0
100
AcDbLine
 62
7
  6
CONTINUOUS
 10
92.2367465996
 20
-60.55
 11
92.0867465996
 21
-60.7
  0
LINE
  5
38F
100
AcDbEntity
  8
0
100
AcDbLine
 62
7
  6
CONTINUOUS
 10
91.1395177893
 20
44.7097539687
 11
90.8617465996
 21
44.6358273074
  0
LINE
  5
390
100
AcDbEntity
  8
0
100
AcDbLine
 62
7
  6
CONTINUOUS
 10
90.8617465996
 20
44.5554425497
 11
92.2617465996
 21
44.5550953261
  0
LINE
  5
391
100
AcDbEntity
  8
0
100
AcDbLine
 62
253
  6
CONTINUOUS
 10
91.1395177893
 20
44.7097539687
 11
92.2617465996
 21
44.7078620477
  0
LINE
  5
392
100
AcDbEntity
  8
0
100
AcDbLine
 62
7
  6
CONTINUOUS
 10
90.8617465996
 20
44.3
 11
92.2617465996
 21
44.2966262464
  0
LINE
  5
393
100
AcDbEntity
  8
0
100
AcDbLine
 62
7
  6
CONTINUOUS
 10
91.0512794083
 20
43.7400670064
 11
92.2617465996
 21
43.676629109
  0
LINE
  5
394
100
AcDbEntity
  8
0
100
AcDbLine
 62
7
  6
CONTINUOUS
 10
91.1395177893
 20
45.2902460313
 11
90.8617465996
 21
45.3641726926
  0
LINE
  5
395
100
AcDbEntity
  8
ASSI
100
AcDbLine
 62
7
  6
CONTINUOUS
 10
91.2367465996
 20
60.55
 11
91.0867465996
 21
60.7
  0
LINE
  5
396
100
AcDbEntity
  8
ASSI
100
AcDbLine
 62
7
  6
CONTINUOUS
 10
91.7367465996
 20
60.55
 11
91.5867465996
 21
60.7
  0
LINE
  5
397
100
AcDbEntity
  8
ASSI
100
AcDbLine
 62
7
  6
CONTINUOUS
 10
92.2367465996
 20
60.55
 11
92.0867465996
 21
60.7
  0
LINE
  5
398
100
AcDbEntity
  8
0
100
AcDbLine
 62
7
  6
CONTINUOUS
 10
91.1395177893
 20
48.2097539687
 11
90.8617465996
 21
48.1358273074
  0
LINE
  5
399
100
AcDbEntity
  8
0
100
AcDbLine
 62
7
  6
CONTINUOUS
 10
91.0512794083
 20
49.7599329936
 11
92.2617465996
 21
49.823370891
  0
LINE
  5
39A
100
AcDbEntity
  8
0
100
AcDbLine
 62
7
  6
CONTINUOUS
 10
90.8617465996
 20
49.2
 11
92.2617465996
 21
49.2033737536
  0
LINE
  5
39B
100
AcDbEntity
  8
0
100
AcDbLine
 62
253
  6
CONTINUOUS
 10
91.1395177893
 20
45.2902460313
 11
92.2617465996
 21
45.2921379523
  0
LINE
  5
39C
100
AcDbEntity
  8
0
100
AcDbLine
 62
7
  6
CONTINUOUS
 10
90.8617465996
 20
45.5169872981
 11
92.2617465996
 21
45.519169734
  0
LINE
  5
39D
100
AcDbEntity
  8
0
100
AcDbLine
 62
7
  6
CONTINUOUS
 10
90.8617465996
 20
45.95
 11
92.2617465996
 21
45.9521824359
  0
LINE
  5
39E
100
AcDbEntity
  8
0
100
AcDbLine
 62
253
  6
CONTINUOUS
 10
91.1395177893
 20
48.7902460313
 11
92.2617465996
 21
48.7921379523
  0
LINE
  5
39F
100
AcDbEntity
  8
0
100
AcDbLine
 62
7
  6
CONTINUOUS
 10
90.8617465996
 20
45.4445574503
 11
92.2617465996
 21
45.4449046739
  0
LINE
  5
3A0
100
AcDbEntity
  8
0
100
AcDbLine
 62
7
  6
CONTINUOUS
 10
90.8617465996
 20
48.9445574503
 11
92.2617465996
 21
48.9449046739
  0
LINE
  5
3A1
100
AcDbEntity
  8
0
100
AcDbLine
 62
7
  6
CONTINUOUS
 10
90.8617465996
 20
48.0554425497
 11
92.2617465996
 21
48.0550953261
  0
LINE
  5
3A2
100
AcDbEntity
  8
0
100
AcDbLine
 62
7
  6
CONTINUOUS
 10
90.8617465996
 20
47.55
 11
92.2617465996
 21
47.5478175641
  0
LINE
  5
3A3
100
AcDbEntity
  8
0
100
AcDbLine
 62
7
  6
CONTINUOUS
 10
90.8617465996
 20
47.9830127019
 11
92.2617465996
 21
47.980830266
  0
LINE
  5
3A4
100
AcDbEntity
  8
0
100
AcDbLine
 62
253
  6
CONTINUOUS
 10
91.1395177893
 20
48.2097539687
 11
92.2617465996
 21
48.2078620477
  0
LINE
  5
3A5
100
AcDbEntity
  8
0
100
AcDbLine
 62
7
  6
CONTINUOUS
 10
91.1395177893
 20
48.7902460313
 11
90.8617465996
 21
48.8641726926
  0
LWPOLYLINE
  5
3A6
100
AcDbEntity
  8
0
100
AcDbPolyline
 62
7
  6
CONTINUOUS
 90
10
 70
0
 43
0.3500000006
 10
95.4474595642
 20
102.4500037537
 10
95.5188907471
 20
102.3071413879
 10
95.5188907471
 20
102.2357102051
 10
95.3760283813
 20
102.0928569031
 10
95.3046062622
 20
102.0928569031
 10
95.2331750793
 20
102.1642880859
 10
95.2331750793
 20
102.2357102051
 10
95.3046062622
 20
102.3785725708
 10
95.3760283813
 20
102.4500037537
 10
95.4474595642
 20
102.4500037537
  0
LWPOLYLINE
  5
3A7
100
AcDbEntity
  8
0
100
AcDbPolyline
 62
7
  6
CONTINUOUS
 90
10
 70
0
 43
0.3500000006
 10
104.8614477539
 20
92.4500007019
 10
104.932869873
 20
92.3071383362
 10
104.932869873
 20
92.235716217
 10
104.790016571
 20
92.0928538513
 10
104.7185853882
 20
92.0928538513
 10
104.647163269
 20
92.1642850342
 10
104.647163269
 20
92.235716217
 10
104.7185853882
 20
92.378569519
 10
104.790016571
 20
92.4500007019
 10
104.8614477539
 20
92.4500007019
  0
LINE
  5
3A8
100
AcDbEntity
  8
SMUSSO
100
AcDbLine
 62
7
  6
CONTINUOUS
 10
97.2117465996
 20
-83.2
 11
98.2117465996
 21
-82.2
  0
LINE
  5
3A9
100
AcDbEntity
  8
ASSI
100
AcDbLine
 62
7
  6
CONTINUOUS
 10
92.2617465996
 20
60.55
 11
92.2367465996
 21
60.55
  0
LINE
  5
3AA
100
AcDbEntity
  8
ASSI
100
AcDbLine
 62
7
  6
CONTINUOUS
 10
91.8867465996
 20
60.55
 11
91.7367465996
 21
60.55
  0
LINE
  5
3AB
100
AcDbEntity
  8
ASSI
100
AcDbLine
 62
7
  6
CONTINUOUS
 10
91.3867465996
 20
60.55
 11
91.2367465996
 21
60.55
  0
LINE
  5
3AC
100
AcDbEntity
  8
ASSI
100
AcDbLine
 62
7
  6
CONTINUOUS
 10
91.0617465996
 20
60.7
 11
92.2617465996
 21
60.7
  0
LINE
  5
3AD
100
AcDbEntity
  8
RACCORDO
100
AcDbLine
 62
253
  6
CONTINUOUS
 10
100.1669823215
 20
61.0589958196
 11
100.4617465996
 21
61.0589958209
  0
LINE
  5
3AE
100
AcDbEntity
  8
RACCORDO
100
AcDbLine
 62
253
  6
CONTINUOUS
 10
100.1669823215
 20
61.0589958209
 11
98.2117465996
 21
61.0931245874
  0
LINE
  5
3AF
100
AcDbEntity
  8
RACCORDO
100
AcDbLine
 62
7
  6
CONTINUOUS
 10
100.1669823215
 20
61.7588892076
 11
98.2117465996
 21
61.793017974
  0
LINE
  5
3B0
100
AcDbEntity
  8
ASSI
100
AcDbLine
 62
7
  6
CONTINUOUS
 10
91.0512794083
 20
61.2916264167
 11
92.2617465996
 21
61.2381478244
  0
LINE
  5
3B1
100
AcDbEntity
  8
SMUSSO
100
AcDbLine
 62
7
  6
CONTINUOUS
 10
97.2117465996
 20
83.2
 11
98.2117465996
 21
82.2
  0
LINE
  5
3B2
100
AcDbEntity
  8
ASSI
100
AcDbLine
 62
7
  6
CONTINUOUS
 10
90.8617465996
 20
61.85
 11
92.2617465996
 21
61.8581449617
  0
LINE
  5
3B3
100
AcDbEntity
  8
ASSI
100
AcDbLine
 62
7
  6
CONTINUOUS
 10
91.3611358129
 20
62.6508715995
 11
92.2617465996
 21
62.6524434634
  0
LINE
  5
3B4
100
AcDbEntity
  8
ASSI
100
AcDbLine
 62
253
  6
CONTINUOUS
 10
91.1395177893
 20
62.4277711897
 11
92.2617465996
 21
62.4282781284
  0
LINE
  5
3B5
100
AcDbEntity
  8
SMUSSO
100
AcDbLine
 62
7
  6
CONTINUOUS
 10
97.2117465996
 20
-82.2
 11
98.2117465996
 21
-81.7857864376
  0
LINE
  5
3B6
100
AcDbEntity
  8
RACCORDO
100
AcDbLine
 62
253
  6
CONTINUOUS
 10
93.2617465996
 20
79.1776130253
 11
92.2617465996
 21
79.1601579604
  0
LINE
  5
3B7
100
AcDbEntity
  8
RACCORDO
100
AcDbLine
 62
7
  6
CONTINUOUS
 10
93.2617465996
 20
81.1773084156
 11
92.2617465996
 21
81.1598533507
  0
LINE
  5
3B8
100
AcDbEntity
  8
SMUSSO
100
AcDbLine
 62
7
  6
CONTINUOUS
 10
97.2117465996
 20
82.2
 11
93.7617465996
 21
82.2
  0
LINE
  5
3B9
100
AcDbEntity
  8
SMUSSO
100
AcDbLine
 62
7
  6
CONTINUOUS
 10
97.2117465996
 20
83.2
 11
93.7617465996
 21
83.2
  0
LWPOLYLINE
  5
3BA
100
AcDbEntity
  8
0
100
AcDbPolyline
 62
7
  6
CONTINUOUS
 90
7
 70
0
 43
0.3500000006
 10
107.432870636
 20
91.9500005493
 10
105.9328701782
 20
91.9500005493
 10
107.432870636
 20
94.0928544617
 10
107.432870636
 20
94.5214324951
 10
107.0043016663
 20
94.9500014648
 10
106.3614482117
 20
94.9500014648
 10
105.9328701782
 20
94.3071389465
  0
LINE
  5
3BB
100
AcDbEntity
  8
SMUSSO
100
AcDbLine
 62
7
  6
CONTINUOUS
 10
97.2117465996
 20
82.2
 11
98.2117465996
 21
81.7857864376
  0
LWPOLYLINE
  5
3BC
100
AcDbEntity
  8
0
100
AcDbPolyline
 62
7
  6
CONTINUOUS
 90
13
 70
0
 43
0.3500000006
 10
102.2900158081
 20
93.6642854919
 10
102.0043001404
 20
93.8785699768
 10
102.0043001404
 20
94.5214324951
 10
102.2900158081
 20
94.9500014648
 10
102.9328783264
 20
94.9500014648
 10
103.2185849304
 20
94.5214324951
 10
103.2185849304
 20
93.8785699768
 10
102.9328783264
 20
93.6642854919
 10
103.3614472961
 20
93.2357165222
 10
103.3614472961
 20
92.378569519
 10
102.9328783264
 20
91.9500005493
 10
102.2900158081
 20
91.9500005493
 10
101.8614468384
 20
92.378569519
  0
ARC
  5
3BD
100
AcDbEntity
  8
RACCORDO
100
AcDbCircle
 62
253
  6
CONTINUOUS
 10
-21.8552448422
 20
-13.2018310596
 40
0.7733725415
100
AcDbArc
 50
176.5057086404
 51
179.9691444198
  0
ARC
  5
3BE
100
AcDbEntity
  8
RACCORDO
100
AcDbCircle
 62
253
  6
CONTINUOUS
 10
-21.8678351404
 20
-57.7985562505
 40
0.7607821317
100
AcDbArc
 50
180.0021972427
 51
183.5229601635
  0
ARC
  5
3BF
100
AcDbEntity
  8
RACCORDO
100
AcDbCircle
 62
253
  6
CONTINUOUS
 10
-22.2986745901
 20
-13.6280472668
 40
0.7566645436
100
AcDbArc
 50
89.993248347
 51
93.5307552607
  0
ARC
  5
3C0
100
AcDbEntity
  8
RACCORDO
100
AcDbCircle
 62
253
  6
CONTINUOUS
 10
-22.2987170898
 20
-57.373334271
 40
0.7552830121
100
AcDbArc
 50
266.4660083201
 51
270.0099880327
  0
ARC
  5
3C1
100
AcDbEntity
  8
RACCORDO
100
AcDbCircle
 62
253
  6
CONTINUOUS
 10
-25.558903789
 20
-61.058903789
 40
0.6999862456
100
AcDbArc
 50
180.0075330706
 51
269.9924669294
  0
ARC
  5
3C2
100
AcDbEntity
  8
RACCORDO
100
AcDbCircle
 62
253
  6
CONTINUOUS
 10
-25.558903789
 20
-9.941096211
 40
0.6999862456
100
AcDbArc
 50
90.0075330706
 51
179.9924669294
  0
ARC
  5
3C3
100
AcDbEntity
  8
RACCORDO
100
AcDbCircle
 62
253
  6
CONTINUOUS
 10
-22.3363738675
 20
-13.201265443
 40
0.2621659093
100
AcDbArc
 50
176.2110310274
 51
180.0325922829
  0
ARC
  5
3C4
100
AcDbEntity
  8
RACCORDO
100
AcDbCircle
 62
253
  6
CONTINUOUS
 10
-22.3368970032
 20
-57.7987517118
 40
0.261642784
100
AcDbArc
 50
179.9635859053
 51
183.7927907845
  0
ARC
  5
3C5
100
AcDbEntity
  8
RACCORDO
100
AcDbCircle
 62
253
  6
CONTINUOUS
 10
-22.2987615368
 20
-13.1628033834
 40
0.2613431771
100
AcDbArc
 50
89.9613901638
 51
93.7949865259
  0
ARC
  5
3C6
100
AcDbEntity
  8
RACCORDO
100
AcDbCircle
 62
253
  6
CONTINUOUS
 10
-22.2987648882
 20
-57.8372988177
 40
0.2612409783
100
AcDbArc
 50
266.2042633328
 51
270.0393599775
  0
ARC
  5
3C7
100
AcDbEntity
  8
RACCORDO
100
AcDbCircle
 62
253
  6
CONTINUOUS
 10
-21.8552448422
 20
57.7981689404
 40
0.7733725415
100
AcDbArc
 50
176.5057086404
 51
179.9691444198
  0
ARC
  5
3C8
100
AcDbEntity
  8
RACCORDO
100
AcDbCircle
 62
253
  6
CONTINUOUS
 10
-21.8678351404
 20
13.2014437495
 40
0.7607821317
100
AcDbArc
 50
180.0021972427
 51
183.5229601635
  0
ARC
  5
3C9
100
AcDbEntity
  8
RACCORDO
100
AcDbCircle
 62
253
  6
CONTINUOUS
 10
-22.2986745901
 20
57.3719527332
 40
0.7566645436
100
AcDbArc
 50
89.993248347
 51
93.5307552606
  0
ARC
  5
3CA
100
AcDbEntity
  8
RACCORDO
100
AcDbCircle
 62
253
  6
CONTINUOUS
 10
-22.2987170898
 20
13.626665729
 40
0.7552830121
100
AcDbArc
 50
266.4660083201
 51
270.0099880327
  0
ARC
  5
3CB
100
AcDbEntity
  8
RACCORDO
100
AcDbCircle
 62
253
  6
CONTINUOUS
 10
-25.558903789
 20
9.941096211
 40
0.6999862456
100
AcDbArc
 50
180.0075330706
 51
269.9924669294
  0
ARC
  5
3CC
100
AcDbEntity
  8
RACCORDO
100
AcDbCircle
 62
253
  6
CONTINUOUS
 10
-25.558903789
 20
61.058903789
 40
0.6999862456
100
AcDbArc
 50
90.0075330706
 51
179.9924669294
  0
ARC
  5
3CD
100
AcDbEntity
  8
RACCORDO
100
AcDbCircle
 62
253
  6
CONTINUOUS
 10
-22.3363738675
 20
57.798734557
 40
0.2621659093
100
AcDbArc
 50
176.2110310274
 51
180.0325922829
  0
ARC
  5
3CE
100
AcDbEntity
  8
RACCORDO
100
AcDbCircle
 62
253
  6
CONTINUOUS
 10
-22.3368970032
 20
13.2012482882
 40
0.261642784
100
AcDbArc
 50
179.9635859053
 51
183.7927907845
  0
ARC
  5
3CF
100
AcDbEntity
  8
RACCORDO
100
AcDbCircle
 62
253
  6
CONTINUOUS
 10
-22.2987615368
 20
57.8371966166
 40
0.2613431771
100
AcDbArc
 50
89.9613901637
 51
93.794986526
  0
ARC
  5
3D0
100
AcDbEntity
  8
RACCORDO
100
AcDbCircle
 62
253
  6
CONTINUOUS
 10
-22.2987648882
 20
13.1627011823
 40
0.2612409783
100
AcDbArc
 50
266.2042633327
 51
270.0393599775
  0
ARC
  5
3D1
100
AcDbEntity
  8
RACCORDO
100
AcDbCircle
 62
253
  6
CONTINUOUS
 10
21.8678351404
 20
-13.2014437495
 40
0.7607821317
100
AcDbArc
 50
0.0021972427
 51
3.5229601635
  0
ARC
  5
3D2
100
AcDbEntity
  8
RACCORDO
100
AcDbCircle
 62
253
  6
CONTINUOUS
 10
22.2985562505
 20
-57.3678351404
 40
0.7607821317
100
AcDbArc
 50
270.0021972427
 51
273.5229601635
  0
ARC
  5
3D3
100
AcDbEntity
  8
RACCORDO
100
AcDbCircle
 62
253
  6
CONTINUOUS
 10
21.873334271
 20
-57.7987170898
 40
0.7552830121
100
AcDbArc
 50
356.4660083201
 51
0.0099880327
  0
ARC
  5
3D4
100
AcDbEntity
  8
RACCORDO
100
AcDbCircle
 62
253
  6
CONTINUOUS
 10
22.2987170898
 20
-13.626665729
 40
0.7552830121
100
AcDbArc
 50
86.4660083201
 51
90.0099880327
  0
ARC
  5
3D5
100
AcDbEntity
  8
RACCORDO
100
AcDbCircle
 62
253
  6
CONTINUOUS
 10
25.558903789
 20
-9.941096211
 40
0.6999862456
100
AcDbArc
 50
0.0075330701
 51
89.9924669299
  0
ARC
  5
3D6
100
AcDbEntity
  8
RACCORDO
100
AcDbCircle
 62
253
  6
CONTINUOUS
 10
25.558903789
 20
-61.058903789
 40
0.6999862456
100
AcDbArc
 50
270.0075330706
 51
359.9924669294
  0
ARC
  5
3D7
100
AcDbEntity
  8
RACCORDO
100
AcDbCircle
 62
253
  6
CONTINUOUS
 10
22.3368970032
 20
-13.2012482882
 40
0.261642784
100
AcDbArc
 50
359.9635859053
 51
3.7927907845
  0
ARC
  5
3D8
100
AcDbEntity
  8
RACCORDO
100
AcDbCircle
 62
253
  6
CONTINUOUS
 10
22.2987517118
 20
-57.8368970032
 40
0.261642784
100
AcDbArc
 50
269.9635859053
 51
273.7927907845
  0
ARC
  5
3D9
100
AcDbEntity
  8
RACCORDO
100
AcDbCircle
 62
253
  6
CONTINUOUS
 10
22.2987648882
 20
-13.1627011823
 40
0.2612409783
100
AcDbArc
 50
86.2042633328
 51
90.0393599775
  0
ARC
  5
3DA
100
AcDbEntity
  8
RACCORDO
100
AcDbCircle
 62
253
  6
CONTINUOUS
 10
22.3372988177
 20
-57.7987648882
 40
0.2612409783
100
AcDbArc
 50
356.2042633327
 51
0.0393599775
  0
ARC
  5
3DB
100
AcDbEntity
  8
RACCORDO
100
AcDbCircle
 62
253
  6
CONTINUOUS
 10
21.8678351404
 20
57.7985562505
 40
0.7607821317
100
AcDbArc
 50
0.0021972427
 51
3.5229601635
  0
ARC
  5
3DC
100
AcDbEntity
  8
RACCORDO
100
AcDbCircle
 62
253
  6
CONTINUOUS
 10
22.2985562505
 20
13.6321648596
 40
0.7607821317
100
AcDbArc
 50
270.0021972427
 51
273.5229601635
  0
ARC
  5
3DD
100
AcDbEntity
  8
RACCORDO
100
AcDbCircle
 62
253
  6
CONTINUOUS
 10
21.873334271
 20
13.2012829102
 40
0.7552830121
100
AcDbArc
 50
356.4660083201
 51
0.0099880327
  0
ARC
  5
3DE
100
AcDbEntity
  8
RACCORDO
100
AcDbCircle
 62
253
  6
CONTINUOUS
 10
22.2987170898
 20
57.373334271
 40
0.7552830121
100
AcDbArc
 50
86.4660083201
 51
90.0099880326
  0
ARC
  5
3DF
100
AcDbEntity
  8
RACCORDO
100
AcDbCircle
 62
253
  6
CONTINUOUS
 10
25.558903789
 20
61.058903789
 40
0.6999862456
100
AcDbArc
 50
0.0075330706
 51
89.9924669294
  0
ARC
  5
3E0
100
AcDbEntity
  8
RACCORDO
100
AcDbCircle
 62
253
  6
CONTINUOUS
 10
25.558903789
 20
9.941096211
 40
0.6999862456
100
AcDbArc
 50
270.0075330706
 51
359.9924669294
  0
ARC
  5
3E1
100
AcDbEntity
  8
RACCORDO
100
AcDbCircle
 62
253
  6
CONTINUOUS
 10
22.3368970032
 20
57.7987517118
 40
0.261642784
100
AcDbArc
 50
359.9635859053
 51
3.7927907845
  0
ARC
  5
3E2
100
AcDbEntity
  8
RACCORDO
100
AcDbCircle
 62
253
  6
CONTINUOUS
 10
22.2987517118
 20
13.1631029968
 40
0.261642784
100
AcDbArc
 50
269.9635859053
 51
273.7927907845
  0
ARC
  5
3E3
100
AcDbEntity
  8
RACCORDO
100
AcDbCircle
 62
253
  6
CONTINUOUS
 10
22.2987648882
 20
57.8372988177
 40
0.2612409783
100
AcDbArc
 50
86.2042633326
 51
90.0393599776
  0
ARC
  5
3E4
100
AcDbEntity
  8
RACCORDO
100
AcDbCircle
 62
253
  6
CONTINUOUS
 10
22.3372988177
 20
13.2012351118
 40
0.2612409783
100
AcDbArc
 50
356.2042633327
 51
0.0393599775
  0
ARC
  5
3E5
100
AcDbEntity
  8
RACCORDO
100
AcDbCircle
 62
7
  6
CONTINUOUS
 10
100.1617465996
 20
-9.541065101
 40
0.3
100
AcDbArc
 50
0.0
 51
89.0
  0
ARC
  5
3E6
100
AcDbEntity
  8
RACCORDO
100
AcDbCircle
 62
7
  6
CONTINUOUS
 10
100.1617465996
 20
-61.458934899
 40
0.3
100
AcDbArc
 50
271.0
 51
360.0
  0
ARC
  5
3E7
100
AcDbEntity
  8
RACCORDO
100
AcDbCircle
 62
7
  6
CONTINUOUS
 10
100.1617465996
 20
61.458934899
 40
0.3
100
AcDbArc
 50
0.0
 51
89.0
  0
ARC
  5
3E8
100
AcDbEntity
  8
RACCORDO
100
AcDbCircle
 62
7
  6
CONTINUOUS
 10
100.1617465996
 20
9.541065101
 40
0.3
100
AcDbArc
 50
271.0
 51
360.0
  0
ARC
  5
3E9
100
AcDbEntity
  8
0
100
AcDbCircle
 62
7
  6
CONTINUOUS
 10
91.0617465996
 20
-10.1
 40
0.2
100
AcDbArc
 50
180.0
 51
210.0
  0
ARC
  5
3EA
100
AcDbEntity
  8
0
100
AcDbCircle
 62
7
  6
CONTINUOUS
 10
91.0617465996
 20
10.1
 40
0.2
100
AcDbArc
 50
150.0
 51
180.0
  0
ARC
  5
3EB
100
AcDbEntity
  8
0
100
AcDbCircle
 62
7
  6
CONTINUOUS
 10
91.0617465996
 20
-21.4397929133
 40
0.2
100
AcDbArc
 50
93.0
 51
180.0
  0
ARC
  5
3EC
100
AcDbEntity
  8
0
100
AcDbCircle
 62
7
  6
CONTINUOUS
 10
91.0617465996
 20
-49.5602070867
 40
0.2
100
AcDbArc
 50
180.0
 51
267.0
  0
ARC
  5
3ED
100
AcDbEntity
  8
0
100
AcDbCircle
 62
7
  6
CONTINUOUS
 10
91.0617465996
 20
-27.0602070867
 40
0.2
100
AcDbArc
 50
180.0
 51
267.0
  0
ARC
  5
3EE
100
AcDbEntity
  8
0
100
AcDbCircle
 62
7
  6
CONTINUOUS
 10
91.0617465996
 20
-43.9397929133
 40
0.2
100
AcDbArc
 50
93.0
 51
180.0
  0
ARC
  5
3EF
100
AcDbEntity
  8
ASSI
100
AcDbCircle
 62
7
  6
CONTINUOUS
 10
91.0617465996
 20
60.9
 40
0.2
100
AcDbArc
 50
180.0
 51
270.0
  0
ARC
  5
3F0
100
AcDbEntity
  8
0
100
AcDbCircle
 62
7
  6
CONTINUOUS
 10
91.0617465996
 20
-60.9
 40
0.2
100
AcDbArc
 50
90.0
 51
180.0
  0
ARC
  5
3F1
100
AcDbEntity
  8
0
100
AcDbCircle
 62
7
  6
CONTINUOUS
 10
91.0617465996
 20
43.9397929133
 40
0.2
100
AcDbArc
 50
180.0
 51
267.0
  0
ARC
  5
3F2
100
AcDbEntity
  8
0
100
AcDbCircle
 62
7
  6
CONTINUOUS
 10
91.0617465996
 20
49.5602070867
 40
0.2
100
AcDbArc
 50
93.0
 51
180.0
  0
ARC
  5
3F3
100
AcDbEntity
  8
0
100
AcDbCircle
 62
7
  6
CONTINUOUS
 10
91.0617465996
 20
21.4397929133
 40
0.2
100
AcDbArc
 50
180.0
 51
267.0
  0
ARC
  5
3F4
100
AcDbEntity
  8
0
100
AcDbCircle
 62
7
  6
CONTINUOUS
 10
91.0617465996
 20
27.0602070867
 40
0.2
100
AcDbArc
 50
93.0
 51
180.0
  0
SPLINE
  5
3F5
100
AcDbEntity
  8
RACCORDO
100
AcDbSpline
 62
253
  6
CONTINUOUS
 70
0
 71
3
 72
9
 73
5
 74
3
 42
0.0000001
 43
0.0000001
 44
0.0000000001
 12
-0.0021276972
 22
0.0423951825
 32
0.0
 13
-0.0375503783
 23
0.0197951429
 33
0.0
 40
0.0
 40
0.0
 40
0.0
 40
0.0
 40
0.3847699103
 40
1.0
 40
1.0
 40
1.0
 40
1.0
 10
-22.5979665782
 20
-13.1839410585
 30
0.0
 10
-22.5982394694
 20
-13.178503595
 30
0.0
 10
-22.6073031365
 20
-13.1657404048
 30
0.0
 10
-22.6194814473
 20
-13.1587862678
 30
0.0
 10
-22.6271821548
 20
-13.1547267452
 30
0.0
 11
-22.5979665782
 21
-13.1839410585
 31
0.0
 11
-22.6056754386
 21
-13.1695418299
 31
0.0
 11
-22.6271821548
 21
-13.1547267452
 31
0.0
  0
SPLINE
  5
3F6
100
AcDbEntity
  8
RACCORDO
100
AcDbSpline
 62
253
  6
CONTINUOUS
 70
0
 71
3
 72
9
 73
5
 74
3
 42
0.0000001
 43
0.0000001
 44
0.0000000001
 12
-0.0423952029
 22
0.002125971
 32
0.0
 13
-0.0197954014
 23
0.0375501673
 33
0.0
 40
0.0
 40
0.0
 40
0.0
 40
0.0
 40
0.384766998
 40
1.0
 40
1.0
 40
1.0
 40
1.0
 10
-22.3160586523
 20
-12.9020383978
 30
0.0
 10
-22.3214960773
 20
-12.9017657299
 30
0.0
 10
-22.3342595021
 20
-12.8927022499
 30
0.0
 10
-22.3412136612
 20
-12.8805239949
 30
0.0
 10
-22.3452732559
 20
-12.8728232942
 30
0.0
 11
-22.3160586523
 21
-12.9020383978
 31
0.0
 11
-22.3304579301
 21
-12.894329945
 31
0.0
 11
-22.3452732559
 21
-12.8728232942
 31
0.0
  0
SPLINE
  5
3F7
100
AcDbEntity
  8
RACCORDO
100
AcDbSpline
 62
253
  6
CONTINUOUS
 70
0
 71
3
 72
9
 73
5
 74
3
 42
0.0000001
 43
0.0000001
 44
0.0000000001
 12
0.0423976486
 22
0.0021313426
 32
0.0
 13
0.0197976225
 23
0.0375520622
 33
0.0
 40
0.0
 40
0.0
 40
0.0
 40
0.0
 40
0.384735205
 40
1.0
 40
1.0
 40
1.0
 40
1.0
 10
22.3160589024
 20
-12.9020340897
 30
0.0
 10
22.3214961918
 20
-12.9017607555
 30
0.0
 10
22.3342584903
 20
-12.892694018
 30
0.0
 10
22.3412129947
 20
-12.8805155701
 30
0.0
 10
22.3452732547
 20
-12.8728140829
 30
0.0
 11
22.3160589024
 21
-12.9020340897
 31
0.0
 11
22.3304567263
 21
-12.8943235702
 31
0.0
 11
22.3452732547
 21
-12.8728140829
 31
0.0
  0
SPLINE
  5
3F8
100
AcDbEntity
  8
RACCORDO
100
AcDbSpline
 62
253
  6
CONTINUOUS
 70
0
 71
3
 72
9
 73
5
 74
3
 42
0.0000001
 43
0.0000001
 44
0.0000000001
 12
0.0021270596
 22
0.0423943008
 32
0.0
 13
0.0375491867
 23
0.0197954465
 33
0.0
 40
0.0
 40
0.0
 40
0.0
 40
0.0
 40
0.3847717293
 40
1.0
 40
1.0
 40
1.0
 40
1.0
 10
22.5979665987
 20
-13.1839410573
 30
0.0
 10
22.5982394095
 20
-13.1785036811
 30
0.0
 10
22.6073025503
 20
-13.1657405717
 30
0.0
 10
22.619480477
 20
-13.1587863185
 30
0.0
 10
22.6271809174
 20
-13.1547267457
 30
0.0
 11
22.5979665987
 21
-13.1839410573
 31
0.0
 11
22.605675032
 21
-13.1695419108
 31
0.0
 11
22.6271809174
 21
-13.1547267457
 31
0.0
  0
SPLINE
  5
3F9
100
AcDbEntity
  8
RACCORDO
100
AcDbSpline
 62
253
  6
CONTINUOUS
 70
0
 71
3
 72
11
 73
7
 74
5
 42
0.0000001
 43
0.0000001
 44
0.0000000001
 12
0.4580212004
 22
0.043317967
 32
0.0
 13
-0.0434492328
 23
-0.4580087668
 33
0.0
 40
0.0
 40
0.0
 40
0.0
 40
0.0
 40
0.2481655321
 40
0.4999968063
 40
0.7518254935
 40
1.0
 40
1.0
 40
1.0
 40
1.0
 10
22.8650075502
 20
-12.3530953432
 30
0.0
 10
22.9028959085
 20
-12.3495120011
 30
0.0
 10
22.9814890065
 20
-12.3543398881
 30
0.0
 10
23.0865679023
 20
-12.4134395254
 30
0.0
 10
23.1456431893
 20
-12.5185221388
 30
0.0
 10
23.150498114
 20
-12.5971165319
 30
0.0
 10
23.1469037834
 20
-12.6350052318
 30
0.0
 11
22.8650075502
 21
-12.3530953432
 31
0.0
 11
22.9787668542
 21
-12.3627975634
 31
0.0
 11
23.0788634277
 21
-12.4211407812
 31
0.0
 11
23.1371958447
 21
-12.5212422718
 31
0.0
 11
23.1469037834
 21
-12.6350052318
 31
0.0
  0
SPLINE
  5
3FA
100
AcDbEntity
  8
RACCORDO
100
AcDbSpline
 62
253
  6
CONTINUOUS
 70
0
 71
3
 72
11
 73
7
 74
5
 42
0.0000001
 43
0.0000001
 44
0.0000000001
 12
0.0082756578
 22
0.445261122
 32
0.0
 13
-0.4452533212
 23
-0.0086852307
 33
0.0
 40
0.0
 40
0.0
 40
0.0
 40
0.0
 40
0.2501115952
 40
0.4999997138
 40
0.7498866439
 40
1.0
 40
1.0
 40
1.0
 40
1.0
 10
22.6271810694
 20
-13.1546933317
 30
0.0
 10
22.6278710154
 20
-13.1175716752
 30
0.0
 10
22.616235605
 20
-13.0421678083
 30
0.0
 10
22.5547871486
 20
-12.9451852391
 30
0.0
 10
22.4577998135
 20
-12.8837756545
 30
0.0
 10
22.3823945226
 20
-12.8720948621
 30
0.0
 10
22.3452732551
 20
-12.8728189595
 30
0.0
 11
22.6271810694
 21
-13.1546933317
 31
0.0
 11
22.608889748
 21
-13.0448212778
 31
0.0
 11
22.5488656844
 21
-12.9511121968
 31
0.0
 11
22.4551471771
 21
-12.8911038337
 31
0.0
 11
22.3452732551
 21
-12.8728189595
 31
0.0
  0
SPLINE
  5
3FB
100
AcDbEntity
  8
RACCORDO
100
AcDbSpline
 62
253
  6
CONTINUOUS
 70
0
 71
3
 72
11
 73
7
 74
5
 42
0.0000001
 43
0.0000001
 44
0.0000000001
 12
-0.0285988121
 22
0.4317179711
 32
0.0
 13
-0.4317195567
 23
0.0285748665
 33
0.0
 40
0.0
 40
0.0
 40
0.0
 40
0.0
 40
0.2444838109
 40
0.499998308
 40
0.755509181
 40
1.0
 40
1.0
 40
1.0
 40
1.0
 10
22.597966737
 20
-13.1839410492
 30
0.0
 10
22.5956360882
 20
-13.1487583643
 30
0.0
 10
22.5778052196
 20
-13.0770636689
 30
0.0
 10
22.5146028749
 20
-12.9853986241
 30
0.0
 10
22.4229382297
 20
-12.9221948954
 30
0.0
 10
22.3512427734
 20
-12.9043620272
 30
0.0
 10
22.3160589508
 20
-12.902033263
 30
0.0
 11
22.597966737
 21
-13.1839410492
 31
0.0
 11
22.5724612152
 21
-13.081282647
 31
0.0
 11
22.509789682
 21
-12.9902111505
 31
0.0
 11
22.4187203731
 21
-12.9275392045
 31
0.0
 11
22.3160589508
 21
-12.902033263
 31
0.0
  0
SPLINE
  5
3FC
100
AcDbEntity
  8
RACCORDO
100
AcDbSpline
 62
253
  6
CONTINUOUS
 70
0
 71
3
 72
11
 73
7
 74
5
 42
0.0000001
 43
0.0000001
 44
0.0000000001
 12
-0.0000498599
 22
-0.6210287384
 32
0.0
 13
-0.6210287354
 23
-0.0000791702
 33
0.0
 40
0.0
 40
0.0
 40
0.0
 40
0.0
 40
0.2500058224
 40
0.5000008131
 40
0.7499857999
 40
1.0
 40
1.0
 40
1.0
 40
1.0
 10
25.958934899
 20
-61.0589958209
 30
0.0
 10
25.9589307439
 20
-61.1107494211
 30
0.0
 10
25.9383418128
 20
-61.2153585862
 30
0.0
 10
25.8502220937
 20
-61.3479314981
 30
0.0
 10
25.7184227189
 20
-61.4368426538
 30
0.0
 10
25.6139802796
 20
-61.4589283011
 30
0.0
 10
25.5622249454
 20
-61.458934899
 30
0.0
 11
25.958934899
 21
-61.0589958209
 31
0.0
 11
25.9288012644
 21
-61.2113043249
 31
0.0
 11
25.8429410834
 21
-61.340656004
 31
0.0
 11
25.7142844243
 21
-61.4275430719
 31
0.0
 11
25.5622249454
 21
-61.458934899
 31
0.0
  0
SPLINE
  5
3FD
100
AcDbEntity
  8
RACCORDO
100
AcDbSpline
 62
253
  6
CONTINUOUS
 70
0
 71
3
 72
11
 73
7
 74
5
 42
0.0000001
 43
0.0000001
 44
0.0000000001
 12
0.043317967
 22
-0.4580212004
 32
0.0
 13
-0.4580087668
 23
0.0434492328
 33
0.0
 40
0.0
 40
0.0
 40
0.0
 40
0.0
 40
0.2481655321
 40
0.4999968063
 40
0.7518254935
 40
1.0
 40
1.0
 40
1.0
 40
1.0
 10
23.1469046568
 20
-58.3650075502
 30
0.0
 10
23.1504879989
 20
-58.4028959085
 30
0.0
 10
23.1456601119
 20
-58.4814890065
 30
0.0
 10
23.0865604746
 20
-58.5865679023
 30
0.0
 10
22.9814778612
 20
-58.6456431893
 30
0.0
 10
22.9028834681
 20
-58.650498114
 30
0.0
 10
22.8649947682
 20
-58.6469037834
 30
0.0
 11
23.1469046568
 21
-58.3650075502
 31
0.0
 11
23.1372024366
 21
-58.4787668542
 31
0.0
 11
23.0788592188
 21
-58.5788634277
 31
0.0
 11
22.9787577282
 21
-58.6371958447
 31
0.0
 11
22.8649947682
 21
-58.6469037834
 31
0.0
  0
SPLINE
  5
3FE
100
AcDbEntity
  8
RACCORDO
100
AcDbSpline
 62
253
  6
CONTINUOUS
 70
0
 71
3
 72
11
 73
7
 74
5
 42
0.0000001
 43
0.0000001
 44
0.0000000001
 12
0.445261122
 22
-0.0082756578
 32
0.0
 13
-0.0086852307
 23
0.4452533212
 33
0.0
 40
0.0
 40
0.0
 40
0.0
 40
0.0
 40
0.2501115952
 40
0.4999997138
 40
0.7498866439
 40
1.0
 40
1.0
 40
1.0
 40
1.0
 10
22.3453066683
 20
-58.1271810694
 30
0.0
 10
22.3824283248
 20
-58.1278710154
 30
0.0
 10
22.4578321917
 20
-58.116235605
 30
0.0
 10
22.5548147609
 20
-58.0547871486
 30
0.0
 10
22.6162243455
 20
-57.9577998135
 30
0.0
 10
22.6279051379
 20
-57.8823945226
 30
0.0
 10
22.6271810405
 20
-57.8452732551
 30
0.0
 11
22.3453066683
 21
-58.1271810694
 31
0.0
 11
22.4551787222
 21
-58.108889748
 31
0.0
 11
22.5488878032
 21
-58.0488656844
 31
0.0
 11
22.6088961663
 21
-57.9551471771
 31
0.0
 11
22.6271810405
 21
-57.8452732551
 31
0.0
  0
SPLINE
  5
3FF
100
AcDbEntity
  8
RACCORDO
100
AcDbSpline
 62
253
  6
CONTINUOUS
 70
0
 71
3
 72
11
 73
7
 74
5
 42
0.0000001
 43
0.0000001
 44
0.0000000001
 12
0.4317179711
 22
0.0285988121
 32
0.0
 13
0.0285748665
 23
0.4317195567
 33
0.0
 40
0.0
 40
0.0
 40
0.0
 40
0.0
 40
0.2444838109
 40
0.499998308
 40
0.755509181
 40
1.0
 40
1.0
 40
1.0
 40
1.0
 10
22.3160589508
 20
-58.097966737
 30
0.0
 10
22.3512416357
 20
-58.0956360882
 30
0.0
 10
22.4229363311
 20
-58.0778052196
 30
0.0
 10
22.5146013759
 20
-58.0146028749
 30
0.0
 10
22.5778051046
 20
-57.9229382297
 30
0.0
 10
22.5956379728
 20
-57.8512427734
 30
0.0
 10
22.597966737
 20
-57.8160589508
 30
0.0
 11
22.3160589508
 21
-58.097966737
 31
0.0
 11
22.418717353
 21
-58.0724612152
 31
0.0
 11
22.5097888495
 21
-58.009789682
 31
0.0
 11
22.5724607955
 21
-57.9187203731
 31
0.0
 11
22.597966737
 21
-57.8160589508
 31
0.0
  0
SPLINE
  5
400
100
AcDbEntity
  8
RACCORDO
100
AcDbSpline
 62
253
  6
CONTINUOUS
 70
0
 71
3
 72
11
 73
7
 74
5
 42
0.0000001
 43
0.0000001
 44
0.0000000001
 12
-0.431719563
 22
-0.0285747494
 32
0.0
 13
-0.0285985182
 23
-0.4317179891
 33
0.0
 40
0.0
 40
0.0
 40
0.0
 40
0.0
 40
0.2444907312
 40
0.5000016615
 40
0.7555160952
 40
1.0
 40
1.0
 40
1.0
 40
1.0
 10
-22.3160589508
 20
-12.902033263
 30
0.0
 10
-22.3512427613
 20
-12.9043620168
 30
0.0
 10
-22.4229382061
 20
-12.9221949093
 30
0.0
 10
-22.5146028582
 20
-12.9853986
 30
0.0
 10
-22.5778052094
 20
-13.0770636503
 30
0.0
 10
-22.5956361112
 20
-13.1487583493
 30
0.0
 10
-22.597966737
 20
-13.1839410492
 30
0.0
 11
-22.3160589508
 21
-12.902033263
 31
0.0
 11
-22.4187203351
 21
-12.9275391981
 31
0.0
 11
-22.5097896745
 21
-12.990211143
 31
0.0
 11
-22.5724612039
 21
-13.0812826083
 31
0.0
 11
-22.597966737
 21
-13.1839410492
 31
0.0
  0
SPLINE
  5
401
100
AcDbEntity
  8
RACCORDO
100
AcDbSpline
 62
253
  6
CONTINUOUS
 70
0
 71
3
 72
11
 73
7
 74
5
 42
0.0000001
 43
0.0000001
 44
0.0000000001
 12
-0.6210287303
 22
0.0000498599
 32
0.0
 13
-0.0000791702
 23
0.6210287272
 33
0.0
 40
0.0
 40
0.0
 40
0.0
 40
0.0
 40
0.2500058224
 40
0.5000008131
 40
0.7499857999
 40
1.0
 40
1.0
 40
1.0
 40
1.0
 10
-25.5589958209
 20
-61.458934899
 30
0.0
 10
-25.6107494204
 20
-61.4589307439
 30
0.0
 10
-25.715358584
 20
-61.4383418133
 30
0.0
 10
-25.847931495
 20
-61.3502220965
 30
0.0
 10
-25.9368426504
 20
-61.2184227246
 30
0.0
 10
-25.9589283011
 20
-61.1139802873
 30
0.0
 10
-25.958934899
 20
-61.0622249538
 30
0.0
 11
-25.5589958209
 21
-61.458934899
 31
0.0
 11
-25.711304323
 21
-61.4288012652
 31
0.0
 11
-25.840656001
 21
-61.3429410863
 31
0.0
 11
-25.9275430694
 21
-61.2142844301
 31
0.0
 11
-25.958934899
 21
-61.0622249538
 31
0.0
  0
SPLINE
  5
402
100
AcDbEntity
  8
RACCORDO
100
AcDbSpline
 62
253
  6
CONTINUOUS
 70
0
 71
3
 72
11
 73
7
 74
5
 42
0.0000001
 43
0.0000001
 44
0.0000000001
 12
-0.0434494719
 22
0.4580087334
 32
0.0
 13
0.4580211454
 23
-0.0433184355
 33
0.0
 40
0.0
 40
0.0
 40
0.0
 40
0.0
 40
0.248174496
 40
0.5000031929
 40
0.7518344432
 40
1.0
 40
1.0
 40
1.0
 40
1.0
 10
-23.1469037748
 20
-12.6350053575
 30
0.0
 10
-23.1504981251
 20
-12.597116662
 30
0.0
 10
-23.1456432288
 20
-12.5185222727
 30
0.0
 10
-23.0865680095
 20
-12.4134396185
 30
0.0
 10
-22.9814891423
 20
-12.3543399727
 30
0.0
 10
-22.9028960419
 20
-12.3495119528
 30
0.0
 10
-22.8650076844
 20
-12.353095334
 30
0.0
 11
-23.1469037748
 21
-12.6350053575
 31
0.0
 11
-23.1371958886
 21
-12.5212424006
 31
0.0
 11
-23.0788635255
 21
-12.4211408765
 31
0.0
 11
-22.9787669917
 21
-12.3627976177
 31
0.0
 11
-22.8650076844
 21
-12.353095334
 31
0.0
  0
SPLINE
  5
403
100
AcDbEntity
  8
RACCORDO
100
AcDbSpline
 62
253
  6
CONTINUOUS
 70
0
 71
3
 72
11
 73
7
 74
5
 42
0.0000001
 43
0.0000001
 44
0.0000000001
 12
-0.4452532521
 22
0.0086830778
 32
0.0
 13
0.0082773346
 23
-0.4452609797
 33
0.0
 40
0.0
 40
0.0
 40
0.0
 40
0.0
 40
0.2501133591
 40
0.5000002957
 40
0.749888392
 40
1.0
 40
1.0
 40
1.0
 40
1.0
 10
-22.345273254
 20
-12.8728189595
 30
0.0
 10
-22.3823945162
 20
-12.8720950416
 30
0.0
 10
-22.4577997806
 20
-12.8837755475
 30
0.0
 10
-22.5547871256
 20
-12.9451852212
 30
0.0
 10
-22.6162354615
 20
-13.0421677324
 30
0.0
 10
-22.6278711553
 20
-13.1175715773
 30
0.0
 10
-22.6271810695
 20
-13.1546932239
 30
0.0
 11
-22.345273254
 21
-12.8728189595
 31
0.0
 11
-22.4551471526
 21
-12.8911038133
 31
0.0
 11
-22.5488656427
 21
-12.9511121571
 31
0.0
 11
-22.6088896937
 21
-13.0448212014
 31
0.0
 11
-22.6271810695
 21
-13.1546932239
 31
0.0
  0
SPLINE
  5
404
100
AcDbEntity
  8
RACCORDO
100
AcDbSpline
 62
253
  6
CONTINUOUS
 70
0
 71
3
 72
11
 73
7
 74
5
 42
0.0000001
 43
0.0000001
 44
0.0000000001
 12
-0.4580212004
 22
-0.043317967
 32
0.0
 13
0.0434492328
 23
0.4580087668
 33
0.0
 40
0.0
 40
0.0
 40
0.0
 40
0.0
 40
0.2481655321
 40
0.4999968063
 40
0.7518254935
 40
1.0
 40
1.0
 40
1.0
 40
1.0
 10
-22.8650075502
 20
-58.6469046568
 30
0.0
 10
-22.9028959085
 20
-58.6504879989
 30
0.0
 10
-22.9814890065
 20
-58.6456601119
 30
0.0
 10
-23.0865679023
 20
-58.5865604746
 30
0.0
 10
-23.1456431893
 20
-58.4814778612
 30
0.0
 10
-23.150498114
 20
-58.4028834681
 30
0.0
 10
-23.1469037834
 20
-58.3649947682
 30
0.0
 11
-22.8650075502
 21
-58.6469046568
 31
0.0
 11
-22.9787668542
 21
-58.6372024366
 31
0.0
 11
-23.0788634277
 21
-58.5788592188
 31
0.0
 11
-23.1371958447
 21
-58.4787577282
 31
0.0
 11
-23.1469037834
 21
-58.3649947682
 31
0.0
  0
SPLINE
  5
405
100
AcDbEntity
  8
RACCORDO
100
AcDbSpline
 62
253
  6
CONTINUOUS
 70
0
 71
3
 72
11
 73
7
 74
5
 42
0.0000001
 43
0.0000001
 44
0.0000000001
 12
-0.0082756578
 22
-0.445261122
 32
0.0
 13
0.4452533212
 23
0.0086852307
 33
0.0
 40
0.0
 40
0.0
 40
0.0
 40
0.0
 40
0.2501115952
 40
0.4999997138
 40
0.7498866439
 40
1.0
 40
1.0
 40
1.0
 40
1.0
 10
-22.6271810694
 20
-57.8453066683
 30
0.0
 10
-22.6278710154
 20
-57.8824283248
 30
0.0
 10
-22.616235605
 20
-57.9578321917
 30
0.0
 10
-22.5547871486
 20
-58.0548147609
 30
0.0
 10
-22.4577998135
 20
-58.1162243455
 30
0.0
 10
-22.3823945226
 20
-58.1279051379
 30
0.0
 10
-22.3452732551
 20
-58.1271810405
 30
0.0
 11
-22.6271810694
 21
-57.8453066683
 31
0.0
 11
-22.608889748
 21
-57.9551787222
 31
0.0
 11
-22.5488656844
 21
-58.0488878032
 31
0.0
 11
-22.4551471771
 21
-58.1088961663
 31
0.0
 11
-22.3452732551
 21
-58.1271810405
 31
0.0
  0
SPLINE
  5
406
100
AcDbEntity
  8
RACCORDO
100
AcDbSpline
 62
253
  6
CONTINUOUS
 70
0
 71
3
 72
11
 73
7
 74
5
 42
0.0000001
 43
0.0000001
 44
0.0000000001
 12
0.0285988121
 22
-0.4317179711
 32
0.0
 13
0.4317195567
 23
-0.0285748665
 33
0.0
 40
0.0
 40
0.0
 40
0.0
 40
0.0
 40
0.2444838109
 40
0.499998308
 40
0.755509181
 40
1.0
 40
1.0
 40
1.0
 40
1.0
 10
-22.597966737
 20
-57.8160589508
 30
0.0
 10
-22.5956360882
 20
-57.8512416357
 30
0.0
 10
-22.5778052196
 20
-57.9229363311
 30
0.0
 10
-22.5146028749
 20
-58.0146013759
 30
0.0
 10
-22.4229382297
 20
-58.0778051046
 30
0.0
 10
-22.3512427734
 20
-58.0956379728
 30
0.0
 10
-22.3160589508
 20
-58.097966737
 30
0.0
 11
-22.597966737
 21
-57.8160589508
 31
0.0
 11
-22.5724612152
 21
-57.918717353
 31
0.0
 11
-22.509789682
 21
-58.0097888495
 31
0.0
 11
-22.4187203731
 21
-58.0724607955
 31
0.0
 11
-22.3160589508
 21
-58.097966737
 31
0.0
  0
SPLINE
  5
407
100
AcDbEntity
  8
RACCORDO
100
AcDbSpline
 62
253
  6
CONTINUOUS
 70
0
 71
3
 72
11
 73
7
 74
5
 42
0.0000001
 43
0.0000001
 44
0.0000000001
 12
0.0000157207
 22
-0.8843607793
 32
0.0
 13
-0.8843607788
 23
0.0000318597
 33
0.0
 40
0.0
 40
0.0
 40
0.0
 40
0.0
 40
0.2501538446
 40
0.5000000678
 40
0.7498449811
 40
1.0
 40
1.0
 40
1.0
 40
1.0
 10
23.4288116597
 20
-58.3649960872
 30
0.0
 10
23.4288129706
 20
-58.4387381702
 30
0.0
 10
23.4023630661
 20
-58.5878906947
 30
0.0
 10
23.278634984
 20
-58.7786325166
 30
0.0
 10
23.087882494
 20
-58.9023202085
 30
0.0
 10
22.9387385164
 20
-58.9288143163
 30
0.0
 10
22.8649960872
 20
-58.9288116597
 30
0.0
 11
23.4288116597
 21
-58.3649960872
 31
0.0
 11
23.3883164079
 21
-58.5824844497
 31
0.0
 11
23.267468617
 21
-58.7674616652
 31
0.0
 11
23.0824807916
 21
-58.888291096
 31
0.0
 11
22.8649960872
 21
-58.9288116597
 31
0.0
  0
SPLINE
  5
408
100
AcDbEntity
  8
RACCORDO
100
AcDbSpline
 62
253
  6
CONTINUOUS
 70
0
 71
3
 72
11
 73
7
 74
5
 42
0.0000001
 43
0.0000001
 44
0.0000000001
 12
0.8843607793
 22
0.0000157207
 32
0.0
 13
-0.0000318597
 23
-0.8843607788
 33
0.0
 40
0.0
 40
0.0
 40
0.0
 40
0.0
 40
0.2501538446
 40
0.5000000678
 40
0.7498449811
 40
1.0
 40
1.0
 40
1.0
 40
1.0
 10
22.8649960872
 20
-12.0711883403
 30
0.0
 10
22.9387381702
 20
-12.0711870294
 30
0.0
 10
23.0878906947
 20
-12.0976369339
 30
0.0
 10
23.2786325166
 20
-12.221365016
 30
0.0
 10
23.4023202085
 20
-12.412117506
 30
0.0
 10
23.4288143163
 20
-12.5612614836
 30
0.0
 10
23.4288116597
 20
-12.6350039128
 30
0.0
 11
22.8649960872
 21
-12.0711883403
 31
0.0
 11
23.0824844497
 21
-12.1116835921
 31
0.0
 11
23.2674616652
 21
-12.232531383
 31
0.0
 11
23.388291096
 21
-12.4175192084
 31
0.0
 11
23.4288116597
 21
-12.6350039128
 31
0.0
  0
SPLINE
  5
409
100
AcDbEntity
  8
RACCORDO
100
AcDbSpline
 62
253
  6
CONTINUOUS
 70
0
 71
3
 72
11
 73
7
 74
5
 42
0.0000001
 43
0.0000001
 44
0.0000000001
 12
-0.0000310851
 22
0.8843607931
 32
0.0
 13
0.8843607935
 23
-0.0000166958
 33
0.0
 40
0.0
 40
0.0
 40
0.0
 40
0.0
 40
0.2501550041
 40
0.4999999352
 40
0.7498461618
 40
1.0
 40
1.0
 40
1.0
 40
1.0
 10
-23.4288116597
 20
-12.6350039128
 30
0.0
 10
-23.4288142517
 20
-12.5612614868
 30
0.0
 10
-23.402320283
 20
-12.4121175
 30
0.0
 10
-23.278632518
 20
-12.221365001
 30
0.0
 10
-23.0878906963
 20
-12.0976369798
 30
0.0
 10
-22.9387381695
 20
-12.0711869481
 30
0.0
 10
-22.8649960872
 20
-12.0711883403
 30
0.0
 11
-23.4288116597
 21
-12.6350039128
 31
0.0
 11
-23.3882911272
 21
-12.4175192123
 31
0.0
 11
-23.2674616758
 21
-12.2325313773
 31
0.0
 11
-23.0824844471
 21
-12.1116835945
 31
0.0
 11
-22.8649960872
 21
-12.0711883403
 31
0.0
  0
SPLINE
  5
40A
100
AcDbEntity
  8
RACCORDO
100
AcDbSpline
 62
253
  6
CONTINUOUS
 70
0
 71
3
 72
11
 73
7
 74
5
 42
0.0000001
 43
0.0000001
 44
0.0000000001
 12
-0.8843607793
 22
-0.0000157207
 32
0.0
 13
0.0000318597
 23
0.8843607788
 33
0.0
 40
0.0
 40
0.0
 40
0.0
 40
0.0
 40
0.2501538446
 40
0.5000000678
 40
0.7498449811
 40
1.0
 40
1.0
 40
1.0
 40
1.0
 10
-22.8649960872
 20
-58.9288116597
 30
0.0
 10
-22.9387381702
 20
-58.9288129706
 30
0.0
 10
-23.0878906947
 20
-58.9023630661
 30
0.0
 10
-23.2786325166
 20
-58.778634984
 30
0.0
 10
-23.4023202085
 20
-58.587882494
 30
0.0
 10
-23.4288143163
 20
-58.4387385164
 30
0.0
 10
-23.4288116597
 20
-58.3649960872
 30
0.0
 11
-22.8649960872
 21
-58.9288116597
 31
0.0
 11
-23.0824844497
 21
-58.8883164079
 31
0.0
 11
-23.2674616652
 21
-58.767468617
 31
0.0
 11
-23.388291096
 21
-58.5824807916
 31
0.0
 11
-23.4288116597
 21
-58.3649960872
 31
0.0
  0
SPLINE
  5
40B
100
AcDbEntity
  8
RACCORDO
100
AcDbSpline
 62
253
  6
CONTINUOUS
 70
0
 71
3
 72
11
 73
7
 74
5
 42
0.0000001
 43
0.0000001
 44
0.0000000001
 12
0.0000498599
 22
0.6210287276
 32
0.0
 13
0.6210287245
 23
0.0000791702
 33
0.0
 40
0.0
 40
0.0
 40
0.0
 40
0.0
 40
0.2500058224
 40
0.5000008131
 40
0.7499857999
 40
1.0
 40
1.0
 40
1.0
 40
1.0
 10
-25.958934899
 20
-9.9410041791
 30
0.0
 10
-25.9589307439
 20
-9.8892505798
 30
0.0
 10
-25.9383418135
 20
-9.7846414167
 30
0.0
 10
-25.8502220974
 20
-9.652068506
 30
0.0
 10
-25.7184227265
 20
-9.5631573507
 30
0.0
 10
-25.6139802898
 20
-9.5410716989
 30
0.0
 10
-25.5622249565
 20
-9.541065101
 30
0.0
 11
-25.958934899
 21
-9.9410041791
 31
0.0
 11
-25.9288012655
 21
-9.7886956776
 31
0.0
 11
-25.8429410873
 21
-9.6593439999
 31
0.0
 11
-25.7142844319
 21
-9.5724569314
 31
0.0
 11
-25.5622249565
 21
-9.541065101
 31
0.0
  0
SPLINE
  5
40C
100
AcDbEntity
  8
RACCORDO
100
AcDbSpline
 62
253
  6
CONTINUOUS
 70
0
 71
3
 72
11
 73
7
 74
5
 42
0.0000001
 43
0.0000001
 44
0.0000000001
 12
0.6210287326
 22
-0.0000498599
 32
0.0
 13
0.0000791702
 23
-0.6210287295
 33
0.0
 40
0.0
 40
0.0
 40
0.0
 40
0.0
 40
0.2500058224
 40
0.5000008131
 40
0.7499857999
 40
1.0
 40
1.0
 40
1.0
 40
1.0
 10
25.5589958209
 20
-9.541065101
 30
0.0
 10
25.6107494206
 20
-9.5410692561
 30
0.0
 10
25.7153585846
 20
-9.5616581868
 30
0.0
 10
25.8479314959
 20
-9.6497779043
 30
0.0
 10
25.9368426514
 20
-9.781577277
 30
0.0
 10
25.9589283011
 20
-9.8860197149
 30
0.0
 10
25.958934899
 20
-9.9377750486
 30
0.0
 11
25.5589958209
 21
-9.541065101
 31
0.0
 11
25.7113043236
 21
-9.571198735
 31
0.0
 11
25.8406560019
 21
-9.6570589145
 31
0.0
 11
25.9275430701
 21
-9.7857155716
 31
0.0
 11
25.958934899
 21
-9.9377750486
 31
0.0
  0
SPLINE
  5
40D
100
AcDbEntity
  8
RACCORDO
100
AcDbSpline
 62
253
  6
CONTINUOUS
 70
0
 71
3
 72
9
 73
5
 74
3
 42
0.0000001
 43
0.0000001
 44
0.0000000001
 12
0.0021313426
 22
-0.0423976486
 32
0.0
 13
0.0375520622
 23
-0.0197976225
 33
0.0
 40
0.0
 40
0.0
 40
0.0
 40
0.0
 40
0.384735205
 40
1.0
 40
1.0
 40
1.0
 40
1.0
 10
22.5979659103
 20
-57.8160589024
 30
0.0
 10
22.5982392445
 20
-57.8214961918
 30
0.0
 10
22.607305982
 20
-57.8342584903
 30
0.0
 10
22.6194844299
 20
-57.8412129947
 30
0.0
 10
22.6271859171
 20
-57.8452732547
 30
0.0
 11
22.5979659103
 21
-57.8160589024
 31
0.0
 11
22.6056764298
 21
-57.8304567263
 31
0.0
 11
22.6271859171
 21
-57.8452732547
 31
0.0
  0
SPLINE
  5
40E
100
AcDbEntity
  8
RACCORDO
100
AcDbSpline
 62
253
  6
CONTINUOUS
 70
0
 71
3
 72
9
 73
5
 74
3
 42
0.0000001
 43
0.0000001
 44
0.0000000001
 12
0.0423943008
 22
-0.0021270596
 32
0.0
 13
0.0197954465
 23
-0.0375491867
 33
0.0
 40
0.0
 40
0.0
 40
0.0
 40
0.0
 40
0.3847717293
 40
1.0
 40
1.0
 40
1.0
 40
1.0
 10
22.3160589427
 20
-58.0979665987
 30
0.0
 10
22.3214963189
 20
-58.0982394095
 30
0.0
 10
22.3342594283
 20
-58.1073025503
 30
0.0
 10
22.3412136815
 20
-58.119480477
 30
0.0
 10
22.3452732543
 20
-58.1271809174
 30
0.0
 11
22.3160589427
 21
-58.0979665987
 31
0.0
 11
22.3304580892
 21
-58.105675032
 31
0.0
 11
22.3452732543
 21
-58.1271809174
 31
0.0
  0
SPLINE
  5
40F
100
AcDbEntity
  8
RACCORDO
100
AcDbSpline
 62
253
  6
CONTINUOUS
 70
0
 71
3
 72
9
 73
5
 74
3
 42
0.0000001
 43
0.0000001
 44
0.0000000001
 12
-0.0423976486
 22
-0.0021313426
 32
0.0
 13
-0.0197976225
 23
-0.0375520622
 33
0.0
 40
0.0
 40
0.0
 40
0.0
 40
0.0
 40
0.384735205
 40
1.0
 40
1.0
 40
1.0
 40
1.0
 10
-22.3160589024
 20
-58.0979659103
 30
0.0
 10
-22.3214961918
 20
-58.0982392445
 30
0.0
 10
-22.3342584903
 20
-58.107305982
 30
0.0
 10
-22.3412129947
 20
-58.1194844299
 30
0.0
 10
-22.3452732547
 20
-58.1271859171
 30
0.0
 11
-22.3160589024
 21
-58.0979659103
 31
0.0
 11
-22.3304567263
 21
-58.1056764298
 31
0.0
 11
-22.3452732547
 21
-58.1271859171
 31
0.0
  0
SPLINE
  5
410
100
AcDbEntity
  8
RACCORDO
100
AcDbSpline
 62
253
  6
CONTINUOUS
 70
0
 71
3
 72
9
 73
5
 74
3
 42
0.0000001
 43
0.0000001
 44
0.0000000001
 12
-0.0021270596
 22
-0.0423943008
 32
0.0
 13
-0.0375491867
 23
-0.0197954465
 33
0.0
 40
0.0
 40
0.0
 40
0.0
 40
0.0
 40
0.3847717293
 40
1.0
 40
1.0
 40
1.0
 40
1.0
 10
-22.5979665987
 20
-57.8160589427
 30
0.0
 10
-22.5982394095
 20
-57.8214963189
 30
0.0
 10
-22.6073025503
 20
-57.8342594283
 30
0.0
 10
-22.619480477
 20
-57.8412136815
 30
0.0
 10
-22.6271809174
 20
-57.8452732543
 30
0.0
 11
-22.5979665987
 21
-57.8160589427
 31
0.0
 11
-22.605675032
 21
-57.8304580892
 31
0.0
 11
-22.6271809174
 21
-57.8452732543
 31
0.0
  0
SPLINE
  5
411
100
AcDbEntity
  8
RACCORDO
100
AcDbSpline
 62
253
  6
CONTINUOUS
 70
0
 71
3
 72
9
 73
5
 74
3
 42
0.0000001
 43
0.0000001
 44
0.0000000001
 12
-0.0021276972
 22
0.0423951825
 32
0.0
 13
-0.0375503783
 23
0.0197951429
 33
0.0
 40
0.0
 40
0.0
 40
0.0
 40
0.0
 40
0.3847699103
 40
1.0
 40
1.0
 40
1.0
 40
1.0
 10
-22.5979665782
 20
57.8160589415
 30
0.0
 10
-22.5982394694
 20
57.821496405
 30
0.0
 10
-22.6073031365
 20
57.8342595952
 30
0.0
 10
-22.6194814473
 20
57.8412137322
 30
0.0
 10
-22.6271821548
 20
57.8452732548
 30
0.0
 11
-22.5979665782
 21
57.8160589415
 31
0.0
 11
-22.6056754386
 21
57.8304581701
 31
0.0
 11
-22.6271821548
 21
57.8452732548
 31
0.0
  0
SPLINE
  5
412
100
AcDbEntity
  8
RACCORDO
100
AcDbSpline
 62
253
  6
CONTINUOUS
 70
0
 71
3
 72
9
 73
5
 74
3
 42
0.0000001
 43
0.0000001
 44
0.0000000001
 12
-0.0423952029
 22
0.002125971
 32
0.0
 13
-0.0197954014
 23
0.0375501673
 33
0.0
 40
0.0
 40
0.0
 40
0.0
 40
0.0
 40
0.384766998
 40
1.0
 40
1.0
 40
1.0
 40
1.0
 10
-22.3160586523
 20
58.0979616022
 30
0.0
 10
-22.3214960773
 20
58.0982342701
 30
0.0
 10
-22.3342595021
 20
58.1072977501
 30
0.0
 10
-22.3412136612
 20
58.1194760051
 30
0.0
 10
-22.3452732559
 20
58.1271767058
 30
0.0
 11
-22.3160586523
 21
58.0979616022
 31
0.0
 11
-22.3304579301
 21
58.105670055
 31
0.0
 11
-22.3452732559
 21
58.1271767058
 31
0.0
  0
SPLINE
  5
413
100
AcDbEntity
  8
RACCORDO
100
AcDbSpline
 62
253
  6
CONTINUOUS
 70
0
 71
3
 72
9
 73
5
 74
3
 42
0.0000001
 43
0.0000001
 44
0.0000000001
 12
0.0423976486
 22
0.0021313426
 32
0.0
 13
0.0197976225
 23
0.0375520622
 33
0.0
 40
0.0
 40
0.0
 40
0.0
 40
0.0
 40
0.384735205
 40
1.0
 40
1.0
 40
1.0
 40
1.0
 10
22.3160589024
 20
58.0979659103
 30
0.0
 10
22.3214961918
 20
58.0982392445
 30
0.0
 10
22.3342584903
 20
58.107305982
 30
0.0
 10
22.3412129947
 20
58.1194844299
 30
0.0
 10
22.3452732547
 20
58.1271859171
 30
0.0
 11
22.3160589024
 21
58.0979659103
 31
0.0
 11
22.3304567263
 21
58.1056764298
 31
0.0
 11
22.3452732547
 21
58.1271859171
 31
0.0
  0
SPLINE
  5
414
100
AcDbEntity
  8
RACCORDO
100
AcDbSpline
 62
253
  6
CONTINUOUS
 70
0
 71
3
 72
9
 73
5
 74
3
 42
0.0000001
 43
0.0000001
 44
0.0000000001
 12
0.0021270596
 22
0.0423943008
 32
0.0
 13
0.0375491867
 23
0.0197954465
 33
0.0
 40
0.0
 40
0.0
 40
0.0
 40
0.0
 40
0.3847717293
 40
1.0
 40
1.0
 40
1.0
 40
1.0
 10
22.5979665987
 20
57.8160589427
 30
0.0
 10
22.5982394095
 20
57.8214963189
 30
0.0
 10
22.6073025503
 20
57.8342594283
 30
0.0
 10
22.619480477
 20
57.8412136815
 30
0.0
 10
22.6271809174
 20
57.8452732543
 30
0.0
 11
22.5979665987
 21
57.8160589427
 31
0.0
 11
22.605675032
 21
57.8304580892
 31
0.0
 11
22.6271809174
 21
57.8452732543
 31
0.0
  0
SPLINE
  5
415
100
AcDbEntity
  8
RACCORDO
100
AcDbSpline
 62
253
  6
CONTINUOUS
 70
0
 71
3
 72
11
 73
7
 74
5
 42
0.0000001
 43
0.0000001
 44
0.0000000001
 12
0.4580212004
 22
0.043317967
 32
0.0
 13
-0.0434492328
 23
-0.4580087668
 33
0.0
 40
0.0
 40
0.0
 40
0.0
 40
0.0
 40
0.2481655321
 40
0.4999968063
 40
0.7518254935
 40
1.0
 40
1.0
 40
1.0
 40
1.0
 10
22.8650075502
 20
58.6469046568
 30
0.0
 10
22.9028959085
 20
58.6504879989
 30
0.0
 10
22.9814890065
 20
58.6456601119
 30
0.0
 10
23.0865679023
 20
58.5865604746
 30
0.0
 10
23.1456431893
 20
58.4814778612
 30
0.0
 10
23.150498114
 20
58.4028834681
 30
0.0
 10
23.1469037834
 20
58.3649947682
 30
0.0
 11
22.8650075502
 21
58.6469046568
 31
0.0
 11
22.9787668542
 21
58.6372024366
 31
0.0
 11
23.0788634277
 21
58.5788592188
 31
0.0
 11
23.1371958447
 21
58.4787577282
 31
0.0
 11
23.1469037834
 21
58.3649947682
 31
0.0
  0
SPLINE
  5
416
100
AcDbEntity
  8
RACCORDO
100
AcDbSpline
 62
253
  6
CONTINUOUS
 70
0
 71
3
 72
11
 73
7
 74
5
 42
0.0000001
 43
0.0000001
 44
0.0000000001
 12
0.0082756578
 22
0.445261122
 32
0.0
 13
-0.4452533212
 23
-0.0086852307
 33
0.0
 40
0.0
 40
0.0
 40
0.0
 40
0.0
 40
0.2501115952
 40
0.4999997138
 40
0.7498866439
 40
1.0
 40
1.0
 40
1.0
 40
1.0
 10
22.6271810694
 20
57.8453066683
 30
0.0
 10
22.6278710154
 20
57.8824283248
 30
0.0
 10
22.616235605
 20
57.9578321917
 30
0.0
 10
22.5547871486
 20
58.0548147609
 30
0.0
 10
22.4577998135
 20
58.1162243455
 30
0.0
 10
22.3823945226
 20
58.1279051379
 30
0.0
 10
22.3452732551
 20
58.1271810405
 30
0.0
 11
22.6271810694
 21
57.8453066683
 31
0.0
 11
22.608889748
 21
57.9551787222
 31
0.0
 11
22.5488656844
 21
58.0488878032
 31
0.0
 11
22.4551471771
 21
58.1088961663
 31
0.0
 11
22.3452732551
 21
58.1271810405
 31
0.0
  0
SPLINE
  5
417
100
AcDbEntity
  8
RACCORDO
100
AcDbSpline
 62
253
  6
CONTINUOUS
 70
0
 71
3
 72
11
 73
7
 74
5
 42
0.0000001
 43
0.0000001
 44
0.0000000001
 12
-0.0285988121
 22
0.4317179711
 32
0.0
 13
-0.4317195567
 23
0.0285748665
 33
0.0
 40
0.0
 40
0.0
 40
0.0
 40
0.0
 40
0.2444838109
 40
0.499998308
 40
0.755509181
 40
1.0
 40
1.0
 40
1.0
 40
1.0
 10
22.597966737
 20
57.8160589508
 30
0.0
 10
22.5956360882
 20
57.8512416357
 30
0.0
 10
22.5778052196
 20
57.9229363311
 30
0.0
 10
22.5146028749
 20
58.0146013759
 30
0.0
 10
22.4229382297
 20
58.0778051046
 30
0.0
 10
22.3512427734
 20
58.0956379728
 30
0.0
 10
22.3160589508
 20
58.097966737
 30
0.0
 11
22.597966737
 21
57.8160589508
 31
0.0
 11
22.5724612152
 21
57.918717353
 31
0.0
 11
22.509789682
 21
58.0097888495
 31
0.0
 11
22.4187203731
 21
58.0724607955
 31
0.0
 11
22.3160589508
 21
58.097966737
 31
0.0
  0
SPLINE
  5
418
100
AcDbEntity
  8
RACCORDO
100
AcDbSpline
 62
253
  6
CONTINUOUS
 70
0
 71
3
 72
11
 73
7
 74
5
 42
0.0000001
 43
0.0000001
 44
0.0000000001
 12
-0.0000498599
 22
-0.6210287384
 32
0.0
 13
-0.6210287354
 23
-0.0000791702
 33
0.0
 40
0.0
 40
0.0
 40
0.0
 40
0.0
 40
0.2500058224
 40
0.5000008131
 40
0.7499857999
 40
1.0
 40
1.0
 40
1.0
 40
1.0
 10
25.958934899
 20
9.9410041791
 30
0.0
 10
25.9589307439
 20
9.8892505789
 30
0.0
 10
25.9383418128
 20
9.7846414138
 30
0.0
 10
25.8502220937
 20
9.6520685019
 30
0.0
 10
25.7184227189
 20
9.5631573462
 30
0.0
 10
25.6139802796
 20
9.5410716989
 30
0.0
 10
25.5622249454
 20
9.541065101
 30
0.0
 11
25.958934899
 21
9.9410041791
 31
0.0
 11
25.9288012644
 21
9.7886956751
 31
0.0
 11
25.8429410834
 21
9.659343996
 31
0.0
 11
25.7142844243
 21
9.5724569281
 31
0.0
 11
25.5622249454
 21
9.541065101
 31
0.0
  0
SPLINE
  5
419
100
AcDbEntity
  8
RACCORDO
100
AcDbSpline
 62
253
  6
CONTINUOUS
 70
0
 71
3
 72
11
 73
7
 74
5
 42
0.0000001
 43
0.0000001
 44
0.0000000001
 12
0.043317967
 22
-0.4580212004
 32
0.0
 13
-0.4580087668
 23
0.0434492328
 33
0.0
 40
0.0
 40
0.0
 40
0.0
 40
0.0
 40
0.2481655321
 40
0.4999968063
 40
0.7518254935
 40
1.0
 40
1.0
 40
1.0
 40
1.0
 10
23.1469046568
 20
12.6349924498
 30
0.0
 10
23.1504879989
 20
12.5971040915
 30
0.0
 10
23.1456601119
 20
12.5185109935
 30
0.0
 10
23.0865604746
 20
12.4134320977
 30
0.0
 10
22.9814778612
 20
12.3543568107
 30
0.0
 10
22.9028834681
 20
12.349501886
 30
0.0
 10
22.8649947682
 20
12.3530962166
 30
0.0
 11
23.1469046568
 21
12.6349924498
 31
0.0
 11
23.1372024366
 21
12.5212331458
 31
0.0
 11
23.0788592188
 21
12.4211365723
 31
0.0
 11
22.9787577282
 21
12.3628041553
 31
0.0
 11
22.8649947682
 21
12.3530962166
 31
0.0
  0
SPLINE
  5
41A
100
AcDbEntity
  8
RACCORDO
100
AcDbSpline
 62
253
  6
CONTINUOUS
 70
0
 71
3
 72
11
 73
7
 74
5
 42
0.0000001
 43
0.0000001
 44
0.0000000001
 12
0.445261122
 22
-0.0082756578
 32
0.0
 13
-0.0086852307
 23
0.4452533212
 33
0.0
 40
0.0
 40
0.0
 40
0.0
 40
0.0
 40
0.2501115952
 40
0.4999997138
 40
0.7498866439
 40
1.0
 40
1.0
 40
1.0
 40
1.0
 10
22.3453066683
 20
12.8728189306
 30
0.0
 10
22.3824283248
 20
12.8721289846
 30
0.0
 10
22.4578321917
 20
12.883764395
 30
0.0
 10
22.5548147609
 20
12.9452128514
 30
0.0
 10
22.6162243455
 20
13.0422001865
 30
0.0
 10
22.6279051379
 20
13.1176054774
 30
0.0
 10
22.6271810405
 20
13.1547267449
 30
0.0
 11
22.3453066683
 21
12.8728189306
 31
0.0
 11
22.4551787222
 21
12.891110252
 31
0.0
 11
22.5488878032
 21
12.9511343156
 31
0.0
 11
22.6088961663
 21
13.0448528229
 31
0.0
 11
22.6271810405
 21
13.1547267449
 31
0.0
  0
SPLINE
  5
41B
100
AcDbEntity
  8
RACCORDO
100
AcDbSpline
 62
253
  6
CONTINUOUS
 70
0
 71
3
 72
11
 73
7
 74
5
 42
0.0000001
 43
0.0000001
 44
0.0000000001
 12
0.4317179711
 22
0.0285988121
 32
0.0
 13
0.0285748665
 23
0.4317195567
 33
0.0
 40
0.0
 40
0.0
 40
0.0
 40
0.0
 40
0.2444838109
 40
0.499998308
 40
0.755509181
 40
1.0
 40
1.0
 40
1.0
 40
1.0
 10
22.3160589508
 20
12.902033263
 30
0.0
 10
22.3512416357
 20
12.9043639118
 30
0.0
 10
22.4229363311
 20
12.9221947804
 30
0.0
 10
22.5146013759
 20
12.9853971251
 30
0.0
 10
22.5778051046
 20
13.0770617703
 30
0.0
 10
22.5956379728
 20
13.1487572266
 30
0.0
 10
22.597966737
 20
13.1839410492
 30
0.0
 11
22.3160589508
 21
12.902033263
 31
0.0
 11
22.418717353
 21
12.9275387848
 31
0.0
 11
22.5097888495
 21
12.990210318
 31
0.0
 11
22.5724607955
 21
13.0812796269
 31
0.0
 11
22.597966737
 21
13.1839410492
 31
0.0
  0
SPLINE
  5
41C
100
AcDbEntity
  8
RACCORDO
100
AcDbSpline
 62
253
  6
CONTINUOUS
 70
0
 71
3
 72
11
 73
7
 74
5
 42
0.0000001
 43
0.0000001
 44
0.0000000001
 12
-0.431719563
 22
-0.0285747494
 32
0.0
 13
-0.0285985182
 23
-0.4317179891
 33
0.0
 40
0.0
 40
0.0
 40
0.0
 40
0.0
 40
0.2444907312
 40
0.5000016615
 40
0.7555160952
 40
1.0
 40
1.0
 40
1.0
 40
1.0
 10
-22.3160589508
 20
58.097966737
 30
0.0
 10
-22.3512427613
 20
58.0956379832
 30
0.0
 10
-22.4229382061
 20
58.0778050907
 30
0.0
 10
-22.5146028582
 20
58.0146014
 30
0.0
 10
-22.5778052094
 20
57.9229363497
 30
0.0
 10
-22.5956361112
 20
57.8512416507
 30
0.0
 10
-22.597966737
 20
57.8160589508
 30
0.0
 11
-22.3160589508
 21
58.097966737
 31
0.0
 11
-22.4187203351
 21
58.0724608019
 31
0.0
 11
-22.5097896745
 21
58.009788857
 31
0.0
 11
-22.5724612039
 21
57.9187173917
 31
0.0
 11
-22.597966737
 21
57.8160589508
 31
0.0
  0
SPLINE
  5
41D
100
AcDbEntity
  8
RACCORDO
100
AcDbSpline
 62
253
  6
CONTINUOUS
 70
0
 71
3
 72
11
 73
7
 74
5
 42
0.0000001
 43
0.0000001
 44
0.0000000001
 12
-0.6210287303
 22
0.0000498599
 32
0.0
 13
-0.0000791702
 23
0.6210287272
 33
0.0
 40
0.0
 40
0.0
 40
0.0
 40
0.0
 40
0.2500058224
 40
0.5000008131
 40
0.7499857999
 40
1.0
 40
1.0
 40
1.0
 40
1.0
 10
-25.5589958209
 20
9.541065101
 30
0.0
 10
-25.6107494204
 20
9.5410692561
 30
0.0
 10
-25.715358584
 20
9.5616581867
 30
0.0
 10
-25.847931495
 20
9.6497779035
 30
0.0
 10
-25.9368426504
 20
9.7815772754
 30
0.0
 10
-25.9589283011
 20
9.8860197127
 30
0.0
 10
-25.958934899
 20
9.9377750462
 30
0.0
 11
-25.5589958209
 21
9.541065101
 31
0.0
 11
-25.711304323
 21
9.5711987348
 31
0.0
 11
-25.840656001
 21
9.6570589137
 31
0.0
 11
-25.9275430694
 21
9.7857155699
 31
0.0
 11
-25.958934899
 21
9.9377750462
 31
0.0
  0
SPLINE
  5
41E
100
AcDbEntity
  8
RACCORDO
100
AcDbSpline
 62
253
  6
CONTINUOUS
 70
0
 71
3
 72
11
 73
7
 74
5
 42
0.0000001
 43
0.0000001
 44
0.0000000001
 12
-0.0434494719
 22
0.4580087334
 32
0.0
 13
0.4580211454
 23
-0.0433184355
 33
0.0
 40
0.0
 40
0.0
 40
0.0
 40
0.0
 40
0.248174496
 40
0.5000031929
 40
0.7518344432
 40
1.0
 40
1.0
 40
1.0
 40
1.0
 10
-23.1469037748
 20
58.3649946425
 30
0.0
 10
-23.1504981251
 20
58.402883338
 30
0.0
 10
-23.1456432288
 20
58.4814777273
 30
0.0
 10
-23.0865680095
 20
58.5865603815
 30
0.0
 10
-22.9814891423
 20
58.6456600273
 30
0.0
 10
-22.9028960419
 20
58.6504880472
 30
0.0
 10
-22.8650076844
 20
58.646904666
 30
0.0
 11
-23.1469037748
 21
58.3649946425
 31
0.0
 11
-23.1371958886
 21
58.4787575994
 31
0.0
 11
-23.0788635255
 21
58.5788591235
 31
0.0
 11
-22.9787669917
 21
58.6372023823
 31
0.0
 11
-22.8650076844
 21
58.646904666
 31
0.0
  0
SPLINE
  5
41F
100
AcDbEntity
  8
RACCORDO
100
AcDbSpline
 62
253
  6
CONTINUOUS
 70
0
 71
3
 72
11
 73
7
 74
5
 42
0.0000001
 43
0.0000001
 44
0.0000000001
 12
-0.4452532521
 22
0.0086830778
 32
0.0
 13
0.0082773346
 23
-0.4452609797
 33
0.0
 40
0.0
 40
0.0
 40
0.0
 40
0.0
 40
0.2501133591
 40
0.5000002957
 40
0.749888392
 40
1.0
 40
1.0
 40
1.0
 40
1.0
 10
-22.345273254
 20
58.1271810405
 30
0.0
 10
-22.3823945162
 20
58.1279049584
 30
0.0
 10
-22.4577997806
 20
58.1162244525
 30
0.0
 10
-22.5547871256
 20
58.0548147788
 30
0.0
 10
-22.6162354615
 20
57.9578322676
 30
0.0
 10
-22.6278711553
 20
57.8824284227
 30
0.0
 10
-22.6271810695
 20
57.8453067761
 30
0.0
 11
-22.345273254
 21
58.1271810405
 31
0.0
 11
-22.4551471526
 21
58.1088961867
 31
0.0
 11
-22.5488656427
 21
58.0488878429
 31
0.0
 11
-22.6088896937
 21
57.9551787986
 31
0.0
 11
-22.6271810695
 21
57.8453067761
 31
0.0
  0
SPLINE
  5
420
100
AcDbEntity
  8
RACCORDO
100
AcDbSpline
 62
253
  6
CONTINUOUS
 70
0
 71
3
 72
11
 73
7
 74
5
 42
0.0000001
 43
0.0000001
 44
0.0000000001
 12
-0.4580212004
 22
-0.043317967
 32
0.0
 13
0.0434492328
 23
0.4580087668
 33
0.0
 40
0.0
 40
0.0
 40
0.0
 40
0.0
 40
0.2481655321
 40
0.4999968063
 40
0.7518254935
 40
1.0
 40
1.0
 40
1.0
 40
1.0
 10
-22.8650075502
 20
12.3530953432
 30
0.0
 10
-22.9028959085
 20
12.3495120011
 30
0.0
 10
-22.9814890065
 20
12.3543398881
 30
0.0
 10
-23.0865679023
 20
12.4134395254
 30
0.0
 10
-23.1456431893
 20
12.5185221388
 30
0.0
 10
-23.150498114
 20
12.5971165319
 30
0.0
 10
-23.1469037834
 20
12.6350052318
 30
0.0
 11
-22.8650075502
 21
12.3530953432
 31
0.0
 11
-22.9787668542
 21
12.3627975634
 31
0.0
 11
-23.0788634277
 21
12.4211407812
 31
0.0
 11
-23.1371958447
 21
12.5212422718
 31
0.0
 11
-23.1469037834
 21
12.6350052318
 31
0.0
  0
SPLINE
  5
421
100
AcDbEntity
  8
RACCORDO
100
AcDbSpline
 62
253
  6
CONTINUOUS
 70
0
 71
3
 72
11
 73
7
 74
5
 42
0.0000001
 43
0.0000001
 44
0.0000000001
 12
-0.0082756578
 22
-0.445261122
 32
0.0
 13
0.4452533212
 23
0.0086852307
 33
0.0
 40
0.0
 40
0.0
 40
0.0
 40
0.0
 40
0.2501115952
 40
0.4999997138
 40
0.7498866439
 40
1.0
 40
1.0
 40
1.0
 40
1.0
 10
-22.6271810694
 20
13.1546933317
 30
0.0
 10
-22.6278710154
 20
13.1175716752
 30
0.0
 10
-22.616235605
 20
13.0421678083
 30
0.0
 10
-22.5547871486
 20
12.9451852391
 30
0.0
 10
-22.4577998135
 20
12.8837756545
 30
0.0
 10
-22.3823945226
 20
12.8720948621
 30
0.0
 10
-22.3452732551
 20
12.8728189595
 30
0.0
 11
-22.6271810694
 21
13.1546933317
 31
0.0
 11
-22.608889748
 21
13.0448212778
 31
0.0
 11
-22.5488656844
 21
12.9511121968
 31
0.0
 11
-22.4551471771
 21
12.8911038337
 31
0.0
 11
-22.3452732551
 21
12.8728189595
 31
0.0
  0
SPLINE
  5
422
100
AcDbEntity
  8
RACCORDO
100
AcDbSpline
 62
253
  6
CONTINUOUS
 70
0
 71
3
 72
11
 73
7
 74
5
 42
0.0000001
 43
0.0000001
 44
0.0000000001
 12
0.0285988121
 22
-0.4317179711
 32
0.0
 13
0.4317195567
 23
-0.0285748665
 33
0.0
 40
0.0
 40
0.0
 40
0.0
 40
0.0
 40
0.2444838109
 40
0.499998308
 40
0.755509181
 40
1.0
 40
1.0
 40
1.0
 40
1.0
 10
-22.597966737
 20
13.1839410492
 30
0.0
 10
-22.5956360882
 20
13.1487583643
 30
0.0
 10
-22.5778052196
 20
13.0770636689
 30
0.0
 10
-22.5146028749
 20
12.9853986241
 30
0.0
 10
-22.4229382297
 20
12.9221948954
 30
0.0
 10
-22.3512427734
 20
12.9043620272
 30
0.0
 10
-22.3160589508
 20
12.902033263
 30
0.0
 11
-22.597966737
 21
13.1839410492
 31
0.0
 11
-22.5724612152
 21
13.081282647
 31
0.0
 11
-22.509789682
 21
12.9902111505
 31
0.0
 11
-22.4187203731
 21
12.9275392045
 31
0.0
 11
-22.3160589508
 21
12.902033263
 31
0.0
  0
SPLINE
  5
423
100
AcDbEntity
  8
RACCORDO
100
AcDbSpline
 62
253
  6
CONTINUOUS
 70
0
 71
3
 72
11
 73
7
 74
5
 42
0.0000001
 43
0.0000001
 44
0.0000000001
 12
0.0000157207
 22
-0.8843607793
 32
0.0
 13
-0.8843607788
 23
0.0000318597
 33
0.0
 40
0.0
 40
0.0
 40
0.0
 40
0.0
 40
0.2501538446
 40
0.5000000678
 40
0.7498449811
 40
1.0
 40
1.0
 40
1.0
 40
1.0
 10
23.4288116597
 20
12.6350039128
 30
0.0
 10
23.4288129706
 20
12.5612618298
 30
0.0
 10
23.4023630661
 20
12.4121093053
 30
0.0
 10
23.278634984
 20
12.2213674834
 30
0.0
 10
23.087882494
 20
12.0976797915
 30
0.0
 10
22.9387385164
 20
12.0711856837
 30
0.0
 10
22.8649960872
 20
12.0711883403
 30
0.0
 11
23.4288116597
 21
12.6350039128
 31
0.0
 11
23.3883164079
 21
12.4175155503
 31
0.0
 11
23.267468617
 21
12.2325383348
 31
0.0
 11
23.0824807916
 21
12.111708904
 31
0.0
 11
22.8649960872
 21
12.0711883403
 31
0.0
  0
SPLINE
  5
424
100
AcDbEntity
  8
RACCORDO
100
AcDbSpline
 62
253
  6
CONTINUOUS
 70
0
 71
3
 72
11
 73
7
 74
5
 42
0.0000001
 43
0.0000001
 44
0.0000000001
 12
0.8843607793
 22
0.0000157207
 32
0.0
 13
-0.0000318597
 23
-0.8843607788
 33
0.0
 40
0.0
 40
0.0
 40
0.0
 40
0.0
 40
0.2501538446
 40
0.5000000678
 40
0.7498449811
 40
1.0
 40
1.0
 40
1.0
 40
1.0
 10
22.8649960872
 20
58.9288116597
 30
0.0
 10
22.9387381702
 20
58.9288129706
 30
0.0
 10
23.0878906947
 20
58.9023630661
 30
0.0
 10
23.2786325166
 20
58.778634984
 30
0.0
 10
23.4023202085
 20
58.587882494
 30
0.0
 10
23.4288143163
 20
58.4387385164
 30
0.0
 10
23.4288116597
 20
58.3649960872
 30
0.0
 11
22.8649960872
 21
58.9288116597
 31
0.0
 11
23.0824844497
 21
58.8883164079
 31
0.0
 11
23.2674616652
 21
58.767468617
 31
0.0
 11
23.388291096
 21
58.5824807916
 31
0.0
 11
23.4288116597
 21
58.3649960872
 31
0.0
  0
SPLINE
  5
425
100
AcDbEntity
  8
RACCORDO
100
AcDbSpline
 62
253
  6
CONTINUOUS
 70
0
 71
3
 72
11
 73
7
 74
5
 42
0.0000001
 43
0.0000001
 44
0.0000000001
 12
-0.0000310851
 22
0.8843607931
 32
0.0
 13
0.8843607935
 23
-0.0000166958
 33
0.0
 40
0.0
 40
0.0
 40
0.0
 40
0.0
 40
0.2501550041
 40
0.4999999352
 40
0.7498461618
 40
1.0
 40
1.0
 40
1.0
 40
1.0
 10
-23.4288116597
 20
58.3649960872
 30
0.0
 10
-23.4288142517
 20
58.4387385132
 30
0.0
 10
-23.402320283
 20
58.5878825
 30
0.0
 10
-23.278632518
 20
58.778634999
 30
0.0
 10
-23.0878906963
 20
58.9023630202
 30
0.0
 10
-22.9387381695
 20
58.9288130519
 30
0.0
 10
-22.8649960872
 20
58.9288116597
 30
0.0
 11
-23.4288116597
 21
58.3649960872
 31
0.0
 11
-23.3882911272
 21
58.5824807877
 31
0.0
 11
-23.2674616758
 21
58.7674686227
 31
0.0
 11
-23.0824844471
 21
58.8883164055
 31
0.0
 11
-22.8649960872
 21
58.9288116597
 31
0.0
  0
SPLINE
  5
426
100
AcDbEntity
  8
RACCORDO
100
AcDbSpline
 62
253
  6
CONTINUOUS
 70
0
 71
3
 72
11
 73
7
 74
5
 42
0.0000001
 43
0.0000001
 44
0.0000000001
 12
-0.8843607793
 22
-0.0000157207
 32
0.0
 13
0.0000318597
 23
0.8843607788
 33
0.0
 40
0.0
 40
0.0
 40
0.0
 40
0.0
 40
0.2501538446
 40
0.5000000678
 40
0.7498449811
 40
1.0
 40
1.0
 40
1.0
 40
1.0
 10
-22.8649960872
 20
12.0711883403
 30
0.0
 10
-22.9387381702
 20
12.0711870294
 30
0.0
 10
-23.0878906947
 20
12.0976369339
 30
0.0
 10
-23.2786325166
 20
12.221365016
 30
0.0
 10
-23.4023202085
 20
12.412117506
 30
0.0
 10
-23.4288143163
 20
12.5612614836
 30
0.0
 10
-23.4288116597
 20
12.6350039128
 30
0.0
 11
-22.8649960872
 21
12.0711883403
 31
0.0
 11
-23.0824844497
 21
12.1116835921
 31
0.0
 11
-23.2674616652
 21
12.232531383
 31
0.0
 11
-23.388291096
 21
12.4175192084
 31
0.0
 11
-23.4288116597
 21
12.6350039128
 31
0.0
  0
SPLINE
  5
427
100
AcDbEntity
  8
RACCORDO
100
AcDbSpline
 62
253
  6
CONTINUOUS
 70
0
 71
3
 72
11
 73
7
 74
5
 42
0.0000001
 43
0.0000001
 44
0.0000000001
 12
0.0000498599
 22
0.6210287276
 32
0.0
 13
0.6210287245
 23
0.0000791702
 33
0.0
 40
0.0
 40
0.0
 40
0.0
 40
0.0
 40
0.2500058224
 40
0.5000008131
 40
0.7499857999
 40
1.0
 40
1.0
 40
1.0
 40
1.0
 10
-25.958934899
 20
61.0589958209
 30
0.0
 10
-25.9589307439
 20
61.1107494202
 30
0.0
 10
-25.9383418135
 20
61.2153585833
 30
0.0
 10
-25.8502220974
 20
61.347931494
 30
0.0
 10
-25.7184227265
 20
61.4368426493
 30
0.0
 10
-25.6139802898
 20
61.4589283011
 30
0.0
 10
-25.5622249565
 20
61.458934899
 30
0.0
 11
-25.958934899
 21
61.0589958209
 31
0.0
 11
-25.9288012655
 21
61.2113043224
 31
0.0
 11
-25.8429410873
 21
61.3406560001
 31
0.0
 11
-25.7142844319
 21
61.4275430686
 31
0.0
 11
-25.5622249565
 21
61.458934899
 31
0.0
  0
SPLINE
  5
428
100
AcDbEntity
  8
RACCORDO
100
AcDbSpline
 62
253
  6
CONTINUOUS
 70
0
 71
3
 72
11
 73
7
 74
5
 42
0.0000001
 43
0.0000001
 44
0.0000000001
 12
0.6210287326
 22
-0.0000498599
 32
0.0
 13
0.0000791702
 23
-0.6210287295
 33
0.0
 40
0.0
 40
0.0
 40
0.0
 40
0.0
 40
0.2500058224
 40
0.5000008131
 40
0.7499857999
 40
1.0
 40
1.0
 40
1.0
 40
1.0
 10
25.5589958209
 20
61.458934899
 30
0.0
 10
25.6107494206
 20
61.4589307439
 30
0.0
 10
25.7153585846
 20
61.4383418132
 30
0.0
 10
25.8479314959
 20
61.3502220957
 30
0.0
 10
25.9368426514
 20
61.218422723
 30
0.0
 10
25.9589283011
 20
61.1139802851
 30
0.0
 10
25.958934899
 20
61.0622249514
 30
0.0
 11
25.5589958209
 21
61.458934899
 31
0.0
 11
25.7113043236
 21
61.428801265
 31
0.0
 11
25.8406560019
 21
61.3429410855
 31
0.0
 11
25.9275430701
 21
61.2142844284
 31
0.0
 11
25.958934899
 21
61.0622249514
 31
0.0
  0
SPLINE
  5
429
100
AcDbEntity
  8
RACCORDO
100
AcDbSpline
 62
253
  6
CONTINUOUS
 70
0
 71
3
 72
9
 73
5
 74
3
 42
0.0000001
 43
0.0000001
 44
0.0000000001
 12
0.0021313426
 22
-0.0423976486
 32
0.0
 13
0.0375520622
 23
-0.0197976225
 33
0.0
 40
0.0
 40
0.0
 40
0.0
 40
0.0
 40
0.384735205
 40
1.0
 40
1.0
 40
1.0
 40
1.0
 10
22.5979659103
 20
13.1839410976
 30
0.0
 10
22.5982392445
 20
13.1785038082
 30
0.0
 10
22.607305982
 20
13.1657415097
 30
0.0
 10
22.6194844299
 20
13.1587870053
 30
0.0
 10
22.6271859171
 20
13.1547267453
 30
0.0
 11
22.5979659103
 21
13.1839410976
 31
0.0
 11
22.6056764298
 21
13.1695432737
 31
0.0
 11
22.6271859171
 21
13.1547267453
 31
0.0
  0
SPLINE
  5
42A
100
AcDbEntity
  8
RACCORDO
100
AcDbSpline
 62
253
  6
CONTINUOUS
 70
0
 71
3
 72
9
 73
5
 74
3
 42
0.0000001
 43
0.0000001
 44
0.0000000001
 12
0.0423943008
 22
-0.0021270596
 32
0.0
 13
0.0197954465
 23
-0.0375491867
 33
0.0
 40
0.0
 40
0.0
 40
0.0
 40
0.0
 40
0.3847717293
 40
1.0
 40
1.0
 40
1.0
 40
1.0
 10
22.3160589427
 20
12.9020334013
 30
0.0
 10
22.3214963189
 20
12.9017605905
 30
0.0
 10
22.3342594283
 20
12.8926974497
 30
0.0
 10
22.3412136815
 20
12.880519523
 30
0.0
 10
22.3452732543
 20
12.8728190826
 30
0.0
 11
22.3160589427
 21
12.9020334013
 31
0.0
 11
22.3304580892
 21
12.894324968
 31
0.0
 11
22.3452732543
 21
12.8728190826
 31
0.0
  0
SPLINE
  5
42B
100
AcDbEntity
  8
RACCORDO
100
AcDbSpline
 62
253
  6
CONTINUOUS
 70
0
 71
3
 72
9
 73
5
 74
3
 42
0.0000001
 43
0.0000001
 44
0.0000000001
 12
-0.0423976486
 22
-0.0021313426
 32
0.0
 13
-0.0197976225
 23
-0.0375520622
 33
0.0
 40
0.0
 40
0.0
 40
0.0
 40
0.0
 40
0.384735205
 40
1.0
 40
1.0
 40
1.0
 40
1.0
 10
-22.3160589024
 20
12.9020340897
 30
0.0
 10
-22.3214961918
 20
12.9017607555
 30
0.0
 10
-22.3342584903
 20
12.892694018
 30
0.0
 10
-22.3412129947
 20
12.8805155701
 30
0.0
 10
-22.3452732547
 20
12.8728140829
 30
0.0
 11
-22.3160589024
 21
12.9020340897
 31
0.0
 11
-22.3304567263
 21
12.8943235702
 31
0.0
 11
-22.3452732547
 21
12.8728140829
 31
0.0
  0
SPLINE
  5
42C
100
AcDbEntity
  8
RACCORDO
100
AcDbSpline
 62
253
  6
CONTINUOUS
 70
0
 71
3
 72
9
 73
5
 74
3
 42
0.0000001
 43
0.0000001
 44
0.0000000001
 12
-0.0021270596
 22
-0.0423943008
 32
0.0
 13
-0.0375491867
 23
-0.0197954465
 33
0.0
 40
0.0
 40
0.0
 40
0.0
 40
0.0
 40
0.3847717293
 40
1.0
 40
1.0
 40
1.0
 40
1.0
 10
-22.5979665987
 20
13.1839410573
 30
0.0
 10
-22.5982394095
 20
13.1785036811
 30
0.0
 10
-22.6073025503
 20
13.1657405717
 30
0.0
 10
-22.619480477
 20
13.1587863185
 30
0.0
 10
-22.6271809174
 20
13.1547267457
 30
0.0
 11
-22.5979665987
 21
13.1839410573
 31
0.0
 11
-22.605675032
 21
13.1695419108
 31
0.0
 11
-22.6271809174
 21
13.1547267457
 31
0.0
  0
SPLINE
  5
42D
100
AcDbEntity
  8
RACCORDO
100
AcDbSpline
 62
253
  6
CONTINUOUS
 70
0
 71
3
 72
23
 73
19
 74
17
 42
0.0000001
 43
0.0000001
 44
0.0000000001
 12
0.0052250696
 22
-0.6999442616
 32
0.0
 13
-0.6997738236
 23
-0.0163054114
 33
0.0
 40
0.0
 40
0.0
 40
0.0
 40
0.0
 40
0.1950458747
 40
0.3826397505
 40
0.555484779
 40
0.6343043597
 40
0.7070050217
 40
0.7729042947
 40
0.831352309
 40
0.8818043226
 40
0.9237617168
 40
0.9568261729
 40
0.969925046
 40
0.9806839856
 40
0.989079053
 40
0.9950984995
 40
0.9987336937
 40
1.0
 40
1.0
 40
1.0
 40
1.0
 10
100.1669823215
 20
-61.0589958209
 30
0.0
 10
100.1673220309
 20
-61.1045029012
 30
0.0
 10
100.1679257138
 20
-61.1937788834
 30
0.0
 10
100.168607183
 20
-61.3233835513
 30
0.0
 10
100.1689736435
 20
-61.4258712881
 30
0.0
 10
100.1691231181
 20
-61.5015524999
 30
0.0
 10
100.1691613703
 20
-61.5522810088
 30
0.0
 10
100.1691301729
 20
-61.598256769
 30
0.0
 10
100.169028843
 20
-61.639040201
 30
0.0
 10
100.168862416
 20
-61.6742406637
 30
0.0
 10
100.1686258465
 20
-61.7035082318
 30
0.0
 10
100.1683767513
 20
-61.7240841303
 30
0.0
 10
100.1681104134
 20
-61.7373368749
 30
0.0
 10
100.1679496014
 20
-61.7449149664
 30
0.0
 10
100.1676773339
 20
-61.7506422511
 30
0.0
 10
100.1676348034
 20
-61.7551738869
 30
0.0
 10
100.1671436904
 20
-61.7571383499
 30
0.0
 10
100.1672776975
 20
-61.758882325
 30
0.0
 10
100.1669823215
 20
-61.7588892076
 30
0.0
 11
100.1669823215
 21
-61.0589958209
 31
0.0
 11
100.1679025856
 21
-61.1955177639
 31
0.0
 11
100.1685869522
 21
-61.3268248959
 31
0.0
 11
100.1690077536
 21
-61.4478094208
 31
0.0
 11
100.1691142572
 21
-61.5029801684
 31
0.0
 11
100.1691498202
 21
-61.5538679849
 31
0.0
 11
100.1691142773
 21
-61.5999950744
 31
0.0
 11
100.1690077852
 21
-61.6409064279
 31
0.0
 11
100.168831499
 21
-61.6762205692
 31
0.0
 11
100.1685869907
 21
-61.705588207
 31
0.0
 11
100.1682764484
 21
-61.7287300446
 31
0.0
 11
100.1680972571
 21
-61.7378970299
 31
0.0
 11
100.1679025842
 21
-61.7454253812
 31
0.0
 11
100.1676930005
 21
-61.7512978855
 31
0.0
 11
100.1674692574
 21
-61.755505335
 31
0.0
 11
100.1672321121
 21
-61.7580387642
 31
0.0
 11
100.1669823215
 21
-61.7588892076
 31
0.0
  0
SPLINE
  5
42E
100
AcDbEntity
  8
RACCORDO
100
AcDbSpline
 62
253
  6
CONTINUOUS
 70
0
 71
3
 72
23
 73
19
 74
17
 42
0.0000001
 43
0.0000001
 44
0.0000000001
 12
0.699723268
 22
-0.0183467323
 32
0.0
 13
-0.0052239514
 23
-0.6999442583
 33
0.0
 40
0.0
 40
0.0
 40
0.0
 40
0.0
 40
0.0012669938
 40
0.0049023045
 40
0.010921506
 40
0.0193161922
 40
0.0300748356
 40
0.0431735956
 40
0.0762381591
 40
0.1181957108
 40
0.1686477238
 40
0.2270956894
 40
0.2929949544
 40
0.3656956318
 40
0.4445152214
 40
0.6173602503
 40
0.8049541264
 40
1.0
 40
1.0
 40
1.0
 40
1.0
 10
100.1669823215
 20
-9.2411107924
 30
0.0
 10
100.1672778365
 20
-9.2411185408
 30
0.0
 10
100.1671436026
 20
-9.2428608725
 30
0.0
 10
100.1676348888
 20
-9.2448273556
 30
0.0
 10
100.1676773348
 20
-9.2493577696
 30
0.0
 10
100.1679496099
 20
-9.2550853267
 30
0.0
 10
100.1681103894
 20
-9.2626630473
 30
0.0
 10
100.1683767177
 20
-9.2759158091
 30
0.0
 10
100.1686258056
 20
-9.2964916861
 30
0.0
 10
100.1688623802
 20
-9.3257593397
 30
0.0
 10
100.1690288104
 20
-9.3609598184
 30
0.0
 10
100.1691301522
 20
-9.4017432392
 30
0.0
 10
100.1691613714
 20
-9.4477189881
 30
0.0
 10
100.1691231409
 20
-9.4984475002
 30
0.0
 10
100.1689736794
 20
-9.5741287165
 30
0.0
 10
100.1686072282
 20
-9.6766164539
 30
0.0
 10
100.1679257277
 20
-9.8062211194
 30
0.0
 10
100.1673219582
 20
-9.8954970993
 30
0.0
 10
100.1669823215
 20
-9.9410041791
 30
0.0
 11
100.1669823215
 21
-9.2411107924
 31
0.0
 11
100.1672321476
 21
-9.2419617268
 31
0.0
 11
100.1674692974
 21
-9.2444952375
 31
0.0
 11
100.1676930253
 21
-9.2487025161
 31
0.0
 11
100.1679025856
 21
-9.2545747541
 31
0.0
 11
100.1680972379
 21
-9.2621028984
 31
0.0
 11
100.168276417
 21
-9.2712698046
 31
0.0
 11
100.1685869522
 21
-9.2944117172
 31
0.0
 11
100.1688314629
 21
-9.3237794646
 31
0.0
 11
100.1690077536
 21
-9.359093605
 31
0.0
 11
100.1691142572
 21
-9.4000049236
 31
0.0
 11
100.1691498202
 21
-9.4461320067
 31
0.0
 11
100.1691142773
 21
-9.4970198332
 31
0.0
 11
100.1690077852
 21
-9.5521905861
 31
0.0
 11
100.1685869907
 21
-9.6731751093
 31
0.0
 11
100.1679025842
 21
-9.8044822391
 31
0.0
 11
100.1669823215
 21
-9.9410041791
 31
0.0
  0
SPLINE
  5
42F
100
AcDbEntity
  8
RACCORDO
100
AcDbSpline
 62
253
  6
CONTINUOUS
 70
0
 71
3
 72
23
 73
19
 74
17
 42
0.0000001
 43
0.0000001
 44
0.0000000001
 12
0.0052250696
 22
-0.6999442616
 32
0.0
 13
-0.6997738237
 23
-0.0163054114
 33
0.0
 40
0.0
 40
0.0
 40
0.0
 40
0.0
 40
0.1950458747
 40
0.3826397505
 40
0.555484779
 40
0.6343043597
 40
0.7070050217
 40
0.7729042947
 40
0.831352309
 40
0.8818043226
 40
0.9237617168
 40
0.9568261729
 40
0.969925046
 40
0.9806839856
 40
0.989079053
 40
0.9950984995
 40
0.9987336937
 40
1.0
 40
1.0
 40
1.0
 40
1.0
 10
100.1669823215
 20
9.9410041791
 30
0.0
 10
100.1673220309
 20
9.8954970988
 30
0.0
 10
100.1679257138
 20
9.8062211166
 30
0.0
 10
100.168607183
 20
9.6766164487
 30
0.0
 10
100.1689736435
 20
9.5741287119
 30
0.0
 10
100.1691231181
 20
9.4984475001
 30
0.0
 10
100.1691613703
 20
9.4477189912
 30
0.0
 10
100.1691301729
 20
9.401743231
 30
0.0
 10
100.169028843
 20
9.360959799
 30
0.0
 10
100.168862416
 20
9.3257593363
 30
0.0
 10
100.1686258465
 20
9.2964917682
 30
0.0
 10
100.1683767513
 20
9.2759158697
 30
0.0
 10
100.1681104134
 20
9.2626631251
 30
0.0
 10
100.1679496014
 20
9.2550850336
 30
0.0
 10
100.1676773339
 20
9.2493577489
 30
0.0
 10
100.1676348034
 20
9.2448261131
 30
0.0
 10
100.1671436904
 20
9.2428616501
 30
0.0
 10
100.1672776975
 20
9.241117675
 30
0.0
 10
100.1669823215
 20
9.2411107924
 30
0.0
 11
100.1669823215
 21
9.9410041791
 31
0.0
 11
100.1679025856
 21
9.8044822361
 31
0.0
 11
100.1685869522
 21
9.6731751041
 31
0.0
 11
100.1690077536
 21
9.5521905792
 31
0.0
 11
100.1691142572
 21
9.4970198316
 31
0.0
 11
100.1691498202
 21
9.4461320151
 31
0.0
 11
100.1691142773
 21
9.4000049256
 31
0.0
 11
100.1690077852
 21
9.3590935721
 31
0.0
 11
100.168831499
 21
9.3237794308
 31
0.0
 11
100.1685869907
 21
9.294411793
 31
0.0
 11
100.1682764484
 21
9.2712699554
 31
0.0
 11
100.1680972571
 21
9.2621029701
 31
0.0
 11
100.1679025842
 21
9.2545746188
 31
0.0
 11
100.1676930005
 21
9.2487021145
 31
0.0
 11
100.1674692574
 21
9.244494665
 31
0.0
 11
100.1672321121
 21
9.2419612358
 31
0.0
 11
100.1669823215
 21
9.2411107924
 31
0.0
  0
SPLINE
  5
430
100
AcDbEntity
  8
RACCORDO
100
AcDbSpline
 62
253
  6
CONTINUOUS
 70
0
 71
3
 72
23
 73
19
 74
17
 42
0.0000001
 43
0.0000001
 44
0.0000000001
 12
0.699723268
 22
-0.0183467323
 32
0.0
 13
-0.0052239514
 23
-0.6999442583
 33
0.0
 40
0.0
 40
0.0
 40
0.0
 40
0.0
 40
0.0012669938
 40
0.0049023045
 40
0.010921506
 40
0.0193161922
 40
0.0300748356
 40
0.0431735956
 40
0.0762381591
 40
0.1181957108
 40
0.1686477238
 40
0.2270956894
 40
0.2929949544
 40
0.3656956318
 40
0.4445152214
 40
0.6173602503
 40
0.8049541264
 40
1.0
 40
1.0
 40
1.0
 40
1.0
 10
100.1669823215
 20
61.7588892076
 30
0.0
 10
100.1672778365
 20
61.7588814592
 30
0.0
 10
100.1671436026
 20
61.7571391275
 30
0.0
 10
100.1676348888
 20
61.7551726444
 30
0.0
 10
100.1676773348
 20
61.7506422304
 30
0.0
 10
100.1679496099
 20
61.7449146733
 30
0.0
 10
100.1681103894
 20
61.7373369527
 30
0.0
 10
100.1683767177
 20
61.7240841909
 30
0.0
 10
100.1686258056
 20
61.7035083139
 30
0.0
 10
100.1688623802
 20
61.6742406603
 30
0.0
 10
100.1690288104
 20
61.6390401816
 30
0.0
 10
100.1691301522
 20
61.5982567608
 30
0.0
 10
100.1691613714
 20
61.5522810119
 30
0.0
 10
100.1691231409
 20
61.5015524998
 30
0.0
 10
100.1689736795
 20
61.4258712835
 30
0.0
 10
100.1686072282
 20
61.3233835461
 30
0.0
 10
100.1679257277
 20
61.1937788806
 30
0.0
 10
100.1673219582
 20
61.1045029007
 30
0.0
 10
100.1669823215
 20
61.0589958209
 30
0.0
 11
100.1669823215
 21
61.7588892076
 31
0.0
 11
100.1672321476
 21
61.7580382732
 31
0.0
 11
100.1674692974
 21
61.7555047625
 31
0.0
 11
100.1676930253
 21
61.7512974839
 31
0.0
 11
100.1679025856
 21
61.7454252459
 31
0.0
 11
100.1680972379
 21
61.7378971016
 31
0.0
 11
100.168276417
 21
61.7287301954
 31
0.0
 11
100.1685869522
 21
61.7055882828
 31
0.0
 11
100.1688314629
 21
61.6762205354
 31
0.0
 11
100.1690077536
 21
61.640906395
 31
0.0
 11
100.1691142572
 21
61.5999950764
 31
0.0
 11
100.1691498202
 21
61.5538679933
 31
0.0
 11
100.1691142773
 21
61.5029801668
 31
0.0
 11
100.1690077852
 21
61.4478094139
 31
0.0
 11
100.1685869907
 21
61.3268248907
 31
0.0
 11
100.1679025842
 21
61.1955177609
 31
0.0
 11
100.1669823215
 21
61.0589958209
 31
0.0
  0
ELLIPSE
  5
431
100
AcDbEntity
  8
RACCORDO
100
AcDbEllipse
 62
7
  6
CONTINUOUS
 10
22.2920995224
 20
-13.2079004776
 30
0.0
 11
-0.2121966568
 21
-0.2121966568
 31
0.0
 40
0.9996954599
 41
2.3563467834
 42
3.9268385237
  0
ELLIPSE
  5
432
100
AcDbEntity
  8
RACCORDO
100
AcDbEllipse
 62
7
  6
CONTINUOUS
 10
22.2920995224
 20
-57.7920995224
 30
0.0
 11
-0.2121966568
 21
0.2121966568
 31
0.0
 40
0.9996954599
 41
2.3563467834
 42
3.9268385237
  0
ELLIPSE
  5
433
100
AcDbEntity
  8
RACCORDO
100
AcDbEllipse
 62
7
  6
CONTINUOUS
 10
-22.2920995224
 20
-13.2079004776
 30
0.0
 11
-0.2121966568
 21
0.2121966568
 31
0.0
 40
0.9996954599
 41
-0.7852458701
 42
0.7852458701
  0
ELLIPSE
  5
434
100
AcDbEntity
  8
RACCORDO
100
AcDbEllipse
 62
7
  6
CONTINUOUS
 10
-22.2920995224
 20
-57.7920995224
 30
0.0
 11
0.2121966568
 21
0.2121966568
 31
0.0
 40
0.9996954599
 41
2.3563467834
 42
3.9268385237
  0
ELLIPSE
  5
435
100
AcDbEntity
  8
RACCORDO
100
AcDbEllipse
 62
7
  6
CONTINUOUS
 10
-25.5929113444
 20
-61.0929113444
 30
0.0
 11
0.4951255324
 21
0.4951255324
 31
0.0
 40
0.9996954599
 41
-3.9268385237
 42
-2.3563467834
  0
ELLIPSE
  5
436
100
AcDbEntity
  8
RACCORDO
100
AcDbEllipse
 62
7
  6
CONTINUOUS
 10
25.5929113444
 20
-61.0929113444
 30
0.0
 11
0.4951255324
 21
-0.4951255324
 31
0.0
 40
0.9996954599
 41
-0.7852458702
 42
0.7852458701
  0
ELLIPSE
  5
437
100
AcDbEntity
  8
RACCORDO
100
AcDbEllipse
 62
7
  6
CONTINUOUS
 10
25.5929113444
 20
-9.9070886556
 30
0.0
 11
0.4951255324
 21
0.4951255324
 31
0.0
 40
0.9996954599
 41
-0.7852458701
 42
0.7852458702
  0
ELLIPSE
  5
438
100
AcDbEntity
  8
RACCORDO
100
AcDbEllipse
 62
7
  6
CONTINUOUS
 10
-25.5929113444
 20
-9.9070886556
 30
0.0
 11
-0.4951255324
 21
0.4951255324
 31
0.0
 40
0.9996954599
 41
-0.7852458701
 42
0.7852458702
  0
ELLIPSE
  5
439
100
AcDbEntity
  8
RACCORDO
100
AcDbEllipse
 62
7
  6
CONTINUOUS
 10
22.2920995224
 20
57.7920995224
 30
0.0
 11
-0.2121966568
 21
-0.2121966568
 31
0.0
 40
0.9996954599
 41
2.3563467834
 42
3.9268385237
  0
ELLIPSE
  5
43A
100
AcDbEntity
  8
RACCORDO
100
AcDbEllipse
 62
7
  6
CONTINUOUS
 10
22.2920995224
 20
13.2079004776
 30
0.0
 11
-0.2121966568
 21
0.2121966568
 31
0.0
 40
0.9996954599
 41
2.3563467834
 42
3.9268385237
  0
ELLIPSE
  5
43B
100
AcDbEntity
  8
RACCORDO
100
AcDbEllipse
 62
7
  6
CONTINUOUS
 10
-22.2920995224
 20
57.7920995224
 30
0.0
 11
-0.2121966568
 21
0.2121966568
 31
0.0
 40
0.9996954599
 41
-0.7852458701
 42
0.7852458701
  0
ELLIPSE
  5
43C
100
AcDbEntity
  8
RACCORDO
100
AcDbEllipse
 62
7
  6
CONTINUOUS
 10
-22.2920995224
 20
13.2079004776
 30
0.0
 11
0.2121966568
 21
0.2121966568
 31
0.0
 40
0.9996954599
 41
2.3563467834
 42
3.9268385237
  0
ELLIPSE
  5
43D
100
AcDbEntity
  8
RACCORDO
100
AcDbEllipse
 62
7
  6
CONTINUOUS
 10
-25.5929113444
 20
9.9070886556
 30
0.0
 11
0.4951255324
 21
0.4951255324
 31
0.0
 40
0.9996954599
 41
-3.9268385237
 42
-2.3563467834
  0
ELLIPSE
  5
43E
100
AcDbEntity
  8
RACCORDO
100
AcDbEllipse
 62
7
  6
CONTINUOUS
 10
25.5929113444
 20
9.9070886556
 30
0.0
 11
0.4951255324
 21
-0.4951255324
 31
0.0
 40
0.9996954599
 41
-0.7852458702
 42
0.7852458701
  0
ELLIPSE
  5
43F
100
AcDbEntity
  8
RACCORDO
100
AcDbEllipse
 62
7
  6
CONTINUOUS
 10
25.5929113444
 20
61.0929113444
 30
0.0
 11
0.4951255324
 21
0.4951255324
 31
0.0
 40
0.9996954599
 41
-0.7852458702
 42
0.7852458701
  0
ELLIPSE
  5
440
100
AcDbEntity
  8
RACCORDO
100
AcDbEllipse
 62
7
  6
CONTINUOUS
 10
-25.5929113444
 20
61.0929113444
 30
0.0
 11
0.4951255324
 21
-0.4951255324
 31
0.0
 40
0.9996954599
 41
2.3563467834
 42
3.9268385237
  0
ELLIPSE
  5
441
100
AcDbEntity
  8
0
100
AcDbEllipse
 62
7
  6
CONTINUOUS
 10
91.0617465996
 20
-9.5085615559
 30
0.0
 11
0.1417119467
 21
0.1422961243
 31
0.0
 40
0.9918061237
 41
-3.9249339151
 42
-2.4064974659
  0
ELLIPSE
  5
442
100
AcDbEntity
  8
0
100
AcDbEllipse
 62
7
  6
CONTINUOUS
 10
91.0617465996
 20
-61.4914384441
 30
0.0
 11
-0.1417119467
 21
0.1422961243
 31
0.0
 40
0.9918061237
 41
-0.7350951877
 42
0.7833412615
  0
ELLIPSE
  5
443
100
AcDbEntity
  8
ASSI
100
AcDbEllipse
 62
7
  6
CONTINUOUS
 10
91.0617465996
 20
9.5085615559
 30
0.0
 11
-0.1417119467
 21
0.1422961243
 31
0.0
 40
0.9918061237
 41
-0.7350951877
 42
0.7833412615
  0
ELLIPSE
  5
444
100
AcDbEntity
  8
ASSI
100
AcDbEllipse
 62
7
  6
CONTINUOUS
 10
91.0617465996
 20
61.4914384441
 30
0.0
 11
0.1417119467
 21
0.1422961243
 31
0.0
 40
0.9918061237
 41
-3.9249339151
 42
-2.4064974659
  0
ELLIPSE
  5
445
100
AcDbEntity
  8
0
100
AcDbEllipse
 62
7
  6
CONTINUOUS
 10
91.0622708097
 20
45.0
 30
0.0
 11
0.3003499811
 21
0.0
 31
0.0
 40
0.9999984769
 41
-1.3106831811
 42
1.310683181
  0
ELLIPSE
  5
446
100
AcDbEntity
  8
0
100
AcDbEllipse
 62
7
  6
CONTINUOUS
 10
91.0622708097
 20
48.5
 30
0.0
 11
0.3003499811
 21
-0.0
 31
0.0
 40
0.9999984769
 41
-1.310683181
 42
1.3106831811
  0
ELLIPSE
  5
447
100
AcDbEntity
  8
0
100
AcDbEllipse
 62
7
  6
CONTINUOUS
 10
91.0622708097
 20
22.5
 30
0.0
 11
0.3003499811
 21
-0.0
 31
0.0
 40
0.9999984769
 41
-1.310683181
 42
1.3106831811
  0
ELLIPSE
  5
448
100
AcDbEntity
  8
0
100
AcDbEllipse
 62
7
  6
CONTINUOUS
 10
91.0622708097
 20
26.0
 30
0.0
 11
0.3003499811
 21
-0.0
 31
0.0
 40
0.9999984769
 41
-1.310683181
 42
1.3106831811
  0
ELLIPSE
  5
449
100
AcDbEntity
  8
0
100
AcDbEllipse
 62
7
  6
CONTINUOUS
 10
91.0622708097
 20
-26.0
 30
0.0
 11
0.3003499811
 21
0.0
 31
0.0
 40
0.9999984769
 41
-1.3106831811
 42
1.310683181
  0
ELLIPSE
  5
44A
100
AcDbEntity
  8
0
100
AcDbEllipse
 62
7
  6
CONTINUOUS
 10
91.0622708097
 20
-22.5
 30
0.0
 11
0.3003499811
 21
0.0
 31
0.0
 40
0.9999984769
 41
-1.3106831811
 42
1.310683181
  0
ELLIPSE
  5
44B
100
AcDbEntity
  8
0
100
AcDbEllipse
 62
7
  6
CONTINUOUS
 10
91.0622708097
 20
-48.5
 30
0.0
 11
0.3003499811
 21
-0.0
 31
0.0
 40
0.9999984769
 41
-1.310683181
 42
1.3106831811
  0
ELLIPSE
  5
44C
100
AcDbEntity
  8
0
100
AcDbEllipse
 62
7
  6
CONTINUOUS
 10
91.0622708097
 20
-45.0
 30
0.0
 11
0.3003499811
 21
-0.0
 31
0.0
 40
0.9999984769
 41
-1.310683181
 42
1.3106831811
  0
ENDSEC
  0
SECTION
  2
OBJECTS
  0
DICTIONARY
  5
C
100
AcDbDictionary
280
0
281
1
  3
ACAD_GROUP
350
D
  3
ACAD_MLINESTYLE
350
17
  3
ACAD_LAYOUT
350
1A
  3
ACAD_PLOTSETTINGS
350
19
  3
ACAD_PLOTSTYLENAME
350
E
  0
DICTIONARY
  5
D
102
{ACAD_REACTORS
330
C
102
}
100
AcDbDictionary
280
0
281
1
  0
ACDBDICTIONARYWDFLT
  5
E
102
{ACAD_REACTORS
330
C
102
}
100
AcDbDictionary
281
1
  3
Normal
350
F
100
AcDbDictionaryWithDefault
340
F
  0
DICTIONARY
  5
17
102
{ACAD_REACTORS
330
C
102
}
100
AcDbDictionary
280
0
281
1
  3
Standard
350
18
  0
DICTIONARY
  5
19
102
{ACAD_REACTORS
330
C
102
}
100
AcDbDictionary
281
1
  0
DICTIONARY
  5
1A
102
{ACAD_REACTORS
330
C
102
}
100
AcDbDictionary
281
1
  3
Model
350
44D
  3
Layout1
350
44E
  0
ACDBPLACEHOLDER
  5
F
102
{ACAD_REACTORS
330
E
102
}
  0
MLINESTYLE
  5
18
102
{ACAD_REACTORS
330
17
102
}
100
AcDbMlineStyle
  2
STANDARD
 70
0
  3

 62
256
 51
90.0
 52
90.0
 71
2
 49
0.5
 62
256
  6
BYLAYER
 49
-0.5
 62
256
  6
BYLAYER
  0
LAYOUT
  5
44D
102
{ACAD_REACTORS
330
1A
102
}
100
AcDbPlotSettings
  1

  2
none_device
  4
ISO_A4_(297.00_x_210.00_MM)
  6

 40
0.0
 41
0.0
 42
0.0
 43
0.0
 44
297.0
 45
210.0
 46
0.0
 47
0.0
 48
0.0
 49
0.0
140
0.0
141
0.0
142
1.0
143
1.0
 70
1024
 72
1
 73
0
 74
0
  7

 75
0
147
1.0
148
0.0
149
0.0
100
AcDbLayout
  1
Model
 70
0
 71
0
 10
0.0
 20
0.0
 11
297.0
 21
210.0
 12
0.0
 22
0.0
 32
0.0
 14
0.0
 24
0.0
 34
0.0
 15
0.0
 25
0.0
 35
0.0
146
0.0
 13
0.0
 23
0.0
 33
0.0
 16
1.0
 26
0.0
 36
0.0
 17
0.0
 27
1.0
 37
0.0
 76
0
330
215
345
0
346
0
  0
LAYOUT
  5
44E
102
{ACAD_REACTORS
330
1A
102
}
100
AcDbPlotSettings
  1

  2
none_device
  4
ISO_A4_(297.00_x_210.00_MM)
  6

 40
0.0
 41
0.0
 42
0.0
 43
0.0
 44
297.0
 45
210.0
 46
0.0
 47
0.0
 48
0.0
 49
0.0
140
0.0
141
0.0
142
1.0
143
1.0
 70
0
 72
1
 73
0
 74
0
  7

 75
0
147
1.0
148
0.0
149
0.0
100
AcDbLayout
  1
Layout1
 70
0
 71
1
 10
0.0
 20
0.0
 11
297.0
 21
210.0
 12
0.0
 22
0.0
 32
0.0
 14
0.0
 24
0.0
 34
0.0
 15
0.0
 25
0.0
 35
0.0
146
0.0
 13
0.0
 23
0.0
 33
0.0
 16
1.0
 26
0.0
 36
0.0
 17
0.0
 27
1.0
 37
0.0
 76
0
330
216
345
0
346
0
  0
ENDSEC
  0
EOF
