  0
SECTION
  2
HEADER
  9
$ACADVER
  1
AC1015
  9
$DWGCODEPAGE
  3
ANSI_1252
  9
$EXTMAX
 10
297.0
 20
210.0
 30
0.0
  9
$EXTMIN
 10
0.0
 20
0.0
 30
0.0
  9
$LIMMIN
 10
0.0
 20
0.0
  9
$LIMMAX
 10
297.0
 20
210.0
  9
$VIEWCTR
 10
148.5
 20
105.0
  9
$VIEWSIZE
 40
210.0
  9
$CLAYER
  8
0
  9
$LTSCALE
 40
16.335
  9
$CELTYPE
  6
BYLAYER
  9
$DIMSCALE
 40
1.0
  9
$DIMASZ
 40
3.0
  9
$DIMEXO
 40
1.85625
  9
$DIMDLI
 40
11.286
  9
$DIMEXE
 40
5.346
  9
$DIMCEN
 40
2.673
  9
$DIMLFAC
 40
1.0
  9
$DIMBLK
  1
_FILLED
  9
$DIMTXT
 40
3.0
  9
$DIMTOL
 70
1
  9
$DIMLIM
 70
0
  9
$DIMTFAC
 40
1.0
  9
$DIMTP
 40
0.01
  9
$DIMTM
 40
0.01
  9
$PDMODE
 70
3
  9
$PDSIZE
 40
3.0
  9
$HANDSEED
  5
52B
  9
$TILEMODE
 70
1
  9
$MEASUREMENT
 70
1
  9
$INSUNITS
 70
4
  0
ENDSEC
  0
SECTION
  2
CLASSES
  0
CLASS
  1
ACDBDICTIONARYWDFLT
  2
AcDbDictionaryWithDefault
  3
AutoCAD 2000
 90
0
280
0
281
0
  0
CLASS
  1
ACDBPLACEHOLDER
  2
AcDbPlaceHolder
  3
AutoCAD 2000
 90
0
280
0
281
0
  0
CLASS
  1
LAYOUT
  2
AcDbLayout
  3
AutoCAD 2000
 90
0
280
0
281
0
  0
ENDSEC
  0
SECTION
  2
TABLES
  0
TABLE
  2
VPORT
  5
8
100
AcDbSymbolTable
 70
2
  0
VPORT
  5
1F4
100
AcDbSymbolTableRecord
100
AcDbViewportTableRecord
  2
*ACTIVE
 70
0
 10
0.0
 20
0.0
 11
1.0
 21
1.0
 12
148.5
 22
105.0
 13
0.0
 23
0.0
 14
1.0
 24
1.0
 15
0.0
 25
0.0
 16
0.0
 26
0.0
 36
1.0
 17
0.0
 27
0.0
 37
0.0
 40
210.0
 41
1.4142857143
 42
50.0
 43
0.0
 44
0.0
 50
0.0
 51
0.0
 71
0
 72
100
 73
1
 74
1
 75
0
 76
0
 77
0
 78
0
  0
ENDTAB
  0
TABLE
  2
LTYPE
  5
5
100
AcDbSymbolTable
 70
6
  0
LTYPE
  5
14
100
AcDbSymbolTableRecord
100
AcDbLinetypeTableRecord
  2
BYBLOCK
 70
0
  3

 72
65
 73
0
 40
0.0
  0
LTYPE
  5
15
100
AcDbSymbolTableRecord
100
AcDbLinetypeTableRecord
  2
BYLAYER
 70
0
  3

 72
65
 73
0
 40
0.0
  0
LTYPE
  5
16
100
AcDbSymbolTableRecord
100
AcDbLinetypeTableRecord
  2
CONTINUOUS
 70
64
  3
Solid line
 72
65
 73
0
 40
0.0
  0
LTYPE
  5
1F5
100
AcDbSymbolTableRecord
100
AcDbLinetypeTableRecord
  2
CENTER
 70
64
  3
____ _ ____ _ ____ _ ____ _ ____ _ ____ _ ____
 72
65
 73
4
 40
0.6
 49
0.375
 74
0
 49
-0.075
 74
0
 49
0.075
 74
0
 49
-0.075
 74
0
  0
LTYPE
  5
1F6
100
AcDbSymbolTableRecord
100
AcDbLinetypeTableRecord
  2
HIDDEN
 70
64
  3
- - - - - - - - - - - - - - - - - - - -
 72
65
 73
2
 40
0.2
 49
0.1
 74
0
 49
-0.1
 74
0
  0
LTYPE
  5
1F7
100
AcDbSymbolTableRecord
100
AcDbLinetypeTableRecord
  2
PHANTOM
 70
64
  3
_____ _ _ _____ _ _ _____ _ _ _____
 72
65
 73
6
 40
0.8
 49
0.45
 74
0
 49
-0.05
 74
0
 49
0.1
 74
0
 49
-0.05
 74
0
 49
0.1
 74
0
 49
-0.05
 74
0
  0
LTYPE
  5
1F8
100
AcDbSymbolTableRecord
100
AcDbLinetypeTableRecord
  2
DOT
 70
64
  3
. . . . . . . . . . . . . . . . . . . .
 72
65
 73
2
 40
0.2
 49
0.1
 74
0
 49
-0.1
 74
0
  0
LTYPE
  5
1F9
100
AcDbSymbolTableRecord
100
AcDbLinetypeTableRecord
  2
DASHED
 70
64
  3
- - - - - - - - - - - - - - - - - - - -
 72
65
 73
2
 40
0.2
 49
0.1
 74
0
 49
-0.1
 74
0
  0
ENDTAB
  0
TABLE
  2
LAYER
  5
2
100
AcDbSymbolTable
 70
36
  0
LAYER
  5
10
100
AcDbSymbolTableRecord
100
AcDbLayerTableRecord
  2
0
 70
0
 62
7
  6
CONTINUOUS
370
-3
390
F
  0
LAYER
  5
1FA
100
AcDbSymbolTableRecord
100
AcDbLayerTableRecord
  2
DEFAULT_1
 70
0
 62
7
  6
CENTER
370
-3
390
F
  0
LAYER
  5
1FB
100
AcDbSymbolTableRecord
100
AcDbLayerTableRecord
  2
DEFAULT_2
 70
0
 62
7
  6
HIDDEN
370
-3
390
F
  0
LAYER
  5
1FC
100
AcDbSymbolTableRecord
100
AcDbLayerTableRecord
  2
DEFAULT_3
 70
0
 62
7
  6
PHANTOM
370
-3
390
F
  0
LAYER
  5
1FD
100
AcDbSymbolTableRecord
100
AcDbLayerTableRecord
  2
ASSI
 70
0
 62
7
  6
CONTINUOUS
370
-3
390
F
  0
LAYER
  5
1FE
100
AcDbSymbolTableRecord
100
AcDbLayerTableRecord
  2
COORDINATE
 70
0
 62
7
  6
CONTINUOUS
370
-3
390
F
  0
LAYER
  5
1FF
100
AcDbSymbolTableRecord
100
AcDbLayerTableRecord
  2
COORD_ORIGINE
 70
0
 62
7
  6
CONTINUOUS
370
-3
390
F
  0
LAYER
  5
200
100
AcDbSymbolTableRecord
100
AcDbLayerTableRecord
  2
COPY_PUBLISH
 70
0
 62
7
  6
CONTINUOUS
370
-3
390
F
  0
LAYER
  5
201
100
AcDbSymbolTableRecord
100
AcDbLayerTableRecord
  2
COSMETIC
 70
0
 62
7
  6
CONTINUOUS
370
-3
390
F
  0
LAYER
  5
202
100
AcDbSymbolTableRecord
100
AcDbLayerTableRecord
  2
COSMETICI
 70
0
 62
7
  6
CONTINUOUS
370
-3
390
F
  0
LAYER
  5
203
100
AcDbSymbolTableRecord
100
AcDbLayerTableRecord
  2
CURVE
 70
0
 62
7
  6
CONTINUOUS
370
-3
390
F
  0
LAYER
  5
204
100
AcDbSymbolTableRecord
100
AcDbLayerTableRecord
  2
DRAFT
 70
0
 62
7
  6
CONTINUOUS
370
-3
390
F
  0
LAYER
  5
205
100
AcDbSymbolTableRecord
100
AcDbLayerTableRecord
  2
IMPORT_IGES
 70
0
 62
7
  6
CONTINUOUS
370
-3
390
F
  0
LAYER
  5
206
100
AcDbSymbolTableRecord
100
AcDbLayerTableRecord
  2
INTFCLR_2
 70
0
 62
7
  6
CONTINUOUS
370
-3
390
F
  0
LAYER
  5
207
100
AcDbSymbolTableRecord
100
AcDbLayerTableRecord
  2
NOTE
 70
0
 62
7
  6
CONTINUOUS
370
-3
390
F
  0
LAYER
  5
208
100
AcDbSymbolTableRecord
100
AcDbLayerTableRecord
  2
PIANI
 70
0
 62
7
  6
CONTINUOUS
370
-3
390
F
  0
LAYER
  5
209
100
AcDbSymbolTableRecord
100
AcDbLayerTableRecord
  2
PIANI_ORIGINE
 70
0
 62
7
  6
CONTINUOUS
370
-3
390
F
  0
LAYER
  5
20A
100
AcDbSymbolTableRecord
100
AcDbLayerTableRecord
  2
PIANI_RIFERIMENTO
 70
0
 62
7
  6
CONTINUOUS
370
-3
390
F
  0
LAYER
  5
20B
100
AcDbSymbolTableRecord
100
AcDbLayerTableRecord
  2
PUNTI
 70
0
 62
7
  6
CONTINUOUS
370
-3
390
F
  0
LAYER
  5
20C
100
AcDbSymbolTableRecord
100
AcDbLayerTableRecord
  2
RACCORDO
 70
0
 62
7
  6
CONTINUOUS
370
-3
390
F
  0
LAYER
  5
20D
100
AcDbSymbolTableRecord
100
AcDbLayerTableRecord
  2
SIMBOLI
 70
0
 62
7
  6
CONTINUOUS
370
-3
390
F
  0
LAYER
  5
20E
100
AcDbSymbolTableRecord
100
AcDbLayerTableRecord
  2
SMUSSO
 70
0
 62
7
  6
CONTINUOUS
370
-3
390
F
  0
LAYER
  5
20F
100
AcDbSymbolTableRecord
100
AcDbLayerTableRecord
  2
SNAPLINE
 70
0
 62
7
  6
CONTINUOUS
370
-3
390
F
  0
LAYER
  5
210
100
AcDbSymbolTableRecord
100
AcDbLayerTableRecord
  2
SUPERFICI
 70
0
 62
7
  6
CONTINUOUS
370
-3
390
F
  0
LAYER
  5
211
100
AcDbSymbolTableRecord
100
AcDbLayerTableRecord
  2
TRASH
 70
0
 62
7
  6
CONTINUOUS
370
-3
390
F
  0
LAYER
  5
212
100
AcDbSymbolTableRecord
100
AcDbLayerTableRecord
  2
XSEC_DATUMS
 70
0
 62
7
  6
CONTINUOUS
370
-3
390
F
  0
ENDTAB
  0
TABLE
  2
STYLE
  5
3
100
AcDbSymbolTable
 70
1
  0
STYLE
  5
11
100
AcDbSymbolTableRecord
100
AcDbTextStyleTableRecord
  2
STANDARD
 70
0
 40
0.0
 41
0.8
 50
0.0
 71
0
 42
0.2
  3
txt
  4

  0
STYLE
  5
213
100
AcDbSymbolTableRecord
100
AcDbTextStyleTableRecord
  2
TEXTSTYLE_1
 70
0
 40
0.0
 41
0.8
 50
0.0
 71
0
 42
0.2
  3
gdt
  4

  0
ENDTAB
  0
TABLE
  2
VIEW
  5
6
100
AcDbSymbolTable
 70
0
  0
ENDTAB
  0
TABLE
  2
UCS
  5
7
100
AcDbSymbolTable
 70
0
  0
ENDTAB
  0
TABLE
  2
APPID
  5
9
100
AcDbSymbolTable
 70
1
  0
APPID
  5
214
100
AcDbSymbolTableRecord
100
AcDbRegAppTableRecord
  2
ACAD
 70
0
  0
ENDTAB
  0
TABLE
  2
BLOCK_RECORD
  5
1
100
AcDbSymbolTable
 70
0
  0
BLOCK_RECORD
  5
215
100
AcDbSymbolTableRecord
100
AcDbBlockTableRecord
  2
*Model_Space
  0
BLOCK_RECORD
  5
216
100
AcDbSymbolTableRecord
100
AcDbBlockTableRecord
  2
*Paper_Space
  0
BLOCK_RECORD
  5
217
100
AcDbSymbolTableRecord
100
AcDbBlockTableRecord
  2
_FILLED
  0
BLOCK_RECORD
  5
218
100
AcDbSymbolTableRecord
100
AcDbBlockTableRecord
  2
*D0
  0
BLOCK_RECORD
  5
219
100
AcDbSymbolTableRecord
100
AcDbBlockTableRecord
  2
*D1
  0
BLOCK_RECORD
  5
21A
100
AcDbSymbolTableRecord
100
AcDbBlockTableRecord
  2
*D2
  0
BLOCK_RECORD
  5
21B
100
AcDbSymbolTableRecord
100
AcDbBlockTableRecord
  2
*D3
  0
ENDTAB
  0
TABLE
  2
DIMSTYLE
  5
A
100
AcDbSymbolTable
 70
1
100
AcDbDimStyleTable
 71
0
  0
DIMSTYLE
105
21C
100
AcDbSymbolTableRecord
100
AcDbDimStyleTableRecord
  2
STANDARD
 70
0
  3

  4

 40
1.0
 41
3.0
 42
0.0625
 43
0.38
 44
0.18
 45
0.0
 46
0.0
 47
0.01
 48
0.01
140
3.0
141
0.09
142
0.0
143
25.4
144
1.0
145
0.0
146
1.0
147
0.09
 71
1.0
 72
0.0
 73
0
 74
0
 75
0
 76
0
 77
1
 78
8
170
0
171
2
172
0
173
0
174
0
175
0
176
0
177
0
178
0
270
2
271
2
272
2
273
2
274
2
275
0
280
0
281
0
282
0
283
1
284
8
285
0
286
0
287
3
288
0
340
11
341
217
342
217
343
217
344
217
  0
DIMSTYLE
105
21D
100
AcDbSymbolTableRecord
100
AcDbDimStyleTableRecord
  2
DIMSTYLE_1
 70
0
  3

  4

 40
1.0
 41
3.0
 42
0.0625
 43
0.38
 44
0.18
 45
0.0
 46
0.0
 47
0.0
 48
0.0
140
3.0
141
0.09
142
0.0
143
25.4
144
1.0
145
0.0
146
1.0
147
0.09
 71
0.0
 72
0.0
 73
0
 74
0
 75
0
 76
0
 77
1
 78
8
170
0
171
2
172
0
173
0
174
0
175
0
176
0
177
0
178
0
270
2
271
2
272
2
273
2
274
2
275
0
280
0
281
0
282
0
283
1
284
8
285
0
286
0
287
3
288
0
340
11
341
217
342
217
343
217
344
217
  0
ENDTAB
  0
ENDSEC
  0
SECTION
  2
BLOCKS
  0
BLOCK
  5
20
100
AcDbEntity
  8
0
100
AcDbBlockBegin
  2
*Model_Space
 70
0
 10
0.0
 20
0.0
 30
0.0
  3
*Model_Space
  1

  0
ENDBLK
  5
21
100
AcDbEntity
  8
0
100
AcDbBlockEnd
  0
BLOCK
  5
1C
100
AcDbEntity
  8
0
100
AcDbBlockBegin
  2
*Paper_Space
 70
0
 10
0.0
 20
0.0
 30
0.0
  3
*Paper_Space
  1

  0
ENDBLK
  5
1D
100
AcDbEntity
  8
0
100
AcDbBlockEnd
  0
BLOCK
  5
21E
100
AcDbEntity
  8
0
100
AcDbBlockBegin
  2
_FILLED
 70
64
 10
0.0
 20
0.0
  3
_FILLED
  1

  0
SOLID
  5
21F
100
AcDbEntity
  8
0
  6
BYBLOCK
 62
0
100
AcDbTrace
 10
0.0
 20
0.0
 11
-1.0
 21
0.3166666667
 12
-1.0
 22
-0.3166666667
 13
-1.0
 23
-0.3166666667
  0
ENDBLK
  5
220
100
AcDbEntity
  8
0
  6
BYBLOCK
 62
0
100
AcDbBlockEnd
  0
BLOCK
  5
221
100
AcDbEntity
  8
0
100
AcDbBlockBegin
 62
7
  6
CONTINUOUS
  2
*D0
 70
65
 10
0.0
 20
0.0
  3
*D0
  1

  0
LINE
  5
222
100
AcDbEntity
  8
0
100
AcDbLine
 62
7
  6
CONTINUOUS
 10
-47.2
 20
118.7
 11
-57.2
 21
118.7
  0
LINE
  5
223
100
AcDbEntity
  8
0
100
AcDbLine
 62
7
  6
CONTINUOUS
 10
-47.2
 20
-118.7
 11
-57.2
 21
-118.7
  0
LINE
  5
224
100
AcDbEntity
  8
0
100
AcDbLine
 62
7
  6
CONTINUOUS
 10
-55.7
 20
118.7
 11
-55.7
 21
0.0
  0
LINE
  5
225
100
AcDbEntity
  8
0
100
AcDbLine
 62
7
  6
CONTINUOUS
 10
-55.7
 20
-118.7
 11
-55.7
 21
0.0
  0
INSERT
  5
226
100
AcDbEntity
  8
0
100
AcDbBlockReference
 62
7
  6
CONTINUOUS
  2
_FILLED
 10
-55.7
 20
118.7
 41
3.0
 42
3.0
 43
3.0
 50
90.0
  0
INSERT
  5
227
100
AcDbEntity
  8
0
100
AcDbBlockReference
 62
7
  6
CONTINUOUS
  2
_FILLED
 10
-55.7
 20
-118.7
 41
3.0
 42
3.0
 43
3.0
 50
270.0
  0
ENDBLK
  5
228
100
AcDbEntity
  8
0
  6
BYBLOCK
 62
0
100
AcDbBlockEnd
  0
BLOCK
  5
229
100
AcDbEntity
  8
0
100
AcDbBlockBegin
 62
7
  6
CONTINUOUS
  2
*D1
 70
65
 10
0.0
 20
0.0
  3
*D1
  1

  0
LINE
  5
22A
100
AcDbEntity
  8
0
100
AcDbLine
 62
7
  6
CONTINUOUS
 10
-47.7
 20
118.2
 11
-47.7
 21
128.2
  0
LINE
  5
22B
100
AcDbEntity
  8
0
100
AcDbLine
 62
7
  6
CONTINUOUS
 10
47.7
 20
118.2
 11
47.7
 21
128.2
  0
LINE
  5
22C
100
AcDbEntity
  8
0
100
AcDbLine
 62
7
  6
CONTINUOUS
 10
-47.7
 20
126.7
 11
0.0
 21
126.7
  0
LINE
  5
22D
100
AcDbEntity
  8
0
100
AcDbLine
 62
7
  6
CONTINUOUS
 10
47.7
 20
126.7
 11
0.0
 21
126.7
  0
INSERT
  5
22E
100
AcDbEntity
  8
0
100
AcDbBlockReference
 62
7
  6
CONTINUOUS
  2
_FILLED
 10
-47.7
 20
126.7
 41
3.0
 42
3.0
 43
3.0
 50
180.0
  0
INSERT
  5
22F
100
AcDbEntity
  8
0
100
AcDbBlockReference
 62
7
  6
CONTINUOUS
  2
_FILLED
 10
47.7
 20
126.7
 41
3.0
 42
3.0
 43
3.0
  0
ENDBLK
  5
230
100
AcDbEntity
  8
0
  6
BYBLOCK
 62
0
100
AcDbBlockEnd
  0
BLOCK
  5
231
100
AcDbEntity
  8
0
100
AcDbBlockBegin
 62
7
  6
CONTINUOUS
  2
*D2
 70
65
 10
0.0
 20
0.0
  3
*D2
  1

  0
LINE
  5
232
100
AcDbEntity
  8
0
100
AcDbLine
 62
7
  6
CONTINUOUS
 10
86.3664698435
 20
115.1601579604
 11
86.3664698435
 21
128.2
  0
LINE
  5
233
100
AcDbEntity
  8
0
100
AcDbLine
 62
7
  6
CONTINUOUS
 10
94.5664698435
 20
99.2006256203
 11
94.5664698435
 21
128.2
  0
LINE
  5
234
100
AcDbEntity
  8
0
100
AcDbLine
 62
7
  6
CONTINUOUS
 10
86.3664698435
 20
126.7
 11
90.4664698435
 21
126.7
  0
LINE
  5
235
100
AcDbEntity
  8
0
100
AcDbLine
 62
7
  6
CONTINUOUS
 10
94.5664698435
 20
126.7
 11
90.4664698435
 21
126.7
  0
LINE
  5
236
100
AcDbEntity
  8
0
100
AcDbLine
 62
7
  6
CONTINUOUS
 10
90.4664698435
 20
126.7
 11
102.895770335
 21
126.7
  0
INSERT
  5
237
100
AcDbEntity
  8
0
100
AcDbBlockReference
 62
7
  6
CONTINUOUS
  2
_FILLED
 10
86.3664698435
 20
126.7
 41
3.0
 42
3.0
 43
3.0
 50
180.0
  0
INSERT
  5
238
100
AcDbEntity
  8
0
100
AcDbBlockReference
 62
7
  6
CONTINUOUS
  2
_FILLED
 10
94.5664698435
 20
126.7
 41
3.0
 42
3.0
 43
3.0
  0
ENDBLK
  5
239
100
AcDbEntity
  8
0
  6
BYBLOCK
 62
0
100
AcDbBlockEnd
  0
BLOCK
  5
23A
100
AcDbEntity
  8
0
100
AcDbBlockBegin
 62
7
  6
CONTINUOUS
  2
*D3
 70
65
 10
0.0
 20
0.0
  3
*D3
  1

  0
LINE
  5
23B
100
AcDbEntity
  8
0
100
AcDbLine
 62
7
  6
CONTINUOUS
 10
94.5664698435
 20
99.2006256203
 11
94.5664698435
 21
138.2
  0
LINE
  5
23C
100
AcDbEntity
  8
0
100
AcDbLine
 62
7
  6
CONTINUOUS
 10
84.9664698435
 20
97.4897929133
 11
84.9664698435
 21
138.2
  0
LINE
  5
23D
100
AcDbEntity
  8
0
100
AcDbLine
 62
7
  6
CONTINUOUS
 10
94.5664698435
 20
136.7
 11
89.7664698435
 21
136.7
  0
LINE
  5
23E
100
AcDbEntity
  8
0
100
AcDbLine
 62
7
  6
CONTINUOUS
 10
89.7664698435
 20
136.7
 11
102.3152253545
 21
136.7
  0
LINE
  5
23F
100
AcDbEntity
  8
0
100
AcDbLine
 62
7
  6
CONTINUOUS
 10
84.9664698435
 20
136.7
 11
89.7664698435
 21
136.7
  0
INSERT
  5
240
100
AcDbEntity
  8
0
100
AcDbBlockReference
 62
7
  6
CONTINUOUS
  2
_FILLED
 10
94.5664698435
 20
136.7
 41
3.0
 42
3.0
 43
3.0
  0
INSERT
  5
241
100
AcDbEntity
  8
0
100
AcDbBlockReference
 62
7
  6
CONTINUOUS
  2
_FILLED
 10
84.9664698435
 20
136.7
 41
3.0
 42
3.0
 43
3.0
 50
180.0
  0
ENDBLK
  5
242
100
AcDbEntity
  8
0
  6
BYBLOCK
 62
0
100
AcDbBlockEnd
  0
ENDSEC
  0
SECTION
  2
ENTITIES
  0
DIMENSION
  5
243
100
AcDbEntity
  8
0
100
AcDbDimension
 62
7
  6
CONTINUOUS
  2
*D0
 10
-55.7
 20
-118.7
 11
-56.45
 21
-5.4642857143
 70
160
 71
2
 42
237.4
  3
DIMSTYLE_1
100
AcDbAlignedDimension
 13
-47.2
 23
118.7
 14
-47.2
 24
-118.7
 50
270.0
100
AcDbRotatedDimension
  0
DIMENSION
  5
244
100
AcDbEntity
  8
0
100
AcDbDimension
 62
7
  6
CONTINUOUS
  2
*D1
 10
47.7
 20
126.7
 11
-4.2857142857
 21
127.45
 70
160
 71
2
 42
95.4
  3
DIMSTYLE_1
100
AcDbAlignedDimension
 13
-47.7
 23
118.2
 14
47.7
 24
118.2
100
AcDbRotatedDimension
  0
DIMENSION
  5
245
100
AcDbEntity
  8
0
100
AcDbDimension
 62
7
  6
CONTINUOUS
  2
*D2
 10
94.5664698435
 20
126.7
 11
96.4671989064
 21
127.45
 70
160
 71
1
 42
8.2
  3
DIMSTYLE_1
100
AcDbAlignedDimension
 13
86.3664698435
 23
115.1601579604
 14
94.5664698435
 24
99.2006256203
100
AcDbRotatedDimension
  0
DIMENSION
  5
246
100
AcDbEntity
  8
0
100
AcDbDimension
 62
7
  6
CONTINUOUS
  2
*D3
 10
84.9664698435
 20
136.7
 11
95.886653926
 21
137.45
 70
160
 71
1
 42
9.6
  3
DIMSTYLE_1
100
AcDbAlignedDimension
 13
94.5664698435
 23
99.2006256203
 14
84.9664698435
 24
97.4897929133
 50
180.0
100
AcDbRotatedDimension
  0
LINE
  5
247
100
AcDbEntity
  8
SMUSSO
100
AcDbLine
 62
7
  6
CONTINUOUS
 10
-46.7
 20
-118.7
 11
46.7
 21
-118.7
  0
LINE
  5
248
100
AcDbEntity
  8
SMUSSO
100
AcDbLine
 62
7
  6
CONTINUOUS
 10
-46.7
 20
118.7
 11
-47.7
 21
117.7
  0
LINE
  5
249
100
AcDbEntity
  8
SMUSSO
100
AcDbLine
 62
7
  6
CONTINUOUS
 10
-46.2857864376
 20
117.7
 11
-46.7
 21
117.2857864376
  0
LINE
  5
24A
100
AcDbEntity
  8
SMUSSO
100
AcDbLine
 62
7
  6
CONTINUOUS
 10
-46.2857864376
 20
-117.7
 11
46.2857864376
 21
-117.7
  0
LINE
  5
24B
100
AcDbEntity
  8
SMUSSO
100
AcDbLine
 62
7
  6
CONTINUOUS
 10
-47.7
 20
-117.7
 11
-46.7
 21
-118.7
  0
LINE
  5
24C
100
AcDbEntity
  8
SMUSSO
100
AcDbLine
 62
7
  6
CONTINUOUS
 10
-46.7
 20
-117.2857864376
 11
-46.2857864376
 21
-117.7
  0
LWPOLYLINE
  5
24D
100
AcDbEntity
  8
0
100
AcDbPolyline
 62
7
  6
CONTINUOUS
 90
10
 70
0
 43
0.3500000006
 10
-3.8571428204
 20
127.4500023193
 10
-3.0000000658
 20
128.3071402588
 10
-2.7857141647
 20
129.164287262
 10
-2.7857141647
 20
130.0214252014
 10
-3.2142856836
 20
130.4500032349
 10
-3.8571428204
 20
130.4500032349
 10
-4.2857143393
 20
130.0214252014
 10
-4.2857143393
 20
129.164287262
 10
-3.8571428204
 20
128.7357182922
 10
-2.9285714321
 20
128.7357182922
  0
LINE
  5
24E
100
AcDbEntity
  8
RACCORDO
100
AcDbLine
 62
7
  6
CONTINUOUS
 10
-25.5931245874
 20
-97.293017974
 11
25.5931245874
 21
-97.293017974
  0
LINE
  5
24F
100
AcDbEntity
  8
RACCORDO
100
AcDbLine
 62
253
  6
CONTINUOUS
 10
-25.5589958209
 20
-97.2588892076
 11
25.5589958209
 21
-97.2588892076
  0
LINE
  5
250
100
AcDbEntity
  8
RACCORDO
100
AcDbLine
 62
253
  6
CONTINUOUS
 10
-25.5589958209
 20
-96.958934899
 11
25.5622249454
 21
-96.958934899
  0
LINE
  5
251
100
AcDbEntity
  8
RACCORDO
100
AcDbLine
 62
253
  6
CONTINUOUS
 10
-26.2588892076
 20
-96.558995819
 11
-25.958934899
 21
-96.5589958209
  0
LINE
  5
252
100
AcDbEntity
  8
RACCORDO
100
AcDbLine
 62
253
  6
CONTINUOUS
 10
26.2588892076
 20
-96.5589958196
 11
25.958934899
 21
-96.5589958209
  0
LINE
  5
253
100
AcDbEntity
  8
RACCORDO
100
AcDbLine
 62
253
  6
CONTINUOUS
 10
22.8649960872
 20
-94.4288116597
 11
-22.8649960872
 21
-94.4288116597
  0
LINE
  5
254
100
AcDbEntity
  8
RACCORDO
100
AcDbLine
 62
253
  6
CONTINUOUS
 10
22.8649948583
 20
-94.1469038735
 11
-22.8650067667
 21
-94.1469038735
  0
LINE
  5
255
100
AcDbEntity
  8
RACCORDO
100
AcDbLine
 62
253
  6
CONTINUOUS
 10
-23.4288116597
 20
-93.8649960872
 11
-23.1469038735
 21
-93.8649960872
  0
LINE
  5
256
100
AcDbEntity
  8
RACCORDO
100
AcDbLine
 62
253
  6
CONTINUOUS
 10
23.4288116597
 20
-93.8649960872
 11
23.1469038735
 21
-93.8649960873
  0
LINE
  5
257
100
AcDbEntity
  8
RACCORDO
100
AcDbLine
 62
253
  6
CONTINUOUS
 10
-22.2985854258
 20
-93.6286172716
 11
22.2985854258
 21
-93.6286172716
  0
LINE
  5
258
100
AcDbEntity
  8
RACCORDO
100
AcDbLine
 62
253
  6
CONTINUOUS
 10
-22.2985854258
 20
-93.5985397344
 11
22.2985854258
 21
-93.5985397344
  0
LINE
  5
259
100
AcDbEntity
  8
RACCORDO
100
AcDbLine
 62
7
  6
CONTINUOUS
 10
22.2921909122
 20
-93.5921452208
 11
-22.2921909122
 21
-93.5921452208
  0
LINE
  5
25A
100
AcDbEntity
  8
RACCORDO
100
AcDbLine
 62
253
  6
CONTINUOUS
 10
22.5985397344
 20
-93.2985854258
 11
22.6286172716
 21
-93.2985854258
  0
LINE
  5
25B
100
AcDbEntity
  8
RACCORDO
100
AcDbLine
 62
253
  6
CONTINUOUS
 10
-22.5985397344
 20
-93.2985854258
 11
-22.6286172712
 21
-93.2985854231
  0
LINE
  5
25C
100
AcDbEntity
  8
SMUSSO
100
AcDbLine
 62
7
  6
CONTINUOUS
 10
47.7
 20
117.7
 11
46.7
 21
117.2857864376
  0
LINE
  5
25D
100
AcDbEntity
  8
SMUSSO
100
AcDbLine
 62
7
  6
CONTINUOUS
 10
47.7
 20
-117.7
 11
46.7
 21
-117.2857864376
  0
LWPOLYLINE
  5
25E
100
AcDbEntity
  8
0
100
AcDbPolyline
 62
7
  6
CONTINUOUS
 90
3
 70
0
 43
0.3500000006
 10
-57.0928570862
 20
4.6071432953
 10
-57.0928570862
 20
3.1071428375
 10
-59.4500000153
 20
3.750000824
  0
LWPOLYLINE
  5
25F
100
AcDbEntity
  8
0
100
AcDbPolyline
 62
7
  6
CONTINUOUS
 90
7
 70
0
 43
0.3500000006
 10
-56.4499990997
 20
-3.9642859497
 10
-56.4499990997
 20
-5.4642852745
 10
-58.5928575439
 20
-3.9642859497
 10
-59.0214265137
 20
-3.9642859497
 10
-59.4500000153
 20
-4.3928571854
 10
-59.4500000153
 20
-5.0357140388
 10
-58.8071420288
 20
-5.4642852745
  0
LWPOLYLINE
  5
260
100
AcDbEntity
  8
0
100
AcDbPolyline
 62
7
  6
CONTINUOUS
 90
6
 70
0
 43
0.3500000006
 10
-56.4499990997
 20
-3.1071423454
 10
-56.4499990997
 20
-2.0357142563
 10
-56.6642835846
 20
-1.8214286385
 10
-57.7357150726
 20
-1.8214286385
 10
-58.1642840424
 20
-2.2499998741
 10
-58.1642840424
 20
-2.6785711098
  0
LINE
  5
261
100
AcDbEntity
  8
RACCORDO
100
AcDbLine
 62
253
  6
CONTINUOUS
 10
-26.2588892076
 20
45.4410041791
 11
-26.293017974
 21
45.4068754126
  0
LINE
  5
262
100
AcDbEntity
  8
RACCORDO
100
AcDbLine
 62
253
  6
CONTINUOUS
 10
25.5589958209
 20
97.2588892076
 11
25.5931245874
 21
97.293017974
  0
LINE
  5
263
100
AcDbEntity
  8
RACCORDO
100
AcDbLine
 62
253
  6
CONTINUOUS
 10
22.2985854258
 20
93.5985397344
 11
22.2921909122
 21
93.5921452208
  0
LINE
  5
264
100
AcDbEntity
  8
RACCORDO
100
AcDbLine
 62
253
  6
CONTINUOUS
 10
-22.5985397344
 20
48.7014145742
 11
-22.5921452208
 21
48.7078090878
  0
LINE
  5
265
100
AcDbEntity
  8
RACCORDO
100
AcDbLine
 62
253
  6
CONTINUOUS
 10
22.8650067667
 20
94.1469038735
 11
22.345273255
 21
93.6271810404
  0
LINE
  5
266
100
AcDbEntity
  8
RACCORDO
100
AcDbLine
 62
253
  6
CONTINUOUS
 10
-23.1469038735
 20
48.1350051417
 11
-22.6271795873
 21
48.6546948153
  0
LINE
  5
267
100
AcDbEntity
  8
RACCORDO
100
AcDbLine
 62
253
  6
CONTINUOUS
 10
-26.2588892076
 20
-45.4410041791
 11
-26.293017974
 21
-45.4068754126
  0
LINE
  5
268
100
AcDbEntity
  8
RACCORDO
100
AcDbLine
 62
253
  6
CONTINUOUS
 10
25.5589958209
 20
-97.2588892076
 11
25.5931245874
 21
-97.293017974
  0
LINE
  5
269
100
AcDbEntity
  8
RACCORDO
100
AcDbLine
 62
253
  6
CONTINUOUS
 10
22.2985854258
 20
-93.5985397344
 11
22.2921909122
 21
-93.5921452208
  0
LINE
  5
26A
100
AcDbEntity
  8
RACCORDO
100
AcDbLine
 62
253
  6
CONTINUOUS
 10
-22.5921452208
 20
-48.7078090878
 11
-22.5985397344
 21
-48.7014145742
  0
LINE
  5
26B
100
AcDbEntity
  8
RACCORDO
100
AcDbLine
 62
253
  6
CONTINUOUS
 10
-22.6271795883
 20
-48.6546947066
 11
-23.1469038735
 21
-48.1350052588
  0
LINE
  5
26C
100
AcDbEntity
  8
RACCORDO
100
AcDbLine
 62
253
  6
CONTINUOUS
 10
22.8649948583
 20
-94.1469038735
 11
22.3453051847
 21
-93.6271795873
  0
LWPOLYLINE
  5
26D
100
AcDbEntity
  8
0
100
AcDbPolyline
 62
7
  6
CONTINUOUS
 90
5
 70
0
 43
0.3500000006
 10
-58.1642840424
 20
-2.2499998741
 10
-58.3785730591
 20
-1.8928575554
 10
-59.0214265137
 20
-1.8928575554
 10
-59.4500000153
 20
-2.2499998741
 10
-59.4500000153
 20
-3.1071423454
  0
LINE
  5
26E
100
AcDbEntity
  8
SMUSSO
100
AcDbLine
 62
7
  6
CONTINUOUS
 10
-47.7
 20
117.7
 11
-47.7
 21
-117.7
  0
LINE
  5
26F
100
AcDbEntity
  8
SMUSSO
100
AcDbLine
 62
7
  6
CONTINUOUS
 10
-46.7
 20
117.2857864376
 11
-46.7
 21
-117.2857864376
  0
LINE
  5
270
100
AcDbEntity
  8
RACCORDO
100
AcDbLine
 62
253
  6
CONTINUOUS
 10
23.1469038735
 20
93.8649948583
 11
22.6271795873
 21
93.3453051847
  0
LINE
  5
271
100
AcDbEntity
  8
RACCORDO
100
AcDbLine
 62
253
  6
CONTINUOUS
 10
-22.8650067667
 20
47.8530961265
 11
-22.345273255
 21
48.3728189596
  0
LINE
  5
272
100
AcDbEntity
  8
RACCORDO
100
AcDbLine
 62
253
  6
CONTINUOUS
 10
22.5985397344
 20
93.2985854258
 11
22.5921452208
 21
93.2921909122
  0
LINE
  5
273
100
AcDbEntity
  8
RACCORDO
100
AcDbLine
 62
253
  6
CONTINUOUS
 10
-22.2985854258
 20
48.4014602656
 11
-22.2921909122
 21
48.4078547792
  0
LINE
  5
274
100
AcDbEntity
  8
RACCORDO
100
AcDbLine
 62
253
  6
CONTINUOUS
 10
-25.5589958209
 20
44.7411107924
 11
-25.5931245874
 21
44.706982026
  0
LINE
  5
275
100
AcDbEntity
  8
RACCORDO
100
AcDbLine
 62
253
  6
CONTINUOUS
 10
26.2588892076
 20
96.5589958209
 11
26.293017974
 21
96.5931245874
  0
LINE
  5
276
100
AcDbEntity
  8
RACCORDO
100
AcDbLine
 62
253
  6
CONTINUOUS
 10
-22.5985397344
 20
-48.7014145742
 11
-22.6286172716
 21
-48.7014145742
  0
LINE
  5
277
100
AcDbEntity
  8
RACCORDO
100
AcDbLine
 62
253
  6
CONTINUOUS
 10
22.5985397344
 20
-48.7014145742
 11
22.6286172712
 21
-48.7014145769
  0
LINE
  5
278
100
AcDbEntity
  8
RACCORDO
100
AcDbLine
 62
7
  6
CONTINUOUS
 10
-22.2921909122
 20
-48.4078547792
 11
22.2921909122
 21
-48.4078547792
  0
LINE
  5
279
100
AcDbEntity
  8
RACCORDO
100
AcDbLine
 62
253
  6
CONTINUOUS
 10
22.2985854258
 20
-48.4014602656
 11
-22.2985854258
 21
-48.4014602656
  0
LINE
  5
27A
100
AcDbEntity
  8
RACCORDO
100
AcDbLine
 62
253
  6
CONTINUOUS
 10
22.2985854258
 20
-48.3713827284
 11
-22.2985854258
 21
-48.3713827284
  0
LINE
  5
27B
100
AcDbEntity
  8
RACCORDO
100
AcDbLine
 62
253
  6
CONTINUOUS
 10
-23.4288116597
 20
-48.1350039128
 11
-23.1469038735
 21
-48.1350039128
  0
LINE
  5
27C
100
AcDbEntity
  8
RACCORDO
100
AcDbLine
 62
253
  6
CONTINUOUS
 10
23.4288116597
 20
-48.1350039128
 11
23.1469038735
 21
-48.1350039128
  0
LINE
  5
27D
100
AcDbEntity
  8
RACCORDO
100
AcDbLine
 62
253
  6
CONTINUOUS
 10
-22.8650068917
 20
-47.8530961265
 11
22.8650067667
 21
-47.8530961265
  0
LINE
  5
27E
100
AcDbEntity
  8
RACCORDO
100
AcDbLine
 62
253
  6
CONTINUOUS
 10
-22.8649960872
 20
-47.5711883403
 11
22.8649960872
 21
-47.5711883403
  0
LINE
  5
27F
100
AcDbEntity
  8
RACCORDO
100
AcDbLine
 62
253
  6
CONTINUOUS
 10
-26.2588892076
 20
-45.4410041804
 11
-25.958934899
 21
-45.4410041791
  0
LINE
  5
280
100
AcDbEntity
  8
RACCORDO
100
AcDbLine
 62
253
  6
CONTINUOUS
 10
26.2588892076
 20
-45.441004181
 11
25.958934899
 21
-45.4410041791
  0
LINE
  5
281
100
AcDbEntity
  8
RACCORDO
100
AcDbLine
 62
253
  6
CONTINUOUS
 10
25.5589958209
 20
-45.041065101
 11
-25.5622249565
 21
-45.041065101
  0
LINE
  5
282
100
AcDbEntity
  8
RACCORDO
100
AcDbLine
 62
253
  6
CONTINUOUS
 10
25.5589958209
 20
-44.7411107924
 11
-25.5589958209
 21
-44.7411107924
  0
LINE
  5
283
100
AcDbEntity
  8
RACCORDO
100
AcDbLine
 62
7
  6
CONTINUOUS
 10
25.5931245874
 20
-44.706982026
 11
-25.5931245874
 21
-44.706982026
  0
LINE
  5
284
100
AcDbEntity
  8
RACCORDO
100
AcDbLine
 62
253
  6
CONTINUOUS
 10
-22.345273254
 20
-48.3728189595
 11
-22.8650068917
 21
-47.8530961265
  0
LINE
  5
285
100
AcDbEntity
  8
RACCORDO
100
AcDbLine
 62
253
  6
CONTINUOUS
 10
23.1469038735
 20
-93.8650067667
 11
22.6271810404
 21
-93.345273255
  0
LINE
  5
286
100
AcDbEntity
  8
RACCORDO
100
AcDbLine
 62
253
  6
CONTINUOUS
 10
22.5985397344
 20
-93.2985854258
 11
22.5921452208
 21
-93.2921909122
  0
LINE
  5
287
100
AcDbEntity
  8
RACCORDO
100
AcDbLine
 62
253
  6
CONTINUOUS
 10
-22.2921909122
 20
-48.4078547792
 11
-22.2985854258
 21
-48.4014602656
  0
LINE
  5
288
100
AcDbEntity
  8
RACCORDO
100
AcDbLine
 62
253
  6
CONTINUOUS
 10
-25.5589958209
 20
-44.7411107924
 11
-25.5931245874
 21
-44.706982026
  0
LINE
  5
289
100
AcDbEntity
  8
RACCORDO
100
AcDbLine
 62
253
  6
CONTINUOUS
 10
26.2588892076
 20
-96.5589958209
 11
26.293017974
 21
-96.5931245874
  0
LWPOLYLINE
  5
28A
100
AcDbEntity
  8
0
100
AcDbPolyline
 62
7
  6
CONTINUOUS
 90
3
 70
0
 43
0.3500000006
 10
0.9285714591
 20
127.7357179871
 10
0.8571428254
 20
127.5214244385
 10
0.7142856996
 20
127.2357178345
  0
LINE
  5
28B
100
AcDbEntity
  8
RACCORDO
100
AcDbLine
 62
7
  6
CONTINUOUS
 10
-26.293017974
 20
96.5931245874
 11
-26.293017974
 21
45.4068754126
  0
LINE
  5
28C
100
AcDbEntity
  8
RACCORDO
100
AcDbLine
 62
7
  6
CONTINUOUS
 10
-26.293017974
 20
25.5931245874
 11
-26.293017974
 21
-25.5931245874
  0
LINE
  5
28D
100
AcDbEntity
  8
RACCORDO
100
AcDbLine
 62
7
  6
CONTINUOUS
 10
-26.293017974
 20
-45.4068754126
 11
-26.293017974
 21
-96.5931245874
  0
LINE
  5
28E
100
AcDbEntity
  8
RACCORDO
100
AcDbLine
 62
253
  6
CONTINUOUS
 10
-26.2588892076
 20
96.5589958209
 11
-26.2588892076
 21
45.4410041791
  0
LINE
  5
28F
100
AcDbEntity
  8
RACCORDO
100
AcDbLine
 62
253
  6
CONTINUOUS
 10
-26.2588892076
 20
25.5589958209
 11
-26.2588892076
 21
-25.5589958209
  0
LINE
  5
290
100
AcDbEntity
  8
RACCORDO
100
AcDbLine
 62
253
  6
CONTINUOUS
 10
-26.2588892076
 20
-45.4410041791
 11
-26.2588892076
 21
-96.5589958209
  0
LINE
  5
291
100
AcDbEntity
  8
RACCORDO
100
AcDbLine
 62
253
  6
CONTINUOUS
 10
-25.958934899
 20
96.5589958209
 11
-25.958934899
 21
45.4377750462
  0
LINE
  5
292
100
AcDbEntity
  8
RACCORDO
100
AcDbLine
 62
253
  6
CONTINUOUS
 10
-25.958934899
 20
25.5589958209
 11
-25.958934899
 21
-25.5622249538
  0
LINE
  5
293
100
AcDbEntity
  8
RACCORDO
100
AcDbLine
 62
253
  6
CONTINUOUS
 10
-25.958934899
 20
-45.4410041791
 11
-25.958934899
 21
-96.5622249538
  0
LINE
  5
294
100
AcDbEntity
  8
RACCORDO
100
AcDbLine
 62
253
  6
CONTINUOUS
 10
-25.558995819
 20
97.2588892076
 11
-25.5589958209
 21
96.958934899
  0
LINE
  5
295
100
AcDbEntity
  8
RACCORDO
100
AcDbLine
 62
253
  6
CONTINUOUS
 10
-25.5589958196
 20
-97.2588892076
 11
-25.5589958209
 21
-96.958934899
  0
LINE
  5
296
100
AcDbEntity
  8
RACCORDO
100
AcDbLine
 62
253
  6
CONTINUOUS
 10
-25.558995819
 20
26.2588892076
 11
-25.5589958209
 21
25.958934899
  0
LINE
  5
297
100
AcDbEntity
  8
RACCORDO
100
AcDbLine
 62
253
  6
CONTINUOUS
 10
-25.5589958196
 20
-26.2588892076
 11
-25.5589958209
 21
-25.958934899
  0
LINE
  5
298
100
AcDbEntity
  8
RACCORDO
100
AcDbLine
 62
253
  6
CONTINUOUS
 10
-25.5589958196
 20
44.7411107924
 11
-25.5589958209
 21
45.041065101
  0
LINE
  5
299
100
AcDbEntity
  8
RACCORDO
100
AcDbLine
 62
253
  6
CONTINUOUS
 10
-25.558995819
 20
-44.7411107924
 11
-25.5589958209
 21
-45.041065101
  0
LWPOLYLINE
  5
29A
100
AcDbEntity
  8
0
100
AcDbPolyline
 62
7
  6
CONTINUOUS
 90
10
 70
0
 43
0.3500000006
 10
-56.9499992523
 20
2.0357136154
 10
-56.8071414185
 20
2.1071425323
 10
-56.7357147675
 20
2.1071425323
 10
-56.5928569336
 20
1.9642846985
 10
-56.5928569336
 20
1.8928580475
 10
-56.6642835846
 20
1.8214291306
 10
-56.7357147675
 20
1.8214291306
 10
-56.8785726013
 20
1.8928580475
 10
-56.9499992523
 20
1.9642846985
 10
-56.9499992523
 20
2.0357136154
  0
LINE
  5
29B
100
AcDbEntity
  8
RACCORDO
100
AcDbLine
 62
7
  6
CONTINUOUS
 10
-25.5931245874
 20
-26.293017974
 11
25.5931245874
 21
-26.293017974
  0
LINE
  5
29C
100
AcDbEntity
  8
RACCORDO
100
AcDbLine
 62
253
  6
CONTINUOUS
 10
-25.5589958209
 20
-26.2588892076
 11
25.5589958209
 21
-26.2588892076
  0
LINE
  5
29D
100
AcDbEntity
  8
RACCORDO
100
AcDbLine
 62
253
  6
CONTINUOUS
 10
-25.5589958209
 20
-25.958934899
 11
25.5622249454
 21
-25.958934899
  0
LINE
  5
29E
100
AcDbEntity
  8
RACCORDO
100
AcDbLine
 62
253
  6
CONTINUOUS
 10
-26.2588892076
 20
-25.558995819
 11
-25.958934899
 21
-25.5589958209
  0
LINE
  5
29F
100
AcDbEntity
  8
RACCORDO
100
AcDbLine
 62
253
  6
CONTINUOUS
 10
26.2588892076
 20
-25.5589958196
 11
25.958934899
 21
-25.5589958209
  0
LINE
  5
2A0
100
AcDbEntity
  8
RACCORDO
100
AcDbLine
 62
253
  6
CONTINUOUS
 10
-23.4288116597
 20
-93.8649960872
 11
-23.4288116597
 21
-48.1350039128
  0
LINE
  5
2A1
100
AcDbEntity
  8
RACCORDO
100
AcDbLine
 62
253
  6
CONTINUOUS
 10
-23.4288116597
 20
-22.8649960872
 11
-23.4288116597
 21
22.8649960872
  0
LINE
  5
2A2
100
AcDbEntity
  8
RACCORDO
100
AcDbLine
 62
253
  6
CONTINUOUS
 10
-23.4288116597
 20
48.1350039128
 11
-23.4288116597
 21
93.8649960872
  0
LINE
  5
2A3
100
AcDbEntity
  8
RACCORDO
100
AcDbLine
 62
253
  6
CONTINUOUS
 10
-23.1469038735
 20
-93.8649948583
 11
-23.1469038735
 21
-48.1350052588
  0
LINE
  5
2A4
100
AcDbEntity
  8
RACCORDO
100
AcDbLine
 62
253
  6
CONTINUOUS
 10
-23.1469038735
 20
-22.8649948583
 11
-23.1469038735
 21
22.8649947412
  0
LINE
  5
2A5
100
AcDbEntity
  8
RACCORDO
100
AcDbLine
 62
253
  6
CONTINUOUS
 10
-23.1469038735
 20
48.1350051417
 11
-23.1469038735
 21
93.8649947412
  0
LINE
  5
2A6
100
AcDbEntity
  8
RACCORDO
100
AcDbLine
 62
253
  6
CONTINUOUS
 10
-22.8649960872
 20
94.4288116597
 11
-22.8649960872
 21
94.1469038735
  0
LINE
  5
2A7
100
AcDbEntity
  8
RACCORDO
100
AcDbLine
 62
253
  6
CONTINUOUS
 10
-22.8649960872
 20
-94.4288116597
 11
-22.8649960873
 21
-94.1469038735
  0
LINE
  5
2A8
100
AcDbEntity
  8
RACCORDO
100
AcDbLine
 62
253
  6
CONTINUOUS
 10
-22.8649960872
 20
23.4288116597
 11
-22.8649960872
 21
23.1469038735
  0
LINE
  5
2A9
100
AcDbEntity
  8
RACCORDO
100
AcDbLine
 62
253
  6
CONTINUOUS
 10
-22.8649960872
 20
-23.4288116597
 11
-22.8649960873
 21
-23.1469038735
  0
LINE
  5
2AA
100
AcDbEntity
  8
RACCORDO
100
AcDbLine
 62
253
  6
CONTINUOUS
 10
-22.8649960872
 20
-47.5711883403
 11
-22.8649960872
 21
-47.8530961265
  0
LINE
  5
2AB
100
AcDbEntity
  8
RACCORDO
100
AcDbLine
 62
253
  6
CONTINUOUS
 10
-22.8649960872
 20
47.5711883403
 11
-22.8649960873
 21
47.8530961265
  0
LINE
  5
2AC
100
AcDbEntity
  8
RACCORDO
100
AcDbLine
 62
253
  6
CONTINUOUS
 10
-22.6286172716
 20
93.2985854258
 11
-22.6286172716
 21
48.7014145742
  0
LINE
  5
2AD
100
AcDbEntity
  8
RACCORDO
100
AcDbLine
 62
253
  6
CONTINUOUS
 10
-22.6286172716
 20
22.2985854258
 11
-22.6286172716
 21
-22.2985854258
  0
LINE
  5
2AE
100
AcDbEntity
  8
RACCORDO
100
AcDbLine
 62
253
  6
CONTINUOUS
 10
-22.6286172716
 20
-48.7014145742
 11
-22.6286172716
 21
-93.2985854258
  0
LINE
  5
2AF
100
AcDbEntity
  8
RACCORDO
100
AcDbLine
 62
253
  6
CONTINUOUS
 10
-22.5985397344
 20
93.2985854258
 11
-22.5985397344
 21
48.7014145742
  0
LINE
  5
2B0
100
AcDbEntity
  8
RACCORDO
100
AcDbLine
 62
253
  6
CONTINUOUS
 10
-22.5985397344
 20
22.2985854258
 11
-22.5985397344
 21
-22.2985854258
  0
LINE
  5
2B1
100
AcDbEntity
  8
RACCORDO
100
AcDbLine
 62
253
  6
CONTINUOUS
 10
-22.5985397344
 20
-48.7014145742
 11
-22.5985397344
 21
-93.2985854258
  0
LINE
  5
2B2
100
AcDbEntity
  8
RACCORDO
100
AcDbLine
 62
7
  6
CONTINUOUS
 10
-22.5921452208
 20
-93.2921909122
 11
-22.5921452208
 21
-48.7078090878
  0
LINE
  5
2B3
100
AcDbEntity
  8
RACCORDO
100
AcDbLine
 62
7
  6
CONTINUOUS
 10
-22.5921452208
 20
-22.2921909122
 11
-22.5921452208
 21
22.2921909122
  0
LINE
  5
2B4
100
AcDbEntity
  8
RACCORDO
100
AcDbLine
 62
7
  6
CONTINUOUS
 10
-22.5921452208
 20
48.7078090878
 11
-22.5921452208
 21
93.2921909122
  0
LINE
  5
2B5
100
AcDbEntity
  8
RACCORDO
100
AcDbLine
 62
253
  6
CONTINUOUS
 10
-22.2985854258
 20
48.4014602656
 11
-22.2985854258
 21
48.3713827284
  0
LINE
  5
2B6
100
AcDbEntity
  8
RACCORDO
100
AcDbLine
 62
253
  6
CONTINUOUS
 10
-22.2985854258
 20
-48.4014602656
 11
-22.2985854265
 21
-48.3713827284
  0
LINE
  5
2B7
100
AcDbEntity
  8
RACCORDO
100
AcDbLine
 62
253
  6
CONTINUOUS
 10
-22.2985854258
 20
-22.5985397344
 11
-22.2985854258
 21
-22.6286172716
  0
LINE
  5
2B8
100
AcDbEntity
  8
RACCORDO
100
AcDbLine
 62
253
  6
CONTINUOUS
 10
-22.2985854258
 20
-93.5985397344
 11
-22.2985854258
 21
-93.6286172716
  0
LINE
  5
2B9
100
AcDbEntity
  8
RACCORDO
100
AcDbLine
 62
253
  6
CONTINUOUS
 10
-22.2985854258
 20
22.5985397344
 11
-22.2985854265
 21
22.6286172716
  0
LINE
  5
2BA
100
AcDbEntity
  8
RACCORDO
100
AcDbLine
 62
253
  6
CONTINUOUS
 10
-22.2985854258
 20
93.5985397344
 11
-22.2985854265
 21
93.6286172716
  0
LINE
  5
2BB
100
AcDbEntity
  8
RACCORDO
100
AcDbLine
 62
253
  6
CONTINUOUS
 10
22.8649960872
 20
-23.4288116597
 11
-22.8649960872
 21
-23.4288116597
  0
LINE
  5
2BC
100
AcDbEntity
  8
RACCORDO
100
AcDbLine
 62
253
  6
CONTINUOUS
 10
22.8649948583
 20
-23.1469038735
 11
-22.8650067667
 21
-23.1469038735
  0
LINE
  5
2BD
100
AcDbEntity
  8
RACCORDO
100
AcDbLine
 62
253
  6
CONTINUOUS
 10
-23.4288116597
 20
-22.8649960872
 11
-23.1469038735
 21
-22.8649960872
  0
LINE
  5
2BE
100
AcDbEntity
  8
RACCORDO
100
AcDbLine
 62
253
  6
CONTINUOUS
 10
23.4288116597
 20
-22.8649960872
 11
23.1469038735
 21
-22.8649960873
  0
LINE
  5
2BF
100
AcDbEntity
  8
RACCORDO
100
AcDbLine
 62
253
  6
CONTINUOUS
 10
-22.2985854258
 20
-22.6286172716
 11
22.2985854258
 21
-22.6286172716
  0
LINE
  5
2C0
100
AcDbEntity
  8
RACCORDO
100
AcDbLine
 62
253
  6
CONTINUOUS
 10
-22.2985854258
 20
-22.5985397344
 11
22.2985854258
 21
-22.5985397344
  0
LINE
  5
2C1
100
AcDbEntity
  8
RACCORDO
100
AcDbLine
 62
7
  6
CONTINUOUS
 10
22.2921909122
 20
-22.5921452208
 11
-22.2921909122
 21
-22.5921452208
  0
LINE
  5
2C2
100
AcDbEntity
  8
RACCORDO
100
AcDbLine
 62
253
  6
CONTINUOUS
 10
-22.5985397344
 20
-22.2985854258
 11
-22.6286172712
 21
-22.2985854231
  0
LINE
  5
2C3
100
AcDbEntity
  8
RACCORDO
100
AcDbLine
 62
253
  6
CONTINUOUS
 10
22.5985397344
 20
-22.2985854258
 11
22.6286172716
 21
-22.2985854258
  0
LWPOLYLINE
  5
2C4
100
AcDbEntity
  8
0
100
AcDbPolyline
 62
7
  6
CONTINUOUS
 90
3
 70
0
 43
0.3500000006
 10
-56.7357147675
 20
2.1071425323
 10
-56.5214302826
 20
2.0357136154
 10
-56.2357146149
 20
1.8928580475
  0
LINE
  5
2C5
100
AcDbEntity
  8
SMUSSO
100
AcDbLine
 62
7
  6
CONTINUOUS
 10
46.7
 20
118.7
 11
46.2857864376
 21
117.7
  0
LINE
  5
2C6
100
AcDbEntity
  8
RACCORDO
100
AcDbLine
 62
253
  6
CONTINUOUS
 10
-26.2588892076
 20
-25.5589958209
 11
-26.293017974
 21
-25.5931245874
  0
LINE
  5
2C7
100
AcDbEntity
  8
RACCORDO
100
AcDbLine
 62
253
  6
CONTINUOUS
 10
25.5589958209
 20
26.2588892076
 11
25.5931245874
 21
26.293017974
  0
LINE
  5
2C8
100
AcDbEntity
  8
RACCORDO
100
AcDbLine
 62
253
  6
CONTINUOUS
 10
22.2985854258
 20
22.5985397344
 11
22.2921909122
 21
22.5921452208
  0
LINE
  5
2C9
100
AcDbEntity
  8
RACCORDO
100
AcDbLine
 62
253
  6
CONTINUOUS
 10
-22.5985397344
 20
-22.2985854258
 11
-22.5921452208
 21
-22.2921909122
  0
LINE
  5
2CA
100
AcDbEntity
  8
RACCORDO
100
AcDbLine
 62
253
  6
CONTINUOUS
 10
22.8650067667
 20
23.1469038735
 11
22.345273255
 21
22.6271810404
  0
LINE
  5
2CB
100
AcDbEntity
  8
RACCORDO
100
AcDbLine
 62
253
  6
CONTINUOUS
 10
-23.1469038735
 20
-22.8649948583
 11
-22.6271795873
 21
-22.3453051847
  0
LINE
  5
2CC
100
AcDbEntity
  8
RACCORDO
100
AcDbLine
 62
253
  6
CONTINUOUS
 10
23.1469038735
 20
22.8649948583
 11
22.6271795873
 21
22.3453051847
  0
LINE
  5
2CD
100
AcDbEntity
  8
RACCORDO
100
AcDbLine
 62
253
  6
CONTINUOUS
 10
-22.8650067667
 20
-23.1469038735
 11
-22.345273255
 21
-22.6271810404
  0
LINE
  5
2CE
100
AcDbEntity
  8
RACCORDO
100
AcDbLine
 62
253
  6
CONTINUOUS
 10
22.5985397344
 20
22.2985854258
 11
22.5921452208
 21
22.2921909122
  0
LINE
  5
2CF
100
AcDbEntity
  8
RACCORDO
100
AcDbLine
 62
253
  6
CONTINUOUS
 10
-22.2985854258
 20
-22.5985397344
 11
-22.2921909122
 21
-22.5921452208
  0
LINE
  5
2D0
100
AcDbEntity
  8
RACCORDO
100
AcDbLine
 62
253
  6
CONTINUOUS
 10
-25.5589958209
 20
-26.2588892076
 11
-25.5931245874
 21
-26.293017974
  0
LINE
  5
2D1
100
AcDbEntity
  8
RACCORDO
100
AcDbLine
 62
253
  6
CONTINUOUS
 10
26.2588892076
 20
25.5589958209
 11
26.293017974
 21
25.5931245874
  0
LWPOLYLINE
  5
2D2
100
AcDbEntity
  8
0
100
AcDbPolyline
 62
7
  6
CONTINUOUS
 90
4
 70
0
 43
0.3500000006
 10
-58.8071420288
 20
-0.9642850342
 10
-59.4500000153
 20
-0.9642850342
 10
-59.4500000153
 20
0.5357131577
 10
-56.4499990997
 20
-0.3214293137
  0
LINE
  5
2D3
100
AcDbEntity
  8
RACCORDO
100
AcDbLine
 62
253
  6
CONTINUOUS
 10
25.5589958209
 20
-26.2588892076
 11
25.5931245874
 21
-26.293017974
  0
LINE
  5
2D4
100
AcDbEntity
  8
RACCORDO
100
AcDbLine
 62
253
  6
CONTINUOUS
 10
-26.2588892076
 20
25.5589958209
 11
-26.293017974
 21
25.5931245874
  0
LINE
  5
2D5
100
AcDbEntity
  8
RACCORDO
100
AcDbLine
 62
253
  6
CONTINUOUS
 10
22.2985854258
 20
-22.5985397344
 11
22.2921909122
 21
-22.5921452208
  0
LINE
  5
2D6
100
AcDbEntity
  8
RACCORDO
100
AcDbLine
 62
253
  6
CONTINUOUS
 10
-22.5921452208
 20
22.2921909122
 11
-22.5985397344
 21
22.2985854258
  0
LINE
  5
2D7
100
AcDbEntity
  8
RACCORDO
100
AcDbLine
 62
253
  6
CONTINUOUS
 10
22.8649948583
 20
-23.1469038735
 11
22.3453051847
 21
-22.6271795873
  0
LINE
  5
2D8
100
AcDbEntity
  8
RACCORDO
100
AcDbLine
 62
253
  6
CONTINUOUS
 10
-22.6271795883
 20
22.3453052934
 11
-23.1469038735
 21
22.8649947412
  0
LINE
  5
2D9
100
AcDbEntity
  8
RACCORDO
100
AcDbLine
 62
253
  6
CONTINUOUS
 10
23.1469038735
 20
-22.8650067667
 11
22.6271810404
 21
-22.345273255
  0
LINE
  5
2DA
100
AcDbEntity
  8
RACCORDO
100
AcDbLine
 62
253
  6
CONTINUOUS
 10
-22.345273254
 20
22.6271810405
 11
-22.8650068917
 21
23.1469038735
  0
LINE
  5
2DB
100
AcDbEntity
  8
RACCORDO
100
AcDbLine
 62
253
  6
CONTINUOUS
 10
22.5985397344
 20
-22.2985854258
 11
22.5921452208
 21
-22.2921909122
  0
LINE
  5
2DC
100
AcDbEntity
  8
RACCORDO
100
AcDbLine
 62
253
  6
CONTINUOUS
 10
-22.2921909122
 20
22.5921452208
 11
-22.2985854258
 21
22.5985397344
  0
LINE
  5
2DD
100
AcDbEntity
  8
RACCORDO
100
AcDbLine
 62
253
  6
CONTINUOUS
 10
26.2588892076
 20
-25.5589958209
 11
26.293017974
 21
-25.5931245874
  0
LINE
  5
2DE
100
AcDbEntity
  8
RACCORDO
100
AcDbLine
 62
253
  6
CONTINUOUS
 10
-25.5589958209
 20
26.2588892076
 11
-25.5931245874
 21
26.293017974
  0
LINE
  5
2DF
100
AcDbEntity
  8
SMUSSO
100
AcDbLine
 62
7
  6
CONTINUOUS
 10
46.7
 20
-118.7
 11
46.2857864376
 21
-117.7
  0
LWPOLYLINE
  5
2E0
100
AcDbEntity
  8
0
100
AcDbPolyline
 62
7
  6
CONTINUOUS
 90
2
 70
0
 43
0.3500000006
 10
2.9285714321
 20
127.4500023193
 10
2.9285714321
 20
128.9500027771
  0
LINE
  5
2E1
100
AcDbEntity
  8
SMUSSO
100
AcDbLine
 62
7
  6
CONTINUOUS
 10
-46.7
 20
-118.7
 11
-46.2857864376
 21
-117.7
  0
LWPOLYLINE
  5
2E2
100
AcDbEntity
  8
0
100
AcDbPolyline
 62
7
  6
CONTINUOUS
 90
2
 70
0
 43
0.3500000006
 10
-56.4499990997
 20
4.1071431427
 10
-57.9499995575
 20
4.1071431427
  0
LINE
  5
2E3
100
AcDbEntity
  8
SMUSSO
100
AcDbLine
 62
7
  6
CONTINUOUS
 10
-46.7
 20
118.7
 11
-46.2857864376
 21
117.7
  0
LINE
  5
2E4
100
AcDbEntity
  8
RACCORDO
100
AcDbLine
 62
253
  6
CONTINUOUS
 10
22.2985854258
 20
48.4014602656
 11
22.2985854231
 21
48.3713827288
  0
LINE
  5
2E5
100
AcDbEntity
  8
RACCORDO
100
AcDbLine
 62
253
  6
CONTINUOUS
 10
22.2985854258
 20
-48.4014602656
 11
22.2985854258
 21
-48.3713827284
  0
LINE
  5
2E6
100
AcDbEntity
  8
RACCORDO
100
AcDbLine
 62
253
  6
CONTINUOUS
 10
22.2985854258
 20
22.5985397344
 11
22.2985854258
 21
22.6286172716
  0
LINE
  5
2E7
100
AcDbEntity
  8
RACCORDO
100
AcDbLine
 62
253
  6
CONTINUOUS
 10
22.2985854258
 20
93.5985397344
 11
22.2985854258
 21
93.6286172716
  0
LINE
  5
2E8
100
AcDbEntity
  8
RACCORDO
100
AcDbLine
 62
253
  6
CONTINUOUS
 10
22.2985854258
 20
-22.5985397344
 11
22.2985854231
 21
-22.6286172712
  0
LINE
  5
2E9
100
AcDbEntity
  8
RACCORDO
100
AcDbLine
 62
253
  6
CONTINUOUS
 10
22.2985854258
 20
-93.5985397344
 11
22.2985854231
 21
-93.6286172712
  0
LINE
  5
2EA
100
AcDbEntity
  8
RACCORDO
100
AcDbLine
 62
7
  6
CONTINUOUS
 10
22.5921452208
 20
93.2921909122
 11
22.5921452208
 21
48.7078090878
  0
LINE
  5
2EB
100
AcDbEntity
  8
RACCORDO
100
AcDbLine
 62
7
  6
CONTINUOUS
 10
22.5921452208
 20
22.2921909122
 11
22.5921452208
 21
-22.2921909122
  0
LINE
  5
2EC
100
AcDbEntity
  8
RACCORDO
100
AcDbLine
 62
7
  6
CONTINUOUS
 10
22.5921452208
 20
-48.7078090878
 11
22.5921452208
 21
-93.2921909122
  0
LINE
  5
2ED
100
AcDbEntity
  8
RACCORDO
100
AcDbLine
 62
253
  6
CONTINUOUS
 10
22.5985397344
 20
-93.2985854258
 11
22.5985397344
 21
-48.7014145742
  0
LINE
  5
2EE
100
AcDbEntity
  8
RACCORDO
100
AcDbLine
 62
253
  6
CONTINUOUS
 10
22.5985397344
 20
-22.2985854258
 11
22.5985397344
 21
22.2985854258
  0
LINE
  5
2EF
100
AcDbEntity
  8
RACCORDO
100
AcDbLine
 62
253
  6
CONTINUOUS
 10
22.5985397344
 20
48.7014145742
 11
22.5985397344
 21
93.2985854258
  0
LINE
  5
2F0
100
AcDbEntity
  8
RACCORDO
100
AcDbLine
 62
253
  6
CONTINUOUS
 10
22.6286172716
 20
-93.2985854258
 11
22.6286172716
 21
-48.7014145742
  0
LINE
  5
2F1
100
AcDbEntity
  8
RACCORDO
100
AcDbLine
 62
253
  6
CONTINUOUS
 10
22.6286172716
 20
-22.2985854258
 11
22.6286172716
 21
22.2985854258
  0
LINE
  5
2F2
100
AcDbEntity
  8
RACCORDO
100
AcDbLine
 62
253
  6
CONTINUOUS
 10
22.6286172716
 20
48.7014145742
 11
22.6286172716
 21
93.2985854258
  0
LINE
  5
2F3
100
AcDbEntity
  8
RACCORDO
100
AcDbLine
 62
253
  6
CONTINUOUS
 10
22.8649960872
 20
94.4288116597
 11
22.8649960873
 21
94.1469038735
  0
LINE
  5
2F4
100
AcDbEntity
  8
RACCORDO
100
AcDbLine
 62
253
  6
CONTINUOUS
 10
22.8649960872
 20
-94.4288116597
 11
22.8649960872
 21
-94.1469038735
  0
LINE
  5
2F5
100
AcDbEntity
  8
RACCORDO
100
AcDbLine
 62
253
  6
CONTINUOUS
 10
22.8649960872
 20
23.4288116597
 11
22.8649960873
 21
23.1469038735
  0
LINE
  5
2F6
100
AcDbEntity
  8
RACCORDO
100
AcDbLine
 62
253
  6
CONTINUOUS
 10
22.8649960872
 20
-23.4288116597
 11
22.8649960872
 21
-23.1469038735
  0
LINE
  5
2F7
100
AcDbEntity
  8
RACCORDO
100
AcDbLine
 62
253
  6
CONTINUOUS
 10
22.8649960872
 20
-47.5711883403
 11
22.8649960873
 21
-47.8530961265
  0
LINE
  5
2F8
100
AcDbEntity
  8
RACCORDO
100
AcDbLine
 62
253
  6
CONTINUOUS
 10
22.8649960872
 20
47.5711883403
 11
22.8649960872
 21
47.8530961265
  0
LINE
  5
2F9
100
AcDbEntity
  8
RACCORDO
100
AcDbLine
 62
253
  6
CONTINUOUS
 10
23.1469038735
 20
93.8649948583
 11
23.1469038735
 21
48.1349932333
  0
LINE
  5
2FA
100
AcDbEntity
  8
RACCORDO
100
AcDbLine
 62
253
  6
CONTINUOUS
 10
23.1469038735
 20
22.8649948583
 11
23.1469038735
 21
-22.8650067667
  0
LINE
  5
2FB
100
AcDbEntity
  8
RACCORDO
100
AcDbLine
 62
253
  6
CONTINUOUS
 10
23.1469038735
 20
-48.1350051417
 11
23.1469038735
 21
-93.8650067667
  0
LINE
  5
2FC
100
AcDbEntity
  8
RACCORDO
100
AcDbLine
 62
253
  6
CONTINUOUS
 10
23.4288116597
 20
93.8649960872
 11
23.4288116597
 21
48.1350039128
  0
LINE
  5
2FD
100
AcDbEntity
  8
RACCORDO
100
AcDbLine
 62
253
  6
CONTINUOUS
 10
23.4288116597
 20
22.8649960872
 11
23.4288116597
 21
-22.8649960872
  0
LINE
  5
2FE
100
AcDbEntity
  8
RACCORDO
100
AcDbLine
 62
253
  6
CONTINUOUS
 10
23.4288116597
 20
-48.1350039128
 11
23.4288116597
 21
-93.8649960872
  0
LINE
  5
2FF
100
AcDbEntity
  8
RACCORDO
100
AcDbLine
 62
253
  6
CONTINUOUS
 10
25.558995819
 20
44.7411107924
 11
25.5589958209
 21
45.041065101
  0
LINE
  5
300
100
AcDbEntity
  8
RACCORDO
100
AcDbLine
 62
253
  6
CONTINUOUS
 10
25.5589958196
 20
97.2588892076
 11
25.5589958209
 21
96.958934899
  0
LINE
  5
301
100
AcDbEntity
  8
RACCORDO
100
AcDbLine
 62
253
  6
CONTINUOUS
 10
25.558995819
 20
-97.2588892076
 11
25.5589958209
 21
-96.958934899
  0
LINE
  5
302
100
AcDbEntity
  8
RACCORDO
100
AcDbLine
 62
253
  6
CONTINUOUS
 10
25.5589958196
 20
26.2588892076
 11
25.5589958209
 21
25.958934899
  0
LINE
  5
303
100
AcDbEntity
  8
RACCORDO
100
AcDbLine
 62
253
  6
CONTINUOUS
 10
25.558995819
 20
-26.2588892076
 11
25.5589958209
 21
-25.958934899
  0
LINE
  5
304
100
AcDbEntity
  8
RACCORDO
100
AcDbLine
 62
253
  6
CONTINUOUS
 10
25.5589958196
 20
-44.7411107924
 11
25.5589958209
 21
-45.041065101
  0
LINE
  5
305
100
AcDbEntity
  8
RACCORDO
100
AcDbLine
 62
253
  6
CONTINUOUS
 10
25.958934899
 20
-96.5589958209
 11
25.958934899
 21
-45.4377750486
  0
LINE
  5
306
100
AcDbEntity
  8
RACCORDO
100
AcDbLine
 62
253
  6
CONTINUOUS
 10
25.958934899
 20
-25.5589958209
 11
25.958934899
 21
25.5622249514
  0
LINE
  5
307
100
AcDbEntity
  8
RACCORDO
100
AcDbLine
 62
253
  6
CONTINUOUS
 10
25.958934899
 20
45.4410041791
 11
25.958934899
 21
96.5622249514
  0
LINE
  5
308
100
AcDbEntity
  8
RACCORDO
100
AcDbLine
 62
253
  6
CONTINUOUS
 10
26.2588892076
 20
-96.5589958209
 11
26.2588892076
 21
-45.4410041791
  0
LINE
  5
309
100
AcDbEntity
  8
RACCORDO
100
AcDbLine
 62
253
  6
CONTINUOUS
 10
26.2588892076
 20
-25.5589958209
 11
26.2588892076
 21
25.5589958209
  0
LINE
  5
30A
100
AcDbEntity
  8
RACCORDO
100
AcDbLine
 62
253
  6
CONTINUOUS
 10
26.2588892076
 20
45.4410041791
 11
26.2588892076
 21
96.5589958209
  0
LINE
  5
30B
100
AcDbEntity
  8
RACCORDO
100
AcDbLine
 62
7
  6
CONTINUOUS
 10
26.293017974
 20
-96.5931245874
 11
26.293017974
 21
-45.4068754126
  0
LINE
  5
30C
100
AcDbEntity
  8
RACCORDO
100
AcDbLine
 62
7
  6
CONTINUOUS
 10
26.293017974
 20
-25.5931245874
 11
26.293017974
 21
25.5931245874
  0
LINE
  5
30D
100
AcDbEntity
  8
RACCORDO
100
AcDbLine
 62
7
  6
CONTINUOUS
 10
26.293017974
 20
45.4068754126
 11
26.293017974
 21
96.5931245874
  0
LINE
  5
30E
100
AcDbEntity
  8
RACCORDO
100
AcDbLine
 62
253
  6
CONTINUOUS
 10
-22.5985397344
 20
22.2985854258
 11
-22.6286172716
 21
22.2985854258
  0
LINE
  5
30F
100
AcDbEntity
  8
RACCORDO
100
AcDbLine
 62
253
  6
CONTINUOUS
 10
22.5985397344
 20
22.2985854258
 11
22.6286172712
 21
22.2985854231
  0
LINE
  5
310
100
AcDbEntity
  8
RACCORDO
100
AcDbLine
 62
7
  6
CONTINUOUS
 10
-22.2921909122
 20
22.5921452208
 11
22.2921909122
 21
22.5921452208
  0
LINE
  5
311
100
AcDbEntity
  8
RACCORDO
100
AcDbLine
 62
253
  6
CONTINUOUS
 10
22.2985854258
 20
22.5985397344
 11
-22.2985854258
 21
22.5985397344
  0
LINE
  5
312
100
AcDbEntity
  8
RACCORDO
100
AcDbLine
 62
253
  6
CONTINUOUS
 10
22.2985854258
 20
22.6286172716
 11
-22.2985854258
 21
22.6286172716
  0
LINE
  5
313
100
AcDbEntity
  8
RACCORDO
100
AcDbLine
 62
253
  6
CONTINUOUS
 10
-23.4288116597
 20
22.8649960872
 11
-23.1469038735
 21
22.8649960872
  0
LINE
  5
314
100
AcDbEntity
  8
RACCORDO
100
AcDbLine
 62
253
  6
CONTINUOUS
 10
23.4288116597
 20
22.8649960872
 11
23.1469038735
 21
22.8649960872
  0
LINE
  5
315
100
AcDbEntity
  8
RACCORDO
100
AcDbLine
 62
253
  6
CONTINUOUS
 10
-22.8650068917
 20
23.1469038735
 11
22.8650067667
 21
23.1469038735
  0
LINE
  5
316
100
AcDbEntity
  8
RACCORDO
100
AcDbLine
 62
253
  6
CONTINUOUS
 10
-22.8649960872
 20
23.4288116597
 11
22.8649960872
 21
23.4288116597
  0
LINE
  5
317
100
AcDbEntity
  8
RACCORDO
100
AcDbLine
 62
253
  6
CONTINUOUS
 10
-26.2588892076
 20
25.5589958196
 11
-25.958934899
 21
25.5589958209
  0
LINE
  5
318
100
AcDbEntity
  8
RACCORDO
100
AcDbLine
 62
253
  6
CONTINUOUS
 10
26.2588892076
 20
25.558995819
 11
25.958934899
 21
25.5589958209
  0
LINE
  5
319
100
AcDbEntity
  8
RACCORDO
100
AcDbLine
 62
253
  6
CONTINUOUS
 10
25.5589958209
 20
25.958934899
 11
-25.5622249565
 21
25.958934899
  0
LINE
  5
31A
100
AcDbEntity
  8
RACCORDO
100
AcDbLine
 62
253
  6
CONTINUOUS
 10
25.5589958209
 20
26.2588892076
 11
-25.5589958209
 21
26.2588892076
  0
LINE
  5
31B
100
AcDbEntity
  8
RACCORDO
100
AcDbLine
 62
7
  6
CONTINUOUS
 10
25.5931245874
 20
26.293017974
 11
-25.5931245874
 21
26.293017974
  0
LINE
  5
31C
100
AcDbEntity
  8
SMUSSO
100
AcDbLine
 62
7
  6
CONTINUOUS
 10
46.7
 20
-117.2857864376
 11
46.7
 21
117.2857864376
  0
LINE
  5
31D
100
AcDbEntity
  8
SMUSSO
100
AcDbLine
 62
7
  6
CONTINUOUS
 10
47.7
 20
-117.7
 11
47.7
 21
117.7
  0
LINE
  5
31E
100
AcDbEntity
  8
RACCORDO
100
AcDbLine
 62
253
  6
CONTINUOUS
 10
25.5589958209
 20
-44.7411107924
 11
25.5931245874
 21
-44.706982026
  0
LINE
  5
31F
100
AcDbEntity
  8
RACCORDO
100
AcDbLine
 62
253
  6
CONTINUOUS
 10
-26.2588892076
 20
-96.5589958209
 11
-26.293017974
 21
-96.5931245874
  0
LINE
  5
320
100
AcDbEntity
  8
RACCORDO
100
AcDbLine
 62
253
  6
CONTINUOUS
 10
-22.5985397344
 20
-93.2985854258
 11
-22.5921452208
 21
-93.2921909122
  0
LINE
  5
321
100
AcDbEntity
  8
RACCORDO
100
AcDbLine
 62
253
  6
CONTINUOUS
 10
22.2985854258
 20
-48.4014602656
 11
22.2921909122
 21
-48.4078547792
  0
LINE
  5
322
100
AcDbEntity
  8
RACCORDO
100
AcDbLine
 62
253
  6
CONTINUOUS
 10
22.8650067667
 20
-47.8530961265
 11
22.345273255
 21
-48.3728189596
  0
LINE
  5
323
100
AcDbEntity
  8
RACCORDO
100
AcDbLine
 62
253
  6
CONTINUOUS
 10
-23.1469038735
 20
-93.8649948583
 11
-22.6271795873
 21
-93.3453051847
  0
LINE
  5
324
100
AcDbEntity
  8
RACCORDO
100
AcDbLine
 62
253
  6
CONTINUOUS
 10
23.1469038735
 20
-48.1350051417
 11
22.6271795873
 21
-48.6546948153
  0
LINE
  5
325
100
AcDbEntity
  8
RACCORDO
100
AcDbLine
 62
253
  6
CONTINUOUS
 10
-22.8650067667
 20
-94.1469038735
 11
-22.345273255
 21
-93.6271810404
  0
LINE
  5
326
100
AcDbEntity
  8
RACCORDO
100
AcDbLine
 62
253
  6
CONTINUOUS
 10
-22.2985854258
 20
-93.5985397344
 11
-22.2921909122
 21
-93.5921452208
  0
LINE
  5
327
100
AcDbEntity
  8
RACCORDO
100
AcDbLine
 62
253
  6
CONTINUOUS
 10
22.5985397344
 20
-48.7014145742
 11
22.5921452208
 21
-48.7078090878
  0
LINE
  5
328
100
AcDbEntity
  8
RACCORDO
100
AcDbLine
 62
253
  6
CONTINUOUS
 10
26.2588892076
 20
-45.4410041791
 11
26.293017974
 21
-45.4068754126
  0
LINE
  5
329
100
AcDbEntity
  8
RACCORDO
100
AcDbLine
 62
253
  6
CONTINUOUS
 10
-25.5589958209
 20
-97.2588892076
 11
-25.5931245874
 21
-97.293017974
  0
LINE
  5
32A
100
AcDbEntity
  8
RACCORDO
100
AcDbLine
 62
7
  6
CONTINUOUS
 10
-25.5931245874
 20
44.706982026
 11
25.5931245874
 21
44.706982026
  0
LINE
  5
32B
100
AcDbEntity
  8
RACCORDO
100
AcDbLine
 62
253
  6
CONTINUOUS
 10
-25.5589958209
 20
44.7411107924
 11
25.5589958209
 21
44.7411107924
  0
LINE
  5
32C
100
AcDbEntity
  8
RACCORDO
100
AcDbLine
 62
253
  6
CONTINUOUS
 10
-25.5589958209
 20
45.041065101
 11
25.5622249454
 21
45.041065101
  0
LINE
  5
32D
100
AcDbEntity
  8
RACCORDO
100
AcDbLine
 62
253
  6
CONTINUOUS
 10
-26.2588892076
 20
45.441004181
 11
-25.958934899
 21
45.4410041791
  0
LINE
  5
32E
100
AcDbEntity
  8
RACCORDO
100
AcDbLine
 62
253
  6
CONTINUOUS
 10
26.2588892076
 20
45.4410041804
 11
25.958934899
 21
45.4410041791
  0
LINE
  5
32F
100
AcDbEntity
  8
RACCORDO
100
AcDbLine
 62
253
  6
CONTINUOUS
 10
22.8649960872
 20
47.5711883403
 11
-22.8649960872
 21
47.5711883403
  0
LINE
  5
330
100
AcDbEntity
  8
RACCORDO
100
AcDbLine
 62
253
  6
CONTINUOUS
 10
22.8649948583
 20
47.8530961265
 11
-22.8650067667
 21
47.8530961265
  0
LINE
  5
331
100
AcDbEntity
  8
RACCORDO
100
AcDbLine
 62
253
  6
CONTINUOUS
 10
-23.4288116597
 20
48.1350039128
 11
-23.1469038735
 21
48.1350039128
  0
LINE
  5
332
100
AcDbEntity
  8
RACCORDO
100
AcDbLine
 62
253
  6
CONTINUOUS
 10
23.4288116597
 20
48.1350039128
 11
23.1469038735
 21
48.1350039127
  0
LINE
  5
333
100
AcDbEntity
  8
RACCORDO
100
AcDbLine
 62
253
  6
CONTINUOUS
 10
-22.2985854258
 20
48.3713827284
 11
22.2985854258
 21
48.3713827284
  0
LINE
  5
334
100
AcDbEntity
  8
RACCORDO
100
AcDbLine
 62
253
  6
CONTINUOUS
 10
-22.2985854258
 20
48.4014602656
 11
22.2985854258
 21
48.4014602656
  0
LINE
  5
335
100
AcDbEntity
  8
RACCORDO
100
AcDbLine
 62
7
  6
CONTINUOUS
 10
22.2921909122
 20
48.4078547792
 11
-22.2921909122
 21
48.4078547792
  0
LINE
  5
336
100
AcDbEntity
  8
RACCORDO
100
AcDbLine
 62
253
  6
CONTINUOUS
 10
-22.5985397344
 20
48.7014145742
 11
-22.6286172712
 21
48.7014145769
  0
LINE
  5
337
100
AcDbEntity
  8
RACCORDO
100
AcDbLine
 62
253
  6
CONTINUOUS
 10
22.5985397344
 20
48.7014145742
 11
22.6286172716
 21
48.7014145742
  0
LINE
  5
338
100
AcDbEntity
  8
RACCORDO
100
AcDbLine
 62
253
  6
CONTINUOUS
 10
25.5589958209
 20
44.7411107924
 11
25.5931245874
 21
44.706982026
  0
LINE
  5
339
100
AcDbEntity
  8
RACCORDO
100
AcDbLine
 62
253
  6
CONTINUOUS
 10
-26.2588892076
 20
96.5589958209
 11
-26.293017974
 21
96.5931245874
  0
LINE
  5
33A
100
AcDbEntity
  8
RACCORDO
100
AcDbLine
 62
253
  6
CONTINUOUS
 10
22.2985854258
 20
48.4014602656
 11
22.2921909122
 21
48.4078547792
  0
LINE
  5
33B
100
AcDbEntity
  8
RACCORDO
100
AcDbLine
 62
253
  6
CONTINUOUS
 10
-22.5921452208
 20
93.2921909122
 11
-22.5985397344
 21
93.2985854258
  0
LINE
  5
33C
100
AcDbEntity
  8
RACCORDO
100
AcDbLine
 62
253
  6
CONTINUOUS
 10
22.8649948583
 20
47.8530961265
 11
22.3453051847
 21
48.3728204127
  0
LINE
  5
33D
100
AcDbEntity
  8
RACCORDO
100
AcDbLine
 62
253
  6
CONTINUOUS
 10
-22.6271795883
 20
93.3453052934
 11
-23.1469038735
 21
93.8649947412
  0
LINE
  5
33E
100
AcDbEntity
  8
RACCORDO
100
AcDbLine
 62
253
  6
CONTINUOUS
 10
23.1469038735
 20
48.1349932333
 11
22.6271810404
 21
48.654726745
  0
LINE
  5
33F
100
AcDbEntity
  8
RACCORDO
100
AcDbLine
 62
253
  6
CONTINUOUS
 10
-22.345273254
 20
93.6271810405
 11
-22.8650068917
 21
94.1469038735
  0
LINE
  5
340
100
AcDbEntity
  8
RACCORDO
100
AcDbLine
 62
253
  6
CONTINUOUS
 10
22.5985397344
 20
48.7014145742
 11
22.5921452208
 21
48.7078090878
  0
LINE
  5
341
100
AcDbEntity
  8
RACCORDO
100
AcDbLine
 62
253
  6
CONTINUOUS
 10
-22.2921909122
 20
93.5921452208
 11
-22.2985854258
 21
93.5985397344
  0
LINE
  5
342
100
AcDbEntity
  8
RACCORDO
100
AcDbLine
 62
253
  6
CONTINUOUS
 10
26.2588892076
 20
45.4410041791
 11
26.293017974
 21
45.4068754126
  0
LINE
  5
343
100
AcDbEntity
  8
RACCORDO
100
AcDbLine
 62
253
  6
CONTINUOUS
 10
-25.5589958209
 20
97.2588892076
 11
-25.5931245874
 21
97.293017974
  0
LWPOLYLINE
  5
344
100
AcDbEntity
  8
0
100
AcDbPolyline
 62
7
  6
CONTINUOUS
 90
10
 70
0
 43
0.3500000006
 10
0.8571428254
 20
127.9500024719
 10
0.9285714591
 20
127.8071401062
 10
0.9285714591
 20
127.7357179871
 10
0.7857142625
 20
127.5928556213
 10
0.7142856996
 20
127.5928556213
 10
0.6428571367
 20
127.6642868042
 10
0.6428571367
 20
127.7357179871
 10
0.7142856996
 20
127.8785712891
 10
0.7857142625
 20
127.9500024719
 10
0.8571428254
 20
127.9500024719
  0
LINE
  5
345
100
AcDbEntity
  8
SMUSSO
100
AcDbLine
 62
7
  6
CONTINUOUS
 10
-47.7
 20
-117.7
 11
-46.7
 21
-117.2857864376
  0
LINE
  5
346
100
AcDbEntity
  8
RACCORDO
100
AcDbLine
 62
253
  6
CONTINUOUS
 10
-22.5985397344
 20
93.2985854258
 11
-22.6286172716
 21
93.2985854258
  0
LINE
  5
347
100
AcDbEntity
  8
RACCORDO
100
AcDbLine
 62
253
  6
CONTINUOUS
 10
22.5985397344
 20
93.2985854258
 11
22.6286172712
 21
93.2985854231
  0
LINE
  5
348
100
AcDbEntity
  8
RACCORDO
100
AcDbLine
 62
7
  6
CONTINUOUS
 10
-22.2921909122
 20
93.5921452208
 11
22.2921909122
 21
93.5921452208
  0
LINE
  5
349
100
AcDbEntity
  8
RACCORDO
100
AcDbLine
 62
253
  6
CONTINUOUS
 10
22.2985854258
 20
93.5985397344
 11
-22.2985854258
 21
93.5985397344
  0
LINE
  5
34A
100
AcDbEntity
  8
RACCORDO
100
AcDbLine
 62
253
  6
CONTINUOUS
 10
22.2985854258
 20
93.6286172716
 11
-22.2985854258
 21
93.6286172716
  0
LINE
  5
34B
100
AcDbEntity
  8
RACCORDO
100
AcDbLine
 62
253
  6
CONTINUOUS
 10
-23.4288116597
 20
93.8649960872
 11
-23.1469038735
 21
93.8649960872
  0
LINE
  5
34C
100
AcDbEntity
  8
RACCORDO
100
AcDbLine
 62
253
  6
CONTINUOUS
 10
23.4288116597
 20
93.8649960872
 11
23.1469038735
 21
93.8649960872
  0
LINE
  5
34D
100
AcDbEntity
  8
RACCORDO
100
AcDbLine
 62
253
  6
CONTINUOUS
 10
-22.8650068917
 20
94.1469038735
 11
22.8650067667
 21
94.1469038735
  0
LINE
  5
34E
100
AcDbEntity
  8
RACCORDO
100
AcDbLine
 62
253
  6
CONTINUOUS
 10
-22.8649960872
 20
94.4288116597
 11
22.8649960872
 21
94.4288116597
  0
LINE
  5
34F
100
AcDbEntity
  8
SMUSSO
100
AcDbLine
 62
7
  6
CONTINUOUS
 10
-47.7
 20
117.7
 11
-46.7
 21
117.2857864376
  0
LINE
  5
350
100
AcDbEntity
  8
RACCORDO
100
AcDbLine
 62
253
  6
CONTINUOUS
 10
-26.2588892076
 20
96.5589958196
 11
-25.958934899
 21
96.5589958209
  0
LINE
  5
351
100
AcDbEntity
  8
RACCORDO
100
AcDbLine
 62
253
  6
CONTINUOUS
 10
26.2588892076
 20
96.558995819
 11
25.958934899
 21
96.5589958209
  0
LINE
  5
352
100
AcDbEntity
  8
RACCORDO
100
AcDbLine
 62
253
  6
CONTINUOUS
 10
25.5589958209
 20
96.958934899
 11
-25.5622249565
 21
96.958934899
  0
LINE
  5
353
100
AcDbEntity
  8
RACCORDO
100
AcDbLine
 62
253
  6
CONTINUOUS
 10
25.5589958209
 20
97.2588892076
 11
-25.5589958209
 21
97.2588892076
  0
LINE
  5
354
100
AcDbEntity
  8
RACCORDO
100
AcDbLine
 62
7
  6
CONTINUOUS
 10
25.5931245874
 20
97.293017974
 11
-25.5931245874
 21
97.293017974
  0
LINE
  5
355
100
AcDbEntity
  8
SMUSSO
100
AcDbLine
 62
7
  6
CONTINUOUS
 10
46.2857864376
 20
-117.7
 11
46.7
 21
-117.2857864376
  0
LINE
  5
356
100
AcDbEntity
  8
SMUSSO
100
AcDbLine
 62
7
  6
CONTINUOUS
 10
46.7
 20
-118.7
 11
47.7
 21
-117.7
  0
LINE
  5
357
100
AcDbEntity
  8
SMUSSO
100
AcDbLine
 62
7
  6
CONTINUOUS
 10
46.2857864376
 20
117.7
 11
-46.2857864376
 21
117.7
  0
LINE
  5
358
100
AcDbEntity
  8
SMUSSO
100
AcDbLine
 62
7
  6
CONTINUOUS
 10
46.7
 20
118.7
 11
-46.7
 21
118.7
  0
LWPOLYLINE
  5
359
100
AcDbEntity
  8
0
100
AcDbPolyline
 62
7
  6
CONTINUOUS
 90
8
 70
0
 43
0.3500000006
 10
-1.9285714102
 20
127.4500023193
 10
-1.0714285848
 20
127.4500023193
 10
-0.6428571367
 20
127.8785712891
 10
-0.6428571367
 20
128.7357182922
 10
-1.0714285848
 20
129.164287262
 10
-1.9285714102
 20
129.164287262
 10
-1.9285714102
 20
130.4500032349
 10
-0.6428571367
 20
130.4500032349
  0
LWPOLYLINE
  5
35A
100
AcDbEntity
  8
0
100
AcDbPolyline
 62
7
  6
CONTINUOUS
 90
3
 70
0
 43
0.3500000006
 10
3.4285713015
 20
128.0928557739
 10
1.9285714102
 20
128.0928557739
 10
2.5714285469
 20
130.4500032349
  0
LINE
  5
35B
100
AcDbEntity
  8
SMUSSO
100
AcDbLine
 62
7
  6
CONTINUOUS
 10
46.7
 20
117.2857864376
 11
46.2857864376
 21
117.7
  0
LINE
  5
35C
100
AcDbEntity
  8
SMUSSO
100
AcDbLine
 62
7
  6
CONTINUOUS
 10
47.7
 20
117.7
 11
46.7
 21
118.7
  0
LINE
  5
35D
100
AcDbEntity
  8
SMUSSO
100
AcDbLine
 62
7
  6
CONTINUOUS
 10
91.3164698435
 20
-118.7
 11
87.8664698435
 21
-118.7
  0
LINE
  5
35E
100
AcDbEntity
  8
SMUSSO
100
AcDbLine
 62
7
  6
CONTINUOUS
 10
91.3164698435
 20
-117.7
 11
87.8664698435
 21
-117.7
  0
LINE
  5
35F
100
AcDbEntity
  8
RACCORDO
100
AcDbLine
 62
7
  6
CONTINUOUS
 10
87.3664698435
 20
-116.6773084156
 11
86.3664698435
 21
-116.6598533507
  0
LINE
  5
360
100
AcDbEntity
  8
RACCORDO
100
AcDbLine
 62
253
  6
CONTINUOUS
 10
87.3664698435
 20
-114.6776130253
 11
86.3664698435
 21
-114.6601579604
  0
LINE
  5
361
100
AcDbEntity
  8
SMUSSO
100
AcDbLine
 62
7
  6
CONTINUOUS
 10
87.8664698435
 20
117.7
 11
87.3664698435
 21
117.4928932188
  0
LINE
  5
362
100
AcDbEntity
  8
SMUSSO
100
AcDbLine
 62
7
  6
CONTINUOUS
 10
87.8664698435
 20
-117.7
 11
87.3664698435
 21
-117.4928932188
  0
LINE
  5
363
100
AcDbEntity
  8
ASSI
100
AcDbLine
 62
7
  6
CONTINUOUS
 10
85.1560026522
 20
-96.7916264167
 11
86.3664698435
 21
-96.7381478244
  0
LINE
  5
364
100
AcDbEntity
  8
RACCORDO
100
AcDbLine
 62
7
  6
CONTINUOUS
 10
94.2717055654
 20
-97.2588892076
 11
92.3164698435
 21
-97.293017974
  0
LINE
  5
365
100
AcDbEntity
  8
RACCORDO
100
AcDbLine
 62
253
  6
CONTINUOUS
 10
94.2717055654
 20
-96.5589958209
 11
92.3164698435
 21
-96.5931245874
  0
LINE
  5
366
100
AcDbEntity
  8
RACCORDO
100
AcDbLine
 62
253
  6
CONTINUOUS
 10
94.2717055654
 20
-96.558995819
 11
94.5664698435
 21
-96.5589958209
  0
LINE
  5
367
100
AcDbEntity
  8
ASSI
100
AcDbLine
 62
7
  6
CONTINUOUS
 10
85.1664698435
 20
-96.2
 11
86.3664698435
 21
-96.2
  0
LINE
  5
368
100
AcDbEntity
  8
ASSI
100
AcDbLine
 62
7
  6
CONTINUOUS
 10
86.3664698435
 20
-96.05
 11
86.3414698435
 21
-96.05
  0
LINE
  5
369
100
AcDbEntity
  8
ASSI
100
AcDbLine
 62
7
  6
CONTINUOUS
 10
85.9914698435
 20
-96.05
 11
85.8414698435
 21
-96.05
  0
LINE
  5
36A
100
AcDbEntity
  8
ASSI
100
AcDbLine
 62
7
  6
CONTINUOUS
 10
85.4914698435
 20
-96.05
 11
85.3414698435
 21
-96.05
  0
LINE
  5
36B
100
AcDbEntity
  8
ASSI
100
AcDbLine
 62
253
  6
CONTINUOUS
 10
85.2442410332
 20
-97.9277711897
 11
86.3664698435
 21
-97.9282781284
  0
LINE
  5
36C
100
AcDbEntity
  8
ASSI
100
AcDbLine
 62
7
  6
CONTINUOUS
 10
85.4658590568
 20
-98.1508715995
 11
86.3664698435
 21
-98.1524434634
  0
LINE
  5
36D
100
AcDbEntity
  8
ASSI
100
AcDbLine
 62
7
  6
CONTINUOUS
 10
84.9664698435
 20
-97.35
 11
86.3664698435
 21
-97.3581449617
  0
LWPOLYLINE
  5
36E
100
AcDbEntity
  8
0
100
AcDbPolyline
 62
7
  6
CONTINUOUS
 90
10
 70
0
 43
0.3500000006
 10
96.315229248
 20
137.4500053711
 10
97.1723671875
 20
138.3071433105
 10
97.3866516724
 20
139.16428125
 10
97.3866516724
 20
140.0214373169
 10
96.9580827026
 20
140.4500062866
 10
96.315229248
 20
140.4500062866
 10
95.8866512146
 20
140.0214373169
 10
95.8866512146
 20
139.16428125
 10
96.315229248
 20
138.7357122803
 10
97.2437983704
 20
138.7357122803
  0
LWPOLYLINE
  5
36F
100
AcDbEntity
  8
0
100
AcDbPolyline
 62
7
  6
CONTINUOUS
 90
10
 70
0
 43
0.3500000006
 10
101.0295151062
 20
140.4500062866
 10
100.3866525879
 20
139.8071347046
 10
99.9580836182
 20
138.9499967651
 10
99.9580836182
 20
137.8785743408
 10
100.3866525879
 20
137.4500053711
 10
101.0295151062
 20
137.4500053711
 10
101.4580840759
 20
137.8785743408
 10
101.4580840759
 20
138.7357122803
 10
101.0295151062
 20
139.16428125
 10
100.1009369202
 20
139.16428125
  0
LINE
  5
370
100
AcDbEntity
  8
SMUSSO
100
AcDbLine
 62
7
  6
CONTINUOUS
 10
87.8664698435
 20
118.7
 11
87.3664698435
 21
118.2
  0
LINE
  5
371
100
AcDbEntity
  8
0
100
AcDbLine
 62
7
  6
CONTINUOUS
 10
85.2442410332
 20
-84.2902460313
 11
84.9664698435
 21
-84.3641726926
  0
LINE
  5
372
100
AcDbEntity
  8
0
100
AcDbLine
 62
7
  6
CONTINUOUS
 10
85.1560026522
 20
-79.2400670064
 11
86.3664698435
 21
-79.176629109
  0
LINE
  5
373
100
AcDbEntity
  8
0
100
AcDbLine
 62
7
  6
CONTINUOUS
 10
84.9664698435
 20
-79.8
 11
86.3664698435
 21
-79.7966262464
  0
LINE
  5
374
100
AcDbEntity
  8
0
100
AcDbLine
 62
253
  6
CONTINUOUS
 10
85.2442410332
 20
-83.7097539687
 11
86.3664698435
 21
-83.7078620477
  0
LINE
  5
375
100
AcDbEntity
  8
0
100
AcDbLine
 62
7
  6
CONTINUOUS
 10
84.9664698435
 20
-83.4830127019
 11
86.3664698435
 21
-83.480830266
  0
LINE
  5
376
100
AcDbEntity
  8
0
100
AcDbLine
 62
7
  6
CONTINUOUS
 10
84.9664698435
 20
-83.05
 11
86.3664698435
 21
-83.0478175641
  0
LINE
  5
377
100
AcDbEntity
  8
0
100
AcDbLine
 62
253
  6
CONTINUOUS
 10
85.2442410332
 20
-80.2097539687
 11
86.3664698435
 21
-80.2078620477
  0
LINE
  5
378
100
AcDbEntity
  8
0
100
AcDbLine
 62
7
  6
CONTINUOUS
 10
84.9664698435
 20
-83.5554425497
 11
86.3664698435
 21
-83.5550953261
  0
LINE
  5
379
100
AcDbEntity
  8
0
100
AcDbLine
 62
7
  6
CONTINUOUS
 10
84.9664698435
 20
-80.0554425497
 11
86.3664698435
 21
-80.0550953261
  0
LINE
  5
37A
100
AcDbEntity
  8
0
100
AcDbLine
 62
7
  6
CONTINUOUS
 10
84.9664698435
 20
-84.4445574503
 11
86.3664698435
 21
-84.4449046739
  0
LINE
  5
37B
100
AcDbEntity
  8
0
100
AcDbLine
 62
7
  6
CONTINUOUS
 10
84.9664698435
 20
-80.9445574503
 11
86.3664698435
 21
-80.9449046739
  0
LINE
  5
37C
100
AcDbEntity
  8
0
100
AcDbLine
 62
7
  6
CONTINUOUS
 10
84.9664698435
 20
-81.45
 11
86.3664698435
 21
-81.4521824359
  0
LINE
  5
37D
100
AcDbEntity
  8
0
100
AcDbLine
 62
7
  6
CONTINUOUS
 10
84.9664698435
 20
-81.0169872981
 11
86.3664698435
 21
-81.019169734
  0
LINE
  5
37E
100
AcDbEntity
  8
0
100
AcDbLine
 62
253
  6
CONTINUOUS
 10
85.2442410332
 20
-84.2902460313
 11
86.3664698435
 21
-84.2921379523
  0
LINE
  5
37F
100
AcDbEntity
  8
0
100
AcDbLine
 62
253
  6
CONTINUOUS
 10
85.2442410332
 20
-80.7902460313
 11
86.3664698435
 21
-80.7921379523
  0
LINE
  5
380
100
AcDbEntity
  8
0
100
AcDbLine
 62
7
  6
CONTINUOUS
 10
84.9664698435
 20
-84.7
 11
86.3664698435
 21
-84.7033737536
  0
LINE
  5
381
100
AcDbEntity
  8
0
100
AcDbLine
 62
7
  6
CONTINUOUS
 10
85.1560026522
 20
-85.2599329936
 11
86.3664698435
 21
-85.323370891
  0
LINE
  5
382
100
AcDbEntity
  8
0
100
AcDbLine
 62
7
  6
CONTINUOUS
 10
85.2442410332
 20
-83.7097539687
 11
84.9664698435
 21
-83.6358273074
  0
LINE
  5
383
100
AcDbEntity
  8
0
100
AcDbLine
 62
7
  6
CONTINUOUS
 10
85.2442410332
 20
-80.2097539687
 11
84.9664698435
 21
-80.1358273074
  0
LINE
  5
384
100
AcDbEntity
  8
SMUSSO
100
AcDbLine
 62
7
  6
CONTINUOUS
 10
87.8664698435
 20
-118.7
 11
87.3664698435
 21
-118.2
  0
LINE
  5
385
100
AcDbEntity
  8
0
100
AcDbLine
 62
7
  6
CONTINUOUS
 10
85.4672889767
 20
98.1508191332
 11
84.9664698435
 21
97.65
  0
LINE
  5
386
100
AcDbEntity
  8
0
100
AcDbLine
 62
7
  6
CONTINUOUS
 10
85.6414698435
 20
96.2
 11
85.4914698435
 21
96.05
  0
LINE
  5
387
100
AcDbEntity
  8
0
100
AcDbLine
 62
7
  6
CONTINUOUS
 10
86.1414698435
 20
96.2
 11
85.9914698435
 21
96.05
  0
LINE
  5
388
100
AcDbEntity
  8
0
100
AcDbLine
 62
7
  6
CONTINUOUS
 10
85.2442410332
 20
-80.7902460313
 11
84.9664698435
 21
-80.8641726926
  0
LINE
  5
389
100
AcDbEntity
  8
ASSI
100
AcDbLine
 62
7
  6
CONTINUOUS
 10
85.4672889767
 20
-98.1508191332
 11
84.9664698435
 21
-97.65
  0
LINE
  5
38A
100
AcDbEntity
  8
ASSI
100
AcDbLine
 62
7
  6
CONTINUOUS
 10
85.6414698435
 20
-96.2
 11
85.4914698435
 21
-96.05
  0
LINE
  5
38B
100
AcDbEntity
  8
ASSI
100
AcDbLine
 62
7
  6
CONTINUOUS
 10
86.1414698435
 20
-96.2
 11
85.9914698435
 21
-96.05
  0
LINE
  5
38C
100
AcDbEntity
  8
0
100
AcDbLine
 62
7
  6
CONTINUOUS
 10
85.1560026522
 20
-62.7599329936
 11
86.3664698435
 21
-62.823370891
  0
LINE
  5
38D
100
AcDbEntity
  8
0
100
AcDbLine
 62
7
  6
CONTINUOUS
 10
85.2442410332
 20
-61.7902460313
 11
84.9664698435
 21
-61.8641726926
  0
LINE
  5
38E
100
AcDbEntity
  8
0
100
AcDbLine
 62
7
  6
CONTINUOUS
 10
85.2442410332
 20
-58.2902460313
 11
84.9664698435
 21
-58.3641726926
  0
LINE
  5
38F
100
AcDbEntity
  8
0
100
AcDbLine
 62
7
  6
CONTINUOUS
 10
85.1560026522
 20
-56.7400670064
 11
86.3664698435
 21
-56.676629109
  0
LINE
  5
390
100
AcDbEntity
  8
0
100
AcDbLine
 62
7
  6
CONTINUOUS
 10
84.9664698435
 20
-57.3
 11
86.3664698435
 21
-57.2966262464
  0
LINE
  5
391
100
AcDbEntity
  8
0
100
AcDbLine
 62
253
  6
CONTINUOUS
 10
85.2442410332
 20
-61.2097539687
 11
86.3664698435
 21
-61.2078620477
  0
LINE
  5
392
100
AcDbEntity
  8
0
100
AcDbLine
 62
7
  6
CONTINUOUS
 10
84.9664698435
 20
-60.9830127019
 11
86.3664698435
 21
-60.980830266
  0
LINE
  5
393
100
AcDbEntity
  8
0
100
AcDbLine
 62
7
  6
CONTINUOUS
 10
84.9664698435
 20
-60.55
 11
86.3664698435
 21
-60.5478175641
  0
LINE
  5
394
100
AcDbEntity
  8
0
100
AcDbLine
 62
253
  6
CONTINUOUS
 10
85.2442410332
 20
-57.7097539687
 11
86.3664698435
 21
-57.7078620477
  0
LINE
  5
395
100
AcDbEntity
  8
0
100
AcDbLine
 62
7
  6
CONTINUOUS
 10
84.9664698435
 20
-61.0554425497
 11
86.3664698435
 21
-61.0550953261
  0
LINE
  5
396
100
AcDbEntity
  8
0
100
AcDbLine
 62
7
  6
CONTINUOUS
 10
84.9664698435
 20
-57.5554425497
 11
86.3664698435
 21
-57.5550953261
  0
LINE
  5
397
100
AcDbEntity
  8
0
100
AcDbLine
 62
7
  6
CONTINUOUS
 10
84.9664698435
 20
-61.9445574503
 11
86.3664698435
 21
-61.9449046739
  0
LINE
  5
398
100
AcDbEntity
  8
0
100
AcDbLine
 62
7
  6
CONTINUOUS
 10
84.9664698435
 20
-58.4445574503
 11
86.3664698435
 21
-58.4449046739
  0
LINE
  5
399
100
AcDbEntity
  8
0
100
AcDbLine
 62
7
  6
CONTINUOUS
 10
84.9664698435
 20
-58.95
 11
86.3664698435
 21
-58.9521824359
  0
LINE
  5
39A
100
AcDbEntity
  8
0
100
AcDbLine
 62
7
  6
CONTINUOUS
 10
84.9664698435
 20
-58.5169872981
 11
86.3664698435
 21
-58.519169734
  0
LINE
  5
39B
100
AcDbEntity
  8
0
100
AcDbLine
 62
253
  6
CONTINUOUS
 10
85.2442410332
 20
-61.7902460313
 11
86.3664698435
 21
-61.7921379523
  0
LINE
  5
39C
100
AcDbEntity
  8
0
100
AcDbLine
 62
253
  6
CONTINUOUS
 10
85.2442410332
 20
-58.2902460313
 11
86.3664698435
 21
-58.2921379523
  0
LINE
  5
39D
100
AcDbEntity
  8
0
100
AcDbLine
 62
7
  6
CONTINUOUS
 10
84.9664698435
 20
-62.2
 11
86.3664698435
 21
-62.2033737536
  0
LINE
  5
39E
100
AcDbEntity
  8
0
100
AcDbLine
 62
7
  6
CONTINUOUS
 10
85.2442410332
 20
-61.2097539687
 11
84.9664698435
 21
-61.1358273074
  0
LINE
  5
39F
100
AcDbEntity
  8
0
100
AcDbLine
 62
7
  6
CONTINUOUS
 10
85.2442410332
 20
-57.7097539687
 11
84.9664698435
 21
-57.6358273074
  0
LINE
  5
3A0
100
AcDbEntity
  8
ASSI
100
AcDbLine
 62
7
  6
CONTINUOUS
 10
84.9664698435
 20
-44.65
 11
86.3664698435
 21
-44.6418550383
  0
LINE
  5
3A1
100
AcDbEntity
  8
ASSI
100
AcDbLine
 62
7
  6
CONTINUOUS
 10
85.4658590568
 20
-43.8491284005
 11
86.3664698435
 21
-43.8475565366
  0
LINE
  5
3A2
100
AcDbEntity
  8
ASSI
100
AcDbLine
 62
253
  6
CONTINUOUS
 10
85.2442410332
 20
-44.0722288103
 11
86.3664698435
 21
-44.0717218716
  0
LINE
  5
3A3
100
AcDbEntity
  8
0
100
AcDbLine
 62
7
  6
CONTINUOUS
 10
84.9932647627
 20
-45.7
 11
86.3664698435
 21
-45.7
  0
LINE
  5
3A4
100
AcDbEntity
  8
RACCORDO
100
AcDbLine
 62
253
  6
CONTINUOUS
 10
94.2717055654
 20
-45.4410041804
 11
94.5664698435
 21
-45.4410041791
  0
LINE
  5
3A5
100
AcDbEntity
  8
RACCORDO
100
AcDbLine
 62
253
  6
CONTINUOUS
 10
94.2717055654
 20
-45.4410041791
 11
92.3164698435
 21
-45.4068754126
  0
LINE
  5
3A6
100
AcDbEntity
  8
RACCORDO
100
AcDbLine
 62
7
  6
CONTINUOUS
 10
94.2717055654
 20
-44.7411107924
 11
92.3164698435
 21
-44.706982026
  0
LINE
  5
3A7
100
AcDbEntity
  8
ASSI
100
AcDbLine
 62
7
  6
CONTINUOUS
 10
85.1560026522
 20
-45.2083735833
 11
86.3664698435
 21
-45.2618521756
  0
LWPOLYLINE
  5
3A8
100
AcDbEntity
  8
0
100
AcDbPolyline
 62
7
  6
CONTINUOUS
 90
3
 70
0
 43
0.3500000006
 10
98.958083313
 20
137.7357119751
 10
98.8866521301
 20
137.5214274902
 10
98.7437988281
 20
137.2357208862
  0
LWPOLYLINE
  5
3A9
100
AcDbEntity
  8
0
100
AcDbPolyline
 62
7
  6
CONTINUOUS
 90
3
 70
0
 43
0.3500000006
 10
99.5386236877
 20
127.7357179871
 10
99.4672015686
 20
127.5214244385
 10
99.3243392029
 20
127.2357178345
  0
LINE
  5
3AA
100
AcDbEntity
  8
SUPERFICI
100
AcDbLine
 62
7
  6
CONTINUOUS
 10
85.1560026522
 20
-25.7916264167
 11
86.3664698435
 21
-25.7381478244
  0
LINE
  5
3AB
100
AcDbEntity
  8
RACCORDO
100
AcDbLine
 62
7
  6
CONTINUOUS
 10
94.2717055654
 20
-26.2588892076
 11
92.3164698435
 21
-26.293017974
  0
LINE
  5
3AC
100
AcDbEntity
  8
RACCORDO
100
AcDbLine
 62
253
  6
CONTINUOUS
 10
94.2717055654
 20
-25.5589958209
 11
92.3164698435
 21
-25.5931245874
  0
LINE
  5
3AD
100
AcDbEntity
  8
RACCORDO
100
AcDbLine
 62
253
  6
CONTINUOUS
 10
94.2717055654
 20
-25.558995819
 11
94.5664698435
 21
-25.5589958209
  0
LINE
  5
3AE
100
AcDbEntity
  8
0
100
AcDbLine
 62
7
  6
CONTINUOUS
 10
84.9932647627
 20
-25.3
 11
86.3664698435
 21
-25.3
  0
LINE
  5
3AF
100
AcDbEntity
  8
SUPERFICI
100
AcDbLine
 62
253
  6
CONTINUOUS
 10
85.2442410332
 20
-26.9277711897
 11
86.3664698435
 21
-26.9282781284
  0
LINE
  5
3B0
100
AcDbEntity
  8
SUPERFICI
100
AcDbLine
 62
7
  6
CONTINUOUS
 10
85.4658590568
 20
-27.1508715995
 11
86.3664698435
 21
-27.1524434634
  0
LINE
  5
3B1
100
AcDbEntity
  8
SUPERFICI
100
AcDbLine
 62
7
  6
CONTINUOUS
 10
84.9664698435
 20
-26.35
 11
86.3664698435
 21
-26.3581449617
  0
LINE
  5
3B2
100
AcDbEntity
  8
SUPERFICI
100
AcDbLine
 62
7
  6
CONTINUOUS
 10
84.9664698435
 20
26.65
 11
85.4672889767
 21
27.1508191332
  0
LINE
  5
3B3
100
AcDbEntity
  8
SUPERFICI
100
AcDbLine
 62
7
  6
CONTINUOUS
 10
85.4672889767
 20
-27.1508191332
 11
84.9664698435
 21
-26.65
  0
LINE
  5
3B4
100
AcDbEntity
  8
SUPERFICI
100
AcDbLine
 62
7
  6
CONTINUOUS
 10
85.2442410332
 20
-13.2902460313
 11
84.9664698435
 21
-13.3641726926
  0
LINE
  5
3B5
100
AcDbEntity
  8
SUPERFICI
100
AcDbLine
 62
7
  6
CONTINUOUS
 10
85.2442410332
 20
-9.7902460313
 11
84.9664698435
 21
-9.8641726926
  0
LINE
  5
3B6
100
AcDbEntity
  8
SUPERFICI
100
AcDbLine
 62
7
  6
CONTINUOUS
 10
85.1560026522
 20
-8.2400670064
 11
86.3664698435
 21
-8.176629109
  0
LINE
  5
3B7
100
AcDbEntity
  8
SUPERFICI
100
AcDbLine
 62
7
  6
CONTINUOUS
 10
84.9664698435
 20
-8.8
 11
86.3664698435
 21
-8.7966262464
  0
LINE
  5
3B8
100
AcDbEntity
  8
SUPERFICI
100
AcDbLine
 62
253
  6
CONTINUOUS
 10
85.2442410332
 20
-12.7097539687
 11
86.3664698435
 21
-12.7078620477
  0
LINE
  5
3B9
100
AcDbEntity
  8
SUPERFICI
100
AcDbLine
 62
7
  6
CONTINUOUS
 10
84.9664698435
 20
-12.4830127019
 11
86.3664698435
 21
-12.480830266
  0
LINE
  5
3BA
100
AcDbEntity
  8
SUPERFICI
100
AcDbLine
 62
7
  6
CONTINUOUS
 10
84.9664698435
 20
-12.05
 11
86.3664698435
 21
-12.0478175641
  0
LINE
  5
3BB
100
AcDbEntity
  8
SUPERFICI
100
AcDbLine
 62
253
  6
CONTINUOUS
 10
85.2442410332
 20
-9.2097539687
 11
86.3664698435
 21
-9.2078620477
  0
LINE
  5
3BC
100
AcDbEntity
  8
SUPERFICI
100
AcDbLine
 62
7
  6
CONTINUOUS
 10
84.9664698435
 20
-12.5554425497
 11
86.3664698435
 21
-12.5550953261
  0
LINE
  5
3BD
100
AcDbEntity
  8
SUPERFICI
100
AcDbLine
 62
7
  6
CONTINUOUS
 10
84.9664698435
 20
-9.0554425497
 11
86.3664698435
 21
-9.0550953261
  0
LINE
  5
3BE
100
AcDbEntity
  8
SUPERFICI
100
AcDbLine
 62
7
  6
CONTINUOUS
 10
84.9664698435
 20
-13.4445574503
 11
86.3664698435
 21
-13.4449046739
  0
LINE
  5
3BF
100
AcDbEntity
  8
SUPERFICI
100
AcDbLine
 62
7
  6
CONTINUOUS
 10
84.9664698435
 20
-9.9445574503
 11
86.3664698435
 21
-9.9449046739
  0
LINE
  5
3C0
100
AcDbEntity
  8
SUPERFICI
100
AcDbLine
 62
7
  6
CONTINUOUS
 10
84.9664698435
 20
-10.45
 11
86.3664698435
 21
-10.4521824359
  0
LINE
  5
3C1
100
AcDbEntity
  8
SUPERFICI
100
AcDbLine
 62
7
  6
CONTINUOUS
 10
84.9664698435
 20
-10.0169872981
 11
86.3664698435
 21
-10.019169734
  0
LINE
  5
3C2
100
AcDbEntity
  8
SUPERFICI
100
AcDbLine
 62
253
  6
CONTINUOUS
 10
85.2442410332
 20
-13.2902460313
 11
86.3664698435
 21
-13.2921379523
  0
LINE
  5
3C3
100
AcDbEntity
  8
SUPERFICI
100
AcDbLine
 62
253
  6
CONTINUOUS
 10
85.2442410332
 20
-9.7902460313
 11
86.3664698435
 21
-9.7921379523
  0
LINE
  5
3C4
100
AcDbEntity
  8
SUPERFICI
100
AcDbLine
 62
7
  6
CONTINUOUS
 10
84.9664698435
 20
-13.7
 11
86.3664698435
 21
-13.7033737536
  0
LINE
  5
3C5
100
AcDbEntity
  8
SUPERFICI
100
AcDbLine
 62
7
  6
CONTINUOUS
 10
85.1560026522
 20
-14.2599329936
 11
86.3664698435
 21
-14.323370891
  0
LINE
  5
3C6
100
AcDbEntity
  8
SUPERFICI
100
AcDbLine
 62
7
  6
CONTINUOUS
 10
85.2442410332
 20
-12.7097539687
 11
84.9664698435
 21
-12.6358273074
  0
LINE
  5
3C7
100
AcDbEntity
  8
SUPERFICI
100
AcDbLine
 62
7
  6
CONTINUOUS
 10
85.2442410332
 20
-9.2097539687
 11
84.9664698435
 21
-9.1358273074
  0
LINE
  5
3C8
100
AcDbEntity
  8
SUPERFICI
100
AcDbLine
 62
7
  6
CONTINUOUS
 10
84.9664698435
 20
-25.4
 11
84.9664698435
 21
-26.65
  0
LINE
  5
3C9
100
AcDbEntity
  8
SUPERFICI
100
AcDbLine
 62
7
  6
CONTINUOUS
 10
84.9664698435
 20
-14.0602070867
 11
84.9664698435
 21
-8.4397929133
  0
LINE
  5
3CA
100
AcDbEntity
  8
ASSI
100
AcDbLine
 62
7
  6
CONTINUOUS
 10
84.9664698435
 20
-44.35
 11
84.9664698435
 21
-45.6
  0
LINE
  5
3CB
100
AcDbEntity
  8
SUPERFICI
100
AcDbLine
 62
7
  6
CONTINUOUS
 10
84.9664698435
 20
8.4397929133
 11
84.9664698435
 21
14.0602070867
  0
LINE
  5
3CC
100
AcDbEntity
  8
0
100
AcDbLine
 62
7
  6
CONTINUOUS
 10
84.9664698435
 20
-56.9397929133
 11
84.9664698435
 21
-62.5602070867
  0
LINE
  5
3CD
100
AcDbEntity
  8
SUPERFICI
100
AcDbLine
 62
7
  6
CONTINUOUS
 10
84.9664698435
 20
25.4
 11
84.9664698435
 21
26.65
  0
LINE
  5
3CE
100
AcDbEntity
  8
0
100
AcDbLine
 62
7
  6
CONTINUOUS
 10
84.9664698435
 20
-79.4397929133
 11
84.9664698435
 21
-85.0602070867
  0
LINE
  5
3CF
100
AcDbEntity
  8
0
100
AcDbLine
 62
7
  6
CONTINUOUS
 10
84.9664698435
 20
44.35
 11
84.9664698435
 21
45.6
  0
LINE
  5
3D0
100
AcDbEntity
  8
ASSI
100
AcDbLine
 62
7
  6
CONTINUOUS
 10
84.9664698435
 20
-96.4
 11
84.9664698435
 21
-97.65
  0
LINE
  5
3D1
100
AcDbEntity
  8
0
100
AcDbLine
 62
7
  6
CONTINUOUS
 10
84.9664698435
 20
56.9397929133
 11
84.9664698435
 21
62.5602070867
  0
LINE
  5
3D2
100
AcDbEntity
  8
0
100
AcDbLine
 62
7
  6
CONTINUOUS
 10
84.9664698435
 20
79.4397929133
 11
84.9664698435
 21
85.0602070867
  0
LINE
  5
3D3
100
AcDbEntity
  8
0
100
AcDbLine
 62
7
  6
CONTINUOUS
 10
84.9664698435
 20
96.4
 11
84.9664698435
 21
97.65
  0
LINE
  5
3D4
100
AcDbEntity
  8
0
100
AcDbLine
 62
253
  6
CONTINUOUS
 10
85.1560026522
 20
96.7916264167
 11
85.1560026522
 21
96.200274093
  0
LINE
  5
3D5
100
AcDbEntity
  8
ASSI
100
AcDbLine
 62
253
  6
CONTINUOUS
 10
85.1560026522
 20
-96.7916264167
 11
85.1560026522
 21
-96.200274093
  0
LINE
  5
3D6
100
AcDbEntity
  8
0
100
AcDbLine
 62
253
  6
CONTINUOUS
 10
85.1560026522
 20
45.7
 11
85.1560026522
 21
45.2083735833
  0
LINE
  5
3D7
100
AcDbEntity
  8
0
100
AcDbLine
 62
253
  6
CONTINUOUS
 10
85.1560026522
 20
-45.7
 11
85.1560026522
 21
-45.2083735833
  0
LINE
  5
3D8
100
AcDbEntity
  8
0
100
AcDbLine
 62
253
  6
CONTINUOUS
 10
85.1560026522
 20
-25.7916264167
 11
85.1560026522
 21
-25.3
  0
LINE
  5
3D9
100
AcDbEntity
  8
SUPERFICI
100
AcDbLine
 62
253
  6
CONTINUOUS
 10
85.1560026522
 20
25.3
 11
85.1560026522
 21
25.7916264167
  0
LINE
  5
3DA
100
AcDbEntity
  8
RACCORDO
100
AcDbLine
 62
7
  6
CONTINUOUS
 10
86.3664698435
 20
-116.6598533507
 11
86.3664698435
 21
116.6598533507
  0
LINE
  5
3DB
100
AcDbEntity
  8
SMUSSO
100
AcDbLine
 62
7
  6
CONTINUOUS
 10
87.3664698435
 20
-118.2
 11
87.3664698435
 21
118.2
  0
LINE
  5
3DC
100
AcDbEntity
  8
SMUSSO
100
AcDbLine
 62
7
  6
CONTINUOUS
 10
87.8664698435
 20
-118.7
 11
87.8664698435
 21
118.7
  0
LINE
  5
3DD
100
AcDbEntity
  8
SMUSSO
100
AcDbLine
 62
7
  6
CONTINUOUS
 10
91.3164698435
 20
118.7
 11
91.3164698435
 21
-118.7
  0
LINE
  5
3DE
100
AcDbEntity
  8
SMUSSO
100
AcDbLine
 62
7
  6
CONTINUOUS
 10
92.3164698435
 20
117.7
 11
92.3164698435
 21
-117.7
  0
LINE
  5
3DF
100
AcDbEntity
  8
RACCORDO
100
AcDbLine
 62
253
  6
CONTINUOUS
 10
94.2717055654
 20
96.5589958209
 11
94.2717055654
 21
45.4410041791
  0
LINE
  5
3E0
100
AcDbEntity
  8
RACCORDO
100
AcDbLine
 62
253
  6
CONTINUOUS
 10
94.2717055654
 20
25.5589958209
 11
94.2717055654
 21
-25.5589958209
  0
LINE
  5
3E1
100
AcDbEntity
  8
RACCORDO
100
AcDbLine
 62
253
  6
CONTINUOUS
 10
94.2717055654
 20
-45.4410041791
 11
94.2717055654
 21
-96.5589958209
  0
LINE
  5
3E2
100
AcDbEntity
  8
RACCORDO
100
AcDbLine
 62
7
  6
CONTINUOUS
 10
94.5664698435
 20
-45.041065101
 11
94.5664698435
 21
-96.958934899
  0
LINE
  5
3E3
100
AcDbEntity
  8
RACCORDO
100
AcDbLine
 62
7
  6
CONTINUOUS
 10
94.5664698435
 20
-25.958934899
 11
94.5664698435
 21
25.958934899
  0
LINE
  5
3E4
100
AcDbEntity
  8
RACCORDO
100
AcDbLine
 62
7
  6
CONTINUOUS
 10
94.5664698435
 20
45.041065101
 11
94.5664698435
 21
96.958934899
  0
LWPOLYLINE
  5
3E5
100
AcDbEntity
  8
0
100
AcDbPolyline
 62
7
  6
CONTINUOUS
 90
4
 70
0
 43
0.3500000006
 10
96.4672006531
 20
127.8785712891
 10
96.4672006531
 20
128.7357182922
 10
96.8957696228
 20
129.164287262
 10
97.5386230774
 20
129.164287262
  0
LINE
  5
3E6
100
AcDbEntity
  8
SUPERFICI
100
AcDbLine
 62
7
  6
CONTINUOUS
 10
84.9664698435
 20
8.8
 11
86.3664698435
 21
8.7966262464
  0
LINE
  5
3E7
100
AcDbEntity
  8
SUPERFICI
100
AcDbLine
 62
7
  6
CONTINUOUS
 10
85.1560026522
 20
8.2400670064
 11
86.3664698435
 21
8.176629109
  0
LINE
  5
3E8
100
AcDbEntity
  8
SUPERFICI
100
AcDbLine
 62
7
  6
CONTINUOUS
 10
85.2442410332
 20
9.7902460313
 11
84.9664698435
 21
9.8641726926
  0
LINE
  5
3E9
100
AcDbEntity
  8
SUPERFICI
100
AcDbLine
 62
7
  6
CONTINUOUS
 10
85.2442410332
 20
9.2097539687
 11
84.9664698435
 21
9.1358273074
  0
LINE
  5
3EA
100
AcDbEntity
  8
SUPERFICI
100
AcDbLine
 62
7
  6
CONTINUOUS
 10
85.2442410332
 20
12.7097539687
 11
84.9664698435
 21
12.6358273074
  0
LINE
  5
3EB
100
AcDbEntity
  8
SUPERFICI
100
AcDbLine
 62
7
  6
CONTINUOUS
 10
85.1560026522
 20
14.2599329936
 11
86.3664698435
 21
14.323370891
  0
LINE
  5
3EC
100
AcDbEntity
  8
SUPERFICI
100
AcDbLine
 62
7
  6
CONTINUOUS
 10
84.9664698435
 20
13.7
 11
86.3664698435
 21
13.7033737536
  0
LINE
  5
3ED
100
AcDbEntity
  8
SUPERFICI
100
AcDbLine
 62
253
  6
CONTINUOUS
 10
85.2442410332
 20
9.7902460313
 11
86.3664698435
 21
9.7921379523
  0
LINE
  5
3EE
100
AcDbEntity
  8
SUPERFICI
100
AcDbLine
 62
7
  6
CONTINUOUS
 10
84.9664698435
 20
10.0169872981
 11
86.3664698435
 21
10.019169734
  0
LINE
  5
3EF
100
AcDbEntity
  8
SUPERFICI
100
AcDbLine
 62
7
  6
CONTINUOUS
 10
84.9664698435
 20
10.45
 11
86.3664698435
 21
10.4521824359
  0
LINE
  5
3F0
100
AcDbEntity
  8
SUPERFICI
100
AcDbLine
 62
253
  6
CONTINUOUS
 10
85.2442410332
 20
13.2902460313
 11
86.3664698435
 21
13.2921379523
  0
LINE
  5
3F1
100
AcDbEntity
  8
SUPERFICI
100
AcDbLine
 62
7
  6
CONTINUOUS
 10
84.9664698435
 20
9.9445574503
 11
86.3664698435
 21
9.9449046739
  0
LINE
  5
3F2
100
AcDbEntity
  8
SUPERFICI
100
AcDbLine
 62
7
  6
CONTINUOUS
 10
84.9664698435
 20
13.4445574503
 11
86.3664698435
 21
13.4449046739
  0
LINE
  5
3F3
100
AcDbEntity
  8
SUPERFICI
100
AcDbLine
 62
7
  6
CONTINUOUS
 10
84.9664698435
 20
9.0554425497
 11
86.3664698435
 21
9.0550953261
  0
LINE
  5
3F4
100
AcDbEntity
  8
SUPERFICI
100
AcDbLine
 62
7
  6
CONTINUOUS
 10
84.9664698435
 20
12.5554425497
 11
86.3664698435
 21
12.5550953261
  0
LINE
  5
3F5
100
AcDbEntity
  8
SUPERFICI
100
AcDbLine
 62
7
  6
CONTINUOUS
 10
84.9664698435
 20
12.05
 11
86.3664698435
 21
12.0478175641
  0
LINE
  5
3F6
100
AcDbEntity
  8
SUPERFICI
100
AcDbLine
 62
7
  6
CONTINUOUS
 10
84.9664698435
 20
12.4830127019
 11
86.3664698435
 21
12.480830266
  0
LINE
  5
3F7
100
AcDbEntity
  8
SUPERFICI
100
AcDbLine
 62
253
  6
CONTINUOUS
 10
85.2442410332
 20
9.2097539687
 11
86.3664698435
 21
9.2078620477
  0
LINE
  5
3F8
100
AcDbEntity
  8
SUPERFICI
100
AcDbLine
 62
253
  6
CONTINUOUS
 10
85.2442410332
 20
12.7097539687
 11
86.3664698435
 21
12.7078620477
  0
LINE
  5
3F9
100
AcDbEntity
  8
SUPERFICI
100
AcDbLine
 62
7
  6
CONTINUOUS
 10
85.2442410332
 20
13.2902460313
 11
84.9664698435
 21
13.3641726926
  0
LINE
  5
3FA
100
AcDbEntity
  8
ASSI
100
AcDbLine
 62
7
  6
CONTINUOUS
 10
84.9664698435
 20
-44.35
 11
85.4672889767
 21
-43.8491808668
  0
LINE
  5
3FB
100
AcDbEntity
  8
SUPERFICI
100
AcDbLine
 62
7
  6
CONTINUOUS
 10
84.9664698435
 20
26.35
 11
86.3664698435
 21
26.3581449617
  0
LINE
  5
3FC
100
AcDbEntity
  8
SUPERFICI
100
AcDbLine
 62
7
  6
CONTINUOUS
 10
85.4658590568
 20
27.1508715995
 11
86.3664698435
 21
27.1524434634
  0
LINE
  5
3FD
100
AcDbEntity
  8
SUPERFICI
100
AcDbLine
 62
253
  6
CONTINUOUS
 10
85.2442410332
 20
26.9277711897
 11
86.3664698435
 21
26.9282781284
  0
LINE
  5
3FE
100
AcDbEntity
  8
SUPERFICI
100
AcDbLine
 62
7
  6
CONTINUOUS
 10
84.9932647627
 20
25.3
 11
86.3664698435
 21
25.3
  0
LINE
  5
3FF
100
AcDbEntity
  8
RACCORDO
100
AcDbLine
 62
253
  6
CONTINUOUS
 10
94.2717055654
 20
25.5589958196
 11
94.5664698435
 21
25.5589958209
  0
LINE
  5
400
100
AcDbEntity
  8
RACCORDO
100
AcDbLine
 62
253
  6
CONTINUOUS
 10
94.2717055654
 20
25.5589958209
 11
92.3164698435
 21
25.5931245874
  0
LINE
  5
401
100
AcDbEntity
  8
RACCORDO
100
AcDbLine
 62
7
  6
CONTINUOUS
 10
94.2717055654
 20
26.2588892076
 11
92.3164698435
 21
26.293017974
  0
LINE
  5
402
100
AcDbEntity
  8
SUPERFICI
100
AcDbLine
 62
7
  6
CONTINUOUS
 10
85.1560026522
 20
25.7916264167
 11
86.3664698435
 21
25.7381478244
  0
LINE
  5
403
100
AcDbEntity
  8
0
100
AcDbLine
 62
7
  6
CONTINUOUS
 10
84.9664698435
 20
44.35
 11
85.4672889767
 21
43.8491808668
  0
LINE
  5
404
100
AcDbEntity
  8
0
100
AcDbLine
 62
7
  6
CONTINUOUS
 10
85.1560026522
 20
45.2083735833
 11
86.3664698435
 21
45.2618521756
  0
LINE
  5
405
100
AcDbEntity
  8
RACCORDO
100
AcDbLine
 62
7
  6
CONTINUOUS
 10
94.2717055654
 20
44.7411107924
 11
92.3164698435
 21
44.706982026
  0
LINE
  5
406
100
AcDbEntity
  8
RACCORDO
100
AcDbLine
 62
253
  6
CONTINUOUS
 10
94.2717055654
 20
45.4410041791
 11
92.3164698435
 21
45.4068754126
  0
LINE
  5
407
100
AcDbEntity
  8
RACCORDO
100
AcDbLine
 62
253
  6
CONTINUOUS
 10
94.2717055654
 20
45.441004181
 11
94.5664698435
 21
45.4410041791
  0
LINE
  5
408
100
AcDbEntity
  8
0
100
AcDbLine
 62
7
  6
CONTINUOUS
 10
84.9932647627
 20
45.7
 11
86.3664698435
 21
45.7
  0
LINE
  5
409
100
AcDbEntity
  8
0
100
AcDbLine
 62
253
  6
CONTINUOUS
 10
85.2442410332
 20
44.0722288103
 11
86.3664698435
 21
44.0717218716
  0
LINE
  5
40A
100
AcDbEntity
  8
0
100
AcDbLine
 62
7
  6
CONTINUOUS
 10
86.3664698435
 20
43.8475565366
 11
85.4658590568
 21
43.8491284005
  0
LINE
  5
40B
100
AcDbEntity
  8
0
100
AcDbLine
 62
7
  6
CONTINUOUS
 10
84.9664698435
 20
44.65
 11
86.3664698435
 21
44.6418550383
  0
LINE
  5
40C
100
AcDbEntity
  8
0
100
AcDbLine
 62
7
  6
CONTINUOUS
 10
85.1560026522
 20
56.7400670064
 11
86.3664698435
 21
56.676629109
  0
LINE
  5
40D
100
AcDbEntity
  8
0
100
AcDbLine
 62
7
  6
CONTINUOUS
 10
85.2442410332
 20
58.2902460313
 11
84.9664698435
 21
58.3641726926
  0
LINE
  5
40E
100
AcDbEntity
  8
0
100
AcDbLine
 62
7
  6
CONTINUOUS
 10
85.2442410332
 20
57.7097539687
 11
84.9664698435
 21
57.6358273074
  0
LINE
  5
40F
100
AcDbEntity
  8
0
100
AcDbLine
 62
7
  6
CONTINUOUS
 10
85.2442410332
 20
61.2097539687
 11
84.9664698435
 21
61.1358273074
  0
LINE
  5
410
100
AcDbEntity
  8
0
100
AcDbLine
 62
7
  6
CONTINUOUS
 10
85.1560026522
 20
62.7599329936
 11
86.3664698435
 21
62.823370891
  0
LINE
  5
411
100
AcDbEntity
  8
0
100
AcDbLine
 62
7
  6
CONTINUOUS
 10
84.9664698435
 20
62.2
 11
86.3664698435
 21
62.2033737536
  0
LINE
  5
412
100
AcDbEntity
  8
0
100
AcDbLine
 62
253
  6
CONTINUOUS
 10
85.2442410332
 20
58.2902460313
 11
86.3664698435
 21
58.2921379523
  0
LINE
  5
413
100
AcDbEntity
  8
0
100
AcDbLine
 62
7
  6
CONTINUOUS
 10
84.9664698435
 20
58.5169872981
 11
86.3664698435
 21
58.519169734
  0
LINE
  5
414
100
AcDbEntity
  8
0
100
AcDbLine
 62
7
  6
CONTINUOUS
 10
84.9664698435
 20
58.95
 11
86.3664698435
 21
58.9521824359
  0
LINE
  5
415
100
AcDbEntity
  8
0
100
AcDbLine
 62
253
  6
CONTINUOUS
 10
85.2442410332
 20
61.7902460313
 11
86.3664698435
 21
61.7921379523
  0
LINE
  5
416
100
AcDbEntity
  8
0
100
AcDbLine
 62
7
  6
CONTINUOUS
 10
84.9664698435
 20
58.4445574503
 11
86.3664698435
 21
58.4449046739
  0
LINE
  5
417
100
AcDbEntity
  8
0
100
AcDbLine
 62
7
  6
CONTINUOUS
 10
84.9664698435
 20
61.9445574503
 11
86.3664698435
 21
61.9449046739
  0
LINE
  5
418
100
AcDbEntity
  8
0
100
AcDbLine
 62
7
  6
CONTINUOUS
 10
84.9664698435
 20
57.5554425497
 11
86.3664698435
 21
57.5550953261
  0
LINE
  5
419
100
AcDbEntity
  8
0
100
AcDbLine
 62
7
  6
CONTINUOUS
 10
84.9664698435
 20
61.0554425497
 11
86.3664698435
 21
61.0550953261
  0
LINE
  5
41A
100
AcDbEntity
  8
0
100
AcDbLine
 62
7
  6
CONTINUOUS
 10
84.9664698435
 20
60.55
 11
86.3664698435
 21
60.5478175641
  0
LINE
  5
41B
100
AcDbEntity
  8
0
100
AcDbLine
 62
7
  6
CONTINUOUS
 10
84.9664698435
 20
60.9830127019
 11
86.3664698435
 21
60.980830266
  0
LINE
  5
41C
100
AcDbEntity
  8
0
100
AcDbLine
 62
253
  6
CONTINUOUS
 10
85.2442410332
 20
57.7097539687
 11
86.3664698435
 21
57.7078620477
  0
LINE
  5
41D
100
AcDbEntity
  8
0
100
AcDbLine
 62
253
  6
CONTINUOUS
 10
85.2442410332
 20
61.2097539687
 11
86.3664698435
 21
61.2078620477
  0
LINE
  5
41E
100
AcDbEntity
  8
0
100
AcDbLine
 62
7
  6
CONTINUOUS
 10
84.9664698435
 20
57.3
 11
86.3664698435
 21
57.2966262464
  0
LINE
  5
41F
100
AcDbEntity
  8
0
100
AcDbLine
 62
7
  6
CONTINUOUS
 10
85.2442410332
 20
61.7902460313
 11
84.9664698435
 21
61.8641726926
  0
LINE
  5
420
100
AcDbEntity
  8
ASSI
100
AcDbLine
 62
7
  6
CONTINUOUS
 10
85.3414698435
 20
-96.05
 11
85.1914698435
 21
-96.2
  0
LINE
  5
421
100
AcDbEntity
  8
ASSI
100
AcDbLine
 62
7
  6
CONTINUOUS
 10
85.8414698435
 20
-96.05
 11
85.6914698435
 21
-96.2
  0
LINE
  5
422
100
AcDbEntity
  8
ASSI
100
AcDbLine
 62
7
  6
CONTINUOUS
 10
86.3414698435
 20
-96.05
 11
86.1914698435
 21
-96.2
  0
LINE
  5
423
100
AcDbEntity
  8
0
100
AcDbLine
 62
7
  6
CONTINUOUS
 10
85.3414698435
 20
96.05
 11
85.1914698435
 21
96.2
  0
LINE
  5
424
100
AcDbEntity
  8
0
100
AcDbLine
 62
7
  6
CONTINUOUS
 10
85.8414698435
 20
96.05
 11
85.6914698435
 21
96.2
  0
LINE
  5
425
100
AcDbEntity
  8
0
100
AcDbLine
 62
7
  6
CONTINUOUS
 10
86.3414698435
 20
96.05
 11
86.1914698435
 21
96.2
  0
LWPOLYLINE
  5
426
100
AcDbEntity
  8
0
100
AcDbPolyline
 62
7
  6
CONTINUOUS
 90
10
 70
0
 43
0.3500000006
 10
99.4672015686
 20
127.9500024719
 10
99.5386236877
 20
127.8071401062
 10
99.5386236877
 20
127.7357179871
 10
99.3957703857
 20
127.5928556213
 10
99.3243392029
 20
127.5928556213
 10
99.2529170837
 20
127.6642868042
 10
99.2529170837
 20
127.7357179871
 10
99.3243392029
 20
127.8785712891
 10
99.3957703857
 20
127.9500024719
 10
99.4672015686
 20
127.9500024719
  0
LWPOLYLINE
  5
427
100
AcDbEntity
  8
0
100
AcDbPolyline
 62
7
  6
CONTINUOUS
 90
10
 70
0
 43
0.3500000006
 10
98.8866521301
 20
137.94999646
 10
98.958083313
 20
137.8071340942
 10
98.958083313
 20
137.7357119751
 10
98.8152209473
 20
137.5928496094
 10
98.7437988281
 20
137.5928496094
 10
98.6723676453
 20
137.664289856
 10
98.6723676453
 20
137.7357119751
 10
98.7437988281
 20
137.8785743408
 10
98.8152209473
 20
137.94999646
 10
98.8866521301
 20
137.94999646
  0
LINE
  5
428
100
AcDbEntity
  8
0
100
AcDbLine
 62
7
  6
CONTINUOUS
 10
85.2442410332
 20
80.2097539687
 11
84.9664698435
 21
80.1358273074
  0
LINE
  5
429
100
AcDbEntity
  8
0
100
AcDbLine
 62
7
  6
CONTINUOUS
 10
84.9664698435
 20
80.0554425497
 11
86.3664698435
 21
80.0550953261
  0
LINE
  5
42A
100
AcDbEntity
  8
0
100
AcDbLine
 62
253
  6
CONTINUOUS
 10
85.2442410332
 20
80.2097539687
 11
86.3664698435
 21
80.2078620477
  0
LINE
  5
42B
100
AcDbEntity
  8
0
100
AcDbLine
 62
7
  6
CONTINUOUS
 10
84.9664698435
 20
79.8
 11
86.3664698435
 21
79.7966262464
  0
LINE
  5
42C
100
AcDbEntity
  8
0
100
AcDbLine
 62
7
  6
CONTINUOUS
 10
85.1560026522
 20
79.2400670064
 11
86.3664698435
 21
79.176629109
  0
LINE
  5
42D
100
AcDbEntity
  8
0
100
AcDbLine
 62
7
  6
CONTINUOUS
 10
85.2442410332
 20
80.7902460313
 11
84.9664698435
 21
80.8641726926
  0
LINE
  5
42E
100
AcDbEntity
  8
SMUSSO
100
AcDbLine
 62
7
  6
CONTINUOUS
 10
91.3164698435
 20
-118.7
 11
92.3164698435
 21
-117.7
  0
LINE
  5
42F
100
AcDbEntity
  8
0
100
AcDbLine
 62
7
  6
CONTINUOUS
 10
85.2442410332
 20
83.7097539687
 11
84.9664698435
 21
83.6358273074
  0
LINE
  5
430
100
AcDbEntity
  8
0
100
AcDbLine
 62
7
  6
CONTINUOUS
 10
85.1560026522
 20
85.2599329936
 11
86.3664698435
 21
85.323370891
  0
LINE
  5
431
100
AcDbEntity
  8
0
100
AcDbLine
 62
7
  6
CONTINUOUS
 10
84.9664698435
 20
84.7
 11
86.3664698435
 21
84.7033737536
  0
LINE
  5
432
100
AcDbEntity
  8
0
100
AcDbLine
 62
253
  6
CONTINUOUS
 10
85.2442410332
 20
80.7902460313
 11
86.3664698435
 21
80.7921379523
  0
LINE
  5
433
100
AcDbEntity
  8
0
100
AcDbLine
 62
7
  6
CONTINUOUS
 10
84.9664698435
 20
81.0169872981
 11
86.3664698435
 21
81.019169734
  0
LINE
  5
434
100
AcDbEntity
  8
0
100
AcDbLine
 62
7
  6
CONTINUOUS
 10
84.9664698435
 20
81.45
 11
86.3664698435
 21
81.4521824359
  0
LINE
  5
435
100
AcDbEntity
  8
0
100
AcDbLine
 62
253
  6
CONTINUOUS
 10
85.2442410332
 20
84.2902460313
 11
86.3664698435
 21
84.2921379523
  0
LINE
  5
436
100
AcDbEntity
  8
0
100
AcDbLine
 62
7
  6
CONTINUOUS
 10
84.9664698435
 20
80.9445574503
 11
86.3664698435
 21
80.9449046739
  0
LINE
  5
437
100
AcDbEntity
  8
0
100
AcDbLine
 62
7
  6
CONTINUOUS
 10
84.9664698435
 20
84.4445574503
 11
86.3664698435
 21
84.4449046739
  0
LINE
  5
438
100
AcDbEntity
  8
0
100
AcDbLine
 62
7
  6
CONTINUOUS
 10
84.9664698435
 20
83.5554425497
 11
86.3664698435
 21
83.5550953261
  0
LINE
  5
439
100
AcDbEntity
  8
0
100
AcDbLine
 62
7
  6
CONTINUOUS
 10
84.9664698435
 20
83.05
 11
86.3664698435
 21
83.0478175641
  0
LINE
  5
43A
100
AcDbEntity
  8
0
100
AcDbLine
 62
7
  6
CONTINUOUS
 10
84.9664698435
 20
83.4830127019
 11
86.3664698435
 21
83.480830266
  0
LINE
  5
43B
100
AcDbEntity
  8
0
100
AcDbLine
 62
253
  6
CONTINUOUS
 10
85.2442410332
 20
83.7097539687
 11
86.3664698435
 21
83.7078620477
  0
LINE
  5
43C
100
AcDbEntity
  8
0
100
AcDbLine
 62
7
  6
CONTINUOUS
 10
85.2442410332
 20
84.2902460313
 11
84.9664698435
 21
84.3641726926
  0
LINE
  5
43D
100
AcDbEntity
  8
SMUSSO
100
AcDbLine
 62
7
  6
CONTINUOUS
 10
91.3164698435
 20
118.7
 11
92.3164698435
 21
117.7
  0
LINE
  5
43E
100
AcDbEntity
  8
0
100
AcDbLine
 62
7
  6
CONTINUOUS
 10
86.3664698435
 20
96.05
 11
86.3414698435
 21
96.05
  0
LINE
  5
43F
100
AcDbEntity
  8
0
100
AcDbLine
 62
7
  6
CONTINUOUS
 10
85.9914698435
 20
96.05
 11
85.8414698435
 21
96.05
  0
LINE
  5
440
100
AcDbEntity
  8
0
100
AcDbLine
 62
7
  6
CONTINUOUS
 10
85.4914698435
 20
96.05
 11
85.3414698435
 21
96.05
  0
LINE
  5
441
100
AcDbEntity
  8
0
100
AcDbLine
 62
7
  6
CONTINUOUS
 10
84.9664698435
 20
97.35
 11
86.3664698435
 21
97.3581449617
  0
LINE
  5
442
100
AcDbEntity
  8
0
100
AcDbLine
 62
7
  6
CONTINUOUS
 10
86.3664698435
 20
98.1524434634
 11
85.4658590568
 21
98.1508715995
  0
LINE
  5
443
100
AcDbEntity
  8
0
100
AcDbLine
 62
253
  6
CONTINUOUS
 10
85.2442410332
 20
97.9277711897
 11
86.3664698435
 21
97.9282781284
  0
LINE
  5
444
100
AcDbEntity
  8
0
100
AcDbLine
 62
7
  6
CONTINUOUS
 10
85.1664698435
 20
96.2
 11
86.3664698435
 21
96.2
  0
LINE
  5
445
100
AcDbEntity
  8
RACCORDO
100
AcDbLine
 62
253
  6
CONTINUOUS
 10
94.2717055654
 20
96.5589958196
 11
94.5664698435
 21
96.5589958209
  0
LINE
  5
446
100
AcDbEntity
  8
RACCORDO
100
AcDbLine
 62
253
  6
CONTINUOUS
 10
94.2717055654
 20
96.5589958209
 11
92.3164698435
 21
96.5931245874
  0
LINE
  5
447
100
AcDbEntity
  8
RACCORDO
100
AcDbLine
 62
7
  6
CONTINUOUS
 10
94.2717055654
 20
97.2588892076
 11
92.3164698435
 21
97.293017974
  0
LINE
  5
448
100
AcDbEntity
  8
0
100
AcDbLine
 62
7
  6
CONTINUOUS
 10
85.1560026522
 20
96.7916264167
 11
86.3664698435
 21
96.7381478244
  0
LINE
  5
449
100
AcDbEntity
  8
SMUSSO
100
AcDbLine
 62
7
  6
CONTINUOUS
 10
91.3164698435
 20
-117.7
 11
92.3164698435
 21
-117.2857864376
  0
LINE
  5
44A
100
AcDbEntity
  8
RACCORDO
100
AcDbLine
 62
253
  6
CONTINUOUS
 10
86.3664698435
 20
114.6601579604
 11
87.3664698435
 21
114.6776130253
  0
LINE
  5
44B
100
AcDbEntity
  8
RACCORDO
100
AcDbLine
 62
7
  6
CONTINUOUS
 10
86.3664698435
 20
116.6598533507
 11
87.3664698435
 21
116.6773084156
  0
LINE
  5
44C
100
AcDbEntity
  8
SMUSSO
100
AcDbLine
 62
7
  6
CONTINUOUS
 10
91.3164698435
 20
117.7
 11
87.8664698435
 21
117.7
  0
LINE
  5
44D
100
AcDbEntity
  8
SMUSSO
100
AcDbLine
 62
7
  6
CONTINUOUS
 10
91.3164698435
 20
118.7
 11
87.8664698435
 21
118.7
  0
LWPOLYLINE
  5
44E
100
AcDbEntity
  8
0
100
AcDbPolyline
 62
7
  6
CONTINUOUS
 90
7
 70
0
 43
0.3500000006
 10
102.0386244507
 20
127.4500023193
 10
100.5386239929
 20
127.4500023193
 10
102.0386244507
 20
129.5928562317
 10
102.0386244507
 20
130.0214252014
 10
101.610055481
 20
130.4500032349
 10
100.9672020264
 20
130.4500032349
 10
100.5386239929
 20
129.8071407166
  0
LINE
  5
44F
100
AcDbEntity
  8
SMUSSO
100
AcDbLine
 62
7
  6
CONTINUOUS
 10
91.3164698435
 20
117.7
 11
92.3164698435
 21
117.2857864376
  0
LWPOLYLINE
  5
450
100
AcDbEntity
  8
0
100
AcDbPolyline
 62
7
  6
CONTINUOUS
 90
13
 70
0
 43
0.3500000006
 10
96.8957696228
 20
129.164287262
 10
96.6100539551
 20
129.3785717468
 10
96.6100539551
 20
130.0214252014
 10
96.8957696228
 20
130.4500032349
 10
97.5386230774
 20
130.4500032349
 10
97.8243387451
 20
130.0214252014
 10
97.8243387451
 20
129.3785717468
 10
97.5386230774
 20
129.164287262
 10
97.9672011108
 20
128.7357182922
 10
97.9672011108
 20
127.8785712891
 10
97.5386230774
 20
127.4500023193
 10
96.8957696228
 20
127.4500023193
 10
96.4672006531
 20
127.8785712891
  0
ARC
  5
451
100
AcDbEntity
  8
RACCORDO
100
AcDbCircle
 62
253
  6
CONTINUOUS
 10
-21.8552448422
 20
-48.7018310596
 40
0.7733725415
100
AcDbArc
 50
176.5057086404
 51
179.9691444198
  0
ARC
  5
452
100
AcDbEntity
  8
RACCORDO
100
AcDbCircle
 62
253
  6
CONTINUOUS
 10
-21.8678351404
 20
-22.2985562505
 40
0.7607821317
100
AcDbArc
 50
180.0021972427
 51
183.5229601635
  0
ARC
  5
453
100
AcDbEntity
  8
RACCORDO
100
AcDbCircle
 62
253
  6
CONTINUOUS
 10
-21.8678351404
 20
-93.2985562505
 40
0.7607821317
100
AcDbArc
 50
180.0021972427
 51
183.5229601635
  0
ARC
  5
454
100
AcDbEntity
  8
RACCORDO
100
AcDbCircle
 62
253
  6
CONTINUOUS
 10
-22.2986745901
 20
-49.1280472668
 40
0.7566645436
100
AcDbArc
 50
89.993248347
 51
93.5307552607
  0
ARC
  5
455
100
AcDbEntity
  8
RACCORDO
100
AcDbCircle
 62
253
  6
CONTINUOUS
 10
-22.2987170898
 20
-21.873334271
 40
0.7552830121
100
AcDbArc
 50
266.4660083201
 51
270.0099880327
  0
ARC
  5
456
100
AcDbEntity
  8
RACCORDO
100
AcDbCircle
 62
253
  6
CONTINUOUS
 10
-22.2987170898
 20
-92.873334271
 40
0.7552830121
100
AcDbArc
 50
266.46600832
 51
270.0099880327
  0
ARC
  5
457
100
AcDbEntity
  8
RACCORDO
100
AcDbCircle
 62
253
  6
CONTINUOUS
 10
-25.558903789
 20
-25.558903789
 40
0.6999862456
100
AcDbArc
 50
180.0075330702
 51
269.9924669298
  0
ARC
  5
458
100
AcDbEntity
  8
RACCORDO
100
AcDbCircle
 62
253
  6
CONTINUOUS
 10
-25.558903789
 20
-96.558903789
 40
0.6999862456
100
AcDbArc
 50
180.0075330702
 51
269.9924669298
  0
ARC
  5
459
100
AcDbEntity
  8
RACCORDO
100
AcDbCircle
 62
253
  6
CONTINUOUS
 10
-25.558903789
 20
-45.441096211
 40
0.6999862456
100
AcDbArc
 50
90.0075330702
 51
179.9924669298
  0
ARC
  5
45A
100
AcDbEntity
  8
RACCORDO
100
AcDbCircle
 62
253
  6
CONTINUOUS
 10
-22.3363738675
 20
-48.701265443
 40
0.2621659093
100
AcDbArc
 50
176.2110310274
 51
180.0325922829
  0
ARC
  5
45B
100
AcDbEntity
  8
RACCORDO
100
AcDbCircle
 62
253
  6
CONTINUOUS
 10
-22.3368970032
 20
-22.2987517118
 40
0.261642784
100
AcDbArc
 50
179.9635859053
 51
183.7927907845
  0
ARC
  5
45C
100
AcDbEntity
  8
RACCORDO
100
AcDbCircle
 62
253
  6
CONTINUOUS
 10
-22.3368970032
 20
-93.2987517118
 40
0.261642784
100
AcDbArc
 50
179.9635859053
 51
183.7927907845
  0
ARC
  5
45D
100
AcDbEntity
  8
RACCORDO
100
AcDbCircle
 62
253
  6
CONTINUOUS
 10
-22.2987615368
 20
-48.6628033834
 40
0.2613431771
100
AcDbArc
 50
89.9613901638
 51
93.794986526
  0
ARC
  5
45E
100
AcDbEntity
  8
RACCORDO
100
AcDbCircle
 62
253
  6
CONTINUOUS
 10
-22.2987648882
 20
-22.3372988177
 40
0.2612409783
100
AcDbArc
 50
266.2042633328
 51
270.0393599775
  0
ARC
  5
45F
100
AcDbEntity
  8
RACCORDO
100
AcDbCircle
 62
253
  6
CONTINUOUS
 10
-22.2987648882
 20
-93.3372988177
 40
0.2612409783
100
AcDbArc
 50
266.2042633329
 51
270.0393599774
  0
ARC
  5
460
100
AcDbEntity
  8
RACCORDO
100
AcDbCircle
 62
253
  6
CONTINUOUS
 10
-21.8552448422
 20
93.2981689404
 40
0.7733725415
100
AcDbArc
 50
176.5057086404
 51
179.9691444198
  0
ARC
  5
461
100
AcDbEntity
  8
RACCORDO
100
AcDbCircle
 62
253
  6
CONTINUOUS
 10
-21.8552448422
 20
22.2981689404
 40
0.7733725415
100
AcDbArc
 50
176.5057086404
 51
179.9691444198
  0
ARC
  5
462
100
AcDbEntity
  8
RACCORDO
100
AcDbCircle
 62
253
  6
CONTINUOUS
 10
-21.8678351404
 20
48.7014437495
 40
0.7607821317
100
AcDbArc
 50
180.0021972427
 51
183.5229601635
  0
ARC
  5
463
100
AcDbEntity
  8
RACCORDO
100
AcDbCircle
 62
253
  6
CONTINUOUS
 10
-22.2986745901
 20
92.8719527332
 40
0.7566645436
100
AcDbArc
 50
89.9932483469
 51
93.5307552607
  0
ARC
  5
464
100
AcDbEntity
  8
RACCORDO
100
AcDbCircle
 62
253
  6
CONTINUOUS
 10
-22.2986745901
 20
21.8719527332
 40
0.7566645436
100
AcDbArc
 50
89.993248347
 51
93.5307552607
  0
ARC
  5
465
100
AcDbEntity
  8
RACCORDO
100
AcDbCircle
 62
253
  6
CONTINUOUS
 10
-22.2987170898
 20
49.126665729
 40
0.7552830121
100
AcDbArc
 50
266.46600832
 51
270.0099880327
  0
ARC
  5
466
100
AcDbEntity
  8
RACCORDO
100
AcDbCircle
 62
253
  6
CONTINUOUS
 10
-25.558903789
 20
45.441096211
 40
0.6999862456
100
AcDbArc
 50
180.0075330706
 51
269.9924669294
  0
ARC
  5
467
100
AcDbEntity
  8
RACCORDO
100
AcDbCircle
 62
253
  6
CONTINUOUS
 10
-25.558903789
 20
96.558903789
 40
0.6999862456
100
AcDbArc
 50
90.0075330706
 51
179.9924669294
  0
ARC
  5
468
100
AcDbEntity
  8
RACCORDO
100
AcDbCircle
 62
253
  6
CONTINUOUS
 10
-25.558903789
 20
25.558903789
 40
0.6999862456
100
AcDbArc
 50
90.0075330702
 51
179.9924669298
  0
ARC
  5
469
100
AcDbEntity
  8
RACCORDO
100
AcDbCircle
 62
253
  6
CONTINUOUS
 10
-22.3363738675
 20
93.298734557
 40
0.2621659093
100
AcDbArc
 50
176.2110310275
 51
180.0325922828
  0
ARC
  5
46A
100
AcDbEntity
  8
RACCORDO
100
AcDbCircle
 62
253
  6
CONTINUOUS
 10
-22.3363738675
 20
22.298734557
 40
0.2621659093
100
AcDbArc
 50
176.2110310274
 51
180.0325922829
  0
ARC
  5
46B
100
AcDbEntity
  8
RACCORDO
100
AcDbCircle
 62
253
  6
CONTINUOUS
 10
-22.3368970032
 20
48.7012482882
 40
0.261642784
100
AcDbArc
 50
179.9635859053
 51
183.7927907845
  0
ARC
  5
46C
100
AcDbEntity
  8
RACCORDO
100
AcDbCircle
 62
253
  6
CONTINUOUS
 10
-22.2987615368
 20
93.3371966166
 40
0.2613431771
100
AcDbArc
 50
89.9613901636
 51
93.7949865261
  0
ARC
  5
46D
100
AcDbEntity
  8
RACCORDO
100
AcDbCircle
 62
253
  6
CONTINUOUS
 10
-22.2987615368
 20
22.3371966166
 40
0.2613431771
100
AcDbArc
 50
89.9613901637
 51
93.794986526
  0
ARC
  5
46E
100
AcDbEntity
  8
RACCORDO
100
AcDbCircle
 62
253
  6
CONTINUOUS
 10
-22.2987648882
 20
48.6627011823
 40
0.2612409783
100
AcDbArc
 50
266.2042633329
 51
270.0393599774
  0
ARC
  5
46F
100
AcDbEntity
  8
RACCORDO
100
AcDbCircle
 62
253
  6
CONTINUOUS
 10
22.2985562505
 20
-21.8678351404
 40
0.7607821317
100
AcDbArc
 50
270.0021972427
 51
273.5229601635
  0
ARC
  5
470
100
AcDbEntity
  8
RACCORDO
100
AcDbCircle
 62
253
  6
CONTINUOUS
 10
21.8678351404
 20
-48.7014437495
 40
0.7607821317
100
AcDbArc
 50
0.0021972427
 51
3.5229601635
  0
ARC
  5
471
100
AcDbEntity
  8
RACCORDO
100
AcDbCircle
 62
253
  6
CONTINUOUS
 10
22.2985562505
 20
-92.8678351404
 40
0.7607821317
100
AcDbArc
 50
270.0021972427
 51
273.5229601636
  0
ARC
  5
472
100
AcDbEntity
  8
RACCORDO
100
AcDbCircle
 62
253
  6
CONTINUOUS
 10
21.873334271
 20
-22.2987170898
 40
0.7552830121
100
AcDbArc
 50
356.4660083201
 51
0.0099880327
  0
ARC
  5
473
100
AcDbEntity
  8
RACCORDO
100
AcDbCircle
 62
253
  6
CONTINUOUS
 10
21.873334271
 20
-93.2987170898
 40
0.7552830121
100
AcDbArc
 50
356.4660083201
 51
0.0099880327
  0
ARC
  5
474
100
AcDbEntity
  8
RACCORDO
100
AcDbCircle
 62
253
  6
CONTINUOUS
 10
22.2987170898
 20
-49.126665729
 40
0.7552830121
100
AcDbArc
 50
86.4660083201
 51
90.0099880327
  0
ARC
  5
475
100
AcDbEntity
  8
RACCORDO
100
AcDbCircle
 62
253
  6
CONTINUOUS
 10
25.558903789
 20
-25.558903789
 40
0.6999862456
100
AcDbArc
 50
270.0075330706
 51
359.9924669294
  0
ARC
  5
476
100
AcDbEntity
  8
RACCORDO
100
AcDbCircle
 62
253
  6
CONTINUOUS
 10
25.558903789
 20
-45.441096211
 40
0.6999862456
100
AcDbArc
 50
0.0075330706
 51
89.9924669294
  0
ARC
  5
477
100
AcDbEntity
  8
RACCORDO
100
AcDbCircle
 62
253
  6
CONTINUOUS
 10
25.558903789
 20
-96.558903789
 40
0.6999862456
100
AcDbArc
 50
270.0075330706
 51
359.9924669294
  0
ARC
  5
478
100
AcDbEntity
  8
RACCORDO
100
AcDbCircle
 62
253
  6
CONTINUOUS
 10
22.2987517118
 20
-22.3368970032
 40
0.261642784
100
AcDbArc
 50
269.9635859053
 51
273.7927907845
  0
ARC
  5
479
100
AcDbEntity
  8
RACCORDO
100
AcDbCircle
 62
253
  6
CONTINUOUS
 10
22.3368970032
 20
-48.7012482882
 40
0.261642784
100
AcDbArc
 50
359.9635859053
 51
3.7927907845
  0
ARC
  5
47A
100
AcDbEntity
  8
RACCORDO
100
AcDbCircle
 62
253
  6
CONTINUOUS
 10
22.2987517118
 20
-93.3368970032
 40
0.261642784
100
AcDbArc
 50
269.9635859054
 51
273.7927907844
  0
ARC
  5
47B
100
AcDbEntity
  8
RACCORDO
100
AcDbCircle
 62
253
  6
CONTINUOUS
 10
22.3372988177
 20
-22.2987648882
 40
0.2612409783
100
AcDbArc
 50
356.2042633327
 51
0.0393599775
  0
ARC
  5
47C
100
AcDbEntity
  8
RACCORDO
100
AcDbCircle
 62
253
  6
CONTINUOUS
 10
22.2987648882
 20
-48.6627011823
 40
0.2612409783
100
AcDbArc
 50
86.2042633328
 51
90.0393599775
  0
ARC
  5
47D
100
AcDbEntity
  8
RACCORDO
100
AcDbCircle
 62
253
  6
CONTINUOUS
 10
22.3372988177
 20
-93.2987648882
 40
0.2612409783
100
AcDbArc
 50
356.2042633328
 51
0.0393599775
  0
ARC
  5
47E
100
AcDbEntity
  8
RACCORDO
100
AcDbCircle
 62
253
  6
CONTINUOUS
 10
21.8678351404
 20
93.2985562505
 40
0.7607821317
100
AcDbArc
 50
0.0021972427
 51
3.5229601635
  0
ARC
  5
47F
100
AcDbEntity
  8
RACCORDO
100
AcDbCircle
 62
253
  6
CONTINUOUS
 10
22.2985562505
 20
49.1321648596
 40
0.7607821317
100
AcDbArc
 50
270.0021972427
 51
273.5229601636
  0
ARC
  5
480
100
AcDbEntity
  8
RACCORDO
100
AcDbCircle
 62
253
  6
CONTINUOUS
 10
21.8678351404
 20
22.2985562505
 40
0.7607821317
100
AcDbArc
 50
0.0021972427
 51
3.5229601635
  0
ARC
  5
481
100
AcDbEntity
  8
RACCORDO
100
AcDbCircle
 62
253
  6
CONTINUOUS
 10
21.873334271
 20
48.7012829102
 40
0.7552830121
100
AcDbArc
 50
356.4660083201
 51
0.0099880327
  0
ARC
  5
482
100
AcDbEntity
  8
RACCORDO
100
AcDbCircle
 62
253
  6
CONTINUOUS
 10
22.2987170898
 20
92.873334271
 40
0.7552830121
100
AcDbArc
 50
86.4660083201
 51
90.0099880326
  0
ARC
  5
483
100
AcDbEntity
  8
RACCORDO
100
AcDbCircle
 62
253
  6
CONTINUOUS
 10
22.2987170898
 20
21.873334271
 40
0.7552830121
100
AcDbArc
 50
86.46600832
 51
90.0099880327
  0
ARC
  5
484
100
AcDbEntity
  8
RACCORDO
100
AcDbCircle
 62
253
  6
CONTINUOUS
 10
25.558903789
 20
96.558903789
 40
0.6999862456
100
AcDbArc
 50
0.0075330706
 51
89.9924669294
  0
ARC
  5
485
100
AcDbEntity
  8
RACCORDO
100
AcDbCircle
 62
253
  6
CONTINUOUS
 10
25.558903789
 20
45.441096211
 40
0.6999862456
100
AcDbArc
 50
270.0075330706
 51
359.9924669294
  0
ARC
  5
486
100
AcDbEntity
  8
RACCORDO
100
AcDbCircle
 62
253
  6
CONTINUOUS
 10
25.558903789
 20
25.558903789
 40
0.6999862456
100
AcDbArc
 50
0.0075330706
 51
89.9924669294
  0
ARC
  5
487
100
AcDbEntity
  8
RACCORDO
100
AcDbCircle
 62
253
  6
CONTINUOUS
 10
22.3368970032
 20
93.2987517118
 40
0.261642784
100
AcDbArc
 50
359.9635859053
 51
3.7927907845
  0
ARC
  5
488
100
AcDbEntity
  8
RACCORDO
100
AcDbCircle
 62
253
  6
CONTINUOUS
 10
22.2987517118
 20
48.6631029968
 40
0.261642784
100
AcDbArc
 50
269.9635859054
 51
273.7927907844
  0
ARC
  5
489
100
AcDbEntity
  8
RACCORDO
100
AcDbCircle
 62
253
  6
CONTINUOUS
 10
22.3368970032
 20
22.2987517118
 40
0.261642784
100
AcDbArc
 50
359.9635859053
 51
3.7927907845
  0
ARC
  5
48A
100
AcDbEntity
  8
RACCORDO
100
AcDbCircle
 62
253
  6
CONTINUOUS
 10
22.2987648882
 20
93.3372988177
 40
0.2612409783
100
AcDbArc
 50
86.2042633326
 51
90.0393599776
  0
ARC
  5
48B
100
AcDbEntity
  8
RACCORDO
100
AcDbCircle
 62
253
  6
CONTINUOUS
 10
22.3372988177
 20
48.7012351118
 40
0.2612409783
100
AcDbArc
 50
356.2042633328
 51
0.0393599775
  0
ARC
  5
48C
100
AcDbEntity
  8
RACCORDO
100
AcDbCircle
 62
253
  6
CONTINUOUS
 10
22.2987648882
 20
22.3372988177
 40
0.2612409783
100
AcDbArc
 50
86.2042633328
 51
90.0393599775
  0
ARC
  5
48D
100
AcDbEntity
  8
0
100
AcDbCircle
 62
7
  6
CONTINUOUS
 10
85.1664698435
 20
-25.4
 40
0.2
100
AcDbArc
 50
150.0
 51
180.0
  0
ARC
  5
48E
100
AcDbEntity
  8
SUPERFICI
100
AcDbCircle
 62
7
  6
CONTINUOUS
 10
85.1664698435
 20
-14.0602070867
 40
0.2
100
AcDbArc
 50
180.0
 51
267.0
  0
ARC
  5
48F
100
AcDbEntity
  8
SUPERFICI
100
AcDbCircle
 62
7
  6
CONTINUOUS
 10
85.1664698435
 20
-8.4397929133
 40
0.2
100
AcDbArc
 50
93.0
 51
180.0
  0
ARC
  5
490
100
AcDbEntity
  8
ASSI
100
AcDbCircle
 62
7
  6
CONTINUOUS
 10
85.1664698435
 20
-96.4
 40
0.2
100
AcDbArc
 50
90.0
 51
180.0
  0
ARC
  5
491
100
AcDbEntity
  8
0
100
AcDbCircle
 62
7
  6
CONTINUOUS
 10
85.1664698435
 20
-45.6
 40
0.2
100
AcDbArc
 50
180.0
 51
210.0
  0
ARC
  5
492
100
AcDbEntity
  8
0
100
AcDbCircle
 62
7
  6
CONTINUOUS
 10
85.1664698435
 20
-85.0602070867
 40
0.2
100
AcDbArc
 50
180.0
 51
267.0
  0
ARC
  5
493
100
AcDbEntity
  8
0
100
AcDbCircle
 62
7
  6
CONTINUOUS
 10
85.1664698435
 20
-79.4397929133
 40
0.2
100
AcDbArc
 50
93.0
 51
180.0
  0
ARC
  5
494
100
AcDbEntity
  8
0
100
AcDbCircle
 62
7
  6
CONTINUOUS
 10
85.1664698435
 20
-62.5602070867
 40
0.2
100
AcDbArc
 50
180.0
 51
267.0
  0
ARC
  5
495
100
AcDbEntity
  8
0
100
AcDbCircle
 62
7
  6
CONTINUOUS
 10
85.1664698435
 20
-56.9397929133
 40
0.2
100
AcDbArc
 50
93.0
 51
180.0
  0
ARC
  5
496
100
AcDbEntity
  8
0
100
AcDbCircle
 62
7
  6
CONTINUOUS
 10
85.1664698435
 20
56.9397929133
 40
0.2
100
AcDbArc
 50
180.0
 51
267.0
  0
ARC
  5
497
100
AcDbEntity
  8
0
100
AcDbCircle
 62
7
  6
CONTINUOUS
 10
85.1664698435
 20
85.0602070867
 40
0.2
100
AcDbArc
 50
93.0
 51
180.0
  0
ARC
  5
498
100
AcDbEntity
  8
0
100
AcDbCircle
 62
7
  6
CONTINUOUS
 10
85.1664698435
 20
62.5602070867
 40
0.2
100
AcDbArc
 50
93.0
 51
180.0
  0
ARC
  5
499
100
AcDbEntity
  8
0
100
AcDbCircle
 62
7
  6
CONTINUOUS
 10
85.1664698435
 20
79.4397929133
 40
0.2
100
AcDbArc
 50
180.0
 51
267.0
  0
ARC
  5
49A
100
AcDbEntity
  8
0
100
AcDbCircle
 62
7
  6
CONTINUOUS
 10
85.1664698435
 20
45.6
 40
0.2
100
AcDbArc
 50
150.0
 51
180.0
  0
ARC
  5
49B
100
AcDbEntity
  8
0
100
AcDbCircle
 62
7
  6
CONTINUOUS
 10
85.1664698435
 20
96.4
 40
0.2
100
AcDbArc
 50
180.0
 51
270.0
  0
ARC
  5
49C
100
AcDbEntity
  8
SUPERFICI
100
AcDbCircle
 62
7
  6
CONTINUOUS
 10
85.1664698435
 20
14.0602070867
 40
0.2
100
AcDbArc
 50
93.0
 51
180.0
  0
ARC
  5
49D
100
AcDbEntity
  8
SUPERFICI
100
AcDbCircle
 62
7
  6
CONTINUOUS
 10
85.1664698435
 20
8.4397929133
 40
0.2
100
AcDbArc
 50
180.0
 51
267.0
  0
ARC
  5
49E
100
AcDbEntity
  8
SUPERFICI
100
AcDbCircle
 62
7
  6
CONTINUOUS
 10
85.1664698435
 20
25.4
 40
0.2
100
AcDbArc
 50
180.0
 51
210.0
  0
ARC
  5
49F
100
AcDbEntity
  8
RACCORDO
100
AcDbCircle
 62
7
  6
CONTINUOUS
 10
94.2664698435
 20
-25.958934899
 40
0.3
100
AcDbArc
 50
271.0
 51
360.0
  0
ARC
  5
4A0
100
AcDbEntity
  8
RACCORDO
100
AcDbCircle
 62
7
  6
CONTINUOUS
 10
94.2664698435
 20
-45.041065101
 40
0.3
100
AcDbArc
 50
0.0
 51
89.0
  0
ARC
  5
4A1
100
AcDbEntity
  8
RACCORDO
100
AcDbCircle
 62
7
  6
CONTINUOUS
 10
94.2664698435
 20
-96.958934899
 40
0.3
100
AcDbArc
 50
271.0
 51
360.0
  0
ARC
  5
4A2
100
AcDbEntity
  8
RACCORDO
100
AcDbCircle
 62
7
  6
CONTINUOUS
 10
94.2664698435
 20
96.958934899
 40
0.3
100
AcDbArc
 50
0.0
 51
89.0
  0
ARC
  5
4A3
100
AcDbEntity
  8
RACCORDO
100
AcDbCircle
 62
7
  6
CONTINUOUS
 10
94.2664698435
 20
45.041065101
 40
0.3
100
AcDbArc
 50
271.0
 51
360.0
  0
ARC
  5
4A4
100
AcDbEntity
  8
RACCORDO
100
AcDbCircle
 62
7
  6
CONTINUOUS
 10
94.2664698435
 20
25.958934899
 40
0.3
100
AcDbArc
 50
0.0
 51
89.0
  0
SPLINE
  5
4A5
100
AcDbEntity
  8
RACCORDO
100
AcDbSpline
 62
253
  6
CONTINUOUS
 70
0
 71
3
 72
9
 73
5
 74
3
 42
0.0000001
 43
0.0000001
 44
0.0000000001
 12
-0.0021276972
 22
0.0423951825
 32
0.0
 13
-0.0375503783
 23
0.0197951429
 33
0.0
 40
0.0
 40
0.0
 40
0.0
 40
0.0
 40
0.3847699103
 40
1.0
 40
1.0
 40
1.0
 40
1.0
 10
-22.5979665782
 20
93.3160589415
 30
0.0
 10
-22.5982394694
 20
93.321496405
 30
0.0
 10
-22.6073031365
 20
93.3342595952
 30
0.0
 10
-22.6194814473
 20
93.3412137322
 30
0.0
 10
-22.6271821548
 20
93.3452732548
 30
0.0
 11
-22.5979665782
 21
93.3160589415
 31
0.0
 11
-22.6056754386
 21
93.3304581701
 31
0.0
 11
-22.6271821548
 21
93.3452732548
 31
0.0
  0
SPLINE
  5
4A6
100
AcDbEntity
  8
RACCORDO
100
AcDbSpline
 62
253
  6
CONTINUOUS
 70
0
 71
3
 72
9
 73
5
 74
3
 42
0.0000001
 43
0.0000001
 44
0.0000000001
 12
-0.0423952029
 22
0.002125971
 32
0.0
 13
-0.0197954014
 23
0.0375501673
 33
0.0
 40
0.0
 40
0.0
 40
0.0
 40
0.0
 40
0.384766998
 40
1.0
 40
1.0
 40
1.0
 40
1.0
 10
-22.3160586523
 20
93.5979616022
 30
0.0
 10
-22.3214960773
 20
93.5982342701
 30
0.0
 10
-22.3342595021
 20
93.6072977501
 30
0.0
 10
-22.3412136612
 20
93.6194760051
 30
0.0
 10
-22.3452732559
 20
93.6271767058
 30
0.0
 11
-22.3160586523
 21
93.5979616022
 31
0.0
 11
-22.3304579301
 21
93.605670055
 31
0.0
 11
-22.3452732559
 21
93.6271767058
 31
0.0
  0
SPLINE
  5
4A7
100
AcDbEntity
  8
RACCORDO
100
AcDbSpline
 62
253
  6
CONTINUOUS
 70
0
 71
3
 72
9
 73
5
 74
3
 42
0.0000001
 43
0.0000001
 44
0.0000000001
 12
0.0423976486
 22
0.0021313426
 32
0.0
 13
0.0197976225
 23
0.0375520622
 33
0.0
 40
0.0
 40
0.0
 40
0.0
 40
0.0
 40
0.384735205
 40
1.0
 40
1.0
 40
1.0
 40
1.0
 10
22.3160589024
 20
93.5979659103
 30
0.0
 10
22.3214961918
 20
93.5982392445
 30
0.0
 10
22.3342584903
 20
93.607305982
 30
0.0
 10
22.3412129947
 20
93.6194844299
 30
0.0
 10
22.3452732547
 20
93.6271859171
 30
0.0
 11
22.3160589024
 21
93.5979659103
 31
0.0
 11
22.3304567263
 21
93.6056764298
 31
0.0
 11
22.3452732547
 21
93.6271859171
 31
0.0
  0
SPLINE
  5
4A8
100
AcDbEntity
  8
RACCORDO
100
AcDbSpline
 62
253
  6
CONTINUOUS
 70
0
 71
3
 72
9
 73
5
 74
3
 42
0.0000001
 43
0.0000001
 44
0.0000000001
 12
0.0021270596
 22
0.0423943008
 32
0.0
 13
0.0375491867
 23
0.0197954465
 33
0.0
 40
0.0
 40
0.0
 40
0.0
 40
0.0
 40
0.3847717293
 40
1.0
 40
1.0
 40
1.0
 40
1.0
 10
22.5979665987
 20
93.3160589427
 30
0.0
 10
22.5982394095
 20
93.3214963189
 30
0.0
 10
22.6073025503
 20
93.3342594283
 30
0.0
 10
22.619480477
 20
93.3412136815
 30
0.0
 10
22.6271809174
 20
93.3452732543
 30
0.0
 11
22.5979665987
 21
93.3160589427
 31
0.0
 11
22.605675032
 21
93.3304580892
 31
0.0
 11
22.6271809174
 21
93.3452732543
 31
0.0
  0
SPLINE
  5
4A9
100
AcDbEntity
  8
RACCORDO
100
AcDbSpline
 62
253
  6
CONTINUOUS
 70
0
 71
3
 72
11
 73
7
 74
5
 42
0.0000001
 43
0.0000001
 44
0.0000000001
 12
0.4580212004
 22
0.043317967
 32
0.0
 13
-0.0434492328
 23
-0.4580087668
 33
0.0
 40
0.0
 40
0.0
 40
0.0
 40
0.0
 40
0.2481655321
 40
0.4999968063
 40
0.7518254935
 40
1.0
 40
1.0
 40
1.0
 40
1.0
 10
22.8650075502
 20
94.1469046568
 30
0.0
 10
22.9028959085
 20
94.1504879989
 30
0.0
 10
22.9814890065
 20
94.1456601119
 30
0.0
 10
23.0865679023
 20
94.0865604746
 30
0.0
 10
23.1456431893
 20
93.9814778612
 30
0.0
 10
23.150498114
 20
93.9028834681
 30
0.0
 10
23.1469037834
 20
93.8649947682
 30
0.0
 11
22.8650075502
 21
94.1469046568
 31
0.0
 11
22.9787668542
 21
94.1372024366
 31
0.0
 11
23.0788634277
 21
94.0788592188
 31
0.0
 11
23.1371958447
 21
93.9787577282
 31
0.0
 11
23.1469037834
 21
93.8649947682
 31
0.0
  0
SPLINE
  5
4AA
100
AcDbEntity
  8
RACCORDO
100
AcDbSpline
 62
253
  6
CONTINUOUS
 70
0
 71
3
 72
11
 73
7
 74
5
 42
0.0000001
 43
0.0000001
 44
0.0000000001
 12
0.0082756578
 22
0.445261122
 32
0.0
 13
-0.4452533212
 23
-0.0086852307
 33
0.0
 40
0.0
 40
0.0
 40
0.0
 40
0.0
 40
0.2501115952
 40
0.4999997138
 40
0.7498866439
 40
1.0
 40
1.0
 40
1.0
 40
1.0
 10
22.6271810694
 20
93.3453066683
 30
0.0
 10
22.6278710154
 20
93.3824283248
 30
0.0
 10
22.616235605
 20
93.4578321917
 30
0.0
 10
22.5547871486
 20
93.5548147609
 30
0.0
 10
22.4577998135
 20
93.6162243455
 30
0.0
 10
22.3823945226
 20
93.6279051379
 30
0.0
 10
22.3452732551
 20
93.6271810405
 30
0.0
 11
22.6271810694
 21
93.3453066683
 31
0.0
 11
22.608889748
 21
93.4551787222
 31
0.0
 11
22.5488656844
 21
93.5488878032
 31
0.0
 11
22.4551471771
 21
93.6088961663
 31
0.0
 11
22.3452732551
 21
93.6271810405
 31
0.0
  0
SPLINE
  5
4AB
100
AcDbEntity
  8
RACCORDO
100
AcDbSpline
 62
253
  6
CONTINUOUS
 70
0
 71
3
 72
11
 73
7
 74
5
 42
0.0000001
 43
0.0000001
 44
0.0000000001
 12
-0.0285988121
 22
0.4317179711
 32
0.0
 13
-0.4317195567
 23
0.0285748665
 33
0.0
 40
0.0
 40
0.0
 40
0.0
 40
0.0
 40
0.2444838109
 40
0.499998308
 40
0.755509181
 40
1.0
 40
1.0
 40
1.0
 40
1.0
 10
22.597966737
 20
93.3160589508
 30
0.0
 10
22.5956360882
 20
93.3512416357
 30
0.0
 10
22.5778052196
 20
93.4229363311
 30
0.0
 10
22.5146028749
 20
93.5146013759
 30
0.0
 10
22.4229382297
 20
93.5778051046
 30
0.0
 10
22.3512427734
 20
93.5956379728
 30
0.0
 10
22.3160589508
 20
93.597966737
 30
0.0
 11
22.597966737
 21
93.3160589508
 31
0.0
 11
22.5724612152
 21
93.418717353
 31
0.0
 11
22.509789682
 21
93.5097888495
 31
0.0
 11
22.4187203731
 21
93.5724607955
 31
0.0
 11
22.3160589508
 21
93.597966737
 31
0.0
  0
SPLINE
  5
4AC
100
AcDbEntity
  8
RACCORDO
100
AcDbSpline
 62
253
  6
CONTINUOUS
 70
0
 71
3
 72
11
 73
7
 74
5
 42
0.0000001
 43
0.0000001
 44
0.0000000001
 12
-0.0000498599
 22
-0.6210287384
 32
0.0
 13
-0.6210287354
 23
-0.0000791702
 33
0.0
 40
0.0
 40
0.0
 40
0.0
 40
0.0
 40
0.2500058224
 40
0.5000008131
 40
0.7499857999
 40
1.0
 40
1.0
 40
1.0
 40
1.0
 10
25.958934899
 20
45.4410041791
 30
0.0
 10
25.9589307439
 20
45.3892505789
 30
0.0
 10
25.9383418128
 20
45.2846414138
 30
0.0
 10
25.8502220937
 20
45.1520685019
 30
0.0
 10
25.7184227189
 20
45.0631573462
 30
0.0
 10
25.6139802796
 20
45.0410716989
 30
0.0
 10
25.5622249454
 20
45.041065101
 30
0.0
 11
25.958934899
 21
45.4410041791
 31
0.0
 11
25.9288012644
 21
45.2886956751
 31
0.0
 11
25.8429410834
 21
45.159343996
 31
0.0
 11
25.7142844243
 21
45.0724569281
 31
0.0
 11
25.5622249454
 21
45.041065101
 31
0.0
  0
SPLINE
  5
4AD
100
AcDbEntity
  8
RACCORDO
100
AcDbSpline
 62
253
  6
CONTINUOUS
 70
0
 71
3
 72
11
 73
7
 74
5
 42
0.0000001
 43
0.0000001
 44
0.0000000001
 12
0.043317967
 22
-0.4580212004
 32
0.0
 13
-0.4580087668
 23
0.0434492328
 33
0.0
 40
0.0
 40
0.0
 40
0.0
 40
0.0
 40
0.2481655321
 40
0.4999968063
 40
0.7518254935
 40
1.0
 40
1.0
 40
1.0
 40
1.0
 10
23.1469046568
 20
48.1349924498
 30
0.0
 10
23.1504879989
 20
48.0971040915
 30
0.0
 10
23.1456601119
 20
48.0185109935
 30
0.0
 10
23.0865604746
 20
47.9134320977
 30
0.0
 10
22.9814778612
 20
47.8543568107
 30
0.0
 10
22.9028834681
 20
47.849501886
 30
0.0
 10
22.8649947682
 20
47.8530962166
 30
0.0
 11
23.1469046568
 21
48.1349924498
 31
0.0
 11
23.1372024366
 21
48.0212331458
 31
0.0
 11
23.0788592188
 21
47.9211365723
 31
0.0
 11
22.9787577282
 21
47.8628041553
 31
0.0
 11
22.8649947682
 21
47.8530962166
 31
0.0
  0
SPLINE
  5
4AE
100
AcDbEntity
  8
RACCORDO
100
AcDbSpline
 62
253
  6
CONTINUOUS
 70
0
 71
3
 72
11
 73
7
 74
5
 42
0.0000001
 43
0.0000001
 44
0.0000000001
 12
0.445261122
 22
-0.0082756578
 32
0.0
 13
-0.0086852307
 23
0.4452533212
 33
0.0
 40
0.0
 40
0.0
 40
0.0
 40
0.0
 40
0.2501115952
 40
0.4999997138
 40
0.7498866439
 40
1.0
 40
1.0
 40
1.0
 40
1.0
 10
22.3453066683
 20
48.3728189306
 30
0.0
 10
22.3824283248
 20
48.3721289846
 30
0.0
 10
22.4578321917
 20
48.383764395
 30
0.0
 10
22.5548147609
 20
48.4452128514
 30
0.0
 10
22.6162243455
 20
48.5422001865
 30
0.0
 10
22.6279051379
 20
48.6176054774
 30
0.0
 10
22.6271810405
 20
48.6547267449
 30
0.0
 11
22.3453066683
 21
48.3728189306
 31
0.0
 11
22.4551787222
 21
48.391110252
 31
0.0
 11
22.5488878032
 21
48.4511343156
 31
0.0
 11
22.6088961663
 21
48.5448528229
 31
0.0
 11
22.6271810405
 21
48.6547267449
 31
0.0
  0
SPLINE
  5
4AF
100
AcDbEntity
  8
RACCORDO
100
AcDbSpline
 62
253
  6
CONTINUOUS
 70
0
 71
3
 72
11
 73
7
 74
5
 42
0.0000001
 43
0.0000001
 44
0.0000000001
 12
0.4317179711
 22
0.0285988121
 32
0.0
 13
0.0285748665
 23
0.4317195567
 33
0.0
 40
0.0
 40
0.0
 40
0.0
 40
0.0
 40
0.2444838109
 40
0.499998308
 40
0.755509181
 40
1.0
 40
1.0
 40
1.0
 40
1.0
 10
22.3160589508
 20
48.402033263
 30
0.0
 10
22.3512416357
 20
48.4043639118
 30
0.0
 10
22.4229363311
 20
48.4221947804
 30
0.0
 10
22.5146013759
 20
48.4853971251
 30
0.0
 10
22.5778051046
 20
48.5770617703
 30
0.0
 10
22.5956379728
 20
48.6487572266
 30
0.0
 10
22.597966737
 20
48.6839410492
 30
0.0
 11
22.3160589508
 21
48.402033263
 31
0.0
 11
22.418717353
 21
48.4275387848
 31
0.0
 11
22.5097888495
 21
48.490210318
 31
0.0
 11
22.5724607955
 21
48.5812796269
 31
0.0
 11
22.597966737
 21
48.6839410492
 31
0.0
  0
SPLINE
  5
4B0
100
AcDbEntity
  8
RACCORDO
100
AcDbSpline
 62
253
  6
CONTINUOUS
 70
0
 71
3
 72
11
 73
7
 74
5
 42
0.0000001
 43
0.0000001
 44
0.0000000001
 12
-0.431719563
 22
-0.0285747494
 32
0.0
 13
-0.0285985182
 23
-0.4317179891
 33
0.0
 40
0.0
 40
0.0
 40
0.0
 40
0.0
 40
0.2444907312
 40
0.5000016615
 40
0.7555160952
 40
1.0
 40
1.0
 40
1.0
 40
1.0
 10
-22.3160589508
 20
93.597966737
 30
0.0
 10
-22.3512427613
 20
93.5956379832
 30
0.0
 10
-22.4229382061
 20
93.5778050907
 30
0.0
 10
-22.5146028582
 20
93.5146014
 30
0.0
 10
-22.5778052094
 20
93.4229363497
 30
0.0
 10
-22.5956361112
 20
93.3512416507
 30
0.0
 10
-22.597966737
 20
93.3160589508
 30
0.0
 11
-22.3160589508
 21
93.597966737
 31
0.0
 11
-22.4187203351
 21
93.5724608019
 31
0.0
 11
-22.5097896745
 21
93.509788857
 31
0.0
 11
-22.5724612039
 21
93.4187173917
 31
0.0
 11
-22.597966737
 21
93.3160589508
 31
0.0
  0
SPLINE
  5
4B1
100
AcDbEntity
  8
RACCORDO
100
AcDbSpline
 62
253
  6
CONTINUOUS
 70
0
 71
3
 72
11
 73
7
 74
5
 42
0.0000001
 43
0.0000001
 44
0.0000000001
 12
-0.6210287303
 22
0.0000498599
 32
0.0
 13
-0.0000791702
 23
0.6210287272
 33
0.0
 40
0.0
 40
0.0
 40
0.0
 40
0.0
 40
0.2500058224
 40
0.5000008131
 40
0.7499857999
 40
1.0
 40
1.0
 40
1.0
 40
1.0
 10
-25.5589958209
 20
45.041065101
 30
0.0
 10
-25.6107494204
 20
45.0410692561
 30
0.0
 10
-25.715358584
 20
45.0616581867
 30
0.0
 10
-25.847931495
 20
45.1497779035
 30
0.0
 10
-25.9368426504
 20
45.2815772754
 30
0.0
 10
-25.9589283011
 20
45.3860197127
 30
0.0
 10
-25.958934899
 20
45.4377750462
 30
0.0
 11
-25.5589958209
 21
45.041065101
 31
0.0
 11
-25.711304323
 21
45.0711987348
 31
0.0
 11
-25.840656001
 21
45.1570589137
 31
0.0
 11
-25.9275430694
 21
45.2857155699
 31
0.0
 11
-25.958934899
 21
45.4377750462
 31
0.0
  0
SPLINE
  5
4B2
100
AcDbEntity
  8
RACCORDO
100
AcDbSpline
 62
253
  6
CONTINUOUS
 70
0
 71
3
 72
11
 73
7
 74
5
 42
0.0000001
 43
0.0000001
 44
0.0000000001
 12
-0.0434494719
 22
0.4580087334
 32
0.0
 13
0.4580211454
 23
-0.0433184355
 33
0.0
 40
0.0
 40
0.0
 40
0.0
 40
0.0
 40
0.248174496
 40
0.5000031929
 40
0.7518344432
 40
1.0
 40
1.0
 40
1.0
 40
1.0
 10
-23.1469037748
 20
93.8649946425
 30
0.0
 10
-23.1504981251
 20
93.902883338
 30
0.0
 10
-23.1456432288
 20
93.9814777273
 30
0.0
 10
-23.0865680095
 20
94.0865603815
 30
0.0
 10
-22.9814891423
 20
94.1456600273
 30
0.0
 10
-22.9028960419
 20
94.1504880472
 30
0.0
 10
-22.8650076844
 20
94.146904666
 30
0.0
 11
-23.1469037748
 21
93.8649946425
 31
0.0
 11
-23.1371958886
 21
93.9787575994
 31
0.0
 11
-23.0788635255
 21
94.0788591235
 31
0.0
 11
-22.9787669917
 21
94.1372023823
 31
0.0
 11
-22.8650076844
 21
94.146904666
 31
0.0
  0
SPLINE
  5
4B3
100
AcDbEntity
  8
RACCORDO
100
AcDbSpline
 62
253
  6
CONTINUOUS
 70
0
 71
3
 72
11
 73
7
 74
5
 42
0.0000001
 43
0.0000001
 44
0.0000000001
 12
-0.4452532521
 22
0.0086830778
 32
0.0
 13
0.0082773346
 23
-0.4452609797
 33
0.0
 40
0.0
 40
0.0
 40
0.0
 40
0.0
 40
0.2501133591
 40
0.5000002957
 40
0.749888392
 40
1.0
 40
1.0
 40
1.0
 40
1.0
 10
-22.345273254
 20
93.6271810405
 30
0.0
 10
-22.3823945162
 20
93.6279049584
 30
0.0
 10
-22.4577997806
 20
93.6162244525
 30
0.0
 10
-22.5547871256
 20
93.5548147788
 30
0.0
 10
-22.6162354615
 20
93.4578322676
 30
0.0
 10
-22.6278711553
 20
93.3824284227
 30
0.0
 10
-22.6271810695
 20
93.3453067761
 30
0.0
 11
-22.345273254
 21
93.6271810405
 31
0.0
 11
-22.4551471526
 21
93.6088961867
 31
0.0
 11
-22.5488656427
 21
93.5488878429
 31
0.0
 11
-22.6088896937
 21
93.4551787986
 31
0.0
 11
-22.6271810695
 21
93.3453067761
 31
0.0
  0
SPLINE
  5
4B4
100
AcDbEntity
  8
RACCORDO
100
AcDbSpline
 62
253
  6
CONTINUOUS
 70
0
 71
3
 72
11
 73
7
 74
5
 42
0.0000001
 43
0.0000001
 44
0.0000000001
 12
-0.4580212004
 22
-0.043317967
 32
0.0
 13
0.0434492328
 23
0.4580087668
 33
0.0
 40
0.0
 40
0.0
 40
0.0
 40
0.0
 40
0.2481655321
 40
0.4999968063
 40
0.7518254935
 40
1.0
 40
1.0
 40
1.0
 40
1.0
 10
-22.8650075502
 20
47.8530953432
 30
0.0
 10
-22.9028959085
 20
47.8495120011
 30
0.0
 10
-22.9814890065
 20
47.8543398881
 30
0.0
 10
-23.0865679023
 20
47.9134395254
 30
0.0
 10
-23.1456431893
 20
48.0185221388
 30
0.0
 10
-23.150498114
 20
48.0971165319
 30
0.0
 10
-23.1469037834
 20
48.1350052318
 30
0.0
 11
-22.8650075502
 21
47.8530953432
 31
0.0
 11
-22.9787668542
 21
47.8627975634
 31
0.0
 11
-23.0788634277
 21
47.9211407812
 31
0.0
 11
-23.1371958447
 21
48.0212422718
 31
0.0
 11
-23.1469037834
 21
48.1350052318
 31
0.0
  0
SPLINE
  5
4B5
100
AcDbEntity
  8
RACCORDO
100
AcDbSpline
 62
253
  6
CONTINUOUS
 70
0
 71
3
 72
11
 73
7
 74
5
 42
0.0000001
 43
0.0000001
 44
0.0000000001
 12
-0.0082756578
 22
-0.445261122
 32
0.0
 13
0.4452533212
 23
0.0086852307
 33
0.0
 40
0.0
 40
0.0
 40
0.0
 40
0.0
 40
0.2501115952
 40
0.4999997138
 40
0.7498866439
 40
1.0
 40
1.0
 40
1.0
 40
1.0
 10
-22.6271810694
 20
48.6546933317
 30
0.0
 10
-22.6278710154
 20
48.6175716752
 30
0.0
 10
-22.616235605
 20
48.5421678083
 30
0.0
 10
-22.5547871486
 20
48.4451852391
 30
0.0
 10
-22.4577998135
 20
48.3837756545
 30
0.0
 10
-22.3823945226
 20
48.3720948621
 30
0.0
 10
-22.3452732551
 20
48.3728189595
 30
0.0
 11
-22.6271810694
 21
48.6546933317
 31
0.0
 11
-22.608889748
 21
48.5448212778
 31
0.0
 11
-22.5488656844
 21
48.4511121968
 31
0.0
 11
-22.4551471771
 21
48.3911038337
 31
0.0
 11
-22.3452732551
 21
48.3728189595
 31
0.0
  0
SPLINE
  5
4B6
100
AcDbEntity
  8
RACCORDO
100
AcDbSpline
 62
253
  6
CONTINUOUS
 70
0
 71
3
 72
11
 73
7
 74
5
 42
0.0000001
 43
0.0000001
 44
0.0000000001
 12
0.0285988121
 22
-0.4317179711
 32
0.0
 13
0.4317195567
 23
-0.0285748665
 33
0.0
 40
0.0
 40
0.0
 40
0.0
 40
0.0
 40
0.2444838109
 40
0.499998308
 40
0.755509181
 40
1.0
 40
1.0
 40
1.0
 40
1.0
 10
-22.597966737
 20
48.6839410492
 30
0.0
 10
-22.5956360882
 20
48.6487583643
 30
0.0
 10
-22.5778052196
 20
48.5770636689
 30
0.0
 10
-22.5146028749
 20
48.4853986241
 30
0.0
 10
-22.4229382297
 20
48.4221948954
 30
0.0
 10
-22.3512427734
 20
48.4043620272
 30
0.0
 10
-22.3160589508
 20
48.402033263
 30
0.0
 11
-22.597966737
 21
48.6839410492
 31
0.0
 11
-22.5724612152
 21
48.581282647
 31
0.0
 11
-22.509789682
 21
48.4902111505
 31
0.0
 11
-22.4187203731
 21
48.4275392045
 31
0.0
 11
-22.3160589508
 21
48.402033263
 31
0.0
  0
SPLINE
  5
4B7
100
AcDbEntity
  8
RACCORDO
100
AcDbSpline
 62
253
  6
CONTINUOUS
 70
0
 71
3
 72
11
 73
7
 74
5
 42
0.0000001
 43
0.0000001
 44
0.0000000001
 12
0.0000157207
 22
-0.8843607793
 32
0.0
 13
-0.8843607788
 23
0.0000318597
 33
0.0
 40
0.0
 40
0.0
 40
0.0
 40
0.0
 40
0.2501538446
 40
0.5000000678
 40
0.7498449811
 40
1.0
 40
1.0
 40
1.0
 40
1.0
 10
23.4288116597
 20
48.1350039128
 30
0.0
 10
23.4288129706
 20
48.0612618298
 30
0.0
 10
23.4023630661
 20
47.9121093053
 30
0.0
 10
23.278634984
 20
47.7213674834
 30
0.0
 10
23.087882494
 20
47.5976797915
 30
0.0
 10
22.9387385164
 20
47.5711856837
 30
0.0
 10
22.8649960872
 20
47.5711883403
 30
0.0
 11
23.4288116597
 21
48.1350039128
 31
0.0
 11
23.3883164079
 21
47.9175155503
 31
0.0
 11
23.267468617
 21
47.7325383348
 31
0.0
 11
23.0824807916
 21
47.611708904
 31
0.0
 11
22.8649960872
 21
47.5711883403
 31
0.0
  0
SPLINE
  5
4B8
100
AcDbEntity
  8
RACCORDO
100
AcDbSpline
 62
253
  6
CONTINUOUS
 70
0
 71
3
 72
11
 73
7
 74
5
 42
0.0000001
 43
0.0000001
 44
0.0000000001
 12
0.8843607793
 22
0.0000157207
 32
0.0
 13
-0.0000318597
 23
-0.8843607788
 33
0.0
 40
0.0
 40
0.0
 40
0.0
 40
0.0
 40
0.2501538446
 40
0.5000000678
 40
0.7498449811
 40
1.0
 40
1.0
 40
1.0
 40
1.0
 10
22.8649960872
 20
94.4288116597
 30
0.0
 10
22.9387381702
 20
94.4288129706
 30
0.0
 10
23.0878906947
 20
94.4023630661
 30
0.0
 10
23.2786325166
 20
94.278634984
 30
0.0
 10
23.4023202085
 20
94.087882494
 30
0.0
 10
23.4288143163
 20
93.9387385164
 30
0.0
 10
23.4288116597
 20
93.8649960872
 30
0.0
 11
22.8649960872
 21
94.4288116597
 31
0.0
 11
23.0824844497
 21
94.3883164079
 31
0.0
 11
23.2674616652
 21
94.267468617
 31
0.0
 11
23.388291096
 21
94.0824807916
 31
0.0
 11
23.4288116597
 21
93.8649960872
 31
0.0
  0
SPLINE
  5
4B9
100
AcDbEntity
  8
RACCORDO
100
AcDbSpline
 62
253
  6
CONTINUOUS
 70
0
 71
3
 72
11
 73
7
 74
5
 42
0.0000001
 43
0.0000001
 44
0.0000000001
 12
-0.0000310851
 22
0.8843607931
 32
0.0
 13
0.8843607935
 23
-0.0000166958
 33
0.0
 40
0.0
 40
0.0
 40
0.0
 40
0.0
 40
0.2501550041
 40
0.4999999352
 40
0.7498461618
 40
1.0
 40
1.0
 40
1.0
 40
1.0
 10
-23.4288116597
 20
93.8649960872
 30
0.0
 10
-23.4288142517
 20
93.9387385132
 30
0.0
 10
-23.402320283
 20
94.0878825
 30
0.0
 10
-23.278632518
 20
94.278634999
 30
0.0
 10
-23.0878906963
 20
94.4023630202
 30
0.0
 10
-22.9387381695
 20
94.4288130519
 30
0.0
 10
-22.8649960872
 20
94.4288116597
 30
0.0
 11
-23.4288116597
 21
93.8649960872
 31
0.0
 11
-23.3882911272
 21
94.0824807877
 31
0.0
 11
-23.2674616758
 21
94.2674686227
 31
0.0
 11
-23.0824844471
 21
94.3883164055
 31
0.0
 11
-22.8649960872
 21
94.4288116597
 31
0.0
  0
SPLINE
  5
4BA
100
AcDbEntity
  8
RACCORDO
100
AcDbSpline
 62
253
  6
CONTINUOUS
 70
0
 71
3
 72
11
 73
7
 74
5
 42
0.0000001
 43
0.0000001
 44
0.0000000001
 12
-0.8843607793
 22
-0.0000157207
 32
0.0
 13
0.0000318597
 23
0.8843607788
 33
0.0
 40
0.0
 40
0.0
 40
0.0
 40
0.0
 40
0.2501538446
 40
0.5000000678
 40
0.7498449811
 40
1.0
 40
1.0
 40
1.0
 40
1.0
 10
-22.8649960872
 20
47.5711883403
 30
0.0
 10
-22.9387381702
 20
47.5711870294
 30
0.0
 10
-23.0878906947
 20
47.5976369339
 30
0.0
 10
-23.2786325166
 20
47.721365016
 30
0.0
 10
-23.4023202085
 20
47.912117506
 30
0.0
 10
-23.4288143163
 20
48.0612614836
 30
0.0
 10
-23.4288116597
 20
48.1350039128
 30
0.0
 11
-22.8649960872
 21
47.5711883403
 31
0.0
 11
-23.0824844497
 21
47.6116835921
 31
0.0
 11
-23.2674616652
 21
47.732531383
 31
0.0
 11
-23.388291096
 21
47.9175192084
 31
0.0
 11
-23.4288116597
 21
48.1350039128
 31
0.0
  0
SPLINE
  5
4BB
100
AcDbEntity
  8
RACCORDO
100
AcDbSpline
 62
253
  6
CONTINUOUS
 70
0
 71
3
 72
11
 73
7
 74
5
 42
0.0000001
 43
0.0000001
 44
0.0000000001
 12
0.0000498599
 22
0.6210287276
 32
0.0
 13
0.6210287245
 23
0.0000791702
 33
0.0
 40
0.0
 40
0.0
 40
0.0
 40
0.0
 40
0.2500058224
 40
0.5000008131
 40
0.7499857999
 40
1.0
 40
1.0
 40
1.0
 40
1.0
 10
-25.958934899
 20
96.5589958209
 30
0.0
 10
-25.9589307439
 20
96.6107494202
 30
0.0
 10
-25.9383418135
 20
96.7153585833
 30
0.0
 10
-25.8502220974
 20
96.847931494
 30
0.0
 10
-25.7184227265
 20
96.9368426493
 30
0.0
 10
-25.6139802898
 20
96.9589283011
 30
0.0
 10
-25.5622249565
 20
96.958934899
 30
0.0
 11
-25.958934899
 21
96.5589958209
 31
0.0
 11
-25.9288012655
 21
96.7113043224
 31
0.0
 11
-25.8429410873
 21
96.8406560001
 31
0.0
 11
-25.7142844319
 21
96.9275430686
 31
0.0
 11
-25.5622249565
 21
96.958934899
 31
0.0
  0
SPLINE
  5
4BC
100
AcDbEntity
  8
RACCORDO
100
AcDbSpline
 62
253
  6
CONTINUOUS
 70
0
 71
3
 72
11
 73
7
 74
5
 42
0.0000001
 43
0.0000001
 44
0.0000000001
 12
0.6210287326
 22
-0.0000498599
 32
0.0
 13
0.0000791702
 23
-0.6210287295
 33
0.0
 40
0.0
 40
0.0
 40
0.0
 40
0.0
 40
0.2500058224
 40
0.5000008131
 40
0.7499857999
 40
1.0
 40
1.0
 40
1.0
 40
1.0
 10
25.5589958209
 20
96.958934899
 30
0.0
 10
25.6107494206
 20
96.9589307439
 30
0.0
 10
25.7153585846
 20
96.9383418132
 30
0.0
 10
25.8479314959
 20
96.8502220957
 30
0.0
 10
25.9368426514
 20
96.718422723
 30
0.0
 10
25.9589283011
 20
96.6139802851
 30
0.0
 10
25.958934899
 20
96.5622249514
 30
0.0
 11
25.5589958209
 21
96.958934899
 31
0.0
 11
25.7113043236
 21
96.928801265
 31
0.0
 11
25.8406560019
 21
96.8429410855
 31
0.0
 11
25.9275430701
 21
96.7142844284
 31
0.0
 11
25.958934899
 21
96.5622249514
 31
0.0
  0
SPLINE
  5
4BD
100
AcDbEntity
  8
RACCORDO
100
AcDbSpline
 62
253
  6
CONTINUOUS
 70
0
 71
3
 72
9
 73
5
 74
3
 42
0.0000001
 43
0.0000001
 44
0.0000000001
 12
0.0021313426
 22
-0.0423976486
 32
0.0
 13
0.0375520622
 23
-0.0197976225
 33
0.0
 40
0.0
 40
0.0
 40
0.0
 40
0.0
 40
0.384735205
 40
1.0
 40
1.0
 40
1.0
 40
1.0
 10
22.5979659103
 20
48.6839410976
 30
0.0
 10
22.5982392445
 20
48.6785038082
 30
0.0
 10
22.607305982
 20
48.6657415097
 30
0.0
 10
22.6194844299
 20
48.6587870053
 30
0.0
 10
22.6271859171
 20
48.6547267453
 30
0.0
 11
22.5979659103
 21
48.6839410976
 31
0.0
 11
22.6056764298
 21
48.6695432737
 31
0.0
 11
22.6271859171
 21
48.6547267453
 31
0.0
  0
SPLINE
  5
4BE
100
AcDbEntity
  8
RACCORDO
100
AcDbSpline
 62
253
  6
CONTINUOUS
 70
0
 71
3
 72
9
 73
5
 74
3
 42
0.0000001
 43
0.0000001
 44
0.0000000001
 12
0.0423943008
 22
-0.0021270596
 32
0.0
 13
0.0197954465
 23
-0.0375491867
 33
0.0
 40
0.0
 40
0.0
 40
0.0
 40
0.0
 40
0.3847717293
 40
1.0
 40
1.0
 40
1.0
 40
1.0
 10
22.3160589427
 20
48.4020334013
 30
0.0
 10
22.3214963189
 20
48.4017605905
 30
0.0
 10
22.3342594283
 20
48.3926974497
 30
0.0
 10
22.3412136815
 20
48.380519523
 30
0.0
 10
22.3452732543
 20
48.3728190826
 30
0.0
 11
22.3160589427
 21
48.4020334013
 31
0.0
 11
22.3304580892
 21
48.394324968
 31
0.0
 11
22.3452732543
 21
48.3728190826
 31
0.0
  0
SPLINE
  5
4BF
100
AcDbEntity
  8
RACCORDO
100
AcDbSpline
 62
253
  6
CONTINUOUS
 70
0
 71
3
 72
9
 73
5
 74
3
 42
0.0000001
 43
0.0000001
 44
0.0000000001
 12
-0.0423976486
 22
-0.0021313426
 32
0.0
 13
-0.0197976225
 23
-0.0375520622
 33
0.0
 40
0.0
 40
0.0
 40
0.0
 40
0.0
 40
0.384735205
 40
1.0
 40
1.0
 40
1.0
 40
1.0
 10
-22.3160589024
 20
48.4020340897
 30
0.0
 10
-22.3214961918
 20
48.4017607555
 30
0.0
 10
-22.3342584903
 20
48.392694018
 30
0.0
 10
-22.3412129947
 20
48.3805155701
 30
0.0
 10
-22.3452732547
 20
48.3728140829
 30
0.0
 11
-22.3160589024
 21
48.4020340897
 31
0.0
 11
-22.3304567263
 21
48.3943235702
 31
0.0
 11
-22.3452732547
 21
48.3728140829
 31
0.0
  0
SPLINE
  5
4C0
100
AcDbEntity
  8
RACCORDO
100
AcDbSpline
 62
253
  6
CONTINUOUS
 70
0
 71
3
 72
9
 73
5
 74
3
 42
0.0000001
 43
0.0000001
 44
0.0000000001
 12
-0.0021270596
 22
-0.0423943008
 32
0.0
 13
-0.0375491867
 23
-0.0197954465
 33
0.0
 40
0.0
 40
0.0
 40
0.0
 40
0.0
 40
0.3847717293
 40
1.0
 40
1.0
 40
1.0
 40
1.0
 10
-22.5979665987
 20
48.6839410573
 30
0.0
 10
-22.5982394095
 20
48.6785036811
 30
0.0
 10
-22.6073025503
 20
48.6657405717
 30
0.0
 10
-22.619480477
 20
48.6587863185
 30
0.0
 10
-22.6271809174
 20
48.6547267457
 30
0.0
 11
-22.5979665987
 21
48.6839410573
 31
0.0
 11
-22.605675032
 21
48.6695419108
 31
0.0
 11
-22.6271809174
 21
48.6547267457
 31
0.0
  0
SPLINE
  5
4C1
100
AcDbEntity
  8
RACCORDO
100
AcDbSpline
 62
253
  6
CONTINUOUS
 70
0
 71
3
 72
9
 73
5
 74
3
 42
0.0000001
 43
0.0000001
 44
0.0000000001
 12
-0.0021276972
 22
0.0423951825
 32
0.0
 13
-0.0375503783
 23
0.0197951429
 33
0.0
 40
0.0
 40
0.0
 40
0.0
 40
0.0
 40
0.3847699103
 40
1.0
 40
1.0
 40
1.0
 40
1.0
 10
-22.5979665782
 20
22.3160589415
 30
0.0
 10
-22.5982394694
 20
22.321496405
 30
0.0
 10
-22.6073031365
 20
22.3342595952
 30
0.0
 10
-22.6194814473
 20
22.3412137322
 30
0.0
 10
-22.6271821548
 20
22.3452732548
 30
0.0
 11
-22.5979665782
 21
22.3160589415
 31
0.0
 11
-22.6056754386
 21
22.3304581701
 31
0.0
 11
-22.6271821548
 21
22.3452732548
 31
0.0
  0
SPLINE
  5
4C2
100
AcDbEntity
  8
RACCORDO
100
AcDbSpline
 62
253
  6
CONTINUOUS
 70
0
 71
3
 72
9
 73
5
 74
3
 42
0.0000001
 43
0.0000001
 44
0.0000000001
 12
-0.0423952029
 22
0.002125971
 32
0.0
 13
-0.0197954014
 23
0.0375501673
 33
0.0
 40
0.0
 40
0.0
 40
0.0
 40
0.0
 40
0.384766998
 40
1.0
 40
1.0
 40
1.0
 40
1.0
 10
-22.3160586523
 20
22.5979616022
 30
0.0
 10
-22.3214960773
 20
22.5982342701
 30
0.0
 10
-22.3342595021
 20
22.6072977501
 30
0.0
 10
-22.3412136612
 20
22.6194760051
 30
0.0
 10
-22.3452732559
 20
22.6271767058
 30
0.0
 11
-22.3160586523
 21
22.5979616022
 31
0.0
 11
-22.3304579301
 21
22.605670055
 31
0.0
 11
-22.3452732559
 21
22.6271767058
 31
0.0
  0
SPLINE
  5
4C3
100
AcDbEntity
  8
RACCORDO
100
AcDbSpline
 62
253
  6
CONTINUOUS
 70
0
 71
3
 72
9
 73
5
 74
3
 42
0.0000001
 43
0.0000001
 44
0.0000000001
 12
0.0423976486
 22
0.0021313426
 32
0.0
 13
0.0197976225
 23
0.0375520622
 33
0.0
 40
0.0
 40
0.0
 40
0.0
 40
0.0
 40
0.384735205
 40
1.0
 40
1.0
 40
1.0
 40
1.0
 10
22.3160589024
 20
22.5979659103
 30
0.0
 10
22.3214961918
 20
22.5982392445
 30
0.0
 10
22.3342584903
 20
22.607305982
 30
0.0
 10
22.3412129947
 20
22.6194844299
 30
0.0
 10
22.3452732547
 20
22.6271859171
 30
0.0
 11
22.3160589024
 21
22.5979659103
 31
0.0
 11
22.3304567263
 21
22.6056764298
 31
0.0
 11
22.3452732547
 21
22.6271859171
 31
0.0
  0
SPLINE
  5
4C4
100
AcDbEntity
  8
RACCORDO
100
AcDbSpline
 62
253
  6
CONTINUOUS
 70
0
 71
3
 72
9
 73
5
 74
3
 42
0.0000001
 43
0.0000001
 44
0.0000000001
 12
0.0021270596
 22
0.0423943008
 32
0.0
 13
0.0375491867
 23
0.0197954465
 33
0.0
 40
0.0
 40
0.0
 40
0.0
 40
0.0
 40
0.3847717293
 40
1.0
 40
1.0
 40
1.0
 40
1.0
 10
22.5979665987
 20
22.3160589427
 30
0.0
 10
22.5982394095
 20
22.3214963189
 30
0.0
 10
22.6073025503
 20
22.3342594283
 30
0.0
 10
22.619480477
 20
22.3412136815
 30
0.0
 10
22.6271809174
 20
22.3452732543
 30
0.0
 11
22.5979665987
 21
22.3160589427
 31
0.0
 11
22.605675032
 21
22.3304580892
 31
0.0
 11
22.6271809174
 21
22.3452732543
 31
0.0
  0
SPLINE
  5
4C5
100
AcDbEntity
  8
RACCORDO
100
AcDbSpline
 62
253
  6
CONTINUOUS
 70
0
 71
3
 72
11
 73
7
 74
5
 42
0.0000001
 43
0.0000001
 44
0.0000000001
 12
0.4580212004
 22
0.043317967
 32
0.0
 13
-0.0434492328
 23
-0.4580087668
 33
0.0
 40
0.0
 40
0.0
 40
0.0
 40
0.0
 40
0.2481655321
 40
0.4999968063
 40
0.7518254935
 40
1.0
 40
1.0
 40
1.0
 40
1.0
 10
22.8650075502
 20
23.1469046568
 30
0.0
 10
22.9028959085
 20
23.1504879989
 30
0.0
 10
22.9814890065
 20
23.1456601119
 30
0.0
 10
23.0865679023
 20
23.0865604746
 30
0.0
 10
23.1456431893
 20
22.9814778612
 30
0.0
 10
23.150498114
 20
22.9028834681
 30
0.0
 10
23.1469037834
 20
22.8649947682
 30
0.0
 11
22.8650075502
 21
23.1469046568
 31
0.0
 11
22.9787668542
 21
23.1372024366
 31
0.0
 11
23.0788634277
 21
23.0788592188
 31
0.0
 11
23.1371958447
 21
22.9787577282
 31
0.0
 11
23.1469037834
 21
22.8649947682
 31
0.0
  0
SPLINE
  5
4C6
100
AcDbEntity
  8
RACCORDO
100
AcDbSpline
 62
253
  6
CONTINUOUS
 70
0
 71
3
 72
11
 73
7
 74
5
 42
0.0000001
 43
0.0000001
 44
0.0000000001
 12
0.0082756578
 22
0.445261122
 32
0.0
 13
-0.4452533212
 23
-0.0086852307
 33
0.0
 40
0.0
 40
0.0
 40
0.0
 40
0.0
 40
0.2501115952
 40
0.4999997138
 40
0.7498866439
 40
1.0
 40
1.0
 40
1.0
 40
1.0
 10
22.6271810694
 20
22.3453066683
 30
0.0
 10
22.6278710154
 20
22.3824283248
 30
0.0
 10
22.616235605
 20
22.4578321917
 30
0.0
 10
22.5547871486
 20
22.5548147609
 30
0.0
 10
22.4577998135
 20
22.6162243455
 30
0.0
 10
22.3823945226
 20
22.6279051379
 30
0.0
 10
22.3452732551
 20
22.6271810405
 30
0.0
 11
22.6271810694
 21
22.3453066683
 31
0.0
 11
22.608889748
 21
22.4551787222
 31
0.0
 11
22.5488656844
 21
22.5488878032
 31
0.0
 11
22.4551471771
 21
22.6088961663
 31
0.0
 11
22.3452732551
 21
22.6271810405
 31
0.0
  0
SPLINE
  5
4C7
100
AcDbEntity
  8
RACCORDO
100
AcDbSpline
 62
253
  6
CONTINUOUS
 70
0
 71
3
 72
11
 73
7
 74
5
 42
0.0000001
 43
0.0000001
 44
0.0000000001
 12
-0.0285988121
 22
0.4317179711
 32
0.0
 13
-0.4317195567
 23
0.0285748665
 33
0.0
 40
0.0
 40
0.0
 40
0.0
 40
0.0
 40
0.2444838109
 40
0.499998308
 40
0.755509181
 40
1.0
 40
1.0
 40
1.0
 40
1.0
 10
22.597966737
 20
22.3160589508
 30
0.0
 10
22.5956360882
 20
22.3512416357
 30
0.0
 10
22.5778052196
 20
22.4229363311
 30
0.0
 10
22.5146028749
 20
22.5146013759
 30
0.0
 10
22.4229382297
 20
22.5778051046
 30
0.0
 10
22.3512427734
 20
22.5956379728
 30
0.0
 10
22.3160589508
 20
22.597966737
 30
0.0
 11
22.597966737
 21
22.3160589508
 31
0.0
 11
22.5724612152
 21
22.418717353
 31
0.0
 11
22.509789682
 21
22.5097888495
 31
0.0
 11
22.4187203731
 21
22.5724607955
 31
0.0
 11
22.3160589508
 21
22.597966737
 31
0.0
  0
SPLINE
  5
4C8
100
AcDbEntity
  8
RACCORDO
100
AcDbSpline
 62
253
  6
CONTINUOUS
 70
0
 71
3
 72
11
 73
7
 74
5
 42
0.0000001
 43
0.0000001
 44
0.0000000001
 12
-0.0000498599
 22
-0.6210287384
 32
0.0
 13
-0.6210287354
 23
-0.0000791702
 33
0.0
 40
0.0
 40
0.0
 40
0.0
 40
0.0
 40
0.2500058224
 40
0.5000008131
 40
0.7499857999
 40
1.0
 40
1.0
 40
1.0
 40
1.0
 10
25.958934899
 20
-25.5589958209
 30
0.0
 10
25.9589307439
 20
-25.6107494211
 30
0.0
 10
25.9383418128
 20
-25.7153585862
 30
0.0
 10
25.8502220937
 20
-25.8479314981
 30
0.0
 10
25.7184227189
 20
-25.9368426538
 30
0.0
 10
25.6139802796
 20
-25.9589283011
 30
0.0
 10
25.5622249454
 20
-25.958934899
 30
0.0
 11
25.958934899
 21
-25.5589958209
 31
0.0
 11
25.9288012644
 21
-25.7113043249
 31
0.0
 11
25.8429410834
 21
-25.840656004
 31
0.0
 11
25.7142844243
 21
-25.9275430719
 31
0.0
 11
25.5622249454
 21
-25.958934899
 31
0.0
  0
SPLINE
  5
4C9
100
AcDbEntity
  8
RACCORDO
100
AcDbSpline
 62
253
  6
CONTINUOUS
 70
0
 71
3
 72
11
 73
7
 74
5
 42
0.0000001
 43
0.0000001
 44
0.0000000001
 12
0.043317967
 22
-0.4580212004
 32
0.0
 13
-0.4580087668
 23
0.0434492328
 33
0.0
 40
0.0
 40
0.0
 40
0.0
 40
0.0
 40
0.2481655321
 40
0.4999968063
 40
0.7518254935
 40
1.0
 40
1.0
 40
1.0
 40
1.0
 10
23.1469046568
 20
-22.8650075502
 30
0.0
 10
23.1504879989
 20
-22.9028959085
 30
0.0
 10
23.1456601119
 20
-22.9814890065
 30
0.0
 10
23.0865604746
 20
-23.0865679023
 30
0.0
 10
22.9814778612
 20
-23.1456431893
 30
0.0
 10
22.9028834681
 20
-23.150498114
 30
0.0
 10
22.8649947682
 20
-23.1469037834
 30
0.0
 11
23.1469046568
 21
-22.8650075502
 31
0.0
 11
23.1372024366
 21
-22.9787668542
 31
0.0
 11
23.0788592188
 21
-23.0788634277
 31
0.0
 11
22.9787577282
 21
-23.1371958447
 31
0.0
 11
22.8649947682
 21
-23.1469037834
 31
0.0
  0
SPLINE
  5
4CA
100
AcDbEntity
  8
RACCORDO
100
AcDbSpline
 62
253
  6
CONTINUOUS
 70
0
 71
3
 72
11
 73
7
 74
5
 42
0.0000001
 43
0.0000001
 44
0.0000000001
 12
0.445261122
 22
-0.0082756578
 32
0.0
 13
-0.0086852307
 23
0.4452533212
 33
0.0
 40
0.0
 40
0.0
 40
0.0
 40
0.0
 40
0.2501115952
 40
0.4999997138
 40
0.7498866439
 40
1.0
 40
1.0
 40
1.0
 40
1.0
 10
22.3453066683
 20
-22.6271810694
 30
0.0
 10
22.3824283248
 20
-22.6278710154
 30
0.0
 10
22.4578321917
 20
-22.616235605
 30
0.0
 10
22.5548147609
 20
-22.5547871486
 30
0.0
 10
22.6162243455
 20
-22.4577998135
 30
0.0
 10
22.6279051379
 20
-22.3823945226
 30
0.0
 10
22.6271810405
 20
-22.3452732551
 30
0.0
 11
22.3453066683
 21
-22.6271810694
 31
0.0
 11
22.4551787222
 21
-22.608889748
 31
0.0
 11
22.5488878032
 21
-22.5488656844
 31
0.0
 11
22.6088961663
 21
-22.4551471771
 31
0.0
 11
22.6271810405
 21
-22.3452732551
 31
0.0
  0
SPLINE
  5
4CB
100
AcDbEntity
  8
RACCORDO
100
AcDbSpline
 62
253
  6
CONTINUOUS
 70
0
 71
3
 72
11
 73
7
 74
5
 42
0.0000001
 43
0.0000001
 44
0.0000000001
 12
0.4317179711
 22
0.0285988121
 32
0.0
 13
0.0285748665
 23
0.4317195567
 33
0.0
 40
0.0
 40
0.0
 40
0.0
 40
0.0
 40
0.2444838109
 40
0.499998308
 40
0.755509181
 40
1.0
 40
1.0
 40
1.0
 40
1.0
 10
22.3160589508
 20
-22.597966737
 30
0.0
 10
22.3512416357
 20
-22.5956360882
 30
0.0
 10
22.4229363311
 20
-22.5778052196
 30
0.0
 10
22.5146013759
 20
-22.5146028749
 30
0.0
 10
22.5778051046
 20
-22.4229382297
 30
0.0
 10
22.5956379728
 20
-22.3512427734
 30
0.0
 10
22.597966737
 20
-22.3160589508
 30
0.0
 11
22.3160589508
 21
-22.597966737
 31
0.0
 11
22.418717353
 21
-22.5724612152
 31
0.0
 11
22.5097888495
 21
-22.509789682
 31
0.0
 11
22.5724607955
 21
-22.4187203731
 31
0.0
 11
22.597966737
 21
-22.3160589508
 31
0.0
  0
SPLINE
  5
4CC
100
AcDbEntity
  8
RACCORDO
100
AcDbSpline
 62
253
  6
CONTINUOUS
 70
0
 71
3
 72
11
 73
7
 74
5
 42
0.0000001
 43
0.0000001
 44
0.0000000001
 12
-0.431719563
 22
-0.0285747494
 32
0.0
 13
-0.0285985182
 23
-0.4317179891
 33
0.0
 40
0.0
 40
0.0
 40
0.0
 40
0.0
 40
0.2444907312
 40
0.5000016615
 40
0.7555160952
 40
1.0
 40
1.0
 40
1.0
 40
1.0
 10
-22.3160589508
 20
22.597966737
 30
0.0
 10
-22.3512427613
 20
22.5956379832
 30
0.0
 10
-22.4229382061
 20
22.5778050907
 30
0.0
 10
-22.5146028582
 20
22.5146014
 30
0.0
 10
-22.5778052094
 20
22.4229363497
 30
0.0
 10
-22.5956361112
 20
22.3512416507
 30
0.0
 10
-22.597966737
 20
22.3160589508
 30
0.0
 11
-22.3160589508
 21
22.597966737
 31
0.0
 11
-22.4187203351
 21
22.5724608019
 31
0.0
 11
-22.5097896745
 21
22.509788857
 31
0.0
 11
-22.5724612039
 21
22.4187173917
 31
0.0
 11
-22.597966737
 21
22.3160589508
 31
0.0
  0
SPLINE
  5
4CD
100
AcDbEntity
  8
RACCORDO
100
AcDbSpline
 62
253
  6
CONTINUOUS
 70
0
 71
3
 72
11
 73
7
 74
5
 42
0.0000001
 43
0.0000001
 44
0.0000000001
 12
-0.6210287303
 22
0.0000498599
 32
0.0
 13
-0.0000791702
 23
0.6210287272
 33
0.0
 40
0.0
 40
0.0
 40
0.0
 40
0.0
 40
0.2500058224
 40
0.5000008131
 40
0.7499857999
 40
1.0
 40
1.0
 40
1.0
 40
1.0
 10
-25.5589958209
 20
-25.958934899
 30
0.0
 10
-25.6107494204
 20
-25.9589307439
 30
0.0
 10
-25.715358584
 20
-25.9383418133
 30
0.0
 10
-25.847931495
 20
-25.8502220965
 30
0.0
 10
-25.9368426504
 20
-25.7184227246
 30
0.0
 10
-25.9589283011
 20
-25.6139802873
 30
0.0
 10
-25.958934899
 20
-25.5622249538
 30
0.0
 11
-25.5589958209
 21
-25.958934899
 31
0.0
 11
-25.711304323
 21
-25.9288012652
 31
0.0
 11
-25.840656001
 21
-25.8429410863
 31
0.0
 11
-25.9275430694
 21
-25.7142844301
 31
0.0
 11
-25.958934899
 21
-25.5622249538
 31
0.0
  0
SPLINE
  5
4CE
100
AcDbEntity
  8
RACCORDO
100
AcDbSpline
 62
253
  6
CONTINUOUS
 70
0
 71
3
 72
11
 73
7
 74
5
 42
0.0000001
 43
0.0000001
 44
0.0000000001
 12
-0.0434494719
 22
0.4580087334
 32
0.0
 13
0.4580211454
 23
-0.0433184355
 33
0.0
 40
0.0
 40
0.0
 40
0.0
 40
0.0
 40
0.248174496
 40
0.5000031929
 40
0.7518344432
 40
1.0
 40
1.0
 40
1.0
 40
1.0
 10
-23.1469037748
 20
22.8649946425
 30
0.0
 10
-23.1504981251
 20
22.902883338
 30
0.0
 10
-23.1456432288
 20
22.9814777273
 30
0.0
 10
-23.0865680095
 20
23.0865603815
 30
0.0
 10
-22.9814891423
 20
23.1456600273
 30
0.0
 10
-22.9028960419
 20
23.1504880472
 30
0.0
 10
-22.8650076844
 20
23.146904666
 30
0.0
 11
-23.1469037748
 21
22.8649946425
 31
0.0
 11
-23.1371958886
 21
22.9787575994
 31
0.0
 11
-23.0788635255
 21
23.0788591235
 31
0.0
 11
-22.9787669917
 21
23.1372023823
 31
0.0
 11
-22.8650076844
 21
23.146904666
 31
0.0
  0
SPLINE
  5
4CF
100
AcDbEntity
  8
RACCORDO
100
AcDbSpline
 62
253
  6
CONTINUOUS
 70
0
 71
3
 72
11
 73
7
 74
5
 42
0.0000001
 43
0.0000001
 44
0.0000000001
 12
-0.4452532521
 22
0.0086830778
 32
0.0
 13
0.0082773346
 23
-0.4452609797
 33
0.0
 40
0.0
 40
0.0
 40
0.0
 40
0.0
 40
0.2501133591
 40
0.5000002957
 40
0.749888392
 40
1.0
 40
1.0
 40
1.0
 40
1.0
 10
-22.345273254
 20
22.6271810405
 30
0.0
 10
-22.3823945162
 20
22.6279049584
 30
0.0
 10
-22.4577997806
 20
22.6162244525
 30
0.0
 10
-22.5547871256
 20
22.5548147788
 30
0.0
 10
-22.6162354615
 20
22.4578322676
 30
0.0
 10
-22.6278711553
 20
22.3824284227
 30
0.0
 10
-22.6271810695
 20
22.3453067761
 30
0.0
 11
-22.345273254
 21
22.6271810405
 31
0.0
 11
-22.4551471526
 21
22.6088961867
 31
0.0
 11
-22.5488656427
 21
22.5488878429
 31
0.0
 11
-22.6088896937
 21
22.4551787986
 31
0.0
 11
-22.6271810695
 21
22.3453067761
 31
0.0
  0
SPLINE
  5
4D0
100
AcDbEntity
  8
RACCORDO
100
AcDbSpline
 62
253
  6
CONTINUOUS
 70
0
 71
3
 72
11
 73
7
 74
5
 42
0.0000001
 43
0.0000001
 44
0.0000000001
 12
-0.4580212004
 22
-0.043317967
 32
0.0
 13
0.0434492328
 23
0.4580087668
 33
0.0
 40
0.0
 40
0.0
 40
0.0
 40
0.0
 40
0.2481655321
 40
0.4999968063
 40
0.7518254935
 40
1.0
 40
1.0
 40
1.0
 40
1.0
 10
-22.8650075502
 20
-23.1469046568
 30
0.0
 10
-22.9028959085
 20
-23.1504879989
 30
0.0
 10
-22.9814890065
 20
-23.1456601119
 30
0.0
 10
-23.0865679023
 20
-23.0865604746
 30
0.0
 10
-23.1456431893
 20
-22.9814778612
 30
0.0
 10
-23.150498114
 20
-22.9028834681
 30
0.0
 10
-23.1469037834
 20
-22.8649947682
 30
0.0
 11
-22.8650075502
 21
-23.1469046568
 31
0.0
 11
-22.9787668542
 21
-23.1372024366
 31
0.0
 11
-23.0788634277
 21
-23.0788592188
 31
0.0
 11
-23.1371958447
 21
-22.9787577282
 31
0.0
 11
-23.1469037834
 21
-22.8649947682
 31
0.0
  0
SPLINE
  5
4D1
100
AcDbEntity
  8
RACCORDO
100
AcDbSpline
 62
253
  6
CONTINUOUS
 70
0
 71
3
 72
11
 73
7
 74
5
 42
0.0000001
 43
0.0000001
 44
0.0000000001
 12
-0.0082756578
 22
-0.445261122
 32
0.0
 13
0.4452533212
 23
0.0086852307
 33
0.0
 40
0.0
 40
0.0
 40
0.0
 40
0.0
 40
0.2501115952
 40
0.4999997138
 40
0.7498866439
 40
1.0
 40
1.0
 40
1.0
 40
1.0
 10
-22.6271810694
 20
-22.3453066683
 30
0.0
 10
-22.6278710154
 20
-22.3824283248
 30
0.0
 10
-22.616235605
 20
-22.4578321917
 30
0.0
 10
-22.5547871486
 20
-22.5548147609
 30
0.0
 10
-22.4577998135
 20
-22.6162243455
 30
0.0
 10
-22.3823945226
 20
-22.6279051379
 30
0.0
 10
-22.3452732551
 20
-22.6271810405
 30
0.0
 11
-22.6271810694
 21
-22.3453066683
 31
0.0
 11
-22.608889748
 21
-22.4551787222
 31
0.0
 11
-22.5488656844
 21
-22.5488878032
 31
0.0
 11
-22.4551471771
 21
-22.6088961663
 31
0.0
 11
-22.3452732551
 21
-22.6271810405
 31
0.0
  0
SPLINE
  5
4D2
100
AcDbEntity
  8
RACCORDO
100
AcDbSpline
 62
253
  6
CONTINUOUS
 70
0
 71
3
 72
11
 73
7
 74
5
 42
0.0000001
 43
0.0000001
 44
0.0000000001
 12
0.0285988121
 22
-0.4317179711
 32
0.0
 13
0.4317195567
 23
-0.0285748665
 33
0.0
 40
0.0
 40
0.0
 40
0.0
 40
0.0
 40
0.2444838109
 40
0.499998308
 40
0.755509181
 40
1.0
 40
1.0
 40
1.0
 40
1.0
 10
-22.597966737
 20
-22.3160589508
 30
0.0
 10
-22.5956360882
 20
-22.3512416357
 30
0.0
 10
-22.5778052196
 20
-22.4229363311
 30
0.0
 10
-22.5146028749
 20
-22.5146013759
 30
0.0
 10
-22.4229382297
 20
-22.5778051046
 30
0.0
 10
-22.3512427734
 20
-22.5956379728
 30
0.0
 10
-22.3160589508
 20
-22.597966737
 30
0.0
 11
-22.597966737
 21
-22.3160589508
 31
0.0
 11
-22.5724612152
 21
-22.418717353
 31
0.0
 11
-22.509789682
 21
-22.5097888495
 31
0.0
 11
-22.4187203731
 21
-22.5724607955
 31
0.0
 11
-22.3160589508
 21
-22.597966737
 31
0.0
  0
SPLINE
  5
4D3
100
AcDbEntity
  8
RACCORDO
100
AcDbSpline
 62
253
  6
CONTINUOUS
 70
0
 71
3
 72
11
 73
7
 74
5
 42
0.0000001
 43
0.0000001
 44
0.0000000001
 12
0.0000157207
 22
-0.8843607793
 32
0.0
 13
-0.8843607788
 23
0.0000318597
 33
0.0
 40
0.0
 40
0.0
 40
0.0
 40
0.0
 40
0.2501538446
 40
0.5000000678
 40
0.7498449811
 40
1.0
 40
1.0
 40
1.0
 40
1.0
 10
23.4288116597
 20
-22.8649960872
 30
0.0
 10
23.4288129706
 20
-22.9387381702
 30
0.0
 10
23.4023630661
 20
-23.0878906947
 30
0.0
 10
23.278634984
 20
-23.2786325166
 30
0.0
 10
23.087882494
 20
-23.4023202085
 30
0.0
 10
22.9387385164
 20
-23.4288143163
 30
0.0
 10
22.8649960872
 20
-23.4288116597
 30
0.0
 11
23.4288116597
 21
-22.8649960872
 31
0.0
 11
23.3883164079
 21
-23.0824844497
 31
0.0
 11
23.267468617
 21
-23.2674616652
 31
0.0
 11
23.0824807916
 21
-23.388291096
 31
0.0
 11
22.8649960872
 21
-23.4288116597
 31
0.0
  0
SPLINE
  5
4D4
100
AcDbEntity
  8
RACCORDO
100
AcDbSpline
 62
253
  6
CONTINUOUS
 70
0
 71
3
 72
11
 73
7
 74
5
 42
0.0000001
 43
0.0000001
 44
0.0000000001
 12
0.8843607793
 22
0.0000157207
 32
0.0
 13
-0.0000318597
 23
-0.8843607788
 33
0.0
 40
0.0
 40
0.0
 40
0.0
 40
0.0
 40
0.2501538446
 40
0.5000000678
 40
0.7498449811
 40
1.0
 40
1.0
 40
1.0
 40
1.0
 10
22.8649960872
 20
23.4288116597
 30
0.0
 10
22.9387381702
 20
23.4288129706
 30
0.0
 10
23.0878906947
 20
23.4023630661
 30
0.0
 10
23.2786325166
 20
23.278634984
 30
0.0
 10
23.4023202085
 20
23.087882494
 30
0.0
 10
23.4288143163
 20
22.9387385164
 30
0.0
 10
23.4288116597
 20
22.8649960872
 30
0.0
 11
22.8649960872
 21
23.4288116597
 31
0.0
 11
23.0824844497
 21
23.3883164079
 31
0.0
 11
23.2674616652
 21
23.267468617
 31
0.0
 11
23.388291096
 21
23.0824807916
 31
0.0
 11
23.4288116597
 21
22.8649960872
 31
0.0
  0
SPLINE
  5
4D5
100
AcDbEntity
  8
RACCORDO
100
AcDbSpline
 62
253
  6
CONTINUOUS
 70
0
 71
3
 72
11
 73
7
 74
5
 42
0.0000001
 43
0.0000001
 44
0.0000000001
 12
-0.0000310851
 22
0.8843607931
 32
0.0
 13
0.8843607935
 23
-0.0000166958
 33
0.0
 40
0.0
 40
0.0
 40
0.0
 40
0.0
 40
0.2501550041
 40
0.4999999352
 40
0.7498461618
 40
1.0
 40
1.0
 40
1.0
 40
1.0
 10
-23.4288116597
 20
22.8649960872
 30
0.0
 10
-23.4288142517
 20
22.9387385132
 30
0.0
 10
-23.402320283
 20
23.0878825
 30
0.0
 10
-23.278632518
 20
23.278634999
 30
0.0
 10
-23.0878906963
 20
23.4023630202
 30
0.0
 10
-22.9387381695
 20
23.4288130519
 30
0.0
 10
-22.8649960872
 20
23.4288116597
 30
0.0
 11
-23.4288116597
 21
22.8649960872
 31
0.0
 11
-23.3882911272
 21
23.0824807877
 31
0.0
 11
-23.2674616758
 21
23.2674686227
 31
0.0
 11
-23.0824844471
 21
23.3883164055
 31
0.0
 11
-22.8649960872
 21
23.4288116597
 31
0.0
  0
SPLINE
  5
4D6
100
AcDbEntity
  8
RACCORDO
100
AcDbSpline
 62
253
  6
CONTINUOUS
 70
0
 71
3
 72
11
 73
7
 74
5
 42
0.0000001
 43
0.0000001
 44
0.0000000001
 12
-0.8843607793
 22
-0.0000157207
 32
0.0
 13
0.0000318597
 23
0.8843607788
 33
0.0
 40
0.0
 40
0.0
 40
0.0
 40
0.0
 40
0.2501538446
 40
0.5000000678
 40
0.7498449811
 40
1.0
 40
1.0
 40
1.0
 40
1.0
 10
-22.8649960872
 20
-23.4288116597
 30
0.0
 10
-22.9387381702
 20
-23.4288129706
 30
0.0
 10
-23.0878906947
 20
-23.4023630661
 30
0.0
 10
-23.2786325166
 20
-23.278634984
 30
0.0
 10
-23.4023202085
 20
-23.087882494
 30
0.0
 10
-23.4288143163
 20
-22.9387385164
 30
0.0
 10
-23.4288116597
 20
-22.8649960872
 30
0.0
 11
-22.8649960872
 21
-23.4288116597
 31
0.0
 11
-23.0824844497
 21
-23.3883164079
 31
0.0
 11
-23.2674616652
 21
-23.267468617
 31
0.0
 11
-23.388291096
 21
-23.0824807916
 31
0.0
 11
-23.4288116597
 21
-22.8649960872
 31
0.0
  0
SPLINE
  5
4D7
100
AcDbEntity
  8
RACCORDO
100
AcDbSpline
 62
253
  6
CONTINUOUS
 70
0
 71
3
 72
11
 73
7
 74
5
 42
0.0000001
 43
0.0000001
 44
0.0000000001
 12
0.0000498599
 22
0.6210287276
 32
0.0
 13
0.6210287245
 23
0.0000791702
 33
0.0
 40
0.0
 40
0.0
 40
0.0
 40
0.0
 40
0.2500058224
 40
0.5000008131
 40
0.7499857999
 40
1.0
 40
1.0
 40
1.0
 40
1.0
 10
-25.958934899
 20
25.5589958209
 30
0.0
 10
-25.9589307439
 20
25.6107494202
 30
0.0
 10
-25.9383418135
 20
25.7153585833
 30
0.0
 10
-25.8502220974
 20
25.847931494
 30
0.0
 10
-25.7184227265
 20
25.9368426493
 30
0.0
 10
-25.6139802898
 20
25.9589283011
 30
0.0
 10
-25.5622249565
 20
25.958934899
 30
0.0
 11
-25.958934899
 21
25.5589958209
 31
0.0
 11
-25.9288012655
 21
25.7113043224
 31
0.0
 11
-25.8429410873
 21
25.8406560001
 31
0.0
 11
-25.7142844319
 21
25.9275430686
 31
0.0
 11
-25.5622249565
 21
25.958934899
 31
0.0
  0
SPLINE
  5
4D8
100
AcDbEntity
  8
RACCORDO
100
AcDbSpline
 62
253
  6
CONTINUOUS
 70
0
 71
3
 72
11
 73
7
 74
5
 42
0.0000001
 43
0.0000001
 44
0.0000000001
 12
0.6210287326
 22
-0.0000498599
 32
0.0
 13
0.0000791702
 23
-0.6210287295
 33
0.0
 40
0.0
 40
0.0
 40
0.0
 40
0.0
 40
0.2500058224
 40
0.5000008131
 40
0.7499857999
 40
1.0
 40
1.0
 40
1.0
 40
1.0
 10
25.5589958209
 20
25.958934899
 30
0.0
 10
25.6107494206
 20
25.9589307439
 30
0.0
 10
25.7153585846
 20
25.9383418132
 30
0.0
 10
25.8479314959
 20
25.8502220957
 30
0.0
 10
25.9368426514
 20
25.718422723
 30
0.0
 10
25.9589283011
 20
25.6139802851
 30
0.0
 10
25.958934899
 20
25.5622249514
 30
0.0
 11
25.5589958209
 21
25.958934899
 31
0.0
 11
25.7113043236
 21
25.928801265
 31
0.0
 11
25.8406560019
 21
25.8429410855
 31
0.0
 11
25.9275430701
 21
25.7142844284
 31
0.0
 11
25.958934899
 21
25.5622249514
 31
0.0
  0
SPLINE
  5
4D9
100
AcDbEntity
  8
RACCORDO
100
AcDbSpline
 62
253
  6
CONTINUOUS
 70
0
 71
3
 72
9
 73
5
 74
3
 42
0.0000001
 43
0.0000001
 44
0.0000000001
 12
0.0021313426
 22
-0.0423976486
 32
0.0
 13
0.0375520622
 23
-0.0197976225
 33
0.0
 40
0.0
 40
0.0
 40
0.0
 40
0.0
 40
0.384735205
 40
1.0
 40
1.0
 40
1.0
 40
1.0
 10
22.5979659103
 20
-22.3160589024
 30
0.0
 10
22.5982392445
 20
-22.3214961918
 30
0.0
 10
22.607305982
 20
-22.3342584903
 30
0.0
 10
22.6194844299
 20
-22.3412129947
 30
0.0
 10
22.6271859171
 20
-22.3452732547
 30
0.0
 11
22.5979659103
 21
-22.3160589024
 31
0.0
 11
22.6056764298
 21
-22.3304567263
 31
0.0
 11
22.6271859171
 21
-22.3452732547
 31
0.0
  0
SPLINE
  5
4DA
100
AcDbEntity
  8
RACCORDO
100
AcDbSpline
 62
253
  6
CONTINUOUS
 70
0
 71
3
 72
9
 73
5
 74
3
 42
0.0000001
 43
0.0000001
 44
0.0000000001
 12
0.0423943008
 22
-0.0021270596
 32
0.0
 13
0.0197954465
 23
-0.0375491867
 33
0.0
 40
0.0
 40
0.0
 40
0.0
 40
0.0
 40
0.3847717293
 40
1.0
 40
1.0
 40
1.0
 40
1.0
 10
22.3160589427
 20
-22.5979665987
 30
0.0
 10
22.3214963189
 20
-22.5982394095
 30
0.0
 10
22.3342594283
 20
-22.6073025503
 30
0.0
 10
22.3412136815
 20
-22.619480477
 30
0.0
 10
22.3452732543
 20
-22.6271809174
 30
0.0
 11
22.3160589427
 21
-22.5979665987
 31
0.0
 11
22.3304580892
 21
-22.605675032
 31
0.0
 11
22.3452732543
 21
-22.6271809174
 31
0.0
  0
SPLINE
  5
4DB
100
AcDbEntity
  8
RACCORDO
100
AcDbSpline
 62
253
  6
CONTINUOUS
 70
0
 71
3
 72
9
 73
5
 74
3
 42
0.0000001
 43
0.0000001
 44
0.0000000001
 12
-0.0423976486
 22
-0.0021313426
 32
0.0
 13
-0.0197976225
 23
-0.0375520622
 33
0.0
 40
0.0
 40
0.0
 40
0.0
 40
0.0
 40
0.384735205
 40
1.0
 40
1.0
 40
1.0
 40
1.0
 10
-22.3160589024
 20
-22.5979659103
 30
0.0
 10
-22.3214961918
 20
-22.5982392445
 30
0.0
 10
-22.3342584903
 20
-22.607305982
 30
0.0
 10
-22.3412129947
 20
-22.6194844299
 30
0.0
 10
-22.3452732547
 20
-22.6271859171
 30
0.0
 11
-22.3160589024
 21
-22.5979659103
 31
0.0
 11
-22.3304567263
 21
-22.6056764298
 31
0.0
 11
-22.3452732547
 21
-22.6271859171
 31
0.0
  0
SPLINE
  5
4DC
100
AcDbEntity
  8
RACCORDO
100
AcDbSpline
 62
253
  6
CONTINUOUS
 70
0
 71
3
 72
9
 73
5
 74
3
 42
0.0000001
 43
0.0000001
 44
0.0000000001
 12
-0.0021270596
 22
-0.0423943008
 32
0.0
 13
-0.0375491867
 23
-0.0197954465
 33
0.0
 40
0.0
 40
0.0
 40
0.0
 40
0.0
 40
0.3847717293
 40
1.0
 40
1.0
 40
1.0
 40
1.0
 10
-22.5979665987
 20
-22.3160589427
 30
0.0
 10
-22.5982394095
 20
-22.3214963189
 30
0.0
 10
-22.6073025503
 20
-22.3342594283
 30
0.0
 10
-22.619480477
 20
-22.3412136815
 30
0.0
 10
-22.6271809174
 20
-22.3452732543
 30
0.0
 11
-22.5979665987
 21
-22.3160589427
 31
0.0
 11
-22.605675032
 21
-22.3304580892
 31
0.0
 11
-22.6271809174
 21
-22.3452732543
 31
0.0
  0
SPLINE
  5
4DD
100
AcDbEntity
  8
RACCORDO
100
AcDbSpline
 62
253
  6
CONTINUOUS
 70
0
 71
3
 72
9
 73
5
 74
3
 42
0.0000001
 43
0.0000001
 44
0.0000000001
 12
-0.0021276972
 22
0.0423951825
 32
0.0
 13
-0.0375503783
 23
0.0197951429
 33
0.0
 40
0.0
 40
0.0
 40
0.0
 40
0.0
 40
0.3847699103
 40
1.0
 40
1.0
 40
1.0
 40
1.0
 10
-22.5979665782
 20
-48.6839410585
 30
0.0
 10
-22.5982394694
 20
-48.678503595
 30
0.0
 10
-22.6073031365
 20
-48.6657404048
 30
0.0
 10
-22.6194814473
 20
-48.6587862678
 30
0.0
 10
-22.6271821548
 20
-48.6547267452
 30
0.0
 11
-22.5979665782
 21
-48.6839410585
 31
0.0
 11
-22.6056754386
 21
-48.6695418299
 31
0.0
 11
-22.6271821548
 21
-48.6547267452
 31
0.0
  0
SPLINE
  5
4DE
100
AcDbEntity
  8
RACCORDO
100
AcDbSpline
 62
253
  6
CONTINUOUS
 70
0
 71
3
 72
9
 73
5
 74
3
 42
0.0000001
 43
0.0000001
 44
0.0000000001
 12
-0.0423952029
 22
0.002125971
 32
0.0
 13
-0.0197954014
 23
0.0375501673
 33
0.0
 40
0.0
 40
0.0
 40
0.0
 40
0.0
 40
0.384766998
 40
1.0
 40
1.0
 40
1.0
 40
1.0
 10
-22.3160586523
 20
-48.4020383978
 30
0.0
 10
-22.3214960773
 20
-48.4017657299
 30
0.0
 10
-22.3342595021
 20
-48.3927022499
 30
0.0
 10
-22.3412136612
 20
-48.3805239949
 30
0.0
 10
-22.3452732559
 20
-48.3728232942
 30
0.0
 11
-22.3160586523
 21
-48.4020383978
 31
0.0
 11
-22.3304579301
 21
-48.394329945
 31
0.0
 11
-22.3452732559
 21
-48.3728232942
 31
0.0
  0
SPLINE
  5
4DF
100
AcDbEntity
  8
RACCORDO
100
AcDbSpline
 62
253
  6
CONTINUOUS
 70
0
 71
3
 72
9
 73
5
 74
3
 42
0.0000001
 43
0.0000001
 44
0.0000000001
 12
0.0423976486
 22
0.0021313426
 32
0.0
 13
0.0197976225
 23
0.0375520622
 33
0.0
 40
0.0
 40
0.0
 40
0.0
 40
0.0
 40
0.384735205
 40
1.0
 40
1.0
 40
1.0
 40
1.0
 10
22.3160589024
 20
-48.4020340897
 30
0.0
 10
22.3214961918
 20
-48.4017607555
 30
0.0
 10
22.3342584903
 20
-48.392694018
 30
0.0
 10
22.3412129947
 20
-48.3805155701
 30
0.0
 10
22.3452732547
 20
-48.3728140829
 30
0.0
 11
22.3160589024
 21
-48.4020340897
 31
0.0
 11
22.3304567263
 21
-48.3943235702
 31
0.0
 11
22.3452732547
 21
-48.3728140829
 31
0.0
  0
SPLINE
  5
4E0
100
AcDbEntity
  8
RACCORDO
100
AcDbSpline
 62
253
  6
CONTINUOUS
 70
0
 71
3
 72
9
 73
5
 74
3
 42
0.0000001
 43
0.0000001
 44
0.0000000001
 12
0.0021270596
 22
0.0423943008
 32
0.0
 13
0.0375491867
 23
0.0197954465
 33
0.0
 40
0.0
 40
0.0
 40
0.0
 40
0.0
 40
0.3847717293
 40
1.0
 40
1.0
 40
1.0
 40
1.0
 10
22.5979665987
 20
-48.6839410573
 30
0.0
 10
22.5982394095
 20
-48.6785036811
 30
0.0
 10
22.6073025503
 20
-48.6657405717
 30
0.0
 10
22.619480477
 20
-48.6587863185
 30
0.0
 10
22.6271809174
 20
-48.6547267457
 30
0.0
 11
22.5979665987
 21
-48.6839410573
 31
0.0
 11
22.605675032
 21
-48.6695419108
 31
0.0
 11
22.6271809174
 21
-48.6547267457
 31
0.0
  0
SPLINE
  5
4E1
100
AcDbEntity
  8
RACCORDO
100
AcDbSpline
 62
253
  6
CONTINUOUS
 70
0
 71
3
 72
11
 73
7
 74
5
 42
0.0000001
 43
0.0000001
 44
0.0000000001
 12
0.4580212004
 22
0.043317967
 32
0.0
 13
-0.0434492328
 23
-0.4580087668
 33
0.0
 40
0.0
 40
0.0
 40
0.0
 40
0.0
 40
0.2481655321
 40
0.4999968063
 40
0.7518254935
 40
1.0
 40
1.0
 40
1.0
 40
1.0
 10
22.8650075502
 20
-47.8530953432
 30
0.0
 10
22.9028959085
 20
-47.8495120011
 30
0.0
 10
22.9814890065
 20
-47.8543398881
 30
0.0
 10
23.0865679023
 20
-47.9134395254
 30
0.0
 10
23.1456431893
 20
-48.0185221388
 30
0.0
 10
23.150498114
 20
-48.0971165319
 30
0.0
 10
23.1469037834
 20
-48.1350052318
 30
0.0
 11
22.8650075502
 21
-47.8530953432
 31
0.0
 11
22.9787668542
 21
-47.8627975634
 31
0.0
 11
23.0788634277
 21
-47.9211407812
 31
0.0
 11
23.1371958447
 21
-48.0212422718
 31
0.0
 11
23.1469037834
 21
-48.1350052318
 31
0.0
  0
SPLINE
  5
4E2
100
AcDbEntity
  8
RACCORDO
100
AcDbSpline
 62
253
  6
CONTINUOUS
 70
0
 71
3
 72
11
 73
7
 74
5
 42
0.0000001
 43
0.0000001
 44
0.0000000001
 12
0.0082756578
 22
0.445261122
 32
0.0
 13
-0.4452533212
 23
-0.0086852307
 33
0.0
 40
0.0
 40
0.0
 40
0.0
 40
0.0
 40
0.2501115952
 40
0.4999997138
 40
0.7498866439
 40
1.0
 40
1.0
 40
1.0
 40
1.0
 10
22.6271810694
 20
-48.6546933317
 30
0.0
 10
22.6278710154
 20
-48.6175716752
 30
0.0
 10
22.616235605
 20
-48.5421678083
 30
0.0
 10
22.5547871486
 20
-48.4451852391
 30
0.0
 10
22.4577998135
 20
-48.3837756545
 30
0.0
 10
22.3823945226
 20
-48.3720948621
 30
0.0
 10
22.3452732551
 20
-48.3728189595
 30
0.0
 11
22.6271810694
 21
-48.6546933317
 31
0.0
 11
22.608889748
 21
-48.5448212778
 31
0.0
 11
22.5488656844
 21
-48.4511121968
 31
0.0
 11
22.4551471771
 21
-48.3911038337
 31
0.0
 11
22.3452732551
 21
-48.3728189595
 31
0.0
  0
SPLINE
  5
4E3
100
AcDbEntity
  8
RACCORDO
100
AcDbSpline
 62
253
  6
CONTINUOUS
 70
0
 71
3
 72
11
 73
7
 74
5
 42
0.0000001
 43
0.0000001
 44
0.0000000001
 12
-0.0285988121
 22
0.4317179711
 32
0.0
 13
-0.4317195567
 23
0.0285748665
 33
0.0
 40
0.0
 40
0.0
 40
0.0
 40
0.0
 40
0.2444838109
 40
0.499998308
 40
0.755509181
 40
1.0
 40
1.0
 40
1.0
 40
1.0
 10
22.597966737
 20
-48.6839410492
 30
0.0
 10
22.5956360882
 20
-48.6487583643
 30
0.0
 10
22.5778052196
 20
-48.5770636689
 30
0.0
 10
22.5146028749
 20
-48.4853986241
 30
0.0
 10
22.4229382297
 20
-48.4221948954
 30
0.0
 10
22.3512427734
 20
-48.4043620272
 30
0.0
 10
22.3160589508
 20
-48.402033263
 30
0.0
 11
22.597966737
 21
-48.6839410492
 31
0.0
 11
22.5724612152
 21
-48.581282647
 31
0.0
 11
22.509789682
 21
-48.4902111505
 31
0.0
 11
22.4187203731
 21
-48.4275392045
 31
0.0
 11
22.3160589508
 21
-48.402033263
 31
0.0
  0
SPLINE
  5
4E4
100
AcDbEntity
  8
RACCORDO
100
AcDbSpline
 62
253
  6
CONTINUOUS
 70
0
 71
3
 72
11
 73
7
 74
5
 42
0.0000001
 43
0.0000001
 44
0.0000000001
 12
-0.0000498599
 22
-0.6210287384
 32
0.0
 13
-0.6210287354
 23
-0.0000791702
 33
0.0
 40
0.0
 40
0.0
 40
0.0
 40
0.0
 40
0.2500058224
 40
0.5000008131
 40
0.7499857999
 40
1.0
 40
1.0
 40
1.0
 40
1.0
 10
25.958934899
 20
-96.5589958209
 30
0.0
 10
25.9589307439
 20
-96.6107494211
 30
0.0
 10
25.9383418128
 20
-96.7153585862
 30
0.0
 10
25.8502220937
 20
-96.8479314981
 30
0.0
 10
25.7184227189
 20
-96.9368426538
 30
0.0
 10
25.6139802796
 20
-96.9589283011
 30
0.0
 10
25.5622249454
 20
-96.958934899
 30
0.0
 11
25.958934899
 21
-96.5589958209
 31
0.0
 11
25.9288012644
 21
-96.7113043249
 31
0.0
 11
25.8429410834
 21
-96.840656004
 31
0.0
 11
25.7142844243
 21
-96.9275430719
 31
0.0
 11
25.5622249454
 21
-96.958934899
 31
0.0
  0
SPLINE
  5
4E5
100
AcDbEntity
  8
RACCORDO
100
AcDbSpline
 62
253
  6
CONTINUOUS
 70
0
 71
3
 72
11
 73
7
 74
5
 42
0.0000001
 43
0.0000001
 44
0.0000000001
 12
0.043317967
 22
-0.4580212004
 32
0.0
 13
-0.4580087668
 23
0.0434492328
 33
0.0
 40
0.0
 40
0.0
 40
0.0
 40
0.0
 40
0.2481655321
 40
0.4999968063
 40
0.7518254935
 40
1.0
 40
1.0
 40
1.0
 40
1.0
 10
23.1469046568
 20
-93.8650075502
 30
0.0
 10
23.1504879989
 20
-93.9028959085
 30
0.0
 10
23.1456601119
 20
-93.9814890065
 30
0.0
 10
23.0865604746
 20
-94.0865679023
 30
0.0
 10
22.9814778612
 20
-94.1456431893
 30
0.0
 10
22.9028834681
 20
-94.150498114
 30
0.0
 10
22.8649947682
 20
-94.1469037834
 30
0.0
 11
23.1469046568
 21
-93.8650075502
 31
0.0
 11
23.1372024366
 21
-93.9787668542
 31
0.0
 11
23.0788592188
 21
-94.0788634277
 31
0.0
 11
22.9787577282
 21
-94.1371958447
 31
0.0
 11
22.8649947682
 21
-94.1469037834
 31
0.0
  0
SPLINE
  5
4E6
100
AcDbEntity
  8
RACCORDO
100
AcDbSpline
 62
253
  6
CONTINUOUS
 70
0
 71
3
 72
11
 73
7
 74
5
 42
0.0000001
 43
0.0000001
 44
0.0000000001
 12
0.445261122
 22
-0.0082756578
 32
0.0
 13
-0.0086852307
 23
0.4452533212
 33
0.0
 40
0.0
 40
0.0
 40
0.0
 40
0.0
 40
0.2501115952
 40
0.4999997138
 40
0.7498866439
 40
1.0
 40
1.0
 40
1.0
 40
1.0
 10
22.3453066683
 20
-93.6271810694
 30
0.0
 10
22.3824283248
 20
-93.6278710154
 30
0.0
 10
22.4578321917
 20
-93.616235605
 30
0.0
 10
22.5548147609
 20
-93.5547871486
 30
0.0
 10
22.6162243455
 20
-93.4577998135
 30
0.0
 10
22.6279051379
 20
-93.3823945226
 30
0.0
 10
22.6271810405
 20
-93.3452732551
 30
0.0
 11
22.3453066683
 21
-93.6271810694
 31
0.0
 11
22.4551787222
 21
-93.608889748
 31
0.0
 11
22.5488878032
 21
-93.5488656844
 31
0.0
 11
22.6088961663
 21
-93.4551471771
 31
0.0
 11
22.6271810405
 21
-93.3452732551
 31
0.0
  0
SPLINE
  5
4E7
100
AcDbEntity
  8
RACCORDO
100
AcDbSpline
 62
253
  6
CONTINUOUS
 70
0
 71
3
 72
11
 73
7
 74
5
 42
0.0000001
 43
0.0000001
 44
0.0000000001
 12
0.4317179711
 22
0.0285988121
 32
0.0
 13
0.0285748665
 23
0.4317195567
 33
0.0
 40
0.0
 40
0.0
 40
0.0
 40
0.0
 40
0.2444838109
 40
0.499998308
 40
0.755509181
 40
1.0
 40
1.0
 40
1.0
 40
1.0
 10
22.3160589508
 20
-93.597966737
 30
0.0
 10
22.3512416357
 20
-93.5956360882
 30
0.0
 10
22.4229363311
 20
-93.5778052196
 30
0.0
 10
22.5146013759
 20
-93.5146028749
 30
0.0
 10
22.5778051046
 20
-93.4229382297
 30
0.0
 10
22.5956379728
 20
-93.3512427734
 30
0.0
 10
22.597966737
 20
-93.3160589508
 30
0.0
 11
22.3160589508
 21
-93.597966737
 31
0.0
 11
22.418717353
 21
-93.5724612152
 31
0.0
 11
22.5097888495
 21
-93.509789682
 31
0.0
 11
22.5724607955
 21
-93.4187203731
 31
0.0
 11
22.597966737
 21
-93.3160589508
 31
0.0
  0
SPLINE
  5
4E8
100
AcDbEntity
  8
RACCORDO
100
AcDbSpline
 62
253
  6
CONTINUOUS
 70
0
 71
3
 72
11
 73
7
 74
5
 42
0.0000001
 43
0.0000001
 44
0.0000000001
 12
-0.431719563
 22
-0.0285747494
 32
0.0
 13
-0.0285985182
 23
-0.4317179891
 33
0.0
 40
0.0
 40
0.0
 40
0.0
 40
0.0
 40
0.2444907312
 40
0.5000016615
 40
0.7555160952
 40
1.0
 40
1.0
 40
1.0
 40
1.0
 10
-22.3160589508
 20
-48.402033263
 30
0.0
 10
-22.3512427613
 20
-48.4043620168
 30
0.0
 10
-22.4229382061
 20
-48.4221949093
 30
0.0
 10
-22.5146028582
 20
-48.4853986
 30
0.0
 10
-22.5778052094
 20
-48.5770636503
 30
0.0
 10
-22.5956361112
 20
-48.6487583493
 30
0.0
 10
-22.597966737
 20
-48.6839410492
 30
0.0
 11
-22.3160589508
 21
-48.402033263
 31
0.0
 11
-22.4187203351
 21
-48.4275391981
 31
0.0
 11
-22.5097896745
 21
-48.490211143
 31
0.0
 11
-22.5724612039
 21
-48.5812826083
 31
0.0
 11
-22.597966737
 21
-48.6839410492
 31
0.0
  0
SPLINE
  5
4E9
100
AcDbEntity
  8
RACCORDO
100
AcDbSpline
 62
253
  6
CONTINUOUS
 70
0
 71
3
 72
11
 73
7
 74
5
 42
0.0000001
 43
0.0000001
 44
0.0000000001
 12
-0.6210287303
 22
0.0000498599
 32
0.0
 13
-0.0000791702
 23
0.6210287272
 33
0.0
 40
0.0
 40
0.0
 40
0.0
 40
0.0
 40
0.2500058224
 40
0.5000008131
 40
0.7499857999
 40
1.0
 40
1.0
 40
1.0
 40
1.0
 10
-25.5589958209
 20
-96.958934899
 30
0.0
 10
-25.6107494204
 20
-96.9589307439
 30
0.0
 10
-25.715358584
 20
-96.9383418133
 30
0.0
 10
-25.847931495
 20
-96.8502220965
 30
0.0
 10
-25.9368426504
 20
-96.7184227246
 30
0.0
 10
-25.9589283011
 20
-96.6139802873
 30
0.0
 10
-25.958934899
 20
-96.5622249538
 30
0.0
 11
-25.5589958209
 21
-96.958934899
 31
0.0
 11
-25.711304323
 21
-96.9288012652
 31
0.0
 11
-25.840656001
 21
-96.8429410863
 31
0.0
 11
-25.9275430694
 21
-96.7142844301
 31
0.0
 11
-25.958934899
 21
-96.5622249538
 31
0.0
  0
SPLINE
  5
4EA
100
AcDbEntity
  8
RACCORDO
100
AcDbSpline
 62
253
  6
CONTINUOUS
 70
0
 71
3
 72
11
 73
7
 74
5
 42
0.0000001
 43
0.0000001
 44
0.0000000001
 12
-0.0434494719
 22
0.4580087334
 32
0.0
 13
0.4580211454
 23
-0.0433184355
 33
0.0
 40
0.0
 40
0.0
 40
0.0
 40
0.0
 40
0.248174496
 40
0.5000031929
 40
0.7518344432
 40
1.0
 40
1.0
 40
1.0
 40
1.0
 10
-23.1469037748
 20
-48.1350053575
 30
0.0
 10
-23.1504981251
 20
-48.097116662
 30
0.0
 10
-23.1456432288
 20
-48.0185222727
 30
0.0
 10
-23.0865680095
 20
-47.9134396185
 30
0.0
 10
-22.9814891423
 20
-47.8543399727
 30
0.0
 10
-22.9028960419
 20
-47.8495119528
 30
0.0
 10
-22.8650076844
 20
-47.853095334
 30
0.0
 11
-23.1469037748
 21
-48.1350053575
 31
0.0
 11
-23.1371958886
 21
-48.0212424006
 31
0.0
 11
-23.0788635255
 21
-47.9211408765
 31
0.0
 11
-22.9787669917
 21
-47.8627976177
 31
0.0
 11
-22.8650076844
 21
-47.853095334
 31
0.0
  0
SPLINE
  5
4EB
100
AcDbEntity
  8
RACCORDO
100
AcDbSpline
 62
253
  6
CONTINUOUS
 70
0
 71
3
 72
11
 73
7
 74
5
 42
0.0000001
 43
0.0000001
 44
0.0000000001
 12
-0.4452532521
 22
0.0086830778
 32
0.0
 13
0.0082773346
 23
-0.4452609797
 33
0.0
 40
0.0
 40
0.0
 40
0.0
 40
0.0
 40
0.2501133591
 40
0.5000002957
 40
0.749888392
 40
1.0
 40
1.0
 40
1.0
 40
1.0
 10
-22.345273254
 20
-48.3728189595
 30
0.0
 10
-22.3823945162
 20
-48.3720950416
 30
0.0
 10
-22.4577997806
 20
-48.3837755475
 30
0.0
 10
-22.5547871256
 20
-48.4451852212
 30
0.0
 10
-22.6162354615
 20
-48.5421677324
 30
0.0
 10
-22.6278711553
 20
-48.6175715773
 30
0.0
 10
-22.6271810695
 20
-48.6546932239
 30
0.0
 11
-22.345273254
 21
-48.3728189595
 31
0.0
 11
-22.4551471526
 21
-48.3911038133
 31
0.0
 11
-22.5488656427
 21
-48.4511121571
 31
0.0
 11
-22.6088896937
 21
-48.5448212014
 31
0.0
 11
-22.6271810695
 21
-48.6546932239
 31
0.0
  0
SPLINE
  5
4EC
100
AcDbEntity
  8
RACCORDO
100
AcDbSpline
 62
253
  6
CONTINUOUS
 70
0
 71
3
 72
11
 73
7
 74
5
 42
0.0000001
 43
0.0000001
 44
0.0000000001
 12
-0.4580212004
 22
-0.043317967
 32
0.0
 13
0.0434492328
 23
0.4580087668
 33
0.0
 40
0.0
 40
0.0
 40
0.0
 40
0.0
 40
0.2481655321
 40
0.4999968063
 40
0.7518254935
 40
1.0
 40
1.0
 40
1.0
 40
1.0
 10
-22.8650075502
 20
-94.1469046568
 30
0.0
 10
-22.9028959085
 20
-94.1504879989
 30
0.0
 10
-22.9814890065
 20
-94.1456601119
 30
0.0
 10
-23.0865679023
 20
-94.0865604746
 30
0.0
 10
-23.1456431893
 20
-93.9814778612
 30
0.0
 10
-23.150498114
 20
-93.9028834681
 30
0.0
 10
-23.1469037834
 20
-93.8649947682
 30
0.0
 11
-22.8650075502
 21
-94.1469046568
 31
0.0
 11
-22.9787668542
 21
-94.1372024366
 31
0.0
 11
-23.0788634277
 21
-94.0788592188
 31
0.0
 11
-23.1371958447
 21
-93.9787577282
 31
0.0
 11
-23.1469037834
 21
-93.8649947682
 31
0.0
  0
SPLINE
  5
4ED
100
AcDbEntity
  8
RACCORDO
100
AcDbSpline
 62
253
  6
CONTINUOUS
 70
0
 71
3
 72
11
 73
7
 74
5
 42
0.0000001
 43
0.0000001
 44
0.0000000001
 12
-0.0082756578
 22
-0.445261122
 32
0.0
 13
0.4452533212
 23
0.0086852307
 33
0.0
 40
0.0
 40
0.0
 40
0.0
 40
0.0
 40
0.2501115952
 40
0.4999997138
 40
0.7498866439
 40
1.0
 40
1.0
 40
1.0
 40
1.0
 10
-22.6271810694
 20
-93.3453066683
 30
0.0
 10
-22.6278710154
 20
-93.3824283248
 30
0.0
 10
-22.616235605
 20
-93.4578321917
 30
0.0
 10
-22.5547871486
 20
-93.5548147609
 30
0.0
 10
-22.4577998135
 20
-93.6162243455
 30
0.0
 10
-22.3823945226
 20
-93.6279051379
 30
0.0
 10
-22.3452732551
 20
-93.6271810405
 30
0.0
 11
-22.6271810694
 21
-93.3453066683
 31
0.0
 11
-22.608889748
 21
-93.4551787222
 31
0.0
 11
-22.5488656844
 21
-93.5488878032
 31
0.0
 11
-22.4551471771
 21
-93.6088961663
 31
0.0
 11
-22.3452732551
 21
-93.6271810405
 31
0.0
  0
SPLINE
  5
4EE
100
AcDbEntity
  8
RACCORDO
100
AcDbSpline
 62
253
  6
CONTINUOUS
 70
0
 71
3
 72
11
 73
7
 74
5
 42
0.0000001
 43
0.0000001
 44
0.0000000001
 12
0.0285988121
 22
-0.4317179711
 32
0.0
 13
0.4317195567
 23
-0.0285748665
 33
0.0
 40
0.0
 40
0.0
 40
0.0
 40
0.0
 40
0.2444838109
 40
0.499998308
 40
0.755509181
 40
1.0
 40
1.0
 40
1.0
 40
1.0
 10
-22.597966737
 20
-93.3160589508
 30
0.0
 10
-22.5956360882
 20
-93.3512416357
 30
0.0
 10
-22.5778052196
 20
-93.4229363311
 30
0.0
 10
-22.5146028749
 20
-93.5146013759
 30
0.0
 10
-22.4229382297
 20
-93.5778051046
 30
0.0
 10
-22.3512427734
 20
-93.5956379728
 30
0.0
 10
-22.3160589508
 20
-93.597966737
 30
0.0
 11
-22.597966737
 21
-93.3160589508
 31
0.0
 11
-22.5724612152
 21
-93.418717353
 31
0.0
 11
-22.509789682
 21
-93.5097888495
 31
0.0
 11
-22.4187203731
 21
-93.5724607955
 31
0.0
 11
-22.3160589508
 21
-93.597966737
 31
0.0
  0
SPLINE
  5
4EF
100
AcDbEntity
  8
RACCORDO
100
AcDbSpline
 62
253
  6
CONTINUOUS
 70
0
 71
3
 72
11
 73
7
 74
5
 42
0.0000001
 43
0.0000001
 44
0.0000000001
 12
0.0000157207
 22
-0.8843607793
 32
0.0
 13
-0.8843607788
 23
0.0000318597
 33
0.0
 40
0.0
 40
0.0
 40
0.0
 40
0.0
 40
0.2501538446
 40
0.5000000678
 40
0.7498449811
 40
1.0
 40
1.0
 40
1.0
 40
1.0
 10
23.4288116597
 20
-93.8649960872
 30
0.0
 10
23.4288129706
 20
-93.9387381702
 30
0.0
 10
23.4023630661
 20
-94.0878906947
 30
0.0
 10
23.278634984
 20
-94.2786325166
 30
0.0
 10
23.087882494
 20
-94.4023202085
 30
0.0
 10
22.9387385164
 20
-94.4288143163
 30
0.0
 10
22.8649960872
 20
-94.4288116597
 30
0.0
 11
23.4288116597
 21
-93.8649960872
 31
0.0
 11
23.3883164079
 21
-94.0824844497
 31
0.0
 11
23.267468617
 21
-94.2674616652
 31
0.0
 11
23.0824807916
 21
-94.388291096
 31
0.0
 11
22.8649960872
 21
-94.4288116597
 31
0.0
  0
SPLINE
  5
4F0
100
AcDbEntity
  8
RACCORDO
100
AcDbSpline
 62
253
  6
CONTINUOUS
 70
0
 71
3
 72
11
 73
7
 74
5
 42
0.0000001
 43
0.0000001
 44
0.0000000001
 12
0.8843607793
 22
0.0000157207
 32
0.0
 13
-0.0000318597
 23
-0.8843607788
 33
0.0
 40
0.0
 40
0.0
 40
0.0
 40
0.0
 40
0.2501538446
 40
0.5000000678
 40
0.7498449811
 40
1.0
 40
1.0
 40
1.0
 40
1.0
 10
22.8649960872
 20
-47.5711883403
 30
0.0
 10
22.9387381702
 20
-47.5711870294
 30
0.0
 10
23.0878906947
 20
-47.5976369339
 30
0.0
 10
23.2786325166
 20
-47.721365016
 30
0.0
 10
23.4023202085
 20
-47.912117506
 30
0.0
 10
23.4288143163
 20
-48.0612614836
 30
0.0
 10
23.4288116597
 20
-48.1350039128
 30
0.0
 11
22.8649960872
 21
-47.5711883403
 31
0.0
 11
23.0824844497
 21
-47.6116835921
 31
0.0
 11
23.2674616652
 21
-47.732531383
 31
0.0
 11
23.388291096
 21
-47.9175192084
 31
0.0
 11
23.4288116597
 21
-48.1350039128
 31
0.0
  0
SPLINE
  5
4F1
100
AcDbEntity
  8
RACCORDO
100
AcDbSpline
 62
253
  6
CONTINUOUS
 70
0
 71
3
 72
11
 73
7
 74
5
 42
0.0000001
 43
0.0000001
 44
0.0000000001
 12
-0.0000310851
 22
0.8843607931
 32
0.0
 13
0.8843607935
 23
-0.0000166958
 33
0.0
 40
0.0
 40
0.0
 40
0.0
 40
0.0
 40
0.2501550041
 40
0.4999999352
 40
0.7498461618
 40
1.0
 40
1.0
 40
1.0
 40
1.0
 10
-23.4288116597
 20
-48.1350039128
 30
0.0
 10
-23.4288142517
 20
-48.0612614868
 30
0.0
 10
-23.402320283
 20
-47.9121175
 30
0.0
 10
-23.278632518
 20
-47.721365001
 30
0.0
 10
-23.0878906963
 20
-47.5976369798
 30
0.0
 10
-22.9387381695
 20
-47.5711869481
 30
0.0
 10
-22.8649960872
 20
-47.5711883403
 30
0.0
 11
-23.4288116597
 21
-48.1350039128
 31
0.0
 11
-23.3882911272
 21
-47.9175192123
 31
0.0
 11
-23.2674616758
 21
-47.7325313773
 31
0.0
 11
-23.0824844471
 21
-47.6116835945
 31
0.0
 11
-22.8649960872
 21
-47.5711883403
 31
0.0
  0
SPLINE
  5
4F2
100
AcDbEntity
  8
RACCORDO
100
AcDbSpline
 62
253
  6
CONTINUOUS
 70
0
 71
3
 72
11
 73
7
 74
5
 42
0.0000001
 43
0.0000001
 44
0.0000000001
 12
-0.8843607793
 22
-0.0000157207
 32
0.0
 13
0.0000318597
 23
0.8843607788
 33
0.0
 40
0.0
 40
0.0
 40
0.0
 40
0.0
 40
0.2501538446
 40
0.5000000678
 40
0.7498449811
 40
1.0
 40
1.0
 40
1.0
 40
1.0
 10
-22.8649960872
 20
-94.4288116597
 30
0.0
 10
-22.9387381702
 20
-94.4288129706
 30
0.0
 10
-23.0878906947
 20
-94.4023630661
 30
0.0
 10
-23.2786325166
 20
-94.278634984
 30
0.0
 10
-23.4023202085
 20
-94.087882494
 30
0.0
 10
-23.4288143163
 20
-93.9387385164
 30
0.0
 10
-23.4288116597
 20
-93.8649960872
 30
0.0
 11
-22.8649960872
 21
-94.4288116597
 31
0.0
 11
-23.0824844497
 21
-94.3883164079
 31
0.0
 11
-23.2674616652
 21
-94.267468617
 31
0.0
 11
-23.388291096
 21
-94.0824807916
 31
0.0
 11
-23.4288116597
 21
-93.8649960872
 31
0.0
  0
SPLINE
  5
4F3
100
AcDbEntity
  8
RACCORDO
100
AcDbSpline
 62
253
  6
CONTINUOUS
 70
0
 71
3
 72
11
 73
7
 74
5
 42
0.0000001
 43
0.0000001
 44
0.0000000001
 12
0.0000498599
 22
0.6210287276
 32
0.0
 13
0.6210287245
 23
0.0000791702
 33
0.0
 40
0.0
 40
0.0
 40
0.0
 40
0.0
 40
0.2500058224
 40
0.5000008131
 40
0.7499857999
 40
1.0
 40
1.0
 40
1.0
 40
1.0
 10
-25.958934899
 20
-45.4410041791
 30
0.0
 10
-25.9589307439
 20
-45.3892505798
 30
0.0
 10
-25.9383418135
 20
-45.2846414167
 30
0.0
 10
-25.8502220974
 20
-45.152068506
 30
0.0
 10
-25.7184227265
 20
-45.0631573507
 30
0.0
 10
-25.6139802898
 20
-45.0410716989
 30
0.0
 10
-25.5622249565
 20
-45.041065101
 30
0.0
 11
-25.958934899
 21
-45.4410041791
 31
0.0
 11
-25.9288012655
 21
-45.2886956776
 31
0.0
 11
-25.8429410873
 21
-45.1593439999
 31
0.0
 11
-25.7142844319
 21
-45.0724569314
 31
0.0
 11
-25.5622249565
 21
-45.041065101
 31
0.0
  0
SPLINE
  5
4F4
100
AcDbEntity
  8
RACCORDO
100
AcDbSpline
 62
253
  6
CONTINUOUS
 70
0
 71
3
 72
11
 73
7
 74
5
 42
0.0000001
 43
0.0000001
 44
0.0000000001
 12
0.6210287326
 22
-0.0000498599
 32
0.0
 13
0.0000791702
 23
-0.6210287295
 33
0.0
 40
0.0
 40
0.0
 40
0.0
 40
0.0
 40
0.2500058224
 40
0.5000008131
 40
0.7499857999
 40
1.0
 40
1.0
 40
1.0
 40
1.0
 10
25.5589958209
 20
-45.041065101
 30
0.0
 10
25.6107494206
 20
-45.0410692561
 30
0.0
 10
25.7153585846
 20
-45.0616581868
 30
0.0
 10
25.8479314959
 20
-45.1497779043
 30
0.0
 10
25.9368426514
 20
-45.281577277
 30
0.0
 10
25.9589283011
 20
-45.3860197149
 30
0.0
 10
25.958934899
 20
-45.4377750486
 30
0.0
 11
25.5589958209
 21
-45.041065101
 31
0.0
 11
25.7113043236
 21
-45.071198735
 31
0.0
 11
25.8406560019
 21
-45.1570589145
 31
0.0
 11
25.9275430701
 21
-45.2857155716
 31
0.0
 11
25.958934899
 21
-45.4377750486
 31
0.0
  0
SPLINE
  5
4F5
100
AcDbEntity
  8
RACCORDO
100
AcDbSpline
 62
253
  6
CONTINUOUS
 70
0
 71
3
 72
9
 73
5
 74
3
 42
0.0000001
 43
0.0000001
 44
0.0000000001
 12
0.0021313426
 22
-0.0423976486
 32
0.0
 13
0.0375520622
 23
-0.0197976225
 33
0.0
 40
0.0
 40
0.0
 40
0.0
 40
0.0
 40
0.384735205
 40
1.0
 40
1.0
 40
1.0
 40
1.0
 10
22.5979659103
 20
-93.3160589024
 30
0.0
 10
22.5982392445
 20
-93.3214961918
 30
0.0
 10
22.607305982
 20
-93.3342584903
 30
0.0
 10
22.6194844299
 20
-93.3412129947
 30
0.0
 10
22.6271859171
 20
-93.3452732547
 30
0.0
 11
22.5979659103
 21
-93.3160589024
 31
0.0
 11
22.6056764298
 21
-93.3304567263
 31
0.0
 11
22.6271859171
 21
-93.3452732547
 31
0.0
  0
SPLINE
  5
4F6
100
AcDbEntity
  8
RACCORDO
100
AcDbSpline
 62
253
  6
CONTINUOUS
 70
0
 71
3
 72
9
 73
5
 74
3
 42
0.0000001
 43
0.0000001
 44
0.0000000001
 12
0.0423943008
 22
-0.0021270596
 32
0.0
 13
0.0197954465
 23
-0.0375491867
 33
0.0
 40
0.0
 40
0.0
 40
0.0
 40
0.0
 40
0.3847717293
 40
1.0
 40
1.0
 40
1.0
 40
1.0
 10
22.3160589427
 20
-93.5979665987
 30
0.0
 10
22.3214963189
 20
-93.5982394095
 30
0.0
 10
22.3342594283
 20
-93.6073025503
 30
0.0
 10
22.3412136815
 20
-93.619480477
 30
0.0
 10
22.3452732543
 20
-93.6271809174
 30
0.0
 11
22.3160589427
 21
-93.5979665987
 31
0.0
 11
22.3304580892
 21
-93.605675032
 31
0.0
 11
22.3452732543
 21
-93.6271809174
 31
0.0
  0
SPLINE
  5
4F7
100
AcDbEntity
  8
RACCORDO
100
AcDbSpline
 62
253
  6
CONTINUOUS
 70
0
 71
3
 72
9
 73
5
 74
3
 42
0.0000001
 43
0.0000001
 44
0.0000000001
 12
-0.0423976486
 22
-0.0021313426
 32
0.0
 13
-0.0197976225
 23
-0.0375520622
 33
0.0
 40
0.0
 40
0.0
 40
0.0
 40
0.0
 40
0.384735205
 40
1.0
 40
1.0
 40
1.0
 40
1.0
 10
-22.3160589024
 20
-93.5979659103
 30
0.0
 10
-22.3214961918
 20
-93.5982392445
 30
0.0
 10
-22.3342584903
 20
-93.607305982
 30
0.0
 10
-22.3412129947
 20
-93.6194844299
 30
0.0
 10
-22.3452732547
 20
-93.6271859171
 30
0.0
 11
-22.3160589024
 21
-93.5979659103
 31
0.0
 11
-22.3304567263
 21
-93.6056764298
 31
0.0
 11
-22.3452732547
 21
-93.6271859171
 31
0.0
  0
SPLINE
  5
4F8
100
AcDbEntity
  8
RACCORDO
100
AcDbSpline
 62
253
  6
CONTINUOUS
 70
0
 71
3
 72
9
 73
5
 74
3
 42
0.0000001
 43
0.0000001
 44
0.0000000001
 12
-0.0021270596
 22
-0.0423943008
 32
0.0
 13
-0.0375491867
 23
-0.0197954465
 33
0.0
 40
0.0
 40
0.0
 40
0.0
 40
0.0
 40
0.3847717293
 40
1.0
 40
1.0
 40
1.0
 40
1.0
 10
-22.5979665987
 20
-93.3160589427
 30
0.0
 10
-22.5982394095
 20
-93.3214963189
 30
0.0
 10
-22.6073025503
 20
-93.3342594283
 30
0.0
 10
-22.619480477
 20
-93.3412136815
 30
0.0
 10
-22.6271809174
 20
-93.3452732543
 30
0.0
 11
-22.5979665987
 21
-93.3160589427
 31
0.0
 11
-22.605675032
 21
-93.3304580892
 31
0.0
 11
-22.6271809174
 21
-93.3452732543
 31
0.0
  0
SPLINE
  5
4F9
100
AcDbEntity
  8
RACCORDO
100
AcDbSpline
 62
253
  6
CONTINUOUS
 70
0
 71
3
 72
23
 73
19
 74
17
 42
0.0000001
 43
0.0000001
 44
0.0000000001
 12
0.0052250696
 22
-0.6999442616
 32
0.0
 13
-0.6997738237
 23
-0.0163054114
 33
0.0
 40
0.0
 40
0.0
 40
0.0
 40
0.0
 40
0.1950458747
 40
0.3826397505
 40
0.555484779
 40
0.6343043597
 40
0.7070050217
 40
0.7729042947
 40
0.831352309
 40
0.8818043226
 40
0.9237617168
 40
0.9568261729
 40
0.969925046
 40
0.9806839856
 40
0.989079053
 40
0.9950984995
 40
0.9987336937
 40
1.0
 40
1.0
 40
1.0
 40
1.0
 10
94.2717055654
 20
45.4410041791
 30
0.0
 10
94.2720452748
 20
45.3954970988
 30
0.0
 10
94.2726489577
 20
45.3062211166
 30
0.0
 10
94.2733304269
 20
45.1766164487
 30
0.0
 10
94.2736968874
 20
45.0741287119
 30
0.0
 10
94.273846362
 20
44.9984475001
 30
0.0
 10
94.2738846142
 20
44.9477189912
 30
0.0
 10
94.2738534168
 20
44.901743231
 30
0.0
 10
94.2737520869
 20
44.860959799
 30
0.0
 10
94.2735856599
 20
44.8257593363
 30
0.0
 10
94.2733490904
 20
44.7964917682
 30
0.0
 10
94.2730999952
 20
44.7759158697
 30
0.0
 10
94.2728336573
 20
44.7626631251
 30
0.0
 10
94.2726728453
 20
44.7550850336
 30
0.0
 10
94.2724005778
 20
44.7493577489
 30
0.0
 10
94.2723580473
 20
44.7448261131
 30
0.0
 10
94.2718669343
 20
44.7428616501
 30
0.0
 10
94.2720009414
 20
44.741117675
 30
0.0
 10
94.2717055654
 20
44.7411107924
 30
0.0
 11
94.2717055654
 21
45.4410041791
 31
0.0
 11
94.2726258295
 21
45.3044822361
 31
0.0
 11
94.2733101961
 21
45.1731751041
 31
0.0
 11
94.2737309975
 21
45.0521905792
 31
0.0
 11
94.2738375011
 21
44.9970198316
 31
0.0
 11
94.2738730641
 21
44.9461320151
 31
0.0
 11
94.2738375212
 21
44.9000049256
 31
0.0
 11
94.2737310291
 21
44.8590935721
 31
0.0
 11
94.2735547429
 21
44.8237794308
 31
0.0
 11
94.2733102346
 21
44.794411793
 31
0.0
 11
94.2729996923
 21
44.7712699554
 31
0.0
 11
94.272820501
 21
44.7621029701
 31
0.0
 11
94.2726258281
 21
44.7545746188
 31
0.0
 11
94.2724162444
 21
44.7487021145
 31
0.0
 11
94.2721925013
 21
44.744494665
 31
0.0
 11
94.271955356
 21
44.7419612358
 31
0.0
 11
94.2717055654
 21
44.7411107924
 31
0.0
  0
SPLINE
  5
4FA
100
AcDbEntity
  8
RACCORDO
100
AcDbSpline
 62
253
  6
CONTINUOUS
 70
0
 71
3
 72
23
 73
19
 74
17
 42
0.0000001
 43
0.0000001
 44
0.0000000001
 12
0.699723268
 22
-0.0183467323
 32
0.0
 13
-0.0052239514
 23
-0.6999442583
 33
0.0
 40
0.0
 40
0.0
 40
0.0
 40
0.0
 40
0.0012669938
 40
0.0049023045
 40
0.010921506
 40
0.0193161922
 40
0.0300748356
 40
0.0431735956
 40
0.0762381591
 40
0.1181957108
 40
0.1686477238
 40
0.2270956894
 40
0.2929949544
 40
0.3656956318
 40
0.4445152214
 40
0.6173602503
 40
0.8049541264
 40
1.0
 40
1.0
 40
1.0
 40
1.0
 10
94.2717055654
 20
97.2588892076
 30
0.0
 10
94.2720010804
 20
97.2588814592
 30
0.0
 10
94.2718668465
 20
97.2571391275
 30
0.0
 10
94.2723581327
 20
97.2551726444
 30
0.0
 10
94.2724005787
 20
97.2506422304
 30
0.0
 10
94.2726728538
 20
97.2449146733
 30
0.0
 10
94.2728336333
 20
97.2373369527
 30
0.0
 10
94.2730999616
 20
97.2240841909
 30
0.0
 10
94.2733490495
 20
97.2035083139
 30
0.0
 10
94.2735856241
 20
97.1742406603
 30
0.0
 10
94.2737520543
 20
97.1390401816
 30
0.0
 10
94.2738533961
 20
97.0982567608
 30
0.0
 10
94.2738846153
 20
97.0522810119
 30
0.0
 10
94.2738463848
 20
97.0015524998
 30
0.0
 10
94.2736969233
 20
96.9258712835
 30
0.0
 10
94.2733304721
 20
96.8233835461
 30
0.0
 10
94.2726489716
 20
96.6937788806
 30
0.0
 10
94.2720452021
 20
96.6045029007
 30
0.0
 10
94.2717055654
 20
96.5589958209
 30
0.0
 11
94.2717055654
 21
97.2588892076
 31
0.0
 11
94.2719553915
 21
97.2580382732
 31
0.0
 11
94.2721925413
 21
97.2555047625
 31
0.0
 11
94.2724162692
 21
97.2512974839
 31
0.0
 11
94.2726258295
 21
97.2454252459
 31
0.0
 11
94.2728204818
 21
97.2378971016
 31
0.0
 11
94.2729996609
 21
97.2287301954
 31
0.0
 11
94.2733101961
 21
97.2055882828
 31
0.0
 11
94.2735547068
 21
97.1762205354
 31
0.0
 11
94.2737309975
 21
97.140906395
 31
0.0
 11
94.2738375011
 21
97.0999950764
 31
0.0
 11
94.2738730641
 21
97.0538679933
 31
0.0
 11
94.2738375212
 21
97.0029801668
 31
0.0
 11
94.2737310291
 21
96.9478094139
 31
0.0
 11
94.2733102346
 21
96.8268248907
 31
0.0
 11
94.2726258281
 21
96.6955177609
 31
0.0
 11
94.2717055654
 21
96.5589958209
 31
0.0
  0
SPLINE
  5
4FB
100
AcDbEntity
  8
RACCORDO
100
AcDbSpline
 62
253
  6
CONTINUOUS
 70
0
 71
3
 72
23
 73
19
 74
17
 42
0.0000001
 43
0.0000001
 44
0.0000000001
 12
0.0052250696
 22
-0.6999442616
 32
0.0
 13
-0.6997738237
 23
-0.0163054114
 33
0.0
 40
0.0
 40
0.0
 40
0.0
 40
0.0
 40
0.1950458747
 40
0.3826397505
 40
0.555484779
 40
0.6343043597
 40
0.7070050217
 40
0.7729042947
 40
0.831352309
 40
0.8818043226
 40
0.9237617168
 40
0.9568261729
 40
0.969925046
 40
0.9806839856
 40
0.989079053
 40
0.9950984995
 40
0.9987336937
 40
1.0
 40
1.0
 40
1.0
 40
1.0
 10
94.2717055654
 20
-25.5589958209
 30
0.0
 10
94.2720452748
 20
-25.6045029012
 30
0.0
 10
94.2726489577
 20
-25.6937788834
 30
0.0
 10
94.2733304269
 20
-25.8233835513
 30
0.0
 10
94.2736968874
 20
-25.9258712881
 30
0.0
 10
94.273846362
 20
-26.0015524999
 30
0.0
 10
94.2738846142
 20
-26.0522810088
 30
0.0
 10
94.2738534168
 20
-26.098256769
 30
0.0
 10
94.2737520869
 20
-26.139040201
 30
0.0
 10
94.2735856599
 20
-26.1742406637
 30
0.0
 10
94.2733490904
 20
-26.2035082318
 30
0.0
 10
94.2730999952
 20
-26.2240841303
 30
0.0
 10
94.2728336573
 20
-26.2373368749
 30
0.0
 10
94.2726728453
 20
-26.2449149664
 30
0.0
 10
94.2724005778
 20
-26.2506422511
 30
0.0
 10
94.2723580473
 20
-26.2551738869
 30
0.0
 10
94.2718669343
 20
-26.2571383499
 30
0.0
 10
94.2720009414
 20
-26.258882325
 30
0.0
 10
94.2717055654
 20
-26.2588892076
 30
0.0
 11
94.2717055654
 21
-25.5589958209
 31
0.0
 11
94.2726258295
 21
-25.6955177639
 31
0.0
 11
94.2733101961
 21
-25.8268248959
 31
0.0
 11
94.2737309975
 21
-25.9478094208
 31
0.0
 11
94.2738375011
 21
-26.0029801684
 31
0.0
 11
94.2738730641
 21
-26.0538679849
 31
0.0
 11
94.2738375212
 21
-26.0999950744
 31
0.0
 11
94.2737310291
 21
-26.1409064279
 31
0.0
 11
94.2735547429
 21
-26.1762205692
 31
0.0
 11
94.2733102346
 21
-26.205588207
 31
0.0
 11
94.2729996923
 21
-26.2287300446
 31
0.0
 11
94.272820501
 21
-26.2378970299
 31
0.0
 11
94.2726258281
 21
-26.2454253812
 31
0.0
 11
94.2724162444
 21
-26.2512978855
 31
0.0
 11
94.2721925013
 21
-26.255505335
 31
0.0
 11
94.271955356
 21
-26.2580387642
 31
0.0
 11
94.2717055654
 21
-26.2588892076
 31
0.0
  0
SPLINE
  5
4FC
100
AcDbEntity
  8
RACCORDO
100
AcDbSpline
 62
253
  6
CONTINUOUS
 70
0
 71
3
 72
23
 73
19
 74
17
 42
0.0000001
 43
0.0000001
 44
0.0000000001
 12
0.699723268
 22
-0.0183467323
 32
0.0
 13
-0.0052239514
 23
-0.6999442583
 33
0.0
 40
0.0
 40
0.0
 40
0.0
 40
0.0
 40
0.0012669938
 40
0.0049023045
 40
0.010921506
 40
0.0193161922
 40
0.0300748356
 40
0.0431735956
 40
0.0762381591
 40
0.1181957108
 40
0.1686477238
 40
0.2270956894
 40
0.2929949544
 40
0.3656956318
 40
0.4445152214
 40
0.6173602503
 40
0.8049541264
 40
1.0
 40
1.0
 40
1.0
 40
1.0
 10
94.2717055654
 20
26.2588892076
 30
0.0
 10
94.2720010804
 20
26.2588814592
 30
0.0
 10
94.2718668465
 20
26.2571391275
 30
0.0
 10
94.2723581327
 20
26.2551726444
 30
0.0
 10
94.2724005787
 20
26.2506422304
 30
0.0
 10
94.2726728538
 20
26.2449146733
 30
0.0
 10
94.2728336333
 20
26.2373369527
 30
0.0
 10
94.2730999616
 20
26.2240841909
 30
0.0
 10
94.2733490495
 20
26.2035083139
 30
0.0
 10
94.2735856241
 20
26.1742406603
 30
0.0
 10
94.2737520543
 20
26.1390401816
 30
0.0
 10
94.2738533961
 20
26.0982567608
 30
0.0
 10
94.2738846153
 20
26.0522810119
 30
0.0
 10
94.2738463848
 20
26.0015524998
 30
0.0
 10
94.2736969233
 20
25.9258712835
 30
0.0
 10
94.2733304721
 20
25.8233835461
 30
0.0
 10
94.2726489716
 20
25.6937788806
 30
0.0
 10
94.2720452021
 20
25.6045029007
 30
0.0
 10
94.2717055654
 20
25.5589958209
 30
0.0
 11
94.2717055654
 21
26.2588892076
 31
0.0
 11
94.2719553915
 21
26.2580382732
 31
0.0
 11
94.2721925413
 21
26.2555047625
 31
0.0
 11
94.2724162692
 21
26.2512974839
 31
0.0
 11
94.2726258295
 21
26.2454252459
 31
0.0
 11
94.2728204818
 21
26.2378971016
 31
0.0
 11
94.2729996609
 21
26.2287301954
 31
0.0
 11
94.2733101961
 21
26.2055882828
 31
0.0
 11
94.2735547068
 21
26.1762205354
 31
0.0
 11
94.2737309975
 21
26.140906395
 31
0.0
 11
94.2738375011
 21
26.0999950764
 31
0.0
 11
94.2738730641
 21
26.0538679933
 31
0.0
 11
94.2738375212
 21
26.0029801668
 31
0.0
 11
94.2737310291
 21
25.9478094139
 31
0.0
 11
94.2733102346
 21
25.8268248907
 31
0.0
 11
94.2726258281
 21
25.6955177609
 31
0.0
 11
94.2717055654
 21
25.5589958209
 31
0.0
  0
SPLINE
  5
4FD
100
AcDbEntity
  8
RACCORDO
100
AcDbSpline
 62
253
  6
CONTINUOUS
 70
0
 71
3
 72
23
 73
19
 74
17
 42
0.0000001
 43
0.0000001
 44
0.0000000001
 12
0.0052250696
 22
-0.6999442616
 32
0.0
 13
-0.6997738237
 23
-0.0163054114
 33
0.0
 40
0.0
 40
0.0
 40
0.0
 40
0.0
 40
0.1950458747
 40
0.3826397505
 40
0.555484779
 40
0.6343043597
 40
0.7070050217
 40
0.7729042947
 40
0.831352309
 40
0.8818043226
 40
0.9237617168
 40
0.9568261729
 40
0.969925046
 40
0.9806839856
 40
0.989079053
 40
0.9950984995
 40
0.9987336937
 40
1.0
 40
1.0
 40
1.0
 40
1.0
 10
94.2717055654
 20
-96.5589958209
 30
0.0
 10
94.2720452748
 20
-96.6045029012
 30
0.0
 10
94.2726489577
 20
-96.6937788834
 30
0.0
 10
94.2733304269
 20
-96.8233835513
 30
0.0
 10
94.2736968874
 20
-96.9258712881
 30
0.0
 10
94.273846362
 20
-97.0015524999
 30
0.0
 10
94.2738846142
 20
-97.0522810088
 30
0.0
 10
94.2738534168
 20
-97.098256769
 30
0.0
 10
94.2737520869
 20
-97.139040201
 30
0.0
 10
94.2735856599
 20
-97.1742406637
 30
0.0
 10
94.2733490904
 20
-97.2035082318
 30
0.0
 10
94.2730999952
 20
-97.2240841303
 30
0.0
 10
94.2728336573
 20
-97.2373368749
 30
0.0
 10
94.2726728453
 20
-97.2449149664
 30
0.0
 10
94.2724005778
 20
-97.2506422511
 30
0.0
 10
94.2723580473
 20
-97.2551738869
 30
0.0
 10
94.2718669343
 20
-97.2571383499
 30
0.0
 10
94.2720009414
 20
-97.258882325
 30
0.0
 10
94.2717055654
 20
-97.2588892076
 30
0.0
 11
94.2717055654
 21
-96.5589958209
 31
0.0
 11
94.2726258295
 21
-96.6955177639
 31
0.0
 11
94.2733101961
 21
-96.8268248959
 31
0.0
 11
94.2737309975
 21
-96.9478094208
 31
0.0
 11
94.2738375011
 21
-97.0029801684
 31
0.0
 11
94.2738730641
 21
-97.0538679849
 31
0.0
 11
94.2738375212
 21
-97.0999950744
 31
0.0
 11
94.2737310291
 21
-97.1409064279
 31
0.0
 11
94.2735547429
 21
-97.1762205692
 31
0.0
 11
94.2733102346
 21
-97.205588207
 31
0.0
 11
94.2729996923
 21
-97.2287300446
 31
0.0
 11
94.272820501
 21
-97.2378970299
 31
0.0
 11
94.2726258281
 21
-97.2454253812
 31
0.0
 11
94.2724162444
 21
-97.2512978855
 31
0.0
 11
94.2721925013
 21
-97.255505335
 31
0.0
 11
94.271955356
 21
-97.2580387642
 31
0.0
 11
94.2717055654
 21
-97.2588892076
 31
0.0
  0
SPLINE
  5
4FE
100
AcDbEntity
  8
RACCORDO
100
AcDbSpline
 62
253
  6
CONTINUOUS
 70
0
 71
3
 72
23
 73
19
 74
17
 42
0.0000001
 43
0.0000001
 44
0.0000000001
 12
0.699723268
 22
-0.0183467323
 32
0.0
 13
-0.0052239514
 23
-0.6999442583
 33
0.0
 40
0.0
 40
0.0
 40
0.0
 40
0.0
 40
0.0012669938
 40
0.0049023045
 40
0.010921506
 40
0.0193161922
 40
0.0300748356
 40
0.0431735956
 40
0.0762381591
 40
0.1181957108
 40
0.1686477238
 40
0.2270956894
 40
0.2929949544
 40
0.3656956318
 40
0.4445152214
 40
0.6173602503
 40
0.8049541264
 40
1.0
 40
1.0
 40
1.0
 40
1.0
 10
94.2717055654
 20
-44.7411107924
 30
0.0
 10
94.2720010804
 20
-44.7411185408
 30
0.0
 10
94.2718668465
 20
-44.7428608725
 30
0.0
 10
94.2723581327
 20
-44.7448273556
 30
0.0
 10
94.2724005787
 20
-44.7493577696
 30
0.0
 10
94.2726728538
 20
-44.7550853267
 30
0.0
 10
94.2728336333
 20
-44.7626630473
 30
0.0
 10
94.2730999616
 20
-44.7759158091
 30
0.0
 10
94.2733490495
 20
-44.7964916861
 30
0.0
 10
94.2735856241
 20
-44.8257593397
 30
0.0
 10
94.2737520543
 20
-44.8609598184
 30
0.0
 10
94.2738533961
 20
-44.9017432392
 30
0.0
 10
94.2738846153
 20
-44.9477189881
 30
0.0
 10
94.2738463848
 20
-44.9984475002
 30
0.0
 10
94.2736969233
 20
-45.0741287165
 30
0.0
 10
94.2733304721
 20
-45.1766164539
 30
0.0
 10
94.2726489716
 20
-45.3062211194
 30
0.0
 10
94.2720452021
 20
-45.3954970993
 30
0.0
 10
94.2717055654
 20
-45.4410041791
 30
0.0
 11
94.2717055654
 21
-44.7411107924
 31
0.0
 11
94.2719553915
 21
-44.7419617268
 31
0.0
 11
94.2721925413
 21
-44.7444952375
 31
0.0
 11
94.2724162692
 21
-44.7487025161
 31
0.0
 11
94.2726258295
 21
-44.7545747541
 31
0.0
 11
94.2728204818
 21
-44.7621028984
 31
0.0
 11
94.2729996609
 21
-44.7712698046
 31
0.0
 11
94.2733101961
 21
-44.7944117172
 31
0.0
 11
94.2735547068
 21
-44.8237794646
 31
0.0
 11
94.2737309975
 21
-44.859093605
 31
0.0
 11
94.2738375011
 21
-44.9000049236
 31
0.0
 11
94.2738730641
 21
-44.9461320067
 31
0.0
 11
94.2738375212
 21
-44.9970198332
 31
0.0
 11
94.2737310291
 21
-45.0521905861
 31
0.0
 11
94.2733102346
 21
-45.1731751093
 31
0.0
 11
94.2726258281
 21
-45.3044822391
 31
0.0
 11
94.2717055654
 21
-45.4410041791
 31
0.0
  0
ELLIPSE
  5
4FF
100
AcDbEntity
  8
RACCORDO
100
AcDbEllipse
 62
7
  6
CONTINUOUS
 10
22.2920995224
 20
93.2920995224
 30
0.0
 11
-0.2121966568
 21
-0.2121966568
 31
0.0
 40
0.9996954599
 41
2.3563467834
 42
3.9268385237
  0
ELLIPSE
  5
500
100
AcDbEntity
  8
RACCORDO
100
AcDbEllipse
 62
7
  6
CONTINUOUS
 10
22.2920995224
 20
48.7079004776
 30
0.0
 11
-0.2121966568
 21
0.2121966568
 31
0.0
 40
0.9996954599
 41
2.3563467834
 42
3.9268385237
  0
ELLIPSE
  5
501
100
AcDbEntity
  8
RACCORDO
100
AcDbEllipse
 62
7
  6
CONTINUOUS
 10
-22.2920995224
 20
93.2920995224
 30
0.0
 11
-0.2121966568
 21
0.2121966568
 31
0.0
 40
0.9996954599
 41
-0.7852458701
 42
0.7852458701
  0
ELLIPSE
  5
502
100
AcDbEntity
  8
RACCORDO
100
AcDbEllipse
 62
7
  6
CONTINUOUS
 10
-22.2920995224
 20
48.7079004776
 30
0.0
 11
0.2121966568
 21
0.2121966568
 31
0.0
 40
0.9996954599
 41
2.3563467834
 42
3.9268385237
  0
ELLIPSE
  5
503
100
AcDbEntity
  8
RACCORDO
100
AcDbEllipse
 62
7
  6
CONTINUOUS
 10
-25.5929113444
 20
45.4070886556
 30
0.0
 11
0.4951255324
 21
0.4951255324
 31
0.0
 40
0.9996954599
 41
-3.9268385237
 42
-2.3563467834
  0
ELLIPSE
  5
504
100
AcDbEntity
  8
RACCORDO
100
AcDbEllipse
 62
7
  6
CONTINUOUS
 10
25.5929113444
 20
45.4070886556
 30
0.0
 11
0.4951255324
 21
-0.4951255324
 31
0.0
 40
0.9996954599
 41
-0.7852458701
 42
0.7852458702
  0
ELLIPSE
  5
505
100
AcDbEntity
  8
RACCORDO
100
AcDbEllipse
 62
7
  6
CONTINUOUS
 10
25.5929113444
 20
96.5929113444
 30
0.0
 11
0.4951255324
 21
0.4951255324
 31
0.0
 40
0.9996954599
 41
-0.7852458701
 42
0.7852458702
  0
ELLIPSE
  5
506
100
AcDbEntity
  8
RACCORDO
100
AcDbEllipse
 62
7
  6
CONTINUOUS
 10
-25.5929113444
 20
96.5929113444
 30
0.0
 11
0.4951255324
 21
-0.4951255324
 31
0.0
 40
0.9996954599
 41
2.3563467834
 42
3.9268385237
  0
ELLIPSE
  5
507
100
AcDbEntity
  8
RACCORDO
100
AcDbEllipse
 62
7
  6
CONTINUOUS
 10
22.2920995224
 20
22.2920995224
 30
0.0
 11
-0.2121966568
 21
-0.2121966568
 31
0.0
 40
0.9996954599
 41
2.3563467834
 42
3.9268385237
  0
ELLIPSE
  5
508
100
AcDbEntity
  8
RACCORDO
100
AcDbEllipse
 62
7
  6
CONTINUOUS
 10
22.2920995224
 20
-22.2920995224
 30
0.0
 11
-0.2121966568
 21
0.2121966568
 31
0.0
 40
0.9996954599
 41
2.3563467834
 42
3.9268385237
  0
ELLIPSE
  5
509
100
AcDbEntity
  8
RACCORDO
100
AcDbEllipse
 62
7
  6
CONTINUOUS
 10
-22.2920995224
 20
22.2920995224
 30
0.0
 11
-0.2121966568
 21
0.2121966568
 31
0.0
 40
0.9996954599
 41
-0.7852458701
 42
0.7852458701
  0
ELLIPSE
  5
50A
100
AcDbEntity
  8
RACCORDO
100
AcDbEllipse
 62
7
  6
CONTINUOUS
 10
-22.2920995224
 20
-22.2920995224
 30
0.0
 11
0.2121966568
 21
0.2121966568
 31
0.0
 40
0.9996954599
 41
2.3563467834
 42
3.9268385237
  0
ELLIPSE
  5
50B
100
AcDbEntity
  8
RACCORDO
100
AcDbEllipse
 62
7
  6
CONTINUOUS
 10
-25.5929113444
 20
-25.5929113444
 30
0.0
 11
0.4951255324
 21
0.4951255324
 31
0.0
 40
0.9996954599
 41
-3.9268385237
 42
-2.3563467834
  0
ELLIPSE
  5
50C
100
AcDbEntity
  8
RACCORDO
100
AcDbEllipse
 62
7
  6
CONTINUOUS
 10
25.5929113444
 20
-25.5929113444
 30
0.0
 11
0.4951255324
 21
-0.4951255324
 31
0.0
 40
0.9996954599
 41
-0.7852458701
 42
0.7852458702
  0
ELLIPSE
  5
50D
100
AcDbEntity
  8
RACCORDO
100
AcDbEllipse
 62
7
  6
CONTINUOUS
 10
25.5929113444
 20
25.5929113444
 30
0.0
 11
0.4951255324
 21
0.4951255324
 31
0.0
 40
0.9996954599
 41
-0.7852458702
 42
0.7852458701
  0
ELLIPSE
  5
50E
100
AcDbEntity
  8
RACCORDO
100
AcDbEllipse
 62
7
  6
CONTINUOUS
 10
-25.5929113444
 20
25.5929113444
 30
0.0
 11
-0.4951255324
 21
0.4951255324
 31
0.0
 40
0.9996954599
 41
-0.7852458702
 42
0.7852458701
  0
ELLIPSE
  5
50F
100
AcDbEntity
  8
RACCORDO
100
AcDbEllipse
 62
7
  6
CONTINUOUS
 10
22.2920995224
 20
-48.7079004776
 30
0.0
 11
-0.2121966568
 21
-0.2121966568
 31
0.0
 40
0.9996954599
 41
2.3563467834
 42
3.9268385237
  0
ELLIPSE
  5
510
100
AcDbEntity
  8
RACCORDO
100
AcDbEllipse
 62
7
  6
CONTINUOUS
 10
22.2920995224
 20
-93.2920995224
 30
0.0
 11
-0.2121966568
 21
0.2121966568
 31
0.0
 40
0.9996954599
 41
2.3563467834
 42
3.9268385237
  0
ELLIPSE
  5
511
100
AcDbEntity
  8
RACCORDO
100
AcDbEllipse
 62
7
  6
CONTINUOUS
 10
-22.2920995224
 20
-48.7079004776
 30
0.0
 11
-0.2121966568
 21
0.2121966568
 31
0.0
 40
0.9996954599
 41
-0.7852458701
 42
0.7852458701
  0
ELLIPSE
  5
512
100
AcDbEntity
  8
RACCORDO
100
AcDbEllipse
 62
7
  6
CONTINUOUS
 10
-22.2920995224
 20
-93.2920995224
 30
0.0
 11
0.2121966568
 21
0.2121966568
 31
0.0
 40
0.9996954599
 41
2.3563467834
 42
3.9268385237
  0
ELLIPSE
  5
513
100
AcDbEntity
  8
RACCORDO
100
AcDbEllipse
 62
7
  6
CONTINUOUS
 10
-25.5929113444
 20
-96.5929113444
 30
0.0
 11
0.4951255324
 21
0.4951255324
 31
0.0
 40
0.9996954599
 41
2.3563467834
 42
3.9268385237
  0
ELLIPSE
  5
514
100
AcDbEntity
  8
RACCORDO
100
AcDbEllipse
 62
7
  6
CONTINUOUS
 10
25.5929113444
 20
-96.5929113444
 30
0.0
 11
0.4951255324
 21
-0.4951255324
 31
0.0
 40
0.9996954599
 41
-0.7852458702
 42
0.7852458701
  0
ELLIPSE
  5
515
100
AcDbEntity
  8
RACCORDO
100
AcDbEllipse
 62
7
  6
CONTINUOUS
 10
25.5929113444
 20
-45.4070886556
 30
0.0
 11
0.4951255324
 21
0.4951255324
 31
0.0
 40
0.9996954599
 41
-0.7852458702
 42
0.7852458701
  0
ELLIPSE
  5
516
100
AcDbEntity
  8
RACCORDO
100
AcDbEllipse
 62
7
  6
CONTINUOUS
 10
-25.5929113444
 20
-45.4070886556
 30
0.0
 11
-0.4951255324
 21
0.4951255324
 31
0.0
 40
0.9996954599
 41
-0.7852458701
 42
0.7852458702
  0
ELLIPSE
  5
517
100
AcDbEntity
  8
0
100
AcDbEllipse
 62
7
  6
CONTINUOUS
 10
85.1669940536
 20
58.0
 30
0.0
 11
0.3003499811
 21
-0.0
 31
0.0
 40
0.9999984769
 41
-1.310683181
 42
1.3106831811
  0
ELLIPSE
  5
518
100
AcDbEntity
  8
0
100
AcDbEllipse
 62
7
  6
CONTINUOUS
 10
85.1669940536
 20
61.5
 30
0.0
 11
0.3003499811
 21
-0.0
 31
0.0
 40
0.9999984769
 41
-1.310683181
 42
1.3106831811
  0
ELLIPSE
  5
519
100
AcDbEntity
  8
0
100
AcDbEllipse
 62
7
  6
CONTINUOUS
 10
85.1669940536
 20
80.5
 30
0.0
 11
0.3003499811
 21
-0.0
 31
0.0
 40
0.9999984769
 41
-1.310683181
 42
1.3106831811
  0
ELLIPSE
  5
51A
100
AcDbEntity
  8
0
100
AcDbEllipse
 62
7
  6
CONTINUOUS
 10
85.1669940536
 20
84.0
 30
0.0
 11
0.3003499811
 21
-0.0
 31
0.0
 40
0.9999984769
 41
-1.310683181
 42
1.3106831811
  0
ELLIPSE
  5
51B
100
AcDbEntity
  8
ASSI
100
AcDbEllipse
 62
7
  6
CONTINUOUS
 10
85.1664698435
 20
-96.9914384441
 30
0.0
 11
-0.1417119467
 21
0.1422961243
 31
0.0
 40
0.9918061237
 41
-0.7350951877
 42
0.7833412615
  0
ELLIPSE
  5
51C
100
AcDbEntity
  8
SUPERFICI
100
AcDbEllipse
 62
7
  6
CONTINUOUS
 10
85.1669940536
 20
13.0
 30
0.0
 11
0.3003499811
 21
0.0
 31
0.0
 40
0.9999984769
 41
-1.3106831811
 42
1.310683181
  0
ELLIPSE
  5
51D
100
AcDbEntity
  8
SUPERFICI
100
AcDbEllipse
 62
7
  6
CONTINUOUS
 10
85.1669940536
 20
9.5
 30
0.0
 11
0.3003499811
 21
0.0
 31
0.0
 40
0.9999984769
 41
-1.3106831811
 42
1.310683181
  0
ELLIPSE
  5
51E
100
AcDbEntity
  8
SUPERFICI
100
AcDbEllipse
 62
7
  6
CONTINUOUS
 10
85.1669940536
 20
-9.5
 30
0.0
 11
0.3003499811
 21
-0.0
 31
0.0
 40
0.9999984769
 41
-1.310683181
 42
1.3106831811
  0
ELLIPSE
  5
51F
100
AcDbEntity
  8
SUPERFICI
100
AcDbEllipse
 62
7
  6
CONTINUOUS
 10
85.1669940536
 20
-13.0
 30
0.0
 11
0.3003499811
 21
-0.0
 31
0.0
 40
0.9999984769
 41
-1.310683181
 42
1.3106831811
  0
ELLIPSE
  5
520
100
AcDbEntity
  8
ASSI
100
AcDbEllipse
 62
7
  6
CONTINUOUS
 10
85.1664698435
 20
-45.0085615559
 30
0.0
 11
0.1417119467
 21
0.1422961243
 31
0.0
 40
0.9918061237
 41
-3.9249339151
 42
-2.4064974659
  0
ELLIPSE
  5
521
100
AcDbEntity
  8
0
100
AcDbEllipse
 62
7
  6
CONTINUOUS
 10
85.1669940536
 20
-84.0
 30
0.0
 11
0.3003499811
 21
0.0
 31
0.0
 40
0.9999984769
 41
-1.3106831811
 42
1.310683181
  0
ELLIPSE
  5
522
100
AcDbEntity
  8
0
100
AcDbEllipse
 62
7
  6
CONTINUOUS
 10
85.1664698435
 20
45.0085615559
 30
0.0
 11
-0.1417119467
 21
0.1422961243
 31
0.0
 40
0.9918061237
 41
-0.7350951877
 42
0.7833412615
  0
ELLIPSE
  5
523
100
AcDbEntity
  8
0
100
AcDbEllipse
 62
7
  6
CONTINUOUS
 10
85.1669940536
 20
-80.5
 30
0.0
 11
0.3003499811
 21
0.0
 31
0.0
 40
0.9999984769
 41
-1.3106831811
 42
1.310683181
  0
ELLIPSE
  5
524
100
AcDbEntity
  8
SUPERFICI
100
AcDbEllipse
 62
7
  6
CONTINUOUS
 10
85.1664698435
 20
25.9914384441
 30
0.0
 11
0.1417119467
 21
0.1422961243
 31
0.0
 40
0.9918061237
 41
-3.9249339151
 42
-2.4064974659
  0
ELLIPSE
  5
525
100
AcDbEntity
  8
SUPERFICI
100
AcDbEllipse
 62
7
  6
CONTINUOUS
 10
85.1664698435
 20
-25.9914384441
 30
0.0
 11
-0.1417119467
 21
0.1422961243
 31
0.0
 40
0.9918061237
 41
-0.7350951877
 42
0.7833412615
  0
ELLIPSE
  5
526
100
AcDbEntity
  8
0
100
AcDbEllipse
 62
7
  6
CONTINUOUS
 10
85.1664698435
 20
96.9914384441
 30
0.0
 11
0.1417119467
 21
0.1422961243
 31
0.0
 40
0.9918061237
 41
-3.9249339151
 42
-2.4064974659
  0
ELLIPSE
  5
527
100
AcDbEntity
  8
0
100
AcDbEllipse
 62
7
  6
CONTINUOUS
 10
85.1669940536
 20
-61.5
 30
0.0
 11
0.3003499811
 21
0.0
 31
0.0
 40
0.9999984769
 41
-1.3106831811
 42
1.310683181
  0
ELLIPSE
  5
528
100
AcDbEntity
  8
0
100
AcDbEllipse
 62
7
  6
CONTINUOUS
 10
85.1669940536
 20
-58.0
 30
0.0
 11
0.3003499811
 21
0.0
 31
0.0
 40
0.9999984769
 41
-1.3106831811
 42
1.310683181
  0
ENDSEC
  0
SECTION
  2
OBJECTS
  0
DICTIONARY
  5
C
100
AcDbDictionary
280
0
281
1
  3
ACAD_GROUP
350
D
  3
ACAD_MLINESTYLE
350
17
  3
ACAD_LAYOUT
350
1A
  3
ACAD_PLOTSETTINGS
350
19
  3
ACAD_PLOTSTYLENAME
350
E
  0
DICTIONARY
  5
D
102
{ACAD_REACTORS
330
C
102
}
100
AcDbDictionary
280
0
281
1
  0
ACDBDICTIONARYWDFLT
  5
E
102
{ACAD_REACTORS
330
C
102
}
100
AcDbDictionary
281
1
  3
Normal
350
F
100
AcDbDictionaryWithDefault
340
F
  0
DICTIONARY
  5
17
102
{ACAD_REACTORS
330
C
102
}
100
AcDbDictionary
280
0
281
1
  3
Standard
350
18
  0
DICTIONARY
  5
19
102
{ACAD_REACTORS
330
C
102
}
100
AcDbDictionary
281
1
  0
DICTIONARY
  5
1A
102
{ACAD_REACTORS
330
C
102
}
100
AcDbDictionary
281
1
  3
Model
350
529
  3
Layout1
350
52A
  0
ACDBPLACEHOLDER
  5
F
102
{ACAD_REACTORS
330
E
102
}
  0
MLINESTYLE
  5
18
102
{ACAD_REACTORS
330
17
102
}
100
AcDbMlineStyle
  2
STANDARD
 70
0
  3

 62
256
 51
90.0
 52
90.0
 71
2
 49
0.5
 62
256
  6
BYLAYER
 49
-0.5
 62
256
  6
BYLAYER
  0
LAYOUT
  5
529
102
{ACAD_REACTORS
330
1A
102
}
100
AcDbPlotSettings
  1

  2
none_device
  4
ISO_A4_(297.00_x_210.00_MM)
  6

 40
0.0
 41
0.0
 42
0.0
 43
0.0
 44
297.0
 45
210.0
 46
0.0
 47
0.0
 48
0.0
 49
0.0
140
0.0
141
0.0
142
1.0
143
1.0
 70
1024
 72
1
 73
0
 74
0
  7

 75
0
147
1.0
148
0.0
149
0.0
100
AcDbLayout
  1
Model
 70
0
 71
0
 10
0.0
 20
0.0
 11
297.0
 21
210.0
 12
0.0
 22
0.0
 32
0.0
 14
0.0
 24
0.0
 34
0.0
 15
0.0
 25
0.0
 35
0.0
146
0.0
 13
0.0
 23
0.0
 33
0.0
 16
1.0
 26
0.0
 36
0.0
 17
0.0
 27
1.0
 37
0.0
 76
0
330
215
345
0
346
0
  0
LAYOUT
  5
52A
102
{ACAD_REACTORS
330
1A
102
}
100
AcDbPlotSettings
  1

  2
none_device
  4
ISO_A4_(297.00_x_210.00_MM)
  6

 40
0.0
 41
0.0
 42
0.0
 43
0.0
 44
297.0
 45
210.0
 46
0.0
 47
0.0
 48
0.0
 49
0.0
140
0.0
141
0.0
142
1.0
143
1.0
 70
0
 72
1
 73
0
 74
0
  7

 75
0
147
1.0
148
0.0
149
0.0
100
AcDbLayout
  1
Layout1
 70
0
 71
1
 10
0.0
 20
0.0
 11
297.0
 21
210.0
 12
0.0
 22
0.0
 32
0.0
 14
0.0
 24
0.0
 34
0.0
 15
0.0
 25
0.0
 35
0.0
146
0.0
 13
0.0
 23
0.0
 33
0.0
 16
1.0
 26
0.0
 36
0.0
 17
0.0
 27
1.0
 37
0.0
 76
0
330
216
345
0
346
0
  0
ENDSEC
  0
EOF
