  0
SECTION
  2
HEADER
  9
$ACADVER
  1
AC1015
  9
$DWGCODEPAGE
  3
ANSI_1252
  9
$EXTMAX
 10
297.0
 20
210.0
 30
0.0
  9
$EXTMIN
 10
0.0
 20
0.0
 30
0.0
  9
$LIMMIN
 10
0.0
 20
0.0
  9
$LIMMAX
 10
297.0
 20
210.0
  9
$VIEWCTR
 10
148.5
 20
105.0
  9
$VIEWSIZE
 40
210.0
  9
$CLAYER
  8
0
  9
$LTSCALE
 40
16.335
  9
$CELTYPE
  6
BYLAYER
  9
$DIMSCALE
 40
1.0
  9
$DIMASZ
 40
3.0
  9
$DIMEXO
 40
1.85625
  9
$DIMDLI
 40
11.286
  9
$DIMEXE
 40
5.346
  9
$DIMCEN
 40
2.673
  9
$DIMLFAC
 40
1.0
  9
$DIMBLK
  1
_FILLED
  9
$DIMTXT
 40
3.0
  9
$DIMTOL
 70
1
  9
$DIMLIM
 70
0
  9
$DIMTFAC
 40
1.0
  9
$DIMTP
 40
0.01
  9
$DIMTM
 40
0.01
  9
$PDMODE
 70
3
  9
$PDSIZE
 40
3.0
  9
$HANDSEED
  5
555
  9
$TILEMODE
 70
1
  9
$MEASUREMENT
 70
1
  9
$INSUNITS
 70
4
  0
ENDSEC
  0
SECTION
  2
CLASSES
  0
CLASS
  1
ACDBDICTIONARYWDFLT
  2
AcDbDictionaryWithDefault
  3
AutoCAD 2000
 90
0
280
0
281
0
  0
CLASS
  1
ACDBPLACEHOLDER
  2
AcDbPlaceHolder
  3
AutoCAD 2000
 90
0
280
0
281
0
  0
CLASS
  1
LAYOUT
  2
AcDbLayout
  3
AutoCAD 2000
 90
0
280
0
281
0
  0
ENDSEC
  0
SECTION
  2
TABLES
  0
TABLE
  2
VPORT
  5
8
100
AcDbSymbolTable
 70
2
  0
VPORT
  5
1F4
100
AcDbSymbolTableRecord
100
AcDbViewportTableRecord
  2
*ACTIVE
 70
0
 10
0.0
 20
0.0
 11
1.0
 21
1.0
 12
148.5
 22
105.0
 13
0.0
 23
0.0
 14
1.0
 24
1.0
 15
0.0
 25
0.0
 16
0.0
 26
0.0
 36
1.0
 17
0.0
 27
0.0
 37
0.0
 40
210.0
 41
1.4142857143
 42
50.0
 43
0.0
 44
0.0
 50
0.0
 51
0.0
 71
0
 72
100
 73
1
 74
1
 75
0
 76
0
 77
0
 78
0
  0
ENDTAB
  0
TABLE
  2
LTYPE
  5
5
100
AcDbSymbolTable
 70
6
  0
LTYPE
  5
14
100
AcDbSymbolTableRecord
100
AcDbLinetypeTableRecord
  2
BYBLOCK
 70
0
  3

 72
65
 73
0
 40
0.0
  0
LTYPE
  5
15
100
AcDbSymbolTableRecord
100
AcDbLinetypeTableRecord
  2
BYLAYER
 70
0
  3

 72
65
 73
0
 40
0.0
  0
LTYPE
  5
16
100
AcDbSymbolTableRecord
100
AcDbLinetypeTableRecord
  2
CONTINUOUS
 70
64
  3
Solid line
 72
65
 73
0
 40
0.0
  0
LTYPE
  5
1F5
100
AcDbSymbolTableRecord
100
AcDbLinetypeTableRecord
  2
CENTER
 70
64
  3
____ _ ____ _ ____ _ ____ _ ____ _ ____ _ ____
 72
65
 73
4
 40
0.6
 49
0.375
 74
0
 49
-0.075
 74
0
 49
0.075
 74
0
 49
-0.075
 74
0
  0
LTYPE
  5
1F6
100
AcDbSymbolTableRecord
100
AcDbLinetypeTableRecord
  2
HIDDEN
 70
64
  3
- - - - - - - - - - - - - - - - - - - -
 72
65
 73
2
 40
0.2
 49
0.1
 74
0
 49
-0.1
 74
0
  0
LTYPE
  5
1F7
100
AcDbSymbolTableRecord
100
AcDbLinetypeTableRecord
  2
PHANTOM
 70
64
  3
_____ _ _ _____ _ _ _____ _ _ _____
 72
65
 73
6
 40
0.8
 49
0.45
 74
0
 49
-0.05
 74
0
 49
0.1
 74
0
 49
-0.05
 74
0
 49
0.1
 74
0
 49
-0.05
 74
0
  0
LTYPE
  5
1F8
100
AcDbSymbolTableRecord
100
AcDbLinetypeTableRecord
  2
DOT
 70
64
  3
. . . . . . . . . . . . . . . . . . . .
 72
65
 73
2
 40
0.2
 49
0.1
 74
0
 49
-0.1
 74
0
  0
LTYPE
  5
1F9
100
AcDbSymbolTableRecord
100
AcDbLinetypeTableRecord
  2
DASHED
 70
64
  3
- - - - - - - - - - - - - - - - - - - -
 72
65
 73
2
 40
0.2
 49
0.1
 74
0
 49
-0.1
 74
0
  0
ENDTAB
  0
TABLE
  2
LAYER
  5
2
100
AcDbSymbolTable
 70
36
  0
LAYER
  5
10
100
AcDbSymbolTableRecord
100
AcDbLayerTableRecord
  2
0
 70
0
 62
7
  6
CONTINUOUS
370
-3
390
F
  0
LAYER
  5
1FA
100
AcDbSymbolTableRecord
100
AcDbLayerTableRecord
  2
DEFAULT_1
 70
0
 62
7
  6
CENTER
370
-3
390
F
  0
LAYER
  5
1FB
100
AcDbSymbolTableRecord
100
AcDbLayerTableRecord
  2
DEFAULT_2
 70
0
 62
7
  6
HIDDEN
370
-3
390
F
  0
LAYER
  5
1FC
100
AcDbSymbolTableRecord
100
AcDbLayerTableRecord
  2
DEFAULT_3
 70
0
 62
7
  6
PHANTOM
370
-3
390
F
  0
LAYER
  5
1FD
100
AcDbSymbolTableRecord
100
AcDbLayerTableRecord
  2
ASSI
 70
0
 62
7
  6
CONTINUOUS
370
-3
390
F
  0
LAYER
  5
1FE
100
AcDbSymbolTableRecord
100
AcDbLayerTableRecord
  2
COORDINATE
 70
0
 62
7
  6
CONTINUOUS
370
-3
390
F
  0
LAYER
  5
1FF
100
AcDbSymbolTableRecord
100
AcDbLayerTableRecord
  2
COORD_ORIGINE
 70
0
 62
7
  6
CONTINUOUS
370
-3
390
F
  0
LAYER
  5
200
100
AcDbSymbolTableRecord
100
AcDbLayerTableRecord
  2
COPY_PUBLISH
 70
0
 62
7
  6
CONTINUOUS
370
-3
390
F
  0
LAYER
  5
201
100
AcDbSymbolTableRecord
100
AcDbLayerTableRecord
  2
COSMETIC
 70
0
 62
7
  6
CONTINUOUS
370
-3
390
F
  0
LAYER
  5
202
100
AcDbSymbolTableRecord
100
AcDbLayerTableRecord
  2
COSMETICI
 70
0
 62
7
  6
CONTINUOUS
370
-3
390
F
  0
LAYER
  5
203
100
AcDbSymbolTableRecord
100
AcDbLayerTableRecord
  2
CURVE
 70
0
 62
7
  6
CONTINUOUS
370
-3
390
F
  0
LAYER
  5
204
100
AcDbSymbolTableRecord
100
AcDbLayerTableRecord
  2
DRAFT
 70
0
 62
7
  6
CONTINUOUS
370
-3
390
F
  0
LAYER
  5
205
100
AcDbSymbolTableRecord
100
AcDbLayerTableRecord
  2
IMPORT_IGES
 70
0
 62
7
  6
CONTINUOUS
370
-3
390
F
  0
LAYER
  5
206
100
AcDbSymbolTableRecord
100
AcDbLayerTableRecord
  2
INTFCLR_2
 70
0
 62
7
  6
CONTINUOUS
370
-3
390
F
  0
LAYER
  5
207
100
AcDbSymbolTableRecord
100
AcDbLayerTableRecord
  2
NOTE
 70
0
 62
7
  6
CONTINUOUS
370
-3
390
F
  0
LAYER
  5
208
100
AcDbSymbolTableRecord
100
AcDbLayerTableRecord
  2
PIANI
 70
0
 62
7
  6
CONTINUOUS
370
-3
390
F
  0
LAYER
  5
209
100
AcDbSymbolTableRecord
100
AcDbLayerTableRecord
  2
PIANI_ORIGINE
 70
0
 62
7
  6
CONTINUOUS
370
-3
390
F
  0
LAYER
  5
20A
100
AcDbSymbolTableRecord
100
AcDbLayerTableRecord
  2
PIANI_RIFERIMENTO
 70
0
 62
7
  6
CONTINUOUS
370
-3
390
F
  0
LAYER
  5
20B
100
AcDbSymbolTableRecord
100
AcDbLayerTableRecord
  2
PUNTI
 70
0
 62
7
  6
CONTINUOUS
370
-3
390
F
  0
LAYER
  5
20C
100
AcDbSymbolTableRecord
100
AcDbLayerTableRecord
  2
RACCORDO
 70
0
 62
7
  6
CONTINUOUS
370
-3
390
F
  0
LAYER
  5
20D
100
AcDbSymbolTableRecord
100
AcDbLayerTableRecord
  2
SIMBOLI
 70
0
 62
7
  6
CONTINUOUS
370
-3
390
F
  0
LAYER
  5
20E
100
AcDbSymbolTableRecord
100
AcDbLayerTableRecord
  2
SMUSSO
 70
0
 62
7
  6
CONTINUOUS
370
-3
390
F
  0
LAYER
  5
20F
100
AcDbSymbolTableRecord
100
AcDbLayerTableRecord
  2
SNAPLINE
 70
0
 62
7
  6
CONTINUOUS
370
-3
390
F
  0
LAYER
  5
210
100
AcDbSymbolTableRecord
100
AcDbLayerTableRecord
  2
SUPERFICI
 70
0
 62
7
  6
CONTINUOUS
370
-3
390
F
  0
LAYER
  5
211
100
AcDbSymbolTableRecord
100
AcDbLayerTableRecord
  2
TRASH
 70
0
 62
7
  6
CONTINUOUS
370
-3
390
F
  0
LAYER
  5
212
100
AcDbSymbolTableRecord
100
AcDbLayerTableRecord
  2
XSEC_DATUMS
 70
0
 62
7
  6
CONTINUOUS
370
-3
390
F
  0
ENDTAB
  0
TABLE
  2
STYLE
  5
3
100
AcDbSymbolTable
 70
1
  0
STYLE
  5
11
100
AcDbSymbolTableRecord
100
AcDbTextStyleTableRecord
  2
STANDARD
 70
0
 40
0.0
 41
0.8
 50
0.0
 71
0
 42
0.2
  3
txt
  4

  0
STYLE
  5
213
100
AcDbSymbolTableRecord
100
AcDbTextStyleTableRecord
  2
TEXTSTYLE_1
 70
0
 40
0.0
 41
0.8
 50
0.0
 71
0
 42
0.2
  3
gdt
  4

  0
ENDTAB
  0
TABLE
  2
VIEW
  5
6
100
AcDbSymbolTable
 70
0
  0
ENDTAB
  0
TABLE
  2
UCS
  5
7
100
AcDbSymbolTable
 70
0
  0
ENDTAB
  0
TABLE
  2
APPID
  5
9
100
AcDbSymbolTable
 70
1
  0
APPID
  5
214
100
AcDbSymbolTableRecord
100
AcDbRegAppTableRecord
  2
ACAD
 70
0
  0
ENDTAB
  0
TABLE
  2
BLOCK_RECORD
  5
1
100
AcDbSymbolTable
 70
0
  0
BLOCK_RECORD
  5
215
100
AcDbSymbolTableRecord
100
AcDbBlockTableRecord
  2
*Model_Space
  0
BLOCK_RECORD
  5
216
100
AcDbSymbolTableRecord
100
AcDbBlockTableRecord
  2
*Paper_Space
  0
BLOCK_RECORD
  5
217
100
AcDbSymbolTableRecord
100
AcDbBlockTableRecord
  2
_FILLED
  0
BLOCK_RECORD
  5
218
100
AcDbSymbolTableRecord
100
AcDbBlockTableRecord
  2
*D0
  0
BLOCK_RECORD
  5
219
100
AcDbSymbolTableRecord
100
AcDbBlockTableRecord
  2
*D1
  0
BLOCK_RECORD
  5
21A
100
AcDbSymbolTableRecord
100
AcDbBlockTableRecord
  2
*D2
  0
BLOCK_RECORD
  5
21B
100
AcDbSymbolTableRecord
100
AcDbBlockTableRecord
  2
*D3
  0
ENDTAB
  0
TABLE
  2
DIMSTYLE
  5
A
100
AcDbSymbolTable
 70
1
100
AcDbDimStyleTable
 71
0
  0
DIMSTYLE
105
21C
100
AcDbSymbolTableRecord
100
AcDbDimStyleTableRecord
  2
STANDARD
 70
0
  3

  4

 40
1.0
 41
3.0
 42
0.0625
 43
0.38
 44
0.18
 45
0.0
 46
0.0
 47
0.01
 48
0.01
140
3.0
141
0.09
142
0.0
143
25.4
144
1.0
145
0.0
146
1.0
147
0.09
 71
1.0
 72
0.0
 73
0
 74
0
 75
0
 76
0
 77
1
 78
8
170
0
171
2
172
0
173
0
174
0
175
0
176
0
177
0
178
0
270
2
271
2
272
2
273
2
274
2
275
0
280
0
281
0
282
0
283
1
284
8
285
0
286
0
287
3
288
0
340
11
341
217
342
217
343
217
344
217
  0
DIMSTYLE
105
21D
100
AcDbSymbolTableRecord
100
AcDbDimStyleTableRecord
  2
DIMSTYLE_1
 70
0
  3

  4

 40
1.0
 41
3.0
 42
0.0625
 43
0.38
 44
0.18
 45
0.0
 46
0.0
 47
0.0
 48
0.0
140
3.0
141
0.09
142
0.0
143
25.4
144
1.0
145
0.0
146
1.0
147
0.09
 71
0.0
 72
0.0
 73
0
 74
0
 75
0
 76
0
 77
1
 78
8
170
0
171
2
172
0
173
0
174
0
175
0
176
0
177
0
178
0
270
2
271
2
272
2
273
2
274
2
275
0
280
0
281
0
282
0
283
1
284
8
285
0
286
0
287
3
288
0
340
11
341
217
342
217
343
217
344
217
  0
ENDTAB
  0
ENDSEC
  0
SECTION
  2
BLOCKS
  0
BLOCK
  5
20
100
AcDbEntity
  8
0
100
AcDbBlockBegin
  2
*Model_Space
 70
0
 10
0.0
 20
0.0
 30
0.0
  3
*Model_Space
  1

  0
ENDBLK
  5
21
100
AcDbEntity
  8
0
100
AcDbBlockEnd
  0
BLOCK
  5
1C
100
AcDbEntity
  8
0
100
AcDbBlockBegin
  2
*Paper_Space
 70
0
 10
0.0
 20
0.0
 30
0.0
  3
*Paper_Space
  1

  0
ENDBLK
  5
1D
100
AcDbEntity
  8
0
100
AcDbBlockEnd
  0
BLOCK
  5
21E
100
AcDbEntity
  8
0
100
AcDbBlockBegin
  2
_FILLED
 70
64
 10
0.0
 20
0.0
  3
_FILLED
  1

  0
SOLID
  5
21F
100
AcDbEntity
  8
0
  6
BYBLOCK
 62
0
100
AcDbTrace
 10
0.0
 20
0.0
 11
-1.0
 21
0.3166666667
 12
-1.0
 22
-0.3166666667
 13
-1.0
 23
-0.3166666667
  0
ENDBLK
  5
220
100
AcDbEntity
  8
0
  6
BYBLOCK
 62
0
100
AcDbBlockEnd
  0
BLOCK
  5
221
100
AcDbEntity
  8
0
100
AcDbBlockBegin
 62
7
  6
CONTINUOUS
  2
*D0
 70
65
 10
0.0
 20
0.0
  3
*D0
  1

  0
LINE
  5
222
100
AcDbEntity
  8
0
100
AcDbLine
 62
7
  6
CONTINUOUS
 10
-47.2
 20
118.7
 11
-57.2
 21
118.7
  0
LINE
  5
223
100
AcDbEntity
  8
0
100
AcDbLine
 62
7
  6
CONTINUOUS
 10
-47.2
 20
-118.7
 11
-57.2
 21
-118.7
  0
LINE
  5
224
100
AcDbEntity
  8
0
100
AcDbLine
 62
7
  6
CONTINUOUS
 10
-55.7
 20
118.7
 11
-55.7
 21
0.0
  0
LINE
  5
225
100
AcDbEntity
  8
0
100
AcDbLine
 62
7
  6
CONTINUOUS
 10
-55.7
 20
-118.7
 11
-55.7
 21
0.0
  0
INSERT
  5
226
100
AcDbEntity
  8
0
100
AcDbBlockReference
 62
7
  6
CONTINUOUS
  2
_FILLED
 10
-55.7
 20
118.7
 41
3.0
 42
3.0
 43
3.0
 50
90.0
  0
INSERT
  5
227
100
AcDbEntity
  8
0
100
AcDbBlockReference
 62
7
  6
CONTINUOUS
  2
_FILLED
 10
-55.7
 20
-118.7
 41
3.0
 42
3.0
 43
3.0
 50
270.0
  0
ENDBLK
  5
228
100
AcDbEntity
  8
0
  6
BYBLOCK
 62
0
100
AcDbBlockEnd
  0
BLOCK
  5
229
100
AcDbEntity
  8
0
100
AcDbBlockBegin
 62
7
  6
CONTINUOUS
  2
*D1
 70
65
 10
0.0
 20
0.0
  3
*D1
  1

  0
LINE
  5
22A
100
AcDbEntity
  8
0
100
AcDbLine
 62
7
  6
CONTINUOUS
 10
-47.7
 20
118.2
 11
-47.7
 21
128.2
  0
LINE
  5
22B
100
AcDbEntity
  8
0
100
AcDbLine
 62
7
  6
CONTINUOUS
 10
47.7
 20
118.2
 11
47.7
 21
128.2
  0
LINE
  5
22C
100
AcDbEntity
  8
0
100
AcDbLine
 62
7
  6
CONTINUOUS
 10
-47.7
 20
126.7
 11
0.0
 21
126.7
  0
LINE
  5
22D
100
AcDbEntity
  8
0
100
AcDbLine
 62
7
  6
CONTINUOUS
 10
47.7
 20
126.7
 11
0.0
 21
126.7
  0
INSERT
  5
22E
100
AcDbEntity
  8
0
100
AcDbBlockReference
 62
7
  6
CONTINUOUS
  2
_FILLED
 10
-47.7
 20
126.7
 41
3.0
 42
3.0
 43
3.0
 50
180.0
  0
INSERT
  5
22F
100
AcDbEntity
  8
0
100
AcDbBlockReference
 62
7
  6
CONTINUOUS
  2
_FILLED
 10
47.7
 20
126.7
 41
3.0
 42
3.0
 43
3.0
  0
ENDBLK
  5
230
100
AcDbEntity
  8
0
  6
BYBLOCK
 62
0
100
AcDbBlockEnd
  0
BLOCK
  5
231
100
AcDbEntity
  8
0
100
AcDbBlockBegin
 62
7
  6
CONTINUOUS
  2
*D2
 70
65
 10
0.0
 20
0.0
  3
*D2
  1

  0
LINE
  5
232
100
AcDbEntity
  8
0
100
AcDbLine
 62
7
  6
CONTINUOUS
 10
88.0933457259
 20
117.65
 11
88.0933457259
 21
128.2
  0
LINE
  5
233
100
AcDbEntity
  8
0
100
AcDbLine
 62
7
  6
CONTINUOUS
 10
96.6933457259
 20
97.0930331976
 11
96.6933457259
 21
128.2
  0
LINE
  5
234
100
AcDbEntity
  8
0
100
AcDbLine
 62
7
  6
CONTINUOUS
 10
88.0933457259
 20
126.7
 11
92.3933457259
 21
126.7
  0
LINE
  5
235
100
AcDbEntity
  8
0
100
AcDbLine
 62
7
  6
CONTINUOUS
 10
96.6933457259
 20
126.7
 11
92.3933457259
 21
126.7
  0
LINE
  5
236
100
AcDbEntity
  8
0
100
AcDbLine
 62
7
  6
CONTINUOUS
 10
92.3933457259
 20
126.7
 11
104.9593856666
 21
126.7
  0
INSERT
  5
237
100
AcDbEntity
  8
0
100
AcDbBlockReference
 62
7
  6
CONTINUOUS
  2
_FILLED
 10
88.0933457259
 20
126.7
 41
3.0
 42
3.0
 43
3.0
 50
180.0
  0
INSERT
  5
238
100
AcDbEntity
  8
0
100
AcDbBlockReference
 62
7
  6
CONTINUOUS
  2
_FILLED
 10
96.6933457259
 20
126.7
 41
3.0
 42
3.0
 43
3.0
  0
ENDBLK
  5
239
100
AcDbEntity
  8
0
  6
BYBLOCK
 62
0
100
AcDbBlockEnd
  0
BLOCK
  5
23A
100
AcDbEntity
  8
0
100
AcDbBlockBegin
 62
7
  6
CONTINUOUS
  2
*D3
 70
65
 10
0.0
 20
0.0
  3
*D3
  1

  0
LINE
  5
23B
100
AcDbEntity
  8
0
100
AcDbLine
 62
7
  6
CONTINUOUS
 10
96.6933457259
 20
97.0930331976
 11
96.6933457259
 21
138.2
  0
LINE
  5
23C
100
AcDbEntity
  8
0
100
AcDbLine
 62
7
  6
CONTINUOUS
 10
86.6933457259
 20
97.4897929133
 11
86.6933457259
 21
138.2
  0
LINE
  5
23D
100
AcDbEntity
  8
0
100
AcDbLine
 62
7
  6
CONTINUOUS
 10
96.6933457259
 20
136.7
 11
91.6933457259
 21
136.7
  0
LINE
  5
23E
100
AcDbEntity
  8
0
100
AcDbLine
 62
7
  6
CONTINUOUS
 10
91.6933457259
 20
136.7
 11
103.2510019897
 21
136.7
  0
LINE
  5
23F
100
AcDbEntity
  8
0
100
AcDbLine
 62
7
  6
CONTINUOUS
 10
86.6933457259
 20
136.7
 11
91.6933457259
 21
136.7
  0
INSERT
  5
240
100
AcDbEntity
  8
0
100
AcDbBlockReference
 62
7
  6
CONTINUOUS
  2
_FILLED
 10
96.6933457259
 20
136.7
 41
3.0
 42
3.0
 43
3.0
  0
INSERT
  5
241
100
AcDbEntity
  8
0
100
AcDbBlockReference
 62
7
  6
CONTINUOUS
  2
_FILLED
 10
86.6933457259
 20
136.7
 41
3.0
 42
3.0
 43
3.0
 50
180.0
  0
ENDBLK
  5
242
100
AcDbEntity
  8
0
  6
BYBLOCK
 62
0
100
AcDbBlockEnd
  0
ENDSEC
  0
SECTION
  2
ENTITIES
  0
DIMENSION
  5
243
100
AcDbEntity
  8
0
100
AcDbDimension
 62
7
  6
CONTINUOUS
  2
*D0
 10
-55.7
 20
-118.7
 11
-56.45
 21
-5.4642857143
 70
160
 71
2
 42
237.4
  3
DIMSTYLE_1
100
AcDbAlignedDimension
 13
-47.2
 23
118.7
 14
-47.2
 24
-118.7
 50
270.0
100
AcDbRotatedDimension
  0
DIMENSION
  5
244
100
AcDbEntity
  8
0
100
AcDbDimension
 62
7
  6
CONTINUOUS
  2
*D1
 10
47.7
 20
126.7
 11
-4.2857142857
 21
127.45
 70
160
 71
2
 42
95.4
  3
DIMSTYLE_1
100
AcDbAlignedDimension
 13
-47.7
 23
118.2
 14
47.7
 24
118.2
100
AcDbRotatedDimension
  0
DIMENSION
  5
245
100
AcDbEntity
  8
0
100
AcDbDimension
 62
7
  6
CONTINUOUS
  2
*D2
 10
96.6933457259
 20
126.7
 11
98.530814238
 21
127.45
 70
160
 71
1
 42
8.6
  3
DIMSTYLE_1
100
AcDbAlignedDimension
 13
88.0933457259
 23
117.65
 14
96.6933457259
 24
97.0930331976
100
AcDbRotatedDimension
  0
DIMENSION
  5
246
100
AcDbEntity
  8
0
100
AcDbDimension
 62
7
  6
CONTINUOUS
  2
*D3
 10
86.6933457259
 20
136.7
 11
99.1795734182
 21
137.45
 70
160
 71
1
 42
10.0
  3
DIMSTYLE_1
100
AcDbAlignedDimension
 13
96.6933457259
 23
97.0930331976
 14
86.6933457259
 24
97.4897929133
 50
180.0
100
AcDbRotatedDimension
  0
LINE
  5
247
100
AcDbEntity
  8
SMUSSO
100
AcDbLine
 62
7
  6
CONTINUOUS
 10
-46.7
 20
-118.7
 11
46.7
 21
-118.7
  0
LINE
  5
248
100
AcDbEntity
  8
SMUSSO
100
AcDbLine
 62
7
  6
CONTINUOUS
 10
-41.7
 20
-112.7
 11
41.7
 21
-112.7
  0
LWPOLYLINE
  5
249
100
AcDbEntity
  8
0
100
AcDbPolyline
 62
7
  6
CONTINUOUS
 90
10
 70
0
 43
0.3500000006
 10
-3.8571428204
 20
127.4500023193
 10
-3.0000000658
 20
128.3071402588
 10
-2.7857141647
 20
129.164287262
 10
-2.7857141647
 20
130.0214252014
 10
-3.2142856836
 20
130.4500032349
 10
-3.8571428204
 20
130.4500032349
 10
-4.2857143393
 20
130.0214252014
 10
-4.2857143393
 20
129.164287262
 10
-3.8571428204
 20
128.7357182922
 10
-2.9285714321
 20
128.7357182922
  0
LINE
  5
24A
100
AcDbEntity
  8
RACCORDO
100
AcDbLine
 62
7
  6
CONTINUOUS
 10
-25.6001066134
 20
-97.3
 11
25.6001066134
 21
-97.3
  0
LINE
  5
24B
100
AcDbEntity
  8
RACCORDO
100
AcDbLine
 62
253
  6
CONTINUOUS
 10
-25.5930331976
 20
-97.2929265842
 11
25.5930331976
 21
-97.2929265842
  0
LINE
  5
24C
100
AcDbEntity
  8
RACCORDO
100
AcDbLine
 62
253
  6
CONTINUOUS
 10
-25.5930331976
 20
-96.9929722756
 11
25.5962623332
 21
-96.9929722756
  0
LINE
  5
24D
100
AcDbEntity
  8
RACCORDO
100
AcDbLine
 62
253
  6
CONTINUOUS
 10
-26.2929265842
 20
-96.5930331956
 11
-25.9929722756
 21
-96.5930331976
  0
LINE
  5
24E
100
AcDbEntity
  8
RACCORDO
100
AcDbLine
 62
253
  6
CONTINUOUS
 10
26.2929265842
 20
-96.5930331962
 11
25.9929722756
 21
-96.5930331976
  0
LINE
  5
24F
100
AcDbEntity
  8
RACCORDO
100
AcDbLine
 62
253
  6
CONTINUOUS
 10
22.8649960872
 20
-94.4288116597
 11
-22.8649960872
 21
-94.4288116597
  0
LINE
  5
250
100
AcDbEntity
  8
RACCORDO
100
AcDbLine
 62
253
  6
CONTINUOUS
 10
22.8649948583
 20
-94.1469038735
 11
-22.8650067667
 21
-94.1469038735
  0
LINE
  5
251
100
AcDbEntity
  8
RACCORDO
100
AcDbLine
 62
253
  6
CONTINUOUS
 10
-23.4288116597
 20
-93.8649960872
 11
-23.1469038735
 21
-93.8649960872
  0
LINE
  5
252
100
AcDbEntity
  8
RACCORDO
100
AcDbLine
 62
253
  6
CONTINUOUS
 10
23.4288116597
 20
-93.8649960872
 11
23.1469038735
 21
-93.8649960873
  0
LINE
  5
253
100
AcDbEntity
  8
RACCORDO
100
AcDbLine
 62
253
  6
CONTINUOUS
 10
-22.2985854258
 20
-93.6286172716
 11
22.2985854258
 21
-93.6286172716
  0
LINE
  5
254
100
AcDbEntity
  8
RACCORDO
100
AcDbLine
 62
253
  6
CONTINUOUS
 10
-22.2985854258
 20
-93.5985397344
 11
22.2985854258
 21
-93.5985397344
  0
LINE
  5
255
100
AcDbEntity
  8
RACCORDO
100
AcDbLine
 62
7
  6
CONTINUOUS
 10
22.291318159
 20
-93.5912724675
 11
-22.291318159
 21
-93.5912724675
  0
LINE
  5
256
100
AcDbEntity
  8
RACCORDO
100
AcDbLine
 62
253
  6
CONTINUOUS
 10
22.5985397344
 20
-93.2985854258
 11
22.6286172716
 21
-93.2985854258
  0
LINE
  5
257
100
AcDbEntity
  8
RACCORDO
100
AcDbLine
 62
253
  6
CONTINUOUS
 10
-22.5985397344
 20
-93.2985854258
 11
-22.6286172712
 21
-93.2985854231
  0
LWPOLYLINE
  5
258
100
AcDbEntity
  8
0
100
AcDbPolyline
 62
7
  6
CONTINUOUS
 90
3
 70
0
 43
0.3500000006
 10
-57.0928570862
 20
4.6071432953
 10
-57.0928570862
 20
3.1071428375
 10
-59.4500000153
 20
3.750000824
  0
LWPOLYLINE
  5
259
100
AcDbEntity
  8
0
100
AcDbPolyline
 62
7
  6
CONTINUOUS
 90
7
 70
0
 43
0.3500000006
 10
-56.4499990997
 20
-3.9642859497
 10
-56.4499990997
 20
-5.4642852745
 10
-58.5928575439
 20
-3.9642859497
 10
-59.0214265137
 20
-3.9642859497
 10
-59.4500000153
 20
-4.3928571854
 10
-59.4500000153
 20
-5.0357140388
 10
-58.8071420288
 20
-5.4642852745
  0
LWPOLYLINE
  5
25A
100
AcDbEntity
  8
0
100
AcDbPolyline
 62
7
  6
CONTINUOUS
 90
6
 70
0
 43
0.3500000006
 10
-56.4499990997
 20
-3.1071423454
 10
-56.4499990997
 20
-2.0357142563
 10
-56.6642835846
 20
-1.8214286385
 10
-57.7357150726
 20
-1.8214286385
 10
-58.1642840424
 20
-2.2499998741
 10
-58.1642840424
 20
-2.6785711098
  0
LINE
  5
25B
100
AcDbEntity
  8
RACCORDO
100
AcDbLine
 62
253
  6
CONTINUOUS
 10
-26.2929265842
 20
45.4069668024
 11
-26.3
 21
45.3998933866
  0
LINE
  5
25C
100
AcDbEntity
  8
RACCORDO
100
AcDbLine
 62
253
  6
CONTINUOUS
 10
25.5930331976
 20
97.2929265842
 11
25.6001066134
 21
97.3
  0
LINE
  5
25D
100
AcDbEntity
  8
RACCORDO
100
AcDbLine
 62
253
  6
CONTINUOUS
 10
22.2985854258
 20
93.5985397344
 11
22.291318159
 21
93.5912724675
  0
LINE
  5
25E
100
AcDbEntity
  8
RACCORDO
100
AcDbLine
 62
253
  6
CONTINUOUS
 10
-22.5985397344
 20
48.7014145742
 11
-22.5912724675
 21
48.708681841
  0
LINE
  5
25F
100
AcDbEntity
  8
RACCORDO
100
AcDbLine
 62
253
  6
CONTINUOUS
 10
22.8650067667
 20
94.1469038735
 11
22.345273255
 21
93.6271810404
  0
LINE
  5
260
100
AcDbEntity
  8
RACCORDO
100
AcDbLine
 62
253
  6
CONTINUOUS
 10
-23.1469038735
 20
48.1350051417
 11
-22.6271795873
 21
48.6546948153
  0
LINE
  5
261
100
AcDbEntity
  8
SMUSSO
100
AcDbLine
 62
7
  6
CONTINUOUS
 10
47.4071067812
 20
118.4071067812
 11
41.7
 21
112.7
  0
LINE
  5
262
100
AcDbEntity
  8
RACCORDO
100
AcDbLine
 62
253
  6
CONTINUOUS
 10
-26.2929265842
 20
-45.4069668024
 11
-26.3
 21
-45.3998933866
  0
LINE
  5
263
100
AcDbEntity
  8
RACCORDO
100
AcDbLine
 62
253
  6
CONTINUOUS
 10
25.5930331976
 20
-97.2929265842
 11
25.6001066134
 21
-97.3
  0
LINE
  5
264
100
AcDbEntity
  8
RACCORDO
100
AcDbLine
 62
253
  6
CONTINUOUS
 10
22.2985854258
 20
-93.5985397344
 11
22.291318159
 21
-93.5912724675
  0
LINE
  5
265
100
AcDbEntity
  8
RACCORDO
100
AcDbLine
 62
253
  6
CONTINUOUS
 10
-22.5912724675
 20
-48.708681841
 11
-22.5985397344
 21
-48.7014145742
  0
LINE
  5
266
100
AcDbEntity
  8
RACCORDO
100
AcDbLine
 62
253
  6
CONTINUOUS
 10
-22.6271795883
 20
-48.6546947066
 11
-23.1469038735
 21
-48.1350052588
  0
LINE
  5
267
100
AcDbEntity
  8
RACCORDO
100
AcDbLine
 62
253
  6
CONTINUOUS
 10
22.8649948583
 20
-94.1469038735
 11
22.3453051847
 21
-93.6271795873
  0
LINE
  5
268
100
AcDbEntity
  8
SMUSSO
100
AcDbLine
 62
7
  6
CONTINUOUS
 10
47.4071067812
 20
-118.4071067812
 11
41.7
 21
-112.7
  0
LWPOLYLINE
  5
269
100
AcDbEntity
  8
0
100
AcDbPolyline
 62
7
  6
CONTINUOUS
 90
5
 70
0
 43
0.3500000006
 10
-58.1642840424
 20
-2.2499998741
 10
-58.3785730591
 20
-1.8928575554
 10
-59.0214265137
 20
-1.8928575554
 10
-59.4500000153
 20
-2.2499998741
 10
-59.4500000153
 20
-3.1071423454
  0
LINE
  5
26A
100
AcDbEntity
  8
SMUSSO
100
AcDbLine
 62
7
  6
CONTINUOUS
 10
-47.7
 20
117.7
 11
-47.7
 21
-117.7
  0
LINE
  5
26B
100
AcDbEntity
  8
SMUSSO
100
AcDbLine
 62
7
  6
CONTINUOUS
 10
-41.7
 20
112.7
 11
-41.7
 21
-112.7
  0
LINE
  5
26C
100
AcDbEntity
  8
RACCORDO
100
AcDbLine
 62
253
  6
CONTINUOUS
 10
23.1469038735
 20
93.8649948583
 11
22.6271795873
 21
93.3453051847
  0
LINE
  5
26D
100
AcDbEntity
  8
RACCORDO
100
AcDbLine
 62
253
  6
CONTINUOUS
 10
-22.8650067667
 20
47.8530961265
 11
-22.345273255
 21
48.3728189596
  0
LINE
  5
26E
100
AcDbEntity
  8
RACCORDO
100
AcDbLine
 62
253
  6
CONTINUOUS
 10
22.5985397344
 20
93.2985854258
 11
22.5912724675
 21
93.291318159
  0
LINE
  5
26F
100
AcDbEntity
  8
RACCORDO
100
AcDbLine
 62
253
  6
CONTINUOUS
 10
-22.2985854258
 20
48.4014602656
 11
-22.291318159
 21
48.4087275325
  0
LINE
  5
270
100
AcDbEntity
  8
RACCORDO
100
AcDbLine
 62
253
  6
CONTINUOUS
 10
-25.5930331976
 20
44.7070734158
 11
-25.6001066134
 21
44.7
  0
LINE
  5
271
100
AcDbEntity
  8
RACCORDO
100
AcDbLine
 62
253
  6
CONTINUOUS
 10
26.2929265842
 20
96.5930331976
 11
26.3
 21
96.6001066134
  0
LINE
  5
272
100
AcDbEntity
  8
RACCORDO
100
AcDbLine
 62
253
  6
CONTINUOUS
 10
-22.5985397344
 20
-48.7014145742
 11
-22.6286172716
 21
-48.7014145742
  0
LINE
  5
273
100
AcDbEntity
  8
RACCORDO
100
AcDbLine
 62
253
  6
CONTINUOUS
 10
22.5985397344
 20
-48.7014145742
 11
22.6286172712
 21
-48.7014145769
  0
LINE
  5
274
100
AcDbEntity
  8
RACCORDO
100
AcDbLine
 62
7
  6
CONTINUOUS
 10
-22.291318159
 20
-48.4087275325
 11
22.291318159
 21
-48.4087275325
  0
LINE
  5
275
100
AcDbEntity
  8
RACCORDO
100
AcDbLine
 62
253
  6
CONTINUOUS
 10
22.2985854258
 20
-48.4014602656
 11
-22.2985854258
 21
-48.4014602656
  0
LINE
  5
276
100
AcDbEntity
  8
RACCORDO
100
AcDbLine
 62
253
  6
CONTINUOUS
 10
22.2985854258
 20
-48.3713827284
 11
-22.2985854258
 21
-48.3713827284
  0
LINE
  5
277
100
AcDbEntity
  8
RACCORDO
100
AcDbLine
 62
253
  6
CONTINUOUS
 10
-23.4288116597
 20
-48.1350039128
 11
-23.1469038735
 21
-48.1350039128
  0
LINE
  5
278
100
AcDbEntity
  8
RACCORDO
100
AcDbLine
 62
253
  6
CONTINUOUS
 10
23.4288116597
 20
-48.1350039128
 11
23.1469038735
 21
-48.1350039128
  0
LINE
  5
279
100
AcDbEntity
  8
RACCORDO
100
AcDbLine
 62
253
  6
CONTINUOUS
 10
-22.8650068917
 20
-47.8530961265
 11
22.8650067667
 21
-47.8530961265
  0
LINE
  5
27A
100
AcDbEntity
  8
RACCORDO
100
AcDbLine
 62
253
  6
CONTINUOUS
 10
-22.8649960872
 20
-47.5711883403
 11
22.8649960872
 21
-47.5711883403
  0
LINE
  5
27B
100
AcDbEntity
  8
RACCORDO
100
AcDbLine
 62
253
  6
CONTINUOUS
 10
-26.2929265842
 20
-45.4069668038
 11
-25.9929722756
 21
-45.4069668024
  0
LINE
  5
27C
100
AcDbEntity
  8
RACCORDO
100
AcDbLine
 62
253
  6
CONTINUOUS
 10
26.2929265842
 20
-45.4069668044
 11
25.9929722756
 21
-45.4069668024
  0
LINE
  5
27D
100
AcDbEntity
  8
RACCORDO
100
AcDbLine
 62
253
  6
CONTINUOUS
 10
25.5930331976
 20
-45.0070277244
 11
-25.5962623223
 21
-45.0070277244
  0
LINE
  5
27E
100
AcDbEntity
  8
RACCORDO
100
AcDbLine
 62
253
  6
CONTINUOUS
 10
25.5930331976
 20
-44.7070734158
 11
-25.5930331976
 21
-44.7070734158
  0
LINE
  5
27F
100
AcDbEntity
  8
RACCORDO
100
AcDbLine
 62
7
  6
CONTINUOUS
 10
25.6001066134
 20
-44.7
 11
-25.6001066134
 21
-44.7
  0
LINE
  5
280
100
AcDbEntity
  8
RACCORDO
100
AcDbLine
 62
253
  6
CONTINUOUS
 10
-22.345273254
 20
-48.3728189595
 11
-22.8650068917
 21
-47.8530961265
  0
LINE
  5
281
100
AcDbEntity
  8
RACCORDO
100
AcDbLine
 62
253
  6
CONTINUOUS
 10
23.1469038735
 20
-93.8650067667
 11
22.6271810404
 21
-93.345273255
  0
LINE
  5
282
100
AcDbEntity
  8
RACCORDO
100
AcDbLine
 62
253
  6
CONTINUOUS
 10
22.5985397344
 20
-93.2985854258
 11
22.5912724675
 21
-93.291318159
  0
LINE
  5
283
100
AcDbEntity
  8
RACCORDO
100
AcDbLine
 62
253
  6
CONTINUOUS
 10
-22.291318159
 20
-48.4087275325
 11
-22.2985854258
 21
-48.4014602656
  0
LINE
  5
284
100
AcDbEntity
  8
RACCORDO
100
AcDbLine
 62
253
  6
CONTINUOUS
 10
-25.5930331976
 20
-44.7070734158
 11
-25.6001066134
 21
-44.7
  0
LINE
  5
285
100
AcDbEntity
  8
RACCORDO
100
AcDbLine
 62
253
  6
CONTINUOUS
 10
26.2929265842
 20
-96.5930331976
 11
26.3
 21
-96.6001066134
  0
LWPOLYLINE
  5
286
100
AcDbEntity
  8
0
100
AcDbPolyline
 62
7
  6
CONTINUOUS
 90
3
 70
0
 43
0.3500000006
 10
0.9285714591
 20
127.7357179871
 10
0.8571428254
 20
127.5214244385
 10
0.7142856996
 20
127.2357178345
  0
LINE
  5
287
100
AcDbEntity
  8
RACCORDO
100
AcDbLine
 62
7
  6
CONTINUOUS
 10
-26.3
 20
96.6001066134
 11
-26.3
 21
45.3998933866
  0
LINE
  5
288
100
AcDbEntity
  8
RACCORDO
100
AcDbLine
 62
7
  6
CONTINUOUS
 10
-26.3
 20
25.6001066134
 11
-26.3
 21
-25.6001066134
  0
LINE
  5
289
100
AcDbEntity
  8
RACCORDO
100
AcDbLine
 62
7
  6
CONTINUOUS
 10
-26.3
 20
-45.3998933866
 11
-26.3
 21
-96.6001066134
  0
LINE
  5
28A
100
AcDbEntity
  8
RACCORDO
100
AcDbLine
 62
253
  6
CONTINUOUS
 10
-26.2929265842
 20
96.5930331976
 11
-26.2929265842
 21
45.4069668024
  0
LINE
  5
28B
100
AcDbEntity
  8
RACCORDO
100
AcDbLine
 62
253
  6
CONTINUOUS
 10
-26.2929265842
 20
25.5930331976
 11
-26.2929265842
 21
-25.5930331976
  0
LINE
  5
28C
100
AcDbEntity
  8
RACCORDO
100
AcDbLine
 62
253
  6
CONTINUOUS
 10
-26.2929265842
 20
-45.4069668024
 11
-26.2929265842
 21
-96.5930331976
  0
LINE
  5
28D
100
AcDbEntity
  8
RACCORDO
100
AcDbLine
 62
253
  6
CONTINUOUS
 10
-25.9929722756
 20
96.5930331976
 11
-25.9929722756
 21
45.4037376763
  0
LINE
  5
28E
100
AcDbEntity
  8
RACCORDO
100
AcDbLine
 62
253
  6
CONTINUOUS
 10
-25.9929722756
 20
25.5930331976
 11
-25.9929722756
 21
-25.5962623237
  0
LINE
  5
28F
100
AcDbEntity
  8
RACCORDO
100
AcDbLine
 62
253
  6
CONTINUOUS
 10
-25.9929722756
 20
-45.4069668024
 11
-25.9929722756
 21
-96.5962623237
  0
LINE
  5
290
100
AcDbEntity
  8
RACCORDO
100
AcDbLine
 62
253
  6
CONTINUOUS
 10
-25.5930331956
 20
97.2929265842
 11
-25.5930331976
 21
96.9929722756
  0
LINE
  5
291
100
AcDbEntity
  8
RACCORDO
100
AcDbLine
 62
253
  6
CONTINUOUS
 10
-25.5930331962
 20
-97.2929265842
 11
-25.5930331976
 21
-96.9929722756
  0
LINE
  5
292
100
AcDbEntity
  8
RACCORDO
100
AcDbLine
 62
253
  6
CONTINUOUS
 10
-25.5930331956
 20
26.2929265842
 11
-25.5930331976
 21
25.9929722756
  0
LINE
  5
293
100
AcDbEntity
  8
RACCORDO
100
AcDbLine
 62
253
  6
CONTINUOUS
 10
-25.5930331962
 20
-26.2929265842
 11
-25.5930331976
 21
-25.9929722756
  0
LINE
  5
294
100
AcDbEntity
  8
RACCORDO
100
AcDbLine
 62
253
  6
CONTINUOUS
 10
-25.5930331956
 20
-44.7070734158
 11
-25.5930331976
 21
-45.0070277244
  0
LINE
  5
295
100
AcDbEntity
  8
RACCORDO
100
AcDbLine
 62
253
  6
CONTINUOUS
 10
-25.5930331962
 20
44.7070734158
 11
-25.5930331976
 21
45.0070277244
  0
LWPOLYLINE
  5
296
100
AcDbEntity
  8
0
100
AcDbPolyline
 62
7
  6
CONTINUOUS
 90
10
 70
0
 43
0.3500000006
 10
-56.9499992523
 20
2.0357136154
 10
-56.8071414185
 20
2.1071425323
 10
-56.7357147675
 20
2.1071425323
 10
-56.5928569336
 20
1.9642846985
 10
-56.5928569336
 20
1.8928580475
 10
-56.6642835846
 20
1.8214291306
 10
-56.7357147675
 20
1.8214291306
 10
-56.8785726013
 20
1.8928580475
 10
-56.9499992523
 20
1.9642846985
 10
-56.9499992523
 20
2.0357136154
  0
LINE
  5
297
100
AcDbEntity
  8
RACCORDO
100
AcDbLine
 62
7
  6
CONTINUOUS
 10
-25.6001066134
 20
-26.3
 11
25.6001066134
 21
-26.3
  0
LINE
  5
298
100
AcDbEntity
  8
RACCORDO
100
AcDbLine
 62
253
  6
CONTINUOUS
 10
-25.5930331976
 20
-26.2929265842
 11
25.5930331976
 21
-26.2929265842
  0
LINE
  5
299
100
AcDbEntity
  8
RACCORDO
100
AcDbLine
 62
253
  6
CONTINUOUS
 10
-25.5930331976
 20
-25.9929722756
 11
25.5962623332
 21
-25.9929722756
  0
LINE
  5
29A
100
AcDbEntity
  8
RACCORDO
100
AcDbLine
 62
253
  6
CONTINUOUS
 10
-26.2929265842
 20
-25.5930331956
 11
-25.9929722756
 21
-25.5930331976
  0
LINE
  5
29B
100
AcDbEntity
  8
RACCORDO
100
AcDbLine
 62
253
  6
CONTINUOUS
 10
26.2929265842
 20
-25.5930331962
 11
25.9929722756
 21
-25.5930331976
  0
LINE
  5
29C
100
AcDbEntity
  8
RACCORDO
100
AcDbLine
 62
253
  6
CONTINUOUS
 10
-23.4288116597
 20
-93.8649960872
 11
-23.4288116597
 21
-48.1350039128
  0
LINE
  5
29D
100
AcDbEntity
  8
RACCORDO
100
AcDbLine
 62
253
  6
CONTINUOUS
 10
-23.4288116597
 20
-22.8649960872
 11
-23.4288116597
 21
22.8649960872
  0
LINE
  5
29E
100
AcDbEntity
  8
RACCORDO
100
AcDbLine
 62
253
  6
CONTINUOUS
 10
-23.4288116597
 20
48.1350039128
 11
-23.4288116597
 21
93.8649960872
  0
LINE
  5
29F
100
AcDbEntity
  8
RACCORDO
100
AcDbLine
 62
253
  6
CONTINUOUS
 10
-23.1469038735
 20
-93.8649948583
 11
-23.1469038735
 21
-48.1350052588
  0
LINE
  5
2A0
100
AcDbEntity
  8
RACCORDO
100
AcDbLine
 62
253
  6
CONTINUOUS
 10
-23.1469038735
 20
-22.8649948583
 11
-23.1469038735
 21
22.8649947412
  0
LINE
  5
2A1
100
AcDbEntity
  8
RACCORDO
100
AcDbLine
 62
253
  6
CONTINUOUS
 10
-23.1469038735
 20
48.1350051417
 11
-23.1469038735
 21
93.8649947412
  0
LINE
  5
2A2
100
AcDbEntity
  8
RACCORDO
100
AcDbLine
 62
253
  6
CONTINUOUS
 10
-22.8649960872
 20
94.4288116597
 11
-22.8649960872
 21
94.1469038735
  0
LINE
  5
2A3
100
AcDbEntity
  8
RACCORDO
100
AcDbLine
 62
253
  6
CONTINUOUS
 10
-22.8649960872
 20
-94.4288116597
 11
-22.8649960873
 21
-94.1469038735
  0
LINE
  5
2A4
100
AcDbEntity
  8
RACCORDO
100
AcDbLine
 62
253
  6
CONTINUOUS
 10
-22.8649960872
 20
23.4288116597
 11
-22.8649960872
 21
23.1469038735
  0
LINE
  5
2A5
100
AcDbEntity
  8
RACCORDO
100
AcDbLine
 62
253
  6
CONTINUOUS
 10
-22.8649960872
 20
-23.4288116597
 11
-22.8649960873
 21
-23.1469038735
  0
LINE
  5
2A6
100
AcDbEntity
  8
RACCORDO
100
AcDbLine
 62
253
  6
CONTINUOUS
 10
-22.8649960872
 20
-47.5711883403
 11
-22.8649960872
 21
-47.8530961265
  0
LINE
  5
2A7
100
AcDbEntity
  8
RACCORDO
100
AcDbLine
 62
253
  6
CONTINUOUS
 10
-22.8649960872
 20
47.5711883403
 11
-22.8649960873
 21
47.8530961265
  0
LINE
  5
2A8
100
AcDbEntity
  8
RACCORDO
100
AcDbLine
 62
253
  6
CONTINUOUS
 10
-22.6286172716
 20
93.2985854258
 11
-22.6286172716
 21
48.7014145742
  0
LINE
  5
2A9
100
AcDbEntity
  8
RACCORDO
100
AcDbLine
 62
253
  6
CONTINUOUS
 10
-22.6286172716
 20
22.2985854258
 11
-22.6286172716
 21
-22.2985854258
  0
LINE
  5
2AA
100
AcDbEntity
  8
RACCORDO
100
AcDbLine
 62
253
  6
CONTINUOUS
 10
-22.6286172716
 20
-48.7014145742
 11
-22.6286172716
 21
-93.2985854258
  0
LINE
  5
2AB
100
AcDbEntity
  8
RACCORDO
100
AcDbLine
 62
253
  6
CONTINUOUS
 10
-22.5985397344
 20
93.2985854258
 11
-22.5985397344
 21
48.7014145742
  0
LINE
  5
2AC
100
AcDbEntity
  8
RACCORDO
100
AcDbLine
 62
253
  6
CONTINUOUS
 10
-22.5985397344
 20
22.2985854258
 11
-22.5985397344
 21
-22.2985854258
  0
LINE
  5
2AD
100
AcDbEntity
  8
RACCORDO
100
AcDbLine
 62
253
  6
CONTINUOUS
 10
-22.5985397344
 20
-48.7014145742
 11
-22.5985397344
 21
-93.2985854258
  0
LINE
  5
2AE
100
AcDbEntity
  8
RACCORDO
100
AcDbLine
 62
7
  6
CONTINUOUS
 10
-22.5912724675
 20
-93.291318159
 11
-22.5912724675
 21
-48.708681841
  0
LINE
  5
2AF
100
AcDbEntity
  8
RACCORDO
100
AcDbLine
 62
7
  6
CONTINUOUS
 10
-22.5912724675
 20
-22.291318159
 11
-22.5912724675
 21
22.291318159
  0
LINE
  5
2B0
100
AcDbEntity
  8
RACCORDO
100
AcDbLine
 62
7
  6
CONTINUOUS
 10
-22.5912724675
 20
48.708681841
 11
-22.5912724675
 21
93.291318159
  0
LINE
  5
2B1
100
AcDbEntity
  8
RACCORDO
100
AcDbLine
 62
253
  6
CONTINUOUS
 10
-22.2985854258
 20
48.4014602656
 11
-22.2985854258
 21
48.3713827284
  0
LINE
  5
2B2
100
AcDbEntity
  8
RACCORDO
100
AcDbLine
 62
253
  6
CONTINUOUS
 10
-22.2985854258
 20
-48.4014602656
 11
-22.2985854265
 21
-48.3713827284
  0
LINE
  5
2B3
100
AcDbEntity
  8
RACCORDO
100
AcDbLine
 62
253
  6
CONTINUOUS
 10
-22.2985854258
 20
-22.5985397344
 11
-22.2985854258
 21
-22.6286172716
  0
LINE
  5
2B4
100
AcDbEntity
  8
RACCORDO
100
AcDbLine
 62
253
  6
CONTINUOUS
 10
-22.2985854258
 20
-93.5985397344
 11
-22.2985854258
 21
-93.6286172716
  0
LINE
  5
2B5
100
AcDbEntity
  8
RACCORDO
100
AcDbLine
 62
253
  6
CONTINUOUS
 10
-22.2985854258
 20
22.5985397344
 11
-22.2985854265
 21
22.6286172716
  0
LINE
  5
2B6
100
AcDbEntity
  8
RACCORDO
100
AcDbLine
 62
253
  6
CONTINUOUS
 10
-22.2985854258
 20
93.5985397344
 11
-22.2985854265
 21
93.6286172716
  0
LINE
  5
2B7
100
AcDbEntity
  8
RACCORDO
100
AcDbLine
 62
253
  6
CONTINUOUS
 10
22.8649960872
 20
-23.4288116597
 11
-22.8649960872
 21
-23.4288116597
  0
LINE
  5
2B8
100
AcDbEntity
  8
RACCORDO
100
AcDbLine
 62
253
  6
CONTINUOUS
 10
22.8649948583
 20
-23.1469038735
 11
-22.8650067667
 21
-23.1469038735
  0
LINE
  5
2B9
100
AcDbEntity
  8
RACCORDO
100
AcDbLine
 62
253
  6
CONTINUOUS
 10
-23.4288116597
 20
-22.8649960872
 11
-23.1469038735
 21
-22.8649960872
  0
LINE
  5
2BA
100
AcDbEntity
  8
RACCORDO
100
AcDbLine
 62
253
  6
CONTINUOUS
 10
23.4288116597
 20
-22.8649960872
 11
23.1469038735
 21
-22.8649960873
  0
LINE
  5
2BB
100
AcDbEntity
  8
RACCORDO
100
AcDbLine
 62
253
  6
CONTINUOUS
 10
-22.2985854258
 20
-22.6286172716
 11
22.2985854258
 21
-22.6286172716
  0
LINE
  5
2BC
100
AcDbEntity
  8
RACCORDO
100
AcDbLine
 62
253
  6
CONTINUOUS
 10
-22.2985854258
 20
-22.5985397344
 11
22.2985854258
 21
-22.5985397344
  0
LINE
  5
2BD
100
AcDbEntity
  8
RACCORDO
100
AcDbLine
 62
7
  6
CONTINUOUS
 10
22.291318159
 20
-22.5912724675
 11
-22.291318159
 21
-22.5912724675
  0
LINE
  5
2BE
100
AcDbEntity
  8
RACCORDO
100
AcDbLine
 62
253
  6
CONTINUOUS
 10
-22.5985397344
 20
-22.2985854258
 11
-22.6286172712
 21
-22.2985854231
  0
LINE
  5
2BF
100
AcDbEntity
  8
RACCORDO
100
AcDbLine
 62
253
  6
CONTINUOUS
 10
22.5985397344
 20
-22.2985854258
 11
22.6286172716
 21
-22.2985854258
  0
LWPOLYLINE
  5
2C0
100
AcDbEntity
  8
0
100
AcDbPolyline
 62
7
  6
CONTINUOUS
 90
3
 70
0
 43
0.3500000006
 10
-56.7357147675
 20
2.1071425323
 10
-56.5214302826
 20
2.0357136154
 10
-56.2357146149
 20
1.8928580475
  0
LINE
  5
2C1
100
AcDbEntity
  8
RACCORDO
100
AcDbLine
 62
253
  6
CONTINUOUS
 10
-26.2929265842
 20
-25.5930331976
 11
-26.3
 21
-25.6001066134
  0
LINE
  5
2C2
100
AcDbEntity
  8
RACCORDO
100
AcDbLine
 62
253
  6
CONTINUOUS
 10
25.5930331976
 20
26.2929265842
 11
25.6001066134
 21
26.3
  0
LINE
  5
2C3
100
AcDbEntity
  8
RACCORDO
100
AcDbLine
 62
253
  6
CONTINUOUS
 10
22.2985854258
 20
22.5985397344
 11
22.291318159
 21
22.5912724675
  0
LINE
  5
2C4
100
AcDbEntity
  8
RACCORDO
100
AcDbLine
 62
253
  6
CONTINUOUS
 10
-22.5985397344
 20
-22.2985854258
 11
-22.5912724675
 21
-22.291318159
  0
LINE
  5
2C5
100
AcDbEntity
  8
RACCORDO
100
AcDbLine
 62
253
  6
CONTINUOUS
 10
22.8650067667
 20
23.1469038735
 11
22.345273255
 21
22.6271810404
  0
LINE
  5
2C6
100
AcDbEntity
  8
RACCORDO
100
AcDbLine
 62
253
  6
CONTINUOUS
 10
-23.1469038735
 20
-22.8649948583
 11
-22.6271795873
 21
-22.3453051847
  0
LINE
  5
2C7
100
AcDbEntity
  8
RACCORDO
100
AcDbLine
 62
253
  6
CONTINUOUS
 10
23.1469038735
 20
22.8649948583
 11
22.6271795873
 21
22.3453051847
  0
LINE
  5
2C8
100
AcDbEntity
  8
RACCORDO
100
AcDbLine
 62
253
  6
CONTINUOUS
 10
-22.8650067667
 20
-23.1469038735
 11
-22.345273255
 21
-22.6271810404
  0
LINE
  5
2C9
100
AcDbEntity
  8
RACCORDO
100
AcDbLine
 62
253
  6
CONTINUOUS
 10
22.5985397344
 20
22.2985854258
 11
22.5912724675
 21
22.291318159
  0
LINE
  5
2CA
100
AcDbEntity
  8
RACCORDO
100
AcDbLine
 62
253
  6
CONTINUOUS
 10
-22.2985854258
 20
-22.5985397344
 11
-22.291318159
 21
-22.5912724675
  0
LINE
  5
2CB
100
AcDbEntity
  8
RACCORDO
100
AcDbLine
 62
253
  6
CONTINUOUS
 10
-25.5930331976
 20
-26.2929265842
 11
-25.6001066134
 21
-26.3
  0
LINE
  5
2CC
100
AcDbEntity
  8
RACCORDO
100
AcDbLine
 62
253
  6
CONTINUOUS
 10
26.2929265842
 20
25.5930331976
 11
26.3
 21
25.6001066134
  0
LWPOLYLINE
  5
2CD
100
AcDbEntity
  8
0
100
AcDbPolyline
 62
7
  6
CONTINUOUS
 90
4
 70
0
 43
0.3500000006
 10
-58.8071420288
 20
-0.9642850342
 10
-59.4500000153
 20
-0.9642850342
 10
-59.4500000153
 20
0.5357131577
 10
-56.4499990997
 20
-0.3214293137
  0
LINE
  5
2CE
100
AcDbEntity
  8
RACCORDO
100
AcDbLine
 62
253
  6
CONTINUOUS
 10
25.5930331976
 20
-26.2929265842
 11
25.6001066134
 21
-26.3
  0
LINE
  5
2CF
100
AcDbEntity
  8
RACCORDO
100
AcDbLine
 62
253
  6
CONTINUOUS
 10
-26.2929265842
 20
25.5930331976
 11
-26.3
 21
25.6001066134
  0
LINE
  5
2D0
100
AcDbEntity
  8
RACCORDO
100
AcDbLine
 62
253
  6
CONTINUOUS
 10
22.2985854258
 20
-22.5985397344
 11
22.291318159
 21
-22.5912724675
  0
LINE
  5
2D1
100
AcDbEntity
  8
RACCORDO
100
AcDbLine
 62
253
  6
CONTINUOUS
 10
-22.5912724675
 20
22.291318159
 11
-22.5985397344
 21
22.2985854258
  0
LINE
  5
2D2
100
AcDbEntity
  8
RACCORDO
100
AcDbLine
 62
253
  6
CONTINUOUS
 10
22.8649948583
 20
-23.1469038735
 11
22.3453051847
 21
-22.6271795873
  0
LINE
  5
2D3
100
AcDbEntity
  8
RACCORDO
100
AcDbLine
 62
253
  6
CONTINUOUS
 10
-22.6271795883
 20
22.3453052934
 11
-23.1469038735
 21
22.8649947412
  0
LINE
  5
2D4
100
AcDbEntity
  8
RACCORDO
100
AcDbLine
 62
253
  6
CONTINUOUS
 10
23.1469038735
 20
-22.8650067667
 11
22.6271810404
 21
-22.345273255
  0
LINE
  5
2D5
100
AcDbEntity
  8
RACCORDO
100
AcDbLine
 62
253
  6
CONTINUOUS
 10
-22.345273254
 20
22.6271810405
 11
-22.8650068917
 21
23.1469038735
  0
LINE
  5
2D6
100
AcDbEntity
  8
RACCORDO
100
AcDbLine
 62
253
  6
CONTINUOUS
 10
22.5985397344
 20
-22.2985854258
 11
22.5912724675
 21
-22.291318159
  0
LINE
  5
2D7
100
AcDbEntity
  8
RACCORDO
100
AcDbLine
 62
253
  6
CONTINUOUS
 10
-22.291318159
 20
22.5912724675
 11
-22.2985854258
 21
22.5985397344
  0
LINE
  5
2D8
100
AcDbEntity
  8
RACCORDO
100
AcDbLine
 62
253
  6
CONTINUOUS
 10
26.2929265842
 20
-25.5930331976
 11
26.3
 21
-25.6001066134
  0
LINE
  5
2D9
100
AcDbEntity
  8
RACCORDO
100
AcDbLine
 62
253
  6
CONTINUOUS
 10
-25.5930331976
 20
26.2929265842
 11
-25.6001066134
 21
26.3
  0
LWPOLYLINE
  5
2DA
100
AcDbEntity
  8
0
100
AcDbPolyline
 62
7
  6
CONTINUOUS
 90
2
 70
0
 43
0.3500000006
 10
2.9285714321
 20
127.4500023193
 10
2.9285714321
 20
128.9500027771
  0
LWPOLYLINE
  5
2DB
100
AcDbEntity
  8
0
100
AcDbPolyline
 62
7
  6
CONTINUOUS
 90
2
 70
0
 43
0.3500000006
 10
-56.4499990997
 20
4.1071431427
 10
-57.9499995575
 20
4.1071431427
  0
LINE
  5
2DC
100
AcDbEntity
  8
RACCORDO
100
AcDbLine
 62
253
  6
CONTINUOUS
 10
22.2985854258
 20
48.4014602656
 11
22.2985854231
 21
48.3713827288
  0
LINE
  5
2DD
100
AcDbEntity
  8
RACCORDO
100
AcDbLine
 62
253
  6
CONTINUOUS
 10
22.2985854258
 20
-48.4014602656
 11
22.2985854258
 21
-48.3713827284
  0
LINE
  5
2DE
100
AcDbEntity
  8
RACCORDO
100
AcDbLine
 62
253
  6
CONTINUOUS
 10
22.2985854258
 20
22.5985397344
 11
22.2985854258
 21
22.6286172716
  0
LINE
  5
2DF
100
AcDbEntity
  8
RACCORDO
100
AcDbLine
 62
253
  6
CONTINUOUS
 10
22.2985854258
 20
93.5985397344
 11
22.2985854258
 21
93.6286172716
  0
LINE
  5
2E0
100
AcDbEntity
  8
RACCORDO
100
AcDbLine
 62
253
  6
CONTINUOUS
 10
22.2985854258
 20
-22.5985397344
 11
22.2985854231
 21
-22.6286172712
  0
LINE
  5
2E1
100
AcDbEntity
  8
RACCORDO
100
AcDbLine
 62
253
  6
CONTINUOUS
 10
22.2985854258
 20
-93.5985397344
 11
22.2985854231
 21
-93.6286172712
  0
LINE
  5
2E2
100
AcDbEntity
  8
RACCORDO
100
AcDbLine
 62
7
  6
CONTINUOUS
 10
22.5912724675
 20
93.291318159
 11
22.5912724675
 21
48.708681841
  0
LINE
  5
2E3
100
AcDbEntity
  8
RACCORDO
100
AcDbLine
 62
7
  6
CONTINUOUS
 10
22.5912724675
 20
22.291318159
 11
22.5912724675
 21
-22.291318159
  0
LINE
  5
2E4
100
AcDbEntity
  8
RACCORDO
100
AcDbLine
 62
7
  6
CONTINUOUS
 10
22.5912724675
 20
-48.708681841
 11
22.5912724675
 21
-93.291318159
  0
LINE
  5
2E5
100
AcDbEntity
  8
RACCORDO
100
AcDbLine
 62
253
  6
CONTINUOUS
 10
22.5985397344
 20
-93.2985854258
 11
22.5985397344
 21
-48.7014145742
  0
LINE
  5
2E6
100
AcDbEntity
  8
RACCORDO
100
AcDbLine
 62
253
  6
CONTINUOUS
 10
22.5985397344
 20
-22.2985854258
 11
22.5985397344
 21
22.2985854258
  0
LINE
  5
2E7
100
AcDbEntity
  8
RACCORDO
100
AcDbLine
 62
253
  6
CONTINUOUS
 10
22.5985397344
 20
48.7014145742
 11
22.5985397344
 21
93.2985854258
  0
LINE
  5
2E8
100
AcDbEntity
  8
RACCORDO
100
AcDbLine
 62
253
  6
CONTINUOUS
 10
22.6286172716
 20
-93.2985854258
 11
22.6286172716
 21
-48.7014145742
  0
LINE
  5
2E9
100
AcDbEntity
  8
RACCORDO
100
AcDbLine
 62
253
  6
CONTINUOUS
 10
22.6286172716
 20
-22.2985854258
 11
22.6286172716
 21
22.2985854258
  0
LINE
  5
2EA
100
AcDbEntity
  8
RACCORDO
100
AcDbLine
 62
253
  6
CONTINUOUS
 10
22.6286172716
 20
48.7014145742
 11
22.6286172716
 21
93.2985854258
  0
LINE
  5
2EB
100
AcDbEntity
  8
RACCORDO
100
AcDbLine
 62
253
  6
CONTINUOUS
 10
22.8649960872
 20
94.4288116597
 11
22.8649960873
 21
94.1469038735
  0
LINE
  5
2EC
100
AcDbEntity
  8
RACCORDO
100
AcDbLine
 62
253
  6
CONTINUOUS
 10
22.8649960872
 20
-94.4288116597
 11
22.8649960872
 21
-94.1469038735
  0
LINE
  5
2ED
100
AcDbEntity
  8
RACCORDO
100
AcDbLine
 62
253
  6
CONTINUOUS
 10
22.8649960872
 20
23.4288116597
 11
22.8649960873
 21
23.1469038735
  0
LINE
  5
2EE
100
AcDbEntity
  8
RACCORDO
100
AcDbLine
 62
253
  6
CONTINUOUS
 10
22.8649960872
 20
-23.4288116597
 11
22.8649960872
 21
-23.1469038735
  0
LINE
  5
2EF
100
AcDbEntity
  8
RACCORDO
100
AcDbLine
 62
253
  6
CONTINUOUS
 10
22.8649960872
 20
-47.5711883403
 11
22.8649960873
 21
-47.8530961265
  0
LINE
  5
2F0
100
AcDbEntity
  8
RACCORDO
100
AcDbLine
 62
253
  6
CONTINUOUS
 10
22.8649960872
 20
47.5711883403
 11
22.8649960872
 21
47.8530961265
  0
LINE
  5
2F1
100
AcDbEntity
  8
RACCORDO
100
AcDbLine
 62
253
  6
CONTINUOUS
 10
23.1469038735
 20
93.8649948583
 11
23.1469038735
 21
48.1349932333
  0
LINE
  5
2F2
100
AcDbEntity
  8
RACCORDO
100
AcDbLine
 62
253
  6
CONTINUOUS
 10
23.1469038735
 20
22.8649948583
 11
23.1469038735
 21
-22.8650067667
  0
LINE
  5
2F3
100
AcDbEntity
  8
RACCORDO
100
AcDbLine
 62
253
  6
CONTINUOUS
 10
23.1469038735
 20
-48.1350051417
 11
23.1469038735
 21
-93.8650067667
  0
LINE
  5
2F4
100
AcDbEntity
  8
RACCORDO
100
AcDbLine
 62
253
  6
CONTINUOUS
 10
23.4288116597
 20
93.8649960872
 11
23.4288116597
 21
48.1350039128
  0
LINE
  5
2F5
100
AcDbEntity
  8
RACCORDO
100
AcDbLine
 62
253
  6
CONTINUOUS
 10
23.4288116597
 20
22.8649960872
 11
23.4288116597
 21
-22.8649960872
  0
LINE
  5
2F6
100
AcDbEntity
  8
RACCORDO
100
AcDbLine
 62
253
  6
CONTINUOUS
 10
23.4288116597
 20
-48.1350039128
 11
23.4288116597
 21
-93.8649960872
  0
LINE
  5
2F7
100
AcDbEntity
  8
RACCORDO
100
AcDbLine
 62
253
  6
CONTINUOUS
 10
25.5930331962
 20
97.2929265842
 11
25.5930331976
 21
96.9929722756
  0
LINE
  5
2F8
100
AcDbEntity
  8
RACCORDO
100
AcDbLine
 62
253
  6
CONTINUOUS
 10
25.5930331956
 20
-97.2929265842
 11
25.5930331976
 21
-96.9929722756
  0
LINE
  5
2F9
100
AcDbEntity
  8
RACCORDO
100
AcDbLine
 62
253
  6
CONTINUOUS
 10
25.5930331962
 20
26.2929265842
 11
25.5930331976
 21
25.9929722756
  0
LINE
  5
2FA
100
AcDbEntity
  8
RACCORDO
100
AcDbLine
 62
253
  6
CONTINUOUS
 10
25.5930331956
 20
-26.2929265842
 11
25.5930331976
 21
-25.9929722756
  0
LINE
  5
2FB
100
AcDbEntity
  8
RACCORDO
100
AcDbLine
 62
253
  6
CONTINUOUS
 10
25.5930331962
 20
-44.7070734158
 11
25.5930331976
 21
-45.0070277244
  0
LINE
  5
2FC
100
AcDbEntity
  8
RACCORDO
100
AcDbLine
 62
253
  6
CONTINUOUS
 10
25.5930331956
 20
44.7070734158
 11
25.5930331976
 21
45.0070277244
  0
LINE
  5
2FD
100
AcDbEntity
  8
RACCORDO
100
AcDbLine
 62
253
  6
CONTINUOUS
 10
25.9929722756
 20
-96.5930331976
 11
25.9929722756
 21
-45.4037376732
  0
LINE
  5
2FE
100
AcDbEntity
  8
RACCORDO
100
AcDbLine
 62
253
  6
CONTINUOUS
 10
25.9929722756
 20
-25.5930331976
 11
25.9929722756
 21
25.5962623268
  0
LINE
  5
2FF
100
AcDbEntity
  8
RACCORDO
100
AcDbLine
 62
253
  6
CONTINUOUS
 10
25.9929722756
 20
45.4069668024
 11
25.9929722756
 21
96.5962623268
  0
LINE
  5
300
100
AcDbEntity
  8
RACCORDO
100
AcDbLine
 62
253
  6
CONTINUOUS
 10
26.2929265842
 20
-96.5930331976
 11
26.2929265842
 21
-45.4069668024
  0
LINE
  5
301
100
AcDbEntity
  8
RACCORDO
100
AcDbLine
 62
253
  6
CONTINUOUS
 10
26.2929265842
 20
-25.5930331976
 11
26.2929265842
 21
25.5930331976
  0
LINE
  5
302
100
AcDbEntity
  8
RACCORDO
100
AcDbLine
 62
253
  6
CONTINUOUS
 10
26.2929265842
 20
45.4069668024
 11
26.2929265842
 21
96.5930331976
  0
LINE
  5
303
100
AcDbEntity
  8
RACCORDO
100
AcDbLine
 62
7
  6
CONTINUOUS
 10
26.3
 20
-96.6001066134
 11
26.3
 21
-45.3998933866
  0
LINE
  5
304
100
AcDbEntity
  8
RACCORDO
100
AcDbLine
 62
7
  6
CONTINUOUS
 10
26.3
 20
-25.6001066134
 11
26.3
 21
25.6001066134
  0
LINE
  5
305
100
AcDbEntity
  8
RACCORDO
100
AcDbLine
 62
7
  6
CONTINUOUS
 10
26.3
 20
45.3998933866
 11
26.3
 21
96.6001066134
  0
LINE
  5
306
100
AcDbEntity
  8
RACCORDO
100
AcDbLine
 62
253
  6
CONTINUOUS
 10
-22.5985397344
 20
22.2985854258
 11
-22.6286172716
 21
22.2985854258
  0
LINE
  5
307
100
AcDbEntity
  8
RACCORDO
100
AcDbLine
 62
253
  6
CONTINUOUS
 10
22.5985397344
 20
22.2985854258
 11
22.6286172712
 21
22.2985854231
  0
LINE
  5
308
100
AcDbEntity
  8
RACCORDO
100
AcDbLine
 62
7
  6
CONTINUOUS
 10
-22.291318159
 20
22.5912724675
 11
22.291318159
 21
22.5912724675
  0
LINE
  5
309
100
AcDbEntity
  8
RACCORDO
100
AcDbLine
 62
253
  6
CONTINUOUS
 10
22.2985854258
 20
22.5985397344
 11
-22.2985854258
 21
22.5985397344
  0
LINE
  5
30A
100
AcDbEntity
  8
RACCORDO
100
AcDbLine
 62
253
  6
CONTINUOUS
 10
22.2985854258
 20
22.6286172716
 11
-22.2985854258
 21
22.6286172716
  0
LINE
  5
30B
100
AcDbEntity
  8
RACCORDO
100
AcDbLine
 62
253
  6
CONTINUOUS
 10
-23.4288116597
 20
22.8649960872
 11
-23.1469038735
 21
22.8649960872
  0
LINE
  5
30C
100
AcDbEntity
  8
RACCORDO
100
AcDbLine
 62
253
  6
CONTINUOUS
 10
23.4288116597
 20
22.8649960872
 11
23.1469038735
 21
22.8649960872
  0
LINE
  5
30D
100
AcDbEntity
  8
RACCORDO
100
AcDbLine
 62
253
  6
CONTINUOUS
 10
-22.8650068917
 20
23.1469038735
 11
22.8650067667
 21
23.1469038735
  0
LINE
  5
30E
100
AcDbEntity
  8
RACCORDO
100
AcDbLine
 62
253
  6
CONTINUOUS
 10
-22.8649960872
 20
23.4288116597
 11
22.8649960872
 21
23.4288116597
  0
LINE
  5
30F
100
AcDbEntity
  8
RACCORDO
100
AcDbLine
 62
253
  6
CONTINUOUS
 10
-26.2929265842
 20
25.5930331962
 11
-25.9929722756
 21
25.5930331976
  0
LINE
  5
310
100
AcDbEntity
  8
RACCORDO
100
AcDbLine
 62
253
  6
CONTINUOUS
 10
26.2929265842
 20
25.5930331956
 11
25.9929722756
 21
25.5930331976
  0
LINE
  5
311
100
AcDbEntity
  8
RACCORDO
100
AcDbLine
 62
253
  6
CONTINUOUS
 10
25.5930331976
 20
25.9929722756
 11
-25.5962623223
 21
25.9929722756
  0
LINE
  5
312
100
AcDbEntity
  8
RACCORDO
100
AcDbLine
 62
253
  6
CONTINUOUS
 10
25.5930331976
 20
26.2929265842
 11
-25.5930331976
 21
26.2929265842
  0
LINE
  5
313
100
AcDbEntity
  8
RACCORDO
100
AcDbLine
 62
7
  6
CONTINUOUS
 10
25.6001066134
 20
26.3
 11
-25.6001066134
 21
26.3
  0
LINE
  5
314
100
AcDbEntity
  8
SMUSSO
100
AcDbLine
 62
7
  6
CONTINUOUS
 10
41.7
 20
-112.7
 11
41.7
 21
112.7
  0
LINE
  5
315
100
AcDbEntity
  8
SMUSSO
100
AcDbLine
 62
7
  6
CONTINUOUS
 10
47.7
 20
-117.7
 11
47.7
 21
117.7
  0
LINE
  5
316
100
AcDbEntity
  8
RACCORDO
100
AcDbLine
 62
253
  6
CONTINUOUS
 10
25.5930331976
 20
-44.7070734158
 11
25.6001066134
 21
-44.7
  0
LINE
  5
317
100
AcDbEntity
  8
RACCORDO
100
AcDbLine
 62
253
  6
CONTINUOUS
 10
-26.2929265842
 20
-96.5930331976
 11
-26.3
 21
-96.6001066134
  0
LINE
  5
318
100
AcDbEntity
  8
RACCORDO
100
AcDbLine
 62
253
  6
CONTINUOUS
 10
-22.5985397344
 20
-93.2985854258
 11
-22.5912724675
 21
-93.291318159
  0
LINE
  5
319
100
AcDbEntity
  8
RACCORDO
100
AcDbLine
 62
253
  6
CONTINUOUS
 10
22.2985854258
 20
-48.4014602656
 11
22.291318159
 21
-48.4087275325
  0
LINE
  5
31A
100
AcDbEntity
  8
RACCORDO
100
AcDbLine
 62
253
  6
CONTINUOUS
 10
22.8650067667
 20
-47.8530961265
 11
22.345273255
 21
-48.3728189596
  0
LINE
  5
31B
100
AcDbEntity
  8
RACCORDO
100
AcDbLine
 62
253
  6
CONTINUOUS
 10
-23.1469038735
 20
-93.8649948583
 11
-22.6271795873
 21
-93.3453051847
  0
LINE
  5
31C
100
AcDbEntity
  8
SMUSSO
100
AcDbLine
 62
7
  6
CONTINUOUS
 10
-47.4071067812
 20
-118.4071067812
 11
-41.7
 21
-112.7
  0
LINE
  5
31D
100
AcDbEntity
  8
RACCORDO
100
AcDbLine
 62
253
  6
CONTINUOUS
 10
23.1469038735
 20
-48.1350051417
 11
22.6271795873
 21
-48.6546948153
  0
LINE
  5
31E
100
AcDbEntity
  8
RACCORDO
100
AcDbLine
 62
253
  6
CONTINUOUS
 10
-22.8650067667
 20
-94.1469038735
 11
-22.345273255
 21
-93.6271810404
  0
LINE
  5
31F
100
AcDbEntity
  8
RACCORDO
100
AcDbLine
 62
253
  6
CONTINUOUS
 10
-22.2985854258
 20
-93.5985397344
 11
-22.291318159
 21
-93.5912724675
  0
LINE
  5
320
100
AcDbEntity
  8
RACCORDO
100
AcDbLine
 62
253
  6
CONTINUOUS
 10
22.5985397344
 20
-48.7014145742
 11
22.5912724675
 21
-48.708681841
  0
LINE
  5
321
100
AcDbEntity
  8
RACCORDO
100
AcDbLine
 62
253
  6
CONTINUOUS
 10
26.2929265842
 20
-45.4069668024
 11
26.3
 21
-45.3998933866
  0
LINE
  5
322
100
AcDbEntity
  8
RACCORDO
100
AcDbLine
 62
253
  6
CONTINUOUS
 10
-25.5930331976
 20
-97.2929265842
 11
-25.6001066134
 21
-97.3
  0
LINE
  5
323
100
AcDbEntity
  8
RACCORDO
100
AcDbLine
 62
7
  6
CONTINUOUS
 10
-25.6001066134
 20
44.7
 11
25.6001066134
 21
44.7
  0
LINE
  5
324
100
AcDbEntity
  8
RACCORDO
100
AcDbLine
 62
253
  6
CONTINUOUS
 10
-25.5930331976
 20
44.7070734158
 11
25.5930331976
 21
44.7070734158
  0
LINE
  5
325
100
AcDbEntity
  8
RACCORDO
100
AcDbLine
 62
253
  6
CONTINUOUS
 10
-25.5930331976
 20
45.0070277244
 11
25.5962623332
 21
45.0070277244
  0
LINE
  5
326
100
AcDbEntity
  8
RACCORDO
100
AcDbLine
 62
253
  6
CONTINUOUS
 10
-26.2929265842
 20
45.4069668044
 11
-25.9929722756
 21
45.4069668024
  0
LINE
  5
327
100
AcDbEntity
  8
RACCORDO
100
AcDbLine
 62
253
  6
CONTINUOUS
 10
26.2929265842
 20
45.4069668038
 11
25.9929722756
 21
45.4069668024
  0
LINE
  5
328
100
AcDbEntity
  8
RACCORDO
100
AcDbLine
 62
253
  6
CONTINUOUS
 10
22.8649960872
 20
47.5711883403
 11
-22.8649960872
 21
47.5711883403
  0
LINE
  5
329
100
AcDbEntity
  8
RACCORDO
100
AcDbLine
 62
253
  6
CONTINUOUS
 10
22.8649948583
 20
47.8530961265
 11
-22.8650067667
 21
47.8530961265
  0
LINE
  5
32A
100
AcDbEntity
  8
RACCORDO
100
AcDbLine
 62
253
  6
CONTINUOUS
 10
-23.4288116597
 20
48.1350039128
 11
-23.1469038735
 21
48.1350039128
  0
LINE
  5
32B
100
AcDbEntity
  8
RACCORDO
100
AcDbLine
 62
253
  6
CONTINUOUS
 10
23.4288116597
 20
48.1350039128
 11
23.1469038735
 21
48.1350039127
  0
LINE
  5
32C
100
AcDbEntity
  8
RACCORDO
100
AcDbLine
 62
253
  6
CONTINUOUS
 10
-22.2985854258
 20
48.3713827284
 11
22.2985854258
 21
48.3713827284
  0
LINE
  5
32D
100
AcDbEntity
  8
RACCORDO
100
AcDbLine
 62
253
  6
CONTINUOUS
 10
-22.2985854258
 20
48.4014602656
 11
22.2985854258
 21
48.4014602656
  0
LINE
  5
32E
100
AcDbEntity
  8
RACCORDO
100
AcDbLine
 62
7
  6
CONTINUOUS
 10
22.291318159
 20
48.4087275325
 11
-22.291318159
 21
48.4087275325
  0
LINE
  5
32F
100
AcDbEntity
  8
RACCORDO
100
AcDbLine
 62
253
  6
CONTINUOUS
 10
-22.5985397344
 20
48.7014145742
 11
-22.6286172712
 21
48.7014145769
  0
LINE
  5
330
100
AcDbEntity
  8
RACCORDO
100
AcDbLine
 62
253
  6
CONTINUOUS
 10
22.5985397344
 20
48.7014145742
 11
22.6286172716
 21
48.7014145742
  0
LINE
  5
331
100
AcDbEntity
  8
RACCORDO
100
AcDbLine
 62
253
  6
CONTINUOUS
 10
25.5930331976
 20
44.7070734158
 11
25.6001066134
 21
44.7
  0
LINE
  5
332
100
AcDbEntity
  8
RACCORDO
100
AcDbLine
 62
253
  6
CONTINUOUS
 10
-26.2929265842
 20
96.5930331976
 11
-26.3
 21
96.6001066134
  0
LINE
  5
333
100
AcDbEntity
  8
RACCORDO
100
AcDbLine
 62
253
  6
CONTINUOUS
 10
22.2985854258
 20
48.4014602656
 11
22.291318159
 21
48.4087275325
  0
LINE
  5
334
100
AcDbEntity
  8
RACCORDO
100
AcDbLine
 62
253
  6
CONTINUOUS
 10
-22.5912724675
 20
93.291318159
 11
-22.5985397344
 21
93.2985854258
  0
LINE
  5
335
100
AcDbEntity
  8
RACCORDO
100
AcDbLine
 62
253
  6
CONTINUOUS
 10
22.8649948583
 20
47.8530961265
 11
22.3453051847
 21
48.3728204127
  0
LINE
  5
336
100
AcDbEntity
  8
RACCORDO
100
AcDbLine
 62
253
  6
CONTINUOUS
 10
-22.6271795883
 20
93.3453052934
 11
-23.1469038735
 21
93.8649947412
  0
LINE
  5
337
100
AcDbEntity
  8
SMUSSO
100
AcDbLine
 62
7
  6
CONTINUOUS
 10
-47.4071067812
 20
118.4071067812
 11
-41.7
 21
112.7
  0
LINE
  5
338
100
AcDbEntity
  8
RACCORDO
100
AcDbLine
 62
253
  6
CONTINUOUS
 10
23.1469038735
 20
48.1349932333
 11
22.6271810404
 21
48.654726745
  0
LINE
  5
339
100
AcDbEntity
  8
RACCORDO
100
AcDbLine
 62
253
  6
CONTINUOUS
 10
-22.345273254
 20
93.6271810405
 11
-22.8650068917
 21
94.1469038735
  0
LINE
  5
33A
100
AcDbEntity
  8
RACCORDO
100
AcDbLine
 62
253
  6
CONTINUOUS
 10
22.5985397344
 20
48.7014145742
 11
22.5912724675
 21
48.708681841
  0
LINE
  5
33B
100
AcDbEntity
  8
RACCORDO
100
AcDbLine
 62
253
  6
CONTINUOUS
 10
-22.291318159
 20
93.5912724675
 11
-22.2985854258
 21
93.5985397344
  0
LINE
  5
33C
100
AcDbEntity
  8
RACCORDO
100
AcDbLine
 62
253
  6
CONTINUOUS
 10
26.2929265842
 20
45.4069668024
 11
26.3
 21
45.3998933866
  0
LINE
  5
33D
100
AcDbEntity
  8
RACCORDO
100
AcDbLine
 62
253
  6
CONTINUOUS
 10
-25.5930331976
 20
97.2929265842
 11
-25.6001066134
 21
97.3
  0
LWPOLYLINE
  5
33E
100
AcDbEntity
  8
0
100
AcDbPolyline
 62
7
  6
CONTINUOUS
 90
10
 70
0
 43
0.3500000006
 10
0.8571428254
 20
127.9500024719
 10
0.9285714591
 20
127.8071401062
 10
0.9285714591
 20
127.7357179871
 10
0.7857142625
 20
127.5928556213
 10
0.7142856996
 20
127.5928556213
 10
0.6428571367
 20
127.6642868042
 10
0.6428571367
 20
127.7357179871
 10
0.7142856996
 20
127.8785712891
 10
0.7857142625
 20
127.9500024719
 10
0.8571428254
 20
127.9500024719
  0
LINE
  5
33F
100
AcDbEntity
  8
RACCORDO
100
AcDbLine
 62
253
  6
CONTINUOUS
 10
22.5985397344
 20
93.2985854258
 11
22.6286172712
 21
93.2985854231
  0
LINE
  5
340
100
AcDbEntity
  8
RACCORDO
100
AcDbLine
 62
253
  6
CONTINUOUS
 10
-22.5985397344
 20
93.2985854258
 11
-22.6286172716
 21
93.2985854258
  0
LINE
  5
341
100
AcDbEntity
  8
RACCORDO
100
AcDbLine
 62
7
  6
CONTINUOUS
 10
-22.291318159
 20
93.5912724675
 11
22.291318159
 21
93.5912724675
  0
LINE
  5
342
100
AcDbEntity
  8
RACCORDO
100
AcDbLine
 62
253
  6
CONTINUOUS
 10
22.2985854258
 20
93.5985397344
 11
-22.2985854258
 21
93.5985397344
  0
LINE
  5
343
100
AcDbEntity
  8
RACCORDO
100
AcDbLine
 62
253
  6
CONTINUOUS
 10
22.2985854258
 20
93.6286172716
 11
-22.2985854258
 21
93.6286172716
  0
LINE
  5
344
100
AcDbEntity
  8
RACCORDO
100
AcDbLine
 62
253
  6
CONTINUOUS
 10
-23.4288116597
 20
93.8649960872
 11
-23.1469038735
 21
93.8649960872
  0
LINE
  5
345
100
AcDbEntity
  8
RACCORDO
100
AcDbLine
 62
253
  6
CONTINUOUS
 10
23.4288116597
 20
93.8649960872
 11
23.1469038735
 21
93.8649960872
  0
LINE
  5
346
100
AcDbEntity
  8
RACCORDO
100
AcDbLine
 62
253
  6
CONTINUOUS
 10
-22.8650068917
 20
94.1469038735
 11
22.8650067667
 21
94.1469038735
  0
LINE
  5
347
100
AcDbEntity
  8
RACCORDO
100
AcDbLine
 62
253
  6
CONTINUOUS
 10
-22.8649960872
 20
94.4288116597
 11
22.8649960872
 21
94.4288116597
  0
LINE
  5
348
100
AcDbEntity
  8
RACCORDO
100
AcDbLine
 62
253
  6
CONTINUOUS
 10
-26.2929265842
 20
96.5930331962
 11
-25.9929722756
 21
96.5930331976
  0
LINE
  5
349
100
AcDbEntity
  8
RACCORDO
100
AcDbLine
 62
253
  6
CONTINUOUS
 10
26.2929265842
 20
96.5930331956
 11
25.9929722756
 21
96.5930331976
  0
LINE
  5
34A
100
AcDbEntity
  8
RACCORDO
100
AcDbLine
 62
253
  6
CONTINUOUS
 10
25.5930331976
 20
96.9929722756
 11
-25.5962623223
 21
96.9929722756
  0
LINE
  5
34B
100
AcDbEntity
  8
RACCORDO
100
AcDbLine
 62
253
  6
CONTINUOUS
 10
25.5930331976
 20
97.2929265842
 11
-25.5930331976
 21
97.2929265842
  0
LINE
  5
34C
100
AcDbEntity
  8
RACCORDO
100
AcDbLine
 62
7
  6
CONTINUOUS
 10
25.6001066134
 20
97.3
 11
-25.6001066134
 21
97.3
  0
LINE
  5
34D
100
AcDbEntity
  8
SMUSSO
100
AcDbLine
 62
7
  6
CONTINUOUS
 10
41.7
 20
112.7
 11
-41.7
 21
112.7
  0
LINE
  5
34E
100
AcDbEntity
  8
SMUSSO
100
AcDbLine
 62
7
  6
CONTINUOUS
 10
46.7
 20
118.7
 11
-46.7
 21
118.7
  0
LWPOLYLINE
  5
34F
100
AcDbEntity
  8
0
100
AcDbPolyline
 62
7
  6
CONTINUOUS
 90
8
 70
0
 43
0.3500000006
 10
-1.9285714102
 20
127.4500023193
 10
-1.0714285848
 20
127.4500023193
 10
-0.6428571367
 20
127.8785712891
 10
-0.6428571367
 20
128.7357182922
 10
-1.0714285848
 20
129.164287262
 10
-1.9285714102
 20
129.164287262
 10
-1.9285714102
 20
130.4500032349
 10
-0.6428571367
 20
130.4500032349
  0
LWPOLYLINE
  5
350
100
AcDbEntity
  8
0
100
AcDbPolyline
 62
7
  6
CONTINUOUS
 90
3
 70
0
 43
0.3500000006
 10
3.4285713015
 20
128.0928557739
 10
1.9285714102
 20
128.0928557739
 10
2.5714285469
 20
130.4500032349
  0
LINE
  5
351
100
AcDbEntity
  8
DRAFT
100
AcDbLine
 62
7
  6
CONTINUOUS
 10
91.4850938446
 20
-118.6082518813
 11
89.0933457259
 21
-118.65
  0
LINE
  5
352
100
AcDbEntity
  8
RACCORDO
100
AcDbLine
 62
7
  6
CONTINUOUS
 10
93.9933457259
 20
-118.7
 11
92.4933457259
 21
-118.7
  0
LINE
  5
353
100
AcDbEntity
  8
SMUSSO
100
AcDbLine
 62
7
  6
CONTINUOUS
 10
93.9933457259
 20
-118.7
 11
92.4933457259
 21
-118.7
  0
LINE
  5
354
100
AcDbEntity
  8
SMUSSO
100
AcDbLine
 62
253
  6
CONTINUOUS
 10
91.9933457259
 20
-117.7
 11
93.9933457259
 21
-117.7
  0
LINE
  5
355
100
AcDbEntity
  8
DRAFT
100
AcDbLine
 62
253
  6
CONTINUOUS
 10
88.0933457259
 20
-117.15
 11
91.9433457259
 21
-117.15
  0
LINE
  5
356
100
AcDbEntity
  8
ASSI
100
AcDbLine
 62
7
  6
CONTINUOUS
 10
86.8828785347
 20
-96.7916264167
 11
88.0933457259
 21
-96.7381478244
  0
LINE
  5
357
100
AcDbEntity
  8
RACCORDO
100
AcDbLine
 62
7
  6
CONTINUOUS
 10
96.3985814479
 20
-97.2929265842
 11
95.9933457259
 21
-97.3
  0
LINE
  5
358
100
AcDbEntity
  8
DRAFT
100
AcDbLine
 62
7
  6
CONTINUOUS
 10
91.9433457259
 20
-96.8473817403
 11
91.9933457259
 21
-96.846508987
  0
LINE
  5
359
100
AcDbEntity
  8
0
100
AcDbLine
 62
7
  6
CONTINUOUS
 10
91.9933457259
 20
-96.696508987
 11
91.9433457259
 21
-96.6973817403
  0
LINE
  5
35A
100
AcDbEntity
  8
RACCORDO
100
AcDbLine
 62
253
  6
CONTINUOUS
 10
96.3985814479
 20
-96.5930331976
 11
95.9933457259
 21
-96.6001066134
  0
LINE
  5
35B
100
AcDbEntity
  8
0
100
AcDbLine
 62
253
  6
CONTINUOUS
 10
91.9933457259
 20
-95.3967069833
 11
91.9433457259
 21
-95.3975797366
  0
LINE
  5
35C
100
AcDbEntity
  8
RACCORDO
100
AcDbLine
 62
253
  6
CONTINUOUS
 10
96.3985814479
 20
-96.5930331956
 11
96.6933457259
 21
-96.5930331976
  0
LINE
  5
35D
100
AcDbEntity
  8
ASSI
100
AcDbLine
 62
7
  6
CONTINUOUS
 10
86.8933457259
 20
-96.2
 11
88.0933457259
 21
-96.2
  0
LINE
  5
35E
100
AcDbEntity
  8
ASSI
100
AcDbLine
 62
7
  6
CONTINUOUS
 10
88.0933457259
 20
-96.05
 11
88.0683457259
 21
-96.05
  0
LINE
  5
35F
100
AcDbEntity
  8
ASSI
100
AcDbLine
 62
7
  6
CONTINUOUS
 10
87.7183457259
 20
-96.05
 11
87.5683457259
 21
-96.05
  0
LINE
  5
360
100
AcDbEntity
  8
ASSI
100
AcDbLine
 62
7
  6
CONTINUOUS
 10
87.2183457259
 20
-96.05
 11
87.0683457259
 21
-96.05
  0
LINE
  5
361
100
AcDbEntity
  8
ASSI
100
AcDbLine
 62
253
  6
CONTINUOUS
 10
86.9711169156
 20
-97.9277711897
 11
88.0933457259
 21
-97.9282781284
  0
LINE
  5
362
100
AcDbEntity
  8
ASSI
100
AcDbLine
 62
7
  6
CONTINUOUS
 10
87.1927349392
 20
-98.1508715995
 11
88.0933457259
 21
-98.1524434634
  0
LINE
  5
363
100
AcDbEntity
  8
ASSI
100
AcDbLine
 62
7
  6
CONTINUOUS
 10
86.6933457259
 20
-97.35
 11
88.0933457259
 21
-97.3581449617
  0
LWPOLYLINE
  5
364
100
AcDbEntity
  8
0
100
AcDbPolyline
 62
7
  6
CONTINUOUS
 90
3
 70
0
 43
0.3500000006
 10
99.1795734558
 20
139.5928502197
 10
100.036720459
 20
140.4500062866
 10
100.036720459
 20
137.4500053711
  0
LINE
  5
365
100
AcDbEntity
  8
0
100
AcDbLine
 62
7
  6
CONTINUOUS
 10
91.9433457259
 20
-93.7
 11
91.9933457259
 21
-93.7
  0
LINE
  5
366
100
AcDbEntity
  8
RACCORDO
100
AcDbLine
 62
7
  6
CONTINUOUS
 10
91.9433457259
 20
-92.7
 11
91.9933457259
 21
-92.7
  0
LINE
  5
367
100
AcDbEntity
  8
DRAFT
100
AcDbLine
 62
7
  6
CONTINUOUS
 10
88.0933457259
 20
117.65
 11
89.0933457259
 21
118.65
  0
LWPOLYLINE
  5
368
100
AcDbEntity
  8
0
100
AcDbPolyline
 62
7
  6
CONTINUOUS
 90
10
 70
0
 43
0.3500000006
 10
103.6736743469
 20
130.4500032349
 10
103.0308118286
 20
129.8071407166
 10
102.6022428589
 20
128.9500027771
 10
102.6022428589
 20
127.8785712891
 10
103.0308118286
 20
127.4500023193
 10
103.6736743469
 20
127.4500023193
 10
104.1022433167
 20
127.8785712891
 10
104.1022433167
 20
128.7357182922
 10
103.6736743469
 20
129.164287262
 10
102.7450961609
 20
129.164287262
  0
LINE
  5
369
100
AcDbEntity
  8
SMUSSO
100
AcDbLine
 62
7
  6
CONTINUOUS
 10
91.9933457259
 20
118.2
 11
92.4933457259
 21
118.7
  0
LINE
  5
36A
100
AcDbEntity
  8
0
100
AcDbLine
 62
7
  6
CONTINUOUS
 10
86.9711169156
 20
-84.2902460313
 11
86.6933457259
 21
-84.3641726926
  0
LINE
  5
36B
100
AcDbEntity
  8
0
100
AcDbLine
 62
7
  6
CONTINUOUS
 10
86.8828785347
 20
-79.2400670064
 11
88.0933457259
 21
-79.176629109
  0
LINE
  5
36C
100
AcDbEntity
  8
0
100
AcDbLine
 62
7
  6
CONTINUOUS
 10
86.6933457259
 20
-79.8
 11
88.0933457259
 21
-79.7966262464
  0
LINE
  5
36D
100
AcDbEntity
  8
0
100
AcDbLine
 62
253
  6
CONTINUOUS
 10
86.9711169156
 20
-83.7097539687
 11
88.0933457259
 21
-83.7078620477
  0
LINE
  5
36E
100
AcDbEntity
  8
0
100
AcDbLine
 62
7
  6
CONTINUOUS
 10
86.6933457259
 20
-83.4830127019
 11
88.0933457259
 21
-83.480830266
  0
LINE
  5
36F
100
AcDbEntity
  8
0
100
AcDbLine
 62
7
  6
CONTINUOUS
 10
86.6933457259
 20
-83.05
 11
88.0933457259
 21
-83.0478175641
  0
LINE
  5
370
100
AcDbEntity
  8
0
100
AcDbLine
 62
253
  6
CONTINUOUS
 10
86.9711169156
 20
-80.2097539687
 11
88.0933457259
 21
-80.2078620477
  0
LINE
  5
371
100
AcDbEntity
  8
0
100
AcDbLine
 62
7
  6
CONTINUOUS
 10
86.6933457259
 20
-83.5554425497
 11
88.0933457259
 21
-83.5550953261
  0
LINE
  5
372
100
AcDbEntity
  8
0
100
AcDbLine
 62
7
  6
CONTINUOUS
 10
86.6933457259
 20
-80.0554425497
 11
88.0933457259
 21
-80.0550953261
  0
LINE
  5
373
100
AcDbEntity
  8
RACCORDO
100
AcDbLine
 62
7
  6
CONTINUOUS
 10
91.9433457259
 20
-85.7
 11
91.9933457259
 21
-85.7
  0
LINE
  5
374
100
AcDbEntity
  8
0
100
AcDbLine
 62
7
  6
CONTINUOUS
 10
91.9433457259
 20
-78.8
 11
91.9933457259
 21
-78.8
  0
LINE
  5
375
100
AcDbEntity
  8
0
100
AcDbLine
 62
7
  6
CONTINUOUS
 10
86.6933457259
 20
-84.4445574503
 11
88.0933457259
 21
-84.4449046739
  0
LINE
  5
376
100
AcDbEntity
  8
0
100
AcDbLine
 62
7
  6
CONTINUOUS
 10
86.6933457259
 20
-80.9445574503
 11
88.0933457259
 21
-80.9449046739
  0
LINE
  5
377
100
AcDbEntity
  8
0
100
AcDbLine
 62
7
  6
CONTINUOUS
 10
86.6933457259
 20
-81.45
 11
88.0933457259
 21
-81.4521824359
  0
LINE
  5
378
100
AcDbEntity
  8
0
100
AcDbLine
 62
7
  6
CONTINUOUS
 10
86.6933457259
 20
-81.0169872981
 11
88.0933457259
 21
-81.019169734
  0
LINE
  5
379
100
AcDbEntity
  8
0
100
AcDbLine
 62
253
  6
CONTINUOUS
 10
86.9711169156
 20
-84.2902460313
 11
88.0933457259
 21
-84.2921379523
  0
LINE
  5
37A
100
AcDbEntity
  8
0
100
AcDbLine
 62
253
  6
CONTINUOUS
 10
86.9711169156
 20
-80.7902460313
 11
88.0933457259
 21
-80.7921379523
  0
LINE
  5
37B
100
AcDbEntity
  8
0
100
AcDbLine
 62
7
  6
CONTINUOUS
 10
86.6933457259
 20
-84.7
 11
88.0933457259
 21
-84.7033737536
  0
LINE
  5
37C
100
AcDbEntity
  8
0
100
AcDbLine
 62
7
  6
CONTINUOUS
 10
86.8828785347
 20
-85.2599329936
 11
88.0933457259
 21
-85.323370891
  0
LINE
  5
37D
100
AcDbEntity
  8
0
100
AcDbLine
 62
7
  6
CONTINUOUS
 10
86.9711169156
 20
-83.7097539687
 11
86.6933457259
 21
-83.6358273074
  0
LINE
  5
37E
100
AcDbEntity
  8
0
100
AcDbLine
 62
7
  6
CONTINUOUS
 10
86.9711169156
 20
-80.2097539687
 11
86.6933457259
 21
-80.1358273074
  0
LINE
  5
37F
100
AcDbEntity
  8
DRAFT
100
AcDbLine
 62
7
  6
CONTINUOUS
 10
88.0933457259
 20
-117.65
 11
89.0933457259
 21
-118.65
  0
LINE
  5
380
100
AcDbEntity
  8
SMUSSO
100
AcDbLine
 62
7
  6
CONTINUOUS
 10
91.9933457259
 20
-118.2
 11
92.4933457259
 21
-118.7
  0
LINE
  5
381
100
AcDbEntity
  8
0
100
AcDbLine
 62
7
  6
CONTINUOUS
 10
87.1941648592
 20
98.1508191332
 11
86.6933457259
 21
97.65
  0
LINE
  5
382
100
AcDbEntity
  8
0
100
AcDbLine
 62
7
  6
CONTINUOUS
 10
87.3683457259
 20
96.2
 11
87.2183457259
 21
96.05
  0
LINE
  5
383
100
AcDbEntity
  8
0
100
AcDbLine
 62
7
  6
CONTINUOUS
 10
87.8683457259
 20
96.2
 11
87.7183457259
 21
96.05
  0
LINE
  5
384
100
AcDbEntity
  8
0
100
AcDbLine
 62
7
  6
CONTINUOUS
 10
86.9711169156
 20
-80.7902460313
 11
86.6933457259
 21
-80.8641726926
  0
LINE
  5
385
100
AcDbEntity
  8
ASSI
100
AcDbLine
 62
7
  6
CONTINUOUS
 10
87.1941648592
 20
-98.1508191332
 11
86.6933457259
 21
-97.65
  0
LINE
  5
386
100
AcDbEntity
  8
ASSI
100
AcDbLine
 62
7
  6
CONTINUOUS
 10
87.3683457259
 20
-96.2
 11
87.2183457259
 21
-96.05
  0
LINE
  5
387
100
AcDbEntity
  8
ASSI
100
AcDbLine
 62
7
  6
CONTINUOUS
 10
87.8683457259
 20
-96.2
 11
87.7183457259
 21
-96.05
  0
LINE
  5
388
100
AcDbEntity
  8
0
100
AcDbLine
 62
7
  6
CONTINUOUS
 10
91.9433457259
 20
-63.2
 11
91.9933457259
 21
-63.2
  0
LINE
  5
389
100
AcDbEntity
  8
0
100
AcDbLine
 62
7
  6
CONTINUOUS
 10
86.8828785347
 20
-62.7599329936
 11
88.0933457259
 21
-62.823370891
  0
LINE
  5
38A
100
AcDbEntity
  8
0
100
AcDbLine
 62
7
  6
CONTINUOUS
 10
86.9711169156
 20
-61.7902460313
 11
86.6933457259
 21
-61.8641726926
  0
LINE
  5
38B
100
AcDbEntity
  8
0
100
AcDbLine
 62
7
  6
CONTINUOUS
 10
86.9711169156
 20
-58.2902460313
 11
86.6933457259
 21
-58.3641726926
  0
LINE
  5
38C
100
AcDbEntity
  8
0
100
AcDbLine
 62
7
  6
CONTINUOUS
 10
86.8828785347
 20
-56.7400670064
 11
88.0933457259
 21
-56.676629109
  0
LINE
  5
38D
100
AcDbEntity
  8
0
100
AcDbLine
 62
7
  6
CONTINUOUS
 10
86.6933457259
 20
-57.3
 11
88.0933457259
 21
-57.2966262464
  0
LINE
  5
38E
100
AcDbEntity
  8
0
100
AcDbLine
 62
253
  6
CONTINUOUS
 10
86.9711169156
 20
-61.2097539687
 11
88.0933457259
 21
-61.2078620477
  0
LINE
  5
38F
100
AcDbEntity
  8
0
100
AcDbLine
 62
7
  6
CONTINUOUS
 10
86.6933457259
 20
-60.9830127019
 11
88.0933457259
 21
-60.980830266
  0
LINE
  5
390
100
AcDbEntity
  8
0
100
AcDbLine
 62
7
  6
CONTINUOUS
 10
86.6933457259
 20
-60.55
 11
88.0933457259
 21
-60.5478175641
  0
LINE
  5
391
100
AcDbEntity
  8
0
100
AcDbLine
 62
253
  6
CONTINUOUS
 10
86.9711169156
 20
-57.7097539687
 11
88.0933457259
 21
-57.7078620477
  0
LINE
  5
392
100
AcDbEntity
  8
0
100
AcDbLine
 62
7
  6
CONTINUOUS
 10
86.6933457259
 20
-61.0554425497
 11
88.0933457259
 21
-61.0550953261
  0
LINE
  5
393
100
AcDbEntity
  8
0
100
AcDbLine
 62
7
  6
CONTINUOUS
 10
86.6933457259
 20
-57.5554425497
 11
88.0933457259
 21
-57.5550953261
  0
LINE
  5
394
100
AcDbEntity
  8
RACCORDO
100
AcDbLine
 62
7
  6
CONTINUOUS
 10
91.9433457259
 20
-56.3
 11
91.9933457259
 21
-56.3
  0
LINE
  5
395
100
AcDbEntity
  8
0
100
AcDbLine
 62
7
  6
CONTINUOUS
 10
86.6933457259
 20
-61.9445574503
 11
88.0933457259
 21
-61.9449046739
  0
LINE
  5
396
100
AcDbEntity
  8
0
100
AcDbLine
 62
7
  6
CONTINUOUS
 10
86.6933457259
 20
-58.4445574503
 11
88.0933457259
 21
-58.4449046739
  0
LINE
  5
397
100
AcDbEntity
  8
0
100
AcDbLine
 62
7
  6
CONTINUOUS
 10
86.6933457259
 20
-58.95
 11
88.0933457259
 21
-58.9521824359
  0
LINE
  5
398
100
AcDbEntity
  8
0
100
AcDbLine
 62
7
  6
CONTINUOUS
 10
86.6933457259
 20
-58.5169872981
 11
88.0933457259
 21
-58.519169734
  0
LINE
  5
399
100
AcDbEntity
  8
0
100
AcDbLine
 62
253
  6
CONTINUOUS
 10
86.9711169156
 20
-61.7902460313
 11
88.0933457259
 21
-61.7921379523
  0
LINE
  5
39A
100
AcDbEntity
  8
0
100
AcDbLine
 62
253
  6
CONTINUOUS
 10
86.9711169156
 20
-58.2902460313
 11
88.0933457259
 21
-58.2921379523
  0
LINE
  5
39B
100
AcDbEntity
  8
0
100
AcDbLine
 62
7
  6
CONTINUOUS
 10
86.6933457259
 20
-62.2
 11
88.0933457259
 21
-62.2033737536
  0
LINE
  5
39C
100
AcDbEntity
  8
0
100
AcDbLine
 62
7
  6
CONTINUOUS
 10
86.9711169156
 20
-61.2097539687
 11
86.6933457259
 21
-61.1358273074
  0
LINE
  5
39D
100
AcDbEntity
  8
0
100
AcDbLine
 62
7
  6
CONTINUOUS
 10
86.9711169156
 20
-57.7097539687
 11
86.6933457259
 21
-57.6358273074
  0
LINE
  5
39E
100
AcDbEntity
  8
RACCORDO
100
AcDbLine
 62
7
  6
CONTINUOUS
 10
91.9433457259
 20
-49.3
 11
91.9933457259
 21
-49.3
  0
LINE
  5
39F
100
AcDbEntity
  8
0
100
AcDbLine
 62
7
  6
CONTINUOUS
 10
91.9433457259
 20
-48.3
 11
91.9933457259
 21
-48.3
  0
LINE
  5
3A0
100
AcDbEntity
  8
0
100
AcDbLine
 62
253
  6
CONTINUOUS
 10
91.9933457259
 20
-46.6032930167
 11
91.9433457259
 21
-46.6024202634
  0
LINE
  5
3A1
100
AcDbEntity
  8
ASSI
100
AcDbLine
 62
7
  6
CONTINUOUS
 10
86.6933457259
 20
-44.65
 11
88.0933457259
 21
-44.6418550383
  0
LINE
  5
3A2
100
AcDbEntity
  8
ASSI
100
AcDbLine
 62
7
  6
CONTINUOUS
 10
87.1927349392
 20
-43.8491284005
 11
88.0933457259
 21
-43.8475565366
  0
LINE
  5
3A3
100
AcDbEntity
  8
ASSI
100
AcDbLine
 62
253
  6
CONTINUOUS
 10
86.9711169156
 20
-44.0722288103
 11
88.0933457259
 21
-44.0717218716
  0
LINE
  5
3A4
100
AcDbEntity
  8
0
100
AcDbLine
 62
7
  6
CONTINUOUS
 10
86.7201406452
 20
-45.7
 11
88.0933457259
 21
-45.7
  0
LINE
  5
3A5
100
AcDbEntity
  8
RACCORDO
100
AcDbLine
 62
253
  6
CONTINUOUS
 10
96.3985814479
 20
-45.4069668038
 11
96.6933457259
 21
-45.4069668024
  0
LINE
  5
3A6
100
AcDbEntity
  8
RACCORDO
100
AcDbLine
 62
253
  6
CONTINUOUS
 10
96.3985814479
 20
-45.4069668024
 11
95.9933457259
 21
-45.3998933866
  0
LINE
  5
3A7
100
AcDbEntity
  8
0
100
AcDbLine
 62
7
  6
CONTINUOUS
 10
91.9933457259
 20
-45.303491013
 11
91.9433457259
 21
-45.3026182597
  0
LINE
  5
3A8
100
AcDbEntity
  8
RACCORDO
100
AcDbLine
 62
7
  6
CONTINUOUS
 10
96.3985814479
 20
-44.7070734158
 11
95.9933457259
 21
-44.7
  0
LINE
  5
3A9
100
AcDbEntity
  8
ASSI
100
AcDbLine
 62
7
  6
CONTINUOUS
 10
86.8828785347
 20
-45.2083735833
 11
88.0933457259
 21
-45.2618521756
  0
LWPOLYLINE
  5
3AA
100
AcDbEntity
  8
0
100
AcDbPolyline
 62
7
  6
CONTINUOUS
 90
3
 70
0
 43
0.3500000006
 10
101.6022425537
 20
127.7357179871
 10
101.5308113708
 20
127.5214244385
 10
101.3879580688
 20
127.2357178345
  0
LINE
  5
3AB
100
AcDbEntity
  8
SUPERFICI
100
AcDbLine
 62
7
  6
CONTINUOUS
 10
86.8828785347
 20
-25.7916264167
 11
88.0933457259
 21
-25.7381478244
  0
LINE
  5
3AC
100
AcDbEntity
  8
RACCORDO
100
AcDbLine
 62
7
  6
CONTINUOUS
 10
96.3985814479
 20
-26.2929265842
 11
95.9933457259
 21
-26.3
  0
LINE
  5
3AD
100
AcDbEntity
  8
0
100
AcDbLine
 62
7
  6
CONTINUOUS
 10
91.9933457259
 20
-25.696508987
 11
91.9433457259
 21
-25.6973817403
  0
LINE
  5
3AE
100
AcDbEntity
  8
RACCORDO
100
AcDbLine
 62
253
  6
CONTINUOUS
 10
96.3985814479
 20
-25.5930331976
 11
95.9933457259
 21
-25.6001066134
  0
LINE
  5
3AF
100
AcDbEntity
  8
0
100
AcDbLine
 62
253
  6
CONTINUOUS
 10
91.9933457259
 20
-24.3967069833
 11
91.9433457259
 21
-24.3975797366
  0
LINE
  5
3B0
100
AcDbEntity
  8
RACCORDO
100
AcDbLine
 62
253
  6
CONTINUOUS
 10
96.3985814479
 20
-25.5930331956
 11
96.6933457259
 21
-25.5930331976
  0
LINE
  5
3B1
100
AcDbEntity
  8
0
100
AcDbLine
 62
7
  6
CONTINUOUS
 10
86.7201406452
 20
-25.3
 11
88.0933457259
 21
-25.3
  0
LINE
  5
3B2
100
AcDbEntity
  8
0
100
AcDbLine
 62
7
  6
CONTINUOUS
 10
91.9433457259
 20
-22.7
 11
91.9933457259
 21
-22.7
  0
LINE
  5
3B3
100
AcDbEntity
  8
SUPERFICI
100
AcDbLine
 62
253
  6
CONTINUOUS
 10
86.9711169156
 20
-26.9277711897
 11
88.0933457259
 21
-26.9282781284
  0
LINE
  5
3B4
100
AcDbEntity
  8
SUPERFICI
100
AcDbLine
 62
7
  6
CONTINUOUS
 10
87.1927349392
 20
-27.1508715995
 11
88.0933457259
 21
-27.1524434634
  0
LINE
  5
3B5
100
AcDbEntity
  8
SUPERFICI
100
AcDbLine
 62
7
  6
CONTINUOUS
 10
86.6933457259
 20
-26.35
 11
88.0933457259
 21
-26.3581449617
  0
LINE
  5
3B6
100
AcDbEntity
  8
SUPERFICI
100
AcDbLine
 62
7
  6
CONTINUOUS
 10
86.6933457259
 20
26.65
 11
87.1941648592
 21
27.1508191332
  0
LINE
  5
3B7
100
AcDbEntity
  8
RACCORDO
100
AcDbLine
 62
7
  6
CONTINUOUS
 10
91.9433457259
 20
-21.7
 11
91.9933457259
 21
-21.7
  0
LINE
  5
3B8
100
AcDbEntity
  8
SUPERFICI
100
AcDbLine
 62
7
  6
CONTINUOUS
 10
87.1941648592
 20
-27.1508191332
 11
86.6933457259
 21
-26.65
  0
LINE
  5
3B9
100
AcDbEntity
  8
SUPERFICI
100
AcDbLine
 62
7
  6
CONTINUOUS
 10
86.9711169156
 20
-13.2902460313
 11
86.6933457259
 21
-13.3641726926
  0
LINE
  5
3BA
100
AcDbEntity
  8
SUPERFICI
100
AcDbLine
 62
7
  6
CONTINUOUS
 10
86.9711169156
 20
-9.7902460313
 11
86.6933457259
 21
-9.8641726926
  0
LINE
  5
3BB
100
AcDbEntity
  8
SUPERFICI
100
AcDbLine
 62
7
  6
CONTINUOUS
 10
86.8828785347
 20
-8.2400670064
 11
88.0933457259
 21
-8.176629109
  0
LINE
  5
3BC
100
AcDbEntity
  8
SUPERFICI
100
AcDbLine
 62
7
  6
CONTINUOUS
 10
86.6933457259
 20
-8.8
 11
88.0933457259
 21
-8.7966262464
  0
LINE
  5
3BD
100
AcDbEntity
  8
SUPERFICI
100
AcDbLine
 62
253
  6
CONTINUOUS
 10
86.9711169156
 20
-12.7097539687
 11
88.0933457259
 21
-12.7078620477
  0
LINE
  5
3BE
100
AcDbEntity
  8
SUPERFICI
100
AcDbLine
 62
7
  6
CONTINUOUS
 10
86.6933457259
 20
-12.4830127019
 11
88.0933457259
 21
-12.480830266
  0
LINE
  5
3BF
100
AcDbEntity
  8
SUPERFICI
100
AcDbLine
 62
7
  6
CONTINUOUS
 10
86.6933457259
 20
-12.05
 11
88.0933457259
 21
-12.0478175641
  0
LINE
  5
3C0
100
AcDbEntity
  8
SUPERFICI
100
AcDbLine
 62
253
  6
CONTINUOUS
 10
86.9711169156
 20
-9.2097539687
 11
88.0933457259
 21
-9.2078620477
  0
LINE
  5
3C1
100
AcDbEntity
  8
SUPERFICI
100
AcDbLine
 62
7
  6
CONTINUOUS
 10
86.6933457259
 20
-12.5554425497
 11
88.0933457259
 21
-12.5550953261
  0
LINE
  5
3C2
100
AcDbEntity
  8
SUPERFICI
100
AcDbLine
 62
7
  6
CONTINUOUS
 10
86.6933457259
 20
-9.0554425497
 11
88.0933457259
 21
-9.0550953261
  0
LINE
  5
3C3
100
AcDbEntity
  8
RACCORDO
100
AcDbLine
 62
7
  6
CONTINUOUS
 10
91.9433457259
 20
-14.7
 11
91.9933457259
 21
-14.7
  0
LINE
  5
3C4
100
AcDbEntity
  8
0
100
AcDbLine
 62
7
  6
CONTINUOUS
 10
91.9433457259
 20
-7.8
 11
91.9933457259
 21
-7.8
  0
LINE
  5
3C5
100
AcDbEntity
  8
SUPERFICI
100
AcDbLine
 62
7
  6
CONTINUOUS
 10
86.6933457259
 20
-13.4445574503
 11
88.0933457259
 21
-13.4449046739
  0
LINE
  5
3C6
100
AcDbEntity
  8
SUPERFICI
100
AcDbLine
 62
7
  6
CONTINUOUS
 10
86.6933457259
 20
-9.9445574503
 11
88.0933457259
 21
-9.9449046739
  0
LINE
  5
3C7
100
AcDbEntity
  8
SUPERFICI
100
AcDbLine
 62
7
  6
CONTINUOUS
 10
86.6933457259
 20
-10.45
 11
88.0933457259
 21
-10.4521824359
  0
LINE
  5
3C8
100
AcDbEntity
  8
SUPERFICI
100
AcDbLine
 62
7
  6
CONTINUOUS
 10
86.6933457259
 20
-10.0169872981
 11
88.0933457259
 21
-10.019169734
  0
LINE
  5
3C9
100
AcDbEntity
  8
SUPERFICI
100
AcDbLine
 62
253
  6
CONTINUOUS
 10
86.9711169156
 20
-13.2902460313
 11
88.0933457259
 21
-13.2921379523
  0
LINE
  5
3CA
100
AcDbEntity
  8
SUPERFICI
100
AcDbLine
 62
253
  6
CONTINUOUS
 10
86.9711169156
 20
-9.7902460313
 11
88.0933457259
 21
-9.7921379523
  0
LINE
  5
3CB
100
AcDbEntity
  8
SUPERFICI
100
AcDbLine
 62
7
  6
CONTINUOUS
 10
86.6933457259
 20
-13.7
 11
88.0933457259
 21
-13.7033737536
  0
LINE
  5
3CC
100
AcDbEntity
  8
SUPERFICI
100
AcDbLine
 62
7
  6
CONTINUOUS
 10
86.8828785347
 20
-14.2599329936
 11
88.0933457259
 21
-14.323370891
  0
LINE
  5
3CD
100
AcDbEntity
  8
SUPERFICI
100
AcDbLine
 62
7
  6
CONTINUOUS
 10
86.9711169156
 20
-12.7097539687
 11
86.6933457259
 21
-12.6358273074
  0
LINE
  5
3CE
100
AcDbEntity
  8
SUPERFICI
100
AcDbLine
 62
7
  6
CONTINUOUS
 10
86.9711169156
 20
-9.2097539687
 11
86.6933457259
 21
-9.1358273074
  0
LINE
  5
3CF
100
AcDbEntity
  8
SUPERFICI
100
AcDbLine
 62
7
  6
CONTINUOUS
 10
86.6933457259
 20
-25.4
 11
86.6933457259
 21
-26.65
  0
LINE
  5
3D0
100
AcDbEntity
  8
SUPERFICI
100
AcDbLine
 62
7
  6
CONTINUOUS
 10
86.6933457259
 20
-14.0602070867
 11
86.6933457259
 21
-8.4397929133
  0
LINE
  5
3D1
100
AcDbEntity
  8
ASSI
100
AcDbLine
 62
7
  6
CONTINUOUS
 10
86.6933457259
 20
-44.35
 11
86.6933457259
 21
-45.6
  0
LINE
  5
3D2
100
AcDbEntity
  8
SUPERFICI
100
AcDbLine
 62
7
  6
CONTINUOUS
 10
86.6933457259
 20
8.4397929133
 11
86.6933457259
 21
14.0602070867
  0
LINE
  5
3D3
100
AcDbEntity
  8
0
100
AcDbLine
 62
7
  6
CONTINUOUS
 10
86.6933457259
 20
-56.9397929133
 11
86.6933457259
 21
-62.5602070867
  0
LINE
  5
3D4
100
AcDbEntity
  8
SUPERFICI
100
AcDbLine
 62
7
  6
CONTINUOUS
 10
86.6933457259
 20
25.4
 11
86.6933457259
 21
26.65
  0
LINE
  5
3D5
100
AcDbEntity
  8
0
100
AcDbLine
 62
7
  6
CONTINUOUS
 10
86.6933457259
 20
-79.4397929133
 11
86.6933457259
 21
-85.0602070867
  0
LINE
  5
3D6
100
AcDbEntity
  8
0
100
AcDbLine
 62
7
  6
CONTINUOUS
 10
86.6933457259
 20
44.35
 11
86.6933457259
 21
45.6
  0
LINE
  5
3D7
100
AcDbEntity
  8
ASSI
100
AcDbLine
 62
7
  6
CONTINUOUS
 10
86.6933457259
 20
-96.4
 11
86.6933457259
 21
-97.65
  0
LINE
  5
3D8
100
AcDbEntity
  8
0
100
AcDbLine
 62
7
  6
CONTINUOUS
 10
86.6933457259
 20
56.9397929133
 11
86.6933457259
 21
62.5602070867
  0
LINE
  5
3D9
100
AcDbEntity
  8
0
100
AcDbLine
 62
7
  6
CONTINUOUS
 10
86.6933457259
 20
79.4397929133
 11
86.6933457259
 21
85.0602070867
  0
LINE
  5
3DA
100
AcDbEntity
  8
0
100
AcDbLine
 62
7
  6
CONTINUOUS
 10
86.6933457259
 20
96.4
 11
86.6933457259
 21
97.65
  0
LINE
  5
3DB
100
AcDbEntity
  8
0
100
AcDbLine
 62
253
  6
CONTINUOUS
 10
86.8828785347
 20
96.7916264167
 11
86.8828785347
 21
96.200274093
  0
LINE
  5
3DC
100
AcDbEntity
  8
ASSI
100
AcDbLine
 62
253
  6
CONTINUOUS
 10
86.8828785347
 20
-96.7916264167
 11
86.8828785347
 21
-96.200274093
  0
LINE
  5
3DD
100
AcDbEntity
  8
0
100
AcDbLine
 62
253
  6
CONTINUOUS
 10
86.8828785347
 20
45.7
 11
86.8828785347
 21
45.2083735833
  0
LINE
  5
3DE
100
AcDbEntity
  8
0
100
AcDbLine
 62
253
  6
CONTINUOUS
 10
86.8828785347
 20
-45.7
 11
86.8828785347
 21
-45.2083735833
  0
LINE
  5
3DF
100
AcDbEntity
  8
0
100
AcDbLine
 62
253
  6
CONTINUOUS
 10
86.8828785347
 20
-25.7916264167
 11
86.8828785347
 21
-25.3
  0
LINE
  5
3E0
100
AcDbEntity
  8
SUPERFICI
100
AcDbLine
 62
253
  6
CONTINUOUS
 10
86.8828785347
 20
25.3
 11
86.8828785347
 21
25.7916264167
  0
LINE
  5
3E1
100
AcDbEntity
  8
SMUSSO
100
AcDbLine
 62
7
  6
CONTINUOUS
 10
88.0933457259
 20
-117.65
 11
88.0933457259
 21
117.65
  0
LINE
  5
3E2
100
AcDbEntity
  8
DRAFT
100
AcDbLine
 62
7
  6
CONTINUOUS
 10
89.0933457259
 20
-118.65
 11
89.0933457259
 21
118.65
  0
LINE
  5
3E3
100
AcDbEntity
  8
DRAFT
100
AcDbLine
 62
7
  6
CONTINUOUS
 10
91.4850938446
 20
118.6082518813
 11
91.4850938446
 21
-118.6082518813
  0
LINE
  5
3E4
100
AcDbEntity
  8
SMUSSO
100
AcDbLine
 62
7
  6
CONTINUOUS
 10
91.9433457259
 20
118.15
 11
91.9433457259
 21
-118.15
  0
LINE
  5
3E5
100
AcDbEntity
  8
SMUSSO
100
AcDbLine
 62
7
  6
CONTINUOUS
 10
91.9933457259
 20
-118.2
 11
91.9933457259
 21
118.2
  0
LINE
  5
3E6
100
AcDbEntity
  8
SMUSSO
100
AcDbLine
 62
7
  6
CONTINUOUS
 10
92.4933457259
 20
-118.7
 11
92.4933457259
 21
118.7
  0
LINE
  5
3E7
100
AcDbEntity
  8
SMUSSO
100
AcDbLine
 62
7
  6
CONTINUOUS
 10
93.9933457259
 20
117.7
 11
93.9933457259
 21
-117.7
  0
LINE
  5
3E8
100
AcDbEntity
  8
SMUSSO
100
AcDbLine
 62
7
  6
CONTINUOUS
 10
95.9933457259
 20
112.7
 11
95.9933457259
 21
-112.7
  0
LINE
  5
3E9
100
AcDbEntity
  8
RACCORDO
100
AcDbLine
 62
253
  6
CONTINUOUS
 10
96.3985814479
 20
96.5930331976
 11
96.3985814479
 21
45.4069668024
  0
LINE
  5
3EA
100
AcDbEntity
  8
RACCORDO
100
AcDbLine
 62
253
  6
CONTINUOUS
 10
96.3985814479
 20
25.5930331976
 11
96.3985814479
 21
-25.5930331976
  0
LINE
  5
3EB
100
AcDbEntity
  8
RACCORDO
100
AcDbLine
 62
253
  6
CONTINUOUS
 10
96.3985814479
 20
-45.4069668024
 11
96.3985814479
 21
-96.5930331976
  0
LINE
  5
3EC
100
AcDbEntity
  8
RACCORDO
100
AcDbLine
 62
7
  6
CONTINUOUS
 10
96.6933457259
 20
-45.0070277244
 11
96.6933457259
 21
-96.9929722756
  0
LINE
  5
3ED
100
AcDbEntity
  8
RACCORDO
100
AcDbLine
 62
7
  6
CONTINUOUS
 10
96.6933457259
 20
-25.9929722756
 11
96.6933457259
 21
25.9929722756
  0
LINE
  5
3EE
100
AcDbEntity
  8
RACCORDO
100
AcDbLine
 62
7
  6
CONTINUOUS
 10
96.6933457259
 20
45.0070277244
 11
96.6933457259
 21
96.9929722756
  0
LWPOLYLINE
  5
3EF
100
AcDbEntity
  8
0
100
AcDbPolyline
 62
7
  6
CONTINUOUS
 90
4
 70
0
 43
0.3500000006
 10
98.5308104553
 20
127.8785712891
 10
98.5308104553
 20
128.7357182922
 10
98.9593884888
 20
129.164287262
 10
99.6022419434
 20
129.164287262
  0
LINE
  5
3F0
100
AcDbEntity
  8
0
100
AcDbLine
 62
7
  6
CONTINUOUS
 10
91.9433457259
 20
7.8
 11
91.9933457259
 21
7.8
  0
LINE
  5
3F1
100
AcDbEntity
  8
SUPERFICI
100
AcDbLine
 62
7
  6
CONTINUOUS
 10
86.6933457259
 20
8.8
 11
88.0933457259
 21
8.7966262464
  0
LINE
  5
3F2
100
AcDbEntity
  8
SUPERFICI
100
AcDbLine
 62
7
  6
CONTINUOUS
 10
86.8828785347
 20
8.2400670064
 11
88.0933457259
 21
8.176629109
  0
LINE
  5
3F3
100
AcDbEntity
  8
SUPERFICI
100
AcDbLine
 62
7
  6
CONTINUOUS
 10
86.9711169156
 20
9.7902460313
 11
86.6933457259
 21
9.8641726926
  0
LWPOLYLINE
  5
3F4
100
AcDbEntity
  8
0
100
AcDbPolyline
 62
7
  6
CONTINUOUS
 90
13
 70
0
 43
0.3500000006
 10
100.8938583984
 20
138.3071433105
 10
100.8938583984
 20
139.5928502197
 10
101.1081428833
 20
140.0214373169
 10
101.536711853
 20
140.4500062866
 10
101.7510054016
 20
140.4500062866
 10
102.1795743713
 20
140.0214373169
 10
102.3938588562
 20
139.5928502197
 10
102.3938588562
 20
138.3071433105
 10
102.1795743713
 20
137.8785743408
 10
101.7510054016
 20
137.4500053711
 10
101.536711853
 20
137.4500053711
 10
101.1081428833
 20
137.8785743408
 10
100.8938583984
 20
138.3071433105
  0
LINE
  5
3F5
100
AcDbEntity
  8
SUPERFICI
100
AcDbLine
 62
7
  6
CONTINUOUS
 10
86.9711169156
 20
9.2097539687
 11
86.6933457259
 21
9.1358273074
  0
LINE
  5
3F6
100
AcDbEntity
  8
SUPERFICI
100
AcDbLine
 62
7
  6
CONTINUOUS
 10
86.9711169156
 20
12.7097539687
 11
86.6933457259
 21
12.6358273074
  0
LINE
  5
3F7
100
AcDbEntity
  8
SUPERFICI
100
AcDbLine
 62
7
  6
CONTINUOUS
 10
86.8828785347
 20
14.2599329936
 11
88.0933457259
 21
14.323370891
  0
LINE
  5
3F8
100
AcDbEntity
  8
SUPERFICI
100
AcDbLine
 62
7
  6
CONTINUOUS
 10
86.6933457259
 20
13.7
 11
88.0933457259
 21
13.7033737536
  0
LINE
  5
3F9
100
AcDbEntity
  8
SUPERFICI
100
AcDbLine
 62
253
  6
CONTINUOUS
 10
86.9711169156
 20
9.7902460313
 11
88.0933457259
 21
9.7921379523
  0
LINE
  5
3FA
100
AcDbEntity
  8
SUPERFICI
100
AcDbLine
 62
7
  6
CONTINUOUS
 10
86.6933457259
 20
10.0169872981
 11
88.0933457259
 21
10.019169734
  0
LINE
  5
3FB
100
AcDbEntity
  8
SUPERFICI
100
AcDbLine
 62
7
  6
CONTINUOUS
 10
86.6933457259
 20
10.45
 11
88.0933457259
 21
10.4521824359
  0
LINE
  5
3FC
100
AcDbEntity
  8
SUPERFICI
100
AcDbLine
 62
253
  6
CONTINUOUS
 10
86.9711169156
 20
13.2902460313
 11
88.0933457259
 21
13.2921379523
  0
LINE
  5
3FD
100
AcDbEntity
  8
SUPERFICI
100
AcDbLine
 62
7
  6
CONTINUOUS
 10
86.6933457259
 20
9.9445574503
 11
88.0933457259
 21
9.9449046739
  0
LINE
  5
3FE
100
AcDbEntity
  8
SUPERFICI
100
AcDbLine
 62
7
  6
CONTINUOUS
 10
86.6933457259
 20
13.4445574503
 11
88.0933457259
 21
13.4449046739
  0
LINE
  5
3FF
100
AcDbEntity
  8
RACCORDO
100
AcDbLine
 62
7
  6
CONTINUOUS
 10
91.9433457259
 20
14.7
 11
91.9933457259
 21
14.7
  0
LINE
  5
400
100
AcDbEntity
  8
SUPERFICI
100
AcDbLine
 62
7
  6
CONTINUOUS
 10
86.6933457259
 20
9.0554425497
 11
88.0933457259
 21
9.0550953261
  0
LINE
  5
401
100
AcDbEntity
  8
SUPERFICI
100
AcDbLine
 62
7
  6
CONTINUOUS
 10
86.6933457259
 20
12.5554425497
 11
88.0933457259
 21
12.5550953261
  0
LINE
  5
402
100
AcDbEntity
  8
SUPERFICI
100
AcDbLine
 62
7
  6
CONTINUOUS
 10
86.6933457259
 20
12.05
 11
88.0933457259
 21
12.0478175641
  0
LINE
  5
403
100
AcDbEntity
  8
SUPERFICI
100
AcDbLine
 62
7
  6
CONTINUOUS
 10
86.6933457259
 20
12.4830127019
 11
88.0933457259
 21
12.480830266
  0
LINE
  5
404
100
AcDbEntity
  8
SUPERFICI
100
AcDbLine
 62
253
  6
CONTINUOUS
 10
86.9711169156
 20
9.2097539687
 11
88.0933457259
 21
9.2078620477
  0
LINE
  5
405
100
AcDbEntity
  8
SUPERFICI
100
AcDbLine
 62
253
  6
CONTINUOUS
 10
86.9711169156
 20
12.7097539687
 11
88.0933457259
 21
12.7078620477
  0
LINE
  5
406
100
AcDbEntity
  8
SUPERFICI
100
AcDbLine
 62
7
  6
CONTINUOUS
 10
86.9711169156
 20
13.2902460313
 11
86.6933457259
 21
13.3641726926
  0
LINE
  5
407
100
AcDbEntity
  8
RACCORDO
100
AcDbLine
 62
7
  6
CONTINUOUS
 10
91.9433457259
 20
21.7
 11
91.9933457259
 21
21.7
  0
LINE
  5
408
100
AcDbEntity
  8
0
100
AcDbLine
 62
7
  6
CONTINUOUS
 10
91.9433457259
 20
22.7
 11
91.9933457259
 21
22.7
  0
LINE
  5
409
100
AcDbEntity
  8
0
100
AcDbLine
 62
253
  6
CONTINUOUS
 10
91.9933457259
 20
24.3967069833
 11
91.9433457259
 21
24.3975797366
  0
LINE
  5
40A
100
AcDbEntity
  8
ASSI
100
AcDbLine
 62
7
  6
CONTINUOUS
 10
86.6933457259
 20
-44.35
 11
87.1941648592
 21
-43.8491808668
  0
LINE
  5
40B
100
AcDbEntity
  8
SUPERFICI
100
AcDbLine
 62
7
  6
CONTINUOUS
 10
86.6933457259
 20
26.35
 11
88.0933457259
 21
26.3581449617
  0
LINE
  5
40C
100
AcDbEntity
  8
SUPERFICI
100
AcDbLine
 62
7
  6
CONTINUOUS
 10
87.1927349392
 20
27.1508715995
 11
88.0933457259
 21
27.1524434634
  0
LINE
  5
40D
100
AcDbEntity
  8
SUPERFICI
100
AcDbLine
 62
253
  6
CONTINUOUS
 10
86.9711169156
 20
26.9277711897
 11
88.0933457259
 21
26.9282781284
  0
LINE
  5
40E
100
AcDbEntity
  8
SUPERFICI
100
AcDbLine
 62
7
  6
CONTINUOUS
 10
86.7201406452
 20
25.3
 11
88.0933457259
 21
25.3
  0
LINE
  5
40F
100
AcDbEntity
  8
RACCORDO
100
AcDbLine
 62
253
  6
CONTINUOUS
 10
96.3985814479
 20
25.5930331962
 11
96.6933457259
 21
25.5930331976
  0
LINE
  5
410
100
AcDbEntity
  8
RACCORDO
100
AcDbLine
 62
253
  6
CONTINUOUS
 10
96.3985814479
 20
25.5930331976
 11
95.9933457259
 21
25.6001066134
  0
LINE
  5
411
100
AcDbEntity
  8
0
100
AcDbLine
 62
7
  6
CONTINUOUS
 10
91.9933457259
 20
25.696508987
 11
91.9433457259
 21
25.6973817403
  0
LINE
  5
412
100
AcDbEntity
  8
RACCORDO
100
AcDbLine
 62
7
  6
CONTINUOUS
 10
96.3985814479
 20
26.2929265842
 11
95.9933457259
 21
26.3
  0
LINE
  5
413
100
AcDbEntity
  8
SUPERFICI
100
AcDbLine
 62
7
  6
CONTINUOUS
 10
86.8828785347
 20
25.7916264167
 11
88.0933457259
 21
25.7381478244
  0
LINE
  5
414
100
AcDbEntity
  8
0
100
AcDbLine
 62
7
  6
CONTINUOUS
 10
86.6933457259
 20
44.35
 11
87.1941648592
 21
43.8491808668
  0
LINE
  5
415
100
AcDbEntity
  8
SMUSSO
100
AcDbLine
 62
7
  6
CONTINUOUS
 10
93.9933457259
 20
-118.7
 11
95.9933457259
 21
-112.7
  0
LINE
  5
416
100
AcDbEntity
  8
SMUSSO
100
AcDbLine
 62
7
  6
CONTINUOUS
 10
95.9933457259
 20
112.7
 11
93.9933457259
 21
118.7
  0
LINE
  5
417
100
AcDbEntity
  8
0
100
AcDbLine
 62
7
  6
CONTINUOUS
 10
86.8828785347
 20
45.2083735833
 11
88.0933457259
 21
45.2618521756
  0
LINE
  5
418
100
AcDbEntity
  8
RACCORDO
100
AcDbLine
 62
7
  6
CONTINUOUS
 10
96.3985814479
 20
44.7070734158
 11
95.9933457259
 21
44.7
  0
LINE
  5
419
100
AcDbEntity
  8
RACCORDO
100
AcDbLine
 62
7
  6
CONTINUOUS
 10
91.9433457259
 20
45.3026182597
 11
91.9933457259
 21
45.303491013
  0
LINE
  5
41A
100
AcDbEntity
  8
0
100
AcDbLine
 62
7
  6
CONTINUOUS
 10
91.9433457259
 20
45.3026182597
 11
91.9933457259
 21
45.303491013
  0
LINE
  5
41B
100
AcDbEntity
  8
RACCORDO
100
AcDbLine
 62
253
  6
CONTINUOUS
 10
96.3985814479
 20
45.4069668024
 11
95.9933457259
 21
45.3998933866
  0
LINE
  5
41C
100
AcDbEntity
  8
0
100
AcDbLine
 62
253
  6
CONTINUOUS
 10
91.9433457259
 20
46.6024202634
 11
91.9933457259
 21
46.6032930167
  0
LINE
  5
41D
100
AcDbEntity
  8
RACCORDO
100
AcDbLine
 62
253
  6
CONTINUOUS
 10
96.3985814479
 20
45.4069668044
 11
96.6933457259
 21
45.4069668024
  0
LINE
  5
41E
100
AcDbEntity
  8
0
100
AcDbLine
 62
7
  6
CONTINUOUS
 10
86.7201406452
 20
45.7
 11
88.0933457259
 21
45.7
  0
LINE
  5
41F
100
AcDbEntity
  8
0
100
AcDbLine
 62
7
  6
CONTINUOUS
 10
91.9433457259
 20
48.3
 11
91.9933457259
 21
48.3
  0
LINE
  5
420
100
AcDbEntity
  8
0
100
AcDbLine
 62
253
  6
CONTINUOUS
 10
86.9711169156
 20
44.0722288103
 11
88.0933457259
 21
44.0717218716
  0
LINE
  5
421
100
AcDbEntity
  8
0
100
AcDbLine
 62
7
  6
CONTINUOUS
 10
88.0933457259
 20
43.8475565366
 11
87.1927349392
 21
43.8491284005
  0
LINE
  5
422
100
AcDbEntity
  8
0
100
AcDbLine
 62
7
  6
CONTINUOUS
 10
86.6933457259
 20
44.65
 11
88.0933457259
 21
44.6418550383
  0
LINE
  5
423
100
AcDbEntity
  8
RACCORDO
100
AcDbLine
 62
7
  6
CONTINUOUS
 10
91.9433457259
 20
49.3
 11
91.9933457259
 21
49.3
  0
LINE
  5
424
100
AcDbEntity
  8
RACCORDO
100
AcDbLine
 62
7
  6
CONTINUOUS
 10
91.9433457259
 20
56.3
 11
91.9933457259
 21
56.3
  0
LINE
  5
425
100
AcDbEntity
  8
0
100
AcDbLine
 62
7
  6
CONTINUOUS
 10
86.8828785347
 20
56.7400670064
 11
88.0933457259
 21
56.676629109
  0
LINE
  5
426
100
AcDbEntity
  8
0
100
AcDbLine
 62
7
  6
CONTINUOUS
 10
86.9711169156
 20
58.2902460313
 11
86.6933457259
 21
58.3641726926
  0
LINE
  5
427
100
AcDbEntity
  8
0
100
AcDbLine
 62
7
  6
CONTINUOUS
 10
86.9711169156
 20
57.7097539687
 11
86.6933457259
 21
57.6358273074
  0
LINE
  5
428
100
AcDbEntity
  8
0
100
AcDbLine
 62
7
  6
CONTINUOUS
 10
86.9711169156
 20
61.2097539687
 11
86.6933457259
 21
61.1358273074
  0
LINE
  5
429
100
AcDbEntity
  8
0
100
AcDbLine
 62
7
  6
CONTINUOUS
 10
86.8828785347
 20
62.7599329936
 11
88.0933457259
 21
62.823370891
  0
LINE
  5
42A
100
AcDbEntity
  8
0
100
AcDbLine
 62
7
  6
CONTINUOUS
 10
86.6933457259
 20
62.2
 11
88.0933457259
 21
62.2033737536
  0
LINE
  5
42B
100
AcDbEntity
  8
0
100
AcDbLine
 62
253
  6
CONTINUOUS
 10
86.9711169156
 20
58.2902460313
 11
88.0933457259
 21
58.2921379523
  0
LINE
  5
42C
100
AcDbEntity
  8
0
100
AcDbLine
 62
7
  6
CONTINUOUS
 10
86.6933457259
 20
58.5169872981
 11
88.0933457259
 21
58.519169734
  0
LINE
  5
42D
100
AcDbEntity
  8
0
100
AcDbLine
 62
7
  6
CONTINUOUS
 10
86.6933457259
 20
58.95
 11
88.0933457259
 21
58.9521824359
  0
LINE
  5
42E
100
AcDbEntity
  8
0
100
AcDbLine
 62
253
  6
CONTINUOUS
 10
86.9711169156
 20
61.7902460313
 11
88.0933457259
 21
61.7921379523
  0
LINE
  5
42F
100
AcDbEntity
  8
0
100
AcDbLine
 62
7
  6
CONTINUOUS
 10
86.6933457259
 20
58.4445574503
 11
88.0933457259
 21
58.4449046739
  0
LINE
  5
430
100
AcDbEntity
  8
0
100
AcDbLine
 62
7
  6
CONTINUOUS
 10
86.6933457259
 20
61.9445574503
 11
88.0933457259
 21
61.9449046739
  0
LINE
  5
431
100
AcDbEntity
  8
0
100
AcDbLine
 62
7
  6
CONTINUOUS
 10
91.9433457259
 20
63.2
 11
91.9933457259
 21
63.2
  0
LINE
  5
432
100
AcDbEntity
  8
0
100
AcDbLine
 62
7
  6
CONTINUOUS
 10
86.6933457259
 20
57.5554425497
 11
88.0933457259
 21
57.5550953261
  0
LINE
  5
433
100
AcDbEntity
  8
0
100
AcDbLine
 62
7
  6
CONTINUOUS
 10
86.6933457259
 20
61.0554425497
 11
88.0933457259
 21
61.0550953261
  0
LINE
  5
434
100
AcDbEntity
  8
0
100
AcDbLine
 62
7
  6
CONTINUOUS
 10
86.6933457259
 20
60.55
 11
88.0933457259
 21
60.5478175641
  0
LINE
  5
435
100
AcDbEntity
  8
0
100
AcDbLine
 62
7
  6
CONTINUOUS
 10
86.6933457259
 20
60.9830127019
 11
88.0933457259
 21
60.980830266
  0
LINE
  5
436
100
AcDbEntity
  8
0
100
AcDbLine
 62
253
  6
CONTINUOUS
 10
86.9711169156
 20
57.7097539687
 11
88.0933457259
 21
57.7078620477
  0
LINE
  5
437
100
AcDbEntity
  8
0
100
AcDbLine
 62
253
  6
CONTINUOUS
 10
86.9711169156
 20
61.2097539687
 11
88.0933457259
 21
61.2078620477
  0
LINE
  5
438
100
AcDbEntity
  8
0
100
AcDbLine
 62
7
  6
CONTINUOUS
 10
86.6933457259
 20
57.3
 11
88.0933457259
 21
57.2966262464
  0
LINE
  5
439
100
AcDbEntity
  8
0
100
AcDbLine
 62
7
  6
CONTINUOUS
 10
86.9711169156
 20
61.7902460313
 11
86.6933457259
 21
61.8641726926
  0
LINE
  5
43A
100
AcDbEntity
  8
ASSI
100
AcDbLine
 62
7
  6
CONTINUOUS
 10
87.0683457259
 20
-96.05
 11
86.9183457259
 21
-96.2
  0
LINE
  5
43B
100
AcDbEntity
  8
ASSI
100
AcDbLine
 62
7
  6
CONTINUOUS
 10
87.5683457259
 20
-96.05
 11
87.4183457259
 21
-96.2
  0
LINE
  5
43C
100
AcDbEntity
  8
ASSI
100
AcDbLine
 62
7
  6
CONTINUOUS
 10
88.0683457259
 20
-96.05
 11
87.9183457259
 21
-96.2
  0
LINE
  5
43D
100
AcDbEntity
  8
0
100
AcDbLine
 62
7
  6
CONTINUOUS
 10
87.0683457259
 20
96.05
 11
86.9183457259
 21
96.2
  0
LINE
  5
43E
100
AcDbEntity
  8
0
100
AcDbLine
 62
7
  6
CONTINUOUS
 10
87.5683457259
 20
96.05
 11
87.4183457259
 21
96.2
  0
LINE
  5
43F
100
AcDbEntity
  8
0
100
AcDbLine
 62
7
  6
CONTINUOUS
 10
88.0683457259
 20
96.05
 11
87.9183457259
 21
96.2
  0
LWPOLYLINE
  5
440
100
AcDbEntity
  8
0
100
AcDbPolyline
 62
7
  6
CONTINUOUS
 90
10
 70
0
 43
0.3500000006
 10
101.5308113708
 20
127.9500024719
 10
101.6022425537
 20
127.8071401062
 10
101.6022425537
 20
127.7357179871
 10
101.4593892517
 20
127.5928556213
 10
101.3879580688
 20
127.5928556213
 10
101.316526886
 20
127.6642868042
 10
101.316526886
 20
127.7357179871
 10
101.3879580688
 20
127.8785712891
 10
101.4593892517
 20
127.9500024719
 10
101.5308113708
 20
127.9500024719
  0
LINE
  5
441
100
AcDbEntity
  8
0
100
AcDbLine
 62
7
  6
CONTINUOUS
 10
86.9711169156
 20
80.2097539687
 11
86.6933457259
 21
80.1358273074
  0
LINE
  5
442
100
AcDbEntity
  8
0
100
AcDbLine
 62
7
  6
CONTINUOUS
 10
91.9433457259
 20
78.8
 11
91.9933457259
 21
78.8
  0
LINE
  5
443
100
AcDbEntity
  8
0
100
AcDbLine
 62
7
  6
CONTINUOUS
 10
86.6933457259
 20
80.0554425497
 11
88.0933457259
 21
80.0550953261
  0
LINE
  5
444
100
AcDbEntity
  8
0
100
AcDbLine
 62
253
  6
CONTINUOUS
 10
86.9711169156
 20
80.2097539687
 11
88.0933457259
 21
80.2078620477
  0
LINE
  5
445
100
AcDbEntity
  8
0
100
AcDbLine
 62
7
  6
CONTINUOUS
 10
86.6933457259
 20
79.8
 11
88.0933457259
 21
79.7966262464
  0
LINE
  5
446
100
AcDbEntity
  8
0
100
AcDbLine
 62
7
  6
CONTINUOUS
 10
86.8828785347
 20
79.2400670064
 11
88.0933457259
 21
79.176629109
  0
LINE
  5
447
100
AcDbEntity
  8
0
100
AcDbLine
 62
7
  6
CONTINUOUS
 10
86.9711169156
 20
80.7902460313
 11
86.6933457259
 21
80.8641726926
  0
LINE
  5
448
100
AcDbEntity
  8
0
100
AcDbLine
 62
7
  6
CONTINUOUS
 10
86.9711169156
 20
84.2902460313
 11
86.6933457259
 21
84.3641726926
  0
LINE
  5
449
100
AcDbEntity
  8
SMUSSO
100
AcDbLine
 62
7
  6
CONTINUOUS
 10
91.9433457261
 20
-118.1499999999
 11
91.4850938446
 21
-118.6082518813
  0
LINE
  5
44A
100
AcDbEntity
  8
DRAFT
100
AcDbLine
 62
7
  6
CONTINUOUS
 10
91.9433457259
 20
-118.15
 11
91.4850938446
 21
-118.6082518813
  0
LINE
  5
44B
100
AcDbEntity
  8
0
100
AcDbLine
 62
7
  6
CONTINUOUS
 10
86.9711169156
 20
83.7097539687
 11
86.6933457259
 21
83.6358273074
  0
LINE
  5
44C
100
AcDbEntity
  8
0
100
AcDbLine
 62
7
  6
CONTINUOUS
 10
86.8828785347
 20
85.2599329936
 11
88.0933457259
 21
85.323370891
  0
LINE
  5
44D
100
AcDbEntity
  8
0
100
AcDbLine
 62
7
  6
CONTINUOUS
 10
86.6933457259
 20
84.7
 11
88.0933457259
 21
84.7033737536
  0
LINE
  5
44E
100
AcDbEntity
  8
0
100
AcDbLine
 62
253
  6
CONTINUOUS
 10
86.9711169156
 20
80.7902460313
 11
88.0933457259
 21
80.7921379523
  0
LINE
  5
44F
100
AcDbEntity
  8
0
100
AcDbLine
 62
7
  6
CONTINUOUS
 10
86.6933457259
 20
81.0169872981
 11
88.0933457259
 21
81.019169734
  0
LINE
  5
450
100
AcDbEntity
  8
0
100
AcDbLine
 62
7
  6
CONTINUOUS
 10
86.6933457259
 20
81.45
 11
88.0933457259
 21
81.4521824359
  0
LINE
  5
451
100
AcDbEntity
  8
0
100
AcDbLine
 62
253
  6
CONTINUOUS
 10
86.9711169156
 20
84.2902460313
 11
88.0933457259
 21
84.2921379523
  0
LINE
  5
452
100
AcDbEntity
  8
0
100
AcDbLine
 62
7
  6
CONTINUOUS
 10
86.6933457259
 20
80.9445574503
 11
88.0933457259
 21
80.9449046739
  0
LINE
  5
453
100
AcDbEntity
  8
0
100
AcDbLine
 62
7
  6
CONTINUOUS
 10
86.6933457259
 20
84.4445574503
 11
88.0933457259
 21
84.4449046739
  0
LINE
  5
454
100
AcDbEntity
  8
RACCORDO
100
AcDbLine
 62
7
  6
CONTINUOUS
 10
91.9433457259
 20
85.7
 11
91.9933457259
 21
85.7
  0
LINE
  5
455
100
AcDbEntity
  8
0
100
AcDbLine
 62
7
  6
CONTINUOUS
 10
86.6933457259
 20
83.5554425497
 11
88.0933457259
 21
83.5550953261
  0
LINE
  5
456
100
AcDbEntity
  8
0
100
AcDbLine
 62
7
  6
CONTINUOUS
 10
86.6933457259
 20
83.05
 11
88.0933457259
 21
83.0478175641
  0
LINE
  5
457
100
AcDbEntity
  8
0
100
AcDbLine
 62
7
  6
CONTINUOUS
 10
86.6933457259
 20
83.4830127019
 11
88.0933457259
 21
83.480830266
  0
LINE
  5
458
100
AcDbEntity
  8
0
100
AcDbLine
 62
253
  6
CONTINUOUS
 10
86.9711169156
 20
83.7097539687
 11
88.0933457259
 21
83.7078620477
  0
LINE
  5
459
100
AcDbEntity
  8
DRAFT
100
AcDbLine
 62
7
  6
CONTINUOUS
 10
91.9433457259
 20
118.15
 11
91.4850938446
 21
118.6082518813
  0
LINE
  5
45A
100
AcDbEntity
  8
RACCORDO
100
AcDbLine
 62
7
  6
CONTINUOUS
 10
91.9433457259
 20
92.7
 11
91.9933457259
 21
92.7
  0
LINE
  5
45B
100
AcDbEntity
  8
0
100
AcDbLine
 62
7
  6
CONTINUOUS
 10
91.9433457259
 20
93.7
 11
91.9933457259
 21
93.7
  0
LINE
  5
45C
100
AcDbEntity
  8
0
100
AcDbLine
 62
7
  6
CONTINUOUS
 10
88.0933457259
 20
96.05
 11
88.0683457259
 21
96.05
  0
LINE
  5
45D
100
AcDbEntity
  8
0
100
AcDbLine
 62
7
  6
CONTINUOUS
 10
87.7183457259
 20
96.05
 11
87.5683457259
 21
96.05
  0
LINE
  5
45E
100
AcDbEntity
  8
0
100
AcDbLine
 62
7
  6
CONTINUOUS
 10
87.2183457259
 20
96.05
 11
87.0683457259
 21
96.05
  0
LINE
  5
45F
100
AcDbEntity
  8
0
100
AcDbLine
 62
253
  6
CONTINUOUS
 10
91.9433457259
 20
95.3975797366
 11
91.9933457259
 21
95.3967069833
  0
LINE
  5
460
100
AcDbEntity
  8
0
100
AcDbLine
 62
7
  6
CONTINUOUS
 10
86.6933457259
 20
97.35
 11
88.0933457259
 21
97.3581449617
  0
LINE
  5
461
100
AcDbEntity
  8
0
100
AcDbLine
 62
7
  6
CONTINUOUS
 10
88.0933457259
 20
98.1524434634
 11
87.1927349392
 21
98.1508715995
  0
LINE
  5
462
100
AcDbEntity
  8
0
100
AcDbLine
 62
253
  6
CONTINUOUS
 10
86.9711169156
 20
97.9277711897
 11
88.0933457259
 21
97.9282781284
  0
LINE
  5
463
100
AcDbEntity
  8
0
100
AcDbLine
 62
7
  6
CONTINUOUS
 10
86.8933457259
 20
96.2
 11
88.0933457259
 21
96.2
  0
LINE
  5
464
100
AcDbEntity
  8
RACCORDO
100
AcDbLine
 62
253
  6
CONTINUOUS
 10
96.3985814479
 20
96.5930331962
 11
96.6933457259
 21
96.5930331976
  0
LINE
  5
465
100
AcDbEntity
  8
RACCORDO
100
AcDbLine
 62
253
  6
CONTINUOUS
 10
96.3985814479
 20
96.5930331976
 11
95.9933457259
 21
96.6001066134
  0
LINE
  5
466
100
AcDbEntity
  8
0
100
AcDbLine
 62
7
  6
CONTINUOUS
 10
91.9433457259
 20
96.6973817403
 11
91.9933457259
 21
96.696508987
  0
LINE
  5
467
100
AcDbEntity
  8
DRAFT
100
AcDbLine
 62
7
  6
CONTINUOUS
 10
91.9433457259
 20
96.8473817403
 11
91.9933457259
 21
96.846508987
  0
LINE
  5
468
100
AcDbEntity
  8
RACCORDO
100
AcDbLine
 62
7
  6
CONTINUOUS
 10
96.3985814479
 20
97.2929265842
 11
95.9933457259
 21
97.3
  0
LINE
  5
469
100
AcDbEntity
  8
0
100
AcDbLine
 62
7
  6
CONTINUOUS
 10
86.8828785347
 20
96.7916264167
 11
88.0933457259
 21
96.7381478244
  0
LINE
  5
46A
100
AcDbEntity
  8
DRAFT
100
AcDbLine
 62
253
  6
CONTINUOUS
 10
88.0933457259
 20
117.15
 11
91.9433457259
 21
117.15
  0
LINE
  5
46B
100
AcDbEntity
  8
SMUSSO
100
AcDbLine
 62
253
  6
CONTINUOUS
 10
91.9933457259
 20
117.7
 11
93.9933457259
 21
117.7
  0
LINE
  5
46C
100
AcDbEntity
  8
SMUSSO
100
AcDbLine
 62
7
  6
CONTINUOUS
 10
93.9933457259
 20
118.7
 11
92.4933457259
 21
118.7
  0
LINE
  5
46D
100
AcDbEntity
  8
DRAFT
100
AcDbLine
 62
7
  6
CONTINUOUS
 10
91.4850938446
 20
118.6082518813
 11
89.0933457259
 21
118.65
  0
LWPOLYLINE
  5
46E
100
AcDbEntity
  8
0
100
AcDbPolyline
 62
7
  6
CONTINUOUS
 90
13
 70
0
 43
0.3500000006
 10
98.9593884888
 20
129.164287262
 10
98.673672821
 20
129.3785717468
 10
98.673672821
 20
130.0214252014
 10
98.9593884888
 20
130.4500032349
 10
99.6022419434
 20
130.4500032349
 10
99.8879576111
 20
130.0214252014
 10
99.8879576111
 20
129.3785717468
 10
99.6022419434
 20
129.164287262
 10
100.0308109131
 20
128.7357182922
 10
100.0308109131
 20
127.8785712891
 10
99.6022419434
 20
127.4500023193
 10
98.9593884888
 20
127.4500023193
 10
98.5308104553
 20
127.8785712891
  0
ARC
  5
46F
100
AcDbEntity
  8
SMUSSO
100
AcDbCircle
 62
7
  6
CONTINUOUS
 10
-46.7
 20
-117.7
 40
1.0
100
AcDbArc
 50
180.0
 51
270.0
  0
ARC
  5
470
100
AcDbEntity
  8
RACCORDO
100
AcDbCircle
 62
253
  6
CONTINUOUS
 10
-21.8552471073
 20
-48.7018309899
 40
0.7733702763
100
AcDbArc
 50
176.505703563
 51
179.9691494897
  0
ARC
  5
471
100
AcDbEntity
  8
RACCORDO
100
AcDbCircle
 62
253
  6
CONTINUOUS
 10
-21.8678382773
 20
-93.298556347
 40
0.7607789948
100
AcDbArc
 50
180.0021899864
 51
183.5229674289
  0
ARC
  5
472
100
AcDbEntity
  8
RACCORDO
100
AcDbCircle
 62
253
  6
CONTINUOUS
 10
-21.8678382773
 20
-22.298556347
 40
0.7607789948
100
AcDbArc
 50
180.0021899864
 51
183.5229674289
  0
ARC
  5
473
100
AcDbEntity
  8
RACCORDO
100
AcDbCircle
 62
253
  6
CONTINUOUS
 10
-22.2986745549
 20
-49.1280484115
 40
0.7566656883
100
AcDbArc
 50
89.9932510237
 51
93.530752584
  0
ARC
  5
474
100
AcDbEntity
  8
RACCORDO
100
AcDbCircle
 62
253
  6
CONTINUOUS
 10
-22.2987170648
 20
-92.8733334555
 40
0.7552838275
100
AcDbArc
 50
266.4660102338
 51
270.0099861189
  0
ARC
  5
475
100
AcDbEntity
  8
RACCORDO
100
AcDbCircle
 62
253
  6
CONTINUOUS
 10
-22.2987170648
 20
-21.8733334555
 40
0.7552838275
100
AcDbArc
 50
266.4660102338
 51
270.0099861189
  0
ARC
  5
476
100
AcDbEntity
  8
RACCORDO
100
AcDbCircle
 62
253
  6
CONTINUOUS
 10
-25.5929411657
 20
-96.5929411657
 40
0.6999862456
100
AcDbArc
 50
180.0075330706
 51
269.9924669294
  0
ARC
  5
477
100
AcDbEntity
  8
RACCORDO
100
AcDbCircle
 62
253
  6
CONTINUOUS
 10
-25.5929411657
 20
-45.4070588343
 40
0.6999862456
100
AcDbArc
 50
90.0075330706
 51
179.9924669294
  0
ARC
  5
478
100
AcDbEntity
  8
RACCORDO
100
AcDbCircle
 62
253
  6
CONTINUOUS
 10
-25.5929411657
 20
-25.5929411657
 40
0.6999862456
100
AcDbArc
 50
180.0075330706
 51
269.9924669294
  0
ARC
  5
479
100
AcDbEntity
  8
RACCORDO
100
AcDbCircle
 62
253
  6
CONTINUOUS
 10
-22.3363739035
 20
-48.7012654418
 40
0.2621658733
100
AcDbArc
 50
176.2110307647
 51
180.0325925456
  0
ARC
  5
47A
100
AcDbEntity
  8
RACCORDO
100
AcDbCircle
 62
253
  6
CONTINUOUS
 10
-22.3368972152
 20
-93.2987517188
 40
0.261642572
100
AcDbArc
 50
179.9635843536
 51
183.7927923362
  0
ARC
  5
47B
100
AcDbEntity
  8
RACCORDO
100
AcDbCircle
 62
253
  6
CONTINUOUS
 10
-22.3368972152
 20
-22.2987517188
 40
0.261642572
100
AcDbArc
 50
179.9635843536
 51
183.7927923362
  0
ARC
  5
47C
100
AcDbEntity
  8
RACCORDO
100
AcDbCircle
 62
253
  6
CONTINUOUS
 10
-22.2987615345
 20
-48.6628034533
 40
0.261343247
100
AcDbArc
 50
89.9613906763
 51
93.7949860134
  0
ARC
  5
47D
100
AcDbEntity
  8
RACCORDO
100
AcDbCircle
 62
253
  6
CONTINUOUS
 10
-22.2987648869
 20
-93.3372987772
 40
0.2612410188
100
AcDbArc
 50
266.2042636302
 51
270.03935968
  0
ARC
  5
47E
100
AcDbEntity
  8
RACCORDO
100
AcDbCircle
 62
253
  6
CONTINUOUS
 10
-22.2987648869
 20
-22.3372987772
 40
0.2612410188
100
AcDbArc
 50
266.2042636303
 51
270.0393596799
  0
ARC
  5
47F
100
AcDbEntity
  8
SMUSSO
100
AcDbCircle
 62
7
  6
CONTINUOUS
 10
-46.7
 20
117.7
 40
1.0
100
AcDbArc
 50
90.0
 51
180.0
  0
ARC
  5
480
100
AcDbEntity
  8
RACCORDO
100
AcDbCircle
 62
253
  6
CONTINUOUS
 10
-21.8552471073
 20
22.2981690101
 40
0.7733702763
100
AcDbArc
 50
176.505703563
 51
179.9691494897
  0
ARC
  5
481
100
AcDbEntity
  8
RACCORDO
100
AcDbCircle
 62
253
  6
CONTINUOUS
 10
-21.8552471073
 20
93.2981690101
 40
0.7733702763
100
AcDbArc
 50
176.505703563
 51
179.9691494897
  0
ARC
  5
482
100
AcDbEntity
  8
RACCORDO
100
AcDbCircle
 62
253
  6
CONTINUOUS
 10
-21.8678382773
 20
48.701443653
 40
0.7607789948
100
AcDbArc
 50
180.0021899864
 51
183.5229674289
  0
ARC
  5
483
100
AcDbEntity
  8
RACCORDO
100
AcDbCircle
 62
253
  6
CONTINUOUS
 10
-22.2986745549
 20
21.8719515885
 40
0.7566656883
100
AcDbArc
 50
89.9932510238
 51
93.5307525839
  0
ARC
  5
484
100
AcDbEntity
  8
RACCORDO
100
AcDbCircle
 62
253
  6
CONTINUOUS
 10
-22.2986745549
 20
92.8719515885
 40
0.7566656883
100
AcDbArc
 50
89.9932510237
 51
93.530752584
  0
ARC
  5
485
100
AcDbEntity
  8
RACCORDO
100
AcDbCircle
 62
253
  6
CONTINUOUS
 10
-22.2987170648
 20
49.1266665445
 40
0.7552838275
100
AcDbArc
 50
266.4660102338
 51
270.0099861189
  0
ARC
  5
486
100
AcDbEntity
  8
RACCORDO
100
AcDbCircle
 62
253
  6
CONTINUOUS
 10
-25.5929411657
 20
25.5929411657
 40
0.6999862456
100
AcDbArc
 50
90.0075330706
 51
179.9924669294
  0
ARC
  5
487
100
AcDbEntity
  8
RACCORDO
100
AcDbCircle
 62
253
  6
CONTINUOUS
 10
-25.5929411656
 20
45.4070588344
 40
0.6999862456
100
AcDbArc
 50
180.007533071
 51
269.992466929
  0
ARC
  5
488
100
AcDbEntity
  8
RACCORDO
100
AcDbCircle
 62
253
  6
CONTINUOUS
 10
-25.5929411657
 20
96.5929411657
 40
0.6999862456
100
AcDbArc
 50
90.0075330706
 51
179.9924669294
  0
ARC
  5
489
100
AcDbEntity
  8
RACCORDO
100
AcDbCircle
 62
253
  6
CONTINUOUS
 10
-22.3363739035
 20
22.2987345582
 40
0.2621658733
100
AcDbArc
 50
176.2110307647
 51
180.0325925456
  0
ARC
  5
48A
100
AcDbEntity
  8
RACCORDO
100
AcDbCircle
 62
253
  6
CONTINUOUS
 10
-22.3363739035
 20
93.2987345582
 40
0.2621658733
100
AcDbArc
 50
176.2110307647
 51
180.0325925456
  0
ARC
  5
48B
100
AcDbEntity
  8
RACCORDO
100
AcDbCircle
 62
253
  6
CONTINUOUS
 10
-22.3368972152
 20
48.7012482812
 40
0.261642572
100
AcDbArc
 50
179.9635843536
 51
183.7927923362
  0
ARC
  5
48C
100
AcDbEntity
  8
RACCORDO
100
AcDbCircle
 62
253
  6
CONTINUOUS
 10
-22.2987615345
 20
22.3371965467
 40
0.261343247
100
AcDbArc
 50
89.9613906763
 51
93.7949860134
  0
ARC
  5
48D
100
AcDbEntity
  8
RACCORDO
100
AcDbCircle
 62
253
  6
CONTINUOUS
 10
-22.2987615345
 20
93.3371965467
 40
0.261343247
100
AcDbArc
 50
89.9613906764
 51
93.7949860133
  0
ARC
  5
48E
100
AcDbEntity
  8
RACCORDO
100
AcDbCircle
 62
253
  6
CONTINUOUS
 10
-22.2987648869
 20
48.6627012228
 40
0.2612410188
100
AcDbArc
 50
266.2042636302
 51
270.03935968
  0
ARC
  5
48F
100
AcDbEntity
  8
SMUSSO
100
AcDbCircle
 62
7
  6
CONTINUOUS
 10
46.7
 20
-117.7
 40
1.0
100
AcDbArc
 50
270.0
 51
360.0
  0
ARC
  5
490
100
AcDbEntity
  8
RACCORDO
100
AcDbCircle
 62
253
  6
CONTINUOUS
 10
21.8678382773
 20
-48.701443653
 40
0.7607789948
100
AcDbArc
 50
0.0021899864
 51
3.5229674289
  0
ARC
  5
491
100
AcDbEntity
  8
RACCORDO
100
AcDbCircle
 62
253
  6
CONTINUOUS
 10
22.298556347
 20
-92.8678382773
 40
0.7607789948
100
AcDbArc
 50
270.0021899864
 51
273.5229674289
  0
ARC
  5
492
100
AcDbEntity
  8
RACCORDO
100
AcDbCircle
 62
253
  6
CONTINUOUS
 10
22.298556347
 20
-21.8678382773
 40
0.7607789948
100
AcDbArc
 50
270.0021899864
 51
273.5229674289
  0
ARC
  5
493
100
AcDbEntity
  8
RACCORDO
100
AcDbCircle
 62
253
  6
CONTINUOUS
 10
21.8733334555
 20
-93.2987170648
 40
0.7552838275
100
AcDbArc
 50
356.4660102338
 51
0.0099861189
  0
ARC
  5
494
100
AcDbEntity
  8
RACCORDO
100
AcDbCircle
 62
253
  6
CONTINUOUS
 10
22.2987170648
 20
-49.1266665445
 40
0.7552838275
100
AcDbArc
 50
86.4660102338
 51
90.0099861189
  0
ARC
  5
495
100
AcDbEntity
  8
RACCORDO
100
AcDbCircle
 62
253
  6
CONTINUOUS
 10
21.8733334555
 20
-22.2987170648
 40
0.7552838275
100
AcDbArc
 50
356.4660102338
 51
0.0099861189
  0
ARC
  5
496
100
AcDbEntity
  8
RACCORDO
100
AcDbCircle
 62
253
  6
CONTINUOUS
 10
25.5929411657
 20
-45.4070588343
 40
0.6999862456
100
AcDbArc
 50
0.0075330706
 51
89.9924669294
  0
ARC
  5
497
100
AcDbEntity
  8
RACCORDO
100
AcDbCircle
 62
253
  6
CONTINUOUS
 10
25.5929411657
 20
-96.5929411657
 40
0.6999862456
100
AcDbArc
 50
270.0075330706
 51
359.9924669294
  0
ARC
  5
498
100
AcDbEntity
  8
RACCORDO
100
AcDbCircle
 62
253
  6
CONTINUOUS
 10
25.5929411657
 20
-25.5929411657
 40
0.6999862456
100
AcDbArc
 50
270.0075330706
 51
359.9924669294
  0
ARC
  5
499
100
AcDbEntity
  8
RACCORDO
100
AcDbCircle
 62
253
  6
CONTINUOUS
 10
22.3368972152
 20
-48.7012482812
 40
0.261642572
100
AcDbArc
 50
359.9635843535
 51
3.7927923363
  0
ARC
  5
49A
100
AcDbEntity
  8
RACCORDO
100
AcDbCircle
 62
253
  6
CONTINUOUS
 10
22.2987517188
 20
-93.3368972152
 40
0.261642572
100
AcDbArc
 50
269.9635843535
 51
273.7927923361
  0
ARC
  5
49B
100
AcDbEntity
  8
RACCORDO
100
AcDbCircle
 62
253
  6
CONTINUOUS
 10
22.2987517188
 20
-22.3368972152
 40
0.261642572
100
AcDbArc
 50
269.9635843536
 51
273.7927923362
  0
ARC
  5
49C
100
AcDbEntity
  8
RACCORDO
100
AcDbCircle
 62
253
  6
CONTINUOUS
 10
22.2987648869
 20
-48.6627012228
 40
0.2612410188
100
AcDbArc
 50
86.2042636303
 51
90.0393596799
  0
ARC
  5
49D
100
AcDbEntity
  8
RACCORDO
100
AcDbCircle
 62
253
  6
CONTINUOUS
 10
22.3372987772
 20
-93.2987648869
 40
0.2612410189
100
AcDbArc
 50
356.2042636304
 51
0.0393596798
  0
ARC
  5
49E
100
AcDbEntity
  8
RACCORDO
100
AcDbCircle
 62
253
  6
CONTINUOUS
 10
22.3372987772
 20
-22.2987648869
 40
0.2612410188
100
AcDbArc
 50
356.2042636303
 51
0.0393596799
  0
ARC
  5
49F
100
AcDbEntity
  8
SMUSSO
100
AcDbCircle
 62
7
  6
CONTINUOUS
 10
46.7
 20
117.7
 40
1.0
100
AcDbArc
 50
0.0
 51
90.0
  0
ARC
  5
4A0
100
AcDbEntity
  8
RACCORDO
100
AcDbCircle
 62
253
  6
CONTINUOUS
 10
21.8678382773
 20
22.298556347
 40
0.7607789948
100
AcDbArc
 50
0.0021899864
 51
3.5229674289
  0
ARC
  5
4A1
100
AcDbEntity
  8
RACCORDO
100
AcDbCircle
 62
253
  6
CONTINUOUS
 10
21.8678382773
 20
93.298556347
 40
0.7607789948
100
AcDbArc
 50
0.0021899864
 51
3.5229674289
  0
ARC
  5
4A2
100
AcDbEntity
  8
RACCORDO
100
AcDbCircle
 62
253
  6
CONTINUOUS
 10
22.298556347
 20
49.1321617227
 40
0.7607789948
100
AcDbArc
 50
270.0021899864
 51
273.5229674289
  0
ARC
  5
4A3
100
AcDbEntity
  8
RACCORDO
100
AcDbCircle
 62
253
  6
CONTINUOUS
 10
22.2987170648
 20
21.8733334555
 40
0.7552838275
100
AcDbArc
 50
86.4660102338
 51
90.0099861189
  0
ARC
  5
4A4
100
AcDbEntity
  8
RACCORDO
100
AcDbCircle
 62
253
  6
CONTINUOUS
 10
21.8733334555
 20
48.7012829352
 40
0.7552838275
100
AcDbArc
 50
356.4660102338
 51
0.0099861189
  0
ARC
  5
4A5
100
AcDbEntity
  8
RACCORDO
100
AcDbCircle
 62
253
  6
CONTINUOUS
 10
22.2987170648
 20
92.8733334555
 40
0.7552838276
100
AcDbArc
 50
86.4660102339
 51
90.0099861189
  0
ARC
  5
4A6
100
AcDbEntity
  8
RACCORDO
100
AcDbCircle
 62
253
  6
CONTINUOUS
 10
25.5929411657
 20
25.5929411657
 40
0.6999862456
100
AcDbArc
 50
0.0075330701
 51
89.9924669299
  0
ARC
  5
4A7
100
AcDbEntity
  8
RACCORDO
100
AcDbCircle
 62
253
  6
CONTINUOUS
 10
25.5929411657
 20
96.5929411657
 40
0.6999862456
100
AcDbArc
 50
0.0075330701
 51
89.9924669299
  0
ARC
  5
4A8
100
AcDbEntity
  8
RACCORDO
100
AcDbCircle
 62
253
  6
CONTINUOUS
 10
25.5929411657
 20
45.4070588343
 40
0.6999862456
100
AcDbArc
 50
270.0075330706
 51
359.9924669294
  0
ARC
  5
4A9
100
AcDbEntity
  8
RACCORDO
100
AcDbCircle
 62
253
  6
CONTINUOUS
 10
22.3368972152
 20
22.2987517188
 40
0.261642572
100
AcDbArc
 50
359.9635843535
 51
3.7927923362
  0
ARC
  5
4AA
100
AcDbEntity
  8
RACCORDO
100
AcDbCircle
 62
253
  6
CONTINUOUS
 10
22.3368972152
 20
93.2987517188
 40
0.261642572
100
AcDbArc
 50
359.9635843535
 51
3.7927923363
  0
ARC
  5
4AB
100
AcDbEntity
  8
RACCORDO
100
AcDbCircle
 62
253
  6
CONTINUOUS
 10
22.2987517188
 20
48.6631027848
 40
0.261642572
100
AcDbArc
 50
269.9635843534
 51
273.7927923363
  0
ARC
  5
4AC
100
AcDbEntity
  8
RACCORDO
100
AcDbCircle
 62
253
  6
CONTINUOUS
 10
22.2987648869
 20
22.3372987772
 40
0.2612410188
100
AcDbArc
 50
86.2042636303
 51
90.03935968
  0
ARC
  5
4AD
100
AcDbEntity
  8
RACCORDO
100
AcDbCircle
 62
253
  6
CONTINUOUS
 10
22.2987648869
 20
93.3372987772
 40
0.2612410188
100
AcDbArc
 50
86.2042636303
 51
90.03935968
  0
ARC
  5
4AE
100
AcDbEntity
  8
RACCORDO
100
AcDbCircle
 62
253
  6
CONTINUOUS
 10
22.3372987772
 20
48.7012351131
 40
0.2612410189
100
AcDbArc
 50
356.2042636304
 51
0.0393596798
  0
ARC
  5
4AF
100
AcDbEntity
  8
0
100
AcDbCircle
 62
7
  6
CONTINUOUS
 10
86.8933457259
 20
-25.4
 40
0.2
100
AcDbArc
 50
150.0
 51
180.0
  0
ARC
  5
4B0
100
AcDbEntity
  8
SUPERFICI
100
AcDbCircle
 62
7
  6
CONTINUOUS
 10
86.8933457259
 20
-14.0602070867
 40
0.2
100
AcDbArc
 50
180.0
 51
267.0
  0
ARC
  5
4B1
100
AcDbEntity
  8
SUPERFICI
100
AcDbCircle
 62
7
  6
CONTINUOUS
 10
86.8933457259
 20
-8.4397929133
 40
0.2
100
AcDbArc
 50
93.0
 51
180.0
  0
ARC
  5
4B2
100
AcDbEntity
  8
ASSI
100
AcDbCircle
 62
7
  6
CONTINUOUS
 10
86.8933457259
 20
-96.4
 40
0.2
100
AcDbArc
 50
90.0
 51
180.0
  0
ARC
  5
4B3
100
AcDbEntity
  8
0
100
AcDbCircle
 62
7
  6
CONTINUOUS
 10
86.8933457259
 20
-45.6
 40
0.2
100
AcDbArc
 50
180.0
 51
210.0
  0
ARC
  5
4B4
100
AcDbEntity
  8
0
100
AcDbCircle
 62
7
  6
CONTINUOUS
 10
86.8933457259
 20
-85.0602070867
 40
0.2
100
AcDbArc
 50
180.0
 51
267.0
  0
ARC
  5
4B5
100
AcDbEntity
  8
0
100
AcDbCircle
 62
7
  6
CONTINUOUS
 10
86.8933457259
 20
-79.4397929133
 40
0.2
100
AcDbArc
 50
93.0
 51
180.0
  0
ARC
  5
4B6
100
AcDbEntity
  8
0
100
AcDbCircle
 62
7
  6
CONTINUOUS
 10
86.8933457259
 20
-62.5602070867
 40
0.2
100
AcDbArc
 50
180.0
 51
267.0
  0
ARC
  5
4B7
100
AcDbEntity
  8
0
100
AcDbCircle
 62
7
  6
CONTINUOUS
 10
86.8933457259
 20
-56.9397929133
 40
0.2
100
AcDbArc
 50
93.0
 51
180.0
  0
ARC
  5
4B8
100
AcDbEntity
  8
0
100
AcDbCircle
 62
7
  6
CONTINUOUS
 10
86.8933457259
 20
56.9397929133
 40
0.2
100
AcDbArc
 50
180.0
 51
267.0
  0
ARC
  5
4B9
100
AcDbEntity
  8
0
100
AcDbCircle
 62
7
  6
CONTINUOUS
 10
86.8933457259
 20
85.0602070867
 40
0.2
100
AcDbArc
 50
93.0
 51
180.0
  0
ARC
  5
4BA
100
AcDbEntity
  8
0
100
AcDbCircle
 62
7
  6
CONTINUOUS
 10
86.8933457259
 20
62.5602070867
 40
0.2
100
AcDbArc
 50
93.0
 51
180.0
  0
ARC
  5
4BB
100
AcDbEntity
  8
0
100
AcDbCircle
 62
7
  6
CONTINUOUS
 10
86.8933457259
 20
79.4397929133
 40
0.2
100
AcDbArc
 50
180.0
 51
267.0
  0
ARC
  5
4BC
100
AcDbEntity
  8
0
100
AcDbCircle
 62
7
  6
CONTINUOUS
 10
86.8933457259
 20
45.6
 40
0.2
100
AcDbArc
 50
150.0
 51
180.0
  0
ARC
  5
4BD
100
AcDbEntity
  8
0
100
AcDbCircle
 62
7
  6
CONTINUOUS
 10
86.8933457259
 20
96.4
 40
0.2
100
AcDbArc
 50
180.0
 51
270.0
  0
ARC
  5
4BE
100
AcDbEntity
  8
SUPERFICI
100
AcDbCircle
 62
7
  6
CONTINUOUS
 10
86.8933457259
 20
14.0602070867
 40
0.2
100
AcDbArc
 50
93.0
 51
180.0
  0
ARC
  5
4BF
100
AcDbEntity
  8
SUPERFICI
100
AcDbCircle
 62
7
  6
CONTINUOUS
 10
86.8933457259
 20
8.4397929133
 40
0.2
100
AcDbArc
 50
180.0
 51
267.0
  0
ARC
  5
4C0
100
AcDbEntity
  8
SUPERFICI
100
AcDbCircle
 62
7
  6
CONTINUOUS
 10
86.8933457259
 20
25.4
 40
0.2
100
AcDbArc
 50
180.0
 51
210.0
  0
ARC
  5
4C1
100
AcDbEntity
  8
RACCORDO
100
AcDbCircle
 62
7
  6
CONTINUOUS
 10
96.3933457259
 20
-25.9929722756
 40
0.3
100
AcDbArc
 50
271.0
 51
360.0
  0
ARC
  5
4C2
100
AcDbEntity
  8
RACCORDO
100
AcDbCircle
 62
7
  6
CONTINUOUS
 10
96.3933457259
 20
-45.0070277244
 40
0.3
100
AcDbArc
 50
0.0
 51
89.0
  0
ARC
  5
4C3
100
AcDbEntity
  8
RACCORDO
100
AcDbCircle
 62
7
  6
CONTINUOUS
 10
96.3933457259
 20
-96.9929722756
 40
0.3
100
AcDbArc
 50
271.0
 51
360.0
  0
ARC
  5
4C4
100
AcDbEntity
  8
RACCORDO
100
AcDbCircle
 62
7
  6
CONTINUOUS
 10
96.3933457259
 20
25.9929722756
 40
0.3
100
AcDbArc
 50
0.0
 51
89.0
  0
ARC
  5
4C5
100
AcDbEntity
  8
RACCORDO
100
AcDbCircle
 62
7
  6
CONTINUOUS
 10
96.3933457259
 20
96.9929722756
 40
0.3
100
AcDbArc
 50
0.0
 51
89.0
  0
ARC
  5
4C6
100
AcDbEntity
  8
RACCORDO
100
AcDbCircle
 62
7
  6
CONTINUOUS
 10
96.3933457259
 20
45.0070277244
 40
0.3
100
AcDbArc
 50
271.0
 51
360.0
  0
SPLINE
  5
4C7
100
AcDbEntity
  8
RACCORDO
100
AcDbSpline
 62
253
  6
CONTINUOUS
 70
0
 71
3
 72
9
 73
5
 74
3
 42
0.0000001
 43
0.0000001
 44
0.0000000001
 12
0.0423976482
 22
0.0021313418
 32
0.0
 13
0.0197976219
 23
0.037552062
 33
0.0
 40
0.0
 40
0.0
 40
0.0
 40
0.0
 40
0.3847352126
 40
1.0
 40
1.0
 40
1.0
 40
1.0
 10
22.3160589024
 20
-48.4020340896
 30
0.0
 10
22.3214961918
 20
-48.4017607555
 30
0.0
 10
22.3342584906
 20
-48.3926940185
 30
0.0
 10
22.3412129949
 20
-48.3805155707
 30
0.0
 10
22.3452732547
 20
-48.3728140836
 30
0.0
 11
22.3160589024
 21
-48.4020340896
 31
0.0
 11
22.3304567267
 21
-48.3943235704
 31
0.0
 11
22.3452732547
 21
-48.3728140836
 31
0.0
  0
SPLINE
  5
4C8
100
AcDbEntity
  8
RACCORDO
100
AcDbSpline
 62
253
  6
CONTINUOUS
 70
0
 71
3
 72
9
 73
5
 74
3
 42
0.0000001
 43
0.0000001
 44
0.0000000001
 12
0.0021270596
 22
0.0423943008
 32
0.0
 13
0.0375491867
 23
0.0197954465
 33
0.0
 40
0.0
 40
0.0
 40
0.0
 40
0.0
 40
0.3847717293
 40
1.0
 40
1.0
 40
1.0
 40
1.0
 10
22.5979665987
 20
-48.6839410573
 30
0.0
 10
22.5982394095
 20
-48.6785036811
 30
0.0
 10
22.6073025503
 20
-48.6657405717
 30
0.0
 10
22.619480477
 20
-48.6587863185
 30
0.0
 10
22.6271809174
 20
-48.6547267457
 30
0.0
 11
22.5979665987
 21
-48.6839410573
 31
0.0
 11
22.605675032
 21
-48.6695419108
 31
0.0
 11
22.6271809174
 21
-48.6547267457
 31
0.0
  0
SPLINE
  5
4C9
100
AcDbEntity
  8
RACCORDO
100
AcDbSpline
 62
253
  6
CONTINUOUS
 70
0
 71
3
 72
9
 73
5
 74
3
 42
0.0000001
 43
0.0000001
 44
0.0000000001
 12
0.0021313418
 22
-0.0423976482
 32
0.0
 13
0.037552062
 23
-0.0197976219
 33
0.0
 40
0.0
 40
0.0
 40
0.0
 40
0.0
 40
0.3847352126
 40
1.0
 40
1.0
 40
1.0
 40
1.0
 10
22.5979659104
 20
-93.3160589024
 30
0.0
 10
22.5982392445
 20
-93.3214961918
 30
0.0
 10
22.6073059815
 20
-93.3342584906
 30
0.0
 10
22.6194844293
 20
-93.3412129949
 30
0.0
 10
22.6271859164
 20
-93.3452732547
 30
0.0
 11
22.5979659104
 21
-93.3160589024
 31
0.0
 11
22.6056764296
 21
-93.3304567267
 31
0.0
 11
22.6271859164
 21
-93.3452732547
 31
0.0
  0
SPLINE
  5
4CA
100
AcDbEntity
  8
RACCORDO
100
AcDbSpline
 62
253
  6
CONTINUOUS
 70
0
 71
3
 72
9
 73
5
 74
3
 42
0.0000001
 43
0.0000001
 44
0.0000000001
 12
0.0423943008
 22
-0.0021270596
 32
0.0
 13
0.0197954465
 23
-0.0375491867
 33
0.0
 40
0.0
 40
0.0
 40
0.0
 40
0.0
 40
0.3847717293
 40
1.0
 40
1.0
 40
1.0
 40
1.0
 10
22.3160589427
 20
-93.5979665987
 30
0.0
 10
22.3214963189
 20
-93.5982394095
 30
0.0
 10
22.3342594283
 20
-93.6073025503
 30
0.0
 10
22.3412136815
 20
-93.619480477
 30
0.0
 10
22.3452732543
 20
-93.6271809174
 30
0.0
 11
22.3160589427
 21
-93.5979665987
 31
0.0
 11
22.3304580892
 21
-93.605675032
 31
0.0
 11
22.3452732543
 21
-93.6271809174
 31
0.0
  0
SPLINE
  5
4CB
100
AcDbEntity
  8
RACCORDO
100
AcDbSpline
 62
253
  6
CONTINUOUS
 70
0
 71
3
 72
9
 73
5
 74
3
 42
0.0000001
 43
0.0000001
 44
0.0000000001
 12
-0.0423976482
 22
-0.0021313418
 32
0.0
 13
-0.0197976219
 23
-0.037552062
 33
0.0
 40
0.0
 40
0.0
 40
0.0
 40
0.0
 40
0.3847352126
 40
1.0
 40
1.0
 40
1.0
 40
1.0
 10
-22.3160589024
 20
-93.5979659104
 30
0.0
 10
-22.3214961918
 20
-93.5982392445
 30
0.0
 10
-22.3342584906
 20
-93.6073059815
 30
0.0
 10
-22.3412129949
 20
-93.6194844293
 30
0.0
 10
-22.3452732547
 20
-93.6271859164
 30
0.0
 11
-22.3160589024
 21
-93.5979659104
 31
0.0
 11
-22.3304567267
 21
-93.6056764296
 31
0.0
 11
-22.3452732547
 21
-93.6271859164
 31
0.0
  0
SPLINE
  5
4CC
100
AcDbEntity
  8
RACCORDO
100
AcDbSpline
 62
253
  6
CONTINUOUS
 70
0
 71
3
 72
9
 73
5
 74
3
 42
0.0000001
 43
0.0000001
 44
0.0000000001
 12
-0.0021270596
 22
-0.0423943008
 32
0.0
 13
-0.0375491867
 23
-0.0197954465
 33
0.0
 40
0.0
 40
0.0
 40
0.0
 40
0.0
 40
0.3847717293
 40
1.0
 40
1.0
 40
1.0
 40
1.0
 10
-22.5979665987
 20
-93.3160589427
 30
0.0
 10
-22.5982394095
 20
-93.3214963189
 30
0.0
 10
-22.6073025503
 20
-93.3342594283
 30
0.0
 10
-22.619480477
 20
-93.3412136815
 30
0.0
 10
-22.6271809174
 20
-93.3452732543
 30
0.0
 11
-22.5979665987
 21
-93.3160589427
 31
0.0
 11
-22.605675032
 21
-93.3304580892
 31
0.0
 11
-22.6271809174
 21
-93.3452732543
 31
0.0
  0
SPLINE
  5
4CD
100
AcDbEntity
  8
RACCORDO
100
AcDbSpline
 62
253
  6
CONTINUOUS
 70
0
 71
3
 72
9
 73
5
 74
3
 42
0.0000001
 43
0.0000001
 44
0.0000000001
 12
-0.0021276964
 22
0.0423951815
 32
0.0
 13
-0.0375503771
 23
0.019795143
 33
0.0
 40
0.0
 40
0.0
 40
0.0
 40
0.0
 40
0.3847699139
 40
1.0
 40
1.0
 40
1.0
 40
1.0
 10
-22.5979665783
 20
-48.6839410585
 30
0.0
 10
-22.5982394695
 20
-48.678503595
 30
0.0
 10
-22.607303136
 20
-48.6657404049
 30
0.0
 10
-22.6194814463
 20
-48.6587862678
 30
0.0
 10
-22.6271821536
 20
-48.6547267452
 30
0.0
 11
-22.5979665783
 21
-48.6839410585
 31
0.0
 11
-22.6056754383
 21
-48.6695418299
 31
0.0
 11
-22.6271821536
 21
-48.6547267452
 31
0.0
  0
SPLINE
  5
4CE
100
AcDbEntity
  8
RACCORDO
100
AcDbSpline
 62
253
  6
CONTINUOUS
 70
0
 71
3
 72
9
 73
5
 74
3
 42
0.0000001
 43
0.0000001
 44
0.0000000001
 12
-0.0423952029
 22
0.002125971
 32
0.0
 13
-0.0197954014
 23
0.0375501673
 33
0.0
 40
0.0
 40
0.0
 40
0.0
 40
0.0
 40
0.384766998
 40
1.0
 40
1.0
 40
1.0
 40
1.0
 10
-22.3160586523
 20
-48.4020383978
 30
0.0
 10
-22.3214960773
 20
-48.4017657299
 30
0.0
 10
-22.3342595021
 20
-48.3927022499
 30
0.0
 10
-22.3412136612
 20
-48.3805239949
 30
0.0
 10
-22.3452732559
 20
-48.3728232942
 30
0.0
 11
-22.3160586523
 21
-48.4020383978
 31
0.0
 11
-22.3304579301
 21
-48.394329945
 31
0.0
 11
-22.3452732559
 21
-48.3728232942
 31
0.0
  0
SPLINE
  5
4CF
100
AcDbEntity
  8
RACCORDO
100
AcDbSpline
 62
253
  6
CONTINUOUS
 70
0
 71
3
 72
11
 73
7
 74
5
 42
0.0000001
 43
0.0000001
 44
0.0000000001
 12
0.4580212004
 22
0.043317967
 32
0.0
 13
-0.0434492328
 23
-0.4580087668
 33
0.0
 40
0.0
 40
0.0
 40
0.0
 40
0.0
 40
0.2481655321
 40
0.4999968063
 40
0.7518254935
 40
1.0
 40
1.0
 40
1.0
 40
1.0
 10
22.8650075502
 20
-47.8530953432
 30
0.0
 10
22.9028959085
 20
-47.8495120011
 30
0.0
 10
22.9814890065
 20
-47.8543398881
 30
0.0
 10
23.0865679023
 20
-47.9134395254
 30
0.0
 10
23.1456431893
 20
-48.0185221388
 30
0.0
 10
23.150498114
 20
-48.0971165319
 30
0.0
 10
23.1469037834
 20
-48.1350052318
 30
0.0
 11
22.8650075502
 21
-47.8530953432
 31
0.0
 11
22.9787668542
 21
-47.8627975634
 31
0.0
 11
23.0788634277
 21
-47.9211407812
 31
0.0
 11
23.1371958447
 21
-48.0212422718
 31
0.0
 11
23.1469037834
 21
-48.1350052318
 31
0.0
  0
SPLINE
  5
4D0
100
AcDbEntity
  8
RACCORDO
100
AcDbSpline
 62
253
  6
CONTINUOUS
 70
0
 71
3
 72
11
 73
7
 74
5
 42
0.0000001
 43
0.0000001
 44
0.0000000001
 12
0.0082756578
 22
0.445261122
 32
0.0
 13
-0.4452533212
 23
-0.0086852307
 33
0.0
 40
0.0
 40
0.0
 40
0.0
 40
0.0
 40
0.2501115952
 40
0.4999997138
 40
0.7498866439
 40
1.0
 40
1.0
 40
1.0
 40
1.0
 10
22.6271810694
 20
-48.6546933317
 30
0.0
 10
22.6278710154
 20
-48.6175716752
 30
0.0
 10
22.616235605
 20
-48.5421678083
 30
0.0
 10
22.5547871486
 20
-48.4451852391
 30
0.0
 10
22.4577998135
 20
-48.3837756545
 30
0.0
 10
22.3823945226
 20
-48.3720948621
 30
0.0
 10
22.3452732551
 20
-48.3728189595
 30
0.0
 11
22.6271810694
 21
-48.6546933317
 31
0.0
 11
22.608889748
 21
-48.5448212778
 31
0.0
 11
22.5488656844
 21
-48.4511121968
 31
0.0
 11
22.4551471771
 21
-48.3911038337
 31
0.0
 11
22.3452732551
 21
-48.3728189595
 31
0.0
  0
SPLINE
  5
4D1
100
AcDbEntity
  8
RACCORDO
100
AcDbSpline
 62
253
  6
CONTINUOUS
 70
0
 71
3
 72
11
 73
7
 74
5
 42
0.0000001
 43
0.0000001
 44
0.0000000001
 12
-0.0285988121
 22
0.4317179711
 32
0.0
 13
-0.4317195567
 23
0.0285748665
 33
0.0
 40
0.0
 40
0.0
 40
0.0
 40
0.0
 40
0.2444838109
 40
0.499998308
 40
0.755509181
 40
1.0
 40
1.0
 40
1.0
 40
1.0
 10
22.597966737
 20
-48.6839410492
 30
0.0
 10
22.5956360882
 20
-48.6487583643
 30
0.0
 10
22.5778052196
 20
-48.5770636689
 30
0.0
 10
22.5146028749
 20
-48.4853986241
 30
0.0
 10
22.4229382297
 20
-48.4221948954
 30
0.0
 10
22.3512427734
 20
-48.4043620272
 30
0.0
 10
22.3160589508
 20
-48.402033263
 30
0.0
 11
22.597966737
 21
-48.6839410492
 31
0.0
 11
22.5724612152
 21
-48.581282647
 31
0.0
 11
22.509789682
 21
-48.4902111505
 31
0.0
 11
22.4187203731
 21
-48.4275392045
 31
0.0
 11
22.3160589508
 21
-48.402033263
 31
0.0
  0
SPLINE
  5
4D2
100
AcDbEntity
  8
RACCORDO
100
AcDbSpline
 62
253
  6
CONTINUOUS
 70
0
 71
3
 72
11
 73
7
 74
5
 42
0.0000001
 43
0.0000001
 44
0.0000000001
 12
-0.0000498599
 22
-0.6210287275
 32
0.0
 13
-0.6210287244
 23
-0.0000791702
 33
0.0
 40
0.0
 40
0.0
 40
0.0
 40
0.0
 40
0.2500058224
 40
0.5000008131
 40
0.7499857999
 40
1.0
 40
1.0
 40
1.0
 40
1.0
 10
25.9929722756
 20
-96.5930331976
 30
0.0
 10
25.9929681205
 20
-96.6447867968
 30
0.0
 10
25.9723791901
 20
-96.7493959599
 30
0.0
 10
25.8842594741
 20
-96.8819688706
 30
0.0
 10
25.7524601032
 20
-96.9708800259
 30
0.0
 10
25.6480176665
 20
-96.9929656777
 30
0.0
 10
25.5962623332
 20
-96.9929722756
 30
0.0
 11
25.9929722756
 21
-96.5930331976
 31
0.0
 11
25.9628386421
 21
-96.745341699
 31
0.0
 11
25.8769784639
 21
-96.8746933766
 31
0.0
 11
25.7483218086
 21
-96.9615804452
 31
0.0
 11
25.5962623332
 21
-96.9929722756
 31
0.0
  0
SPLINE
  5
4D3
100
AcDbEntity
  8
RACCORDO
100
AcDbSpline
 62
253
  6
CONTINUOUS
 70
0
 71
3
 72
11
 73
7
 74
5
 42
0.0000001
 43
0.0000001
 44
0.0000000001
 12
0.043317967
 22
-0.4580212004
 32
0.0
 13
-0.4580087668
 23
0.0434492328
 33
0.0
 40
0.0
 40
0.0
 40
0.0
 40
0.0
 40
0.2481655321
 40
0.4999968063
 40
0.7518254935
 40
1.0
 40
1.0
 40
1.0
 40
1.0
 10
23.1469046568
 20
-93.8650075502
 30
0.0
 10
23.1504879989
 20
-93.9028959085
 30
0.0
 10
23.1456601119
 20
-93.9814890065
 30
0.0
 10
23.0865604746
 20
-94.0865679023
 30
0.0
 10
22.9814778612
 20
-94.1456431893
 30
0.0
 10
22.9028834681
 20
-94.150498114
 30
0.0
 10
22.8649947682
 20
-94.1469037834
 30
0.0
 11
23.1469046568
 21
-93.8650075502
 31
0.0
 11
23.1372024366
 21
-93.9787668542
 31
0.0
 11
23.0788592188
 21
-94.0788634277
 31
0.0
 11
22.9787577282
 21
-94.1371958447
 31
0.0
 11
22.8649947682
 21
-94.1469037834
 31
0.0
  0
SPLINE
  5
4D4
100
AcDbEntity
  8
RACCORDO
100
AcDbSpline
 62
253
  6
CONTINUOUS
 70
0
 71
3
 72
11
 73
7
 74
5
 42
0.0000001
 43
0.0000001
 44
0.0000000001
 12
0.445261122
 22
-0.0082756578
 32
0.0
 13
-0.0086852307
 23
0.4452533212
 33
0.0
 40
0.0
 40
0.0
 40
0.0
 40
0.0
 40
0.2501115952
 40
0.4999997138
 40
0.7498866439
 40
1.0
 40
1.0
 40
1.0
 40
1.0
 10
22.3453066683
 20
-93.6271810694
 30
0.0
 10
22.3824283248
 20
-93.6278710154
 30
0.0
 10
22.4578321917
 20
-93.616235605
 30
0.0
 10
22.5548147609
 20
-93.5547871486
 30
0.0
 10
22.6162243455
 20
-93.4577998135
 30
0.0
 10
22.6279051379
 20
-93.3823945226
 30
0.0
 10
22.6271810405
 20
-93.3452732551
 30
0.0
 11
22.3453066683
 21
-93.6271810694
 31
0.0
 11
22.4551787222
 21
-93.608889748
 31
0.0
 11
22.5488878032
 21
-93.5488656844
 31
0.0
 11
22.6088961663
 21
-93.4551471771
 31
0.0
 11
22.6271810405
 21
-93.3452732551
 31
0.0
  0
SPLINE
  5
4D5
100
AcDbEntity
  8
RACCORDO
100
AcDbSpline
 62
253
  6
CONTINUOUS
 70
0
 71
3
 72
11
 73
7
 74
5
 42
0.0000001
 43
0.0000001
 44
0.0000000001
 12
0.4317179711
 22
0.0285988121
 32
0.0
 13
0.0285748665
 23
0.4317195567
 33
0.0
 40
0.0
 40
0.0
 40
0.0
 40
0.0
 40
0.2444838109
 40
0.499998308
 40
0.755509181
 40
1.0
 40
1.0
 40
1.0
 40
1.0
 10
22.3160589508
 20
-93.597966737
 30
0.0
 10
22.3512416357
 20
-93.5956360882
 30
0.0
 10
22.4229363311
 20
-93.5778052196
 30
0.0
 10
22.5146013759
 20
-93.5146028749
 30
0.0
 10
22.5778051046
 20
-93.4229382297
 30
0.0
 10
22.5956379728
 20
-93.3512427734
 30
0.0
 10
22.597966737
 20
-93.3160589508
 30
0.0
 11
22.3160589508
 21
-93.597966737
 31
0.0
 11
22.418717353
 21
-93.5724612152
 31
0.0
 11
22.5097888495
 21
-93.509789682
 31
0.0
 11
22.5724607955
 21
-93.4187203731
 31
0.0
 11
22.597966737
 21
-93.3160589508
 31
0.0
  0
SPLINE
  5
4D6
100
AcDbEntity
  8
RACCORDO
100
AcDbSpline
 62
253
  6
CONTINUOUS
 70
0
 71
3
 72
11
 73
7
 74
5
 42
0.0000001
 43
0.0000001
 44
0.0000000001
 12
-0.431719563
 22
-0.0285747494
 32
0.0
 13
-0.0285985182
 23
-0.4317179891
 33
0.0
 40
0.0
 40
0.0
 40
0.0
 40
0.0
 40
0.2444907312
 40
0.5000016615
 40
0.7555160952
 40
1.0
 40
1.0
 40
1.0
 40
1.0
 10
-22.3160589508
 20
-48.402033263
 30
0.0
 10
-22.3512427613
 20
-48.4043620168
 30
0.0
 10
-22.4229382061
 20
-48.4221949093
 30
0.0
 10
-22.5146028582
 20
-48.4853986
 30
0.0
 10
-22.5778052094
 20
-48.5770636503
 30
0.0
 10
-22.5956361112
 20
-48.6487583493
 30
0.0
 10
-22.597966737
 20
-48.6839410492
 30
0.0
 11
-22.3160589508
 21
-48.402033263
 31
0.0
 11
-22.4187203351
 21
-48.4275391981
 31
0.0
 11
-22.5097896745
 21
-48.490211143
 31
0.0
 11
-22.5724612039
 21
-48.5812826083
 31
0.0
 11
-22.597966737
 21
-48.6839410492
 31
0.0
  0
SPLINE
  5
4D7
100
AcDbEntity
  8
RACCORDO
100
AcDbSpline
 62
253
  6
CONTINUOUS
 70
0
 71
3
 72
11
 73
7
 74
5
 42
0.0000001
 43
0.0000001
 44
0.0000000001
 12
-0.6210287368
 22
0.0000498599
 32
0.0
 13
-0.0000791702
 23
0.6210287338
 33
0.0
 40
0.0
 40
0.0
 40
0.0
 40
0.0
 40
0.2500058224
 40
0.5000008131
 40
0.7499857999
 40
1.0
 40
1.0
 40
1.0
 40
1.0
 10
-25.5930331976
 20
-96.9929722756
 30
0.0
 10
-25.6447867976
 20
-96.9929681205
 30
0.0
 10
-25.7493959624
 20
-96.9723791895
 30
0.0
 10
-25.8819688741
 20
-96.8842594708
 30
0.0
 10
-25.9708800297
 20
-96.7524600966
 30
0.0
 10
-25.9929656777
 20
-96.6480176577
 30
0.0
 10
-25.9929722756
 20
-96.5962623237
 30
0.0
 11
-25.5930331976
 21
-96.9929722756
 31
0.0
 11
-25.7453417012
 21
-96.9628386412
 31
0.0
 11
-25.87469338
 21
-96.8769784606
 31
0.0
 11
-25.961580448
 21
-96.748321802
 31
0.0
 11
-25.9929722756
 21
-96.5962623237
 31
0.0
  0
SPLINE
  5
4D8
100
AcDbEntity
  8
RACCORDO
100
AcDbSpline
 62
253
  6
CONTINUOUS
 70
0
 71
3
 72
11
 73
7
 74
5
 42
0.0000001
 43
0.0000001
 44
0.0000000001
 12
-0.0434494719
 22
0.4580087334
 32
0.0
 13
0.4580211454
 23
-0.0433184355
 33
0.0
 40
0.0
 40
0.0
 40
0.0
 40
0.0
 40
0.248174496
 40
0.5000031929
 40
0.7518344432
 40
1.0
 40
1.0
 40
1.0
 40
1.0
 10
-23.1469037748
 20
-48.1350053575
 30
0.0
 10
-23.1504981251
 20
-48.097116662
 30
0.0
 10
-23.1456432288
 20
-48.0185222727
 30
0.0
 10
-23.0865680095
 20
-47.9134396185
 30
0.0
 10
-22.9814891423
 20
-47.8543399727
 30
0.0
 10
-22.9028960419
 20
-47.8495119528
 30
0.0
 10
-22.8650076844
 20
-47.853095334
 30
0.0
 11
-23.1469037748
 21
-48.1350053575
 31
0.0
 11
-23.1371958886
 21
-48.0212424006
 31
0.0
 11
-23.0788635255
 21
-47.9211408765
 31
0.0
 11
-22.9787669917
 21
-47.8627976177
 31
0.0
 11
-22.8650076844
 21
-47.853095334
 31
0.0
  0
SPLINE
  5
4D9
100
AcDbEntity
  8
RACCORDO
100
AcDbSpline
 62
253
  6
CONTINUOUS
 70
0
 71
3
 72
11
 73
7
 74
5
 42
0.0000001
 43
0.0000001
 44
0.0000000001
 12
-0.4452532521
 22
0.0086830778
 32
0.0
 13
0.0082773346
 23
-0.4452609797
 33
0.0
 40
0.0
 40
0.0
 40
0.0
 40
0.0
 40
0.2501133591
 40
0.5000002957
 40
0.749888392
 40
1.0
 40
1.0
 40
1.0
 40
1.0
 10
-22.345273254
 20
-48.3728189595
 30
0.0
 10
-22.3823945162
 20
-48.3720950416
 30
0.0
 10
-22.4577997806
 20
-48.3837755475
 30
0.0
 10
-22.5547871256
 20
-48.4451852212
 30
0.0
 10
-22.6162354615
 20
-48.5421677324
 30
0.0
 10
-22.6278711553
 20
-48.6175715773
 30
0.0
 10
-22.6271810695
 20
-48.6546932239
 30
0.0
 11
-22.345273254
 21
-48.3728189595
 31
0.0
 11
-22.4551471526
 21
-48.3911038133
 31
0.0
 11
-22.5488656427
 21
-48.4511121571
 31
0.0
 11
-22.6088896937
 21
-48.5448212014
 31
0.0
 11
-22.6271810695
 21
-48.6546932239
 31
0.0
  0
SPLINE
  5
4DA
100
AcDbEntity
  8
RACCORDO
100
AcDbSpline
 62
253
  6
CONTINUOUS
 70
0
 71
3
 72
11
 73
7
 74
5
 42
0.0000001
 43
0.0000001
 44
0.0000000001
 12
-0.4580212004
 22
-0.043317967
 32
0.0
 13
0.0434492328
 23
0.4580087668
 33
0.0
 40
0.0
 40
0.0
 40
0.0
 40
0.0
 40
0.2481655321
 40
0.4999968063
 40
0.7518254935
 40
1.0
 40
1.0
 40
1.0
 40
1.0
 10
-22.8650075502
 20
-94.1469046568
 30
0.0
 10
-22.9028959085
 20
-94.1504879989
 30
0.0
 10
-22.9814890065
 20
-94.1456601119
 30
0.0
 10
-23.0865679023
 20
-94.0865604746
 30
0.0
 10
-23.1456431893
 20
-93.9814778612
 30
0.0
 10
-23.150498114
 20
-93.9028834681
 30
0.0
 10
-23.1469037834
 20
-93.8649947682
 30
0.0
 11
-22.8650075502
 21
-94.1469046568
 31
0.0
 11
-22.9787668542
 21
-94.1372024366
 31
0.0
 11
-23.0788634277
 21
-94.0788592188
 31
0.0
 11
-23.1371958447
 21
-93.9787577282
 31
0.0
 11
-23.1469037834
 21
-93.8649947682
 31
0.0
  0
SPLINE
  5
4DB
100
AcDbEntity
  8
RACCORDO
100
AcDbSpline
 62
253
  6
CONTINUOUS
 70
0
 71
3
 72
11
 73
7
 74
5
 42
0.0000001
 43
0.0000001
 44
0.0000000001
 12
-0.0082756578
 22
-0.445261122
 32
0.0
 13
0.4452533212
 23
0.0086852307
 33
0.0
 40
0.0
 40
0.0
 40
0.0
 40
0.0
 40
0.2501115952
 40
0.4999997138
 40
0.7498866439
 40
1.0
 40
1.0
 40
1.0
 40
1.0
 10
-22.6271810694
 20
-93.3453066683
 30
0.0
 10
-22.6278710154
 20
-93.3824283248
 30
0.0
 10
-22.616235605
 20
-93.4578321917
 30
0.0
 10
-22.5547871486
 20
-93.5548147609
 30
0.0
 10
-22.4577998135
 20
-93.6162243455
 30
0.0
 10
-22.3823945226
 20
-93.6279051379
 30
0.0
 10
-22.3452732551
 20
-93.6271810405
 30
0.0
 11
-22.6271810694
 21
-93.3453066683
 31
0.0
 11
-22.608889748
 21
-93.4551787222
 31
0.0
 11
-22.5488656844
 21
-93.5488878032
 31
0.0
 11
-22.4551471771
 21
-93.6088961663
 31
0.0
 11
-22.3452732551
 21
-93.6271810405
 31
0.0
  0
SPLINE
  5
4DC
100
AcDbEntity
  8
RACCORDO
100
AcDbSpline
 62
253
  6
CONTINUOUS
 70
0
 71
3
 72
11
 73
7
 74
5
 42
0.0000001
 43
0.0000001
 44
0.0000000001
 12
0.0285988121
 22
-0.4317179711
 32
0.0
 13
0.4317195567
 23
-0.0285748665
 33
0.0
 40
0.0
 40
0.0
 40
0.0
 40
0.0
 40
0.2444838109
 40
0.499998308
 40
0.755509181
 40
1.0
 40
1.0
 40
1.0
 40
1.0
 10
-22.597966737
 20
-93.3160589508
 30
0.0
 10
-22.5956360882
 20
-93.3512416357
 30
0.0
 10
-22.5778052196
 20
-93.4229363311
 30
0.0
 10
-22.5146028749
 20
-93.5146013759
 30
0.0
 10
-22.4229382297
 20
-93.5778051046
 30
0.0
 10
-22.3512427734
 20
-93.5956379728
 30
0.0
 10
-22.3160589508
 20
-93.597966737
 30
0.0
 11
-22.597966737
 21
-93.3160589508
 31
0.0
 11
-22.5724612152
 21
-93.418717353
 31
0.0
 11
-22.509789682
 21
-93.5097888495
 31
0.0
 11
-22.4187203731
 21
-93.5724607955
 31
0.0
 11
-22.3160589508
 21
-93.597966737
 31
0.0
  0
SPLINE
  5
4DD
100
AcDbEntity
  8
RACCORDO
100
AcDbSpline
 62
253
  6
CONTINUOUS
 70
0
 71
3
 72
11
 73
7
 74
5
 42
0.0000001
 43
0.0000001
 44
0.0000000001
 12
0.0000157207
 22
-0.8843607793
 32
0.0
 13
-0.8843607788
 23
0.0000318597
 33
0.0
 40
0.0
 40
0.0
 40
0.0
 40
0.0
 40
0.2501538446
 40
0.5000000678
 40
0.7498449811
 40
1.0
 40
1.0
 40
1.0
 40
1.0
 10
23.4288116597
 20
-93.8649960872
 30
0.0
 10
23.4288129706
 20
-93.9387381702
 30
0.0
 10
23.4023630661
 20
-94.0878906947
 30
0.0
 10
23.278634984
 20
-94.2786325166
 30
0.0
 10
23.087882494
 20
-94.4023202085
 30
0.0
 10
22.9387385164
 20
-94.4288143163
 30
0.0
 10
22.8649960872
 20
-94.4288116597
 30
0.0
 11
23.4288116597
 21
-93.8649960872
 31
0.0
 11
23.3883164079
 21
-94.0824844497
 31
0.0
 11
23.267468617
 21
-94.2674616652
 31
0.0
 11
23.0824807916
 21
-94.388291096
 31
0.0
 11
22.8649960872
 21
-94.4288116597
 31
0.0
  0
SPLINE
  5
4DE
100
AcDbEntity
  8
RACCORDO
100
AcDbSpline
 62
253
  6
CONTINUOUS
 70
0
 71
3
 72
11
 73
7
 74
5
 42
0.0000001
 43
0.0000001
 44
0.0000000001
 12
0.8843607793
 22
0.0000157207
 32
0.0
 13
-0.0000318597
 23
-0.8843607788
 33
0.0
 40
0.0
 40
0.0
 40
0.0
 40
0.0
 40
0.2501538446
 40
0.5000000678
 40
0.7498449811
 40
1.0
 40
1.0
 40
1.0
 40
1.0
 10
22.8649960872
 20
-47.5711883403
 30
0.0
 10
22.9387381702
 20
-47.5711870294
 30
0.0
 10
23.0878906947
 20
-47.5976369339
 30
0.0
 10
23.2786325166
 20
-47.721365016
 30
0.0
 10
23.4023202085
 20
-47.912117506
 30
0.0
 10
23.4288143163
 20
-48.0612614836
 30
0.0
 10
23.4288116597
 20
-48.1350039128
 30
0.0
 11
22.8649960872
 21
-47.5711883403
 31
0.0
 11
23.0824844497
 21
-47.6116835921
 31
0.0
 11
23.2674616652
 21
-47.732531383
 31
0.0
 11
23.388291096
 21
-47.9175192084
 31
0.0
 11
23.4288116597
 21
-48.1350039128
 31
0.0
  0
SPLINE
  5
4DF
100
AcDbEntity
  8
RACCORDO
100
AcDbSpline
 62
253
  6
CONTINUOUS
 70
0
 71
3
 72
11
 73
7
 74
5
 42
0.0000001
 43
0.0000001
 44
0.0000000001
 12
-0.0000310851
 22
0.8843607931
 32
0.0
 13
0.8843607935
 23
-0.0000166958
 33
0.0
 40
0.0
 40
0.0
 40
0.0
 40
0.0
 40
0.2501550041
 40
0.4999999352
 40
0.7498461618
 40
1.0
 40
1.0
 40
1.0
 40
1.0
 10
-23.4288116597
 20
-48.1350039128
 30
0.0
 10
-23.4288142517
 20
-48.0612614868
 30
0.0
 10
-23.402320283
 20
-47.9121175
 30
0.0
 10
-23.278632518
 20
-47.721365001
 30
0.0
 10
-23.0878906963
 20
-47.5976369798
 30
0.0
 10
-22.9387381695
 20
-47.5711869481
 30
0.0
 10
-22.8649960872
 20
-47.5711883403
 30
0.0
 11
-23.4288116597
 21
-48.1350039128
 31
0.0
 11
-23.3882911272
 21
-47.9175192123
 31
0.0
 11
-23.2674616758
 21
-47.7325313773
 31
0.0
 11
-23.0824844471
 21
-47.6116835945
 31
0.0
 11
-22.8649960872
 21
-47.5711883403
 31
0.0
  0
SPLINE
  5
4E0
100
AcDbEntity
  8
RACCORDO
100
AcDbSpline
 62
253
  6
CONTINUOUS
 70
0
 71
3
 72
11
 73
7
 74
5
 42
0.0000001
 43
0.0000001
 44
0.0000000001
 12
-0.8843607793
 22
-0.0000157207
 32
0.0
 13
0.0000318597
 23
0.8843607788
 33
0.0
 40
0.0
 40
0.0
 40
0.0
 40
0.0
 40
0.2501538446
 40
0.5000000678
 40
0.7498449811
 40
1.0
 40
1.0
 40
1.0
 40
1.0
 10
-22.8649960872
 20
-94.4288116597
 30
0.0
 10
-22.9387381702
 20
-94.4288129706
 30
0.0
 10
-23.0878906947
 20
-94.4023630661
 30
0.0
 10
-23.2786325166
 20
-94.278634984
 30
0.0
 10
-23.4023202085
 20
-94.087882494
 30
0.0
 10
-23.4288143163
 20
-93.9387385164
 30
0.0
 10
-23.4288116597
 20
-93.8649960872
 30
0.0
 11
-22.8649960872
 21
-94.4288116597
 31
0.0
 11
-23.0824844497
 21
-94.3883164079
 31
0.0
 11
-23.2674616652
 21
-94.267468617
 31
0.0
 11
-23.388291096
 21
-94.0824807916
 31
0.0
 11
-23.4288116597
 21
-93.8649960872
 31
0.0
  0
SPLINE
  5
4E1
100
AcDbEntity
  8
RACCORDO
100
AcDbSpline
 62
253
  6
CONTINUOUS
 70
0
 71
3
 72
11
 73
7
 74
5
 42
0.0000001
 43
0.0000001
 44
0.0000000001
 12
0.0000498599
 22
0.6210287382
 32
0.0
 13
0.6210287352
 23
0.0000791702
 33
0.0
 40
0.0
 40
0.0
 40
0.0
 40
0.0
 40
0.2500058224
 40
0.5000008131
 40
0.7499857999
 40
1.0
 40
1.0
 40
1.0
 40
1.0
 10
-25.9929722756
 20
-45.4069668024
 30
0.0
 10
-25.9929681205
 20
-45.3552132023
 30
0.0
 10
-25.9723791894
 20
-45.2506040373
 30
0.0
 10
-25.8842594704
 20
-45.1180311254
 30
0.0
 10
-25.7524600956
 20
-45.0291199697
 30
0.0
 10
-25.6480176564
 20
-45.0070343223
 30
0.0
 10
-25.5962623223
 20
-45.0070277244
 30
0.0
 11
-25.9929722756
 21
-45.4069668024
 31
0.0
 11
-25.962838641
 21
-45.2546582985
 31
0.0
 11
-25.8769784601
 21
-45.1253066195
 31
0.0
 11
-25.7483218011
 21
-45.0384195516
 31
0.0
 11
-25.5962623223
 21
-45.0070277244
 31
0.0
  0
SPLINE
  5
4E2
100
AcDbEntity
  8
RACCORDO
100
AcDbSpline
 62
253
  6
CONTINUOUS
 70
0
 71
3
 72
11
 73
7
 74
5
 42
0.0000001
 43
0.0000001
 44
0.0000000001
 12
0.6210287337
 22
-0.0000498599
 32
0.0
 13
0.0000791702
 23
-0.6210287307
 33
0.0
 40
0.0
 40
0.0
 40
0.0
 40
0.0
 40
0.2500058224
 40
0.5000008131
 40
0.7499857999
 40
1.0
 40
1.0
 40
1.0
 40
1.0
 10
25.5930331976
 20
-45.0070277244
 30
0.0
 10
25.6447867973
 20
-45.0070318795
 30
0.0
 10
25.7493959615
 20
-45.0276208103
 30
0.0
 10
25.8819688729
 20
-45.1157405281
 30
0.0
 10
25.9708800284
 20
-45.2475399012
 30
0.0
 10
25.9929656777
 20
-45.3519823394
 30
0.0
 10
25.9929722756
 20
-45.4037376732
 30
0.0
 11
25.5930331976
 21
-45.0070277244
 31
0.0
 11
25.7453417004
 21
-45.0371613585
 31
0.0
 11
25.8746933789
 21
-45.1230215383
 31
0.0
 11
25.9615804471
 21
-45.2516781958
 31
0.0
 11
25.9929722756
 21
-45.4037376732
 31
0.0
  0
SPLINE
  5
4E3
100
AcDbEntity
  8
RACCORDO
100
AcDbSpline
 62
253
  6
CONTINUOUS
 70
0
 71
3
 72
9
 73
5
 74
3
 42
0.0000001
 43
0.0000001
 44
0.0000000001
 12
0.0423976482
 22
0.0021313418
 32
0.0
 13
0.0197976219
 23
0.037552062
 33
0.0
 40
0.0
 40
0.0
 40
0.0
 40
0.0
 40
0.3847352126
 40
1.0
 40
1.0
 40
1.0
 40
1.0
 10
22.3160589024
 20
22.5979659104
 30
0.0
 10
22.3214961918
 20
22.5982392445
 30
0.0
 10
22.3342584906
 20
22.6073059815
 30
0.0
 10
22.3412129949
 20
22.6194844293
 30
0.0
 10
22.3452732547
 20
22.6271859164
 30
0.0
 11
22.3160589024
 21
22.5979659104
 31
0.0
 11
22.3304567267
 21
22.6056764296
 31
0.0
 11
22.3452732547
 21
22.6271859164
 31
0.0
  0
SPLINE
  5
4E4
100
AcDbEntity
  8
RACCORDO
100
AcDbSpline
 62
253
  6
CONTINUOUS
 70
0
 71
3
 72
9
 73
5
 74
3
 42
0.0000001
 43
0.0000001
 44
0.0000000001
 12
0.0021270596
 22
0.0423943008
 32
0.0
 13
0.0375491867
 23
0.0197954465
 33
0.0
 40
0.0
 40
0.0
 40
0.0
 40
0.0
 40
0.3847717293
 40
1.0
 40
1.0
 40
1.0
 40
1.0
 10
22.5979665987
 20
22.3160589427
 30
0.0
 10
22.5982394095
 20
22.3214963189
 30
0.0
 10
22.6073025503
 20
22.3342594283
 30
0.0
 10
22.619480477
 20
22.3412136815
 30
0.0
 10
22.6271809174
 20
22.3452732543
 30
0.0
 11
22.5979665987
 21
22.3160589427
 31
0.0
 11
22.605675032
 21
22.3304580892
 31
0.0
 11
22.6271809174
 21
22.3452732543
 31
0.0
  0
SPLINE
  5
4E5
100
AcDbEntity
  8
RACCORDO
100
AcDbSpline
 62
253
  6
CONTINUOUS
 70
0
 71
3
 72
9
 73
5
 74
3
 42
0.0000001
 43
0.0000001
 44
0.0000000001
 12
0.0021313418
 22
-0.0423976482
 32
0.0
 13
0.037552062
 23
-0.0197976219
 33
0.0
 40
0.0
 40
0.0
 40
0.0
 40
0.0
 40
0.3847352126
 40
1.0
 40
1.0
 40
1.0
 40
1.0
 10
22.5979659104
 20
-22.3160589024
 30
0.0
 10
22.5982392445
 20
-22.3214961918
 30
0.0
 10
22.6073059815
 20
-22.3342584906
 30
0.0
 10
22.6194844293
 20
-22.3412129949
 30
0.0
 10
22.6271859164
 20
-22.3452732547
 30
0.0
 11
22.5979659104
 21
-22.3160589024
 31
0.0
 11
22.6056764296
 21
-22.3304567267
 31
0.0
 11
22.6271859164
 21
-22.3452732547
 31
0.0
  0
SPLINE
  5
4E6
100
AcDbEntity
  8
RACCORDO
100
AcDbSpline
 62
253
  6
CONTINUOUS
 70
0
 71
3
 72
9
 73
5
 74
3
 42
0.0000001
 43
0.0000001
 44
0.0000000001
 12
0.0423943008
 22
-0.0021270596
 32
0.0
 13
0.0197954465
 23
-0.0375491867
 33
0.0
 40
0.0
 40
0.0
 40
0.0
 40
0.0
 40
0.3847717293
 40
1.0
 40
1.0
 40
1.0
 40
1.0
 10
22.3160589427
 20
-22.5979665987
 30
0.0
 10
22.3214963189
 20
-22.5982394095
 30
0.0
 10
22.3342594283
 20
-22.6073025503
 30
0.0
 10
22.3412136815
 20
-22.619480477
 30
0.0
 10
22.3452732543
 20
-22.6271809174
 30
0.0
 11
22.3160589427
 21
-22.5979665987
 31
0.0
 11
22.3304580892
 21
-22.605675032
 31
0.0
 11
22.3452732543
 21
-22.6271809174
 31
0.0
  0
SPLINE
  5
4E7
100
AcDbEntity
  8
RACCORDO
100
AcDbSpline
 62
253
  6
CONTINUOUS
 70
0
 71
3
 72
9
 73
5
 74
3
 42
0.0000001
 43
0.0000001
 44
0.0000000001
 12
-0.0423976482
 22
-0.0021313418
 32
0.0
 13
-0.0197976219
 23
-0.037552062
 33
0.0
 40
0.0
 40
0.0
 40
0.0
 40
0.0
 40
0.3847352126
 40
1.0
 40
1.0
 40
1.0
 40
1.0
 10
-22.3160589024
 20
-22.5979659104
 30
0.0
 10
-22.3214961918
 20
-22.5982392445
 30
0.0
 10
-22.3342584906
 20
-22.6073059815
 30
0.0
 10
-22.3412129949
 20
-22.6194844293
 30
0.0
 10
-22.3452732547
 20
-22.6271859164
 30
0.0
 11
-22.3160589024
 21
-22.5979659104
 31
0.0
 11
-22.3304567267
 21
-22.6056764296
 31
0.0
 11
-22.3452732547
 21
-22.6271859164
 31
0.0
  0
SPLINE
  5
4E8
100
AcDbEntity
  8
RACCORDO
100
AcDbSpline
 62
253
  6
CONTINUOUS
 70
0
 71
3
 72
9
 73
5
 74
3
 42
0.0000001
 43
0.0000001
 44
0.0000000001
 12
-0.0021270596
 22
-0.0423943008
 32
0.0
 13
-0.0375491867
 23
-0.0197954465
 33
0.0
 40
0.0
 40
0.0
 40
0.0
 40
0.0
 40
0.3847717293
 40
1.0
 40
1.0
 40
1.0
 40
1.0
 10
-22.5979665987
 20
-22.3160589427
 30
0.0
 10
-22.5982394095
 20
-22.3214963189
 30
0.0
 10
-22.6073025503
 20
-22.3342594283
 30
0.0
 10
-22.619480477
 20
-22.3412136815
 30
0.0
 10
-22.6271809174
 20
-22.3452732543
 30
0.0
 11
-22.5979665987
 21
-22.3160589427
 31
0.0
 11
-22.605675032
 21
-22.3304580892
 31
0.0
 11
-22.6271809174
 21
-22.3452732543
 31
0.0
  0
SPLINE
  5
4E9
100
AcDbEntity
  8
RACCORDO
100
AcDbSpline
 62
253
  6
CONTINUOUS
 70
0
 71
3
 72
9
 73
5
 74
3
 42
0.0000001
 43
0.0000001
 44
0.0000000001
 12
-0.0021276964
 22
0.0423951815
 32
0.0
 13
-0.0375503771
 23
0.019795143
 33
0.0
 40
0.0
 40
0.0
 40
0.0
 40
0.0
 40
0.3847699139
 40
1.0
 40
1.0
 40
1.0
 40
1.0
 10
-22.5979665783
 20
22.3160589415
 30
0.0
 10
-22.5982394695
 20
22.321496405
 30
0.0
 10
-22.607303136
 20
22.3342595951
 30
0.0
 10
-22.6194814463
 20
22.3412137322
 30
0.0
 10
-22.6271821536
 20
22.3452732548
 30
0.0
 11
-22.5979665783
 21
22.3160589415
 31
0.0
 11
-22.6056754383
 21
22.3304581701
 31
0.0
 11
-22.6271821536
 21
22.3452732548
 31
0.0
  0
SPLINE
  5
4EA
100
AcDbEntity
  8
RACCORDO
100
AcDbSpline
 62
253
  6
CONTINUOUS
 70
0
 71
3
 72
9
 73
5
 74
3
 42
0.0000001
 43
0.0000001
 44
0.0000000001
 12
-0.0423952029
 22
0.002125971
 32
0.0
 13
-0.0197954014
 23
0.0375501673
 33
0.0
 40
0.0
 40
0.0
 40
0.0
 40
0.0
 40
0.384766998
 40
1.0
 40
1.0
 40
1.0
 40
1.0
 10
-22.3160586523
 20
22.5979616022
 30
0.0
 10
-22.3214960773
 20
22.5982342701
 30
0.0
 10
-22.3342595021
 20
22.6072977501
 30
0.0
 10
-22.3412136612
 20
22.6194760051
 30
0.0
 10
-22.3452732559
 20
22.6271767058
 30
0.0
 11
-22.3160586523
 21
22.5979616022
 31
0.0
 11
-22.3304579301
 21
22.605670055
 31
0.0
 11
-22.3452732559
 21
22.6271767058
 31
0.0
  0
SPLINE
  5
4EB
100
AcDbEntity
  8
RACCORDO
100
AcDbSpline
 62
253
  6
CONTINUOUS
 70
0
 71
3
 72
11
 73
7
 74
5
 42
0.0000001
 43
0.0000001
 44
0.0000000001
 12
0.4580212004
 22
0.043317967
 32
0.0
 13
-0.0434492328
 23
-0.4580087668
 33
0.0
 40
0.0
 40
0.0
 40
0.0
 40
0.0
 40
0.2481655321
 40
0.4999968063
 40
0.7518254935
 40
1.0
 40
1.0
 40
1.0
 40
1.0
 10
22.8650075502
 20
23.1469046568
 30
0.0
 10
22.9028959085
 20
23.1504879989
 30
0.0
 10
22.9814890065
 20
23.1456601119
 30
0.0
 10
23.0865679023
 20
23.0865604746
 30
0.0
 10
23.1456431893
 20
22.9814778612
 30
0.0
 10
23.150498114
 20
22.9028834681
 30
0.0
 10
23.1469037834
 20
22.8649947682
 30
0.0
 11
22.8650075502
 21
23.1469046568
 31
0.0
 11
22.9787668542
 21
23.1372024366
 31
0.0
 11
23.0788634277
 21
23.0788592188
 31
0.0
 11
23.1371958447
 21
22.9787577282
 31
0.0
 11
23.1469037834
 21
22.8649947682
 31
0.0
  0
SPLINE
  5
4EC
100
AcDbEntity
  8
RACCORDO
100
AcDbSpline
 62
253
  6
CONTINUOUS
 70
0
 71
3
 72
11
 73
7
 74
5
 42
0.0000001
 43
0.0000001
 44
0.0000000001
 12
0.0082756578
 22
0.445261122
 32
0.0
 13
-0.4452533212
 23
-0.0086852307
 33
0.0
 40
0.0
 40
0.0
 40
0.0
 40
0.0
 40
0.2501115952
 40
0.4999997138
 40
0.7498866439
 40
1.0
 40
1.0
 40
1.0
 40
1.0
 10
22.6271810694
 20
22.3453066683
 30
0.0
 10
22.6278710154
 20
22.3824283248
 30
0.0
 10
22.616235605
 20
22.4578321917
 30
0.0
 10
22.5547871486
 20
22.5548147609
 30
0.0
 10
22.4577998135
 20
22.6162243455
 30
0.0
 10
22.3823945226
 20
22.6279051379
 30
0.0
 10
22.3452732551
 20
22.6271810405
 30
0.0
 11
22.6271810694
 21
22.3453066683
 31
0.0
 11
22.608889748
 21
22.4551787222
 31
0.0
 11
22.5488656844
 21
22.5488878032
 31
0.0
 11
22.4551471771
 21
22.6088961663
 31
0.0
 11
22.3452732551
 21
22.6271810405
 31
0.0
  0
SPLINE
  5
4ED
100
AcDbEntity
  8
RACCORDO
100
AcDbSpline
 62
253
  6
CONTINUOUS
 70
0
 71
3
 72
11
 73
7
 74
5
 42
0.0000001
 43
0.0000001
 44
0.0000000001
 12
-0.0285988121
 22
0.4317179711
 32
0.0
 13
-0.4317195567
 23
0.0285748665
 33
0.0
 40
0.0
 40
0.0
 40
0.0
 40
0.0
 40
0.2444838109
 40
0.499998308
 40
0.755509181
 40
1.0
 40
1.0
 40
1.0
 40
1.0
 10
22.597966737
 20
22.3160589508
 30
0.0
 10
22.5956360882
 20
22.3512416357
 30
0.0
 10
22.5778052196
 20
22.4229363311
 30
0.0
 10
22.5146028749
 20
22.5146013759
 30
0.0
 10
22.4229382297
 20
22.5778051046
 30
0.0
 10
22.3512427734
 20
22.5956379728
 30
0.0
 10
22.3160589508
 20
22.597966737
 30
0.0
 11
22.597966737
 21
22.3160589508
 31
0.0
 11
22.5724612152
 21
22.418717353
 31
0.0
 11
22.509789682
 21
22.5097888495
 31
0.0
 11
22.4187203731
 21
22.5724607955
 31
0.0
 11
22.3160589508
 21
22.597966737
 31
0.0
  0
SPLINE
  5
4EE
100
AcDbEntity
  8
RACCORDO
100
AcDbSpline
 62
253
  6
CONTINUOUS
 70
0
 71
3
 72
11
 73
7
 74
5
 42
0.0000001
 43
0.0000001
 44
0.0000000001
 12
-0.0000498599
 22
-0.6210287275
 32
0.0
 13
-0.6210287244
 23
-0.0000791702
 33
0.0
 40
0.0
 40
0.0
 40
0.0
 40
0.0
 40
0.2500058224
 40
0.5000008131
 40
0.7499857999
 40
1.0
 40
1.0
 40
1.0
 40
1.0
 10
25.9929722756
 20
-25.5930331976
 30
0.0
 10
25.9929681205
 20
-25.6447867968
 30
0.0
 10
25.9723791901
 20
-25.7493959599
 30
0.0
 10
25.8842594741
 20
-25.8819688706
 30
0.0
 10
25.7524601032
 20
-25.9708800259
 30
0.0
 10
25.6480176665
 20
-25.9929656777
 30
0.0
 10
25.5962623332
 20
-25.9929722756
 30
0.0
 11
25.9929722756
 21
-25.5930331976
 31
0.0
 11
25.9628386421
 21
-25.745341699
 31
0.0
 11
25.8769784639
 21
-25.8746933766
 31
0.0
 11
25.7483218086
 21
-25.9615804452
 31
0.0
 11
25.5962623332
 21
-25.9929722756
 31
0.0
  0
SPLINE
  5
4EF
100
AcDbEntity
  8
RACCORDO
100
AcDbSpline
 62
253
  6
CONTINUOUS
 70
0
 71
3
 72
11
 73
7
 74
5
 42
0.0000001
 43
0.0000001
 44
0.0000000001
 12
0.043317967
 22
-0.4580212004
 32
0.0
 13
-0.4580087668
 23
0.0434492328
 33
0.0
 40
0.0
 40
0.0
 40
0.0
 40
0.0
 40
0.2481655321
 40
0.4999968063
 40
0.7518254935
 40
1.0
 40
1.0
 40
1.0
 40
1.0
 10
23.1469046568
 20
-22.8650075502
 30
0.0
 10
23.1504879989
 20
-22.9028959085
 30
0.0
 10
23.1456601119
 20
-22.9814890065
 30
0.0
 10
23.0865604746
 20
-23.0865679023
 30
0.0
 10
22.9814778612
 20
-23.1456431893
 30
0.0
 10
22.9028834681
 20
-23.150498114
 30
0.0
 10
22.8649947682
 20
-23.1469037834
 30
0.0
 11
23.1469046568
 21
-22.8650075502
 31
0.0
 11
23.1372024366
 21
-22.9787668542
 31
0.0
 11
23.0788592188
 21
-23.0788634277
 31
0.0
 11
22.9787577282
 21
-23.1371958447
 31
0.0
 11
22.8649947682
 21
-23.1469037834
 31
0.0
  0
SPLINE
  5
4F0
100
AcDbEntity
  8
RACCORDO
100
AcDbSpline
 62
253
  6
CONTINUOUS
 70
0
 71
3
 72
11
 73
7
 74
5
 42
0.0000001
 43
0.0000001
 44
0.0000000001
 12
0.445261122
 22
-0.0082756578
 32
0.0
 13
-0.0086852307
 23
0.4452533212
 33
0.0
 40
0.0
 40
0.0
 40
0.0
 40
0.0
 40
0.2501115952
 40
0.4999997138
 40
0.7498866439
 40
1.0
 40
1.0
 40
1.0
 40
1.0
 10
22.3453066683
 20
-22.6271810694
 30
0.0
 10
22.3824283248
 20
-22.6278710154
 30
0.0
 10
22.4578321917
 20
-22.616235605
 30
0.0
 10
22.5548147609
 20
-22.5547871486
 30
0.0
 10
22.6162243455
 20
-22.4577998135
 30
0.0
 10
22.6279051379
 20
-22.3823945226
 30
0.0
 10
22.6271810405
 20
-22.3452732551
 30
0.0
 11
22.3453066683
 21
-22.6271810694
 31
0.0
 11
22.4551787222
 21
-22.608889748
 31
0.0
 11
22.5488878032
 21
-22.5488656844
 31
0.0
 11
22.6088961663
 21
-22.4551471771
 31
0.0
 11
22.6271810405
 21
-22.3452732551
 31
0.0
  0
SPLINE
  5
4F1
100
AcDbEntity
  8
RACCORDO
100
AcDbSpline
 62
253
  6
CONTINUOUS
 70
0
 71
3
 72
11
 73
7
 74
5
 42
0.0000001
 43
0.0000001
 44
0.0000000001
 12
0.4317179711
 22
0.0285988121
 32
0.0
 13
0.0285748665
 23
0.4317195567
 33
0.0
 40
0.0
 40
0.0
 40
0.0
 40
0.0
 40
0.2444838109
 40
0.499998308
 40
0.755509181
 40
1.0
 40
1.0
 40
1.0
 40
1.0
 10
22.3160589508
 20
-22.597966737
 30
0.0
 10
22.3512416357
 20
-22.5956360882
 30
0.0
 10
22.4229363311
 20
-22.5778052196
 30
0.0
 10
22.5146013759
 20
-22.5146028749
 30
0.0
 10
22.5778051046
 20
-22.4229382297
 30
0.0
 10
22.5956379728
 20
-22.3512427734
 30
0.0
 10
22.597966737
 20
-22.3160589508
 30
0.0
 11
22.3160589508
 21
-22.597966737
 31
0.0
 11
22.418717353
 21
-22.5724612152
 31
0.0
 11
22.5097888495
 21
-22.509789682
 31
0.0
 11
22.5724607955
 21
-22.4187203731
 31
0.0
 11
22.597966737
 21
-22.3160589508
 31
0.0
  0
SPLINE
  5
4F2
100
AcDbEntity
  8
RACCORDO
100
AcDbSpline
 62
253
  6
CONTINUOUS
 70
0
 71
3
 72
11
 73
7
 74
5
 42
0.0000001
 43
0.0000001
 44
0.0000000001
 12
-0.431719563
 22
-0.0285747494
 32
0.0
 13
-0.0285985182
 23
-0.4317179891
 33
0.0
 40
0.0
 40
0.0
 40
0.0
 40
0.0
 40
0.2444907312
 40
0.5000016615
 40
0.7555160952
 40
1.0
 40
1.0
 40
1.0
 40
1.0
 10
-22.3160589508
 20
22.597966737
 30
0.0
 10
-22.3512427613
 20
22.5956379832
 30
0.0
 10
-22.4229382061
 20
22.5778050907
 30
0.0
 10
-22.5146028582
 20
22.5146014
 30
0.0
 10
-22.5778052094
 20
22.4229363497
 30
0.0
 10
-22.5956361112
 20
22.3512416507
 30
0.0
 10
-22.597966737
 20
22.3160589508
 30
0.0
 11
-22.3160589508
 21
22.597966737
 31
0.0
 11
-22.4187203351
 21
22.5724608019
 31
0.0
 11
-22.5097896745
 21
22.509788857
 31
0.0
 11
-22.5724612039
 21
22.4187173917
 31
0.0
 11
-22.597966737
 21
22.3160589508
 31
0.0
  0
SPLINE
  5
4F3
100
AcDbEntity
  8
RACCORDO
100
AcDbSpline
 62
253
  6
CONTINUOUS
 70
0
 71
3
 72
11
 73
7
 74
5
 42
0.0000001
 43
0.0000001
 44
0.0000000001
 12
-0.6210287368
 22
0.0000498599
 32
0.0
 13
-0.0000791702
 23
0.6210287338
 33
0.0
 40
0.0
 40
0.0
 40
0.0
 40
0.0
 40
0.2500058224
 40
0.5000008131
 40
0.7499857999
 40
1.0
 40
1.0
 40
1.0
 40
1.0
 10
-25.5930331976
 20
-25.9929722756
 30
0.0
 10
-25.6447867976
 20
-25.9929681205
 30
0.0
 10
-25.7493959624
 20
-25.9723791895
 30
0.0
 10
-25.8819688741
 20
-25.8842594708
 30
0.0
 10
-25.9708800297
 20
-25.7524600966
 30
0.0
 10
-25.9929656777
 20
-25.6480176577
 30
0.0
 10
-25.9929722756
 20
-25.5962623237
 30
0.0
 11
-25.5930331976
 21
-25.9929722756
 31
0.0
 11
-25.7453417012
 21
-25.9628386412
 31
0.0
 11
-25.87469338
 21
-25.8769784606
 31
0.0
 11
-25.961580448
 21
-25.748321802
 31
0.0
 11
-25.9929722756
 21
-25.5962623237
 31
0.0
  0
SPLINE
  5
4F4
100
AcDbEntity
  8
RACCORDO
100
AcDbSpline
 62
253
  6
CONTINUOUS
 70
0
 71
3
 72
11
 73
7
 74
5
 42
0.0000001
 43
0.0000001
 44
0.0000000001
 12
-0.0434494719
 22
0.4580087334
 32
0.0
 13
0.4580211454
 23
-0.0433184355
 33
0.0
 40
0.0
 40
0.0
 40
0.0
 40
0.0
 40
0.248174496
 40
0.5000031929
 40
0.7518344432
 40
1.0
 40
1.0
 40
1.0
 40
1.0
 10
-23.1469037748
 20
22.8649946425
 30
0.0
 10
-23.1504981251
 20
22.902883338
 30
0.0
 10
-23.1456432288
 20
22.9814777273
 30
0.0
 10
-23.0865680095
 20
23.0865603815
 30
0.0
 10
-22.9814891423
 20
23.1456600273
 30
0.0
 10
-22.9028960419
 20
23.1504880472
 30
0.0
 10
-22.8650076844
 20
23.146904666
 30
0.0
 11
-23.1469037748
 21
22.8649946425
 31
0.0
 11
-23.1371958886
 21
22.9787575994
 31
0.0
 11
-23.0788635255
 21
23.0788591235
 31
0.0
 11
-22.9787669917
 21
23.1372023823
 31
0.0
 11
-22.8650076844
 21
23.146904666
 31
0.0
  0
SPLINE
  5
4F5
100
AcDbEntity
  8
RACCORDO
100
AcDbSpline
 62
253
  6
CONTINUOUS
 70
0
 71
3
 72
11
 73
7
 74
5
 42
0.0000001
 43
0.0000001
 44
0.0000000001
 12
-0.4452532521
 22
0.0086830778
 32
0.0
 13
0.0082773346
 23
-0.4452609797
 33
0.0
 40
0.0
 40
0.0
 40
0.0
 40
0.0
 40
0.2501133591
 40
0.5000002957
 40
0.749888392
 40
1.0
 40
1.0
 40
1.0
 40
1.0
 10
-22.345273254
 20
22.6271810405
 30
0.0
 10
-22.3823945162
 20
22.6279049584
 30
0.0
 10
-22.4577997806
 20
22.6162244525
 30
0.0
 10
-22.5547871256
 20
22.5548147788
 30
0.0
 10
-22.6162354615
 20
22.4578322676
 30
0.0
 10
-22.6278711553
 20
22.3824284227
 30
0.0
 10
-22.6271810695
 20
22.3453067761
 30
0.0
 11
-22.345273254
 21
22.6271810405
 31
0.0
 11
-22.4551471526
 21
22.6088961867
 31
0.0
 11
-22.5488656427
 21
22.5488878429
 31
0.0
 11
-22.6088896937
 21
22.4551787986
 31
0.0
 11
-22.6271810695
 21
22.3453067761
 31
0.0
  0
SPLINE
  5
4F6
100
AcDbEntity
  8
RACCORDO
100
AcDbSpline
 62
253
  6
CONTINUOUS
 70
0
 71
3
 72
11
 73
7
 74
5
 42
0.0000001
 43
0.0000001
 44
0.0000000001
 12
-0.4580212004
 22
-0.043317967
 32
0.0
 13
0.0434492328
 23
0.4580087668
 33
0.0
 40
0.0
 40
0.0
 40
0.0
 40
0.0
 40
0.2481655321
 40
0.4999968063
 40
0.7518254935
 40
1.0
 40
1.0
 40
1.0
 40
1.0
 10
-22.8650075502
 20
-23.1469046568
 30
0.0
 10
-22.9028959085
 20
-23.1504879989
 30
0.0
 10
-22.9814890065
 20
-23.1456601119
 30
0.0
 10
-23.0865679023
 20
-23.0865604746
 30
0.0
 10
-23.1456431893
 20
-22.9814778612
 30
0.0
 10
-23.150498114
 20
-22.9028834681
 30
0.0
 10
-23.1469037834
 20
-22.8649947682
 30
0.0
 11
-22.8650075502
 21
-23.1469046568
 31
0.0
 11
-22.9787668542
 21
-23.1372024366
 31
0.0
 11
-23.0788634277
 21
-23.0788592188
 31
0.0
 11
-23.1371958447
 21
-22.9787577282
 31
0.0
 11
-23.1469037834
 21
-22.8649947682
 31
0.0
  0
SPLINE
  5
4F7
100
AcDbEntity
  8
RACCORDO
100
AcDbSpline
 62
253
  6
CONTINUOUS
 70
0
 71
3
 72
11
 73
7
 74
5
 42
0.0000001
 43
0.0000001
 44
0.0000000001
 12
-0.0082756578
 22
-0.445261122
 32
0.0
 13
0.4452533212
 23
0.0086852307
 33
0.0
 40
0.0
 40
0.0
 40
0.0
 40
0.0
 40
0.2501115952
 40
0.4999997138
 40
0.7498866439
 40
1.0
 40
1.0
 40
1.0
 40
1.0
 10
-22.6271810694
 20
-22.3453066683
 30
0.0
 10
-22.6278710154
 20
-22.3824283248
 30
0.0
 10
-22.616235605
 20
-22.4578321917
 30
0.0
 10
-22.5547871486
 20
-22.5548147609
 30
0.0
 10
-22.4577998135
 20
-22.6162243455
 30
0.0
 10
-22.3823945226
 20
-22.6279051379
 30
0.0
 10
-22.3452732551
 20
-22.6271810405
 30
0.0
 11
-22.6271810694
 21
-22.3453066683
 31
0.0
 11
-22.608889748
 21
-22.4551787222
 31
0.0
 11
-22.5488656844
 21
-22.5488878032
 31
0.0
 11
-22.4551471771
 21
-22.6088961663
 31
0.0
 11
-22.3452732551
 21
-22.6271810405
 31
0.0
  0
SPLINE
  5
4F8
100
AcDbEntity
  8
RACCORDO
100
AcDbSpline
 62
253
  6
CONTINUOUS
 70
0
 71
3
 72
11
 73
7
 74
5
 42
0.0000001
 43
0.0000001
 44
0.0000000001
 12
0.0285988121
 22
-0.4317179711
 32
0.0
 13
0.4317195567
 23
-0.0285748665
 33
0.0
 40
0.0
 40
0.0
 40
0.0
 40
0.0
 40
0.2444838109
 40
0.499998308
 40
0.755509181
 40
1.0
 40
1.0
 40
1.0
 40
1.0
 10
-22.597966737
 20
-22.3160589508
 30
0.0
 10
-22.5956360882
 20
-22.3512416357
 30
0.0
 10
-22.5778052196
 20
-22.4229363311
 30
0.0
 10
-22.5146028749
 20
-22.5146013759
 30
0.0
 10
-22.4229382297
 20
-22.5778051046
 30
0.0
 10
-22.3512427734
 20
-22.5956379728
 30
0.0
 10
-22.3160589508
 20
-22.597966737
 30
0.0
 11
-22.597966737
 21
-22.3160589508
 31
0.0
 11
-22.5724612152
 21
-22.418717353
 31
0.0
 11
-22.509789682
 21
-22.5097888495
 31
0.0
 11
-22.4187203731
 21
-22.5724607955
 31
0.0
 11
-22.3160589508
 21
-22.597966737
 31
0.0
  0
SPLINE
  5
4F9
100
AcDbEntity
  8
RACCORDO
100
AcDbSpline
 62
253
  6
CONTINUOUS
 70
0
 71
3
 72
11
 73
7
 74
5
 42
0.0000001
 43
0.0000001
 44
0.0000000001
 12
0.0000157207
 22
-0.8843607793
 32
0.0
 13
-0.8843607788
 23
0.0000318597
 33
0.0
 40
0.0
 40
0.0
 40
0.0
 40
0.0
 40
0.2501538446
 40
0.5000000678
 40
0.7498449811
 40
1.0
 40
1.0
 40
1.0
 40
1.0
 10
23.4288116597
 20
-22.8649960872
 30
0.0
 10
23.4288129706
 20
-22.9387381702
 30
0.0
 10
23.4023630661
 20
-23.0878906947
 30
0.0
 10
23.278634984
 20
-23.2786325166
 30
0.0
 10
23.087882494
 20
-23.4023202085
 30
0.0
 10
22.9387385164
 20
-23.4288143163
 30
0.0
 10
22.8649960872
 20
-23.4288116597
 30
0.0
 11
23.4288116597
 21
-22.8649960872
 31
0.0
 11
23.3883164079
 21
-23.0824844497
 31
0.0
 11
23.267468617
 21
-23.2674616652
 31
0.0
 11
23.0824807916
 21
-23.388291096
 31
0.0
 11
22.8649960872
 21
-23.4288116597
 31
0.0
  0
SPLINE
  5
4FA
100
AcDbEntity
  8
RACCORDO
100
AcDbSpline
 62
253
  6
CONTINUOUS
 70
0
 71
3
 72
11
 73
7
 74
5
 42
0.0000001
 43
0.0000001
 44
0.0000000001
 12
0.8843607793
 22
0.0000157207
 32
0.0
 13
-0.0000318597
 23
-0.8843607788
 33
0.0
 40
0.0
 40
0.0
 40
0.0
 40
0.0
 40
0.2501538446
 40
0.5000000678
 40
0.7498449811
 40
1.0
 40
1.0
 40
1.0
 40
1.0
 10
22.8649960872
 20
23.4288116597
 30
0.0
 10
22.9387381702
 20
23.4288129706
 30
0.0
 10
23.0878906947
 20
23.4023630661
 30
0.0
 10
23.2786325166
 20
23.278634984
 30
0.0
 10
23.4023202085
 20
23.087882494
 30
0.0
 10
23.4288143163
 20
22.9387385164
 30
0.0
 10
23.4288116597
 20
22.8649960872
 30
0.0
 11
22.8649960872
 21
23.4288116597
 31
0.0
 11
23.0824844497
 21
23.3883164079
 31
0.0
 11
23.2674616652
 21
23.267468617
 31
0.0
 11
23.388291096
 21
23.0824807916
 31
0.0
 11
23.4288116597
 21
22.8649960872
 31
0.0
  0
SPLINE
  5
4FB
100
AcDbEntity
  8
RACCORDO
100
AcDbSpline
 62
253
  6
CONTINUOUS
 70
0
 71
3
 72
11
 73
7
 74
5
 42
0.0000001
 43
0.0000001
 44
0.0000000001
 12
-0.0000310851
 22
0.8843607931
 32
0.0
 13
0.8843607935
 23
-0.0000166958
 33
0.0
 40
0.0
 40
0.0
 40
0.0
 40
0.0
 40
0.2501550041
 40
0.4999999352
 40
0.7498461618
 40
1.0
 40
1.0
 40
1.0
 40
1.0
 10
-23.4288116597
 20
22.8649960872
 30
0.0
 10
-23.4288142517
 20
22.9387385132
 30
0.0
 10
-23.402320283
 20
23.0878825
 30
0.0
 10
-23.278632518
 20
23.278634999
 30
0.0
 10
-23.0878906963
 20
23.4023630202
 30
0.0
 10
-22.9387381695
 20
23.4288130519
 30
0.0
 10
-22.8649960872
 20
23.4288116597
 30
0.0
 11
-23.4288116597
 21
22.8649960872
 31
0.0
 11
-23.3882911272
 21
23.0824807877
 31
0.0
 11
-23.2674616758
 21
23.2674686227
 31
0.0
 11
-23.0824844471
 21
23.3883164055
 31
0.0
 11
-22.8649960872
 21
23.4288116597
 31
0.0
  0
SPLINE
  5
4FC
100
AcDbEntity
  8
RACCORDO
100
AcDbSpline
 62
253
  6
CONTINUOUS
 70
0
 71
3
 72
11
 73
7
 74
5
 42
0.0000001
 43
0.0000001
 44
0.0000000001
 12
-0.8843607793
 22
-0.0000157207
 32
0.0
 13
0.0000318597
 23
0.8843607788
 33
0.0
 40
0.0
 40
0.0
 40
0.0
 40
0.0
 40
0.2501538446
 40
0.5000000678
 40
0.7498449811
 40
1.0
 40
1.0
 40
1.0
 40
1.0
 10
-22.8649960872
 20
-23.4288116597
 30
0.0
 10
-22.9387381702
 20
-23.4288129706
 30
0.0
 10
-23.0878906947
 20
-23.4023630661
 30
0.0
 10
-23.2786325166
 20
-23.278634984
 30
0.0
 10
-23.4023202085
 20
-23.087882494
 30
0.0
 10
-23.4288143163
 20
-22.9387385164
 30
0.0
 10
-23.4288116597
 20
-22.8649960872
 30
0.0
 11
-22.8649960872
 21
-23.4288116597
 31
0.0
 11
-23.0824844497
 21
-23.3883164079
 31
0.0
 11
-23.2674616652
 21
-23.267468617
 31
0.0
 11
-23.388291096
 21
-23.0824807916
 31
0.0
 11
-23.4288116597
 21
-22.8649960872
 31
0.0
  0
SPLINE
  5
4FD
100
AcDbEntity
  8
RACCORDO
100
AcDbSpline
 62
253
  6
CONTINUOUS
 70
0
 71
3
 72
11
 73
7
 74
5
 42
0.0000001
 43
0.0000001
 44
0.0000000001
 12
0.0000498599
 22
0.6210287382
 32
0.0
 13
0.6210287352
 23
0.0000791702
 33
0.0
 40
0.0
 40
0.0
 40
0.0
 40
0.0
 40
0.2500058224
 40
0.5000008131
 40
0.7499857999
 40
1.0
 40
1.0
 40
1.0
 40
1.0
 10
-25.9929722756
 20
25.5930331976
 30
0.0
 10
-25.9929681205
 20
25.6447867977
 30
0.0
 10
-25.9723791894
 20
25.7493959627
 30
0.0
 10
-25.8842594704
 20
25.8819688746
 30
0.0
 10
-25.7524600956
 20
25.9708800303
 30
0.0
 10
-25.6480176564
 20
25.9929656777
 30
0.0
 10
-25.5962623223
 20
25.9929722756
 30
0.0
 11
-25.9929722756
 21
25.5930331976
 31
0.0
 11
-25.962838641
 21
25.7453417015
 31
0.0
 11
-25.8769784601
 21
25.8746933805
 31
0.0
 11
-25.7483218011
 21
25.9615804484
 31
0.0
 11
-25.5962623223
 21
25.9929722756
 31
0.0
  0
SPLINE
  5
4FE
100
AcDbEntity
  8
RACCORDO
100
AcDbSpline
 62
253
  6
CONTINUOUS
 70
0
 71
3
 72
11
 73
7
 74
5
 42
0.0000001
 43
0.0000001
 44
0.0000000001
 12
0.6210287337
 22
-0.0000498599
 32
0.0
 13
0.0000791702
 23
-0.6210287307
 33
0.0
 40
0.0
 40
0.0
 40
0.0
 40
0.0
 40
0.2500058224
 40
0.5000008131
 40
0.7499857999
 40
1.0
 40
1.0
 40
1.0
 40
1.0
 10
25.5930331976
 20
25.9929722756
 30
0.0
 10
25.6447867973
 20
25.9929681205
 30
0.0
 10
25.7493959615
 20
25.9723791897
 30
0.0
 10
25.8819688729
 20
25.8842594719
 30
0.0
 10
25.9708800284
 20
25.7524600988
 30
0.0
 10
25.9929656777
 20
25.6480176606
 30
0.0
 10
25.9929722756
 20
25.5962623268
 30
0.0
 11
25.5930331976
 21
25.9929722756
 31
0.0
 11
25.7453417004
 21
25.9628386415
 31
0.0
 11
25.8746933789
 21
25.8769784617
 31
0.0
 11
25.9615804471
 21
25.7483218042
 31
0.0
 11
25.9929722756
 21
25.5962623268
 31
0.0
  0
SPLINE
  5
4FF
100
AcDbEntity
  8
RACCORDO
100
AcDbSpline
 62
253
  6
CONTINUOUS
 70
0
 71
3
 72
9
 73
5
 74
3
 42
0.0000001
 43
0.0000001
 44
0.0000000001
 12
0.0423976482
 22
0.0021313418
 32
0.0
 13
0.0197976219
 23
0.037552062
 33
0.0
 40
0.0
 40
0.0
 40
0.0
 40
0.0
 40
0.3847352126
 40
1.0
 40
1.0
 40
1.0
 40
1.0
 10
22.3160589024
 20
93.5979659104
 30
0.0
 10
22.3214961918
 20
93.5982392445
 30
0.0
 10
22.3342584906
 20
93.6073059815
 30
0.0
 10
22.3412129949
 20
93.6194844293
 30
0.0
 10
22.3452732547
 20
93.6271859164
 30
0.0
 11
22.3160589024
 21
93.5979659104
 31
0.0
 11
22.3304567267
 21
93.6056764296
 31
0.0
 11
22.3452732547
 21
93.6271859164
 31
0.0
  0
SPLINE
  5
500
100
AcDbEntity
  8
RACCORDO
100
AcDbSpline
 62
253
  6
CONTINUOUS
 70
0
 71
3
 72
9
 73
5
 74
3
 42
0.0000001
 43
0.0000001
 44
0.0000000001
 12
0.0021270596
 22
0.0423943008
 32
0.0
 13
0.0375491867
 23
0.0197954465
 33
0.0
 40
0.0
 40
0.0
 40
0.0
 40
0.0
 40
0.3847717293
 40
1.0
 40
1.0
 40
1.0
 40
1.0
 10
22.5979665987
 20
93.3160589427
 30
0.0
 10
22.5982394095
 20
93.3214963189
 30
0.0
 10
22.6073025503
 20
93.3342594283
 30
0.0
 10
22.619480477
 20
93.3412136815
 30
0.0
 10
22.6271809174
 20
93.3452732543
 30
0.0
 11
22.5979665987
 21
93.3160589427
 31
0.0
 11
22.605675032
 21
93.3304580892
 31
0.0
 11
22.6271809174
 21
93.3452732543
 31
0.0
  0
SPLINE
  5
501
100
AcDbEntity
  8
RACCORDO
100
AcDbSpline
 62
253
  6
CONTINUOUS
 70
0
 71
3
 72
9
 73
5
 74
3
 42
0.0000001
 43
0.0000001
 44
0.0000000001
 12
0.0021313418
 22
-0.0423976482
 32
0.0
 13
0.037552062
 23
-0.0197976219
 33
0.0
 40
0.0
 40
0.0
 40
0.0
 40
0.0
 40
0.3847352126
 40
1.0
 40
1.0
 40
1.0
 40
1.0
 10
22.5979659104
 20
48.6839410976
 30
0.0
 10
22.5982392445
 20
48.6785038082
 30
0.0
 10
22.6073059815
 20
48.6657415094
 30
0.0
 10
22.6194844293
 20
48.6587870051
 30
0.0
 10
22.6271859164
 20
48.6547267453
 30
0.0
 11
22.5979659104
 21
48.6839410976
 31
0.0
 11
22.6056764296
 21
48.6695432733
 31
0.0
 11
22.6271859164
 21
48.6547267453
 31
0.0
  0
SPLINE
  5
502
100
AcDbEntity
  8
RACCORDO
100
AcDbSpline
 62
253
  6
CONTINUOUS
 70
0
 71
3
 72
9
 73
5
 74
3
 42
0.0000001
 43
0.0000001
 44
0.0000000001
 12
0.0423943008
 22
-0.0021270596
 32
0.0
 13
0.0197954465
 23
-0.0375491867
 33
0.0
 40
0.0
 40
0.0
 40
0.0
 40
0.0
 40
0.3847717293
 40
1.0
 40
1.0
 40
1.0
 40
1.0
 10
22.3160589427
 20
48.4020334013
 30
0.0
 10
22.3214963189
 20
48.4017605905
 30
0.0
 10
22.3342594283
 20
48.3926974497
 30
0.0
 10
22.3412136815
 20
48.380519523
 30
0.0
 10
22.3452732543
 20
48.3728190826
 30
0.0
 11
22.3160589427
 21
48.4020334013
 31
0.0
 11
22.3304580892
 21
48.394324968
 31
0.0
 11
22.3452732543
 21
48.3728190826
 31
0.0
  0
SPLINE
  5
503
100
AcDbEntity
  8
RACCORDO
100
AcDbSpline
 62
253
  6
CONTINUOUS
 70
0
 71
3
 72
9
 73
5
 74
3
 42
0.0000001
 43
0.0000001
 44
0.0000000001
 12
-0.0423976482
 22
-0.0021313418
 32
0.0
 13
-0.0197976219
 23
-0.037552062
 33
0.0
 40
0.0
 40
0.0
 40
0.0
 40
0.0
 40
0.3847352126
 40
1.0
 40
1.0
 40
1.0
 40
1.0
 10
-22.3160589024
 20
48.4020340896
 30
0.0
 10
-22.3214961918
 20
48.4017607555
 30
0.0
 10
-22.3342584906
 20
48.3926940185
 30
0.0
 10
-22.3412129949
 20
48.3805155707
 30
0.0
 10
-22.3452732547
 20
48.3728140836
 30
0.0
 11
-22.3160589024
 21
48.4020340896
 31
0.0
 11
-22.3304567267
 21
48.3943235704
 31
0.0
 11
-22.3452732547
 21
48.3728140836
 31
0.0
  0
SPLINE
  5
504
100
AcDbEntity
  8
RACCORDO
100
AcDbSpline
 62
253
  6
CONTINUOUS
 70
0
 71
3
 72
9
 73
5
 74
3
 42
0.0000001
 43
0.0000001
 44
0.0000000001
 12
-0.0021270596
 22
-0.0423943008
 32
0.0
 13
-0.0375491867
 23
-0.0197954465
 33
0.0
 40
0.0
 40
0.0
 40
0.0
 40
0.0
 40
0.3847717293
 40
1.0
 40
1.0
 40
1.0
 40
1.0
 10
-22.5979665987
 20
48.6839410573
 30
0.0
 10
-22.5982394095
 20
48.6785036811
 30
0.0
 10
-22.6073025503
 20
48.6657405717
 30
0.0
 10
-22.619480477
 20
48.6587863185
 30
0.0
 10
-22.6271809174
 20
48.6547267457
 30
0.0
 11
-22.5979665987
 21
48.6839410573
 31
0.0
 11
-22.605675032
 21
48.6695419108
 31
0.0
 11
-22.6271809174
 21
48.6547267457
 31
0.0
  0
SPLINE
  5
505
100
AcDbEntity
  8
RACCORDO
100
AcDbSpline
 62
253
  6
CONTINUOUS
 70
0
 71
3
 72
9
 73
5
 74
3
 42
0.0000001
 43
0.0000001
 44
0.0000000001
 12
-0.0021276964
 22
0.0423951815
 32
0.0
 13
-0.0375503771
 23
0.019795143
 33
0.0
 40
0.0
 40
0.0
 40
0.0
 40
0.0
 40
0.3847699139
 40
1.0
 40
1.0
 40
1.0
 40
1.0
 10
-22.5979665783
 20
93.3160589415
 30
0.0
 10
-22.5982394695
 20
93.321496405
 30
0.0
 10
-22.607303136
 20
93.3342595951
 30
0.0
 10
-22.6194814463
 20
93.3412137322
 30
0.0
 10
-22.6271821536
 20
93.3452732548
 30
0.0
 11
-22.5979665783
 21
93.3160589415
 31
0.0
 11
-22.6056754383
 21
93.3304581701
 31
0.0
 11
-22.6271821536
 21
93.3452732548
 31
0.0
  0
SPLINE
  5
506
100
AcDbEntity
  8
RACCORDO
100
AcDbSpline
 62
253
  6
CONTINUOUS
 70
0
 71
3
 72
9
 73
5
 74
3
 42
0.0000001
 43
0.0000001
 44
0.0000000001
 12
-0.0423952029
 22
0.002125971
 32
0.0
 13
-0.0197954014
 23
0.0375501673
 33
0.0
 40
0.0
 40
0.0
 40
0.0
 40
0.0
 40
0.384766998
 40
1.0
 40
1.0
 40
1.0
 40
1.0
 10
-22.3160586523
 20
93.5979616022
 30
0.0
 10
-22.3214960773
 20
93.5982342701
 30
0.0
 10
-22.3342595021
 20
93.6072977501
 30
0.0
 10
-22.3412136612
 20
93.6194760051
 30
0.0
 10
-22.3452732559
 20
93.6271767058
 30
0.0
 11
-22.3160586523
 21
93.5979616022
 31
0.0
 11
-22.3304579301
 21
93.605670055
 31
0.0
 11
-22.3452732559
 21
93.6271767058
 31
0.0
  0
SPLINE
  5
507
100
AcDbEntity
  8
RACCORDO
100
AcDbSpline
 62
253
  6
CONTINUOUS
 70
0
 71
3
 72
11
 73
7
 74
5
 42
0.0000001
 43
0.0000001
 44
0.0000000001
 12
0.4580212004
 22
0.043317967
 32
0.0
 13
-0.0434492328
 23
-0.4580087668
 33
0.0
 40
0.0
 40
0.0
 40
0.0
 40
0.0
 40
0.2481655321
 40
0.4999968063
 40
0.7518254935
 40
1.0
 40
1.0
 40
1.0
 40
1.0
 10
22.8650075502
 20
94.1469046568
 30
0.0
 10
22.9028959085
 20
94.1504879989
 30
0.0
 10
22.9814890065
 20
94.1456601119
 30
0.0
 10
23.0865679023
 20
94.0865604746
 30
0.0
 10
23.1456431893
 20
93.9814778612
 30
0.0
 10
23.150498114
 20
93.9028834681
 30
0.0
 10
23.1469037834
 20
93.8649947682
 30
0.0
 11
22.8650075502
 21
94.1469046568
 31
0.0
 11
22.9787668542
 21
94.1372024366
 31
0.0
 11
23.0788634277
 21
94.0788592188
 31
0.0
 11
23.1371958447
 21
93.9787577282
 31
0.0
 11
23.1469037834
 21
93.8649947682
 31
0.0
  0
SPLINE
  5
508
100
AcDbEntity
  8
RACCORDO
100
AcDbSpline
 62
253
  6
CONTINUOUS
 70
0
 71
3
 72
11
 73
7
 74
5
 42
0.0000001
 43
0.0000001
 44
0.0000000001
 12
0.0082756578
 22
0.445261122
 32
0.0
 13
-0.4452533212
 23
-0.0086852307
 33
0.0
 40
0.0
 40
0.0
 40
0.0
 40
0.0
 40
0.2501115952
 40
0.4999997138
 40
0.7498866439
 40
1.0
 40
1.0
 40
1.0
 40
1.0
 10
22.6271810694
 20
93.3453066683
 30
0.0
 10
22.6278710154
 20
93.3824283248
 30
0.0
 10
22.616235605
 20
93.4578321917
 30
0.0
 10
22.5547871486
 20
93.5548147609
 30
0.0
 10
22.4577998135
 20
93.6162243455
 30
0.0
 10
22.3823945226
 20
93.6279051379
 30
0.0
 10
22.3452732551
 20
93.6271810405
 30
0.0
 11
22.6271810694
 21
93.3453066683
 31
0.0
 11
22.608889748
 21
93.4551787222
 31
0.0
 11
22.5488656844
 21
93.5488878032
 31
0.0
 11
22.4551471771
 21
93.6088961663
 31
0.0
 11
22.3452732551
 21
93.6271810405
 31
0.0
  0
SPLINE
  5
509
100
AcDbEntity
  8
RACCORDO
100
AcDbSpline
 62
253
  6
CONTINUOUS
 70
0
 71
3
 72
11
 73
7
 74
5
 42
0.0000001
 43
0.0000001
 44
0.0000000001
 12
-0.0285988121
 22
0.4317179711
 32
0.0
 13
-0.4317195567
 23
0.0285748665
 33
0.0
 40
0.0
 40
0.0
 40
0.0
 40
0.0
 40
0.2444838109
 40
0.499998308
 40
0.755509181
 40
1.0
 40
1.0
 40
1.0
 40
1.0
 10
22.597966737
 20
93.3160589508
 30
0.0
 10
22.5956360882
 20
93.3512416357
 30
0.0
 10
22.5778052196
 20
93.4229363311
 30
0.0
 10
22.5146028749
 20
93.5146013759
 30
0.0
 10
22.4229382297
 20
93.5778051046
 30
0.0
 10
22.3512427734
 20
93.5956379728
 30
0.0
 10
22.3160589508
 20
93.597966737
 30
0.0
 11
22.597966737
 21
93.3160589508
 31
0.0
 11
22.5724612152
 21
93.418717353
 31
0.0
 11
22.509789682
 21
93.5097888495
 31
0.0
 11
22.4187203731
 21
93.5724607955
 31
0.0
 11
22.3160589508
 21
93.597966737
 31
0.0
  0
SPLINE
  5
50A
100
AcDbEntity
  8
RACCORDO
100
AcDbSpline
 62
253
  6
CONTINUOUS
 70
0
 71
3
 72
11
 73
7
 74
5
 42
0.0000001
 43
0.0000001
 44
0.0000000001
 12
-0.0000498599
 22
-0.6210287275
 32
0.0
 13
-0.6210287244
 23
-0.0000791702
 33
0.0
 40
0.0
 40
0.0
 40
0.0
 40
0.0
 40
0.2500058224
 40
0.5000008131
 40
0.7499857999
 40
1.0
 40
1.0
 40
1.0
 40
1.0
 10
25.9929722756
 20
45.4069668024
 30
0.0
 10
25.9929681205
 20
45.3552132032
 30
0.0
 10
25.9723791901
 20
45.2506040401
 30
0.0
 10
25.8842594741
 20
45.1180311294
 30
0.0
 10
25.7524601032
 20
45.0291199741
 30
0.0
 10
25.6480176665
 20
45.0070343223
 30
0.0
 10
25.5962623332
 20
45.0070277244
 30
0.0
 11
25.9929722756
 21
45.4069668024
 31
0.0
 11
25.9628386421
 21
45.254658301
 31
0.0
 11
25.8769784639
 21
45.1253066234
 31
0.0
 11
25.7483218086
 21
45.0384195548
 31
0.0
 11
25.5962623332
 21
45.0070277244
 31
0.0
  0
SPLINE
  5
50B
100
AcDbEntity
  8
RACCORDO
100
AcDbSpline
 62
253
  6
CONTINUOUS
 70
0
 71
3
 72
11
 73
7
 74
5
 42
0.0000001
 43
0.0000001
 44
0.0000000001
 12
0.043317967
 22
-0.4580212004
 32
0.0
 13
-0.4580087668
 23
0.0434492328
 33
0.0
 40
0.0
 40
0.0
 40
0.0
 40
0.0
 40
0.2481655321
 40
0.4999968063
 40
0.7518254935
 40
1.0
 40
1.0
 40
1.0
 40
1.0
 10
23.1469046568
 20
48.1349924498
 30
0.0
 10
23.1504879989
 20
48.0971040915
 30
0.0
 10
23.1456601119
 20
48.0185109935
 30
0.0
 10
23.0865604746
 20
47.9134320977
 30
0.0
 10
22.9814778612
 20
47.8543568107
 30
0.0
 10
22.9028834681
 20
47.849501886
 30
0.0
 10
22.8649947682
 20
47.8530962166
 30
0.0
 11
23.1469046568
 21
48.1349924498
 31
0.0
 11
23.1372024366
 21
48.0212331458
 31
0.0
 11
23.0788592188
 21
47.9211365723
 31
0.0
 11
22.9787577282
 21
47.8628041553
 31
0.0
 11
22.8649947682
 21
47.8530962166
 31
0.0
  0
SPLINE
  5
50C
100
AcDbEntity
  8
RACCORDO
100
AcDbSpline
 62
253
  6
CONTINUOUS
 70
0
 71
3
 72
11
 73
7
 74
5
 42
0.0000001
 43
0.0000001
 44
0.0000000001
 12
0.445261122
 22
-0.0082756578
 32
0.0
 13
-0.0086852307
 23
0.4452533212
 33
0.0
 40
0.0
 40
0.0
 40
0.0
 40
0.0
 40
0.2501115952
 40
0.4999997138
 40
0.7498866439
 40
1.0
 40
1.0
 40
1.0
 40
1.0
 10
22.3453066683
 20
48.3728189306
 30
0.0
 10
22.3824283248
 20
48.3721289846
 30
0.0
 10
22.4578321917
 20
48.383764395
 30
0.0
 10
22.5548147609
 20
48.4452128514
 30
0.0
 10
22.6162243455
 20
48.5422001865
 30
0.0
 10
22.6279051379
 20
48.6176054774
 30
0.0
 10
22.6271810405
 20
48.6547267449
 30
0.0
 11
22.3453066683
 21
48.3728189306
 31
0.0
 11
22.4551787222
 21
48.391110252
 31
0.0
 11
22.5488878032
 21
48.4511343156
 31
0.0
 11
22.6088961663
 21
48.5448528229
 31
0.0
 11
22.6271810405
 21
48.6547267449
 31
0.0
  0
SPLINE
  5
50D
100
AcDbEntity
  8
RACCORDO
100
AcDbSpline
 62
253
  6
CONTINUOUS
 70
0
 71
3
 72
11
 73
7
 74
5
 42
0.0000001
 43
0.0000001
 44
0.0000000001
 12
0.4317179711
 22
0.0285988121
 32
0.0
 13
0.0285748665
 23
0.4317195567
 33
0.0
 40
0.0
 40
0.0
 40
0.0
 40
0.0
 40
0.2444838109
 40
0.499998308
 40
0.755509181
 40
1.0
 40
1.0
 40
1.0
 40
1.0
 10
22.3160589508
 20
48.402033263
 30
0.0
 10
22.3512416357
 20
48.4043639118
 30
0.0
 10
22.4229363311
 20
48.4221947804
 30
0.0
 10
22.5146013759
 20
48.4853971251
 30
0.0
 10
22.5778051046
 20
48.5770617703
 30
0.0
 10
22.5956379728
 20
48.6487572266
 30
0.0
 10
22.597966737
 20
48.6839410492
 30
0.0
 11
22.3160589508
 21
48.402033263
 31
0.0
 11
22.418717353
 21
48.4275387848
 31
0.0
 11
22.5097888495
 21
48.490210318
 31
0.0
 11
22.5724607955
 21
48.5812796269
 31
0.0
 11
22.597966737
 21
48.6839410492
 31
0.0
  0
SPLINE
  5
50E
100
AcDbEntity
  8
RACCORDO
100
AcDbSpline
 62
253
  6
CONTINUOUS
 70
0
 71
3
 72
11
 73
7
 74
5
 42
0.0000001
 43
0.0000001
 44
0.0000000001
 12
-0.431719563
 22
-0.0285747494
 32
0.0
 13
-0.0285985182
 23
-0.4317179891
 33
0.0
 40
0.0
 40
0.0
 40
0.0
 40
0.0
 40
0.2444907312
 40
0.5000016615
 40
0.7555160952
 40
1.0
 40
1.0
 40
1.0
 40
1.0
 10
-22.3160589508
 20
93.597966737
 30
0.0
 10
-22.3512427613
 20
93.5956379832
 30
0.0
 10
-22.4229382061
 20
93.5778050907
 30
0.0
 10
-22.5146028582
 20
93.5146014
 30
0.0
 10
-22.5778052094
 20
93.4229363497
 30
0.0
 10
-22.5956361112
 20
93.3512416507
 30
0.0
 10
-22.597966737
 20
93.3160589508
 30
0.0
 11
-22.3160589508
 21
93.597966737
 31
0.0
 11
-22.4187203351
 21
93.5724608019
 31
0.0
 11
-22.5097896745
 21
93.509788857
 31
0.0
 11
-22.5724612039
 21
93.4187173917
 31
0.0
 11
-22.597966737
 21
93.3160589508
 31
0.0
  0
SPLINE
  5
50F
100
AcDbEntity
  8
RACCORDO
100
AcDbSpline
 62
253
  6
CONTINUOUS
 70
0
 71
3
 72
11
 73
7
 74
5
 42
0.0000001
 43
0.0000001
 44
0.0000000001
 12
-0.6210287368
 22
0.0000498599
 32
0.0
 13
-0.0000791702
 23
0.6210287338
 33
0.0
 40
0.0
 40
0.0
 40
0.0
 40
0.0
 40
0.2500058224
 40
0.5000008131
 40
0.7499857999
 40
1.0
 40
1.0
 40
1.0
 40
1.0
 10
-25.5930331976
 20
45.0070277244
 30
0.0
 10
-25.6447867976
 20
45.0070318795
 30
0.0
 10
-25.7493959624
 20
45.0276208105
 30
0.0
 10
-25.8819688741
 20
45.1157405292
 30
0.0
 10
-25.9708800297
 20
45.2475399034
 30
0.0
 10
-25.9929656777
 20
45.3519823423
 30
0.0
 10
-25.9929722756
 20
45.4037376763
 30
0.0
 11
-25.5930331976
 21
45.0070277244
 31
0.0
 11
-25.7453417012
 21
45.0371613588
 31
0.0
 11
-25.87469338
 21
45.1230215394
 31
0.0
 11
-25.961580448
 21
45.251678198
 31
0.0
 11
-25.9929722756
 21
45.4037376763
 31
0.0
  0
SPLINE
  5
510
100
AcDbEntity
  8
RACCORDO
100
AcDbSpline
 62
253
  6
CONTINUOUS
 70
0
 71
3
 72
11
 73
7
 74
5
 42
0.0000001
 43
0.0000001
 44
0.0000000001
 12
-0.0434494719
 22
0.4580087334
 32
0.0
 13
0.4580211454
 23
-0.0433184355
 33
0.0
 40
0.0
 40
0.0
 40
0.0
 40
0.0
 40
0.248174496
 40
0.5000031929
 40
0.7518344432
 40
1.0
 40
1.0
 40
1.0
 40
1.0
 10
-23.1469037748
 20
93.8649946425
 30
0.0
 10
-23.1504981251
 20
93.902883338
 30
0.0
 10
-23.1456432288
 20
93.9814777273
 30
0.0
 10
-23.0865680095
 20
94.0865603815
 30
0.0
 10
-22.9814891423
 20
94.1456600273
 30
0.0
 10
-22.9028960419
 20
94.1504880472
 30
0.0
 10
-22.8650076844
 20
94.146904666
 30
0.0
 11
-23.1469037748
 21
93.8649946425
 31
0.0
 11
-23.1371958886
 21
93.9787575994
 31
0.0
 11
-23.0788635255
 21
94.0788591235
 31
0.0
 11
-22.9787669917
 21
94.1372023823
 31
0.0
 11
-22.8650076844
 21
94.146904666
 31
0.0
  0
SPLINE
  5
511
100
AcDbEntity
  8
RACCORDO
100
AcDbSpline
 62
253
  6
CONTINUOUS
 70
0
 71
3
 72
11
 73
7
 74
5
 42
0.0000001
 43
0.0000001
 44
0.0000000001
 12
-0.4452532521
 22
0.0086830778
 32
0.0
 13
0.0082773346
 23
-0.4452609797
 33
0.0
 40
0.0
 40
0.0
 40
0.0
 40
0.0
 40
0.2501133591
 40
0.5000002957
 40
0.749888392
 40
1.0
 40
1.0
 40
1.0
 40
1.0
 10
-22.345273254
 20
93.6271810405
 30
0.0
 10
-22.3823945162
 20
93.6279049584
 30
0.0
 10
-22.4577997806
 20
93.6162244525
 30
0.0
 10
-22.5547871256
 20
93.5548147788
 30
0.0
 10
-22.6162354615
 20
93.4578322676
 30
0.0
 10
-22.6278711553
 20
93.3824284227
 30
0.0
 10
-22.6271810695
 20
93.3453067761
 30
0.0
 11
-22.345273254
 21
93.6271810405
 31
0.0
 11
-22.4551471526
 21
93.6088961867
 31
0.0
 11
-22.5488656427
 21
93.5488878429
 31
0.0
 11
-22.6088896937
 21
93.4551787986
 31
0.0
 11
-22.6271810695
 21
93.3453067761
 31
0.0
  0
SPLINE
  5
512
100
AcDbEntity
  8
RACCORDO
100
AcDbSpline
 62
253
  6
CONTINUOUS
 70
0
 71
3
 72
11
 73
7
 74
5
 42
0.0000001
 43
0.0000001
 44
0.0000000001
 12
-0.4580212004
 22
-0.043317967
 32
0.0
 13
0.0434492328
 23
0.4580087668
 33
0.0
 40
0.0
 40
0.0
 40
0.0
 40
0.0
 40
0.2481655321
 40
0.4999968063
 40
0.7518254935
 40
1.0
 40
1.0
 40
1.0
 40
1.0
 10
-22.8650075502
 20
47.8530953432
 30
0.0
 10
-22.9028959085
 20
47.8495120011
 30
0.0
 10
-22.9814890065
 20
47.8543398881
 30
0.0
 10
-23.0865679023
 20
47.9134395254
 30
0.0
 10
-23.1456431893
 20
48.0185221388
 30
0.0
 10
-23.150498114
 20
48.0971165319
 30
0.0
 10
-23.1469037834
 20
48.1350052318
 30
0.0
 11
-22.8650075502
 21
47.8530953432
 31
0.0
 11
-22.9787668542
 21
47.8627975634
 31
0.0
 11
-23.0788634277
 21
47.9211407812
 31
0.0
 11
-23.1371958447
 21
48.0212422718
 31
0.0
 11
-23.1469037834
 21
48.1350052318
 31
0.0
  0
SPLINE
  5
513
100
AcDbEntity
  8
RACCORDO
100
AcDbSpline
 62
253
  6
CONTINUOUS
 70
0
 71
3
 72
11
 73
7
 74
5
 42
0.0000001
 43
0.0000001
 44
0.0000000001
 12
-0.0082756578
 22
-0.445261122
 32
0.0
 13
0.4452533212
 23
0.0086852307
 33
0.0
 40
0.0
 40
0.0
 40
0.0
 40
0.0
 40
0.2501115952
 40
0.4999997138
 40
0.7498866439
 40
1.0
 40
1.0
 40
1.0
 40
1.0
 10
-22.6271810694
 20
48.6546933317
 30
0.0
 10
-22.6278710154
 20
48.6175716752
 30
0.0
 10
-22.616235605
 20
48.5421678083
 30
0.0
 10
-22.5547871486
 20
48.4451852391
 30
0.0
 10
-22.4577998135
 20
48.3837756545
 30
0.0
 10
-22.3823945226
 20
48.3720948621
 30
0.0
 10
-22.3452732551
 20
48.3728189595
 30
0.0
 11
-22.6271810694
 21
48.6546933317
 31
0.0
 11
-22.608889748
 21
48.5448212778
 31
0.0
 11
-22.5488656844
 21
48.4511121968
 31
0.0
 11
-22.4551471771
 21
48.3911038337
 31
0.0
 11
-22.3452732551
 21
48.3728189595
 31
0.0
  0
SPLINE
  5
514
100
AcDbEntity
  8
RACCORDO
100
AcDbSpline
 62
253
  6
CONTINUOUS
 70
0
 71
3
 72
11
 73
7
 74
5
 42
0.0000001
 43
0.0000001
 44
0.0000000001
 12
0.0285988121
 22
-0.4317179711
 32
0.0
 13
0.4317195567
 23
-0.0285748665
 33
0.0
 40
0.0
 40
0.0
 40
0.0
 40
0.0
 40
0.2444838109
 40
0.499998308
 40
0.755509181
 40
1.0
 40
1.0
 40
1.0
 40
1.0
 10
-22.597966737
 20
48.6839410492
 30
0.0
 10
-22.5956360882
 20
48.6487583643
 30
0.0
 10
-22.5778052196
 20
48.5770636689
 30
0.0
 10
-22.5146028749
 20
48.4853986241
 30
0.0
 10
-22.4229382297
 20
48.4221948954
 30
0.0
 10
-22.3512427734
 20
48.4043620272
 30
0.0
 10
-22.3160589508
 20
48.402033263
 30
0.0
 11
-22.597966737
 21
48.6839410492
 31
0.0
 11
-22.5724612152
 21
48.581282647
 31
0.0
 11
-22.509789682
 21
48.4902111505
 31
0.0
 11
-22.4187203731
 21
48.4275392045
 31
0.0
 11
-22.3160589508
 21
48.402033263
 31
0.0
  0
SPLINE
  5
515
100
AcDbEntity
  8
RACCORDO
100
AcDbSpline
 62
253
  6
CONTINUOUS
 70
0
 71
3
 72
11
 73
7
 74
5
 42
0.0000001
 43
0.0000001
 44
0.0000000001
 12
0.0000157207
 22
-0.8843607793
 32
0.0
 13
-0.8843607788
 23
0.0000318597
 33
0.0
 40
0.0
 40
0.0
 40
0.0
 40
0.0
 40
0.2501538446
 40
0.5000000678
 40
0.7498449811
 40
1.0
 40
1.0
 40
1.0
 40
1.0
 10
23.4288116597
 20
48.1350039128
 30
0.0
 10
23.4288129706
 20
48.0612618298
 30
0.0
 10
23.4023630661
 20
47.9121093053
 30
0.0
 10
23.278634984
 20
47.7213674834
 30
0.0
 10
23.087882494
 20
47.5976797915
 30
0.0
 10
22.9387385164
 20
47.5711856837
 30
0.0
 10
22.8649960872
 20
47.5711883403
 30
0.0
 11
23.4288116597
 21
48.1350039128
 31
0.0
 11
23.3883164079
 21
47.9175155503
 31
0.0
 11
23.267468617
 21
47.7325383348
 31
0.0
 11
23.0824807916
 21
47.611708904
 31
0.0
 11
22.8649960872
 21
47.5711883403
 31
0.0
  0
SPLINE
  5
516
100
AcDbEntity
  8
RACCORDO
100
AcDbSpline
 62
253
  6
CONTINUOUS
 70
0
 71
3
 72
11
 73
7
 74
5
 42
0.0000001
 43
0.0000001
 44
0.0000000001
 12
0.8843607793
 22
0.0000157207
 32
0.0
 13
-0.0000318597
 23
-0.8843607788
 33
0.0
 40
0.0
 40
0.0
 40
0.0
 40
0.0
 40
0.2501538446
 40
0.5000000678
 40
0.7498449811
 40
1.0
 40
1.0
 40
1.0
 40
1.0
 10
22.8649960872
 20
94.4288116597
 30
0.0
 10
22.9387381702
 20
94.4288129706
 30
0.0
 10
23.0878906947
 20
94.4023630661
 30
0.0
 10
23.2786325166
 20
94.278634984
 30
0.0
 10
23.4023202085
 20
94.087882494
 30
0.0
 10
23.4288143163
 20
93.9387385164
 30
0.0
 10
23.4288116597
 20
93.8649960872
 30
0.0
 11
22.8649960872
 21
94.4288116597
 31
0.0
 11
23.0824844497
 21
94.3883164079
 31
0.0
 11
23.2674616652
 21
94.267468617
 31
0.0
 11
23.388291096
 21
94.0824807916
 31
0.0
 11
23.4288116597
 21
93.8649960872
 31
0.0
  0
SPLINE
  5
517
100
AcDbEntity
  8
RACCORDO
100
AcDbSpline
 62
253
  6
CONTINUOUS
 70
0
 71
3
 72
11
 73
7
 74
5
 42
0.0000001
 43
0.0000001
 44
0.0000000001
 12
-0.0000310851
 22
0.8843607931
 32
0.0
 13
0.8843607935
 23
-0.0000166958
 33
0.0
 40
0.0
 40
0.0
 40
0.0
 40
0.0
 40
0.2501550041
 40
0.4999999352
 40
0.7498461618
 40
1.0
 40
1.0
 40
1.0
 40
1.0
 10
-23.4288116597
 20
93.8649960872
 30
0.0
 10
-23.4288142517
 20
93.9387385132
 30
0.0
 10
-23.402320283
 20
94.0878825
 30
0.0
 10
-23.278632518
 20
94.278634999
 30
0.0
 10
-23.0878906963
 20
94.4023630202
 30
0.0
 10
-22.9387381695
 20
94.4288130519
 30
0.0
 10
-22.8649960872
 20
94.4288116597
 30
0.0
 11
-23.4288116597
 21
93.8649960872
 31
0.0
 11
-23.3882911272
 21
94.0824807877
 31
0.0
 11
-23.2674616758
 21
94.2674686227
 31
0.0
 11
-23.0824844471
 21
94.3883164055
 31
0.0
 11
-22.8649960872
 21
94.4288116597
 31
0.0
  0
SPLINE
  5
518
100
AcDbEntity
  8
RACCORDO
100
AcDbSpline
 62
253
  6
CONTINUOUS
 70
0
 71
3
 72
11
 73
7
 74
5
 42
0.0000001
 43
0.0000001
 44
0.0000000001
 12
-0.8843607793
 22
-0.0000157207
 32
0.0
 13
0.0000318597
 23
0.8843607788
 33
0.0
 40
0.0
 40
0.0
 40
0.0
 40
0.0
 40
0.2501538446
 40
0.5000000678
 40
0.7498449811
 40
1.0
 40
1.0
 40
1.0
 40
1.0
 10
-22.8649960872
 20
47.5711883403
 30
0.0
 10
-22.9387381702
 20
47.5711870294
 30
0.0
 10
-23.0878906947
 20
47.5976369339
 30
0.0
 10
-23.2786325166
 20
47.721365016
 30
0.0
 10
-23.4023202085
 20
47.912117506
 30
0.0
 10
-23.4288143163
 20
48.0612614836
 30
0.0
 10
-23.4288116597
 20
48.1350039128
 30
0.0
 11
-22.8649960872
 21
47.5711883403
 31
0.0
 11
-23.0824844497
 21
47.6116835921
 31
0.0
 11
-23.2674616652
 21
47.732531383
 31
0.0
 11
-23.388291096
 21
47.9175192084
 31
0.0
 11
-23.4288116597
 21
48.1350039128
 31
0.0
  0
SPLINE
  5
519
100
AcDbEntity
  8
RACCORDO
100
AcDbSpline
 62
253
  6
CONTINUOUS
 70
0
 71
3
 72
11
 73
7
 74
5
 42
0.0000001
 43
0.0000001
 44
0.0000000001
 12
0.0000498599
 22
0.6210287382
 32
0.0
 13
0.6210287352
 23
0.0000791702
 33
0.0
 40
0.0
 40
0.0
 40
0.0
 40
0.0
 40
0.2500058224
 40
0.5000008131
 40
0.7499857999
 40
1.0
 40
1.0
 40
1.0
 40
1.0
 10
-25.9929722756
 20
96.5930331976
 30
0.0
 10
-25.9929681205
 20
96.6447867977
 30
0.0
 10
-25.9723791894
 20
96.7493959627
 30
0.0
 10
-25.8842594704
 20
96.8819688746
 30
0.0
 10
-25.7524600956
 20
96.9708800303
 30
0.0
 10
-25.6480176564
 20
96.9929656777
 30
0.0
 10
-25.5962623223
 20
96.9929722756
 30
0.0
 11
-25.9929722756
 21
96.5930331976
 31
0.0
 11
-25.962838641
 21
96.7453417015
 31
0.0
 11
-25.8769784601
 21
96.8746933805
 31
0.0
 11
-25.7483218011
 21
96.9615804484
 31
0.0
 11
-25.5962623223
 21
96.9929722756
 31
0.0
  0
SPLINE
  5
51A
100
AcDbEntity
  8
RACCORDO
100
AcDbSpline
 62
253
  6
CONTINUOUS
 70
0
 71
3
 72
11
 73
7
 74
5
 42
0.0000001
 43
0.0000001
 44
0.0000000001
 12
0.6210287337
 22
-0.0000498599
 32
0.0
 13
0.0000791702
 23
-0.6210287307
 33
0.0
 40
0.0
 40
0.0
 40
0.0
 40
0.0
 40
0.2500058224
 40
0.5000008131
 40
0.7499857999
 40
1.0
 40
1.0
 40
1.0
 40
1.0
 10
25.5930331976
 20
96.9929722756
 30
0.0
 10
25.6447867973
 20
96.9929681205
 30
0.0
 10
25.7493959615
 20
96.9723791897
 30
0.0
 10
25.8819688729
 20
96.8842594719
 30
0.0
 10
25.9708800284
 20
96.7524600988
 30
0.0
 10
25.9929656777
 20
96.6480176606
 30
0.0
 10
25.9929722756
 20
96.5962623268
 30
0.0
 11
25.5930331976
 21
96.9929722756
 31
0.0
 11
25.7453417004
 21
96.9628386415
 31
0.0
 11
25.8746933789
 21
96.8769784617
 31
0.0
 11
25.9615804471
 21
96.7483218042
 31
0.0
 11
25.9929722756
 21
96.5962623268
 31
0.0
  0
SPLINE
  5
51B
100
AcDbEntity
  8
RACCORDO
100
AcDbSpline
 62
253
  6
CONTINUOUS
 70
0
 71
3
 72
23
 73
19
 74
17
 42
0.0000001
 43
0.0000001
 44
0.0000000001
 12
0.0052250696
 22
-0.6999442616
 32
0.0
 13
-0.6997738237
 23
-0.0163054114
 33
0.0
 40
0.0
 40
0.0
 40
0.0
 40
0.0
 40
0.1950458747
 40
0.3826397505
 40
0.555484779
 40
0.6343043597
 40
0.7070050217
 40
0.7729042947
 40
0.831352309
 40
0.8818043226
 40
0.9237617168
 40
0.9568261729
 40
0.969925046
 40
0.9806839856
 40
0.989079053
 40
0.9950984995
 40
0.9987336937
 40
1.0
 40
1.0
 40
1.0
 40
1.0
 10
96.3985814479
 20
-25.5930331976
 30
0.0
 10
96.3989211573
 20
-25.6385402778
 30
0.0
 10
96.3995248402
 20
-25.72781626
 30
0.0
 10
96.4002063093
 20
-25.8574209279
 30
0.0
 10
96.4005727699
 20
-25.9599086647
 30
0.0
 10
96.4007222445
 20
-26.0355898765
 30
0.0
 10
96.4007604966
 20
-26.0863183854
 30
0.0
 10
96.4007292993
 20
-26.1322941456
 30
0.0
 10
96.4006279693
 20
-26.1730775776
 30
0.0
 10
96.4004615423
 20
-26.2082780403
 30
0.0
 10
96.4002249729
 20
-26.2375456084
 30
0.0
 10
96.3999758776
 20
-26.2581215069
 30
0.0
 10
96.3997095398
 20
-26.2713742515
 30
0.0
 10
96.3995487277
 20
-26.278952343
 30
0.0
 10
96.3992764602
 20
-26.2846796277
 30
0.0
 10
96.3992339297
 20
-26.2892112635
 30
0.0
 10
96.3987428167
 20
-26.2911757265
 30
0.0
 10
96.3988768239
 20
-26.2929197016
 30
0.0
 10
96.3985814479
 20
-26.2929265842
 30
0.0
 11
96.3985814479
 21
-25.5930331976
 31
0.0
 11
96.3995017119
 21
-25.7295551405
 31
0.0
 11
96.4001860785
 21
-25.8608622725
 31
0.0
 11
96.40060688
 21
-25.9818467974
 31
0.0
 11
96.4007133836
 21
-26.037017545
 31
0.0
 11
96.4007489465
 21
-26.0879053615
 31
0.0
 11
96.4007134036
 21
-26.134032451
 31
0.0
 11
96.4006069116
 21
-26.1749438045
 31
0.0
 11
96.4004306254
 21
-26.2102579458
 31
0.0
 11
96.400186117
 21
-26.2396255836
 31
0.0
 11
96.3998755748
 21
-26.2627674212
 31
0.0
 11
96.3996963834
 21
-26.2719344065
 31
0.0
 11
96.3995017106
 21
-26.2794627578
 31
0.0
 11
96.3992921268
 21
-26.2853352621
 31
0.0
 11
96.3990683838
 21
-26.2895427116
 31
0.0
 11
96.3988312384
 21
-26.2920761409
 31
0.0
 11
96.3985814479
 21
-26.2929265842
 31
0.0
  0
SPLINE
  5
51C
100
AcDbEntity
  8
RACCORDO
100
AcDbSpline
 62
253
  6
CONTINUOUS
 70
0
 71
3
 72
23
 73
19
 74
17
 42
0.0000001
 43
0.0000001
 44
0.0000000001
 12
0.699723268
 22
-0.0183467323
 32
0.0
 13
-0.0052239514
 23
-0.6999442583
 33
0.0
 40
0.0
 40
0.0
 40
0.0
 40
0.0
 40
0.0012669938
 40
0.0049023045
 40
0.010921506
 40
0.0193161922
 40
0.0300748356
 40
0.0431735956
 40
0.0762381591
 40
0.1181957108
 40
0.1686477238
 40
0.2270956894
 40
0.2929949544
 40
0.3656956318
 40
0.4445152214
 40
0.6173602503
 40
0.8049541264
 40
1.0
 40
1.0
 40
1.0
 40
1.0
 10
96.3985814479
 20
26.2929265842
 30
0.0
 10
96.3988769629
 20
26.2929188358
 30
0.0
 10
96.3987427289
 20
26.2911765041
 30
0.0
 10
96.3992340151
 20
26.289210021
 30
0.0
 10
96.3992764612
 20
26.284679607
 30
0.0
 10
96.3995487363
 20
26.27895205
 30
0.0
 10
96.3997095158
 20
26.2713743294
 30
0.0
 10
96.399975844
 20
26.2581215675
 30
0.0
 10
96.400224932
 20
26.2375456905
 30
0.0
 10
96.4004615066
 20
26.2082780369
 30
0.0
 10
96.4006279367
 20
26.1730775582
 30
0.0
 10
96.4007292786
 20
26.1322941374
 30
0.0
 10
96.4007604978
 20
26.0863183885
 30
0.0
 10
96.4007222672
 20
26.0355898764
 30
0.0
 10
96.4005728058
 20
25.9599086601
 30
0.0
 10
96.4002063546
 20
25.8574209227
 30
0.0
 10
96.399524854
 20
25.7278162572
 30
0.0
 10
96.3989210846
 20
25.6385402773
 30
0.0
 10
96.3985814479
 20
25.5930331976
 30
0.0
 11
96.3985814479
 21
26.2929265842
 31
0.0
 11
96.3988312739
 21
26.2920756498
 31
0.0
 11
96.3990684237
 21
26.2895421391
 31
0.0
 11
96.3992921516
 21
26.2853348605
 31
0.0
 11
96.3995017119
 21
26.2794626225
 31
0.0
 11
96.3996963642
 21
26.2719344782
 31
0.0
 11
96.3998755434
 21
26.262767572
 31
0.0
 11
96.4001860785
 21
26.2396256594
 31
0.0
 11
96.4004305892
 21
26.210257912
 31
0.0
 11
96.40060688
 21
26.1749437717
 31
0.0
 11
96.4007133836
 21
26.134032453
 31
0.0
 11
96.4007489465
 21
26.0879053699
 31
0.0
 11
96.4007134036
 21
26.0370175434
 31
0.0
 11
96.4006069116
 21
25.9818467905
 31
0.0
 11
96.400186117
 21
25.8608622673
 31
0.0
 11
96.3995017106
 21
25.7295551375
 31
0.0
 11
96.3985814479
 21
25.5930331976
 31
0.0
  0
SPLINE
  5
51D
100
AcDbEntity
  8
RACCORDO
100
AcDbSpline
 62
253
  6
CONTINUOUS
 70
0
 71
3
 72
23
 73
19
 74
17
 42
0.0000001
 43
0.0000001
 44
0.0000000001
 12
0.0052250696
 22
-0.6999442616
 32
0.0
 13
-0.6997738236
 23
-0.0163054114
 33
0.0
 40
0.0
 40
0.0
 40
0.0
 40
0.0
 40
0.1950458747
 40
0.3826397505
 40
0.555484779
 40
0.6343043597
 40
0.7070050217
 40
0.7729042947
 40
0.831352309
 40
0.8818043226
 40
0.9237617168
 40
0.9568261729
 40
0.969925046
 40
0.9806839856
 40
0.989079053
 40
0.9950984995
 40
0.9987336937
 40
1.0
 40
1.0
 40
1.0
 40
1.0
 10
96.3985814479
 20
45.4069668024
 30
0.0
 10
96.3989211573
 20
45.3614597222
 30
0.0
 10
96.3995248402
 20
45.27218374
 30
0.0
 10
96.4002063093
 20
45.1425790721
 30
0.0
 10
96.4005727699
 20
45.0400913353
 30
0.0
 10
96.4007222445
 20
44.9644101235
 30
0.0
 10
96.4007604966
 20
44.9136816146
 30
0.0
 10
96.4007292993
 20
44.8677058544
 30
0.0
 10
96.4006279693
 20
44.8269224224
 30
0.0
 10
96.4004615423
 20
44.7917219597
 30
0.0
 10
96.4002249729
 20
44.7624543916
 30
0.0
 10
96.3999758776
 20
44.7418784931
 30
0.0
 10
96.3997095398
 20
44.7286257485
 30
0.0
 10
96.3995487277
 20
44.721047657
 30
0.0
 10
96.3992764602
 20
44.7153203723
 30
0.0
 10
96.3992339297
 20
44.7107887365
 30
0.0
 10
96.3987428167
 20
44.7088242735
 30
0.0
 10
96.3988768239
 20
44.7070802984
 30
0.0
 10
96.3985814479
 20
44.7070734158
 30
0.0
 11
96.3985814479
 21
45.4069668024
 31
0.0
 11
96.3995017119
 21
45.2704448595
 31
0.0
 11
96.4001860785
 21
45.1391377275
 31
0.0
 11
96.40060688
 21
45.0181532026
 31
0.0
 11
96.4007133836
 21
44.962982455
 31
0.0
 11
96.4007489465
 21
44.9120946385
 31
0.0
 11
96.4007134036
 21
44.865967549
 31
0.0
 11
96.4006069116
 21
44.8250561955
 31
0.0
 11
96.4004306254
 21
44.7897420542
 31
0.0
 11
96.400186117
 21
44.7603744164
 31
0.0
 11
96.3998755748
 21
44.7372325788
 31
0.0
 11
96.3996963834
 21
44.7280655935
 31
0.0
 11
96.3995017106
 21
44.7205372422
 31
0.0
 11
96.3992921268
 21
44.7146647379
 31
0.0
 11
96.3990683838
 21
44.7104572884
 31
0.0
 11
96.3988312384
 21
44.7079238591
 31
0.0
 11
96.3985814479
 21
44.7070734158
 31
0.0
  0
SPLINE
  5
51E
100
AcDbEntity
  8
RACCORDO
100
AcDbSpline
 62
253
  6
CONTINUOUS
 70
0
 71
3
 72
23
 73
19
 74
17
 42
0.0000001
 43
0.0000001
 44
0.0000000001
 12
0.699723268
 22
-0.0183467323
 32
0.0
 13
-0.0052239514
 23
-0.6999442583
 33
0.0
 40
0.0
 40
0.0
 40
0.0
 40
0.0
 40
0.0012669938
 40
0.0049023045
 40
0.010921506
 40
0.0193161922
 40
0.0300748356
 40
0.0431735956
 40
0.0762381591
 40
0.1181957108
 40
0.1686477238
 40
0.2270956894
 40
0.2929949544
 40
0.3656956318
 40
0.4445152214
 40
0.6173602503
 40
0.8049541264
 40
1.0
 40
1.0
 40
1.0
 40
1.0
 10
96.3985814479
 20
97.2929265842
 30
0.0
 10
96.3988769629
 20
97.2929188358
 30
0.0
 10
96.3987427289
 20
97.2911765041
 30
0.0
 10
96.3992340151
 20
97.289210021
 30
0.0
 10
96.3992764612
 20
97.284679607
 30
0.0
 10
96.3995487363
 20
97.27895205
 30
0.0
 10
96.3997095158
 20
97.2713743294
 30
0.0
 10
96.399975844
 20
97.2581215675
 30
0.0
 10
96.400224932
 20
97.2375456905
 30
0.0
 10
96.4004615066
 20
97.2082780369
 30
0.0
 10
96.4006279367
 20
97.1730775582
 30
0.0
 10
96.4007292786
 20
97.1322941374
 30
0.0
 10
96.4007604978
 20
97.0863183885
 30
0.0
 10
96.4007222672
 20
97.0355898764
 30
0.0
 10
96.4005728058
 20
96.9599086601
 30
0.0
 10
96.4002063546
 20
96.8574209227
 30
0.0
 10
96.399524854
 20
96.7278162572
 30
0.0
 10
96.3989210846
 20
96.6385402773
 30
0.0
 10
96.3985814479
 20
96.5930331976
 30
0.0
 11
96.3985814479
 21
97.2929265842
 31
0.0
 11
96.3988312739
 21
97.2920756498
 31
0.0
 11
96.3990684237
 21
97.2895421391
 31
0.0
 11
96.3992921516
 21
97.2853348605
 31
0.0
 11
96.3995017119
 21
97.2794626225
 31
0.0
 11
96.3996963642
 21
97.2719344782
 31
0.0
 11
96.3998755434
 21
97.262767572
 31
0.0
 11
96.4001860785
 21
97.2396256594
 31
0.0
 11
96.4004305892
 21
97.210257912
 31
0.0
 11
96.40060688
 21
97.1749437717
 31
0.0
 11
96.4007133836
 21
97.134032453
 31
0.0
 11
96.4007489465
 21
97.0879053699
 31
0.0
 11
96.4007134036
 21
97.0370175434
 31
0.0
 11
96.4006069116
 21
96.9818467905
 31
0.0
 11
96.400186117
 21
96.8608622673
 31
0.0
 11
96.3995017106
 21
96.7295551375
 31
0.0
 11
96.3985814479
 21
96.5930331976
 31
0.0
  0
SPLINE
  5
51F
100
AcDbEntity
  8
RACCORDO
100
AcDbSpline
 62
253
  6
CONTINUOUS
 70
0
 71
3
 72
23
 73
19
 74
17
 42
0.0000001
 43
0.0000001
 44
0.0000000001
 12
0.0052250696
 22
-0.6999442616
 32
0.0
 13
-0.6997738236
 23
-0.0163054113
 33
0.0
 40
0.0
 40
0.0
 40
0.0
 40
0.0
 40
0.1950458747
 40
0.3826397505
 40
0.555484779
 40
0.6343043597
 40
0.7070050217
 40
0.7729042947
 40
0.831352309
 40
0.8818043226
 40
0.9237617168
 40
0.9568261729
 40
0.969925046
 40
0.9806839856
 40
0.989079053
 40
0.9950984995
 40
0.9987336937
 40
1.0
 40
1.0
 40
1.0
 40
1.0
 10
96.3985814479
 20
-96.5930331976
 30
0.0
 10
96.3989211573
 20
-96.6385402778
 30
0.0
 10
96.3995248402
 20
-96.72781626
 30
0.0
 10
96.4002063093
 20
-96.8574209279
 30
0.0
 10
96.4005727699
 20
-96.9599086647
 30
0.0
 10
96.4007222445
 20
-97.0355898765
 30
0.0
 10
96.4007604966
 20
-97.0863183854
 30
0.0
 10
96.4007292993
 20
-97.1322941456
 30
0.0
 10
96.4006279693
 20
-97.1730775776
 30
0.0
 10
96.4004615423
 20
-97.2082780403
 30
0.0
 10
96.4002249729
 20
-97.2375456084
 30
0.0
 10
96.3999758776
 20
-97.2581215069
 30
0.0
 10
96.3997095398
 20
-97.2713742515
 30
0.0
 10
96.3995487277
 20
-97.278952343
 30
0.0
 10
96.3992764602
 20
-97.2846796277
 30
0.0
 10
96.3992339297
 20
-97.2892112635
 30
0.0
 10
96.3987428167
 20
-97.2911757265
 30
0.0
 10
96.3988768239
 20
-97.2929197016
 30
0.0
 10
96.3985814479
 20
-97.2929265842
 30
0.0
 11
96.3985814479
 21
-96.5930331976
 31
0.0
 11
96.3995017119
 21
-96.7295551405
 31
0.0
 11
96.4001860785
 21
-96.8608622725
 31
0.0
 11
96.40060688
 21
-96.9818467974
 31
0.0
 11
96.4007133836
 21
-97.037017545
 31
0.0
 11
96.4007489465
 21
-97.0879053615
 31
0.0
 11
96.4007134036
 21
-97.134032451
 31
0.0
 11
96.4006069116
 21
-97.1749438045
 31
0.0
 11
96.4004306254
 21
-97.2102579458
 31
0.0
 11
96.400186117
 21
-97.2396255836
 31
0.0
 11
96.3998755748
 21
-97.2627674212
 31
0.0
 11
96.3996963834
 21
-97.2719344065
 31
0.0
 11
96.3995017106
 21
-97.2794627578
 31
0.0
 11
96.3992921268
 21
-97.2853352621
 31
0.0
 11
96.3990683838
 21
-97.2895427116
 31
0.0
 11
96.3988312384
 21
-97.2920761409
 31
0.0
 11
96.3985814479
 21
-97.2929265842
 31
0.0
  0
SPLINE
  5
520
100
AcDbEntity
  8
RACCORDO
100
AcDbSpline
 62
253
  6
CONTINUOUS
 70
0
 71
3
 72
23
 73
19
 74
17
 42
0.0000001
 43
0.0000001
 44
0.0000000001
 12
0.699723268
 22
-0.0183467323
 32
0.0
 13
-0.0052239514
 23
-0.6999442583
 33
0.0
 40
0.0
 40
0.0
 40
0.0
 40
0.0
 40
0.0012669938
 40
0.0049023045
 40
0.010921506
 40
0.0193161922
 40
0.0300748356
 40
0.0431735956
 40
0.0762381591
 40
0.1181957108
 40
0.1686477238
 40
0.2270956894
 40
0.2929949544
 40
0.3656956318
 40
0.4445152214
 40
0.6173602503
 40
0.8049541264
 40
1.0
 40
1.0
 40
1.0
 40
1.0
 10
96.3985814479
 20
-44.7070734158
 30
0.0
 10
96.3988769629
 20
-44.7070811642
 30
0.0
 10
96.3987427289
 20
-44.7088234959
 30
0.0
 10
96.3992340151
 20
-44.710789979
 30
0.0
 10
96.3992764612
 20
-44.715320393
 30
0.0
 10
96.3995487363
 20
-44.72104795
 30
0.0
 10
96.3997095158
 20
-44.7286256706
 30
0.0
 10
96.399975844
 20
-44.7418784325
 30
0.0
 10
96.400224932
 20
-44.7624543095
 30
0.0
 10
96.4004615066
 20
-44.7917219631
 30
0.0
 10
96.4006279367
 20
-44.8269224418
 30
0.0
 10
96.4007292786
 20
-44.8677058626
 30
0.0
 10
96.4007604978
 20
-44.9136816115
 30
0.0
 10
96.4007222672
 20
-44.9644101236
 30
0.0
 10
96.4005728058
 20
-45.0400913399
 30
0.0
 10
96.4002063546
 20
-45.1425790773
 30
0.0
 10
96.399524854
 20
-45.2721837428
 30
0.0
 10
96.3989210846
 20
-45.3614597227
 30
0.0
 10
96.3985814479
 20
-45.4069668024
 30
0.0
 11
96.3985814479
 21
-44.7070734158
 31
0.0
 11
96.3988312739
 21
-44.7079243502
 31
0.0
 11
96.3990684237
 21
-44.7104578609
 31
0.0
 11
96.3992921516
 21
-44.7146651395
 31
0.0
 11
96.3995017119
 21
-44.7205373775
 31
0.0
 11
96.3996963642
 21
-44.7280655218
 31
0.0
 11
96.3998755434
 21
-44.737232428
 31
0.0
 11
96.4001860785
 21
-44.7603743406
 31
0.0
 11
96.4004305892
 21
-44.789742088
 31
0.0
 11
96.40060688
 21
-44.8250562283
 31
0.0
 11
96.4007133836
 21
-44.865967547
 31
0.0
 11
96.4007489465
 21
-44.9120946301
 31
0.0
 11
96.4007134036
 21
-44.9629824566
 31
0.0
 11
96.4006069116
 21
-45.0181532095
 31
0.0
 11
96.400186117
 21
-45.1391377327
 31
0.0
 11
96.3995017106
 21
-45.2704448625
 31
0.0
 11
96.3985814479
 21
-45.4069668024
 31
0.0
  0
LINE
  5
521
100
AcDbEntity
  8
0
100
AcDbLine
 62
7
  6
CONTINUOUS
 10
91.9433457259
 20
0.3559698331
 11
91.9933457266
 21
0.3556018787
  0
LINE
  5
522
100
AcDbEntity
  8
0
100
AcDbLine
 62
7
  6
CONTINUOUS
 10
91.9433457259
 20
-0.3559698331
 11
91.9933457266
 21
-0.3556018787
  0
LINE
  5
523
100
AcDbEntity
  8
0
100
AcDbLine
 62
7
  6
CONTINUOUS
 10
91.9433457259
 20
70.6440301669
 11
91.9933457266
 21
70.6443981213
  0
LINE
  5
524
100
AcDbEntity
  8
0
100
AcDbLine
 62
7
  6
CONTINUOUS
 10
91.9433457259
 20
71.3559698331
 11
91.9933457266
 21
71.3556018787
  0
LINE
  5
525
100
AcDbEntity
  8
0
100
AcDbLine
 62
7
  6
CONTINUOUS
 10
91.9433457259
 20
-71.3559698331
 11
91.9933457266
 21
-71.3556018787
  0
LINE
  5
526
100
AcDbEntity
  8
0
100
AcDbLine
 62
7
  6
CONTINUOUS
 10
91.9433457259
 20
-70.6440301669
 11
91.9933457266
 21
-70.6443981213
  0
ELLIPSE
  5
527
100
AcDbEntity
  8
RACCORDO
100
AcDbEllipse
 62
7
  6
CONTINUOUS
 10
22.2912267691
 20
-48.7087732309
 30
0.0
 11
-0.2121966568
 21
-0.2121966568
 31
0.0
 40
0.9996954599
 41
2.3563467834
 42
3.9268385237
  0
ELLIPSE
  5
528
100
AcDbEntity
  8
RACCORDO
100
AcDbEllipse
 62
7
  6
CONTINUOUS
 10
22.2912267691
 20
-93.2912267691
 30
0.0
 11
-0.2121966568
 21
0.2121966568
 31
0.0
 40
0.9996954599
 41
2.3563467834
 42
3.9268385237
  0
ELLIPSE
  5
529
100
AcDbEntity
  8
RACCORDO
100
AcDbEllipse
 62
7
  6
CONTINUOUS
 10
-22.2912267691
 20
-48.7087732309
 30
0.0
 11
-0.2121966568
 21
0.2121966568
 31
0.0
 40
0.9996954599
 41
-0.7852458701
 42
0.7852458701
  0
ELLIPSE
  5
52A
100
AcDbEntity
  8
RACCORDO
100
AcDbEllipse
 62
7
  6
CONTINUOUS
 10
-22.2912267691
 20
-93.2912267691
 30
0.0
 11
0.2121966568
 21
0.2121966568
 31
0.0
 40
0.9996954599
 41
2.3563467834
 42
3.9268385237
  0
ELLIPSE
  5
52B
100
AcDbEntity
  8
RACCORDO
100
AcDbEllipse
 62
7
  6
CONTINUOUS
 10
25.5998933704
 20
-45.4001066296
 30
0.0
 11
0.4951255324
 21
0.4951255324
 31
0.0
 40
0.9996954599
 41
-0.7852458701
 42
0.7852458702
  0
ELLIPSE
  5
52C
100
AcDbEntity
  8
RACCORDO
100
AcDbEllipse
 62
7
  6
CONTINUOUS
 10
25.5998933704
 20
-96.5998933704
 30
0.0
 11
0.4951255324
 21
-0.4951255324
 31
0.0
 40
0.9996954599
 41
-0.7852458702
 42
0.7852458701
  0
ELLIPSE
  5
52D
100
AcDbEntity
  8
RACCORDO
100
AcDbEllipse
 62
7
  6
CONTINUOUS
 10
-25.5998933704
 20
-96.5998933704
 30
0.0
 11
0.4951255324
 21
0.4951255324
 31
0.0
 40
0.9996954599
 41
2.3563467834
 42
3.9268385237
  0
ELLIPSE
  5
52E
100
AcDbEntity
  8
RACCORDO
100
AcDbEllipse
 62
7
  6
CONTINUOUS
 10
-25.5998933704
 20
-45.4001066296
 30
0.0
 11
-0.4951255324
 21
0.4951255324
 31
0.0
 40
0.9996954599
 41
-0.7852458701
 42
0.7852458702
  0
ELLIPSE
  5
52F
100
AcDbEntity
  8
RACCORDO
100
AcDbEllipse
 62
7
  6
CONTINUOUS
 10
22.2912267691
 20
22.2912267691
 30
0.0
 11
-0.2121966568
 21
-0.2121966568
 31
0.0
 40
0.9996954599
 41
2.3563467834
 42
3.9268385237
  0
ELLIPSE
  5
530
100
AcDbEntity
  8
RACCORDO
100
AcDbEllipse
 62
7
  6
CONTINUOUS
 10
22.2912267691
 20
-22.2912267691
 30
0.0
 11
-0.2121966568
 21
0.2121966568
 31
0.0
 40
0.9996954599
 41
2.3563467834
 42
3.9268385237
  0
ELLIPSE
  5
531
100
AcDbEntity
  8
RACCORDO
100
AcDbEllipse
 62
7
  6
CONTINUOUS
 10
-22.2912267691
 20
22.2912267691
 30
0.0
 11
-0.2121966568
 21
0.2121966568
 31
0.0
 40
0.9996954599
 41
-0.7852458701
 42
0.7852458701
  0
ELLIPSE
  5
532
100
AcDbEntity
  8
RACCORDO
100
AcDbEllipse
 62
7
  6
CONTINUOUS
 10
-22.2912267691
 20
-22.2912267691
 30
0.0
 11
0.2121966568
 21
0.2121966568
 31
0.0
 40
0.9996954599
 41
2.3563467834
 42
3.9268385237
  0
ELLIPSE
  5
533
100
AcDbEntity
  8
RACCORDO
100
AcDbEllipse
 62
7
  6
CONTINUOUS
 10
25.5998933704
 20
25.5998933704
 30
0.0
 11
0.4951255324
 21
0.4951255324
 31
0.0
 40
0.9996954599
 41
-0.7852458701
 42
0.7852458702
  0
ELLIPSE
  5
534
100
AcDbEntity
  8
RACCORDO
100
AcDbEllipse
 62
7
  6
CONTINUOUS
 10
25.5998933704
 20
-25.5998933704
 30
0.0
 11
0.4951255324
 21
-0.4951255324
 31
0.0
 40
0.9996954599
 41
-0.7852458702
 42
0.7852458701
  0
ELLIPSE
  5
535
100
AcDbEntity
  8
RACCORDO
100
AcDbEllipse
 62
7
  6
CONTINUOUS
 10
-25.5998933704
 20
-25.5998933704
 30
0.0
 11
0.4951255324
 21
0.4951255324
 31
0.0
 40
0.9996954599
 41
-3.9268385237
 42
-2.3563467834
  0
ELLIPSE
  5
536
100
AcDbEntity
  8
RACCORDO
100
AcDbEllipse
 62
7
  6
CONTINUOUS
 10
-25.5998933704
 20
25.5998933704
 30
0.0
 11
0.4951255324
 21
-0.4951255324
 31
0.0
 40
0.9996954599
 41
2.3563467834
 42
3.9268385237
  0
ELLIPSE
  5
537
100
AcDbEntity
  8
RACCORDO
100
AcDbEllipse
 62
7
  6
CONTINUOUS
 10
22.2912267691
 20
93.2912267691
 30
0.0
 11
-0.2121966568
 21
-0.2121966568
 31
0.0
 40
0.9996954599
 41
2.3563467834
 42
3.9268385237
  0
ELLIPSE
  5
538
100
AcDbEntity
  8
RACCORDO
100
AcDbEllipse
 62
7
  6
CONTINUOUS
 10
22.2912267691
 20
48.7087732309
 30
0.0
 11
-0.2121966568
 21
0.2121966568
 31
0.0
 40
0.9996954599
 41
2.3563467834
 42
3.9268385237
  0
ELLIPSE
  5
539
100
AcDbEntity
  8
RACCORDO
100
AcDbEllipse
 62
7
  6
CONTINUOUS
 10
-22.2912267691
 20
93.2912267691
 30
0.0
 11
-0.2121966568
 21
0.2121966568
 31
0.0
 40
0.9996954599
 41
-0.7852458701
 42
0.7852458701
  0
ELLIPSE
  5
53A
100
AcDbEntity
  8
RACCORDO
100
AcDbEllipse
 62
7
  6
CONTINUOUS
 10
-22.2912267691
 20
48.7087732309
 30
0.0
 11
0.2121966568
 21
0.2121966568
 31
0.0
 40
0.9996954599
 41
2.3563467834
 42
3.9268385237
  0
ELLIPSE
  5
53B
100
AcDbEntity
  8
RACCORDO
100
AcDbEllipse
 62
7
  6
CONTINUOUS
 10
25.5998933704
 20
96.5998933704
 30
0.0
 11
0.4951255324
 21
0.4951255324
 31
0.0
 40
0.9996954599
 41
-0.7852458701
 42
0.7852458702
  0
ELLIPSE
  5
53C
100
AcDbEntity
  8
RACCORDO
100
AcDbEllipse
 62
7
  6
CONTINUOUS
 10
25.5998933704
 20
45.4001066296
 30
0.0
 11
0.4951255324
 21
-0.4951255324
 31
0.0
 40
0.9996954599
 41
-0.7852458702
 42
0.7852458701
  0
ELLIPSE
  5
53D
100
AcDbEntity
  8
RACCORDO
100
AcDbEllipse
 62
7
  6
CONTINUOUS
 10
-25.5998933704
 20
45.4001066296
 30
0.0
 11
0.4951255324
 21
0.4951255324
 31
0.0
 40
0.9996954599
 41
-3.9268385238
 42
-2.3563467835
  0
ELLIPSE
  5
53E
100
AcDbEntity
  8
RACCORDO
100
AcDbEllipse
 62
7
  6
CONTINUOUS
 10
-25.5998933704
 20
96.5998933704
 30
0.0
 11
0.4951255324
 21
-0.4951255324
 31
0.0
 40
0.9996954599
 41
2.3563467834
 42
3.9268385237
  0
ELLIPSE
  5
53F
100
AcDbEntity
  8
SMUSSO
100
AcDbEllipse
 62
7
  6
CONTINUOUS
 10
94.3266790593
 20
-117.7
 30
0.0
 11
-0.0
 21
1.0
 31
0.0
 40
0.3333333333
 41
-4.7123889804
 42
-3.926990817
  0
ELLIPSE
  5
540
100
AcDbEntity
  8
SMUSSO
100
AcDbEllipse
 62
7
  6
CONTINUOUS
 10
94.3266790593
 20
117.7
 30
0.0
 11
0.0
 21
1.0
 31
0.0
 40
0.3333333333
 41
0.7853981634
 42
1.5707963268
  0
ELLIPSE
  5
541
100
AcDbEntity
  8
0
100
AcDbEllipse
 62
7
  6
CONTINUOUS
 10
86.8938699361
 20
58.0
 30
0.0
 11
0.3003499811
 21
-0.0
 31
0.0
 40
0.9999984769
 41
-1.310683181
 42
1.3106831811
  0
ELLIPSE
  5
542
100
AcDbEntity
  8
0
100
AcDbEllipse
 62
7
  6
CONTINUOUS
 10
86.8938699361
 20
61.5
 30
0.0
 11
0.3003499811
 21
-0.0
 31
0.0
 40
0.9999984769
 41
-1.310683181
 42
1.3106831811
  0
ELLIPSE
  5
543
100
AcDbEntity
  8
0
100
AcDbEllipse
 62
7
  6
CONTINUOUS
 10
86.8938699361
 20
80.5
 30
0.0
 11
0.3003499811
 21
-0.0
 31
0.0
 40
0.9999984769
 41
-1.310683181
 42
1.3106831811
  0
ELLIPSE
  5
544
100
AcDbEntity
  8
0
100
AcDbEllipse
 62
7
  6
CONTINUOUS
 10
86.8938699361
 20
84.0
 30
0.0
 11
0.3003499811
 21
-0.0
 31
0.0
 40
0.9999984769
 41
-1.310683181
 42
1.3106831811
  0
ELLIPSE
  5
545
100
AcDbEntity
  8
ASSI
100
AcDbEllipse
 62
7
  6
CONTINUOUS
 10
86.8933457259
 20
-96.9914384441
 30
0.0
 11
-0.1417119467
 21
0.1422961243
 31
0.0
 40
0.9918061237
 41
-0.7350951877
 42
0.7833412615
  0
ELLIPSE
  5
546
100
AcDbEntity
  8
SUPERFICI
100
AcDbEllipse
 62
7
  6
CONTINUOUS
 10
86.8938699361
 20
13.0
 30
0.0
 11
0.3003499811
 21
0.0
 31
0.0
 40
0.9999984769
 41
-1.3106831811
 42
1.310683181
  0
ELLIPSE
  5
547
100
AcDbEntity
  8
SUPERFICI
100
AcDbEllipse
 62
7
  6
CONTINUOUS
 10
86.8938699361
 20
9.5
 30
0.0
 11
0.3003499811
 21
0.0
 31
0.0
 40
0.9999984769
 41
-1.3106831811
 42
1.310683181
  0
ELLIPSE
  5
548
100
AcDbEntity
  8
SUPERFICI
100
AcDbEllipse
 62
7
  6
CONTINUOUS
 10
86.8938699361
 20
-9.5
 30
0.0
 11
0.3003499811
 21
-0.0000000003
 31
0.0
 40
0.9999984769
 41
-1.31068318
 42
1.3106831821
  0
ELLIPSE
  5
549
100
AcDbEntity
  8
SUPERFICI
100
AcDbEllipse
 62
7
  6
CONTINUOUS
 10
86.8938699361
 20
-13.0
 30
0.0
 11
0.3003499811
 21
-0.0
 31
0.0
 40
0.9999984769
 41
-1.310683181
 42
1.3106831811
  0
ELLIPSE
  5
54A
100
AcDbEntity
  8
ASSI
100
AcDbEllipse
 62
7
  6
CONTINUOUS
 10
86.8933457259
 20
-45.0085615559
 30
0.0
 11
0.1417119467
 21
0.1422961243
 31
0.0
 40
0.9918061237
 41
-3.9249339151
 42
-2.4064974659
  0
ELLIPSE
  5
54B
100
AcDbEntity
  8
0
100
AcDbEllipse
 62
7
  6
CONTINUOUS
 10
86.8938699361
 20
-84.0
 30
0.0
 11
0.3003499811
 21
0.0
 31
0.0
 40
0.9999984769
 41
-1.3106831811
 42
1.310683181
  0
ELLIPSE
  5
54C
100
AcDbEntity
  8
0
100
AcDbEllipse
 62
7
  6
CONTINUOUS
 10
86.8933457259
 20
45.0085615559
 30
0.0
 11
-0.1417119467
 21
0.1422961243
 31
0.0
 40
0.9918061237
 41
-0.7350951877
 42
0.7833412615
  0
ELLIPSE
  5
54D
100
AcDbEntity
  8
0
100
AcDbEllipse
 62
7
  6
CONTINUOUS
 10
86.8938699361
 20
-80.5
 30
0.0
 11
0.3003499811
 21
0.0
 31
0.0
 40
0.9999984769
 41
-1.3106831811
 42
1.310683181
  0
ELLIPSE
  5
54E
100
AcDbEntity
  8
SUPERFICI
100
AcDbEllipse
 62
7
  6
CONTINUOUS
 10
86.8933457259
 20
25.9914384441
 30
0.0
 11
0.1417119467
 21
0.1422961243
 31
0.0
 40
0.9918061237
 41
-3.9249339151
 42
-2.4064974659
  0
ELLIPSE
  5
54F
100
AcDbEntity
  8
SUPERFICI
100
AcDbEllipse
 62
7
  6
CONTINUOUS
 10
86.8933457259
 20
-25.9914384441
 30
0.0
 11
-0.1417119467
 21
0.1422961243
 31
0.0
 40
0.9918061237
 41
-0.7350951877
 42
0.7833412615
  0
ELLIPSE
  5
550
100
AcDbEntity
  8
0
100
AcDbEllipse
 62
7
  6
CONTINUOUS
 10
86.8933457259
 20
96.9914384441
 30
0.0
 11
0.1417119467
 21
0.1422961243
 31
0.0
 40
0.9918061237
 41
-3.9249339151
 42
-2.4064974659
  0
ELLIPSE
  5
551
100
AcDbEntity
  8
0
100
AcDbEllipse
 62
7
  6
CONTINUOUS
 10
86.8938699361
 20
-61.5
 30
0.0
 11
0.3003499811
 21
0.0
 31
0.0
 40
0.9999984769
 41
-1.3106831811
 42
1.310683181
  0
ELLIPSE
  5
552
100
AcDbEntity
  8
0
100
AcDbEllipse
 62
7
  6
CONTINUOUS
 10
86.8938699361
 20
-58.0
 30
0.0
 11
0.3003499811
 21
0.0
 31
0.0
 40
0.9999984769
 41
-1.3106831811
 42
1.310683181
  0
ENDSEC
  0
SECTION
  2
OBJECTS
  0
DICTIONARY
  5
C
100
AcDbDictionary
280
0
281
1
  3
ACAD_GROUP
350
D
  3
ACAD_MLINESTYLE
350
17
  3
ACAD_LAYOUT
350
1A
  3
ACAD_PLOTSETTINGS
350
19
  3
ACAD_PLOTSTYLENAME
350
E
  0
DICTIONARY
  5
D
102
{ACAD_REACTORS
330
C
102
}
100
AcDbDictionary
280
0
281
1
  0
ACDBDICTIONARYWDFLT
  5
E
102
{ACAD_REACTORS
330
C
102
}
100
AcDbDictionary
281
1
  3
Normal
350
F
100
AcDbDictionaryWithDefault
340
F
  0
DICTIONARY
  5
17
102
{ACAD_REACTORS
330
C
102
}
100
AcDbDictionary
280
0
281
1
  3
Standard
350
18
  0
DICTIONARY
  5
19
102
{ACAD_REACTORS
330
C
102
}
100
AcDbDictionary
281
1
  0
DICTIONARY
  5
1A
102
{ACAD_REACTORS
330
C
102
}
100
AcDbDictionary
281
1
  3
Model
350
553
  3
Layout1
350
554
  0
ACDBPLACEHOLDER
  5
F
102
{ACAD_REACTORS
330
E
102
}
  0
MLINESTYLE
  5
18
102
{ACAD_REACTORS
330
17
102
}
100
AcDbMlineStyle
  2
STANDARD
 70
0
  3

 62
256
 51
90.0
 52
90.0
 71
2
 49
0.5
 62
256
  6
BYLAYER
 49
-0.5
 62
256
  6
BYLAYER
  0
LAYOUT
  5
553
102
{ACAD_REACTORS
330
1A
102
}
100
AcDbPlotSettings
  1

  2
none_device
  4
ISO_A4_(297.00_x_210.00_MM)
  6

 40
0.0
 41
0.0
 42
0.0
 43
0.0
 44
297.0
 45
210.0
 46
0.0
 47
0.0
 48
0.0
 49
0.0
140
0.0
141
0.0
142
1.0
143
1.0
 70
1024
 72
1
 73
0
 74
0
  7

 75
0
147
1.0
148
0.0
149
0.0
100
AcDbLayout
  1
Model
 70
0
 71
0
 10
0.0
 20
0.0
 11
297.0
 21
210.0
 12
0.0
 22
0.0
 32
0.0
 14
0.0
 24
0.0
 34
0.0
 15
0.0
 25
0.0
 35
0.0
146
0.0
 13
0.0
 23
0.0
 33
0.0
 16
1.0
 26
0.0
 36
0.0
 17
0.0
 27
1.0
 37
0.0
 76
0
330
215
345
0
346
0
  0
LAYOUT
  5
554
102
{ACAD_REACTORS
330
1A
102
}
100
AcDbPlotSettings
  1

  2
none_device
  4
ISO_A4_(297.00_x_210.00_MM)
  6

 40
0.0
 41
0.0
 42
0.0
 43
0.0
 44
297.0
 45
210.0
 46
0.0
 47
0.0
 48
0.0
 49
0.0
140
0.0
141
0.0
142
1.0
143
1.0
 70
0
 72
1
 73
0
 74
0
  7

 75
0
147
1.0
148
0.0
149
0.0
100
AcDbLayout
  1
Layout1
 70
0
 71
1
 10
0.0
 20
0.0
 11
297.0
 21
210.0
 12
0.0
 22
0.0
 32
0.0
 14
0.0
 24
0.0
 34
0.0
 15
0.0
 25
0.0
 35
0.0
146
0.0
 13
0.0
 23
0.0
 33
0.0
 16
1.0
 26
0.0
 36
0.0
 17
0.0
 27
1.0
 37
0.0
 76
0
330
216
345
0
346
0
  0
ENDSEC
  0
EOF
