  0
SECTION
  2
HEADER
  9
$ACADVER
  1
AC1015
  9
$DWGCODEPAGE
  3
ANSI_1252
  9
$EXTMAX
 10
297.0
 20
210.0
 30
0.0
  9
$EXTMIN
 10
0.0
 20
0.0
 30
0.0
  9
$LIMMIN
 10
0.0
 20
0.0
  9
$LIMMAX
 10
297.0
 20
210.0
  9
$VIEWCTR
 10
148.5
 20
105.0
  9
$VIEWSIZE
 40
210.0
  9
$CLAYER
  8
0
  9
$LTSCALE
 40
16.335
  9
$CELTYPE
  6
BYLAYER
  9
$DIMSCALE
 40
1.0
  9
$DIMASZ
 40
3.0
  9
$DIMEXO
 40
0.5
  9
$DIMDLI
 40
11.286
  9
$DIMEXE
 40
1.5
  9
$DIMCEN
 40
2.673
  9
$DIMLFAC
 40
1.0
  9
$DIMBLK
  1
_FILLED
  9
$DIMTXT
 40
3.0
  9
$DIMTOL
 70
1
  9
$DIMLIM
 70
0
  9
$DIMTFAC
 40
1.0
  9
$DIMTP
 40
0.01
  9
$DIMTM
 40
0.01
  9
$DIMGAP
 40
0.625
  9
$DIMDSEP
 70
44
  9
$PDMODE
 70
3
  9
$PDSIZE
 40
3.0
  9
$HANDSEED
  5
36F
  9
$TILEMODE
 70
1
  9
$MEASUREMENT
 70
1
  9
$INSUNITS
 70
4
  0
ENDSEC
  0
SECTION
  2
CLASSES
  0
CLASS
  1
ACDBDICTIONARYWDFLT
  2
AcDbDictionaryWithDefault
  3
AutoCAD 2000
 90
0
280
0
281
0
  0
CLASS
  1
ACDBPLACEHOLDER
  2
AcDbPlaceHolder
  3
AutoCAD 2000
 90
0
280
0
281
0
  0
CLASS
  1
LAYOUT
  2
AcDbLayout
  3
AutoCAD 2000
 90
0
280
0
281
0
  0
ENDSEC
  0
SECTION
  2
TABLES
  0
TABLE
  2
VPORT
  5
8
100
AcDbSymbolTable
 70
2
  0
VPORT
  5
1F4
100
AcDbSymbolTableRecord
100
AcDbViewportTableRecord
  2
*ACTIVE
 70
0
 10
0.0
 20
0.0
 11
1.0
 21
1.0
 12
148.5
 22
105.0
 13
0.0
 23
0.0
 14
1.0
 24
1.0
 15
0.0
 25
0.0
 16
0.0
 26
0.0
 36
1.0
 17
0.0
 27
0.0
 37
0.0
 40
210.0
 41
1.4142857143
 42
50.0
 43
0.0
 44
0.0
 50
0.0
 51
0.0
 71
0
 72
100
 73
1
 74
1
 75
0
 76
0
 77
0
 78
0
  0
ENDTAB
  0
TABLE
  2
LTYPE
  5
5
100
AcDbSymbolTable
 70
6
  0
LTYPE
  5
14
100
AcDbSymbolTableRecord
100
AcDbLinetypeTableRecord
  2
BYBLOCK
 70
0
  3

 72
65
 73
0
 40
0.0
  0
LTYPE
  5
15
100
AcDbSymbolTableRecord
100
AcDbLinetypeTableRecord
  2
BYLAYER
 70
0
  3

 72
65
 73
0
 40
0.0
  0
LTYPE
  5
16
100
AcDbSymbolTableRecord
100
AcDbLinetypeTableRecord
  2
CONTINUOUS
 70
64
  3
Solid line
 72
65
 73
0
 40
0.0
  0
LTYPE
  5
1F5
100
AcDbSymbolTableRecord
100
AcDbLinetypeTableRecord
  2
CENTER
 70
64
  3
____ _ ____ _ ____ _ ____ _ ____ _ ____ _ ____
 72
65
 73
4
 40
0.6
 49
0.375
 74
0
 49
-0.075
 74
0
 49
0.075
 74
0
 49
-0.075
 74
0
  0
LTYPE
  5
1F6
100
AcDbSymbolTableRecord
100
AcDbLinetypeTableRecord
  2
HIDDEN
 70
64
  3
- - - - - - - - - - - - - - - - - - - -
 72
65
 73
2
 40
0.2
 49
0.1
 74
0
 49
-0.1
 74
0
  0
LTYPE
  5
1F7
100
AcDbSymbolTableRecord
100
AcDbLinetypeTableRecord
  2
PHANTOM
 70
64
  3
_____ _ _ _____ _ _ _____ _ _ _____
 72
65
 73
6
 40
0.8
 49
0.45
 74
0
 49
-0.05
 74
0
 49
0.1
 74
0
 49
-0.05
 74
0
 49
0.1
 74
0
 49
-0.05
 74
0
  0
LTYPE
  5
1F8
100
AcDbSymbolTableRecord
100
AcDbLinetypeTableRecord
  2
DOT
 70
64
  3
. . . . . . . . . . . . . . . . . . . .
 72
65
 73
2
 40
0.2
 49
0.1
 74
0
 49
-0.1
 74
0
  0
LTYPE
  5
1F9
100
AcDbSymbolTableRecord
100
AcDbLinetypeTableRecord
  2
DASHED
 70
64
  3
- - - - - - - - - - - - - - - - - - - -
 72
65
 73
2
 40
0.2
 49
0.1
 74
0
 49
-0.1
 74
0
  0
ENDTAB
  0
TABLE
  2
LAYER
  5
2
100
AcDbSymbolTable
 70
36
  0
LAYER
  5
10
100
AcDbSymbolTableRecord
100
AcDbLayerTableRecord
  2
0
 70
0
 62
7
  6
CONTINUOUS
370
-3
390
F
  0
LAYER
  5
1FA
100
AcDbSymbolTableRecord
100
AcDbLayerTableRecord
  2
DEFAULT_1
 70
0
 62
7
  6
CENTER
370
-3
390
F
  0
LAYER
  5
1FB
100
AcDbSymbolTableRecord
100
AcDbLayerTableRecord
  2
DEFAULT_2
 70
0
 62
7
  6
HIDDEN
370
-3
390
F
  0
LAYER
  5
1FC
100
AcDbSymbolTableRecord
100
AcDbLayerTableRecord
  2
DEFAULT_3
 70
0
 62
7
  6
PHANTOM
370
-3
390
F
  0
LAYER
  5
1FD
100
AcDbSymbolTableRecord
100
AcDbLayerTableRecord
  2
ASSI
 70
0
 62
7
  6
CONTINUOUS
370
-3
390
F
  0
LAYER
  5
1FE
100
AcDbSymbolTableRecord
100
AcDbLayerTableRecord
  2
COORDINATE
 70
0
 62
7
  6
CONTINUOUS
370
-3
390
F
  0
LAYER
  5
1FF
100
AcDbSymbolTableRecord
100
AcDbLayerTableRecord
  2
COORD_ORIGINE
 70
0
 62
7
  6
CONTINUOUS
370
-3
390
F
  0
LAYER
  5
200
100
AcDbSymbolTableRecord
100
AcDbLayerTableRecord
  2
COPY_PUBLISH
 70
0
 62
7
  6
CONTINUOUS
370
-3
390
F
  0
LAYER
  5
201
100
AcDbSymbolTableRecord
100
AcDbLayerTableRecord
  2
COSMETIC
 70
0
 62
7
  6
CONTINUOUS
370
-3
390
F
  0
LAYER
  5
202
100
AcDbSymbolTableRecord
100
AcDbLayerTableRecord
  2
CURVE
 70
0
 62
7
  6
CONTINUOUS
370
-3
390
F
  0
LAYER
  5
203
100
AcDbSymbolTableRecord
100
AcDbLayerTableRecord
  2
DRAFT
 70
0
 62
7
  6
CONTINUOUS
370
-3
390
F
  0
LAYER
  5
204
100
AcDbSymbolTableRecord
100
AcDbLayerTableRecord
  2
IMPORT_IGES
 70
0
 62
7
  6
CONTINUOUS
370
-3
390
F
  0
LAYER
  5
205
100
AcDbSymbolTableRecord
100
AcDbLayerTableRecord
  2
INTFCLR_2
 70
0
 62
7
  6
CONTINUOUS
370
-3
390
F
  0
LAYER
  5
206
100
AcDbSymbolTableRecord
100
AcDbLayerTableRecord
  2
PIANI
 70
0
 62
7
  6
CONTINUOUS
370
-3
390
F
  0
LAYER
  5
207
100
AcDbSymbolTableRecord
100
AcDbLayerTableRecord
  2
PIANI_ORIGINE
 70
0
 62
7
  6
CONTINUOUS
370
-3
390
F
  0
LAYER
  5
208
100
AcDbSymbolTableRecord
100
AcDbLayerTableRecord
  2
PIANI_RIFERIMENTO
 70
0
 62
7
  6
CONTINUOUS
370
-3
390
F
  0
LAYER
  5
209
100
AcDbSymbolTableRecord
100
AcDbLayerTableRecord
  2
PUNTI
 70
0
 62
7
  6
CONTINUOUS
370
-3
390
F
  0
LAYER
  5
20A
100
AcDbSymbolTableRecord
100
AcDbLayerTableRecord
  2
RACCORDO
 70
0
 62
7
  6
CONTINUOUS
370
-3
390
F
  0
LAYER
  5
20B
100
AcDbSymbolTableRecord
100
AcDbLayerTableRecord
  2
SMUSSO
 70
0
 62
7
  6
CONTINUOUS
370
-3
390
F
  0
LAYER
  5
20C
100
AcDbSymbolTableRecord
100
AcDbLayerTableRecord
  2
SNAPLINE
 70
0
 62
7
  6
CONTINUOUS
370
-3
390
F
  0
LAYER
  5
20D
100
AcDbSymbolTableRecord
100
AcDbLayerTableRecord
  2
SUPERFICI
 70
0
 62
7
  6
CONTINUOUS
370
-3
390
F
  0
LAYER
  5
20E
100
AcDbSymbolTableRecord
100
AcDbLayerTableRecord
  2
TRASH
 70
0
 62
7
  6
CONTINUOUS
370
-3
390
F
  0
LAYER
  5
20F
100
AcDbSymbolTableRecord
100
AcDbLayerTableRecord
  2
XSEC_DATUMS
 70
0
 62
7
  6
CONTINUOUS
370
-3
390
F
  0
ENDTAB
  0
TABLE
  2
STYLE
  5
3
100
AcDbSymbolTable
 70
1
  0
STYLE
  5
11
100
AcDbSymbolTableRecord
100
AcDbTextStyleTableRecord
  2
STANDARD
 70
0
 40
0.0
 41
0.8
 50
0.0
 71
0
 42
0.2
  3
txt
  4

  0
STYLE
  5
210
100
AcDbSymbolTableRecord
100
AcDbTextStyleTableRecord
  2
TEXTSTYLE_1
 70
0
 40
0.0
 41
0.8
 50
0.0
 71
0
 42
0.2
  3
gdt
  4

  0
ENDTAB
  0
TABLE
  2
VIEW
  5
6
100
AcDbSymbolTable
 70
0
  0
ENDTAB
  0
TABLE
  2
UCS
  5
7
100
AcDbSymbolTable
 70
0
  0
ENDTAB
  0
TABLE
  2
APPID
  5
9
100
AcDbSymbolTable
 70
1
  0
APPID
  5
211
100
AcDbSymbolTableRecord
100
AcDbRegAppTableRecord
  2
ACAD
 70
0
  0
ENDTAB
  0
TABLE
  2
BLOCK_RECORD
  5
1
100
AcDbSymbolTable
 70
0
  0
BLOCK_RECORD
  5
212
100
AcDbSymbolTableRecord
100
AcDbBlockTableRecord
  2
*Model_Space
  0
BLOCK_RECORD
  5
213
100
AcDbSymbolTableRecord
100
AcDbBlockTableRecord
  2
*Paper_Space
  0
BLOCK_RECORD
  5
214
100
AcDbSymbolTableRecord
100
AcDbBlockTableRecord
  2
_FILLED
  0
BLOCK_RECORD
  5
215
100
AcDbSymbolTableRecord
100
AcDbBlockTableRecord
  2
*D0
  0
BLOCK_RECORD
  5
216
100
AcDbSymbolTableRecord
100
AcDbBlockTableRecord
  2
*D1
  0
BLOCK_RECORD
  5
217
100
AcDbSymbolTableRecord
100
AcDbBlockTableRecord
  2
*D2
  0
BLOCK_RECORD
  5
218
100
AcDbSymbolTableRecord
100
AcDbBlockTableRecord
  2
*D3
  0
ENDTAB
  0
TABLE
  2
DIMSTYLE
  5
A
100
AcDbSymbolTable
 70
1
100
AcDbDimStyleTable
 71
0
  0
DIMSTYLE
105
219
100
AcDbSymbolTableRecord
100
AcDbDimStyleTableRecord
  2
STANDARD
 70
0
  3

  4

 40
1.0
 41
3.0
 42
0.5
 43
0.38
 44
1.5
 45
0.0
 46
0.0
 47
0.01
 48
0.01
140
3.0
141
0.09
142
0.0
143
25.4
144
1.0
145
0.0
146
1.0
147
0.625
 71
1.0
 72
0.0
 73
0
 74
0
 75
0
 76
0
 77
1
 78
8
170
0
171
2
172
0
173
0
174
0
175
0
176
0
177
0
178
0
270
2
271
2
272
2
273
2
274
2
275
0
280
0
281
0
282
0
283
1
284
8
285
0
286
0
287
3
288
0
340
11
278
44
341
214
342
214
343
214
344
214
  0
DIMSTYLE
105
21A
100
AcDbSymbolTableRecord
100
AcDbDimStyleTableRecord
  2
DIMSTYLE_1
 70
0
  3

  4

 40
1.0
 41
3.0
 42
0.5
 43
0.38
 44
1.5
 45
0.0
 46
0.0
 47
0.0
 48
0.0
140
3.0
141
0.09
142
0.0
143
25.4
144
1.0
145
0.0
146
1.0
147
0.75
 71
0.0
 72
0.0
 73
0
 74
0
 75
0
 76
0
 77
1
 78
8
170
0
171
2
172
0
173
0
174
0
175
0
176
0
177
0
178
0
270
2
271
2
272
2
273
2
274
2
275
0
280
0
281
0
282
0
283
1
284
8
285
0
286
0
287
3
288
0
340
11
278
44
341
214
342
214
343
214
344
214
  0
ENDTAB
  0
ENDSEC
  0
SECTION
  2
BLOCKS
  0
BLOCK
  5
20
100
AcDbEntity
  8
0
100
AcDbBlockBegin
  2
*Model_Space
 70
0
 10
0.0
 20
0.0
 30
0.0
  3
*Model_Space
  1

  0
ENDBLK
  5
21
100
AcDbEntity
  8
0
100
AcDbBlockEnd
  0
BLOCK
  5
1C
100
AcDbEntity
  8
0
100
AcDbBlockBegin
  2
*Paper_Space
 70
0
 10
0.0
 20
0.0
 30
0.0
  3
*Paper_Space
  1

  0
ENDBLK
  5
1D
100
AcDbEntity
  8
0
100
AcDbBlockEnd
  0
BLOCK
  5
21B
100
AcDbEntity
  8
0
100
AcDbBlockBegin
  2
_FILLED
 70
64
 10
0.0
 20
0.0
  3
_FILLED
  1

  0
SOLID
  5
21C
100
AcDbEntity
  8
0
  6
BYBLOCK
 62
0
100
AcDbTrace
 10
0.0
 20
0.0
 11
-1.0
 21
0.3166666667
 12
-1.0
 22
-0.3166666667
 13
-1.0
 23
-0.3166666667
  0
ENDBLK
  5
21D
100
AcDbEntity
  8
0
  6
BYBLOCK
 62
0
100
AcDbBlockEnd
  0
BLOCK
  5
21E
100
AcDbEntity
  8
0
100
AcDbBlockBegin
 62
7
  6
CONTINUOUS
  2
*D0
 70
65
 10
0.0
 20
0.0
  3
*D0
  1

  0
MTEXT
  5
21F
100
AcDbEntity
  8
0
100
AcDbMText
 62
7
  6
CONTINUOUS
  7
STANDARD
 71
2
 72
1
 10
0.7008290816
 20
59.9416454082
 30
0.0
 11
1.0
 21
0.0
 31
0.0
 44
0.9
  1
94,7
 40
3.0
 41
8.7857142857
  0
LINE
  5
220
100
AcDbEntity
  8
0
100
AcDbLine
 62
7
  6
CONTINUOUS
 10
-46.6491709184
 20
47.6916454082
 11
-46.6491709184
 21
57.6916454082
  0
LINE
  5
221
100
AcDbEntity
  8
0
100
AcDbLine
 62
7
  6
CONTINUOUS
 10
48.0508290816
 20
47.6916454082
 11
48.0508290816
 21
57.6916454082
  0
LINE
  5
222
100
AcDbEntity
  8
0
100
AcDbLine
 62
7
  6
CONTINUOUS
 10
-46.6491709184
 20
56.1916454082
 11
0.7008290816
 21
56.1916454082
  0
LINE
  5
223
100
AcDbEntity
  8
0
100
AcDbLine
 62
7
  6
CONTINUOUS
 10
48.0508290816
 20
56.1916454082
 11
0.7008290816
 21
56.1916454082
  0
INSERT
  5
224
100
AcDbEntity
  8
0
100
AcDbBlockReference
 62
7
  6
CONTINUOUS
  2
_FILLED
 10
-46.6491709184
 20
56.1916454082
 41
3.0
 42
3.0
 43
3.0
 50
180.0
  0
INSERT
  5
225
100
AcDbEntity
  8
0
100
AcDbBlockReference
 62
7
  6
CONTINUOUS
  2
_FILLED
 10
48.0508290816
 20
56.1916454082
 41
3.0
 42
3.0
 43
3.0
 50
0.0
  0
ENDBLK
  5
226
100
AcDbEntity
  8
0
  6
BYBLOCK
 62
0
100
AcDbBlockEnd
  0
BLOCK
  5
227
100
AcDbEntity
  8
0
100
AcDbBlockBegin
 62
7
  6
CONTINUOUS
  2
*D1
 70
65
 10
0.0
 20
0.0
  3
*D1
  1

  0
MTEXT
  5
228
100
AcDbEntity
  8
0
100
AcDbMText
 62
7
  6
CONTINUOUS
  7
STANDARD
 71
2
 72
1
 10
52.3008290816
 20
0.8416454082
 30
0.0
 11
0.0
 21
1.0
 31
0.0
 44
0.9
  1
94,7
 40
3.0
 41
8.7857142857
  0
LINE
  5
229
100
AcDbEntity
  8
0
100
AcDbLine
 62
7
  6
CONTINUOUS
 10
47.5508290816
 20
48.1916454082
 11
57.5508290816
 21
48.1916454082
  0
LINE
  5
22A
100
AcDbEntity
  8
0
100
AcDbLine
 62
7
  6
CONTINUOUS
 10
47.5508290816
 20
-46.5083545918
 11
57.5508290816
 21
-46.5083545918
  0
LINE
  5
22B
100
AcDbEntity
  8
0
100
AcDbLine
 62
7
  6
CONTINUOUS
 10
56.0508290816
 20
48.1916454082
 11
56.0508290816
 21
0.8416454082
  0
LINE
  5
22C
100
AcDbEntity
  8
0
100
AcDbLine
 62
7
  6
CONTINUOUS
 10
56.0508290816
 20
-46.5083545918
 11
56.0508290816
 21
0.8416454082
  0
INSERT
  5
22D
100
AcDbEntity
  8
0
100
AcDbBlockReference
 62
7
  6
CONTINUOUS
  2
_FILLED
 10
56.0508290816
 20
48.1916454082
 41
3.0
 42
3.0
 43
3.0
 50
90.0
  0
INSERT
  5
22E
100
AcDbEntity
  8
0
100
AcDbBlockReference
 62
7
  6
CONTINUOUS
  2
_FILLED
 10
56.0508290816
 20
-46.5083545918
 41
3.0
 42
3.0
 43
3.0
 50
270.0
  0
ENDBLK
  5
22F
100
AcDbEntity
  8
0
  6
BYBLOCK
 62
0
100
AcDbBlockEnd
  0
BLOCK
  5
230
100
AcDbEntity
  8
0
100
AcDbBlockBegin
 62
7
  6
CONTINUOUS
  2
*D2
 70
65
 10
0.0
 20
0.0
  3
*D2
  1

  0
MTEXT
  5
231
100
AcDbEntity
  8
0
100
AcDbMText
 62
7
  6
CONTINUOUS
  7
STANDARD
 71
2
 72
1
 10
-66.6651147959
 20
59.9416454082
 30
0.0
 11
1.0
 21
0.0
 31
0.0
 44
0.9
  1
9,2
 40
3.0
 41
6.4285714286
  0
LINE
  5
232
100
AcDbEntity
  8
0
100
AcDbLine
 62
7
  6
CONTINUOUS
 10
-71.2651147959
 20
26.9006412291
 11
-71.2651147959
 21
57.6916454082
  0
LINE
  5
233
100
AcDbEntity
  8
0
100
AcDbLine
 62
7
  6
CONTINUOUS
 10
-62.0651147959
 20
46.6375347069
 11
-62.0651147959
 21
57.6916454082
  0
LINE
  5
234
100
AcDbEntity
  8
0
100
AcDbLine
 62
7
  6
CONTINUOUS
 10
-71.2651147959
 20
56.1916454082
 11
-75.2651147959
 21
56.1916454082
  0
LINE
  5
235
100
AcDbEntity
  8
0
100
AcDbLine
 62
7
  6
CONTINUOUS
 10
-75.2651147959
 20
56.1916454082
 11
-66.6651147959
 21
56.1916454082
  0
LINE
  5
236
100
AcDbEntity
  8
0
100
AcDbLine
 62
7
  6
CONTINUOUS
 10
-62.0651147959
 20
56.1916454082
 11
-58.0651147959
 21
56.1916454082
  0
LINE
  5
237
100
AcDbEntity
  8
0
100
AcDbLine
 62
7
  6
CONTINUOUS
 10
-58.0651147959
 20
56.1916454082
 11
-66.6651147959
 21
56.1916454082
  0
INSERT
  5
238
100
AcDbEntity
  8
0
100
AcDbBlockReference
 62
7
  6
CONTINUOUS
  2
_FILLED
 10
-71.2651147959
 20
56.1916454082
 41
3.0
 42
3.0
 43
3.0
  0
INSERT
  5
239
100
AcDbEntity
  8
0
100
AcDbBlockReference
 62
7
  6
CONTINUOUS
  2
_FILLED
 10
-62.0651147959
 20
56.1916454082
 41
3.0
 42
3.0
 43
3.0
 50
180.0
  0
ENDBLK
  5
23A
100
AcDbEntity
  8
0
  6
BYBLOCK
 62
0
100
AcDbBlockEnd
  0
BLOCK
  5
23B
100
AcDbEntity
  8
0
100
AcDbBlockBegin
 62
7
  6
CONTINUOUS
  2
*D3
 70
65
 10
0.0
 20
0.0
  3
*D3
  1

  0
MTEXT
  5
23C
100
AcDbEntity
  8
0
100
AcDbMText
 62
7
  6
CONTINUOUS
  7
STANDARD
 71
2
 72
1
 10
-66.3651147959
 20
69.9416454082
 30
0.0
 11
1.0
 21
0.0
 31
0.0
 44
0.9
  1
9,8
 40
3.0
 41
6.4285714286
  0
LINE
  5
23D
100
AcDbEntity
  8
0
100
AcDbLine
 62
7
  6
CONTINUOUS
 10
-71.2651147959
 20
26.9006412291
 11
-71.2651147959
 21
67.6916454082
  0
LINE
  5
23E
100
AcDbEntity
  8
0
100
AcDbLine
 62
7
  6
CONTINUOUS
 10
-61.4651147959
 20
27.9916454082
 11
-61.4651147959
 21
67.6916454082
  0
LINE
  5
23F
100
AcDbEntity
  8
0
100
AcDbLine
 62
7
  6
CONTINUOUS
 10
-71.2651147959
 20
66.1916454082
 11
-75.2651147959
 21
66.1916454082
  0
LINE
  5
240
100
AcDbEntity
  8
0
100
AcDbLine
 62
7
  6
CONTINUOUS
 10
-75.2651147959
 20
66.1916454082
 11
-66.3651147959
 21
66.1916454082
  0
LINE
  5
241
100
AcDbEntity
  8
0
100
AcDbLine
 62
7
  6
CONTINUOUS
 10
-61.4651147959
 20
66.1916454082
 11
-57.4651147959
 21
66.1916454082
  0
LINE
  5
242
100
AcDbEntity
  8
0
100
AcDbLine
 62
7
  6
CONTINUOUS
 10
-57.4651147959
 20
66.1916454082
 11
-66.3651147959
 21
66.1916454082
  0
INSERT
  5
243
100
AcDbEntity
  8
0
100
AcDbBlockReference
 62
7
  6
CONTINUOUS
  2
_FILLED
 10
-71.2651147959
 20
66.1916454082
 41
3.0
 42
3.0
 43
3.0
  0
INSERT
  5
244
100
AcDbEntity
  8
0
100
AcDbBlockReference
 62
7
  6
CONTINUOUS
  2
_FILLED
 10
-61.4651147959
 20
66.1916454082
 41
3.0
 42
3.0
 43
3.0
 50
180.0
  0
ENDBLK
  5
245
100
AcDbEntity
  8
0
  6
BYBLOCK
 62
0
100
AcDbBlockEnd
  0
ENDSEC
  0
SECTION
  2
ENTITIES
  0
DIMENSION
  5
246
100
AcDbEntity
  8
0
100
AcDbDimension
 62
7
  6
CONTINUOUS
  2
*D0
 10
48.0508290816
 20
56.1916454082
 11
0.7008290816
 21
56.1916454082
 70
160
 71
2
 42
94.7
  3
DIMSTYLE_1
100
AcDbAlignedDimension
 13
-46.6491709184
 23
47.1916454082
 14
48.0508290816
 24
47.1916454082
100
AcDbRotatedDimension
  0
DIMENSION
  5
247
100
AcDbEntity
  8
0
100
AcDbDimension
 62
7
  6
CONTINUOUS
  2
*D1
 10
56.0508290816
 20
-46.5083545918
 11
56.0508290816
 21
0.8416454082
 70
160
 71
2
 42
94.7
  3
DIMSTYLE_1
100
AcDbAlignedDimension
 13
47.0508290816
 23
48.1916454082
 14
47.0508290816
 24
-46.5083545918
 50
270.0
100
AcDbRotatedDimension
  0
DIMENSION
  5
248
100
AcDbEntity
  8
0
100
AcDbDimension
 62
7
  6
CONTINUOUS
  2
*D2
 10
-62.0651147959
 20
56.1916454082
 11
-66.6651147959
 21
56.1916454082
 70
160
 71
2
 42
9.2
  3
DIMSTYLE_1
100
AcDbAlignedDimension
 13
-71.2651147959
 23
26.4006412291
 14
-62.0651147959
 24
46.1375347069
100
AcDbRotatedDimension
  0
DIMENSION
  5
249
100
AcDbEntity
  8
0
100
AcDbDimension
 62
7
  6
CONTINUOUS
  2
*D3
 10
-61.4651147959
 20
66.1916454082
 11
-66.3651147959
 21
66.1916454082
 70
160
 71
2
 42
9.8
  3
DIMSTYLE_1
100
AcDbAlignedDimension
 13
-71.2651147959
 23
26.4006412291
 14
-61.4651147959
 24
27.4916454082
100
AcDbRotatedDimension
  0
LINE
  5
24A
100
AcDbEntity
  8
SMUSSO
100
AcDbLine
 62
7
  6
CONTINUOUS
 10
-45.6491709184
 20
48.1916454082
 11
-46.6491709184
 21
47.1916454082
  0
LINE
  5
24B
100
AcDbEntity
  8
SMUSSO
100
AcDbLine
 62
7
  6
CONTINUOUS
 10
-45.234957356
 20
47.1916454082
 11
-45.6491709184
 21
46.7774318458
  0
LINE
  5
24C
100
AcDbEntity
  8
SMUSSO
100
AcDbLine
 62
7
  6
CONTINUOUS
 10
-46.6491709184
 20
-45.5083545918
 11
-45.6491709184
 21
-46.5083545918
  0
LINE
  5
24D
100
AcDbEntity
  8
SMUSSO
100
AcDbLine
 62
7
  6
CONTINUOUS
 10
-45.6491709184
 20
-45.0941410295
 11
-45.234957356
 21
-45.5083545918
  0
LINE
  5
24E
100
AcDbEntity
  8
SMUSSO
100
AcDbLine
 62
7
  6
CONTINUOUS
 10
-46.6491709184
 20
47.1916454082
 11
-46.6491709184
 21
-45.5083545918
  0
LINE
  5
24F
100
AcDbEntity
  8
SMUSSO
100
AcDbLine
 62
7
  6
CONTINUOUS
 10
-45.6491709184
 20
46.7774318458
 11
-45.6491709184
 21
-45.0941410295
  0
LINE
  5
250
100
AcDbEntity
  8
SMUSSO
100
AcDbLine
 62
7
  6
CONTINUOUS
 10
-45.6491709184
 20
-46.5083545918
 11
47.0508290816
 21
-46.5083545918
  0
LINE
  5
251
100
AcDbEntity
  8
SMUSSO
100
AcDbLine
 62
7
  6
CONTINUOUS
 10
-45.234957356
 20
-45.5083545918
 11
46.6366155193
 21
-45.5083545918
  0
LWPOLYLINE
  5
252
100
AcDbEntity
  8
RACCORDO
100
AcDbPolyline
 62
253
  6
CONTINUOUS
 90
22
 70
0
 10
-36.4580601259
 20
-24.7173504128
 10
-36.456096617
 20
-24.7696538659
 10
-36.4502305653
 20
-24.8216637447
 10
-36.4404949007
 20
-24.8730893426
 10
-36.4269442344
 20
-24.9236431787
 10
-36.4096544003
 20
-24.9730427513
 10
-36.3887219711
 20
-25.0210120971
 10
-36.3642639477
 20
-25.0672831905
 10
-36.3364171667
 20
-25.1115973065
 10
-36.3053373676
 20
-25.1537066154
 10
-36.2711985013
 20
-25.193375574
 10
-36.2341913343
 20
-25.2303826999
 10
-36.1945222942
 20
-25.264521557
 10
-36.1524128164
 20
-25.295601396
 10
-36.1080984745
 20
-25.3234482221
 10
-36.0618272244
 20
-25.3479062212
 10
-36.0138578488
 20
-25.3688385554
 10
-35.9644583381
 20
-25.3861282675
 10
-35.9139046558
 20
-25.3996788053
 10
-35.8624793038
 20
-25.4094143544
 10
-35.8104697641
 20
-25.4152803226
 10
-35.7581667393
 20
-25.4172437994
  0
LINE
  5
253
100
AcDbEntity
  8
RACCORDO
100
AcDbLine
 62
7
  6
CONTINUOUS
 10
-36.4991709184
 20
26.4417520216
 11
-36.4991709184
 21
-24.7584612052
  0
LINE
  5
254
100
AcDbEntity
  8
RACCORDO
100
AcDbLine
 62
253
  6
CONTINUOUS
 10
-36.4580601259
 20
26.4006412291
 11
-36.4580601259
 21
-24.7173504128
  0
LINE
  5
255
100
AcDbEntity
  8
RACCORDO
100
AcDbLine
 62
253
  6
CONTINUOUS
 10
-36.1581058174
 20
26.4006412291
 11
-36.1581058174
 21
-24.7205795473
  0
LINE
  5
256
100
AcDbEntity
  8
RACCORDO
100
AcDbLine
 62
253
  6
CONTINUOUS
 10
-35.7581667373
 20
27.1005346157
 11
-35.7581667393
 21
26.8005803072
  0
LINE
  5
257
100
AcDbEntity
  8
RACCORDO
100
AcDbLine
 62
253
  6
CONTINUOUS
 10
-35.7581667379
 20
-25.4172437994
 11
-35.7581667393
 21
-25.1172894908
  0
LWPOLYLINE
  5
258
100
AcDbEntity
  8
RACCORDO
100
AcDbPolyline
 62
253
  6
CONTINUOUS
 90
22
 70
0
 10
-36.1581058174
 20
26.4006412291
 10
-36.1569830293
 20
26.4304591685
 10
-36.153705143
 20
26.4598434947
 10
-36.1482721586
 20
26.4887942078
 10
-36.1406313661
 20
26.5174825011
 10
-36.1308354754
 20
26.5457371813
 10
-36.119042616
 20
26.5730446683
 10
-36.1052203146
 20
26.5993740146
 10
-36.0894010445
 20
26.6247561677
 10
-36.0718403548
 20
26.64877039
 10
-36.0525046846
 20
26.6713966209
 10
-36.0314275948
 20
26.6926549211
 10
-36.0089653174
 20
26.7121847357
 10
-35.9850964475
 20
26.7299530308
 10
-35.95984239
 20
26.7459928403
 10
-35.9336235915
 20
26.760042712
 10
-35.9064133958
 20
26.7720692003
 10
-35.8782384592
 20
26.7821057507
 10
-35.8495991965
 20
26.7899912482
 10
-35.8206624129
 20
26.7956719875
 10
-35.7912613033
 20
26.7992016739
 10
-35.7613958677
 20
26.8005803072
  0
LWPOLYLINE
  5
259
100
AcDbEntity
  8
RACCORDO
100
AcDbPolyline
 62
253
  6
CONTINUOUS
 90
19
 70
0
 10
-33.8211874672
 20
23.8154601588
 10
-33.8184835712
 20
23.8721848794
 10
-33.8114953608
 20
23.9269926108
 10
-33.800222836
 20
23.9798833532
 10
-33.7844275461
 20
24.0311625297
 10
-33.7643479418
 20
24.0805247172
 10
-33.7406993759
 20
24.1270536461
 10
-33.7134602575
 20
24.1706396127
 10
-33.6826521775
 20
24.2113923208
 10
-33.6490552613
 20
24.2487246119
 10
-33.612701324
 20
24.2825628018
 10
-33.5735585505
 20
24.3129805747
 10
-33.5323116207
 20
24.3396118251
 10
-33.4889626943
 20
24.3624495172
 10
-33.4435096115
 20
24.3815006868
 10
-33.3966305733
 20
24.3964203359
 10
-33.3485516468
 20
24.407093465
 10
-33.2990467649
 20
24.4136350736
 10
-33.2481159276
 20
24.4160451616
  0
LWPOLYLINE
  5
25A
100
AcDbEntity
  8
RACCORDO
100
AcDbPolyline
 62
253
  6
CONTINUOUS
 90
22
 70
0
 10
-33.198425901
 20
-21.4630196839
 10
-33.1976697393
 20
-21.4784547262
 10
-33.196033457
 20
-21.4944389309
 10
-33.1934231697
 20
-21.5109161912
 10
-33.1897525828
 20
-21.5277816103
 10
-33.1849267555
 20
-21.5449950551
 10
-33.1788219531
 20
-21.5625746542
 10
-33.1713334524
 20
-21.5804080481
 10
-33.1623626635
 20
-21.598366971
 10
-33.1517645344
 20
-21.6164058499
 10
-33.1393773852
 20
-21.6344312429
 10
-33.1251649137
 20
-21.6521528942
 10
-33.1092069248
 20
-21.669216768
 10
-33.0914175567
 20
-21.6854809743
 10
-33.0718701214
 20
-21.7006528778
 10
-33.0510257481
 20
-21.7142588377
 10
-33.0291230147
 20
-21.7261193931
 10
-33.0061906681
 20
-21.7361931131
 10
-32.9824783304
 20
-21.7443463829
 10
-32.9581844386
 20
-21.7505057307
 10
-32.9334431628
 20
-21.7546310093
 10
-32.9084271854
 20
-21.756683528
  0
LINE
  5
25B
100
AcDbEntity
  8
RACCORDO
100
AcDbLine
 62
253
  6
CONTINUOUS
 10
-33.2059418834
 20
-21.4670987798
 11
-33.205864665
 21
-21.4718791734
  0
LWPOLYLINE
  5
25C
100
AcDbEntity
  8
RACCORDO
100
AcDbPolyline
 62
253
  6
CONTINUOUS
 90
19
 70
0
 10
-33.525745153
 20
23.8154604348
 10
-33.5260962015
 20
23.8467049819
 10
-33.5239887538
 20
23.8771056255
 10
-33.5195141199
 20
23.9064804751
 10
-33.5127892871
 20
23.9346785113
 10
-33.5039210123
 20
23.9615230987
 10
-33.4930020527
 20
23.9868118762
 10
-33.48017147
 20
24.010387352
 10
-33.4655720218
 20
24.0321597929
 10
-33.4493011449
 20
24.0520406711
 10
-33.4315178597
 20
24.0699122666
 10
-33.4123606876
 20
24.0857123397
 10
-33.3918762058
 20
24.0994254451
 10
-33.3702056387
 20
24.1109691773
 10
-33.3474989566
 20
24.1202726543
 10
-33.3237968337
 20
24.1273083807
 10
-33.2992115665
 20
24.1320107583
 10
-33.2739375651
 20
24.1343040551
 10
-33.2481386793
 20
24.1341379069
  0
LINE
  5
25D
100
AcDbEntity
  8
RACCORDO
100
AcDbLine
 62
253
  6
CONTINUOUS
 10
-33.1984841513
 20
-21.4577135162
 11
-33.198425901
 21
-21.4630196839
  0
LINE
  5
25E
100
AcDbEntity
  8
RACCORDO
100
AcDbLine
 62
253
  6
CONTINUOUS
 10
-33.2059883692
 20
-21.4623768941
 11
-33.2059418834
 21
-21.4670987798
  0
LINE
  5
25F
100
AcDbEntity
  8
RACCORDO
100
AcDbLine
 62
253
  6
CONTINUOUS
 10
-33.2060041224
 20
-21.4577135162
 11
-33.2059883692
 21
-21.4623768941
  0
LINE
  5
260
100
AcDbEntity
  8
RACCORDO
100
AcDbLine
 62
253
  6
CONTINUOUS
 10
-33.8211874672
 20
-22.1321693425
 11
-33.8211874672
 21
23.8154601588
  0
LINE
  5
261
100
AcDbEntity
  8
RACCORDO
100
AcDbLine
 62
253
  6
CONTINUOUS
 10
-33.5257451413
 20
-22.1321696689
 11
-33.5257451413
 21
23.8154604107
  0
LINE
  5
262
100
AcDbEntity
  8
RACCORDO
100
AcDbLine
 62
253
  6
CONTINUOUS
 10
-33.2481159276
 20
24.4160451616
 11
-33.2481159276
 21
24.1341373754
  0
LINE
  5
263
100
AcDbEntity
  8
RACCORDO
100
AcDbLine
 62
253
  6
CONTINUOUS
 10
-33.2481159276
 20
-22.7327543453
 11
-33.2481159276
 21
-22.450846559
  0
LINE
  5
264
100
AcDbEntity
  8
RACCORDO
100
AcDbLine
 62
253
  6
CONTINUOUS
 10
-33.2060041224
 20
23.1410043325
 11
-33.2060041224
 21
-21.4577135162
  0
LINE
  5
265
100
AcDbEntity
  8
RACCORDO
100
AcDbLine
 62
253
  6
CONTINUOUS
 10
-33.1984841513
 20
23.1410043325
 11
-33.1984841513
 21
-21.4577135162
  0
LINE
  5
266
100
AcDbEntity
  8
RACCORDO
100
AcDbLine
 62
7
  6
CONTINUOUS
 10
-33.1913161391
 20
-21.4505455041
 11
-33.1913161391
 21
23.1338363204
  0
LINE
  5
267
100
AcDbEntity
  8
RACCORDO
100
AcDbLine
 62
253
  6
CONTINUOUS
 10
-32.8977563442
 20
-21.7568943262
 11
-32.8977563442
 21
-21.7869718634
  0
LINE
  5
268
100
AcDbEntity
  8
RACCORDO
100
AcDbLine
 62
253
  6
CONTINUOUS
 10
-32.8977563442
 20
23.4401851426
 11
-32.8977563448
 21
23.4702626797
  0
LINE
  5
269
100
AcDbEntity
  8
RACCORDO
100
AcDbLine
 62
253
  6
CONTINUOUS
 10
-33.205864665
 20
23.1551699898
 11
-33.2060041224
 21
23.1410043325
  0
LINE
  5
26A
100
AcDbEntity
  8
RACCORDO
100
AcDbLine
 62
253
  6
CONTINUOUS
 10
-33.198425901
 20
23.1463105003
 11
-33.1984841513
 21
23.1410043325
  0
LWPOLYLINE
  5
26B
100
AcDbEntity
  8
RACCORDO
100
AcDbPolyline
 62
253
  6
CONTINUOUS
 90
22
 70
0
 10
-33.205864665
 20
-21.4718791734
 10
-33.2060996666
 20
-21.4893023089
 10
-33.2054303167
 20
-21.5072110538
 10
-33.2037611704
 20
-21.5255561215
 10
-33.2010050415
 20
-21.5442521568
 10
-33.1970631659
 20
-21.5632532593
 10
-33.1918107397
 20
-21.5825483762
 10
-33.1851599525
 20
-21.6020474198
 10
-33.177003273
 20
-21.6216198969
 10
-33.1671621503
 20
-21.6411581827
 10
-33.1554848702
 20
-21.6605920565
 10
-33.1419365029
 20
-21.6796346975
 10
-33.1265506907
 20
-21.6978400538
 10
-33.1092399777
 20
-21.7150653533
 10
-33.0900900002
 20
-21.7310423563
 10
-33.0695314865
 20
-21.7452337321
 10
-33.047789014
 20
-21.7574383891
 10
-33.0249064087
 20
-21.7676393767
 10
-33.0011420129
 20
-21.7757003469
 10
-32.9766969946
 20
-21.7815467785
 10
-32.9517024324
 20
-21.7851388069
 10
-32.9263300665
 20
-21.786435934
  0
LWPOLYLINE
  5
26C
100
AcDbEntity
  8
RACCORDO
100
AcDbPolyline
 62
253
  6
CONTINUOUS
 90
10
 70
0
 10
-33.1984328562
 20
-21.4630198106
 10
-33.1986467983
 20
-21.4639974392
 10
-33.1990143622
 20
-21.4649774672
 10
-33.199535435
 20
-21.46595959
 10
-33.2002098566
 20
-21.4669435021
 10
-33.2010374196
 20
-21.4679288975
 10
-33.2020178696
 20
-21.4689154698
 10
-33.2031509054
 20
-21.4699029122
 10
-33.2044361786
 20
-21.4708909176
 10
-33.2058732941
 20
-21.4718791789
  0
LWPOLYLINE
  5
26D
100
AcDbEntity
  8
RACCORDO
100
AcDbPolyline
 62
253
  6
CONTINUOUS
 90
22
 70
0
 10
37.1598249026
 20
-25.4172437994
 10
37.2121283557
 20
-25.4152802905
 10
37.2641382345
 20
-25.4094142388
 10
37.3155638324
 20
-25.3996785741
 10
37.3661176685
 20
-25.3861279079
 10
37.4155172411
 20
-25.3688380737
 10
37.4634865869
 20
-25.3479056446
 10
37.5097576803
 20
-25.3234476212
 10
37.5540717963
 20
-25.2956008402
 10
37.5961811052
 20
-25.264521041
 10
37.6358500638
 20
-25.2303821748
 10
37.6728571897
 20
-25.1933750077
 10
37.7069960468
 20
-25.1537059676
 10
37.7380758858
 20
-25.1115964899
 10
37.7659227119
 20
-25.0672821479
 10
37.790380711
 20
-25.0210108979
 10
37.8113130452
 20
-24.9730415222
 10
37.8286027573
 20
-24.9236420115
 10
37.8421532951
 20
-24.8730883292
 10
37.8518888442
 20
-24.8216629773
 10
37.8577548124
 20
-24.7696534376
 10
37.8597182892
 20
-24.7173504128
  0
LINE
  5
26E
100
AcDbEntity
  8
RACCORDO
100
AcDbLine
 62
7
  6
CONTINUOUS
 10
-35.7992775318
 20
-25.4583545918
 11
37.200935695
 21
-25.4583545918
  0
LINE
  5
26F
100
AcDbEntity
  8
RACCORDO
100
AcDbLine
 62
253
  6
CONTINUOUS
 10
-35.7581667393
 20
-25.4172437994
 11
37.1598249026
 21
-25.4172437994
  0
LWPOLYLINE
  5
270
100
AcDbEntity
  8
RACCORDO
100
AcDbPolyline
 62
253
  6
CONTINUOUS
 90
22
 70
0
 10
-35.7581667393
 20
-25.1172894908
 10
-35.7879846783
 20
-25.1161667028
 10
-35.8173690043
 20
-25.1128888166
 10
-35.8463197171
 20
-25.1074558323
 10
-35.8750080101
 20
-25.0998150399
 10
-35.9032626901
 20
-25.0900191494
 10
-35.9305701769
 20
-25.0782262903
 10
-35.9568995229
 20
-25.0644039892
 10
-35.9822816758
 20
-25.0485847194
 10
-36.0062958981
 20
-25.03102403
 10
-36.0289221288
 20
-25.0116883602
 10
-36.0501804289
 20
-24.9906112708
 10
-36.0697102436
 20
-24.9681489938
 10
-36.0874785387
 20
-24.9442801243
 10
-36.1035183483
 20
-24.9190260672
 10
-36.1175682202
 20
-24.8928072691
 10
-36.1295947086
 20
-24.8655970739
 10
-36.1396312594
 20
-24.8374221377
 10
-36.1475167571
 20
-24.8087828754
 10
-36.1531974968
 20
-24.7798460921
 10
-36.1567271836
 20
-24.7504449827
 10
-36.1581058174
 20
-24.7205795473
  0
LWPOLYLINE
  5
271
100
AcDbEntity
  8
RACCORDO
100
AcDbPolyline
 62
253
  6
CONTINUOUS
 90
10
 70
0
 10
-33.1984251259
 20
23.1463104867
 10
-33.1986395893
 20
23.1472878793
 10
-33.1990076576
 20
23.1482677259
 10
-33.1995292177
 20
23.1492497251
 10
-33.2002041092
 20
23.150233575
 10
-33.2010321246
 20
23.1512189733
 10
-33.2020130094
 20
23.1522056175
 10
-33.2031464619
 20
23.1531932045
 10
-33.2044321337
 20
23.1541814306
 10
-33.2058696296
 20
23.1551699922
  0
LINE
  5
272
100
AcDbEntity
  8
SMUSSO
100
AcDbLine
 62
7
  6
CONTINUOUS
 10
-45.6491709184
 20
-46.5083545918
 11
-45.234957356
 21
-45.5083545918
  0
LINE
  5
273
100
AcDbEntity
  8
SMUSSO
100
AcDbLine
 62
7
  6
CONTINUOUS
 10
48.0508290816
 20
47.1916454082
 11
47.0508290816
 21
46.7774318458
  0
LWPOLYLINE
  5
274
100
AcDbEntity
  8
0
100
AcDbPolyline
 62
7
  6
CONTINUOUS
 90
52
 70
0
 10
4.3332136919
 20
-23.9809418979
 10
4.3433686621
 20
-23.9785633449
 10
4.3535203229
 20
-23.9749633913
 10
4.3636686741
 20
-23.9701420369
 10
4.3737858923
 20
-23.9638567174
 10
4.383899801
 20
-23.9563499972
 10
4.3940938707
 20
-23.9483495701
 10
4.4043911261
 20
-23.9400456315
 10
4.4147685424
 20
-23.9312479859
 10
4.4252405167
 20
-23.9221137412
 10
4.4358264312
 20
-23.9127508827
 10
4.4465069037
 20
-23.9030514252
 10
4.4572381842
 20
-23.8928485203
 10
4.4680308209
 20
-23.8821659093
 10
4.4788742656
 20
-23.8709798509
 10
4.4896931242
 20
-23.8590522732
 10
4.5005001392
 20
-23.8463633429
 10
4.5112825681
 20
-23.8329328932
 10
4.5219267901
 20
-23.8185823516
 10
4.5324455899
 20
-23.8032766246
 10
4.5428261828
 20
-23.7870508057
 10
4.5529165932
 20
-23.7698316038
 10
4.5627362982
 20
-23.7516056703
 10
4.5722658207
 20
-23.7323863537
 10
4.5812947546
 20
-23.7121404084
 10
4.589837531
 20
-23.6908683282
 10
4.5978797188
 20
-23.6685696193
 10
4.6051676184
 20
-23.6452095547
 10
4.6117050701
 20
-23.620805919
 10
4.6174882337
 20
-23.5953409277
 10
4.6222518887
 20
-23.5687264999
 10
4.6260123576
 20
-23.5409357361
 10
4.628753318
 20
-23.5119955359
 10
4.6301605817
 20
-23.4818985174
 10
4.6303110515
 20
-23.4506147827
 10
4.6291278246
 20
-23.4181742298
 10
4.6260660049
 20
-23.38465917
 10
4.6212843255
 20
-23.3500102219
 10
4.6146240532
 20
-23.314286767
 10
4.6050640929
 20
-23.2777492617
 10
4.5925081143
 20
-23.2400936948
 10
4.5770524478
 20
-23.2016240774
 10
4.5579649891
 20
-23.1635128989
 10
4.5343117617
 20
-23.1251650312
 10
4.507026742
 20
-23.0871756025
 10
4.4781797554
 20
-23.0525024867
 10
4.4480316517
 20
-23.0221196347
 10
4.416321581
 20
-22.9950530957
 10
4.3843368188
 20
-22.9713388914
 10
4.3525064571
 20
-22.9509890291
 10
4.320401404
 20
-22.9339915016
 10
4.2880216595
 20
-22.9203463088
  0
LWPOLYLINE
  5
275
100
AcDbEntity
  8
0
100
AcDbPolyline
 62
7
  6
CONTINUOUS
 90
10
 70
0
 10
3.6283439576
 20
-23.2314312536
 10
3.6670327453
 20
-23.224996578
 10
3.7055687782
 20
-23.2198219425
 10
3.7439520563
 20
-23.2159073471
 10
3.7821573648
 20
-23.2132457641
 10
3.8202099186
 20
-23.2118442211
 10
3.8581853618
 20
-23.2117238016
 10
3.8961089091
 20
-23.2128915333
 10
3.9339553458
 20
-23.2153403883
 10
3.9717246719
 20
-23.2190703667
  0
LWPOLYLINE
  5
276
100
AcDbEntity
  8
RACCORDO
100
AcDbPolyline
 62
253
  6
CONTINUOUS
 90
22
 70
0
 10
34.3100853486
 20
-21.756683528
 10
34.3344007312
 20
-21.7547172491
 10
34.3584508318
 20
-21.7507943593
 10
34.3820775823
 20
-21.7449523443
 10
34.4050929158
 20
-21.7372544771
 10
34.4273856207
 20
-21.7277548698
 10
34.4489105168
 20
-21.7164702717
 10
34.4697013896
 20
-21.7033372412
 10
34.4894106189
 20
-21.6885244833
 10
34.5074980727
 20
-21.6724984588
 10
34.5238722624
 20
-21.6555126324
 10
34.538576461
 20
-21.6376996621
 10
34.5514380993
 20
-21.6194886581
 10
34.5624748065
 20
-21.6011846849
 10
34.5718473278
 20
-21.5828752583
 10
34.579667896
 20
-21.5646743714
 10
34.5860312647
 20
-21.5467458424
 10
34.5910586986
 20
-21.5291853663
 10
34.5948821301
 20
-21.5119679964
 10
34.5976002594
 20
-21.4951343933
 10
34.5993016998
 20
-21.4787983394
 10
34.6000840643
 20
-21.4630196839
  0
LWPOLYLINE
  5
277
100
AcDbEntity
  8
RACCORDO
100
AcDbPolyline
 62
253
  6
CONTINUOUS
 90
22
 70
0
 10
34.3283812078
 20
-21.7864260635
 10
34.3528697647
 20
-21.7851831224
 10
34.377040277
 20
-21.7817935439
 10
34.4007366909
 20
-21.7762861172
 10
34.4237896345
 20
-21.7687139662
 10
34.4460655023
 20
-21.7591194091
 10
34.4674618204
 20
-21.7475199684
 10
34.4879887907
 20
-21.733841812
 10
34.5073264155
 20
-21.7182707872
 10
34.5249547875
 20
-21.7013187974
 10
34.5407683838
 20
-21.6832109107
 10
34.5548164036
 20
-21.6640892084
 10
34.5669700989
 20
-21.6444729853
 10
34.57724337
 20
-21.62466087
 10
34.5857902088
 20
-21.604720546
 10
34.5927608326
 20
-21.5848334966
 10
34.5982602618
 20
-21.5651656703
 10
34.6023903375
 20
-21.5457889522
 10
34.6052828799
 20
-21.5267104828
 10
34.6070407137
 20
-21.5079775627
 10
34.6077541652
 20
-21.4896829227
 10
34.6075228282
 20
-21.4718791734
  0
LWPOLYLINE
  5
278
100
AcDbEntity
  8
RACCORDO
100
AcDbPolyline
 62
253
  6
CONTINUOUS
 90
6
 70
0
 10
34.3011803905
 20
-21.7568893712
 10
34.3029513949
 20
-21.7568725009
 10
34.3047274578
 20
-21.7568435985
 10
34.3065085151
 20
-21.7568025469
 10
34.3082945011
 20
-21.7567492291
 10
34.3100853486
 20
-21.756683528
  0
LWPOLYLINE
  5
279
100
AcDbEntity
  8
RACCORDO
100
AcDbPolyline
 62
253
  6
CONTINUOUS
 90
6
 70
0
 10
34.3040669454
 20
-21.7869588886
 10
34.3087894654
 20
-21.7869146255
 10
34.3135820675
 20
-21.7868390739
 10
34.3184447518
 20
-21.7867322338
 10
34.3233775183
 20
-21.7865941054
 10
34.3283803668
 20
-21.7864246885
  0
LWPOLYLINE
  5
27A
100
AcDbEntity
  8
RACCORDO
100
AcDbPolyline
 62
253
  6
CONTINUOUS
 90
19
 70
0
 10
-33.248137078
 20
-22.4508470536
 10
-33.2739173012
 20
-22.4510148077
 10
-33.299179422
 20
-22.4487250393
 10
-33.3237596369
 20
-22.444026588
 10
-33.3474662382
 20
-22.4369927871
 10
-33.3701833775
 20
-22.427688336
 10
-33.3918614779
 20
-22.4161434763
 10
-33.4123469594
 20
-22.4024320659
 10
-33.4315030416
 20
-22.3866352479
 10
-33.449286668
 20
-22.3687659103
 10
-33.4655604619
 20
-22.3488843898
 10
-33.48016348
 20
-22.3271095746
 10
-33.4929969073
 20
-22.3035316117
 10
-33.5039176797
 20
-22.27824105
 10
-33.5127872514
 20
-22.2513948222
 10
-33.5195130494
 20
-22.2231950854
 10
-33.5239883549
 20
-22.1938184225
 10
-33.5260961532
 20
-22.1634159846
 10
-33.5257451564
 20
-22.1321697001
  0
LINE
  5
27B
100
AcDbEntity
  8
RACCORDO
100
AcDbLine
 62
253
  6
CONTINUOUS
 10
-35.7581667393
 20
-25.1172894908
 11
37.163054031
 21
-25.1172894908
  0
LINE
  5
27C
100
AcDbEntity
  8
0
100
AcDbLine
 62
7
  6
CONTINUOUS
 10
-2.7458979184
 20
-24.9735285918
 11
-2.3596319184
 21
-24.9735285918
  0
LINE
  5
27D
100
AcDbEntity
  8
0
100
AcDbLine
 62
7
  6
CONTINUOUS
 10
-1.5220049184
 20
-24.9735285918
 11
-1.0836889184
 21
-24.9735285918
  0
LINE
  5
27E
100
AcDbEntity
  8
0
100
AcDbLine
 62
7
  6
CONTINUOUS
 10
-0.8477299184
 20
-24.9735285918
 11
-0.4284049184
 21
-24.9735285918
  0
LINE
  5
27F
100
AcDbEntity
  8
0
100
AcDbLine
 62
7
  6
CONTINUOUS
 10
0.1803810816
 20
-24.9735285918
 11
0.2418540816
 21
-24.9735285918
  0
LINE
  5
280
100
AcDbEntity
  8
0
100
AcDbLine
 62
7
  6
CONTINUOUS
 10
0.8530650816
 20
-24.9735285918
 11
1.2818540816
 21
-24.9735285918
  0
LINE
  5
281
100
AcDbEntity
  8
0
100
AcDbLine
 62
7
  6
CONTINUOUS
 10
1.3506810816
 20
-24.9735285918
 11
1.7842410816
 21
-24.9735285918
  0
LINE
  5
282
100
AcDbEntity
  8
0
100
AcDbLine
 62
7
  6
CONTINUOUS
 10
2.6156490816
 20
-24.9735285918
 11
3.0776150816
 21
-24.9735285918
  0
LINE
  5
283
100
AcDbEntity
  8
0
100
AcDbLine
 62
7
  6
CONTINUOUS
 10
3.2063259577
 20
-24.9735289896
 11
3.6428778412
 21
-24.9735289896
  0
LINE
  5
284
100
AcDbEntity
  8
0
100
AcDbLine
 62
7
  6
CONTINUOUS
 10
4.3140976196
 20
-24.9735289896
 11
4.7357062144
 21
-24.9735289896
  0
LINE
  5
285
100
AcDbEntity
  8
RACCORDO
100
AcDbLine
 62
253
  6
CONTINUOUS
 10
37.8597182892
 20
-24.7173504114
 11
37.5597639806
 21
-24.7173504128
  0
LINE
  5
286
100
AcDbEntity
  8
RACCORDO
100
AcDbLine
 62
253
  6
CONTINUOUS
 10
-36.4580601259
 20
-24.7173504108
 11
-36.1581058174
 21
-24.7173504128
  0
LINE
  5
287
100
AcDbEntity
  8
0
100
AcDbLine
 62
7
  6
CONTINUOUS
 10
1.9051890816
 20
-24.5543295918
 11
2.5021020816
 21
-24.5543295918
  0
LINE
  5
288
100
AcDbEntity
  8
0
100
AcDbLine
 62
7
  6
CONTINUOUS
 10
2.4145050816
 20
-24.2299545918
 11
1.9948490816
 21
-24.2299545918
  0
LINE
  5
289
100
AcDbEntity
  8
0
100
AcDbLine
 62
7
  6
CONTINUOUS
 10
3.6428778412
 20
-24.1517740788
 11
3.8778921559
 21
-24.1517740788
  0
LINE
  5
28A
100
AcDbEntity
  8
0
100
AcDbLine
 62
7
  6
CONTINUOUS
 10
3.8788369371
 20
-23.8078737349
 11
3.6283439576
 21
-23.8078737349
  0
LINE
  5
28B
100
AcDbEntity
  8
0
100
AcDbLine
 62
7
  6
CONTINUOUS
 10
2.4333370816
 20
-22.8737055918
 11
2.0093200816
 21
-22.8737055918
  0
LINE
  5
28C
100
AcDbEntity
  8
0
100
AcDbLine
 62
7
  6
CONTINUOUS
 10
1.0854970816
 20
-22.8737055918
 11
0.6518270816
 21
-22.8737055918
  0
LINE
  5
28D
100
AcDbEntity
  8
0
100
AcDbLine
 62
7
  6
CONTINUOUS
 10
-0.2201749184
 20
-22.8737055918
 11
-0.6581279184
 21
-22.8737055918
  0
LINE
  5
28E
100
AcDbEntity
  8
0
100
AcDbLine
 62
7
  6
CONTINUOUS
 10
-1.6846639184
 20
-22.8737055918
 11
-2.1226809184
 21
-22.8737055918
  0
LINE
  5
28F
100
AcDbEntity
  8
0
100
AcDbLine
 62
7
  6
CONTINUOUS
 10
-2.9354369184
 20
-22.8737055918
 11
-3.4115829184
 21
-22.8737055918
  0
LINE
  5
290
100
AcDbEntity
  8
0
100
AcDbLine
 62
7
  6
CONTINUOUS
 10
-1.0836889184
 20
-22.8735795918
 11
-1.5220049184
 21
-22.8735795918
  0
LINE
  5
291
100
AcDbEntity
  8
RACCORDO
100
AcDbLine
 62
253
  6
CONTINUOUS
 10
34.6497740909
 20
-22.7327543453
 11
-33.2481159276
 21
-22.7327543453
  0
LINE
  5
292
100
AcDbEntity
  8
RACCORDO
100
AcDbLine
 62
253
  6
CONTINUOUS
 10
34.6497604115
 20
-22.450846559
 11
-33.2481368381
 21
-22.450846559
  0
LINE
  5
293
100
AcDbEntity
  8
RACCORDO
100
AcDbLine
 62
253
  6
CONTINUOUS
 10
35.2228456305
 20
-22.1321693425
 11
34.9274033046
 21
-22.1321693427
  0
LINE
  5
294
100
AcDbEntity
  8
RACCORDO
100
AcDbLine
 62
253
  6
CONTINUOUS
 10
-33.8211874672
 20
-22.1321693425
 11
-33.5257451413
 21
-22.1321693425
  0
LINE
  5
295
100
AcDbEntity
  8
RACCORDO
100
AcDbLine
 62
253
  6
CONTINUOUS
 10
-32.8977563442
 20
-21.7869718634
 11
34.3040669454
 21
-21.7869588886
  0
LINE
  5
296
100
AcDbEntity
  8
RACCORDO
100
AcDbLine
 62
253
  6
CONTINUOUS
 10
-32.8977563442
 20
-21.7568943262
 11
34.3011803905
 21
-21.7568893712
  0
LINE
  5
297
100
AcDbEntity
  8
RACCORDO
100
AcDbLine
 62
7
  6
CONTINUOUS
 10
34.2930199939
 20
-21.7504998126
 11
-32.8913618306
 21
-21.7504998126
  0
LINE
  5
298
100
AcDbEntity
  8
RACCORDO
100
AcDbLine
 62
253
  6
CONTINUOUS
 10
-33.1984841513
 20
-21.4577135162
 11
-33.2060041224
 21
-21.4577135162
  0
LINE
  5
299
100
AcDbEntity
  8
RACCORDO
100
AcDbLine
 62
253
  6
CONTINUOUS
 10
34.6001423145
 20
-21.4577135162
 11
34.6076622856
 21
-21.4577135162
  0
LWPOLYLINE
  5
29A
100
AcDbEntity
  8
RACCORDO
100
AcDbPolyline
 62
253
  6
CONTINUOUS
 90
7
 70
0
 10
-32.9263299275
 20
-21.7864356596
 10
-32.9215756994
 20
-21.786599309
 10
-32.916818257
 20
-21.7867332456
 10
-32.9120576002
 20
-21.7868374694
 10
-32.9072937292
 20
-21.7869119803
 10
-32.9025266439
 20
-21.7869567783
 10
-32.8977563442
 20
-21.7869718634
  0
LWPOLYLINE
  5
29B
100
AcDbEntity
  8
RACCORDO
100
AcDbPolyline
 62
253
  6
CONTINUOUS
 90
7
 70
0
 10
-32.9084271854
 20
-21.756683528
 10
-32.9066650146
 20
-21.7567483111
 10
-32.9048962421
 20
-21.7568013514
 10
-32.9031209274
 20
-21.7568425609
 10
-32.9013391315
 20
-21.7568718518
 10
-32.8995509162
 20
-21.7568891361
 10
-32.8977563442
 20
-21.7568943262
  0
LWPOLYLINE
  5
29C
100
AcDbEntity
  8
RACCORDO
100
AcDbPolyline
 62
253
  6
CONTINUOUS
 90
19
 70
0
 10
-33.2481159276
 20
-22.7327543453
 10
-33.2990099899
 20
-22.730353227
 10
-33.3484909523
 20
-22.7238180961
 10
-33.396558815
 20
-22.7131489526
 10
-33.4434455779
 20
-22.6982293911
 10
-33.488919241
 20
-22.6791758171
 10
-33.5322838045
 20
-22.6563374468
 10
-33.5735331569
 20
-22.6297100892
 10
-33.6126734097
 20
-22.5992979355
 10
-33.6490268972
 20
-22.5654627755
 10
-33.6826288396
 20
-22.528128567
 10
-33.7134440167
 20
-22.4873713522
 10
-33.7406891016
 20
-22.4437810485
 10
-33.7643412652
 20
-22.3972489188
 10
-33.7844233365
 20
-22.3478837002
 10
-33.8002204763
 20
-22.2966015204
 10
-33.8114944048
 20
-22.2437077556
 10
-33.8184834018
 20
-22.1888970296
 10
-33.8211874672
 20
-22.1321693425
  0
LWPOLYLINE
  5
29D
100
AcDbEntity
  8
0
100
AcDbPolyline
 62
7
  6
CONTINUOUS
 90
13
 70
0
 10
3.8778921559
 20
-24.1517740788
 10
3.9053484653
 20
-24.1533292766
 10
3.9314339503
 20
-24.1573479821
 10
3.956148611
 20
-24.1638301953
 10
3.9793831553
 20
-24.1727262184
 10
4.0012468752
 20
-24.1840857492
 10
4.0220676471
 20
-24.198057881
 10
4.0420774706
 20
-24.2147019321
 10
4.0610443461
 20
-24.2339585841
 10
4.0786001505
 20
-24.2557989755
 10
4.0946221761
 20
-24.2802134856
 10
4.1092331306
 20
-24.3072117349
 10
4.122433014
 20
-24.3367937236
  0
LWPOLYLINE
  5
29E
100
AcDbEntity
  8
0
100
AcDbPolyline
 62
7
  6
CONTINUOUS
 90
16
 70
0
 10
3.9717246719
 20
-23.2190703667
 10
4.0006857557
 20
-23.224073589
 10
4.028138532
 20
-23.23119233
 10
4.0540830009
 20
-23.2404265898
 10
4.0786803427
 20
-23.251915201
 10
4.1017693769
 20
-23.265519331
 10
4.1228665623
 20
-23.2808224814
 10
4.1417964902
 20
-23.2977230975
 10
4.1587345691
 20
-23.316322734
 10
4.1737234838
 20
-23.3365095564
 10
4.1869067056
 20
-23.3585861257
 10
4.1981407631
 20
-23.3822498809
 10
4.2070379265
 20
-23.4064813043
 10
4.2134689525
 20
-23.4309405569
 10
4.2175630845
 20
-23.4559674778
 10
4.2193203225
 20
-23.481562067
  0
LINE
  5
29F
100
AcDbEntity
  8
SMUSSO
100
AcDbLine
 62
7
  6
CONTINUOUS
 10
48.0508290816
 20
-45.5083545918
 11
47.0508290816
 21
-45.0941410295
  0
LINE
  5
2A0
100
AcDbEntity
  8
SMUSSO
100
AcDbLine
 62
7
  6
CONTINUOUS
 10
-45.6491709184
 20
48.1916454082
 11
-45.234957356
 21
47.1916454082
  0
LINE
  5
2A1
100
AcDbEntity
  8
RACCORDO
100
AcDbLine
 62
253
  6
CONTINUOUS
 10
-33.5257451413
 20
-22.1321696689
 11
-33.205864665
 21
-21.4718791734
  0
LINE
  5
2A2
100
AcDbEntity
  8
RACCORDO
100
AcDbLine
 62
253
  6
CONTINUOUS
 10
-33.2481368381
 20
-22.450846559
 11
-32.9263299275
 21
-21.7864356596
  0
LWPOLYLINE
  5
2A3
100
AcDbEntity
  8
0
100
AcDbPolyline
 62
7
  6
CONTINUOUS
 90
13
 70
0
 10
4.2880216595
 20
-22.9203463088
 10
4.2179630563
 20
-22.8989100776
 10
4.1440001213
 20
-22.8813099743
 10
4.0661328546
 20
-22.8675459989
 10
3.9841697058
 20
-22.8578051904
 10
3.8983022252
 20
-22.8519005098
 10
3.8091050641
 20
-22.84927084
 10
3.7167261488
 20
-22.8498368229
 10
3.621017553
 20
-22.8536778167
 10
3.5221101487
 20
-22.8604707785
 10
3.4200475601
 20
-22.8701080275
 10
3.3147861631
 20
-22.8826972445
 10
3.2063259577
 20
-22.8982384295
  0
LINE
  5
2A4
100
AcDbEntity
  8
RACCORDO
100
AcDbLine
 62
253
  6
CONTINUOUS
 10
-33.205864665
 20
23.1551699898
 11
-33.5257451413
 21
23.8154604107
  0
LINE
  5
2A5
100
AcDbEntity
  8
RACCORDO
100
AcDbLine
 62
253
  6
CONTINUOUS
 10
-32.9263300069
 20
23.4697264847
 11
-33.2481384214
 21
24.1341373754
  0
LWPOLYLINE
  5
2A6
100
AcDbEntity
  8
RACCORDO
100
AcDbPolyline
 62
253
  6
CONTINUOUS
 90
10
 70
0
 10
34.3100853291
 20
23.4399737985
 10
34.3120021422
 20
23.4405800417
 10
34.3139408231
 20
23.4418686958
 10
34.3158987231
 20
23.4438379984
 10
34.3178731671
 20
23.4464852561
 10
34.3198614571
 20
23.4498068486
 10
34.3218608762
 20
23.4537982332
 10
34.323868692
 20
23.4584539512
 10
34.3258821603
 20
23.4637676356
 10
34.3278985292
 20
23.4697320193
  0
LWPOLYLINE
  5
2A7
100
AcDbEntity
  8
RACCORDO
100
AcDbPolyline
 62
253
  6
CONTINUOUS
 90
10
 70
0
 10
34.3100853545
 20
-21.756683694
 10
34.3120027109
 20
-21.7572897342
 10
34.3139418043
 20
-21.7585781339
 10
34.3158999832
 20
-21.7605471312
 10
34.3178745697
 20
-21.7631940336
 10
34.3198628636
 20
-21.7665152216
 10
34.3218621459
 20
-21.7705061535
 10
34.3238696825
 20
-21.7751613719
 10
34.3258827282
 20
-21.7804745109
 10
34.3278985301
 20
-21.786438305
  0
LINE
  5
2A8
100
AcDbEntity
  8
0
100
AcDbLine
 62
7
  6
CONTINUOUS
 10
-0.3338159184
 20
-23.6023835918
 11
0.1803810816
 21
-24.9735285918
  0
LINE
  5
2A9
100
AcDbEntity
  8
0
100
AcDbLine
 62
7
  6
CONTINUOUS
 10
0.2135110816
 20
-24.0395335918
 11
-0.2201749184
 21
-22.8737055918
  0
LINE
  5
2AA
100
AcDbEntity
  8
0
100
AcDbLine
 62
7
  6
CONTINUOUS
 10
-3.4115829184
 20
-22.8737055918
 11
-2.7458979184
 21
-24.9735285918
  0
LINE
  5
2AB
100
AcDbEntity
  8
0
100
AcDbLine
 62
7
  6
CONTINUOUS
 10
-2.5351719184
 20
-24.3190785918
 11
-2.9354369184
 21
-22.8737055918
  0
LINE
  5
2AC
100
AcDbEntity
  8
RACCORDO
100
AcDbLine
 62
253
  6
CONTINUOUS
 10
-33.1984841513
 20
-21.4577135162
 11
-33.1913161391
 21
-21.4505455041
  0
LINE
  5
2AD
100
AcDbEntity
  8
RACCORDO
100
AcDbLine
 62
253
  6
CONTINUOUS
 10
-36.4580601259
 20
-24.7173504128
 11
-36.4991709184
 21
-24.7584612052
  0
LINE
  5
2AE
100
AcDbEntity
  8
RACCORDO
100
AcDbLine
 62
253
  6
CONTINUOUS
 10
-32.8977563442
 20
-21.7568943262
 11
-32.8913618306
 21
-21.7504998126
  0
LINE
  5
2AF
100
AcDbEntity
  8
RACCORDO
100
AcDbLine
 62
253
  6
CONTINUOUS
 10
-35.7581667393
 20
-25.4172437994
 11
-35.7992775318
 21
-25.4583545918
  0
LINE
  5
2B0
100
AcDbEntity
  8
RACCORDO
100
AcDbLine
 62
253
  6
CONTINUOUS
 10
-33.1913161391
 20
23.1338363204
 11
-33.1984841513
 21
23.1410043325
  0
LINE
  5
2B1
100
AcDbEntity
  8
RACCORDO
100
AcDbLine
 62
253
  6
CONTINUOUS
 10
-36.4580601259
 20
26.4006412291
 11
-36.4991709184
 21
26.4417520216
  0
LINE
  5
2B2
100
AcDbEntity
  8
RACCORDO
100
AcDbLine
 62
253
  6
CONTINUOUS
 10
-32.8913618306
 20
23.4337906289
 11
-32.8977563442
 21
23.4401851426
  0
LINE
  5
2B3
100
AcDbEntity
  8
RACCORDO
100
AcDbLine
 62
253
  6
CONTINUOUS
 10
-35.7581667393
 20
27.1005346157
 11
-35.7992775318
 21
27.1416454082
  0
LWPOLYLINE
  5
2B4
100
AcDbEntity
  8
0
100
AcDbPolyline
 62
7
  6
CONTINUOUS
 90
6
 70
0
 10
4.122433014
 20
-24.3367937236
 10
4.1447219681
 20
-24.4020520964
 10
4.1665245174
 20
-24.4687682455
 10
4.1878406621
 20
-24.536942171
 10
4.2083528249
 20
-24.606687578
 10
4.2488706683
 20
-24.7502106057
  0
LINE
  5
2B5
100
AcDbEntity
  8
0
100
AcDbLine
 62
7
  6
CONTINUOUS
 10
3.0776150816
 20
-24.9735285918
 11
2.4333370816
 21
-22.8737055918
  0
LINE
  5
2B6
100
AcDbEntity
  8
0
100
AcDbLine
 62
7
  6
CONTINUOUS
 10
2.5021020816
 20
-24.5543295918
 11
2.6156490816
 21
-24.9735285918
  0
LINE
  5
2B7
100
AcDbEntity
  8
0
100
AcDbLine
 62
7
  6
CONTINUOUS
 10
2.2130930816
 20
-23.4506835918
 11
2.4145050816
 21
-24.2299545918
  0
LINE
  5
2B8
100
AcDbEntity
  8
0
100
AcDbLine
 62
7
  6
CONTINUOUS
 10
1.2818540816
 20
-24.9735285918
 11
1.0854970816
 21
-22.8737055918
  0
LINE
  5
2B9
100
AcDbEntity
  8
0
100
AcDbLine
 62
7
  6
CONTINUOUS
 10
0.7630120816
 20
-23.6080995918
 11
0.8530650816
 21
-24.9735285918
  0
LINE
  5
2BA
100
AcDbEntity
  8
0
100
AcDbLine
 62
7
  6
CONTINUOUS
 10
-1.5220049184
 20
-22.8735795918
 11
-1.5220049184
 21
-24.9735285918
  0
LINE
  5
2BB
100
AcDbEntity
  8
0
100
AcDbLine
 62
7
  6
CONTINUOUS
 10
-1.0836889184
 20
-24.9735285918
 11
-1.0836889184
 21
-22.8735795918
  0
LINE
  5
2BC
100
AcDbEntity
  8
0
100
AcDbLine
 62
7
  6
CONTINUOUS
 10
4.2488706683
 20
-24.7502106057
 11
4.3140976196
 21
-24.9735289896
  0
LINE
  5
2BD
100
AcDbEntity
  8
0
100
AcDbLine
 62
7
  6
CONTINUOUS
 10
4.6373139201
 20
-24.598043105
 11
4.5858639217
 21
-24.4051958799
  0
LINE
  5
2BE
100
AcDbEntity
  8
0
100
AcDbLine
 62
7
  6
CONTINUOUS
 10
4.7357062144
 20
-24.9735289896
 11
4.6373139201
 21
-24.598043105
  0
LWPOLYLINE
  5
2BF
100
AcDbEntity
  8
0
100
AcDbPolyline
 62
7
  6
CONTINUOUS
 90
16
 70
0
 10
4.5858639217
 20
-24.4051958799
 10
4.5760692733
 20
-24.3663059695
 10
4.5652435614
 20
-24.32829841
 10
4.553386786
 20
-24.2911732013
 10
4.5405467125
 20
-24.2545729182
 10
4.5266755754
 20
-24.218854986
 10
4.5116300789
 20
-24.1850916806
 10
4.495270351
 20
-24.1533953952
 10
4.4777362638
 20
-24.1236537365
 10
4.4593041367
 20
-24.0966018007
 10
4.4399620575
 20
-24.0724436769
 10
4.4197219385
 20
-24.050975276
 10
4.3988958368
 20
-24.0323194273
 10
4.3775877712
 20
-24.016517074
 10
4.3556937229
 20
-24.0035272728
 10
4.3332136919
 20
-23.9933500239
  0
LINE
  5
2C0
100
AcDbEntity
  8
0
100
AcDbLine
 62
7
  6
CONTINUOUS
 10
3.2063259577
 20
-22.8982384295
 11
3.2063259577
 21
-24.9735289896
  0
LINE
  5
2C1
100
AcDbEntity
  8
0
100
AcDbLine
 62
7
  6
CONTINUOUS
 10
3.6283439576
 20
-23.8078737349
 11
3.6283439576
 21
-23.2314312536
  0
LINE
  5
2C2
100
AcDbEntity
  8
0
100
AcDbLine
 62
7
  6
CONTINUOUS
 10
3.6428778412
 20
-24.9735289896
 11
3.6428778412
 21
-24.1517740788
  0
LINE
  5
2C3
100
AcDbEntity
  8
0
100
AcDbLine
 62
7
  6
CONTINUOUS
 10
4.3332136919
 20
-23.9933500239
 11
4.3332136919
 21
-23.9809418979
  0
LWPOLYLINE
  5
2C4
100
AcDbEntity
  8
0
100
AcDbPolyline
 62
7
  6
CONTINUOUS
 90
19
 70
0
 10
4.2193203225
 20
-23.481562067
 10
4.2177611446
 20
-23.5163904659
 10
4.2138131115
 20
-23.5495564473
 10
4.207476223
 20
-23.5810600112
 10
4.1984801097
 20
-23.6111843618
 10
4.1870951411
 20
-23.639646295
 10
4.1741324255
 20
-23.6655961979
 10
4.159939497
 20
-23.6886158422
 10
4.1441688215
 20
-23.7091234563
 10
4.1265889058
 20
-23.7275241126
 10
4.1072904205
 20
-23.7438384963
 10
4.0861826949
 20
-23.7580459221
 10
4.0627622237
 20
-23.7704894062
 10
4.0366325715
 20
-23.7813173551
 10
4.0081901736
 20
-23.7903813623
 10
3.9781208311
 20
-23.7975792242
 10
3.9466531443
 20
-23.802876873
 10
3.913558513
 20
-23.8063083766
 10
3.8788369371
 20
-23.8078737349
  0
LINE
  5
2C5
100
AcDbEntity
  8
0
100
AcDbLine
 62
7
  6
CONTINUOUS
 10
-0.4284049184
 20
-24.9735285918
 11
-0.3338159184
 21
-23.6023835918
  0
LINE
  5
2C6
100
AcDbEntity
  8
0
100
AcDbLine
 62
7
  6
CONTINUOUS
 10
-0.6581279184
 20
-22.8737055918
 11
-0.8477299184
 21
-24.9735285918
  0
LINE
  5
2C7
100
AcDbEntity
  8
0
100
AcDbLine
 62
7
  6
CONTINUOUS
 10
-2.1226809184
 20
-22.8737055918
 11
-2.5351719184
 21
-24.3190785918
  0
LINE
  5
2C8
100
AcDbEntity
  8
0
100
AcDbLine
 62
7
  6
CONTINUOUS
 10
-2.3596319184
 20
-24.9735285918
 11
-1.6846639184
 21
-22.8737055918
  0
LINE
  5
2C9
100
AcDbEntity
  8
0
100
AcDbLine
 62
7
  6
CONTINUOUS
 10
1.9948490816
 20
-24.2299545918
 11
2.2130930816
 21
-23.4506835918
  0
LINE
  5
2CA
100
AcDbEntity
  8
0
100
AcDbLine
 62
7
  6
CONTINUOUS
 10
1.7842410816
 20
-24.9735285918
 11
1.9051890816
 21
-24.5543295918
  0
LINE
  5
2CB
100
AcDbEntity
  8
0
100
AcDbLine
 62
7
  6
CONTINUOUS
 10
2.0093200816
 20
-22.8737055918
 11
1.3506810816
 21
-24.9735285918
  0
LINE
  5
2CC
100
AcDbEntity
  8
0
100
AcDbLine
 62
7
  6
CONTINUOUS
 10
0.6518270816
 20
-22.8737055918
 11
0.2135110816
 21
-24.0395335918
  0
LINE
  5
2CD
100
AcDbEntity
  8
0
100
AcDbLine
 62
7
  6
CONTINUOUS
 10
0.2418540816
 20
-24.9735285918
 11
0.7630120816
 21
-23.6080995918
  0
LINE
  5
2CE
100
AcDbEntity
  8
RACCORDO
100
AcDbLine
 62
253
  6
CONTINUOUS
 10
37.1598249026
 20
27.1005346157
 11
37.200935695
 21
27.1416454082
  0
LINE
  5
2CF
100
AcDbEntity
  8
RACCORDO
100
AcDbLine
 62
253
  6
CONTINUOUS
 10
34.2994145075
 20
23.4401851426
 11
34.2930199939
 21
23.4337906289
  0
LINE
  5
2D0
100
AcDbEntity
  8
RACCORDO
100
AcDbLine
 62
253
  6
CONTINUOUS
 10
37.8597182892
 20
26.4006412291
 11
37.9008290816
 21
26.4417520216
  0
LINE
  5
2D1
100
AcDbEntity
  8
RACCORDO
100
AcDbLine
 62
253
  6
CONTINUOUS
 10
34.6001423145
 20
23.1410043325
 11
34.5929743024
 21
23.1338363204
  0
LINE
  5
2D2
100
AcDbEntity
  8
RACCORDO
100
AcDbLine
 62
253
  6
CONTINUOUS
 10
37.1598249026
 20
-25.4172437994
 11
37.200935695
 21
-25.4583545918
  0
LINE
  5
2D3
100
AcDbEntity
  8
RACCORDO
100
AcDbLine
 62
253
  6
CONTINUOUS
 10
34.2994145075
 20
-21.7568943262
 11
34.2930199939
 21
-21.7504998126
  0
LINE
  5
2D4
100
AcDbEntity
  8
RACCORDO
100
AcDbLine
 62
253
  6
CONTINUOUS
 10
37.8597182892
 20
-24.7173504128
 11
37.9008290816
 21
-24.7584612052
  0
LINE
  5
2D5
100
AcDbEntity
  8
RACCORDO
100
AcDbLine
 62
253
  6
CONTINUOUS
 10
34.6001423145
 20
-21.4577135162
 11
34.5929743024
 21
-21.4505455041
  0
LWPOLYLINE
  5
2D6
100
AcDbEntity
  8
RACCORDO
100
AcDbPolyline
 62
253
  6
CONTINUOUS
 90
10
 70
0
 10
-32.9084271658
 20
-21.7566829822
 10
-32.9103439789
 20
-21.7572892254
 10
-32.9122826598
 20
-21.7585778795
 10
-32.9142405598
 20
-21.7605471821
 10
-32.9162150038
 20
-21.7631944398
 10
-32.9182032938
 20
-21.7665160323
 10
-32.9202027129
 20
-21.7705074168
 10
-32.9222105287
 20
-21.7751631349
 10
-32.9242239971
 20
-21.7804768193
 10
-32.926240366
 20
-21.786441203
  0
LWPOLYLINE
  5
2D7
100
AcDbEntity
  8
RACCORDO
100
AcDbPolyline
 62
253
  6
CONTINUOUS
 90
10
 70
0
 10
-32.9084270972
 20
23.4399718451
 10
-32.9103444603
 20
23.4405778804
 10
-32.91228356
 20
23.4418662963
 10
-32.9142417453
 20
23.4438353311
 10
-32.9162163388
 20
23.4464822918
 10
-32.9182046412
 20
23.4498035587
 10
-32.9202039338
 20
23.45379459
 10
-32.9222114835
 20
23.4584499276
 10
-32.9242245454
 20
23.4637632054
 10
-32.9262403674
 20
23.4697271573
  0
LINE
  5
2D8
100
AcDbEntity
  8
RACCORDO
100
AcDbLine
 62
253
  6
CONTINUOUS
 10
34.6497950013
 20
24.1341373754
 11
34.3279880907
 21
23.4697264759
  0
LINE
  5
2D9
100
AcDbEntity
  8
RACCORDO
100
AcDbLine
 62
253
  6
CONTINUOUS
 10
34.9274033046
 20
23.8154604852
 11
34.6075228282
 21
23.1551699897
  0
LINE
  5
2DA
100
AcDbEntity
  8
RACCORDO
100
AcDbLine
 62
253
  6
CONTINUOUS
 10
-33.1984841513
 20
23.1410043325
 11
-33.2060041224
 21
23.1410043325
  0
LINE
  5
2DB
100
AcDbEntity
  8
RACCORDO
100
AcDbLine
 62
253
  6
CONTINUOUS
 10
34.6001423145
 20
23.1410043325
 11
34.6076622856
 21
23.1410043325
  0
LINE
  5
2DC
100
AcDbEntity
  8
RACCORDO
100
AcDbLine
 62
7
  6
CONTINUOUS
 10
-32.8913618306
 20
23.4337906289
 11
34.2930199939
 21
23.4337906289
  0
LINE
  5
2DD
100
AcDbEntity
  8
RACCORDO
100
AcDbLine
 62
253
  6
CONTINUOUS
 10
34.2994145075
 20
23.4401851426
 11
-32.8995418743
 21
23.4401800354
  0
LINE
  5
2DE
100
AcDbEntity
  8
RACCORDO
100
AcDbLine
 62
253
  6
CONTINUOUS
 10
34.2994145075
 20
23.4702626797
 11
-32.9025038626
 21
23.470247258
  0
LINE
  5
2DF
100
AcDbEntity
  8
RACCORDO
100
AcDbLine
 62
253
  6
CONTINUOUS
 10
34.9274033046
 20
-22.1321693425
 11
34.6075228282
 21
-21.4718791734
  0
LINE
  5
2E0
100
AcDbEntity
  8
RACCORDO
100
AcDbLine
 62
253
  6
CONTINUOUS
 10
34.6497604115
 20
-22.450846559
 11
34.3283803668
 21
-21.7864246885
  0
LINE
  5
2E1
100
AcDbEntity
  8
SMUSSO
100
AcDbLine
 62
7
  6
CONTINUOUS
 10
47.0508290816
 20
48.1916454082
 11
46.6366155193
 21
47.1916454082
  0
LINE
  5
2E2
100
AcDbEntity
  8
SMUSSO
100
AcDbLine
 62
7
  6
CONTINUOUS
 10
-46.6491709184
 20
-45.5083545918
 11
-45.6491709184
 21
-45.0941410295
  0
LWPOLYLINE
  5
2E3
100
AcDbEntity
  8
RACCORDO
100
AcDbPolyline
 62
253
  6
CONTINUOUS
 90
22
 70
0
 10
-32.9084271854
 20
23.4399743443
 10
-32.9334431618
 20
23.4379218256
 10
-32.9581844369
 20
23.4337965471
 10
-32.9824783285
 20
23.4276371995
 10
-33.0061906667
 20
23.4194839297
 10
-33.0291230142
 20
23.4094102094
 10
-33.051025748
 20
23.3975496539
 10
-33.0718701212
 20
23.3839436943
 10
-33.0914175561
 20
23.3687717913
 10
-33.1092069241
 20
23.3525075853
 10
-33.1251649133
 20
23.3354437113
 10
-33.1393773851
 20
23.3177220593
 10
-33.1517645348
 20
23.2996966654
 10
-33.1623626652
 20
23.2816577834
 10
-33.1713334551
 20
23.2636988569
 10
-33.1788219549
 20
23.2458654644
 10
-33.1849267539
 20
23.2282858783
 10
-33.1897525785
 20
23.2110724523
 10
-33.1934231656
 20
23.1942070436
 10
-33.196033455
 20
23.1777297803
 10
-33.1976697391
 20
23.1617455636
 10
-33.198425901
 20
23.1463105003
  0
LWPOLYLINE
  5
2E4
100
AcDbEntity
  8
RACCORDO
100
AcDbPolyline
 62
253
  6
CONTINUOUS
 90
22
 70
0
 10
-32.9263301407
 20
23.4697267484
 10
-32.9517024714
 20
23.4684296142
 10
-32.9766970079
 20
23.4648375847
 10
-33.0011420101
 20
23.458991156
 10
-33.0249064032
 20
23.4509301914
 10
-33.0477890147
 20
23.4407292091
 10
-33.0695314915
 20
23.4285245546
 10
-33.0900900043
 20
23.4143331778
 10
-33.1092399793
 20
23.3983561715
 10
-33.1265506891
 20
23.3811308691
 10
-33.1419364931
 20
23.362925511
 10
-33.1554848521
 20
23.3438828692
 10
-33.1671621364
 20
23.3244489958
 10
-33.1770032964
 20
23.3049107083
 10
-33.1851600183
 20
23.2853382273
 10
-33.191810802
 20
23.2658391864
 10
-33.1970631435
 20
23.246544095
 10
-33.2010049145
 20
23.2275430324
 10
-33.2037610011
 20
23.2088470209
 10
-33.2054301762
 20
23.190501947
 10
-33.2060995865
 20
23.1725931744
 10
-33.205864665
 20
23.1551699898
  0
LWPOLYLINE
  5
2E5
100
AcDbEntity
  8
RACCORDO
100
AcDbPolyline
 62
253
  6
CONTINUOUS
 90
6
 70
0
 10
-32.8995418743
 20
23.4401800354
 10
-32.9013246653
 20
23.4401628873
 10
-32.9031046543
 20
23.4401337209
 10
-32.9048817789
 20
23.4400925593
 10
-32.9066559766
 20
23.4400394259
 10
-32.9084271854
 20
23.4399743443
  0
LWPOLYLINE
  5
2E6
100
AcDbEntity
  8
RACCORDO
100
AcDbPolyline
 62
253
  6
CONTINUOUS
 90
6
 70
0
 10
-32.9025038626
 20
23.470247258
 10
-32.9072572845
 20
23.4702022587
 10
-32.9120166098
 20
23.4701276817
 10
-32.9167818387
 20
23.470023527
 10
-32.921552971
 20
23.4698897947
 10
-32.9263300069
 20
23.4697264847
  0
LWPOLYLINE
  5
2E7
100
AcDbEntity
  8
RACCORDO
100
AcDbPolyline
 62
253
  6
CONTINUOUS
 90
19
 70
0
 10
34.6497952412
 20
24.1341378699
 10
34.6755754645
 20
24.134305624
 10
34.7008375853
 20
24.1320158556
 10
34.7254178001
 20
24.1273174043
 10
34.7491244015
 20
24.1202836034
 10
34.7718415408
 20
24.1109791523
 10
34.7935196412
 20
24.0994342927
 10
34.8140051227
 20
24.0857228822
 10
34.8331612048
 20
24.0699260642
 10
34.8509448313
 20
24.0520567266
 10
34.8672186251
 20
24.0321752061
 10
34.8818216432
 20
24.0104003909
 10
34.8946550706
 20
23.986822428
 10
34.905575843
 20
23.9615318663
 10
34.9144454147
 20
23.9346856386
 10
34.9211712127
 20
23.9064859017
 10
34.9256465182
 20
23.8771092388
 10
34.9277543164
 20
23.8467068009
 10
34.9274033197
 20
23.8154605165
  0
LINE
  5
2E8
100
AcDbEntity
  8
RACCORDO
100
AcDbLine
 62
253
  6
CONTINUOUS
 10
35.2228456305
 20
23.8154601588
 11
34.9274033046
 21
23.8154601588
  0
LINE
  5
2E9
100
AcDbEntity
  8
RACCORDO
100
AcDbLine
 62
253
  6
CONTINUOUS
 10
-33.8211874672
 20
23.8154601588
 11
-33.5257451413
 21
23.8154601588
  0
LINE
  5
2EA
100
AcDbEntity
  8
RACCORDO
100
AcDbLine
 62
253
  6
CONTINUOUS
 10
-33.2481384214
 20
24.1341373754
 11
34.6497950013
 21
24.1341373754
  0
LINE
  5
2EB
100
AcDbEntity
  8
RACCORDO
100
AcDbLine
 62
253
  6
CONTINUOUS
 10
-33.2481159276
 20
24.4160451616
 11
34.6497740909
 21
24.4160451616
  0
LINE
  5
2EC
100
AcDbEntity
  8
RACCORDO
100
AcDbLine
 62
253
  6
CONTINUOUS
 10
37.8597182892
 20
26.4006412271
 11
37.5597639806
 21
26.4006412291
  0
LINE
  5
2ED
100
AcDbEntity
  8
RACCORDO
100
AcDbLine
 62
253
  6
CONTINUOUS
 10
-36.4580601259
 20
26.4006412277
 11
-36.1581058174
 21
26.4006412291
  0
LINE
  5
2EE
100
AcDbEntity
  8
RACCORDO
100
AcDbLine
 62
253
  6
CONTINUOUS
 10
37.1598249026
 20
26.8005803072
 11
-35.7613958677
 21
26.8005803072
  0
LINE
  5
2EF
100
AcDbEntity
  8
RACCORDO
100
AcDbLine
 62
253
  6
CONTINUOUS
 10
37.1598249026
 20
27.1005346157
 11
-35.7581667393
 21
27.1005346157
  0
LINE
  5
2F0
100
AcDbEntity
  8
RACCORDO
100
AcDbLine
 62
7
  6
CONTINUOUS
 10
37.200935695
 20
27.1416454082
 11
-35.7992775318
 21
27.1416454082
  0
LWPOLYLINE
  5
2F1
100
AcDbEntity
  8
RACCORDO
100
AcDbPolyline
 62
253
  6
CONTINUOUS
 90
7
 70
0
 10
34.3279880907
 20
23.4697264759
 10
34.3232338626
 20
23.4698901254
 10
34.3184764202
 20
23.470024062
 10
34.3137157635
 20
23.4701282857
 10
34.3089518925
 20
23.4702027966
 10
34.3041848071
 20
23.4702475946
 10
34.2994145075
 20
23.4702626797
  0
LWPOLYLINE
  5
2F2
100
AcDbEntity
  8
RACCORDO
100
AcDbPolyline
 62
253
  6
CONTINUOUS
 90
7
 70
0
 10
34.3100853486
 20
23.4399743443
 10
34.3083231779
 20
23.4400391274
 10
34.3065544053
 20
23.4400921677
 10
34.3047790907
 20
23.4401333773
 10
34.3029972948
 20
23.4401626681
 10
34.3012090794
 20
23.4401799524
 10
34.2994145075
 20
23.4401851426
  0
LWPOLYLINE
  5
2F3
100
AcDbEntity
  8
RACCORDO
100
AcDbPolyline
 62
253
  6
CONTINUOUS
 90
22
 70
0
 10
37.1598249026
 20
26.8005803072
 10
37.1898070658
 20
26.7994447893
 10
37.219348057
 20
26.7961313985
 10
37.2484478761
 20
26.7906401347
 10
37.2772802756
 20
26.7829171105
 10
37.305671503
 20
26.7730162133
 10
37.333100301
 20
26.7610991052
 10
37.3595351675
 20
26.7471326567
 10
37.3850076046
 20
26.7311499974
 10
37.4090908607
 20
26.7134121787
 10
37.4317642713
 20
26.6938850213
 10
37.4530485008
 20
26.6726027044
 10
37.4725787913
 20
26.6499288178
 10
37.4903214015
 20
26.6258414527
 10
37.5063100726
 20
26.6003625178
 10
37.52028127
 20
26.5739213292
 10
37.5322008693
 20
26.5464863355
 10
37.5421029949
 20
26.5180890881
 10
37.5498264849
 20
26.4892535568
 10
37.555317619
 20
26.4601543981
 10
37.5586301175
 20
26.4306169556
 10
37.5597639806
 20
26.4006412291
  0
LWPOLYLINE
  5
2F4
100
AcDbEntity
  8
RACCORDO
100
AcDbPolyline
 62
253
  6
CONTINUOUS
 90
19
 70
0
 10
34.6497740909
 20
24.4160451616
 10
34.7006681531
 20
24.4136440433
 10
34.7501491156
 20
24.4071089124
 10
34.7982169783
 20
24.396439769
 10
34.8451037412
 20
24.3815202075
 10
34.8905774043
 20
24.3624666334
 10
34.9339419677
 20
24.3396282632
 10
34.9751913202
 20
24.3130009056
 10
35.014331573
 20
24.2825887518
 10
35.0506850604
 20
24.2487535918
 10
35.0842870029
 20
24.2114193833
 10
35.11510218
 20
24.1706621685
 10
35.1423472649
 20
24.1270718648
 10
35.1659994284
 20
24.0805397351
 10
35.1860814998
 20
24.0311745165
 10
35.2018786396
 20
23.9798923368
 10
35.2131525681
 20
23.9269985719
 10
35.220141565
 20
23.8721878459
 10
35.2228456305
 20
23.8154601588
  0
LINE
  5
2F5
100
AcDbEntity
  8
SMUSSO
100
AcDbLine
 62
7
  6
CONTINUOUS
 10
-46.6491709184
 20
47.1916454082
 11
-45.6491709184
 21
46.7774318458
  0
LINE
  5
2F6
100
AcDbEntity
  8
SMUSSO
100
AcDbLine
 62
7
  6
CONTINUOUS
 10
47.0508290816
 20
-46.5083545918
 11
46.6366155193
 21
-45.5083545918
  0
LWPOLYLINE
  5
2F7
100
AcDbEntity
  8
RACCORDO
100
AcDbPolyline
 62
253
  6
CONTINUOUS
 90
10
 70
0
 10
34.6000910195
 20
23.146310627
 10
34.6003049616
 20
23.1472882555
 10
34.6006725255
 20
23.1482682835
 10
34.6011935983
 20
23.1492504063
 10
34.6018680198
 20
23.1502343184
 10
34.6026955828
 20
23.1512197139
 10
34.6036760329
 20
23.1522062861
 10
34.6048090687
 20
23.1531937285
 10
34.6060943419
 20
23.1541817339
 10
34.6075314574
 20
23.1551699952
  0
LWPOLYLINE
  5
2F8
100
AcDbEntity
  8
RACCORDO
100
AcDbPolyline
 62
253
  6
CONTINUOUS
 90
22
 70
0
 10
-35.7581667393
 20
27.1005346157
 10
-35.8104701925
 20
27.0985711068
 10
-35.8624800712
 20
27.0927050551
 10
-35.9139056691
 20
27.0829693905
 10
-35.9644595052
 20
27.0694187242
 10
-36.0138590778
 20
27.0521288901
 10
-36.0618284236
 20
27.0311964609
 10
-36.108099517
 20
27.0067384375
 10
-36.152413633
 20
26.9788916565
 10
-36.194522942
 20
26.9478118574
 10
-36.2341919005
 20
26.9136729911
 10
-36.2711990264
 20
26.8766658241
 10
-36.3053378835
 20
26.836996784
 10
-36.3364177226
 20
26.7948873062
 10
-36.3642645486
 20
26.7505729643
 10
-36.3887225477
 20
26.7043017142
 10
-36.409654882
 20
26.6563323386
 10
-36.4269445941
 20
26.6069328279
 10
-36.4404951318
 20
26.5563791456
 10
-36.450230681
 20
26.5049537936
 10
-36.4560966492
 20
26.4529442539
 10
-36.4580601259
 20
26.4006412291
  0
LWPOLYLINE
  5
2F9
100
AcDbEntity
  8
RACCORDO
100
AcDbPolyline
 62
253
  6
CONTINUOUS
 90
10
 70
0
 10
34.6000832774
 20
-21.4630196702
 10
34.6002977455
 20
-21.4639970381
 10
34.60066582
 20
-21.4649768662
 10
34.6011873876
 20
-21.4659588531
 10
34.601862288
 20
-21.4669426968
 10
34.6026903138
 20
-21.467928095
 10
34.6036712103
 20
-21.4689147453
 10
34.604804676
 20
-21.4699023447
 10
34.6060903623
 20
-21.4708905894
 10
34.6075278741
 20
-21.4718791758
  0
LWPOLYLINE
  5
2FA
100
AcDbEntity
  8
RACCORDO
100
AcDbPolyline
 62
253
  6
CONTINUOUS
 90
22
 70
0
 10
34.6000840643
 20
23.1463105003
 10
34.5993279026
 20
23.1617455426
 10
34.5976916202
 20
23.1777297472
 10
34.5950813329
 20
23.1942070075
 10
34.5914107461
 20
23.2110724266
 10
34.5865849188
 20
23.2282858714
 10
34.5804801164
 20
23.2458654705
 10
34.5729916157
 20
23.2636988644
 10
34.5640208268
 20
23.2816577873
 10
34.5534226977
 20
23.2996966662
 10
34.5410355484
 20
23.3177220592
 10
34.5268230769
 20
23.3354437106
 10
34.510865088
 20
23.3525075843
 10
34.4930757199
 20
23.3687717907
 10
34.4735282847
 20
23.3839436941
 10
34.4526839113
 20
23.397549654
 10
34.430781178
 20
23.4094102094
 10
34.4078488313
 20
23.4194839295
 10
34.3841364936
 20
23.4276371993
 10
34.3598426019
 20
23.433796547
 10
34.3351013261
 20
23.4379218256
 10
34.3100853486
 20
23.4399743443
  0
LINE
  5
2FB
100
AcDbEntity
  8
RACCORDO
100
AcDbLine
 62
253
  6
CONTINUOUS
 10
34.6076000466
 20
23.1503895961
 11
34.6075228282
 21
23.1551699897
  0
LWPOLYLINE
  5
2FC
100
AcDbEntity
  8
RACCORDO
100
AcDbPolyline
 62
253
  6
CONTINUOUS
 90
19
 70
0
 10
34.9274033046
 20
-22.1321693425
 10
34.9277556207
 20
-22.1633914464
 10
34.9256526413
 20
-22.1937746167
 10
34.9211846464
 20
-22.2231371935
 10
34.9144681415
 20
-22.2513277275
 10
34.9056085239
 20
-22.2781700395
 10
34.8946956219
 20
-22.3034628334
 10
34.881865765
 20
-22.3270496121
 10
34.8672615219
 20
-22.3488377916
 10
34.8509815322
 20
-22.368734101
 10
34.8331820575
 20
-22.3866214845
 10
34.8140038014
 20
-22.4024353257
 10
34.7935045679
 20
-22.4161536092
 10
34.7718355468
 20
-22.4276913713
 10
34.7491399629
 20
-22.4369853489
 10
34.7254445104
 20
-22.4440159878
 10
34.7008559727
 20
-22.4487179875
 10
34.6755732702
 20
-22.4510119863
 10
34.6497602549
 20
-22.4508462356
  0
LINE
  5
2FD
100
AcDbEntity
  8
RACCORDO
100
AcDbLine
 62
253
  6
CONTINUOUS
 10
34.6001423145
 20
23.1410043325
 11
34.6000840643
 21
23.1463105003
  0
LINE
  5
2FE
100
AcDbEntity
  8
RACCORDO
100
AcDbLine
 62
253
  6
CONTINUOUS
 10
34.6076465324
 20
23.1456677104
 11
34.6076000466
 21
23.1503895961
  0
LINE
  5
2FF
100
AcDbEntity
  8
RACCORDO
100
AcDbLine
 62
253
  6
CONTINUOUS
 10
34.6076622856
 20
23.1410043325
 11
34.6076465324
 21
23.1456677104
  0
LINE
  5
300
100
AcDbEntity
  8
RACCORDO
100
AcDbLine
 62
253
  6
CONTINUOUS
 10
34.2994145075
 20
-21.7568943262
 11
34.2994145079
 21
-21.7869718634
  0
LINE
  5
301
100
AcDbEntity
  8
RACCORDO
100
AcDbLine
 62
253
  6
CONTINUOUS
 10
34.2994145075
 20
23.4401851426
 11
34.2994145075
 21
23.4702626797
  0
LINE
  5
302
100
AcDbEntity
  8
RACCORDO
100
AcDbLine
 62
7
  6
CONTINUOUS
 10
34.5929743024
 20
23.1338363204
 11
34.5929743024
 21
-21.4505455041
  0
LINE
  5
303
100
AcDbEntity
  8
RACCORDO
100
AcDbLine
 62
253
  6
CONTINUOUS
 10
34.6001423145
 20
-21.4577135162
 11
34.6001423145
 21
23.1410043325
  0
LINE
  5
304
100
AcDbEntity
  8
RACCORDO
100
AcDbLine
 62
253
  6
CONTINUOUS
 10
34.6076622856
 20
-21.4577135162
 11
34.6076622856
 21
23.1410043325
  0
LINE
  5
305
100
AcDbEntity
  8
RACCORDO
100
AcDbLine
 62
253
  6
CONTINUOUS
 10
34.6497740909
 20
24.4160451616
 11
34.6497740909
 21
24.1341373754
  0
LINE
  5
306
100
AcDbEntity
  8
RACCORDO
100
AcDbLine
 62
253
  6
CONTINUOUS
 10
34.6497740909
 20
-22.7327543453
 11
34.6497740909
 21
-22.450846559
  0
LINE
  5
307
100
AcDbEntity
  8
RACCORDO
100
AcDbLine
 62
253
  6
CONTINUOUS
 10
34.9274033046
 20
23.8154604852
 11
34.9274033046
 21
-22.1321693425
  0
LINE
  5
308
100
AcDbEntity
  8
RACCORDO
100
AcDbLine
 62
253
  6
CONTINUOUS
 10
35.2228456305
 20
23.8154601588
 11
35.2228456305
 21
-22.1321693425
  0
LINE
  5
309
100
AcDbEntity
  8
RACCORDO
100
AcDbLine
 62
253
  6
CONTINUOUS
 10
34.6075228282
 20
-21.4718791734
 11
34.6076622856
 21
-21.4577135162
  0
LINE
  5
30A
100
AcDbEntity
  8
RACCORDO
100
AcDbLine
 62
253
  6
CONTINUOUS
 10
34.6000840643
 20
-21.4630196839
 11
34.6001423145
 21
-21.4577135162
  0
LWPOLYLINE
  5
30B
100
AcDbEntity
  8
RACCORDO
100
AcDbPolyline
 62
253
  6
CONTINUOUS
 90
22
 70
0
 10
34.6075228282
 20
23.1551699897
 10
34.6077578299
 20
23.1725931253
 10
34.6070884799
 20
23.1905018701
 10
34.6054193337
 20
23.2088469379
 10
34.6026632048
 20
23.2275429731
 10
34.5987213291
 20
23.2465440756
 10
34.5934689029
 20
23.2658391926
 10
34.5868181158
 20
23.2853382361
 10
34.5786614363
 20
23.3049107132
 10
34.5688203136
 20
23.324448999
 10
34.5571430334
 20
23.3438828728
 10
34.5435946662
 20
23.3629255138
 10
34.528208854
 20
23.3811308702
 10
34.5108981409
 20
23.3983561696
 10
34.4917481634
 20
23.4143331727
 10
34.4711896498
 20
23.4285245484
 10
34.4494471773
 20
23.4407292054
 10
34.426564572
 20
23.4509301931
 10
34.4028001761
 20
23.4589911632
 10
34.3783551579
 20
23.4648375948
 10
34.3533605956
 20
23.4684296233
 10
34.3279882297
 20
23.4697267503
  0
LWPOLYLINE
  5
30C
100
AcDbEntity
  8
RACCORDO
100
AcDbPolyline
 62
253
  6
CONTINUOUS
 90
19
 70
0
 10
35.2228456305
 20
-22.1321693425
 10
35.2201528029
 20
-22.1888737096
 10
35.2131722847
 20
-22.2436682866
 10
35.2019040759
 20
-22.2965530736
 10
35.1861105654
 20
-22.3478345463
 10
35.1660293643
 20
-22.397206229
 10
35.1423733056
 20
-22.4437486938
 10
35.1151196241
 20
-22.4873537487
 10
35.084291085
 20
-22.5281295857
 10
35.0506688175
 20
-22.5654813529
 10
35.01427738
 20
-22.5993354884
 10
34.9750922141
 20
-22.629765554
 10
34.9338207742
 20
-22.656397383
 10
34.8904774413
 20
-22.6792145014
 10
34.8450478344
 20
-22.6982333831
 10
34.7981962648
 20
-22.7131292829
 10
34.7501441696
 20
-22.7237939523
 10
34.7006701116
 20
-22.7303356398
 10
34.6497740909
 20
-22.7327543453
  0
LWPOLYLINE
  5
30D
100
AcDbEntity
  8
RACCORDO
100
AcDbPolyline
 62
253
  6
CONTINUOUS
 90
22
 70
0
 10
37.8597182892
 20
26.4006412291
 10
37.8577547803
 20
26.4529446823
 10
37.8518887286
 20
26.504954561
 10
37.8421530639
 20
26.5563801589
 10
37.8286023977
 20
26.606933995
 10
37.8113125635
 20
26.6563335676
 10
37.7903801344
 20
26.7043029134
 10
37.7659221109
 20
26.7505740068
 10
37.73807533
 20
26.7948881228
 10
37.7069955308
 20
26.8369974318
 10
37.6728566646
 20
26.8766663903
 10
37.6358494975
 20
26.9136735162
 10
37.5961804574
 20
26.9478123733
 10
37.5540709797
 20
26.9788922124
 10
37.5097566377
 20
27.0067390384
 10
37.4634853877
 20
27.0311970375
 10
37.415516012
 20
27.0521293718
 10
37.3661165013
 20
27.0694190839
 10
37.315562819
 20
27.0829696216
 10
37.2641374671
 20
27.0927051708
 10
37.2121279274
 20
27.098571139
 10
37.1598249026
 20
27.1005346157
  0
LINE
  5
30E
100
AcDbEntity
  8
RACCORDO
100
AcDbLine
 62
253
  6
CONTINUOUS
 10
37.1598249012
 20
27.1005346157
 11
37.1598249026
 21
26.8005803072
  0
LINE
  5
30F
100
AcDbEntity
  8
RACCORDO
100
AcDbLine
 62
253
  6
CONTINUOUS
 10
37.1598249006
 20
-25.4172437994
 11
37.1598249026
 21
-25.1172894908
  0
LINE
  5
310
100
AcDbEntity
  8
RACCORDO
100
AcDbLine
 62
253
  6
CONTINUOUS
 10
37.5597639806
 20
-24.7173504128
 11
37.5597639806
 21
26.4006412291
  0
LINE
  5
311
100
AcDbEntity
  8
RACCORDO
100
AcDbLine
 62
253
  6
CONTINUOUS
 10
37.8597182892
 20
-24.7173504128
 11
37.8597182892
 21
26.4006412291
  0
LINE
  5
312
100
AcDbEntity
  8
RACCORDO
100
AcDbLine
 62
7
  6
CONTINUOUS
 10
37.9008290816
 20
-24.7584612052
 11
37.9008290816
 21
26.4417520216
  0
LWPOLYLINE
  5
313
100
AcDbEntity
  8
RACCORDO
100
AcDbPolyline
 62
253
  6
CONTINUOUS
 90
22
 70
0
 10
37.5597639806
 20
-24.7173504128
 10
37.5586411926
 20
-24.7471683521
 10
37.5553633063
 20
-24.7765526784
 10
37.5499303219
 20
-24.8055033915
 10
37.5422895294
 20
-24.8341916848
 10
37.5324936387
 20
-24.862446365
 10
37.5207007793
 20
-24.889753852
 10
37.5068784779
 20
-24.9160831983
 10
37.4910592078
 20
-24.9414653513
 10
37.4734985181
 20
-24.9654795737
 10
37.4541628479
 20
-24.9881058046
 10
37.4330857581
 20
-25.0093641047
 10
37.4106234807
 20
-25.0288939194
 10
37.3867546108
 20
-25.0466622144
 10
37.3615005533
 20
-25.062702024
 10
37.3352817548
 20
-25.0767518957
 10
37.3080715591
 20
-25.088778384
 10
37.2798966224
 20
-25.0988149344
 10
37.2512573598
 20
-25.1067004318
 10
37.2223205762
 20
-25.1123811712
 10
37.1929194666
 20
-25.1159108575
 10
37.163054031
 20
-25.1172894908
  0
LINE
  5
314
100
AcDbEntity
  8
SMUSSO
100
AcDbLine
 62
7
  6
CONTINUOUS
 10
47.0508290816
 20
-45.0941410295
 11
47.0508290816
 21
46.7774318458
  0
LINE
  5
315
100
AcDbEntity
  8
SMUSSO
100
AcDbLine
 62
7
  6
CONTINUOUS
 10
48.0508290816
 20
-45.5083545918
 11
48.0508290816
 21
47.1916454082
  0
LINE
  5
316
100
AcDbEntity
  8
SMUSSO
100
AcDbLine
 62
7
  6
CONTINUOUS
 10
46.6366155193
 20
47.1916454082
 11
-45.234957356
 21
47.1916454082
  0
LINE
  5
317
100
AcDbEntity
  8
SMUSSO
100
AcDbLine
 62
7
  6
CONTINUOUS
 10
47.0508290816
 20
48.1916454082
 11
-45.6491709184
 21
48.1916454082
  0
LINE
  5
318
100
AcDbEntity
  8
SMUSSO
100
AcDbLine
 62
7
  6
CONTINUOUS
 10
46.6366155193
 20
-45.5083545918
 11
47.0508290816
 21
-45.0941410295
  0
LINE
  5
319
100
AcDbEntity
  8
SMUSSO
100
AcDbLine
 62
7
  6
CONTINUOUS
 10
47.0508290816
 20
-46.5083545918
 11
48.0508290816
 21
-45.5083545918
  0
LINE
  5
31A
100
AcDbEntity
  8
SMUSSO
100
AcDbLine
 62
7
  6
CONTINUOUS
 10
47.0508290816
 20
46.7774318458
 11
46.6366155193
 21
47.1916454082
  0
LINE
  5
31B
100
AcDbEntity
  8
SMUSSO
100
AcDbLine
 62
7
  6
CONTINUOUS
 10
48.0508290816
 20
47.1916454082
 11
47.0508290816
 21
48.1916454082
  0
LINE
  5
31C
100
AcDbEntity
  8
SMUSSO
100
AcDbLine
 62
7
  6
CONTINUOUS
 10
-67.6151147959
 20
-46.5083545918
 11
-63.1651147959
 21
-46.5083545918
  0
LINE
  5
31D
100
AcDbEntity
  8
RACCORDO
100
AcDbLine
 62
7
  6
CONTINUOUS
 10
-62.6651147959
 20
-44.4647169295
 11
-62.0651147959
 21
-44.4542438906
  0
LINE
  5
31E
100
AcDbEntity
  8
SMUSSO
100
AcDbLine
 62
7
  6
CONTINUOUS
 10
-67.6151147959
 20
-45.5083545918
 11
-63.1651147959
 21
-45.5083545918
  0
LINE
  5
31F
100
AcDbEntity
  8
SMUSSO
100
AcDbLine
 62
7
  6
CONTINUOUS
 10
-67.6151147959
 20
47.1916454082
 11
-68.6151147959
 21
46.7774318458
  0
LINE
  5
320
100
AcDbEntity
  8
RACCORDO
100
AcDbLine
 62
253
  6
CONTINUOUS
 10
-62.6651147959
 20
-42.4650215392
 11
-62.0651147959
 21
-42.4545485002
  0
LINE
  5
321
100
AcDbEntity
  8
SMUSSO
100
AcDbLine
 62
7
  6
CONTINUOUS
 10
-67.6151147959
 20
-45.5083545918
 11
-68.6151147959
 21
-45.0941410295
  0
LINE
  5
322
100
AcDbEntity
  8
SMUSSO
100
AcDbLine
 62
7
  6
CONTINUOUS
 10
-67.6151147959
 20
48.1916454082
 11
-68.6151147959
 21
47.1916454082
  0
LINE
  5
323
100
AcDbEntity
  8
SMUSSO
100
AcDbLine
 62
7
  6
CONTINUOUS
 10
-67.6151147959
 20
-46.5083545918
 11
-68.6151147959
 21
-45.5083545918
  0
LINE
  5
324
100
AcDbEntity
  8
0
100
AcDbLine
 62
7
  6
CONTINUOUS
 10
-61.4651147959
 20
-25.5083545918
 11
-62.0651147959
 21
-25.5118452897
  0
LINE
  5
325
100
AcDbEntity
  8
ASSI
100
AcDbLine
 62
7
  6
CONTINUOUS
 10
-61.964476314
 20
-26.309226143
 11
-62.0651147959
 21
-26.3094017904
  0
LINE
  5
326
100
AcDbEntity
  8
0
100
AcDbLine
 62
253
  6
CONTINUOUS
 10
-61.7428859856
 20
-26.0861257815
 11
-62.0651147959
 21
-26.0862713403
  0
LINE
  5
327
100
AcDbEntity
  8
0
100
AcDbLine
 62
7
  6
CONTINUOUS
 10
-71.2651147959
 20
-24.9735289896
 11
-71.4651147959
 21
-24.9735289896
  0
LINE
  5
328
100
AcDbEntity
  8
RACCORDO
100
AcDbLine
 62
253
  6
CONTINUOUS
 10
-70.9703505178
 20
-24.7173504114
 11
-71.2651147959
 21
-24.7173504128
  0
LINE
  5
329
100
AcDbEntity
  8
0
100
AcDbLine
 62
253
  6
CONTINUOUS
 10
-71.2651147959
 20
-24.4051958799
 11
-71.4651147959
 21
-24.4051958799
  0
LINE
  5
32A
100
AcDbEntity
  8
0
100
AcDbLine
 62
7
  6
CONTINUOUS
 10
-61.6651147959
 20
-24.3583545918
 11
-62.0651147959
 21
-24.3583545918
  0
LINE
  5
32B
100
AcDbEntity
  8
ASSI
100
AcDbLine
 62
7
  6
CONTINUOUS
 10
-62.0151147959
 20
-24.2083545918
 11
-61.8151147959
 21
-24.2083545918
  0
LINE
  5
32C
100
AcDbEntity
  8
RACCORDO
100
AcDbLine
 62
7
  6
CONTINUOUS
 10
-70.9703505178
 20
-25.4172437994
 11
-68.6151147959
 21
-25.4583545918
  0
LINE
  5
32D
100
AcDbEntity
  8
RACCORDO
100
AcDbLine
 62
253
  6
CONTINUOUS
 10
-70.9703505178
 20
-24.7173504128
 11
-68.6151147959
 21
-24.7584612052
  0
LINE
  5
32E
100
AcDbEntity
  8
0
100
AcDbLine
 62
7
  6
CONTINUOUS
 10
-61.6546476047
 20
-24.9499810086
 11
-62.0651147959
 21
-24.9318465166
  0
LINE
  5
32F
100
AcDbEntity
  8
0
100
AcDbLine
 62
7
  6
CONTINUOUS
 10
-71.2651147959
 20
-23.9933500239
 11
-71.4651147959
 21
-23.9933500239
  0
LINE
  5
330
100
AcDbEntity
  8
0
100
AcDbLine
 62
7
  6
CONTINUOUS
 10
-71.2651147959
 20
-23.9809418979
 11
-71.4651147959
 21
-23.9809418979
  0
LINE
  5
331
100
AcDbEntity
  8
0
100
AcDbLine
 62
253
  6
CONTINUOUS
 10
-71.2651147959
 20
-22.9203463088
 11
-71.4651147959
 21
-22.9203463088
  0
LINE
  5
332
100
AcDbEntity
  8
0
100
AcDbLine
 62
7
  6
CONTINUOUS
 10
-71.2651147959
 20
-22.849068217
 11
-71.4651147959
 21
-22.849068217
  0
LINE
  5
333
100
AcDbEntity
  8
ASSI
100
AcDbLine
 62
7
  6
CONTINUOUS
 10
-61.8151147959
 20
25.8916454082
 11
-61.6651147959
 21
26.0416454082
  0
LINE
  5
334
100
AcDbEntity
  8
ASSI
100
AcDbLine
 62
7
  6
CONTINUOUS
 10
-61.8151147959
 20
-24.2083545918
 11
-61.6651147959
 21
-24.3583545918
  0
LWPOLYLINE
  5
335
100
AcDbEntity
  8
RACCORDO
100
AcDbPolyline
 62
253
  6
CONTINUOUS
 90
5
 70
0
 10
-70.9703505178
 20
-25.4172437994
 10
-70.9707231348
 20
-25.4152802905
 10
-70.9710691027
 20
-25.4094142388
 10
-70.9713839221
 20
-25.3996785741
 10
-70.9716617709
 20
-25.3861279079
  0
LINE
  5
336
100
AcDbEntity
  8
RACCORDO
100
AcDbLine
 62
253
  6
CONTINUOUS
 10
-70.9716617709
 20
-25.3861279079
 11
-70.9721031468
 21
-25.3479056446
  0
LINE
  5
337
100
AcDbEntity
  8
RACCORDO
100
AcDbLine
 62
253
  6
CONTINUOUS
 10
-70.9703505178
 20
26.4006412291
 11
-70.9723893905
 21
26.7948881228
  0
LINE
  5
338
100
AcDbEntity
  8
RACCORDO
100
AcDbLine
 62
253
  6
CONTINUOUS
 10
-70.9721031468
 20
-25.3479056446
 11
-70.9724715733
 21
-25.264521041
  0
LINE
  5
339
100
AcDbEntity
  8
0
100
AcDbLine
 62
7
  6
CONTINUOUS
 10
-71.4651147959
 20
-24.9735289896
 11
-71.4651147959
 21
-22.8490762264
  0
LINE
  5
33A
100
AcDbEntity
  8
RACCORDO
100
AcDbLine
 62
7
  6
CONTINUOUS
 10
-71.2651147959
 20
-25.1172894908
 11
-71.2651147959
 21
26.8005803072
  0
LINE
  5
33B
100
AcDbEntity
  8
RACCORDO
100
AcDbLine
 62
253
  6
CONTINUOUS
 10
-70.9703505178
 20
-24.7173504128
 11
-70.9703505178
 21
26.4006412291
  0
LINE
  5
33C
100
AcDbEntity
  8
RACCORDO
100
AcDbLine
 62
253
  6
CONTINUOUS
 10
-70.9723893905
 20
26.7948881228
 11
-70.9724715947
 21
26.9478123733
  0
LINE
  5
33D
100
AcDbEntity
  8
RACCORDO
100
AcDbLine
 62
253
  6
CONTINUOUS
 10
-70.9724715733
 20
-25.264521041
 11
-70.9722670242
 21
-25.0672821479
  0
LINE
  5
33E
100
AcDbEntity
  8
RACCORDO
100
AcDbLine
 62
253
  6
CONTINUOUS
 10
-70.9724715947
 20
26.9478123733
 11
-70.9721031795
 21
27.0311970375
  0
LINE
  5
33F
100
AcDbEntity
  8
RACCORDO
100
AcDbLine
 62
253
  6
CONTINUOUS
 10
-70.9722670242
 20
-25.0672821479
 11
-70.9703505178
 21
-24.7173504128
  0
LWPOLYLINE
  5
340
100
AcDbEntity
  8
RACCORDO
100
AcDbPolyline
 62
253
  6
CONTINUOUS
 90
6
 70
0
 10
-70.9721031795
 20
27.0311970375
 10
-70.9716617854
 20
27.0694190839
 10
-70.9713839277
 20
27.0829696216
 10
-70.9710691036
 20
27.0927051708
 10
-70.9707231337
 20
27.098571139
 10
-70.9703505178
 20
27.1005346157
  0
LINE
  5
341
100
AcDbEntity
  8
SMUSSO
100
AcDbLine
 62
7
  6
CONTINUOUS
 10
-68.6151147959
 20
-45.5083545918
 11
-68.6151147959
 21
47.1916454082
  0
LINE
  5
342
100
AcDbEntity
  8
SMUSSO
100
AcDbLine
 62
7
  6
CONTINUOUS
 10
-67.6151147959
 20
-46.5083545918
 11
-67.6151147959
 21
48.1916454082
  0
LINE
  5
343
100
AcDbEntity
  8
SMUSSO
100
AcDbLine
 62
7
  6
CONTINUOUS
 10
-63.1651147959
 20
48.1916454082
 11
-63.1651147959
 21
-46.5083545918
  0
LINE
  5
344
100
AcDbEntity
  8
SMUSSO
100
AcDbLine
 62
7
  6
CONTINUOUS
 10
-62.6651147959
 20
47.6916454082
 11
-62.6651147959
 21
-46.0083545918
  0
LINE
  5
345
100
AcDbEntity
  8
RACCORDO
100
AcDbLine
 62
7
  6
CONTINUOUS
 10
-62.0651147959
 20
46.1375347069
 11
-62.0651147959
 21
-44.4542438906
  0
LINE
  5
346
100
AcDbEntity
  8
ASSI
100
AcDbLine
 62
253
  6
CONTINUOUS
 10
-61.6546476047
 20
26.6332718249
 11
-61.6546476047
 21
26.0419195012
  0
LINE
  5
347
100
AcDbEntity
  8
ASSI
100
AcDbLine
 62
253
  6
CONTINUOUS
 10
-61.6546476047
 20
-24.3586286849
 11
-61.6546476047
 21
-24.9499810086
  0
LINE
  5
348
100
AcDbEntity
  8
ASSI
100
AcDbLine
 62
7
  6
CONTINUOUS
 10
-61.4651147959
 20
-24.5583545918
 11
-61.4651147959
 21
-25.8083545918
  0
LINE
  5
349
100
AcDbEntity
  8
ASSI
100
AcDbLine
 62
7
  6
CONTINUOUS
 10
-61.4651147959
 20
26.2416454082
 11
-61.4651147959
 21
27.4916454082
  0
LINE
  5
34A
100
AcDbEntity
  8
ASSI
100
AcDbLine
 62
7
  6
CONTINUOUS
 10
-62.0651147959
 20
-24.2583545918
 11
-62.0151147959
 21
-24.2083545918
  0
LINE
  5
34B
100
AcDbEntity
  8
ASSI
100
AcDbLine
 62
7
  6
CONTINUOUS
 10
-61.4651147959
 20
-25.8083545918
 11
-61.965929989
 21
-26.3091697849
  0
LINE
  5
34C
100
AcDbEntity
  8
ASSI
100
AcDbLine
 62
7
  6
CONTINUOUS
 10
-62.0651147959
 20
25.9416454082
 11
-62.0151147959
 21
25.8916454082
  0
LINE
  5
34D
100
AcDbEntity
  8
ASSI
100
AcDbLine
 62
7
  6
CONTINUOUS
 10
-61.965929989
 20
27.9924606013
 11
-61.4651147959
 21
27.4916454082
  0
LINE
  5
34E
100
AcDbEntity
  8
0
100
AcDbLine
 62
7
  6
CONTINUOUS
 10
-61.6546476047
 20
26.6332718249
 11
-62.0651147959
 21
26.6151373329
  0
LINE
  5
34F
100
AcDbEntity
  8
RACCORDO
100
AcDbLine
 62
253
  6
CONTINUOUS
 10
-70.9703505178
 20
26.4006412291
 11
-68.6151147959
 21
26.4417520216
  0
LINE
  5
350
100
AcDbEntity
  8
ASSI
100
AcDbLine
 62
7
  6
CONTINUOUS
 10
-62.0151147959
 20
25.8916454082
 11
-61.8151147959
 21
25.8916454082
  0
LINE
  5
351
100
AcDbEntity
  8
0
100
AcDbLine
 62
7
  6
CONTINUOUS
 10
-61.6651147959
 20
26.0416454082
 11
-62.0651147959
 21
26.0416454082
  0
LINE
  5
352
100
AcDbEntity
  8
RACCORDO
100
AcDbLine
 62
253
  6
CONTINUOUS
 10
-70.9703505178
 20
26.4006412271
 11
-71.2651147959
 21
26.4006412291
  0
LINE
  5
353
100
AcDbEntity
  8
RACCORDO
100
AcDbLine
 62
7
  6
CONTINUOUS
 10
-70.9703505178
 20
27.1005346157
 11
-68.6151147959
 21
27.1416454082
  0
LINE
  5
354
100
AcDbEntity
  8
0
100
AcDbLine
 62
253
  6
CONTINUOUS
 10
-61.7428859856
 20
27.7694165979
 11
-62.0651147959
 21
27.7695621566
  0
LINE
  5
355
100
AcDbEntity
  8
ASSI
100
AcDbLine
 62
7
  6
CONTINUOUS
 10
-61.964476314
 20
27.9925169593
 11
-62.0651147959
 21
27.9926926068
  0
LINE
  5
356
100
AcDbEntity
  8
0
100
AcDbLine
 62
7
  6
CONTINUOUS
 10
-61.4651147959
 20
27.1916454082
 11
-62.0651147959
 21
27.1951361061
  0
LINE
  5
357
100
AcDbEntity
  8
SMUSSO
100
AcDbLine
 62
7
  6
CONTINUOUS
 10
-63.1651147959
 20
-46.5083545918
 11
-62.6651147959
 21
-46.0083545918
  0
LINE
  5
358
100
AcDbEntity
  8
SMUSSO
100
AcDbLine
 62
7
  6
CONTINUOUS
 10
-63.1651147959
 20
48.1916454082
 11
-62.6651147959
 21
47.6916454082
  0
LINE
  5
359
100
AcDbEntity
  8
SMUSSO
100
AcDbLine
 62
7
  6
CONTINUOUS
 10
-63.1651147959
 20
-45.5083545918
 11
-62.6651147959
 21
-45.3012478106
  0
LINE
  5
35A
100
AcDbEntity
  8
SMUSSO
100
AcDbLine
 62
7
  6
CONTINUOUS
 10
-67.6151147959
 20
47.1916454082
 11
-63.1651147959
 21
47.1916454082
  0
LINE
  5
35B
100
AcDbEntity
  8
SMUSSO
100
AcDbLine
 62
7
  6
CONTINUOUS
 10
-67.6151147959
 20
48.1916454082
 11
-63.1651147959
 21
48.1916454082
  0
LINE
  5
35C
100
AcDbEntity
  8
RACCORDO
100
AcDbLine
 62
253
  6
CONTINUOUS
 10
-62.6651147959
 20
44.1483123555
 11
-62.0651147959
 21
44.1378393166
  0
LINE
  5
35D
100
AcDbEntity
  8
RACCORDO
100
AcDbLine
 62
7
  6
CONTINUOUS
 10
-62.6651147959
 20
46.1480077458
 11
-62.0651147959
 21
46.1375347069
  0
LINE
  5
35E
100
AcDbEntity
  8
SMUSSO
100
AcDbLine
 62
7
  6
CONTINUOUS
 10
-63.1651147959
 20
47.1916454082
 11
-62.6651147959
 21
46.984538627
  0
ARC
  5
35F
100
AcDbEntity
  8
RACCORDO
100
AcDbCircle
 62
7
  6
CONTINUOUS
 10
-70.9651147959
 20
26.8005803072
 40
0.3
100
AcDbArc
 50
91.0
 51
180.0
  0
ARC
  5
360
100
AcDbEntity
  8
RACCORDO
100
AcDbCircle
 62
7
  6
CONTINUOUS
 10
-70.9651147959
 20
-25.1172894908
 40
0.3
100
AcDbArc
 50
180.0
 51
269.0
  0
ARC
  5
361
100
AcDbEntity
  8
ASSI
100
AcDbCircle
 62
7
  6
CONTINUOUS
 10
-61.6651147959
 20
26.2416454082
 40
0.2
100
AcDbArc
 50
270.0
 51
360.0
  0
ARC
  5
362
100
AcDbEntity
  8
ASSI
100
AcDbCircle
 62
7
  6
CONTINUOUS
 10
-61.6651147959
 20
-24.5583545918
 40
0.2
100
AcDbArc
 50
0.0
 51
90.0
  0
ELLIPSE
  5
363
100
AcDbEntity
  8
RACCORDO
100
AcDbEllipse
 62
7
  6
CONTINUOUS
 10
-35.7990642887
 20
26.4415387785
 30
0.0
 11
0.4951255324
 21
-0.4951255324
 31
0.0
 40
0.9996954599
 41
2.3563467834
 42
3.9268385237
  0
ELLIPSE
  5
364
100
AcDbEntity
  8
RACCORDO
100
AcDbEllipse
 62
7
  6
CONTINUOUS
 10
-35.7990642887
 20
-24.7582479622
 30
0.0
 11
0.4951255324
 21
0.4951255324
 31
0.0
 40
0.9996954599
 41
-3.9268385237
 42
-2.3563467834
  0
ELLIPSE
  5
365
100
AcDbEntity
  8
RACCORDO
100
AcDbEllipse
 62
7
  6
CONTINUOUS
 10
37.200722452
 20
-24.7582479622
 30
0.0
 11
-0.4951255324
 21
0.4951255324
 31
0.0
 40
0.9996954599
 41
-3.9268385237
 42
-2.3563467834
  0
ELLIPSE
  5
366
100
AcDbEntity
  8
RACCORDO
100
AcDbEllipse
 62
7
  6
CONTINUOUS
 10
37.200722452
 20
26.4415387785
 30
0.0
 11
0.4951255324
 21
0.4951255324
 31
0.0
 40
0.9996954599
 41
-0.7852458701
 42
0.7852458701
  0
ELLIPSE
  5
367
100
AcDbEntity
  8
RACCORDO
100
AcDbEllipse
 62
7
  6
CONTINUOUS
 10
34.292928604
 20
23.1337449305
 30
0.0
 11
0.2121966568
 21
0.2121966568
 31
0.0
 40
0.9996954599
 41
-0.7852458701
 42
0.7852458701
  0
ELLIPSE
  5
368
100
AcDbEntity
  8
RACCORDO
100
AcDbEllipse
 62
7
  6
CONTINUOUS
 10
34.292928604
 20
-21.4504541142
 30
0.0
 11
0.2121966568
 21
-0.2121966568
 31
0.0
 40
0.9996954599
 41
-0.7852458701
 42
0.7852458701
  0
ELLIPSE
  5
369
100
AcDbEntity
  8
RACCORDO
100
AcDbEllipse
 62
7
  6
CONTINUOUS
 10
-32.8912704407
 20
23.1337449305
 30
0.0
 11
0.2121966568
 21
-0.2121966568
 31
0.0
 40
0.9996954599
 41
2.3563467834
 42
3.9268385237
  0
ELLIPSE
  5
36A
100
AcDbEntity
  8
RACCORDO
100
AcDbEllipse
 62
7
  6
CONTINUOUS
 10
-32.8912704407
 20
-21.4504541142
 30
0.0
 11
-0.2121966568
 21
-0.2121966568
 31
0.0
 40
0.9996954599
 41
-0.7852458701
 42
0.7852458701
  0
ELLIPSE
  5
36B
100
AcDbEntity
  8
ASSI
100
AcDbEllipse
 62
7
  6
CONTINUOUS
 10
-61.6651147959
 20
-25.1497930359
 30
0.0
 11
0.1417119467
 21
0.1422961243
 31
0.0
 40
0.9918061237
 41
-0.7833412615
 42
0.7350951877
  0
ELLIPSE
  5
36C
100
AcDbEntity
  8
ASSI
100
AcDbEllipse
 62
7
  6
CONTINUOUS
 10
-61.6651147959
 20
26.8330838523
 30
0.0
 11
-0.1417119467
 21
0.1422961243
 31
0.0
 40
0.9918061237
 41
-3.8766878413
 42
-2.358251392
  0
ENDSEC
  0
SECTION
  2
OBJECTS
  0
DICTIONARY
  5
C
100
AcDbDictionary
280
0
281
1
  3
ACAD_GROUP
350
D
  3
ACAD_MLINESTYLE
350
17
  3
ACAD_LAYOUT
350
1A
  3
ACAD_PLOTSETTINGS
350
19
  3
ACAD_PLOTSTYLENAME
350
E
  0
DICTIONARY
  5
D
102
{ACAD_REACTORS
330
C
102
}
100
AcDbDictionary
280
0
281
1
  0
ACDBDICTIONARYWDFLT
  5
E
102
{ACAD_REACTORS
330
C
102
}
100
AcDbDictionary
281
1
  3
Normal
350
F
100
AcDbDictionaryWithDefault
340
F
  0
DICTIONARY
  5
17
102
{ACAD_REACTORS
330
C
102
}
100
AcDbDictionary
280
0
281
1
  3
Standard
350
18
  0
DICTIONARY
  5
19
102
{ACAD_REACTORS
330
C
102
}
100
AcDbDictionary
281
1
  0
DICTIONARY
  5
1A
102
{ACAD_REACTORS
330
C
102
}
100
AcDbDictionary
281
1
  3
Model
350
36D
  3
Layout1
350
36E
  0
ACDBPLACEHOLDER
  5
F
102
{ACAD_REACTORS
330
E
102
}
  0
MLINESTYLE
  5
18
102
{ACAD_REACTORS
330
17
102
}
100
AcDbMlineStyle
  2
STANDARD
 70
0
  3

 62
256
 51
90.0
 52
90.0
 71
2
 49
0.5
 62
256
  6
BYLAYER
 49
-0.5
 62
256
  6
BYLAYER
  0
LAYOUT
  5
36D
102
{ACAD_REACTORS
330
1A
102
}
100
AcDbPlotSettings
  1

  2
none_device
  4
ISO_A4_(297.00_x_210.00_MM)
  6

 40
0.0
 41
0.0
 42
0.0
 43
0.0
 44
297.0
 45
210.0
 46
0.0
 47
0.0
 48
0.0
 49
0.0
140
0.0
141
0.0
142
1.0
143
1.0
 70
1024
 72
1
 73
0
 74
0
  7

 75
0
147
1.0
148
0.0
149
0.0
100
AcDbLayout
  1
Model
 70
0
 71
0
 10
0.0
 20
0.0
 11
297.0
 21
210.0
 12
0.0
 22
0.0
 32
0.0
 14
0.0
 24
0.0
 34
0.0
 15
0.0
 25
0.0
 35
0.0
146
0.0
 13
0.0
 23
0.0
 33
0.0
 16
1.0
 26
0.0
 36
0.0
 17
0.0
 27
1.0
 37
0.0
 76
0
330
212
345
0
346
0
  0
LAYOUT
  5
36E
102
{ACAD_REACTORS
330
1A
102
}
100
AcDbPlotSettings
  1

  2
none_device
  4
ISO_A4_(297.00_x_210.00_MM)
  6

 40
0.0
 41
0.0
 42
0.0
 43
0.0
 44
297.0
 45
210.0
 46
0.0
 47
0.0
 48
0.0
 49
0.0
140
0.0
141
0.0
142
1.0
143
1.0
 70
0
 72
1
 73
0
 74
0
  7

 75
0
147
1.0
148
0.0
149
0.0
100
AcDbLayout
  1
Layout1
 70
0
 71
1
 10
0.0
 20
0.0
 11
297.0
 21
210.0
 12
0.0
 22
0.0
 32
0.0
 14
0.0
 24
0.0
 34
0.0
 15
0.0
 25
0.0
 35
0.0
146
0.0
 13
0.0
 23
0.0
 33
0.0
 16
1.0
 26
0.0
 36
0.0
 17
0.0
 27
1.0
 37
0.0
 76
0
330
213
345
0
346
0
  0
ENDSEC
  0
EOF
