  0
SECTION
  2
HEADER
  9
$ACADVER
  1
AC1015
  9
$DWGCODEPAGE
  3
ANSI_1252
  9
$EXTMAX
 10
297.0
 20
210.0
 30
0.0
  9
$EXTMIN
 10
0.0
 20
0.0
 30
0.0
  9
$LIMMIN
 10
0.0
 20
0.0
  9
$LIMMAX
 10
297.0
 20
210.0
  9
$VIEWCTR
 10
148.5
 20
105.0
  9
$VIEWSIZE
 40
210.0
  9
$CLAYER
  8
0
  9
$LTSCALE
 40
16.335
  9
$CELTYPE
  6
BYLAYER
  9
$DIMSCALE
 40
1.0
  9
$DIMASZ
 40
3.0
  9
$DIMEXO
 40
0.5
  9
$DIMDLI
 40
11.286
  9
$DIMEXE
 40
1.5
  9
$DIMCEN
 40
2.673
  9
$DIMLFAC
 40
1.0
  9
$DIMBLK
  1
_FILLED
  9
$DIMTXT
 40
3.0
  9
$DIMTOL
 70
1
  9
$DIMLIM
 70
0
  9
$DIMTFAC
 40
1.0
  9
$DIMTP
 40
0.01
  9
$DIMTM
 40
0.01
  9
$DIMGAP
 40
0.625
  9
$DIMDSEP
 70
44
  9
$PDMODE
 70
3
  9
$PDSIZE
 40
3.0
  9
$HANDSEED
  5
382
  9
$TILEMODE
 70
1
  9
$MEASUREMENT
 70
1
  9
$INSUNITS
 70
4
  0
ENDSEC
  0
SECTION
  2
CLASSES
  0
CLASS
  1
ACDBDICTIONARYWDFLT
  2
AcDbDictionaryWithDefault
  3
AutoCAD 2000
 90
0
280
0
281
0
  0
CLASS
  1
ACDBPLACEHOLDER
  2
AcDbPlaceHolder
  3
AutoCAD 2000
 90
0
280
0
281
0
  0
CLASS
  1
LAYOUT
  2
AcDbLayout
  3
AutoCAD 2000
 90
0
280
0
281
0
  0
ENDSEC
  0
SECTION
  2
TABLES
  0
TABLE
  2
VPORT
  5
8
100
AcDbSymbolTable
 70
2
  0
VPORT
  5
1F4
100
AcDbSymbolTableRecord
100
AcDbViewportTableRecord
  2
*ACTIVE
 70
0
 10
0.0
 20
0.0
 11
1.0
 21
1.0
 12
148.5
 22
105.0
 13
0.0
 23
0.0
 14
1.0
 24
1.0
 15
0.0
 25
0.0
 16
0.0
 26
0.0
 36
1.0
 17
0.0
 27
0.0
 37
0.0
 40
210.0
 41
1.4142857143
 42
50.0
 43
0.0
 44
0.0
 50
0.0
 51
0.0
 71
0
 72
100
 73
1
 74
1
 75
0
 76
0
 77
0
 78
0
  0
ENDTAB
  0
TABLE
  2
LTYPE
  5
5
100
AcDbSymbolTable
 70
6
  0
LTYPE
  5
14
100
AcDbSymbolTableRecord
100
AcDbLinetypeTableRecord
  2
BYBLOCK
 70
0
  3

 72
65
 73
0
 40
0.0
  0
LTYPE
  5
15
100
AcDbSymbolTableRecord
100
AcDbLinetypeTableRecord
  2
BYLAYER
 70
0
  3

 72
65
 73
0
 40
0.0
  0
LTYPE
  5
16
100
AcDbSymbolTableRecord
100
AcDbLinetypeTableRecord
  2
CONTINUOUS
 70
64
  3
Solid line
 72
65
 73
0
 40
0.0
  0
LTYPE
  5
1F5
100
AcDbSymbolTableRecord
100
AcDbLinetypeTableRecord
  2
CENTER
 70
64
  3
____ _ ____ _ ____ _ ____ _ ____ _ ____ _ ____
 72
65
 73
4
 40
0.6
 49
0.375
 74
0
 49
-0.075
 74
0
 49
0.075
 74
0
 49
-0.075
 74
0
  0
LTYPE
  5
1F6
100
AcDbSymbolTableRecord
100
AcDbLinetypeTableRecord
  2
HIDDEN
 70
64
  3
- - - - - - - - - - - - - - - - - - - -
 72
65
 73
2
 40
0.2
 49
0.1
 74
0
 49
-0.1
 74
0
  0
LTYPE
  5
1F7
100
AcDbSymbolTableRecord
100
AcDbLinetypeTableRecord
  2
PHANTOM
 70
64
  3
_____ _ _ _____ _ _ _____ _ _ _____
 72
65
 73
6
 40
0.8
 49
0.45
 74
0
 49
-0.05
 74
0
 49
0.1
 74
0
 49
-0.05
 74
0
 49
0.1
 74
0
 49
-0.05
 74
0
  0
LTYPE
  5
1F8
100
AcDbSymbolTableRecord
100
AcDbLinetypeTableRecord
  2
DOT
 70
64
  3
. . . . . . . . . . . . . . . . . . . .
 72
65
 73
2
 40
0.2
 49
0.1
 74
0
 49
-0.1
 74
0
  0
LTYPE
  5
1F9
100
AcDbSymbolTableRecord
100
AcDbLinetypeTableRecord
  2
DASHED
 70
64
  3
- - - - - - - - - - - - - - - - - - - -
 72
65
 73
2
 40
0.2
 49
0.1
 74
0
 49
-0.1
 74
0
  0
ENDTAB
  0
TABLE
  2
LAYER
  5
2
100
AcDbSymbolTable
 70
36
  0
LAYER
  5
10
100
AcDbSymbolTableRecord
100
AcDbLayerTableRecord
  2
0
 70
0
 62
7
  6
CONTINUOUS
370
-3
390
F
  0
LAYER
  5
1FA
100
AcDbSymbolTableRecord
100
AcDbLayerTableRecord
  2
DEFAULT_1
 70
0
 62
7
  6
CENTER
370
-3
390
F
  0
LAYER
  5
1FB
100
AcDbSymbolTableRecord
100
AcDbLayerTableRecord
  2
DEFAULT_2
 70
0
 62
7
  6
HIDDEN
370
-3
390
F
  0
LAYER
  5
1FC
100
AcDbSymbolTableRecord
100
AcDbLayerTableRecord
  2
DEFAULT_3
 70
0
 62
7
  6
PHANTOM
370
-3
390
F
  0
LAYER
  5
1FD
100
AcDbSymbolTableRecord
100
AcDbLayerTableRecord
  2
ASSI
 70
0
 62
7
  6
CONTINUOUS
370
-3
390
F
  0
LAYER
  5
1FE
100
AcDbSymbolTableRecord
100
AcDbLayerTableRecord
  2
COORDINATE
 70
0
 62
7
  6
CONTINUOUS
370
-3
390
F
  0
LAYER
  5
1FF
100
AcDbSymbolTableRecord
100
AcDbLayerTableRecord
  2
COORD_ORIGINE
 70
0
 62
7
  6
CONTINUOUS
370
-3
390
F
  0
LAYER
  5
200
100
AcDbSymbolTableRecord
100
AcDbLayerTableRecord
  2
COPY_PUBLISH
 70
0
 62
7
  6
CONTINUOUS
370
-3
390
F
  0
LAYER
  5
201
100
AcDbSymbolTableRecord
100
AcDbLayerTableRecord
  2
COSMETIC
 70
0
 62
7
  6
CONTINUOUS
370
-3
390
F
  0
LAYER
  5
202
100
AcDbSymbolTableRecord
100
AcDbLayerTableRecord
  2
CURVE
 70
0
 62
7
  6
CONTINUOUS
370
-3
390
F
  0
LAYER
  5
203
100
AcDbSymbolTableRecord
100
AcDbLayerTableRecord
  2
DRAFT
 70
0
 62
7
  6
CONTINUOUS
370
-3
390
F
  0
LAYER
  5
204
100
AcDbSymbolTableRecord
100
AcDbLayerTableRecord
  2
IMPORT_IGES
 70
0
 62
7
  6
CONTINUOUS
370
-3
390
F
  0
LAYER
  5
205
100
AcDbSymbolTableRecord
100
AcDbLayerTableRecord
  2
INTFCLR_2
 70
0
 62
7
  6
CONTINUOUS
370
-3
390
F
  0
LAYER
  5
206
100
AcDbSymbolTableRecord
100
AcDbLayerTableRecord
  2
PIANI
 70
0
 62
7
  6
CONTINUOUS
370
-3
390
F
  0
LAYER
  5
207
100
AcDbSymbolTableRecord
100
AcDbLayerTableRecord
  2
PIANI_ORIGINE
 70
0
 62
7
  6
CONTINUOUS
370
-3
390
F
  0
LAYER
  5
208
100
AcDbSymbolTableRecord
100
AcDbLayerTableRecord
  2
PIANI_RIFERIMENTO
 70
0
 62
7
  6
CONTINUOUS
370
-3
390
F
  0
LAYER
  5
209
100
AcDbSymbolTableRecord
100
AcDbLayerTableRecord
  2
PUNTI
 70
0
 62
7
  6
CONTINUOUS
370
-3
390
F
  0
LAYER
  5
20A
100
AcDbSymbolTableRecord
100
AcDbLayerTableRecord
  2
RACCORDO
 70
0
 62
7
  6
CONTINUOUS
370
-3
390
F
  0
LAYER
  5
20B
100
AcDbSymbolTableRecord
100
AcDbLayerTableRecord
  2
SMUSSO
 70
0
 62
7
  6
CONTINUOUS
370
-3
390
F
  0
LAYER
  5
20C
100
AcDbSymbolTableRecord
100
AcDbLayerTableRecord
  2
SNAPLINE
 70
0
 62
7
  6
CONTINUOUS
370
-3
390
F
  0
LAYER
  5
20D
100
AcDbSymbolTableRecord
100
AcDbLayerTableRecord
  2
SUPERFICI
 70
0
 62
7
  6
CONTINUOUS
370
-3
390
F
  0
LAYER
  5
20E
100
AcDbSymbolTableRecord
100
AcDbLayerTableRecord
  2
TRASH
 70
0
 62
7
  6
CONTINUOUS
370
-3
390
F
  0
LAYER
  5
20F
100
AcDbSymbolTableRecord
100
AcDbLayerTableRecord
  2
XSEC_DATUMS
 70
0
 62
7
  6
CONTINUOUS
370
-3
390
F
  0
ENDTAB
  0
TABLE
  2
STYLE
  5
3
100
AcDbSymbolTable
 70
1
  0
STYLE
  5
11
100
AcDbSymbolTableRecord
100
AcDbTextStyleTableRecord
  2
STANDARD
 70
0
 40
0.0
 41
0.8
 50
0.0
 71
0
 42
0.2
  3
txt
  4

  0
STYLE
  5
210
100
AcDbSymbolTableRecord
100
AcDbTextStyleTableRecord
  2
TEXTSTYLE_1
 70
0
 40
0.0
 41
0.8
 50
0.0
 71
0
 42
0.2
  3
gdt
  4

  0
ENDTAB
  0
TABLE
  2
VIEW
  5
6
100
AcDbSymbolTable
 70
0
  0
ENDTAB
  0
TABLE
  2
UCS
  5
7
100
AcDbSymbolTable
 70
0
  0
ENDTAB
  0
TABLE
  2
APPID
  5
9
100
AcDbSymbolTable
 70
1
  0
APPID
  5
211
100
AcDbSymbolTableRecord
100
AcDbRegAppTableRecord
  2
ACAD
 70
0
  0
ENDTAB
  0
TABLE
  2
BLOCK_RECORD
  5
1
100
AcDbSymbolTable
 70
0
  0
BLOCK_RECORD
  5
212
100
AcDbSymbolTableRecord
100
AcDbBlockTableRecord
  2
*Model_Space
  0
BLOCK_RECORD
  5
213
100
AcDbSymbolTableRecord
100
AcDbBlockTableRecord
  2
*Paper_Space
  0
BLOCK_RECORD
  5
214
100
AcDbSymbolTableRecord
100
AcDbBlockTableRecord
  2
_FILLED
  0
BLOCK_RECORD
  5
215
100
AcDbSymbolTableRecord
100
AcDbBlockTableRecord
  2
*D0
  0
BLOCK_RECORD
  5
216
100
AcDbSymbolTableRecord
100
AcDbBlockTableRecord
  2
*D1
  0
BLOCK_RECORD
  5
217
100
AcDbSymbolTableRecord
100
AcDbBlockTableRecord
  2
*D2
  0
BLOCK_RECORD
  5
218
100
AcDbSymbolTableRecord
100
AcDbBlockTableRecord
  2
*D3
  0
ENDTAB
  0
TABLE
  2
DIMSTYLE
  5
A
100
AcDbSymbolTable
 70
1
100
AcDbDimStyleTable
 71
0
  0
DIMSTYLE
105
219
100
AcDbSymbolTableRecord
100
AcDbDimStyleTableRecord
  2
STANDARD
 70
0
  3

  4

 40
1.0
 41
3.0
 42
0.5
 43
0.38
 44
1.5
 45
0.0
 46
0.0
 47
0.01
 48
0.01
140
3.0
141
0.09
142
0.0
143
25.4
144
1.0
145
0.0
146
1.0
147
0.625
 71
1.0
 72
0.0
 73
0
 74
0
 75
0
 76
0
 77
1
 78
8
170
0
171
2
172
0
173
0
174
0
175
0
176
0
177
0
178
0
270
2
271
2
272
2
273
2
274
2
275
0
280
0
281
0
282
0
283
1
284
8
285
0
286
0
287
3
288
0
340
11
278
44
341
214
342
214
343
214
344
214
  0
DIMSTYLE
105
21A
100
AcDbSymbolTableRecord
100
AcDbDimStyleTableRecord
  2
DIMSTYLE_1
 70
0
  3

  4

 40
1.0
 41
3.0
 42
0.5
 43
0.38
 44
1.5
 45
0.0
 46
0.0
 47
0.0
 48
0.0
140
3.0
141
0.09
142
0.0
143
25.4
144
1.0
145
0.0
146
1.0
147
0.75
 71
0.0
 72
0.0
 73
0
 74
0
 75
0
 76
0
 77
1
 78
8
170
0
171
2
172
0
173
0
174
0
175
0
176
0
177
0
178
0
270
2
271
2
272
2
273
2
274
2
275
0
280
0
281
0
282
0
283
1
284
8
285
0
286
0
287
3
288
0
340
11
278
44
341
214
342
214
343
214
344
214
  0
ENDTAB
  0
ENDSEC
  0
SECTION
  2
BLOCKS
  0
BLOCK
  5
20
100
AcDbEntity
  8
0
100
AcDbBlockBegin
  2
*Model_Space
 70
0
 10
0.0
 20
0.0
 30
0.0
  3
*Model_Space
  1

  0
ENDBLK
  5
21
100
AcDbEntity
  8
0
100
AcDbBlockEnd
  0
BLOCK
  5
1C
100
AcDbEntity
  8
0
100
AcDbBlockBegin
  2
*Paper_Space
 70
0
 10
0.0
 20
0.0
 30
0.0
  3
*Paper_Space
  1

  0
ENDBLK
  5
1D
100
AcDbEntity
  8
0
100
AcDbBlockEnd
  0
BLOCK
  5
21B
100
AcDbEntity
  8
0
100
AcDbBlockBegin
  2
_FILLED
 70
64
 10
0.0
 20
0.0
  3
_FILLED
  1

  0
SOLID
  5
21C
100
AcDbEntity
  8
0
  6
BYBLOCK
 62
0
100
AcDbTrace
 10
0.0
 20
0.0
 11
-1.0
 21
0.3166666667
 12
-1.0
 22
-0.3166666667
 13
-1.0
 23
-0.3166666667
  0
ENDBLK
  5
21D
100
AcDbEntity
  8
0
  6
BYBLOCK
 62
0
100
AcDbBlockEnd
  0
BLOCK
  5
21E
100
AcDbEntity
  8
0
100
AcDbBlockBegin
 62
7
  6
CONTINUOUS
  2
*D0
 70
65
 10
0.0
 20
0.0
  3
*D0
  1

  0
MTEXT
  5
21F
100
AcDbEntity
  8
0
100
AcDbMText
 62
7
  6
CONTINUOUS
  7
STANDARD
 71
1
 72
1
 10
-76.3573558137
 20
59.2688137746
 30
0.0
 11
1.0
 21
0.0
 31
0.0
 44
0.9
  1
9,25
 40
3.0
 41
8.5714285714
  0
LINE
  5
220
100
AcDbEntity
  8
0
100
AcDbLine
 62
7
  6
CONTINUOUS
 10
-81.9853316327
 20
46.4688137755
 11
-81.9853316327
 21
57.0188137746
  0
LINE
  5
221
100
AcDbEntity
  8
0
100
AcDbLine
 62
7
  6
CONTINUOUS
 10
-91.2353316327
 20
25.8778095965
 11
-91.2353316327
 21
57.0188137746
  0
LINE
  5
222
100
AcDbEntity
  8
0
100
AcDbLine
 62
7
  6
CONTINUOUS
 10
-81.9853316327
 20
55.5188137746
 11
-86.6103316327
 21
55.5188137746
  0
LINE
  5
223
100
AcDbEntity
  8
0
100
AcDbLine
 62
7
  6
CONTINUOUS
 10
-86.6103316327
 20
55.5188137746
 11
-67.7859272422
 21
55.5188137746
  0
LINE
  5
224
100
AcDbEntity
  8
0
100
AcDbLine
 62
7
  6
CONTINUOUS
 10
-91.2353316327
 20
55.5188137746
 11
-86.6103316327
 21
55.5188137746
  0
INSERT
  5
225
100
AcDbEntity
  8
0
100
AcDbBlockReference
 62
7
  6
CONTINUOUS
  2
_FILLED
 10
-81.9853316327
 20
55.5188137746
 41
3.0
 42
3.0
 43
3.0
  0
INSERT
  5
226
100
AcDbEntity
  8
0
100
AcDbBlockReference
 62
7
  6
CONTINUOUS
  2
_FILLED
 10
-91.2353316327
 20
55.5188137746
 41
3.0
 42
3.0
 43
3.0
 50
180.0
  0
ENDBLK
  5
227
100
AcDbEntity
  8
0
  6
BYBLOCK
 62
0
100
AcDbBlockEnd
  0
BLOCK
  5
228
100
AcDbEntity
  8
0
100
AcDbBlockBegin
 62
7
  6
CONTINUOUS
  2
*D1
 70
65
 10
0.0
 20
0.0
  3
*D1
  1

  0
MTEXT
  5
229
100
AcDbEntity
  8
0
100
AcDbMText
 62
7
  6
CONTINUOUS
  7
STANDARD
 71
1
 72
1
 10
-79.8853019327
 20
69.2688137746
 30
0.0
 11
1.0
 21
0.0
 31
0.0
 44
0.9
  1
9,85
 40
3.0
 41
8.5714285714
  0
LINE
  5
22A
100
AcDbEntity
  8
0
100
AcDbLine
 62
7
  6
CONTINUOUS
 10
-91.2353316327
 20
25.8778095965
 11
-91.2353316327
 21
67.0188137746
  0
LINE
  5
22B
100
AcDbEntity
  8
0
100
AcDbLine
 62
7
  6
CONTINUOUS
 10
-81.3853316327
 20
26.6688137755
 11
-81.3853316327
 21
67.0188137746
  0
LINE
  5
22C
100
AcDbEntity
  8
0
100
AcDbLine
 62
7
  6
CONTINUOUS
 10
-91.2353316327
 20
65.5188137746
 11
-86.3103316327
 21
65.5188137746
  0
LINE
  5
22D
100
AcDbEntity
  8
0
100
AcDbLine
 62
7
  6
CONTINUOUS
 10
-81.3853316327
 20
65.5188137746
 11
-86.3103316327
 21
65.5188137746
  0
LINE
  5
22E
100
AcDbEntity
  8
0
100
AcDbLine
 62
7
  6
CONTINUOUS
 10
-86.3103316327
 20
65.5188137746
 11
-71.3138733612
 21
65.5188137746
  0
INSERT
  5
22F
100
AcDbEntity
  8
0
100
AcDbBlockReference
 62
7
  6
CONTINUOUS
  2
_FILLED
 10
-91.2353316327
 20
65.5188137746
 41
3.0
 42
3.0
 43
3.0
 50
180.0
  0
INSERT
  5
230
100
AcDbEntity
  8
0
100
AcDbBlockReference
 62
7
  6
CONTINUOUS
  2
_FILLED
 10
-81.3853316327
 20
65.5188137746
 41
3.0
 42
3.0
 43
3.0
  0
ENDBLK
  5
231
100
AcDbEntity
  8
0
  6
BYBLOCK
 62
0
100
AcDbBlockEnd
  0
BLOCK
  5
232
100
AcDbEntity
  8
0
100
AcDbBlockBegin
 62
7
  6
CONTINUOUS
  2
*D2
 70
65
 10
0.0
 20
0.0
  3
*D2
  1

  0
MTEXT
  5
233
100
AcDbEntity
  8
0
100
AcDbMText
 62
7
  6
CONTINUOUS
  7
STANDARD
 71
2
 72
1
 10
-0.1515306127
 20
59.2688137746
 30
0.0
 11
1.0
 21
0.0
 31
0.0
 44
0.9
  1
95,4
 40
3.0
 41
8.5714285714
  0
LINE
  5
234
100
AcDbEntity
  8
0
100
AcDbLine
 62
7
  6
CONTINUOUS
 10
-47.8515306127
 20
47.0188137755
 11
-47.8515306127
 21
57.0188137746
  0
LINE
  5
235
100
AcDbEntity
  8
0
100
AcDbLine
 62
7
  6
CONTINUOUS
 10
47.5484693873
 20
47.0188137755
 11
47.5484693873
 21
57.0188137746
  0
LINE
  5
236
100
AcDbEntity
  8
0
100
AcDbLine
 62
7
  6
CONTINUOUS
 10
-47.8515306127
 20
55.5188137746
 11
-0.1515306127
 21
55.5188137746
  0
LINE
  5
237
100
AcDbEntity
  8
0
100
AcDbLine
 62
7
  6
CONTINUOUS
 10
47.5484693873
 20
55.5188137746
 11
-0.1515306127
 21
55.5188137746
  0
INSERT
  5
238
100
AcDbEntity
  8
0
100
AcDbBlockReference
 62
7
  6
CONTINUOUS
  2
_FILLED
 10
-47.8515306127
 20
55.5188137746
 41
3.0
 42
3.0
 43
3.0
 50
180.0
  0
INSERT
  5
239
100
AcDbEntity
  8
0
100
AcDbBlockReference
 62
7
  6
CONTINUOUS
  2
_FILLED
 10
47.5484693873
 20
55.5188137746
 41
3.0
 42
3.0
 43
3.0
  0
ENDBLK
  5
23A
100
AcDbEntity
  8
0
  6
BYBLOCK
 62
0
100
AcDbBlockEnd
  0
BLOCK
  5
23B
100
AcDbEntity
  8
0
100
AcDbBlockBegin
 62
7
  6
CONTINUOUS
  2
*D3
 70
65
 10
0.0
 20
0.0
  3
*D3
  1

  0
MTEXT
  5
23C
100
AcDbEntity
  8
0
100
AcDbMText
 62
7
  6
CONTINUOUS
  7
STANDARD
 71
2
 72
1
 10
51.7984693873
 20
-0.1811862245
 30
0.0
 11
0.0
 21
1.0
 31
0.0
 44
0.9
  1
95,4
 40
3.0
 41
8.5714285714
  0
LINE
  5
23D
100
AcDbEntity
  8
0
100
AcDbLine
 62
7
  6
CONTINUOUS
 10
47.0484693873
 20
47.5188137755
 11
57.0484693873
 21
47.5188137755
  0
LINE
  5
23E
100
AcDbEntity
  8
0
100
AcDbLine
 62
7
  6
CONTINUOUS
 10
47.0484693873
 20
-47.8811862245
 11
57.0484693873
 21
-47.8811862245
  0
LINE
  5
23F
100
AcDbEntity
  8
0
100
AcDbLine
 62
7
  6
CONTINUOUS
 10
55.5484693873
 20
47.5188137755
 11
55.5484693873
 21
-0.1811862245
  0
LINE
  5
240
100
AcDbEntity
  8
0
100
AcDbLine
 62
7
  6
CONTINUOUS
 10
55.5484693873
 20
-47.8811862245
 11
55.5484693873
 21
-0.1811862245
  0
INSERT
  5
241
100
AcDbEntity
  8
0
100
AcDbBlockReference
 62
7
  6
CONTINUOUS
  2
_FILLED
 10
55.5484693873
 20
47.5188137755
 41
3.0
 42
3.0
 43
3.0
 50
90.0
  0
INSERT
  5
242
100
AcDbEntity
  8
0
100
AcDbBlockReference
 62
7
  6
CONTINUOUS
  2
_FILLED
 10
55.5484693873
 20
-47.8811862245
 41
3.0
 42
3.0
 43
3.0
 50
270.0
  0
ENDBLK
  5
243
100
AcDbEntity
  8
0
  6
BYBLOCK
 62
0
100
AcDbBlockEnd
  0
ENDSEC
  0
SECTION
  2
ENTITIES
  0
DIMENSION
  5
244
100
AcDbEntity
  8
0
100
AcDbDimension
 62
7
  6
CONTINUOUS
  2
*D0
 10
-91.2353316327
 20
55.5188137746
 11
-72.071641528
 21
55.5188137746
 70
160
 71
1
 42
9.25
  3
DIMSTYLE_1
100
AcDbAlignedDimension
 13
-81.9853316327
 23
45.9688137755
 14
-91.2353316327
 24
25.3778095965
 50
180.0
100
AcDbRotatedDimension
  0
DIMENSION
  5
245
100
AcDbEntity
  8
0
100
AcDbDimension
 62
7
  6
CONTINUOUS
  2
*D1
 10
-81.3853316327
 20
65.5188137746
 11
-75.5995876469
 21
65.5188137746
 70
160
 71
1
 42
9.85
  3
DIMSTYLE_1
100
AcDbAlignedDimension
 13
-91.2353316327
 23
25.3778095965
 14
-81.3853316327
 24
26.1688137755
100
AcDbRotatedDimension
  0
DIMENSION
  5
246
100
AcDbEntity
  8
0
100
AcDbDimension
 62
7
  6
CONTINUOUS
  2
*D2
 10
47.5484693873
 20
55.5188137746
 11
-0.1515306127
 21
55.5188137746
 70
160
 71
2
 42
95.4
  3
DIMSTYLE_1
100
AcDbAlignedDimension
 13
-47.8515306127
 23
46.5188137755
 14
47.5484693873
 24
46.5188137755
100
AcDbRotatedDimension
  0
DIMENSION
  5
247
100
AcDbEntity
  8
0
100
AcDbDimension
 62
7
  6
CONTINUOUS
  2
*D3
 10
55.5484693873
 20
-47.8811862245
 11
55.5484693873
 21
-0.1811862245
 70
160
 71
2
 42
95.4
  3
DIMSTYLE_1
100
AcDbAlignedDimension
 13
46.5484693873
 23
47.5188137755
 14
46.5484693873
 24
-47.8811862245
 50
270.0
100
AcDbRotatedDimension
  0
LINE
  5
248
100
AcDbEntity
  8
SMUSSO
100
AcDbLine
 62
7
  6
CONTINUOUS
 10
-47.8515306127
 20
46.5188137755
 11
-47.8515306127
 21
-46.8811862245
  0
LINE
  5
249
100
AcDbEntity
  8
SMUSSO
100
AcDbLine
 62
7
  6
CONTINUOUS
 10
-46.8515306127
 20
46.5188137755
 11
-46.8515306127
 21
-46.8811862245
  0
LINE
  5
24A
100
AcDbEntity
  8
SMUSSO
100
AcDbLine
 62
253
  6
CONTINUOUS
 10
-46.8515306127
 20
-46.8811862245
 11
-46.8515306127
 21
-47.8811862245
  0
LINE
  5
24B
100
AcDbEntity
  8
SMUSSO
100
AcDbLine
 62
253
  6
CONTINUOUS
 10
-46.8515306127
 20
46.5188137755
 11
-46.8515306127
 21
47.5188137755
  0
LINE
  5
24C
100
AcDbEntity
  8
SMUSSO
100
AcDbLine
 62
7
  6
CONTINUOUS
 10
-46.8515306127
 20
-47.8811862245
 11
46.5484693873
 21
-47.8811862245
  0
LINE
  5
24D
100
AcDbEntity
  8
SMUSSO
100
AcDbLine
 62
7
  6
CONTINUOUS
 10
-46.8515306127
 20
-46.8811862245
 11
46.5484693873
 21
-46.8811862245
  0
LINE
  5
24E
100
AcDbEntity
  8
SMUSSO
100
AcDbLine
 62
253
  6
CONTINUOUS
 10
46.5484693873
 20
-46.8811862245
 11
47.5484693873
 21
-46.8811862245
  0
LINE
  5
24F
100
AcDbEntity
  8
SMUSSO
100
AcDbLine
 62
253
  6
CONTINUOUS
 10
-46.8515306127
 20
-46.8811862245
 11
-47.8515306127
 21
-46.8811862245
  0
LWPOLYLINE
  5
250
100
AcDbEntity
  8
RACCORDO
100
AcDbPolyline
 62
253
  6
CONTINUOUS
 90
22
 70
0
 10
-37.3104198202
 20
-25.7401820454
 10
-37.3084563114
 20
-25.7924854986
 10
-37.3025902597
 20
-25.8444953773
 10
-37.292854595
 20
-25.8959209752
 10
-37.2793039287
 20
-25.9464748113
 10
-37.2620140946
 20
-25.995874384
 10
-37.2410816654
 20
-26.0438437298
 10
-37.216623642
 20
-26.0901148231
 10
-37.188776861
 20
-26.1344289391
 10
-37.1576970619
 20
-26.1765382481
 10
-37.1235581956
 20
-26.2162072066
 10
-37.0865510286
 20
-26.2532143326
 10
-37.0468819885
 20
-26.2873531896
 10
-37.0047725107
 20
-26.3184330287
 10
-36.9604581688
 20
-26.3462798548
 10
-36.9141869187
 20
-26.3707378539
 10
-36.8662175431
 20
-26.3916701881
 10
-36.8168180324
 20
-26.4089599002
 10
-36.7662643501
 20
-26.4225104379
 10
-36.7148389982
 20
-26.4322459871
 10
-36.6628294584
 20
-26.4381119553
 10
-36.6105264336
 20
-26.440075432
  0
LINE
  5
251
100
AcDbEntity
  8
RACCORDO
100
AcDbLine
 62
7
  6
CONTINUOUS
 10
-37.3174932361
 20
25.3848830123
 11
-37.3174932361
 21
-25.7472554613
  0
LINE
  5
252
100
AcDbEntity
  8
RACCORDO
100
AcDbLine
 62
253
  6
CONTINUOUS
 10
-37.3104198202
 20
25.3778095965
 11
-37.3104198202
 21
-25.7401820454
  0
LINE
  5
253
100
AcDbEntity
  8
RACCORDO
100
AcDbLine
 62
253
  6
CONTINUOUS
 10
-37.0104655117
 20
25.3778095965
 11
-37.0104655117
 21
-25.74341118
  0
LINE
  5
254
100
AcDbEntity
  8
RACCORDO
100
AcDbLine
 62
253
  6
CONTINUOUS
 10
-36.6105264317
 20
26.0777029831
 11
-36.6105264336
 21
25.7777486745
  0
LINE
  5
255
100
AcDbEntity
  8
RACCORDO
100
AcDbLine
 62
253
  6
CONTINUOUS
 10
-36.6105264323
 20
-26.440075432
 11
-36.6105264336
 21
-26.1401211235
  0
LWPOLYLINE
  5
256
100
AcDbEntity
  8
RACCORDO
100
AcDbPolyline
 62
253
  6
CONTINUOUS
 90
22
 70
0
 10
-37.0104655117
 20
25.3778095965
 10
-37.0093427237
 20
25.4076275353
 10
-37.0060648375
 20
25.437011861
 10
-37.0006318532
 20
25.4659625737
 10
-36.992991061
 20
25.4946508666
 10
-36.9831951707
 20
25.5229055463
 10
-36.9714023116
 20
25.550213033
 10
-36.9575800107
 20
25.5765423789
 10
-36.9417607411
 20
25.6019245317
 10
-36.9242000519
 20
25.6259387538
 10
-36.9048643823
 20
25.6485649845
 10
-36.8837872932
 20
25.6698232846
 10
-36.8613250165
 20
25.6893530993
 10
-36.8374561473
 20
25.7071213944
 10
-36.8122020904
 20
25.7231612041
 10
-36.7859832926
 20
25.7372110761
 10
-36.7587730976
 20
25.7492375646
 10
-36.7305981617
 20
25.7592741155
 10
-36.7019588997
 20
25.7671596135
 10
-36.6730221165
 20
25.7728403534
 10
-36.6436210073
 20
25.7763700404
 10
-36.613755572
 20
25.7777486745
  0
LWPOLYLINE
  5
257
100
AcDbEntity
  8
RACCORDO
100
AcDbPolyline
 62
253
  6
CONTINUOUS
 90
19
 70
0
 10
-34.6735471615
 20
22.7926285262
 10
-34.6708432655
 20
22.8493532467
 10
-34.6638550551
 20
22.9041609782
 10
-34.6525825304
 20
22.9570517206
 10
-34.6367872404
 20
23.0083308971
 10
-34.6167076361
 20
23.0576930845
 10
-34.5930590702
 20
23.1042220134
 10
-34.5658199518
 20
23.14780798
 10
-34.5350118718
 20
23.1885606881
 10
-34.5014149556
 20
23.2258929793
 10
-34.4650610184
 20
23.2597311691
 10
-34.4259182449
 20
23.290148942
 10
-34.3846713151
 20
23.3167801925
 10
-34.3413223886
 20
23.3396178846
 10
-34.2958693058
 20
23.3586690542
 10
-34.2489902676
 20
23.3735887032
 10
-34.2009113411
 20
23.3842618323
 10
-34.1514064592
 20
23.3908034409
 10
-34.1004756219
 20
23.3932135289
  0
LWPOLYLINE
  5
258
100
AcDbEntity
  8
RACCORDO
100
AcDbPolyline
 62
253
  6
CONTINUOUS
 90
22
 70
0
 10
-34.0507855954
 20
-22.4858513166
 10
-34.0500294185
 20
-22.501286561
 10
-34.048393116
 20
-22.5172708359
 10
-34.0457828242
 20
-22.533748036
 10
-34.0421122659
 20
-22.5506132889
 10
-34.0372865254
 20
-22.567826447
 10
-34.0311819141
 20
-22.5854055897
 10
-34.0236937607
 20
-22.603238341
 10
-34.0147234994
 20
-22.6211964971
 10
-34.0041260845
 20
-22.6392345611
 10
-33.9917399342
 20
-22.6572590266
 10
-33.9775287075
 20
-22.6749797886
 10
-33.9615719196
 20
-22.6920431536
 10
-33.9437836342
 20
-22.7083072203
 10
-33.9242371139
 20
-22.7234793058
 10
-33.9033931079
 20
-22.7370859032
 10
-33.8814897997
 20
-22.7489475565
 10
-33.8585561489
 20
-22.7590224851
 10
-33.8348423541
 20
-22.7671767247
 10
-33.810547092
 20
-22.7733367426
 10
-33.7858043629
 20
-22.777462455
 10
-33.7607868797
 20
-22.7795151606
  0
LINE
  5
259
100
AcDbEntity
  8
RACCORDO
100
AcDbLine
 62
253
  6
CONTINUOUS
 10
-34.0583015771
 20
-22.4899304116
 11
-34.0582243593
 21
-22.4947108061
  0
LWPOLYLINE
  5
25A
100
AcDbEntity
  8
RACCORDO
100
AcDbPolyline
 62
253
  6
CONTINUOUS
 90
19
 70
0
 10
-34.3781048473
 20
22.7926288022
 10
-34.3784558959
 20
22.8238733493
 10
-34.3763484481
 20
22.8542739929
 10
-34.3718738142
 20
22.8836488425
 10
-34.3651489815
 20
22.9118468786
 10
-34.3562807066
 20
22.938691466
 10
-34.3453617471
 20
22.9639802436
 10
-34.3325311643
 20
22.9875557193
 10
-34.3179317161
 20
23.0093281602
 10
-34.3016608392
 20
23.0292090384
 10
-34.283877554
 20
23.047080634
 10
-34.264720382
 20
23.0628807071
 10
-34.2442359001
 20
23.0765938125
 10
-34.222565333
 20
23.0881375447
 10
-34.1998586509
 20
23.0974410216
 10
-34.176156528
 20
23.104476748
 10
-34.1515712608
 20
23.1091791257
 10
-34.1262972594
 20
23.1114724225
 10
-34.1004983736
 20
23.1113062743
  0
LINE
  5
25B
100
AcDbEntity
  8
RACCORDO
100
AcDbLine
 62
253
  6
CONTINUOUS
 10
-34.0508438456
 20
-22.4805451489
 11
-34.0507855954
 21
-22.4858513166
  0
LINE
  5
25C
100
AcDbEntity
  8
RACCORDO
100
AcDbLine
 62
253
  6
CONTINUOUS
 10
-34.0583480629
 20
-22.4852085259
 11
-34.0583015771
 21
-22.4899304116
  0
LINE
  5
25D
100
AcDbEntity
  8
RACCORDO
100
AcDbLine
 62
253
  6
CONTINUOUS
 10
-34.0583638167
 20
-22.4805451489
 11
-34.0583480629
 21
-22.4852085259
  0
LINE
  5
25E
100
AcDbEntity
  8
RACCORDO
100
AcDbLine
 62
253
  6
CONTINUOUS
 10
-34.6735471615
 20
-23.1550009752
 11
-34.6735471615
 21
22.7926285262
  0
LINE
  5
25F
100
AcDbEntity
  8
RACCORDO
100
AcDbLine
 62
253
  6
CONTINUOUS
 10
-34.3781048356
 20
-23.1550013016
 11
-34.3781048356
 21
22.7926287781
  0
LINE
  5
260
100
AcDbEntity
  8
RACCORDO
100
AcDbLine
 62
253
  6
CONTINUOUS
 10
-34.1004756219
 20
23.3932135289
 11
-34.1004756219
 21
23.1113057427
  0
LINE
  5
261
100
AcDbEntity
  8
RACCORDO
100
AcDbLine
 62
253
  6
CONTINUOUS
 10
-34.1004756219
 20
-23.7555859779
 11
-34.100475622
 21
-23.4736781917
  0
LINE
  5
262
100
AcDbEntity
  8
RACCORDO
100
AcDbLine
 62
253
  6
CONTINUOUS
 10
-34.0583638167
 20
22.1181726999
 11
-34.0583638167
 21
-22.4805451489
  0
LINE
  5
263
100
AcDbEntity
  8
RACCORDO
100
AcDbLine
 62
253
  6
CONTINUOUS
 10
-34.0508438456
 20
22.1181726999
 11
-34.0508438456
 21
-22.4805451489
  0
LINE
  5
264
100
AcDbEntity
  8
RACCORDO
100
AcDbLine
 62
7
  6
CONTINUOUS
 10
-34.0436758335
 20
-22.4733771367
 11
-34.0436758335
 21
22.1110046877
  0
LINE
  5
265
100
AcDbEntity
  8
RACCORDO
100
AcDbLine
 62
253
  6
CONTINUOUS
 10
-33.7501160385
 20
-22.7797259589
 11
-33.7501160385
 21
-22.8098034961
  0
LINE
  5
266
100
AcDbEntity
  8
RACCORDO
100
AcDbLine
 62
253
  6
CONTINUOUS
 10
-33.7501160385
 20
22.4173535099
 11
-33.7501160391
 21
22.4474310471
  0
LINE
  5
267
100
AcDbEntity
  8
RACCORDO
100
AcDbLine
 62
253
  6
CONTINUOUS
 10
-34.0582243593
 20
22.1323383571
 11
-34.0583638167
 21
22.1181726999
  0
LINE
  5
268
100
AcDbEntity
  8
RACCORDO
100
AcDbLine
 62
253
  6
CONTINUOUS
 10
-34.0507855954
 20
22.1234788676
 11
-34.0508438456
 21
22.1181726999
  0
LWPOLYLINE
  5
269
100
AcDbEntity
  8
RACCORDO
100
AcDbPolyline
 62
253
  6
CONTINUOUS
 90
22
 70
0
 10
-34.0582243593
 20
-22.4947108061
 10
-34.058459355
 20
-22.5121341557
 10
-34.05778999
 20
-22.5300429735
 10
-34.0561208393
 20
-22.5483879736
 10
-34.0533647304
 20
-22.567083822
 10
-34.0494229256
 20
-22.5860846056
 10
-34.0441706715
 20
-22.6053792281
 10
-34.0375202056
 20
-22.6248775775
 10
-34.0293640213
 20
-22.6444492257
 10
-34.0195235859
 20
-22.6639866454
 10
-34.0078472832
 20
-22.683419551
 10
-33.9943001413
 20
-22.7024612664
 10
-33.9789155229
 20
-22.7206661008
 10
-33.9616059137
 20
-22.7378912971
 10
-33.9424568897
 20
-22.7538685494
 10
-33.9218987757
 20
-22.7680606236
 10
-33.9001557584
 20
-22.7802664461
 10
-33.8772718867
 20
-22.790468727
 10
-33.8535060616
 20
-22.7985307255
 10
-33.8290596831
 20
-22.8043778414
 10
-33.8040636671
 20
-22.807970291
 10
-33.7786897843
 20
-22.8092675659
  0
LWPOLYLINE
  5
26A
100
AcDbEntity
  8
RACCORDO
100
AcDbPolyline
 62
253
  6
CONTINUOUS
 90
10
 70
0
 10
-34.0507925523
 20
-22.4858514433
 10
-34.0510064944
 20
-22.4868290718
 10
-34.0513740584
 20
-22.4878090999
 10
-34.0518951313
 20
-22.4887912226
 10
-34.0525695529
 20
-22.4897751347
 10
-34.0533971161
 20
-22.4907605301
 10
-34.0543775663
 20
-22.4917471024
 10
-34.0555106023
 20
-22.4927345448
 10
-34.0567958758
 20
-22.4937225502
 10
-34.0582329915
 20
-22.4947108115
  0
LWPOLYLINE
  5
26B
100
AcDbEntity
  8
RACCORDO
100
AcDbPolyline
 62
253
  6
CONTINUOUS
 90
22
 70
0
 10
36.3074652083
 20
-26.440075432
 10
36.3597686614
 20
-26.4381119232
 10
36.4117785401
 20
-26.4322458715
 10
36.4632041381
 20
-26.4225102068
 10
36.5137579742
 20
-26.4089595405
 10
36.5631575468
 20
-26.3916697064
 10
36.6111268926
 20
-26.3707372772
 10
36.6573979859
 20
-26.3462792538
 10
36.7017121019
 20
-26.3184324728
 10
36.7438214109
 20
-26.2873526737
 10
36.7834903695
 20
-26.2532138074
 10
36.8204974954
 20
-26.2162066404
 10
36.8546363524
 20
-26.1765376003
 10
36.8857161915
 20
-26.1344281225
 10
36.9135630176
 20
-26.0901137806
 10
36.9380210167
 20
-26.0438425305
 10
36.9589533509
 20
-25.9958731549
 10
36.976243063
 20
-25.9464736442
 10
36.9897936008
 20
-25.8959199619
 10
36.9995291499
 20
-25.84449461
 10
37.0053951181
 20
-25.7924850702
 10
37.0073585949
 20
-25.7401820454
  0
LWPOLYLINE
  5
26C
100
AcDbEntity
  8
RACCORDO
100
AcDbPolyline
 62
253
  6
CONTINUOUS
 90
22
 70
0
 10
-36.6105264336
 20
-26.1401211235
 10
-36.6403443727
 20
-26.1389983355
 10
-36.6697286986
 20
-26.1357204493
 10
-36.6986794114
 20
-26.1302874649
 10
-36.7273677045
 20
-26.1226466726
 10
-36.7556223844
 20
-26.1128507821
 10
-36.7829298712
 20
-26.1010579229
 10
-36.8092592172
 20
-26.0872356218
 10
-36.8346413701
 20
-26.071416352
 10
-36.8586555924
 20
-26.0538556627
 10
-36.8812818231
 20
-26.0345199928
 10
-36.9025401232
 20
-26.0134429035
 10
-36.9220699379
 20
-25.9909806265
 10
-36.939838233
 20
-25.967111757
 10
-36.9558780426
 20
-25.9418576999
 10
-36.9699279145
 20
-25.9156389018
 10
-36.981954403
 20
-25.8884287066
 10
-36.9919909537
 20
-25.8602537704
 10
-36.9998764514
 20
-25.8316145081
 10
-37.0055571911
 20
-25.8026777248
 10
-37.0090868779
 20
-25.7732766154
 10
-37.0104655117
 20
-25.74341118
  0
LWPOLYLINE
  5
26D
100
AcDbEntity
  8
RACCORDO
100
AcDbPolyline
 62
253
  6
CONTINUOUS
 90
10
 70
0
 10
-34.0507848221
 20
22.1234788541
 10
-34.0509992848
 20
22.124456249
 10
-34.0513673522
 20
22.1254360973
 10
-34.0518889112
 20
22.1264180976
 10
-34.0525638015
 20
22.1274019482
 10
-34.0533918154
 20
22.1283873465
 10
-34.0543726985
 20
22.1293739901
 10
-34.0555061492
 20
22.1303615759
 10
-34.056791819
 20
22.1313498003
 10
-34.0582293127
 20
22.1323383595
  0
LWPOLYLINE
  5
26E
100
AcDbEntity
  8
0
100
AcDbPolyline
 62
7
  6
CONTINUOUS
 90
52
 70
0
 10
3.4808539975
 20
-25.0037735306
 10
3.4910101308
 20
-25.0013944794
 10
3.501162874
 20
-24.9977939127
 10
3.5113122274
 20
-24.9929718304
 10
3.5214303536
 20
-24.9866856049
 10
3.5315450899
 20
-24.9791778638
 10
3.5417399478
 20
-24.97117649
 10
3.5520379721
 20
-24.9628717718
 10
3.562416118
 20
-24.9540734209
 10
3.5728887629
 20
-24.9449384558
 10
3.5834752882
 20
-24.9355748388
 10
3.5941563125
 20
-24.9258746076
 10
3.6048880692
 20
-24.9156708942
 10
3.6156811071
 20
-24.9049874334
 10
3.6265248774
 20
-24.8938004904
 10
3.6373439668
 20
-24.8818719932
 10
3.6481511139
 20
-24.8691820812
 10
3.6589335802
 20
-24.8557506151
 10
3.6695777367
 20
-24.8413991042
 10
3.6800963654
 20
-24.8260924624
 10
3.6904766844
 20
-24.8098657758
 10
3.7005667191
 20
-24.7926458129
 10
3.7103859418
 20
-24.7744192249
 10
3.7199148804
 20
-24.7551993605
 10
3.7289431432
 20
-24.7349530335
 10
3.737485148
 20
-24.7136807469
 10
3.7455264771
 20
-24.6913819976
 10
3.7528134866
 20
-24.6680220902
 10
3.7593500103
 20
-24.6436188003
 10
3.7651322144
 20
-24.6181543522
 10
3.7698949539
 20
-24.5915407235
 10
3.773654542
 20
-24.5637510121
 10
3.7763946654
 20
-24.5348121201
 10
3.7778012402
 20
-24.5047167314
 10
3.7779511478
 20
-24.4734349574
 10
3.7767675066
 20
-24.4409966868
 10
3.7737055886
 20
-24.4074842701
 10
3.7689240522
 20
-24.3728383471
 10
3.7622642389
 20
-24.3371182781
 10
3.7527054447
 20
-24.3005844945
 10
3.7401517563
 20
-24.2629335589
 10
3.7246990869
 20
-24.2244689088
 10
3.7056144721
 20
-24.1863612876
 10
3.6819640677
 20
-24.1480149153
 10
3.6546817178
 20
-24.110025572
 10
3.6258359908
 20
-24.0753513409
 10
3.5956869973
 20
-24.0449657142
 10
3.5639746267
 20
-24.0178951997
 10
3.5319871146
 20
-23.9941774045
 10
3.5001538729
 20
-23.9738248642
 10
3.4680454898
 20
-23.9568250432
 10
3.4356619652
 20
-23.9431779414
  0
LWPOLYLINE
  5
26F
100
AcDbEntity
  8
0
100
AcDbPolyline
 62
7
  6
CONTINUOUS
 90
10
 70
0
 10
2.7759842633
 20
-24.2542628863
 10
2.8146728197
 20
-24.2478282334
 10
2.8532086989
 20
-24.2426536114
 10
2.8915919006
 20
-24.2387390201
 10
2.9297972365
 20
-24.2360774271
 10
2.9678498951
 20
-24.2346758648
 10
3.0058254419
 20
-24.2345554311
 10
3.0437490655
 20
-24.2357231586
 10
3.0815955774
 20
-24.2381720147
 10
3.1193649776
 20
-24.2419019994
  0
LWPOLYLINE
  5
270
100
AcDbEntity
  8
RACCORDO
100
AcDbPolyline
 62
253
  6
CONTINUOUS
 90
22
 70
0
 10
33.4577256543
 20
-22.7795151606
 10
33.4820421326
 20
-22.777548748
 10
33.5060933659
 20
-22.7736255352
 10
33.5297212609
 20
-22.7677829973
 10
33.5527378248
 20
-22.7600843626
 10
33.5750317101
 20
-22.7505837606
 10
33.596557424
 20
-22.7392980989
 10
33.6173487674
 20
-22.7261639948
 10
33.6370581301
 20
-22.7113502286
 10
33.6551451625
 20
-22.695323581
 10
33.6715182716
 20
-22.6783378658
 10
33.6862210899
 20
-22.6605256276
 10
33.6990814957
 20
-22.6423155532
 10
33.7101171761
 20
-22.6240126029
 10
33.7194888298
 20
-22.6057043412
 10
33.7273088096
 20
-22.58750445
 10
33.7336718633
 20
-22.5695765597
 10
33.7386991366
 20
-22.5520164773
 10
33.7425224821
 20
-22.5347993872
 10
33.7452405696
 20
-22.5179659925
 10
33.7469420018
 20
-22.5016300203
 10
33.74772437
 20
-22.4858513166
  0
LWPOLYLINE
  5
271
100
AcDbEntity
  8
RACCORDO
100
AcDbPolyline
 62
253
  6
CONTINUOUS
 90
22
 70
0
 10
33.4760209891
 20
-22.8092577092
 10
33.5005108946
 20
-22.8080146842
 10
33.5246827217
 20
-22.8046247839
 10
33.5483803907
 20
-22.7991168014
 10
33.571434584
 20
-22.7915438313
 10
33.5937115859
 20
-22.7819482247
 10
33.6151086725
 20
-22.7703476604
 10
33.6356360656
 20
-22.756668331
 10
33.6549737672
 20
-22.7410961825
 10
33.6726016828
 20
-22.7241434997
 10
33.6884141886
 20
-22.7060357141
 10
33.7024608283
 20
-22.6869147597
 10
33.7146133038
 20
-22.6672994995
 10
33.7248855842
 20
-22.6474884709
 10
33.7334316031
 20
-22.6275493949
 10
33.7404016762
 20
-22.6076634099
 10
33.7459008148
 20
-22.587996271
 10
33.7500307502
 20
-22.5686199888
 10
33.7529232206
 20
-22.5495418321
 10
33.7546810202
 20
-22.5308091429
 10
33.755394467
 20
-22.5125145992
 10
33.755163134
 20
-22.4947108092
  0
LWPOLYLINE
  5
272
100
AcDbEntity
  8
RACCORDO
100
AcDbPolyline
 62
253
  6
CONTINUOUS
 90
6
 70
0
 10
33.4488206932
 20
-22.7797210039
 10
33.4505916959
 20
-22.7797041336
 10
33.4523677582
 20
-22.7796752312
 10
33.4541488161
 20
-22.7796341796
 10
33.4559348038
 20
-22.7795808618
 10
33.4577256543
 20
-22.7795151606
  0
LWPOLYLINE
  5
273
100
AcDbEntity
  8
RACCORDO
100
AcDbPolyline
 62
253
  6
CONTINUOUS
 90
6
 70
0
 10
33.4517073062
 20
-22.8097905205
 10
33.4564298244
 20
-22.8097462578
 10
33.4612223679
 20
-22.809670708
 10
33.4660849365
 20
-22.809563871
 10
33.4710175303
 20
-22.8094257469
 10
33.4760201493
 20
-22.8092563357
  0
LWPOLYLINE
  5
274
100
AcDbEntity
  8
RACCORDO
100
AcDbPolyline
 62
253
  6
CONTINUOUS
 90
19
 70
0
 10
-34.1004967732
 20
-23.4736786862
 10
-34.1262770217
 20
-23.4738464384
 10
-34.1515391597
 20
-23.4715566652
 10
-34.1761193836
 20
-23.4668582079
 10
-34.1998259834
 20
-23.4598244024
 10
-34.2225431139
 20
-23.4505199493
 10
-34.2442212065
 20
-23.4389750885
 10
-34.2647066842
 20
-23.4252636757
 10
-34.2838627634
 20
-23.4094668554
 10
-34.3016463863
 20
-23.3915975164
 10
-34.3179201754
 20
-23.3717159966
 10
-34.3325231887
 20
-23.3499411835
 10
-34.345356612
 20
-23.3263632232
 10
-34.3562773811
 20
-23.301072664
 10
-34.3651469503
 20
-23.2742264391
 10
-34.3718727462
 20
-23.2460267055
 10
-34.3763480502
 20
-23.2166500465
 10
-34.3784558476
 20
-23.1862476127
 10
-34.3781048508
 20
-23.1550013328
  0
LINE
  5
275
100
AcDbEntity
  8
RACCORDO
100
AcDbLine
 62
7
  6
CONTINUOUS
 10
-36.6175998495
 20
-26.4471488479
 11
36.3145386241
 21
-26.4471488479
  0
LINE
  5
276
100
AcDbEntity
  8
RACCORDO
100
AcDbLine
 62
253
  6
CONTINUOUS
 10
-36.6105264336
 20
-26.440075432
 11
36.3074652083
 21
-26.440075432
  0
LINE
  5
277
100
AcDbEntity
  8
RACCORDO
100
AcDbLine
 62
253
  6
CONTINUOUS
 10
-36.6105264336
 20
-26.1401211235
 11
36.3106943431
 21
-26.1401211235
  0
LINE
  5
278
100
AcDbEntity
  8
0
100
AcDbLine
 62
7
  6
CONTINUOUS
 10
-3.5982576127
 20
-25.9963602245
 11
-3.2119916127
 21
-25.9963602245
  0
LINE
  5
279
100
AcDbEntity
  8
0
100
AcDbLine
 62
7
  6
CONTINUOUS
 10
-2.3743646127
 20
-25.9963602245
 11
-1.9360486127
 21
-25.9963602245
  0
LINE
  5
27A
100
AcDbEntity
  8
0
100
AcDbLine
 62
7
  6
CONTINUOUS
 10
-1.7000896127
 20
-25.9963602245
 11
-1.2807646127
 21
-25.9963602245
  0
LINE
  5
27B
100
AcDbEntity
  8
0
100
AcDbLine
 62
7
  6
CONTINUOUS
 10
-0.6719786127
 20
-25.9963602245
 11
-0.6105056127
 21
-25.9963602245
  0
LINE
  5
27C
100
AcDbEntity
  8
0
100
AcDbLine
 62
7
  6
CONTINUOUS
 10
0.0007053873
 20
-25.9963602245
 11
0.4294943873
 21
-25.9963602245
  0
LINE
  5
27D
100
AcDbEntity
  8
0
100
AcDbLine
 62
7
  6
CONTINUOUS
 10
0.4983213873
 20
-25.9963602245
 11
0.9318813873
 21
-25.9963602245
  0
LINE
  5
27E
100
AcDbEntity
  8
0
100
AcDbLine
 62
7
  6
CONTINUOUS
 10
1.7632893873
 20
-25.9963602245
 11
2.2252553873
 21
-25.9963602245
  0
LINE
  5
27F
100
AcDbEntity
  8
0
100
AcDbLine
 62
7
  6
CONTINUOUS
 10
2.3539662633
 20
-25.9963606222
 11
2.7905181468
 21
-25.9963606222
  0
LINE
  5
280
100
AcDbEntity
  8
0
100
AcDbLine
 62
7
  6
CONTINUOUS
 10
3.4617379253
 20
-25.9963606222
 11
3.8833465201
 21
-25.9963606222
  0
LINE
  5
281
100
AcDbEntity
  8
RACCORDO
100
AcDbLine
 62
253
  6
CONTINUOUS
 10
-37.3104198202
 20
-25.7401820435
 11
-37.0104655117
 21
-25.7401820454
  0
LINE
  5
282
100
AcDbEntity
  8
RACCORDO
100
AcDbLine
 62
253
  6
CONTINUOUS
 10
37.0073585949
 20
-25.740182044
 11
36.7074042863
 21
-25.7401820454
  0
LINE
  5
283
100
AcDbEntity
  8
0
100
AcDbLine
 62
7
  6
CONTINUOUS
 10
1.0528293873
 20
-25.5771612245
 11
1.6497423873
 21
-25.5771612245
  0
LINE
  5
284
100
AcDbEntity
  8
0
100
AcDbLine
 62
7
  6
CONTINUOUS
 10
1.5621453873
 20
-25.2527862245
 11
1.1424893873
 21
-25.2527862245
  0
LINE
  5
285
100
AcDbEntity
  8
0
100
AcDbLine
 62
7
  6
CONTINUOUS
 10
2.7905181468
 20
-25.1746057115
 11
3.0255324616
 21
-25.1746057115
  0
LINE
  5
286
100
AcDbEntity
  8
0
100
AcDbLine
 62
7
  6
CONTINUOUS
 10
3.0264772427
 20
-24.8307053676
 11
2.7759842633
 21
-24.8307053676
  0
LINE
  5
287
100
AcDbEntity
  8
0
100
AcDbLine
 62
7
  6
CONTINUOUS
 10
1.5809773873
 20
-23.8965372245
 11
1.1569603873
 21
-23.8965372245
  0
LINE
  5
288
100
AcDbEntity
  8
0
100
AcDbLine
 62
7
  6
CONTINUOUS
 10
0.2331373873
 20
-23.8965372245
 11
-0.2005326127
 21
-23.8965372245
  0
LINE
  5
289
100
AcDbEntity
  8
0
100
AcDbLine
 62
7
  6
CONTINUOUS
 10
-1.0725346127
 20
-23.8965372245
 11
-1.5104876127
 21
-23.8965372245
  0
LINE
  5
28A
100
AcDbEntity
  8
0
100
AcDbLine
 62
7
  6
CONTINUOUS
 10
-2.5370236127
 20
-23.8965372245
 11
-2.9750406127
 21
-23.8965372245
  0
LINE
  5
28B
100
AcDbEntity
  8
0
100
AcDbLine
 62
7
  6
CONTINUOUS
 10
-3.7877966127
 20
-23.8965372245
 11
-4.2639426127
 21
-23.8965372245
  0
LINE
  5
28C
100
AcDbEntity
  8
0
100
AcDbLine
 62
7
  6
CONTINUOUS
 10
-1.9360486127
 20
-23.8964112245
 11
-2.3743646127
 21
-23.8964112245
  0
LINE
  5
28D
100
AcDbEntity
  8
RACCORDO
100
AcDbLine
 62
253
  6
CONTINUOUS
 10
33.7974143965
 20
-23.7555859779
 11
-34.1004756219
 21
-23.7555859779
  0
LINE
  5
28E
100
AcDbEntity
  8
RACCORDO
100
AcDbLine
 62
253
  6
CONTINUOUS
 10
33.7974007171
 20
-23.4736781917
 11
-34.1004965333
 21
-23.4736781917
  0
LINE
  5
28F
100
AcDbEntity
  8
RACCORDO
100
AcDbLine
 62
253
  6
CONTINUOUS
 10
-34.6735471615
 20
-23.1550009752
 11
-34.3781048356
 21
-23.1550009752
  0
LINE
  5
290
100
AcDbEntity
  8
RACCORDO
100
AcDbLine
 62
253
  6
CONTINUOUS
 10
34.3704859361
 20
-23.1550009752
 11
34.0750436102
 21
-23.1550009754
  0
LINE
  5
291
100
AcDbEntity
  8
RACCORDO
100
AcDbLine
 62
253
  6
CONTINUOUS
 10
-33.7501160385
 20
-22.8098034961
 11
33.4517073062
 21
-22.8097905205
  0
LINE
  5
292
100
AcDbEntity
  8
RACCORDO
100
AcDbLine
 62
253
  6
CONTINUOUS
 10
-33.7501160385
 20
-22.7797259589
 11
33.4488206932
 21
-22.7797210039
  0
LINE
  5
293
100
AcDbEntity
  8
RACCORDO
100
AcDbLine
 62
7
  6
CONTINUOUS
 10
33.4406602995
 20
-22.7733314453
 11
-33.7437215249
 21
-22.7733314453
  0
LINE
  5
294
100
AcDbEntity
  8
RACCORDO
100
AcDbLine
 62
253
  6
CONTINUOUS
 10
33.7477826202
 20
-22.4805451489
 11
33.7553025913
 21
-22.4805451489
  0
LINE
  5
295
100
AcDbEntity
  8
RACCORDO
100
AcDbLine
 62
253
  6
CONTINUOUS
 10
-34.0508438456
 20
-22.4805451489
 11
-34.0583638167
 21
-22.4805451488
  0
LWPOLYLINE
  5
296
100
AcDbEntity
  8
RACCORDO
100
AcDbPolyline
 62
253
  6
CONTINUOUS
 90
7
 70
0
 10
-33.7786896454
 20
-22.8092672916
 10
-33.7739353997
 20
-22.8094309415
 10
-33.7691779452
 20
-22.8095648784
 10
-33.7644172818
 20
-22.8096691024
 10
-33.7596534095
 20
-22.8097436133
 10
-33.7548863285
 20
-22.8097884112
 10
-33.7501160385
 20
-22.8098034961
  0
LWPOLYLINE
  5
297
100
AcDbEntity
  8
RACCORDO
100
AcDbPolyline
 62
253
  6
CONTINUOUS
 90
7
 70
0
 10
-33.7607868797
 20
-22.7795151606
 10
-33.7590247057
 20
-22.7795799438
 10
-33.7572559312
 20
-22.7796329842
 10
-33.7554806159
 20
-22.7796741937
 10
-33.7536988207
 20
-22.7797034845
 10
-33.7519106073
 20
-22.7797207688
 10
-33.7501160385
 20
-22.7797259589
  0
LWPOLYLINE
  5
298
100
AcDbEntity
  8
RACCORDO
100
AcDbPolyline
 62
253
  6
CONTINUOUS
 90
19
 70
0
 10
-34.1004756219
 20
-23.7555859779
 10
-34.1513697337
 20
-23.7531848486
 10
-34.2008507304
 20
-23.7466497084
 10
-34.248918612
 20
-23.7359805575
 10
-34.2958053728
 20
-23.7210609908
 10
-34.3412790185
 20
-23.7020074133
 10
-34.3846435664
 20
-23.6791690399
 10
-34.4258929115
 20
-23.6525416782
 10
-34.4650331587
 20
-23.6221295206
 10
-34.5013866398
 20
-23.588294359
 10
-34.5349885735
 20
-23.5509601524
 10
-34.565803741
 20
-23.5102029419
 10
-34.5930488176
 20
-23.4666126429
 10
-34.6167009747
 20
-23.420080518
 10
-34.6367830407
 20
-23.3707153047
 10
-34.6525801764
 20
-23.319433131
 10
-34.6638541018
 20
-23.2665393728
 10
-34.6708430969
 20
-23.2117286542
 10
-34.6735471615
 20
-23.1550009752
  0
LWPOLYLINE
  5
299
100
AcDbEntity
  8
0
100
AcDbPolyline
 62
7
  6
CONTINUOUS
 90
13
 70
0
 10
3.0255324616
 20
-25.1746057115
 10
3.0529893333
 20
-25.1761609799
 10
3.0790753114
 20
-25.1801798445
 10
3.1037903958
 20
-25.1866623055
 10
3.1270253229
 20
-25.1955587163
 10
3.1488893563
 20
-25.2069187235
 10
3.1697102869
 20
-25.2208912659
 10
3.1897200812
 20
-25.2375357039
 10
3.2086867727
 20
-25.2567926773
 10
3.2262422531
 20
-25.2786330434
 10
3.2422638197
 20
-25.3030470882
 10
3.2568741753
 20
-25.3300445258
 10
3.2700733197
 20
-25.3596253563
  0
LWPOLYLINE
  5
29A
100
AcDbEntity
  8
0
100
AcDbPolyline
 62
7
  6
CONTINUOUS
 90
16
 70
0
 10
3.1193649776
 20
-24.2419019994
 10
3.1483260614
 20
-24.2469052217
 10
3.1757788377
 20
-24.2540239627
 10
3.2017233065
 20
-24.2632582225
 10
3.2263206483
 20
-24.2747468337
 10
3.2494096826
 20
-24.2883509637
 10
3.270506868
 20
-24.303654114
 10
3.2894367958
 20
-24.3205547302
 10
3.3063748748
 20
-24.3391543667
 10
3.3213637894
 20
-24.3593411891
 10
3.3345470112
 20
-24.3814177584
 10
3.3457810687
 20
-24.4050815135
 10
3.3546782321
 20
-24.429312937
 10
3.3611092582
 20
-24.4537721896
 10
3.3652033902
 20
-24.4787991104
 10
3.3669606281
 20
-24.5043936996
  0
LINE
  5
29B
100
AcDbEntity
  8
RACCORDO
100
AcDbLine
 62
253
  6
CONTINUOUS
 10
-34.3781048356
 20
-23.1550013016
 11
-34.0582243593
 21
-22.4947108061
  0
LINE
  5
29C
100
AcDbEntity
  8
RACCORDO
100
AcDbLine
 62
253
  6
CONTINUOUS
 10
-34.1004965333
 20
-23.4736781917
 11
-33.7786896454
 21
-22.8092672916
  0
LWPOLYLINE
  5
29D
100
AcDbEntity
  8
0
100
AcDbPolyline
 62
7
  6
CONTINUOUS
 90
13
 70
0
 10
3.4356619652
 20
-23.9431779414
 10
3.3655996839
 20
-23.9217410074
 10
3.29163366
 20
-23.9041404712
 10
3.2137638935
 20
-23.8903763327
 10
3.1317987802
 20
-23.880635724
 10
3.0459299242
 20
-23.8747315131
 10
2.9567321381
 20
-23.872102304
 10
2.8643533684
 20
-23.8726687144
 10
2.7686456686
 20
-23.8765101266
 10
2.669740011
 20
-23.8833032924
 10
2.5676800529
 20
-23.8929404622
 10
2.462422137
 20
-23.9055293854
 10
2.3539662633
 20
-23.9210700622
  0
LINE
  5
29E
100
AcDbEntity
  8
RACCORDO
100
AcDbLine
 62
253
  6
CONTINUOUS
 10
-34.0582243593
 20
22.1323383571
 11
-34.3781048356
 21
22.7926287781
  0
LINE
  5
29F
100
AcDbEntity
  8
RACCORDO
100
AcDbLine
 62
253
  6
CONTINUOUS
 10
-33.7786897251
 20
22.4468948514
 11
-34.1004981157
 21
23.1113057427
  0
LWPOLYLINE
  5
2A0
100
AcDbEntity
  8
RACCORDO
100
AcDbPolyline
 62
253
  6
CONTINUOUS
 90
10
 70
0
 10
33.4577256348
 20
22.4171421658
 10
33.4596424478
 20
22.4177484091
 10
33.4615811286
 20
22.4190370632
 10
33.4635390285
 20
22.4210063658
 10
33.4655134724
 20
22.4236536235
 10
33.4675017624
 20
22.426975216
 10
33.4695011816
 20
22.4309666006
 10
33.4715089974
 20
22.4356223187
 10
33.4735224659
 20
22.4409360031
 10
33.4755388349
 20
22.4469003869
  0
LWPOLYLINE
  5
2A1
100
AcDbEntity
  8
RACCORDO
100
AcDbPolyline
 62
253
  6
CONTINUOUS
 90
10
 70
0
 10
33.4577256602
 20
-22.7795153261
 10
33.4596430165
 20
-22.7801213663
 10
33.46158211
 20
-22.781409766
 10
33.4635402889
 20
-22.7833787634
 10
33.4655148754
 20
-22.7860256658
 10
33.4675031693
 20
-22.7893468538
 10
33.4695024515
 20
-22.7933377858
 10
33.4715099882
 20
-22.7979930042
 10
33.4735230338
 20
-22.8033061432
 10
33.4755388358
 20
-22.8092699373
  0
LINE
  5
2A2
100
AcDbEntity
  8
0
100
AcDbLine
 62
7
  6
CONTINUOUS
 10
-1.1861756127
 20
-24.6252152245
 11
-0.6719786127
 21
-25.9963602245
  0
LINE
  5
2A3
100
AcDbEntity
  8
0
100
AcDbLine
 62
7
  6
CONTINUOUS
 10
-0.6388486127
 20
-25.0623652245
 11
-1.0725346127
 21
-23.8965372245
  0
LINE
  5
2A4
100
AcDbEntity
  8
0
100
AcDbLine
 62
7
  6
CONTINUOUS
 10
-4.2639426127
 20
-23.8965372245
 11
-3.5982576127
 21
-25.9963602245
  0
LINE
  5
2A5
100
AcDbEntity
  8
0
100
AcDbLine
 62
7
  6
CONTINUOUS
 10
-3.3875316127
 20
-25.3419102245
 11
-3.7877966127
 21
-23.8965372245
  0
LINE
  5
2A6
100
AcDbEntity
  8
RACCORDO
100
AcDbLine
 62
253
  6
CONTINUOUS
 10
-34.0508438456
 20
-22.4805451489
 11
-34.0436758335
 21
-22.4733771367
  0
LINE
  5
2A7
100
AcDbEntity
  8
RACCORDO
100
AcDbLine
 62
253
  6
CONTINUOUS
 10
-37.3104198202
 20
-25.7401820454
 11
-37.3174932361
 21
-25.7472554613
  0
LINE
  5
2A8
100
AcDbEntity
  8
RACCORDO
100
AcDbLine
 62
253
  6
CONTINUOUS
 10
-33.7501160385
 20
-22.7797259589
 11
-33.7437215249
 21
-22.7733314453
  0
LINE
  5
2A9
100
AcDbEntity
  8
RACCORDO
100
AcDbLine
 62
253
  6
CONTINUOUS
 10
-36.6105264336
 20
-26.440075432
 11
-36.6175998495
 21
-26.4471488479
  0
LINE
  5
2AA
100
AcDbEntity
  8
RACCORDO
100
AcDbLine
 62
253
  6
CONTINUOUS
 10
-34.0436758335
 20
22.1110046877
 11
-34.0508438456
 21
22.1181726999
  0
LINE
  5
2AB
100
AcDbEntity
  8
RACCORDO
100
AcDbLine
 62
253
  6
CONTINUOUS
 10
-37.3104198202
 20
25.3778095965
 11
-37.3174932361
 21
25.3848830123
  0
LINE
  5
2AC
100
AcDbEntity
  8
RACCORDO
100
AcDbLine
 62
253
  6
CONTINUOUS
 10
-33.7437215249
 20
22.4109589963
 11
-33.7501160385
 21
22.4173535099
  0
LINE
  5
2AD
100
AcDbEntity
  8
RACCORDO
100
AcDbLine
 62
253
  6
CONTINUOUS
 10
-36.6105264336
 20
26.0777029831
 11
-36.6175998495
 21
26.0847763989
  0
LWPOLYLINE
  5
2AE
100
AcDbEntity
  8
0
100
AcDbPolyline
 62
7
  6
CONTINUOUS
 90
6
 70
0
 10
3.2700733197
 20
-25.3596253563
 10
3.2923626054
 20
-25.4248848597
 10
3.3141654041
 20
-25.4916018604
 10
3.3354817158
 20
-25.5597763583
 10
3.355993964
 20
-25.6295220633
 10
3.396511729
 20
-25.7730448355
  0
LINE
  5
2AF
100
AcDbEntity
  8
0
100
AcDbLine
 62
7
  6
CONTINUOUS
 10
2.2252553873
 20
-25.9963602245
 11
1.5809773873
 21
-23.8965372245
  0
LINE
  5
2B0
100
AcDbEntity
  8
0
100
AcDbLine
 62
7
  6
CONTINUOUS
 10
1.6497423873
 20
-25.5771612245
 11
1.7632893873
 21
-25.9963602245
  0
LINE
  5
2B1
100
AcDbEntity
  8
0
100
AcDbLine
 62
7
  6
CONTINUOUS
 10
1.3607333873
 20
-24.4735152245
 11
1.5621453873
 21
-25.2527862245
  0
LINE
  5
2B2
100
AcDbEntity
  8
0
100
AcDbLine
 62
7
  6
CONTINUOUS
 10
0.4294943873
 20
-25.9963602245
 11
0.2331373873
 21
-23.8965372245
  0
LINE
  5
2B3
100
AcDbEntity
  8
0
100
AcDbLine
 62
7
  6
CONTINUOUS
 10
-0.0893476127
 20
-24.6309312245
 11
0.0007053873
 21
-25.9963602245
  0
LINE
  5
2B4
100
AcDbEntity
  8
0
100
AcDbLine
 62
7
  6
CONTINUOUS
 10
-2.3743646127
 20
-23.8964112245
 11
-2.3743646127
 21
-25.9963602245
  0
LINE
  5
2B5
100
AcDbEntity
  8
0
100
AcDbLine
 62
7
  6
CONTINUOUS
 10
-1.9360486127
 20
-25.9963602245
 11
-1.9360486127
 21
-23.8964112245
  0
LINE
  5
2B6
100
AcDbEntity
  8
0
100
AcDbLine
 62
7
  6
CONTINUOUS
 10
3.396511729
 20
-25.7730448355
 11
3.4617379253
 21
-25.9963606222
  0
LINE
  5
2B7
100
AcDbEntity
  8
0
100
AcDbLine
 62
7
  6
CONTINUOUS
 10
3.7849539922
 20
-25.6208738475
 11
3.7335042273
 21
-25.4280275126
  0
LINE
  5
2B8
100
AcDbEntity
  8
0
100
AcDbLine
 62
7
  6
CONTINUOUS
 10
3.8833465201
 20
-25.9963606222
 11
3.7849539922
 21
-25.6208738475
  0
LWPOLYLINE
  5
2B9
100
AcDbEntity
  8
0
100
AcDbPolyline
 62
7
  6
CONTINUOUS
 90
16
 70
0
 10
3.7335042273
 20
-25.4280275126
 10
3.7237100523
 20
-25.3891394207
 10
3.7128848365
 20
-25.351133395
 10
3.7010285799
 20
-25.3140094356
 10
3.6881890863
 20
-25.2774101411
 10
3.6743185519
 20
-25.2416929128
 10
3.6592735655
 20
-25.2079299546
 10
3.6429142497
 20
-25.1762335809
 10
3.625380482
 20
-25.1464914772
 10
3.6069484823
 20
-25.1194389042
 10
3.5876063264
 20
-25.0952799289
 10
3.5673659386
 20
-25.0738104841
 10
3.5465393124
 20
-25.0551536287
 10
3.5252304458
 20
-25.039350382
 10
3.5033353408
 20
-25.0263597246
 10
3.4808539975
 20
-25.0161816565
  0
LINE
  5
2BA
100
AcDbEntity
  8
0
100
AcDbLine
 62
7
  6
CONTINUOUS
 10
2.3539662633
 20
-23.9210700622
 11
2.3539662633
 21
-25.9963606222
  0
LINE
  5
2BB
100
AcDbEntity
  8
0
100
AcDbLine
 62
7
  6
CONTINUOUS
 10
2.7759842633
 20
-24.8307053676
 11
2.7759842633
 21
-24.2542628863
  0
LINE
  5
2BC
100
AcDbEntity
  8
0
100
AcDbLine
 62
7
  6
CONTINUOUS
 10
2.7905181468
 20
-25.9963606222
 11
2.7905181468
 21
-25.1746057115
  0
LINE
  5
2BD
100
AcDbEntity
  8
0
100
AcDbLine
 62
7
  6
CONTINUOUS
 10
3.4808539975
 20
-25.0161816565
 11
3.4808539975
 21
-25.0037735306
  0
LWPOLYLINE
  5
2BE
100
AcDbEntity
  8
0
100
AcDbPolyline
 62
7
  6
CONTINUOUS
 90
19
 70
0
 10
3.3669606281
 20
-24.5043936996
 10
3.3654013892
 20
-24.5392222773
 10
3.3614533365
 20
-24.5723883355
 10
3.3551164701
 20
-24.6038918742
 10
3.346120488
 20
-24.6340159905
 10
3.3347356922
 20
-24.6624775872
 10
3.3217729884
 20
-24.6884273734
 10
3.3075798182
 20
-24.7114473304
 10
3.2918087399
 20
-24.7319554768
 10
3.2742283342
 20
-24.7503565768
 10
3.2549292018
 20
-24.7666712288
 10
3.233820742
 20
-24.7808788343
 10
3.2103997322
 20
-24.7933223619
 10
3.1842697813
 20
-24.8041501515
 10
3.1558272805
 20
-24.8132138632
 10
3.1257581811
 20
-24.8204114458
 10
3.0942911335
 20
-24.8257088822
 10
3.0611974874
 20
-24.8291401894
 10
3.0264772427
 20
-24.8307053676
  0
LINE
  5
2BF
100
AcDbEntity
  8
0
100
AcDbLine
 62
7
  6
CONTINUOUS
 10
-1.2807646127
 20
-25.9963602245
 11
-1.1861756127
 21
-24.6252152245
  0
LINE
  5
2C0
100
AcDbEntity
  8
0
100
AcDbLine
 62
7
  6
CONTINUOUS
 10
-1.5104876127
 20
-23.8965372245
 11
-1.7000896127
 21
-25.9963602245
  0
LINE
  5
2C1
100
AcDbEntity
  8
0
100
AcDbLine
 62
7
  6
CONTINUOUS
 10
-2.9750406127
 20
-23.8965372245
 11
-3.3875316127
 21
-25.3419102245
  0
LINE
  5
2C2
100
AcDbEntity
  8
0
100
AcDbLine
 62
7
  6
CONTINUOUS
 10
-3.2119916127
 20
-25.9963602245
 11
-2.5370236127
 21
-23.8965372245
  0
LINE
  5
2C3
100
AcDbEntity
  8
0
100
AcDbLine
 62
7
  6
CONTINUOUS
 10
1.1424893873
 20
-25.2527862245
 11
1.3607333873
 21
-24.4735152245
  0
LINE
  5
2C4
100
AcDbEntity
  8
0
100
AcDbLine
 62
7
  6
CONTINUOUS
 10
0.9318813873
 20
-25.9963602245
 11
1.0528293873
 21
-25.5771612245
  0
LINE
  5
2C5
100
AcDbEntity
  8
0
100
AcDbLine
 62
7
  6
CONTINUOUS
 10
1.1569603873
 20
-23.8965372245
 11
0.4983213873
 21
-25.9963602245
  0
LINE
  5
2C6
100
AcDbEntity
  8
0
100
AcDbLine
 62
7
  6
CONTINUOUS
 10
-0.2005326127
 20
-23.8965372245
 11
-0.6388486127
 21
-25.0623652245
  0
LINE
  5
2C7
100
AcDbEntity
  8
0
100
AcDbLine
 62
7
  6
CONTINUOUS
 10
-0.6105056127
 20
-25.9963602245
 11
-0.0893476127
 21
-24.6309312245
  0
LINE
  5
2C8
100
AcDbEntity
  8
RACCORDO
100
AcDbLine
 62
253
  6
CONTINUOUS
 10
36.3074652083
 20
26.0777029831
 11
36.3145386241
 21
26.0847763989
  0
LINE
  5
2C9
100
AcDbEntity
  8
RACCORDO
100
AcDbLine
 62
253
  6
CONTINUOUS
 10
33.4470548131
 20
22.4173535099
 11
33.4406602995
 21
22.4109589963
  0
LINE
  5
2CA
100
AcDbEntity
  8
RACCORDO
100
AcDbLine
 62
253
  6
CONTINUOUS
 10
37.0073585949
 20
25.3778095965
 11
37.0144320107
 21
25.3848830123
  0
LINE
  5
2CB
100
AcDbEntity
  8
RACCORDO
100
AcDbLine
 62
253
  6
CONTINUOUS
 10
33.7477826202
 20
22.1181726999
 11
33.7406146081
 21
22.1110046877
  0
LINE
  5
2CC
100
AcDbEntity
  8
RACCORDO
100
AcDbLine
 62
253
  6
CONTINUOUS
 10
36.3074652083
 20
-26.440075432
 11
36.3145386241
 21
-26.4471488479
  0
LINE
  5
2CD
100
AcDbEntity
  8
RACCORDO
100
AcDbLine
 62
253
  6
CONTINUOUS
 10
33.4470548131
 20
-22.7797259589
 11
33.4406602995
 21
-22.7733314453
  0
LINE
  5
2CE
100
AcDbEntity
  8
RACCORDO
100
AcDbLine
 62
253
  6
CONTINUOUS
 10
37.0073585949
 20
-25.7401820454
 11
37.0144320107
 21
-25.7472554613
  0
LINE
  5
2CF
100
AcDbEntity
  8
RACCORDO
100
AcDbLine
 62
253
  6
CONTINUOUS
 10
33.7477826202
 20
-22.4805451489
 11
33.7406146081
 21
-22.4733771367
  0
LWPOLYLINE
  5
2D0
100
AcDbEntity
  8
RACCORDO
100
AcDbPolyline
 62
253
  6
CONTINUOUS
 90
10
 70
0
 10
-33.7607868602
 20
-22.7795146148
 10
-33.7627036731
 20
-22.780120858
 10
-33.7646423539
 20
-22.7814095122
 10
-33.7666002539
 20
-22.7833788147
 10
-33.7685746978
 20
-22.7860260725
 10
-33.7705629878
 20
-22.789347665
 10
-33.772562407
 20
-22.7933390496
 10
-33.7745702228
 20
-22.7979947677
 10
-33.7765836913
 20
-22.8033084521
 10
-33.7786000603
 20
-22.8092728358
  0
LWPOLYLINE
  5
2D1
100
AcDbEntity
  8
RACCORDO
100
AcDbPolyline
 62
253
  6
CONTINUOUS
 90
10
 70
0
 10
-33.7607867915
 20
22.4171402106
 10
-33.7627041546
 20
22.4177462458
 10
-33.7646432543
 20
22.4190346618
 10
-33.7666014395
 20
22.4210036966
 10
-33.7685760331
 20
22.4236506574
 10
-33.7705643354
 20
22.4269719244
 10
-33.7725636281
 20
22.4309629557
 10
-33.7745711778
 20
22.4356182934
 10
-33.7765842397
 20
22.4409315713
 10
-33.7786000617
 20
22.4468955233
  0
LINE
  5
2D2
100
AcDbEntity
  8
RACCORDO
100
AcDbLine
 62
253
  6
CONTINUOUS
 10
33.7974353079
 20
23.1113057427
 11
33.4755388357
 21
22.4468973647
  0
LINE
  5
2D3
100
AcDbEntity
  8
RACCORDO
100
AcDbLine
 62
253
  6
CONTINUOUS
 10
34.0750436102
 20
22.7926288526
 11
33.7551631339
 21
22.1323383571
  0
LWPOLYLINE
  5
2D4
100
AcDbEntity
  8
RACCORDO
100
AcDbPolyline
 62
253
  6
CONTINUOUS
 90
6
 70
0
 10
-33.7519015659
 20
22.4173484028
 10
-33.7536843553
 20
22.4173312547
 10
-33.7554643439
 20
22.4173020884
 10
-33.757241469
 20
22.4172609268
 10
-33.7590156682
 20
22.4172077933
 10
-33.7607868797
 20
22.4171427117
  0
LWPOLYLINE
  5
2D5
100
AcDbEntity
  8
RACCORDO
100
AcDbPolyline
 62
253
  6
CONTINUOUS
 90
6
 70
0
 10
-33.7548635488
 20
22.4474156259
 10
-33.7596169675
 20
22.4473706269
 10
-33.7643762944
 20
22.4472960499
 10
-33.7691415296
 20
22.447191895
 10
-33.7739126732
 20
22.4470581622
 10
-33.7786897251
 20
22.4468948514
  0
LWPOLYLINE
  5
2D6
100
AcDbEntity
  8
RACCORDO
100
AcDbPolyline
 62
253
  6
CONTINUOUS
 90
19
 70
0
 10
33.7974355479
 20
23.1113062372
 10
33.8232157963
 20
23.1114739894
 10
33.8484779343
 20
23.1091842162
 10
33.8730581583
 20
23.1044857589
 10
33.8967647581
 20
23.0974519534
 10
33.9194818885
 20
23.0881475004
 10
33.9411599811
 20
23.0766026395
 10
33.9616454588
 20
23.0628912268
 10
33.980801538
 20
23.0470944064
 10
33.9985851609
 20
23.0292250675
 10
34.01485895
 20
23.0093435476
 10
34.0294619633
 20
22.9875687345
 10
34.0422953866
 20
22.9639907742
 10
34.0532161557
 20
22.938700215
 10
34.0620857249
 20
22.9118539901
 10
34.0688115208
 20
22.8836542566
 10
34.0732868248
 20
22.8542775975
 10
34.0753946222
 20
22.8238751638
 10
34.0750436254
 20
22.7926288838
  0
LINE
  5
2D7
100
AcDbEntity
  8
RACCORDO
100
AcDbLine
 62
253
  6
CONTINUOUS
 10
33.7477826202
 20
22.1181726999
 11
33.7553025913
 21
22.1181726999
  0
LINE
  5
2D8
100
AcDbEntity
  8
RACCORDO
100
AcDbLine
 62
253
  6
CONTINUOUS
 10
-34.0508438456
 20
22.1181726999
 11
-34.0583638167
 21
22.1181726999
  0
LINE
  5
2D9
100
AcDbEntity
  8
RACCORDO
100
AcDbLine
 62
7
  6
CONTINUOUS
 10
-33.7437215249
 20
22.4109589963
 11
33.4406602995
 21
22.4109589963
  0
LINE
  5
2DA
100
AcDbEntity
  8
RACCORDO
100
AcDbLine
 62
253
  6
CONTINUOUS
 10
33.4470548131
 20
22.4173535099
 11
-33.7519015659
 21
22.4173484028
  0
LINE
  5
2DB
100
AcDbEntity
  8
RACCORDO
100
AcDbLine
 62
253
  6
CONTINUOUS
 10
33.4470548131
 20
22.4474310471
 11
-33.7548635488
 21
22.4474156259
  0
LINE
  5
2DC
100
AcDbEntity
  8
RACCORDO
100
AcDbLine
 62
253
  6
CONTINUOUS
 10
-34.6735471615
 20
22.7926285262
 11
-34.3781048356
 21
22.7926285262
  0
LINE
  5
2DD
100
AcDbEntity
  8
RACCORDO
100
AcDbLine
 62
253
  6
CONTINUOUS
 10
34.3704859361
 20
22.7926285262
 11
34.0750436102
 21
22.7926285262
  0
LINE
  5
2DE
100
AcDbEntity
  8
RACCORDO
100
AcDbLine
 62
253
  6
CONTINUOUS
 10
34.0750436102
 20
-23.1550323796
 11
33.7551631339
 21
-22.4947108089
  0
LINE
  5
2DF
100
AcDbEntity
  8
RACCORDO
100
AcDbLine
 62
253
  6
CONTINUOUS
 10
33.7974007171
 20
-23.4736781917
 11
33.4760201493
 21
-22.8092563357
  0
LWPOLYLINE
  5
2E0
100
AcDbEntity
  8
RACCORDO
100
AcDbPolyline
 62
253
  6
CONTINUOUS
 90
22
 70
0
 10
-33.7607868797
 20
22.4171427117
 10
-33.7858043619
 20
22.415090006
 10
-33.8105470903
 20
22.4109642937
 10
-33.8348423522
 20
22.4048042759
 10
-33.8585561475
 20
22.3966500363
 10
-33.8814897991
 20
22.3865751075
 10
-33.9033931079
 20
22.3747134541
 10
-33.9242371138
 20
22.361106857
 10
-33.9437836336
 20
22.345934772
 10
-33.961571919
 20
22.3296707055
 10
-33.9775287071
 20
22.3126073404
 10
-33.9917399342
 20
22.2948865777
 10
-34.004126085
 20
22.2768621112
 10
-34.0147235011
 20
22.2588240442
 10
-34.0236937634
 20
22.2408658846
 10
-34.0311819159
 20
22.2230331346
 10
-34.0372865238
 20
22.205454005
 10
-34.0421122615
 20
22.1882408656
 10
-34.0457828201
 20
22.1713756231
 10
-34.0483931139
 20
22.15489842
 10
-34.0500294183
 20
22.138914133
 10
-34.0507855954
 20
22.1234788676
  0
LWPOLYLINE
  5
2E1
100
AcDbEntity
  8
RACCORDO
100
AcDbPolyline
 62
253
  6
CONTINUOUS
 90
22
 70
0
 10
-33.7786898589
 20
22.4468951151
 10
-33.8040637063
 20
22.445597833
 10
-33.8290596965
 20
22.4420053823
 10
-33.8535060589
 20
22.4361582693
 10
-33.8772718811
 20
22.4280962763
 10
-33.9001557591
 20
22.4178940007
 10
-33.9218987807
 20
22.4056881808
 10
-33.9424568938
 20
22.3914961055
 10
-33.9616059153
 20
22.37551885
 10
-33.9789155213
 20
22.3582936508
 10
-33.9943001314
 20
22.3400888146
 10
-34.0078472651
 20
22.3210470984
 10
-34.019523572
 20
22.3016141932
 10
-34.0293640447
 20
22.2820767718
 10
-34.0375202714
 20
22.2625051196
 10
-34.0441707338
 20
22.2430067729
 10
-34.0494229033
 20
22.223712176
 10
-34.0533646034
 20
22.2047114322
 10
-34.05612067
 20
22.1860156076
 10
-34.0577898495
 20
22.1676706013
 10
-34.0584592748
 20
22.1497617559
 10
-34.0582243593
 20
22.1323383571
  0
LINE
  5
2E2
100
AcDbEntity
  8
RACCORDO
100
AcDbLine
 62
253
  6
CONTINUOUS
 10
-34.1004981157
 20
23.1113057427
 11
33.7974353079
 21
23.1113057427
  0
LINE
  5
2E3
100
AcDbEntity
  8
RACCORDO
100
AcDbLine
 62
253
  6
CONTINUOUS
 10
-34.1004756219
 20
23.3932135289
 11
33.7974143965
 21
23.3932135289
  0
LINE
  5
2E4
100
AcDbEntity
  8
RACCORDO
100
AcDbLine
 62
253
  6
CONTINUOUS
 10
-37.3104198202
 20
25.3778095951
 11
-37.0104655117
 21
25.3778095965
  0
LINE
  5
2E5
100
AcDbEntity
  8
RACCORDO
100
AcDbLine
 62
253
  6
CONTINUOUS
 10
37.0073585949
 20
25.3778095945
 11
36.7074042863
 21
25.3778095965
  0
LINE
  5
2E6
100
AcDbEntity
  8
RACCORDO
100
AcDbLine
 62
253
  6
CONTINUOUS
 10
36.3074652083
 20
25.7777486745
 11
-36.613755572
 21
25.7777486745
  0
LINE
  5
2E7
100
AcDbEntity
  8
RACCORDO
100
AcDbLine
 62
253
  6
CONTINUOUS
 10
36.3074652083
 20
26.0777029831
 11
-36.6105264336
 21
26.0777029831
  0
LINE
  5
2E8
100
AcDbEntity
  8
RACCORDO
100
AcDbLine
 62
7
  6
CONTINUOUS
 10
36.3145386241
 20
26.0847763989
 11
-36.6175998495
 21
26.0847763989
  0
LWPOLYLINE
  5
2E9
100
AcDbEntity
  8
RACCORDO
100
AcDbPolyline
 62
253
  6
CONTINUOUS
 90
7
 70
0
 10
33.4755388357
 20
22.4468973647
 10
33.4708244052
 20
22.4470598937
 10
33.4660968121
 20
22.4471929899
 10
33.4613560564
 20
22.4472966534
 10
33.456602138
 20
22.4473708841
 10
33.4518350569
 20
22.447415682
 10
33.4470548131
 20
22.4474310471
  0
LWPOLYLINE
  5
2EA
100
AcDbEntity
  8
RACCORDO
100
AcDbPolyline
 62
253
  6
CONTINUOUS
 90
7
 70
0
 10
33.4577256543
 20
22.4171427117
 10
33.4559634803
 20
22.4172074949
 10
33.4541947058
 20
22.4172605352
 10
33.4524193905
 20
22.4173017447
 10
33.4506375953
 20
22.4173310355
 10
33.4488493819
 20
22.4173483198
 10
33.4470548131
 20
22.4173535099
  0
LWPOLYLINE
  5
2EB
100
AcDbEntity
  8
RACCORDO
100
AcDbPolyline
 62
253
  6
CONTINUOUS
 90
22
 70
0
 10
36.3074652083
 20
25.7777486745
 10
36.3374473715
 20
25.7766131567
 10
36.3669883626
 20
25.7732997659
 10
36.3960881817
 20
25.767808502
 10
36.4249205812
 20
25.7600854778
 10
36.4533118087
 20
25.7501845806
 10
36.4807406066
 20
25.7382674726
 10
36.5071754732
 20
25.7243010241
 10
36.5326479103
 20
25.7083183648
 10
36.5567311664
 20
25.6905805461
 10
36.579404577
 20
25.6710533886
 10
36.6006888065
 20
25.6497710718
 10
36.6202190969
 20
25.6270971852
 10
36.6379617072
 20
25.60300982
 10
36.6539503783
 20
25.5775308851
 10
36.6679215757
 20
25.5510896965
 10
36.679841175
 20
25.5236547029
 10
36.6897433005
 20
25.4952574555
 10
36.6974667906
 20
25.4664219241
 10
36.7029579247
 20
25.4373227655
 10
36.7062704232
 20
25.4077853229
 10
36.7074042863
 20
25.3778095965
  0
LWPOLYLINE
  5
2EC
100
AcDbEntity
  8
RACCORDO
100
AcDbPolyline
 62
253
  6
CONTINUOUS
 90
19
 70
0
 10
33.7974143965
 20
23.3932135289
 10
33.8483085083
 20
23.3908123996
 10
33.897789505
 20
23.3842772595
 10
33.9458573866
 20
23.3736081085
 10
33.9927441474
 20
23.3586885418
 10
34.0382177932
 20
23.3396349643
 10
34.081582341
 20
23.3167965909
 10
34.1228316861
 20
23.2901692292
 10
34.1619719333
 20
23.2597570716
 10
34.1983254144
 20
23.22592191
 10
34.2319273481
 20
23.1885877034
 10
34.2627425157
 20
23.1478304929
 10
34.2899875922
 20
23.1042401939
 10
34.3136397493
 20
23.057708069
 10
34.3337218153
 20
23.0083428557
 10
34.349518951
 20
22.957060682
 10
34.3607928765
 20
22.9041669238
 10
34.3677818715
 20
22.8493562052
 10
34.3704859361
 20
22.7926285262
  0
LWPOLYLINE
  5
2ED
100
AcDbEntity
  8
RACCORDO
100
AcDbPolyline
 62
253
  6
CONTINUOUS
 90
10
 70
0
 10
33.7477313269
 20
22.1234789943
 10
33.747945269
 20
22.1244566228
 10
33.748312833
 20
22.1254366509
 10
33.7488339059
 20
22.1264187736
 10
33.7495083275
 20
22.1274026857
 10
33.7503358907
 20
22.1283880812
 10
33.751316341
 20
22.1293746534
 10
33.752449377
 20
22.1303620958
 10
33.7537346504
 20
22.1313501012
 10
33.7551717662
 20
22.1323383625
  0
LWPOLYLINE
  5
2EE
100
AcDbEntity
  8
RACCORDO
100
AcDbPolyline
 62
253
  6
CONTINUOUS
 90
22
 70
0
 10
-36.6105264336
 20
26.0777029831
 10
-36.6628298868
 20
26.0757394742
 10
-36.7148397655
 20
26.0698734225
 10
-36.7662653634
 20
26.0601377578
 10
-36.8168191995
 20
26.0465870915
 10
-36.8662187722
 20
26.0292972574
 10
-36.914188118
 20
26.0083648283
 10
-36.9604592113
 20
25.9839068048
 10
-37.0047733273
 20
25.9560600239
 10
-37.0468826363
 20
25.9249802247
 10
-37.0865515948
 20
25.8908413584
 10
-37.1235587208
 20
25.8538341914
 10
-37.1576975778
 20
25.8141651513
 10
-37.1887774169
 20
25.7720556735
 10
-37.216624243
 20
25.7277413316
 10
-37.2410822421
 20
25.6814700816
 10
-37.2620145763
 20
25.6335007059
 10
-37.2793042884
 20
25.5841011952
 10
-37.2928548262
 20
25.5335475129
 10
-37.3025903753
 20
25.482122161
 10
-37.3084563435
 20
25.4301126213
 10
-37.3104198202
 20
25.3778095965
  0
LWPOLYLINE
  5
2EF
100
AcDbEntity
  8
RACCORDO
100
AcDbPolyline
 62
253
  6
CONTINUOUS
 90
10
 70
0
 10
33.7477235838
 20
-22.4858513028
 10
33.7479380517
 20
-22.486828671
 10
33.7483061258
 20
-22.4878084993
 10
33.748827693
 20
-22.4887904863
 10
33.7495025929
 20
-22.4897743301
 10
33.7503306181
 20
-22.4907597283
 10
33.7513115139
 20
-22.4917463785
 10
33.7524449788
 20
-22.4927339777
 10
33.7537306644
 20
-22.4937222223
 10
33.7551681752
 20
-22.4947108085
  0
LWPOLYLINE
  5
2F0
100
AcDbEntity
  8
RACCORDO
100
AcDbPolyline
 62
253
  6
CONTINUOUS
 90
22
 70
0
 10
33.74772437
 20
22.1234788676
 10
33.7469681931
 20
22.138914112
 10
33.7453318906
 20
22.1548983869
 10
33.7427215989
 20
22.171375587
 10
33.7390510405
 20
22.1882408399
 10
33.7342253
 20
22.205453998
 10
33.7281206887
 20
22.2230331407
 10
33.7206325354
 20
22.2408658921
 10
33.7116622741
 20
22.2588240481
 10
33.7010648592
 20
22.2768621121
 10
33.6886787089
 20
22.2948865776
 10
33.6744674821
 20
22.3126073396
 10
33.6585106942
 20
22.3296707046
 10
33.6407224088
 20
22.3459347714
 10
33.6211758886
 20
22.3611068569
 10
33.6003318826
 20
22.3747134542
 10
33.5784285743
 20
22.3865751075
 10
33.5554949235
 20
22.3966500361
 10
33.5317811287
 20
22.4048042757
 10
33.5074858666
 20
22.4109642936
 10
33.4827431376
 20
22.415090006
 10
33.4577256543
 20
22.4171427117
  0
LINE
  5
2F1
100
AcDbEntity
  8
RACCORDO
100
AcDbLine
 62
253
  6
CONTINUOUS
 10
33.7552403517
 20
22.1275579626
 11
33.7551631339
 21
22.1323383571
  0
LWPOLYLINE
  5
2F2
100
AcDbEntity
  8
RACCORDO
100
AcDbPolyline
 62
253
  6
CONTINUOUS
 90
19
 70
0
 10
34.0750450644
 20
-23.1550353843
 10
34.0753953114
 20
-23.1862421349
 10
34.0732921436
 20
-23.2166138003
 10
34.068824952
 20
-23.2459688262
 10
34.0621090695
 20
-23.2741569357
 10
34.0532492239
 20
-23.3010004936
 10
34.0423359275
 20
-23.3262944661
 10
34.0295060706
 20
-23.3498812448
 10
34.0149018275
 20
-23.3716694242
 10
33.9986218379
 20
-23.3915657337
 10
33.9808223632
 20
-23.4094531172
 10
33.9616441071
 20
-23.4252669584
 10
33.9411448736
 20
-23.4389852419
 10
33.9194758524
 20
-23.450523004
 10
33.8967802686
 20
-23.4598169815
 10
33.873084816
 20
-23.4668476205
 10
33.8484962784
 20
-23.4715496201
 10
33.8232135759
 20
-23.473843619
 10
33.7974005606
 20
-23.4736778683
  0
LINE
  5
2F3
100
AcDbEntity
  8
RACCORDO
100
AcDbLine
 62
253
  6
CONTINUOUS
 10
33.7477826202
 20
22.1181726999
 11
33.74772437
 21
22.1234788676
  0
LINE
  5
2F4
100
AcDbEntity
  8
RACCORDO
100
AcDbLine
 62
253
  6
CONTINUOUS
 10
33.7552868375
 20
22.1228360769
 11
33.7552403517
 21
22.1275579626
  0
LINE
  5
2F5
100
AcDbEntity
  8
RACCORDO
100
AcDbLine
 62
253
  6
CONTINUOUS
 10
33.7553025913
 20
22.1181726999
 11
33.7552868375
 21
22.1228360769
  0
LINE
  5
2F6
100
AcDbEntity
  8
RACCORDO
100
AcDbLine
 62
253
  6
CONTINUOUS
 10
33.4470548131
 20
-22.7797259589
 11
33.4470548136
 21
-22.8098034961
  0
LINE
  5
2F7
100
AcDbEntity
  8
RACCORDO
100
AcDbLine
 62
253
  6
CONTINUOUS
 10
33.4470548131
 20
22.4173535099
 11
33.4470548131
 21
22.4474310471
  0
LINE
  5
2F8
100
AcDbEntity
  8
RACCORDO
100
AcDbLine
 62
7
  6
CONTINUOUS
 10
33.7406146081
 20
22.1110046877
 11
33.7406146081
 21
-22.4733771367
  0
LINE
  5
2F9
100
AcDbEntity
  8
RACCORDO
100
AcDbLine
 62
253
  6
CONTINUOUS
 10
33.7477826202
 20
-22.4805451489
 11
33.7477826202
 21
22.1181726999
  0
LINE
  5
2FA
100
AcDbEntity
  8
RACCORDO
100
AcDbLine
 62
253
  6
CONTINUOUS
 10
33.7553025913
 20
-22.4805451489
 11
33.7553025913
 21
22.1181726999
  0
LINE
  5
2FB
100
AcDbEntity
  8
RACCORDO
100
AcDbLine
 62
253
  6
CONTINUOUS
 10
33.7974143965
 20
23.3932135289
 11
33.7974143966
 21
23.1113057427
  0
LINE
  5
2FC
100
AcDbEntity
  8
RACCORDO
100
AcDbLine
 62
253
  6
CONTINUOUS
 10
33.7974143965
 20
-23.7555859779
 11
33.7974143965
 21
-23.4736781917
  0
LINE
  5
2FD
100
AcDbEntity
  8
RACCORDO
100
AcDbLine
 62
253
  6
CONTINUOUS
 10
34.0750436102
 20
22.7926288526
 11
34.0750436102
 21
-23.1550323796
  0
LINE
  5
2FE
100
AcDbEntity
  8
RACCORDO
100
AcDbLine
 62
253
  6
CONTINUOUS
 10
34.3704859361
 20
22.7926285262
 11
34.3704859361
 21
-23.1550009752
  0
LINE
  5
2FF
100
AcDbEntity
  8
RACCORDO
100
AcDbLine
 62
253
  6
CONTINUOUS
 10
36.3074652069
 20
26.0777029831
 11
36.3074652083
 21
25.7777486745
  0
LINE
  5
300
100
AcDbEntity
  8
RACCORDO
100
AcDbLine
 62
253
  6
CONTINUOUS
 10
36.3074652063
 20
-26.440075432
 11
36.3074652083
 21
-26.1401211235
  0
LINE
  5
301
100
AcDbEntity
  8
RACCORDO
100
AcDbLine
 62
253
  6
CONTINUOUS
 10
33.7551631339
 20
-22.4947108089
 11
33.7553025913
 21
-22.4805451489
  0
LINE
  5
302
100
AcDbEntity
  8
RACCORDO
100
AcDbLine
 62
253
  6
CONTINUOUS
 10
33.74772437
 20
-22.4858513166
 11
33.7477826202
 21
-22.4805451489
  0
LWPOLYLINE
  5
303
100
AcDbEntity
  8
RACCORDO
100
AcDbPolyline
 62
253
  6
CONTINUOUS
 90
22
 70
0
 10
33.7551631339
 20
22.1323383571
 10
33.7553981296
 20
22.1497617068
 10
33.7547287646
 20
22.1676705245
 10
33.7530596139
 20
22.1860155246
 10
33.750303505
 20
22.204711373
 10
33.7463617003
 20
22.2237121566
 10
33.7411094461
 20
22.2430067791
 10
33.7344589802
 20
22.2625051285
 10
33.7263027959
 20
22.2820767767
 10
33.7164623605
 20
22.3016141964
 10
33.7047860578
 20
22.321047102
 10
33.6912389159
 20
22.3400888174
 10
33.6758542975
 20
22.3582936518
 10
33.6585446883
 20
22.3755188481
 10
33.6393956643
 20
22.3914961004
 10
33.6188375503
 20
22.4056881746
 10
33.5970975727
 20
22.4178926612
 10
33.5742169421
 20
22.4280940792
 10
33.5504448363
 20
22.4361582765
 10
33.5259787962
 20
22.4420090043
 10
33.5009527695
 20
22.4456030084
 10
33.4755388357
 20
22.4468973647
  0
LWPOLYLINE
  5
304
100
AcDbEntity
  8
RACCORDO
100
AcDbPolyline
 62
253
  6
CONTINUOUS
 90
19
 70
0
 10
34.3704859361
 20
-23.1550009752
 10
34.3677931086
 20
-23.2117053423
 10
34.3608125904
 20
-23.2664999193
 10
34.3495443816
 20
-23.3193847062
 10
34.3337508711
 20
-23.370666179
 10
34.3136696699
 20
-23.4200378617
 10
34.2900136113
 20
-23.4665803265
 10
34.2627599297
 20
-23.5101853814
 10
34.2319313907
 20
-23.5509612184
 10
34.1983091232
 20
-23.5883129855
 10
34.1619176857
 20
-23.622167121
 10
34.1227325198
 20
-23.6525971867
 10
34.0814610799
 20
-23.6792290157
 10
34.038117747
 20
-23.7020461341
 10
33.9926881401
 20
-23.7210650158
 10
33.9458365705
 20
-23.7359609156
 10
33.8977844752
 20
-23.746625585
 10
33.8483104173
 20
-23.7531672724
 10
33.7974143965
 20
-23.7555859779
  0
LWPOLYLINE
  5
305
100
AcDbEntity
  8
RACCORDO
100
AcDbPolyline
 62
253
  6
CONTINUOUS
 90
22
 70
0
 10
37.0073585949
 20
25.3778095965
 10
37.005395086
 20
25.4301130496
 10
36.9995290343
 20
25.4821229283
 10
36.9897933696
 20
25.5335485263
 10
36.9762427033
 20
25.5841023624
 10
36.9589528692
 20
25.633501935
 10
36.93802044
 20
25.6814712808
 10
36.9135624166
 20
25.7277423741
 10
36.8857156357
 20
25.7720564901
 10
36.8546358365
 20
25.8141657991
 10
36.8204969702
 20
25.8538347577
 10
36.7834898032
 20
25.8908418836
 10
36.7438207631
 20
25.9249807406
 10
36.7017112853
 20
25.9560605797
 10
36.6573969434
 20
25.9839074058
 10
36.6111256933
 20
26.0083654049
 10
36.5631563177
 20
26.0292977391
 10
36.513756807
 20
26.0465874512
 10
36.4632031247
 20
26.060137989
 10
36.4117777728
 20
26.0698735381
 10
36.3597682331
 20
26.0757395063
 10
36.3074652083
 20
26.0777029831
  0
LINE
  5
306
100
AcDbEntity
  8
RACCORDO
100
AcDbLine
 62
253
  6
CONTINUOUS
 10
36.7074042863
 20
-25.7401820454
 11
36.7074042863
 21
25.3778095965
  0
LINE
  5
307
100
AcDbEntity
  8
RACCORDO
100
AcDbLine
 62
253
  6
CONTINUOUS
 10
37.0073585949
 20
-25.7401820454
 11
37.0073585949
 21
25.3778095965
  0
LINE
  5
308
100
AcDbEntity
  8
RACCORDO
100
AcDbLine
 62
7
  6
CONTINUOUS
 10
37.0144320107
 20
-25.7472554613
 11
37.0144320107
 21
25.3848830123
  0
LWPOLYLINE
  5
309
100
AcDbEntity
  8
RACCORDO
100
AcDbPolyline
 62
253
  6
CONTINUOUS
 90
22
 70
0
 10
36.7074042863
 20
-25.7401820454
 10
36.7062814983
 20
-25.7699999845
 10
36.7030036121
 20
-25.7993843104
 10
36.6975706277
 20
-25.8283350232
 10
36.6899298354
 20
-25.8570233162
 10
36.6801339449
 20
-25.8852779961
 10
36.6683410858
 20
-25.9125854829
 10
36.6545187847
 20
-25.938914829
 10
36.6386995149
 20
-25.9642969818
 10
36.6211388256
 20
-25.9883112041
 10
36.6018031558
 20
-26.0109374348
 10
36.5807260664
 20
-26.0321957349
 10
36.5582637894
 20
-26.0517255496
 10
36.53439492
 20
-26.0694938447
 10
36.5091408629
 20
-26.0855336543
 10
36.4829220648
 20
-26.0995835262
 10
36.4557118696
 20
-26.1116100147
 10
36.4275369334
 20
-26.1216465654
 10
36.3988976712
 20
-26.1295320632
 10
36.3699608879
 20
-26.1352128029
 10
36.3405597785
 20
-26.1387424897
 10
36.3106943431
 20
-26.1401211235
  0
LINE
  5
30A
100
AcDbEntity
  8
SMUSSO
100
AcDbLine
 62
253
  6
CONTINUOUS
 10
46.5484693873
 20
-46.8811862245
 11
46.5484693873
 21
-47.8811862245
  0
LINE
  5
30B
100
AcDbEntity
  8
SMUSSO
100
AcDbLine
 62
7
  6
CONTINUOUS
 10
46.5484693873
 20
-46.8811862245
 11
46.5484693873
 21
46.5188137755
  0
LINE
  5
30C
100
AcDbEntity
  8
SMUSSO
100
AcDbLine
 62
253
  6
CONTINUOUS
 10
46.5484693873
 20
46.5188137755
 11
46.5484693873
 21
47.5188137755
  0
LINE
  5
30D
100
AcDbEntity
  8
SMUSSO
100
AcDbLine
 62
7
  6
CONTINUOUS
 10
47.5484693873
 20
-46.8811862245
 11
47.5484693873
 21
46.5188137755
  0
LINE
  5
30E
100
AcDbEntity
  8
SMUSSO
100
AcDbLine
 62
253
  6
CONTINUOUS
 10
46.5484693873
 20
46.5188137755
 11
47.5484693873
 21
46.5188137755
  0
LINE
  5
30F
100
AcDbEntity
  8
SMUSSO
100
AcDbLine
 62
7
  6
CONTINUOUS
 10
46.5484693873
 20
46.5188137755
 11
-46.8515306127
 21
46.5188137755
  0
LINE
  5
310
100
AcDbEntity
  8
SMUSSO
100
AcDbLine
 62
253
  6
CONTINUOUS
 10
-46.8515306127
 20
46.5188137755
 11
-47.8515306127
 21
46.5188137755
  0
LINE
  5
311
100
AcDbEntity
  8
SMUSSO
100
AcDbLine
 62
7
  6
CONTINUOUS
 10
46.5484693873
 20
47.5188137755
 11
-46.8515306127
 21
47.5188137755
  0
LINE
  5
312
100
AcDbEntity
  8
SMUSSO
100
AcDbLine
 62
7
  6
CONTINUOUS
 10
-89.5353316327
 20
-47.8811862245
 11
-87.0353316327
 21
-47.8811862245
  0
LINE
  5
313
100
AcDbEntity
  8
DRAFT
100
AcDbLine
 62
7
  6
CONTINUOUS
 10
-85.9877388455
 20
-47.7787790116
 11
-82.9853316327
 21
-47.8311862245
  0
LINE
  5
314
100
AcDbEntity
  8
SMUSSO
100
AcDbLine
 62
253
  6
CONTINUOUS
 10
-86.5353316327
 20
-46.8811862245
 11
-90.5353316327
 21
-46.8811862245
  0
LINE
  5
315
100
AcDbEntity
  8
DRAFT
100
AcDbLine
 62
253
  6
CONTINUOUS
 10
-81.9853316327
 20
-46.3311862245
 11
-86.4353316327
 21
-46.3311862245
  0
LINE
  5
316
100
AcDbEntity
  8
SMUSSO
100
AcDbLine
 62
7
  6
CONTINUOUS
 10
-90.5353316327
 20
46.5188137755
 11
-89.5353316327
 21
47.5188137755
  0
LINE
  5
317
100
AcDbEntity
  8
SMUSSO
100
AcDbLine
 62
7
  6
CONTINUOUS
 10
-90.5353316327
 20
-46.8811862245
 11
-89.5353316327
 21
-47.8811862245
  0
LINE
  5
318
100
AcDbEntity
  8
SMUSSO
100
AcDbLine
 62
7
  6
CONTINUOUS
 10
-86.4353316329
 20
46.9688137753
 11
-85.9877388455
 21
47.4164065627
  0
LINE
  5
319
100
AcDbEntity
  8
DRAFT
100
AcDbLine
 62
7
  6
CONTINUOUS
 10
-86.4353316327
 20
46.9688137755
 11
-85.9877388455
 21
47.4164065627
  0
LINE
  5
31A
100
AcDbEntity
  8
DRAFT
100
AcDbLine
 62
7
  6
CONTINUOUS
 10
-86.4353316327
 20
-47.3311862245
 11
-85.9877388455
 21
-47.7787790116
  0
LINE
  5
31B
100
AcDbEntity
  8
0
100
AcDbLine
 62
7
  6
CONTINUOUS
 10
-81.3853316327
 20
-26.5311862245
 11
-81.9853316327
 21
-26.5346769224
  0
LINE
  5
31C
100
AcDbEntity
  8
ASSI
100
AcDbLine
 62
7
  6
CONTINUOUS
 10
-81.8846931507
 20
-27.3320577756
 11
-81.9853316327
 21
-27.3322334231
  0
LINE
  5
31D
100
AcDbEntity
  8
0
100
AcDbLine
 62
253
  6
CONTINUOUS
 10
-81.6631028223
 20
-27.1089574142
 11
-81.9853316327
 21
-27.109102973
  0
LINE
  5
31E
100
AcDbEntity
  8
0
100
AcDbLine
 62
7
  6
CONTINUOUS
 10
-91.2353316327
 20
-25.9963606222
 11
-91.4353316327
 21
-25.9963606222
  0
LINE
  5
31F
100
AcDbEntity
  8
RACCORDO
100
AcDbLine
 62
253
  6
CONTINUOUS
 10
-90.9405673546
 20
-25.740182044
 11
-91.2353316327
 21
-25.7401820454
  0
LINE
  5
320
100
AcDbEntity
  8
0
100
AcDbLine
 62
253
  6
CONTINUOUS
 10
-91.2353316327
 20
-25.4280275126
 11
-91.4353316327
 21
-25.4280275126
  0
LINE
  5
321
100
AcDbEntity
  8
0
100
AcDbLine
 62
7
  6
CONTINUOUS
 10
-81.5853316327
 20
-25.3811862245
 11
-81.9853316327
 21
-25.3811862245
  0
LINE
  5
322
100
AcDbEntity
  8
RACCORDO
100
AcDbLine
 62
7
  6
CONTINUOUS
 10
-90.9405673546
 20
-26.440075432
 11
-90.5353316327
 21
-26.4471488479
  0
LINE
  5
323
100
AcDbEntity
  8
RACCORDO
100
AcDbLine
 62
7
  6
CONTINUOUS
 10
-86.5353316327
 20
-25.8768224583
 11
-86.4353316327
 21
-25.8785679648
  0
LINE
  5
324
100
AcDbEntity
  8
RACCORDO
100
AcDbLine
 62
253
  6
CONTINUOUS
 10
-90.9405673546
 20
-25.7401820454
 11
-90.5353316327
 21
-25.7472554613
  0
LINE
  5
325
100
AcDbEntity
  8
RACCORDO
100
AcDbLine
 62
7
  6
CONTINUOUS
 10
-86.4353316327
 20
-26.0283376428
 11
-86.5353316327
 21
-26.0264385883
  0
LINE
  5
326
100
AcDbEntity
  8
0
100
AcDbLine
 62
7
  6
CONTINUOUS
 10
-81.5748644414
 20
-25.9728126412
 11
-81.9853316327
 21
-25.9546781492
  0
LINE
  5
327
100
AcDbEntity
  8
ASSI
100
AcDbLine
 62
7
  6
CONTINUOUS
 10
-81.9353316327
 20
-25.2311862245
 11
-81.7353316327
 21
-25.2311862245
  0
LINE
  5
328
100
AcDbEntity
  8
0
100
AcDbLine
 62
7
  6
CONTINUOUS
 10
-91.2353316327
 20
-25.0161816565
 11
-91.4353316327
 21
-25.0161816565
  0
LINE
  5
329
100
AcDbEntity
  8
0
100
AcDbLine
 62
7
  6
CONTINUOUS
 10
-91.2353316327
 20
-25.0037735306
 11
-91.4353316327
 21
-25.0037735306
  0
LINE
  5
32A
100
AcDbEntity
  8
0
100
AcDbLine
 62
253
  6
CONTINUOUS
 10
-91.2353316327
 20
-23.9431779414
 11
-91.4353316327
 21
-23.9431779414
  0
LINE
  5
32B
100
AcDbEntity
  8
0
100
AcDbLine
 62
7
  6
CONTINUOUS
 10
-91.2353316327
 20
-23.8718998496
 11
-91.4353316327
 21
-23.8718998496
  0
LINE
  5
32C
100
AcDbEntity
  8
RACCORDO
100
AcDbLine
 62
253
  6
CONTINUOUS
 10
-86.5353316327
 20
-24.5770204546
 11
-86.4353316327
 21
-24.578765961
  0
LINE
  5
32D
100
AcDbEntity
  8
RACCORDO
100
AcDbLine
 62
7
  6
CONTINUOUS
 10
-86.4353316327
 20
-21.3317236425
 11
-86.5353316327
 21
-21.3320819211
  0
LINE
  5
32E
100
AcDbEntity
  8
RACCORDO
100
AcDbLine
 62
7
  6
CONTINUOUS
 10
-86.4353316327
 20
-21.6811862245
 11
-86.5353316327
 21
-21.6811862245
  0
LINE
  5
32F
100
AcDbEntity
  8
RACCORDO
100
AcDbLine
 62
7
  6
CONTINUOUS
 10
-86.4353316327
 20
-22.0306488065
 11
-86.5353316327
 21
-22.0302905279
  0
LINE
  5
330
100
AcDbEntity
  8
ASSI
100
AcDbLine
 62
7
  6
CONTINUOUS
 10
-81.7353316327
 20
24.8688137755
 11
-81.5853316327
 21
25.0188137755
  0
LINE
  5
331
100
AcDbEntity
  8
RACCORDO
100
AcDbLine
 62
7
  6
CONTINUOUS
 10
-86.4353316327
 20
-15.4047505621
 11
-86.5353316327
 21
-15.4064960686
  0
LINE
  5
332
100
AcDbEntity
  8
RACCORDO
100
AcDbLine
 62
7
  6
CONTINUOUS
 10
-86.4349204409
 20
-14.6576290642
 11
-86.5353316327
 21
-14.6558763803
  0
LINE
  5
333
100
AcDbEntity
  8
ASSI
100
AcDbLine
 62
7
  6
CONTINUOUS
 10
-81.7353316327
 20
-25.2311862245
 11
-81.5853316327
 21
-25.3811862245
  0
LWPOLYLINE
  5
334
100
AcDbEntity
  8
RACCORDO
100
AcDbPolyline
 62
253
  6
CONTINUOUS
 90
5
 70
0
 10
-90.9405673546
 20
-26.440075432
 10
-90.9409399716
 20
-26.4381119232
 10
-90.9412859395
 20
-26.4322458715
 10
-90.9416007588
 20
-26.4225102068
 10
-90.9418786076
 20
-26.4089595405
  0
LINE
  5
335
100
AcDbEntity
  8
RACCORDO
100
AcDbLine
 62
7
  6
CONTINUOUS
 10
-86.4353316327
 20
-7.7047505621
 11
-86.5353316327
 21
-7.7064960686
  0
LINE
  5
336
100
AcDbEntity
  8
RACCORDO
100
AcDbLine
 62
7
  6
CONTINUOUS
 10
-86.4353316327
 20
-6.9576218868
 11
-86.5353316327
 21
-6.9558763803
  0
LINE
  5
337
100
AcDbEntity
  8
RACCORDO
100
AcDbLine
 62
253
  6
CONTINUOUS
 10
-90.9418786076
 20
-26.4089595405
 11
-90.9423199835
 21
-26.3707372772
  0
LINE
  5
338
100
AcDbEntity
  8
RACCORDO
100
AcDbLine
 62
253
  6
CONTINUOUS
 10
-90.9405673546
 20
25.3778095965
 11
-90.9426062272
 21
25.7720564901
  0
LINE
  5
339
100
AcDbEntity
  8
RACCORDO
100
AcDbLine
 62
253
  6
CONTINUOUS
 10
-90.9423199835
 20
-26.3707372772
 11
-90.9426884101
 21
-26.2873526737
  0
LINE
  5
33A
100
AcDbEntity
  8
0
100
AcDbLine
 62
7
  6
CONTINUOUS
 10
-91.4353316327
 20
-25.9963606222
 11
-91.4353316327
 21
-23.8719078194
  0
LINE
  5
33B
100
AcDbEntity
  8
RACCORDO
100
AcDbLine
 62
7
  6
CONTINUOUS
 10
-91.2353316327
 20
-26.1401211235
 11
-91.2353316327
 21
25.7777486745
  0
LINE
  5
33C
100
AcDbEntity
  8
RACCORDO
100
AcDbLine
 62
253
  6
CONTINUOUS
 10
-90.9405673546
 20
-25.7401820454
 11
-90.9405673546
 21
25.3778095965
  0
LINE
  5
33D
100
AcDbEntity
  8
SMUSSO
100
AcDbLine
 62
7
  6
CONTINUOUS
 10
-90.5353316327
 20
-46.8811862245
 11
-90.5353316327
 21
46.5188137755
  0
LINE
  5
33E
100
AcDbEntity
  8
SMUSSO
100
AcDbLine
 62
7
  6
CONTINUOUS
 10
-89.5353316327
 20
-47.8811862245
 11
-89.5353316327
 21
47.5188137755
  0
LINE
  5
33F
100
AcDbEntity
  8
RACCORDO
100
AcDbLine
 62
253
  6
CONTINUOUS
 10
-90.9426062272
 20
25.7720564901
 11
-90.9426884314
 21
25.9249807406
  0
LINE
  5
340
100
AcDbEntity
  8
RACCORDO
100
AcDbLine
 62
253
  6
CONTINUOUS
 10
-90.9426884101
 20
-26.2873526737
 11
-90.9424838609
 21
-26.0901137806
  0
LINE
  5
341
100
AcDbEntity
  8
RACCORDO
100
AcDbLine
 62
253
  6
CONTINUOUS
 10
-90.9426884314
 20
25.9249807406
 11
-90.9423200162
 21
26.0083654049
  0
LINE
  5
342
100
AcDbEntity
  8
RACCORDO
100
AcDbLine
 62
253
  6
CONTINUOUS
 10
-90.9424838609
 20
-26.0901137806
 11
-90.9405673546
 21
-25.7401820454
  0
LWPOLYLINE
  5
343
100
AcDbEntity
  8
RACCORDO
100
AcDbPolyline
 62
253
  6
CONTINUOUS
 90
6
 70
0
 10
-90.9423200162
 20
26.0083654049
 10
-90.9418786221
 20
26.0465874512
 10
-90.9416007644
 20
26.060137989
 10
-90.9412859403
 20
26.0698735381
 10
-90.9409399705
 20
26.0757395063
 10
-90.9405673546
 20
26.0777029831
  0
LINE
  5
344
100
AcDbEntity
  8
SMUSSO
100
AcDbLine
 62
7
  6
CONTINUOUS
 10
-87.0353316327
 20
47.5188137755
 11
-87.0353316327
 21
-47.8811862245
  0
LINE
  5
345
100
AcDbEntity
  8
SMUSSO
100
AcDbLine
 62
7
  6
CONTINUOUS
 10
-86.5353316327
 20
47.0188137755
 11
-86.5353316327
 21
-47.3811862245
  0
LINE
  5
346
100
AcDbEntity
  8
SMUSSO
100
AcDbLine
 62
7
  6
CONTINUOUS
 10
-86.4353316327
 20
-47.3311862245
 11
-86.4353316327
 21
46.9688137755
  0
LINE
  5
347
100
AcDbEntity
  8
DRAFT
100
AcDbLine
 62
7
  6
CONTINUOUS
 10
-85.9877388455
 20
-47.7787790116
 11
-85.9877388455
 21
47.4164065627
  0
LINE
  5
348
100
AcDbEntity
  8
DRAFT
100
AcDbLine
 62
7
  6
CONTINUOUS
 10
-82.9853316327
 20
-47.8311862245
 11
-82.9853316327
 21
47.4688137755
  0
LINE
  5
349
100
AcDbEntity
  8
SMUSSO
100
AcDbLine
 62
7
  6
CONTINUOUS
 10
-81.9853316327
 20
46.4688137755
 11
-81.9853316327
 21
-46.8311862245
  0
LINE
  5
34A
100
AcDbEntity
  8
ASSI
100
AcDbLine
 62
253
  6
CONTINUOUS
 10
-81.5748644414
 20
25.6104401922
 11
-81.5748644414
 21
25.0190878686
  0
LINE
  5
34B
100
AcDbEntity
  8
ASSI
100
AcDbLine
 62
253
  6
CONTINUOUS
 10
-81.5748644414
 20
-25.3814603175
 11
-81.5748644414
 21
-25.9728126412
  0
LINE
  5
34C
100
AcDbEntity
  8
ASSI
100
AcDbLine
 62
7
  6
CONTINUOUS
 10
-81.3853316327
 20
-25.5811862245
 11
-81.3853316327
 21
-26.8311862245
  0
LINE
  5
34D
100
AcDbEntity
  8
ASSI
100
AcDbLine
 62
7
  6
CONTINUOUS
 10
-81.3853316327
 20
25.2188137755
 11
-81.3853316327
 21
26.4688137755
  0
LINE
  5
34E
100
AcDbEntity
  8
RACCORDO
100
AcDbLine
 62
7
  6
CONTINUOUS
 10
-86.4353316327
 20
6.5952494379
 11
-86.5353316327
 21
6.5935039314
  0
LINE
  5
34F
100
AcDbEntity
  8
RACCORDO
100
AcDbLine
 62
7
  6
CONTINUOUS
 10
-86.4353316327
 20
7.3423781132
 11
-86.5353316327
 21
7.3441236197
  0
LINE
  5
350
100
AcDbEntity
  8
RACCORDO
100
AcDbLine
 62
7
  6
CONTINUOUS
 10
-86.4349204409
 20
14.2952566152
 11
-86.5353316327
 21
14.2935039314
  0
LINE
  5
351
100
AcDbEntity
  8
RACCORDO
100
AcDbLine
 62
7
  6
CONTINUOUS
 10
-86.4353316327
 20
15.0423781132
 11
-86.5353316327
 21
15.0441236197
  0
LINE
  5
352
100
AcDbEntity
  8
ASSI
100
AcDbLine
 62
7
  6
CONTINUOUS
 10
-81.9853316327
 20
-25.2811862245
 11
-81.9353316327
 21
-25.2311862245
  0
LINE
  5
353
100
AcDbEntity
  8
ASSI
100
AcDbLine
 62
7
  6
CONTINUOUS
 10
-81.3853316327
 20
-26.8311862245
 11
-81.8861468257
 21
-27.3320014176
  0
LINE
  5
354
100
AcDbEntity
  8
RACCORDO
100
AcDbLine
 62
7
  6
CONTINUOUS
 10
-86.4353316327
 20
21.6682763575
 11
-86.5353316327
 21
21.6679180789
  0
LINE
  5
355
100
AcDbEntity
  8
RACCORDO
100
AcDbLine
 62
7
  6
CONTINUOUS
 10
-86.4353316327
 20
21.3188137755
 11
-86.5353316327
 21
21.3188137755
  0
LINE
  5
356
100
AcDbEntity
  8
RACCORDO
100
AcDbLine
 62
7
  6
CONTINUOUS
 10
-86.4353316327
 20
20.9693511935
 11
-86.5353316327
 21
20.9697094721
  0
LINE
  5
357
100
AcDbEntity
  8
ASSI
100
AcDbLine
 62
7
  6
CONTINUOUS
 10
-81.9853316327
 20
24.9188137755
 11
-81.9353316327
 21
24.8688137755
  0
LINE
  5
358
100
AcDbEntity
  8
ASSI
100
AcDbLine
 62
7
  6
CONTINUOUS
 10
-81.8861468257
 20
26.9696289686
 11
-81.3853316327
 21
26.4688137755
  0
LINE
  5
359
100
AcDbEntity
  8
0
100
AcDbLine
 62
7
  6
CONTINUOUS
 10
-81.5748644414
 20
25.6104401922
 11
-81.9853316327
 21
25.5923057002
  0
LINE
  5
35A
100
AcDbEntity
  8
RACCORDO
100
AcDbLine
 62
7
  6
CONTINUOUS
 10
-86.4353316327
 20
25.6659651938
 11
-86.5353316327
 21
25.6640661393
  0
LINE
  5
35B
100
AcDbEntity
  8
RACCORDO
100
AcDbLine
 62
253
  6
CONTINUOUS
 10
-86.5353316327
 20
24.2146480056
 11
-86.4353316327
 21
24.2163935121
  0
LINE
  5
35C
100
AcDbEntity
  8
RACCORDO
100
AcDbLine
 62
253
  6
CONTINUOUS
 10
-90.9405673546
 20
25.3778095965
 11
-90.5353316327
 21
25.3848830123
  0
LINE
  5
35D
100
AcDbEntity
  8
RACCORDO
100
AcDbLine
 62
7
  6
CONTINUOUS
 10
-86.5353316327
 20
25.5144500093
 11
-86.4353316327
 21
25.5161955158
  0
LINE
  5
35E
100
AcDbEntity
  8
ASSI
100
AcDbLine
 62
7
  6
CONTINUOUS
 10
-81.9353316327
 20
24.8688137755
 11
-81.7353316327
 21
24.8688137755
  0
LINE
  5
35F
100
AcDbEntity
  8
0
100
AcDbLine
 62
7
  6
CONTINUOUS
 10
-81.5853316327
 20
25.0188137755
 11
-81.9853316327
 21
25.0188137755
  0
LINE
  5
360
100
AcDbEntity
  8
RACCORDO
100
AcDbLine
 62
253
  6
CONTINUOUS
 10
-90.9405673546
 20
25.3778095945
 11
-91.2353316327
 21
25.3778095965
  0
LINE
  5
361
100
AcDbEntity
  8
RACCORDO
100
AcDbLine
 62
7
  6
CONTINUOUS
 10
-90.9405673546
 20
26.0777029831
 11
-90.5353316327
 21
26.0847763989
  0
LINE
  5
362
100
AcDbEntity
  8
0
100
AcDbLine
 62
253
  6
CONTINUOUS
 10
-81.6631028223
 20
26.7465849652
 11
-81.9853316327
 21
26.746730524
  0
LINE
  5
363
100
AcDbEntity
  8
ASSI
100
AcDbLine
 62
7
  6
CONTINUOUS
 10
-81.8846931507
 20
26.9696853267
 11
-81.9853316327
 21
26.9698609741
  0
LINE
  5
364
100
AcDbEntity
  8
0
100
AcDbLine
 62
7
  6
CONTINUOUS
 10
-81.3853316327
 20
26.1688137755
 11
-81.9853316327
 21
26.1723044734
  0
LINE
  5
365
100
AcDbEntity
  8
SMUSSO
100
AcDbLine
 62
7
  6
CONTINUOUS
 10
-86.5353316327
 20
-47.3811862245
 11
-87.0353316327
 21
-47.8811862245
  0
LINE
  5
366
100
AcDbEntity
  8
SMUSSO
100
AcDbLine
 62
7
  6
CONTINUOUS
 10
-86.5353316321
 20
47.018813775
 11
-87.0353316316
 21
47.5188137745
  0
LINE
  5
367
100
AcDbEntity
  8
DRAFT
100
AcDbLine
 62
7
  6
CONTINUOUS
 10
-81.9853316327
 20
-46.8311862245
 11
-82.9853316327
 21
-47.8311862245
  0
LINE
  5
368
100
AcDbEntity
  8
SMUSSO
100
AcDbLine
 62
7
  6
CONTINUOUS
 10
-81.9853316325
 20
46.4688137754
 11
-82.9853316327
 21
47.4688137755
  0
LINE
  5
369
100
AcDbEntity
  8
DRAFT
100
AcDbLine
 62
7
  6
CONTINUOUS
 10
-81.9853316327
 20
46.4688137755
 11
-82.9853316327
 21
47.4688137755
  0
LINE
  5
36A
100
AcDbEntity
  8
DRAFT
100
AcDbLine
 62
7
  6
CONTINUOUS
 10
-85.9877388455
 20
47.4164065627
 11
-82.9853316327
 21
47.4688137755
  0
LINE
  5
36B
100
AcDbEntity
  8
DRAFT
100
AcDbLine
 62
253
  6
CONTINUOUS
 10
-81.9853316327
 20
45.9688137755
 11
-86.4353316327
 21
45.9688137755
  0
LINE
  5
36C
100
AcDbEntity
  8
SMUSSO
100
AcDbLine
 62
253
  6
CONTINUOUS
 10
-86.5353316327
 20
46.5188137755
 11
-90.5353316327
 21
46.5188137755
  0
LINE
  5
36D
100
AcDbEntity
  8
SMUSSO
100
AcDbLine
 62
7
  6
CONTINUOUS
 10
-89.5353316327
 20
47.5188137755
 11
-87.0353316327
 21
47.5188137755
  0
ARC
  5
36E
100
AcDbEntity
  8
SMUSSO
100
AcDbCircle
 62
7
  6
CONTINUOUS
 10
-46.8515306127
 20
46.5188137755
 40
1.0
100
AcDbArc
 50
90.0
 51
180.0
  0
ARC
  5
36F
100
AcDbEntity
  8
SMUSSO
100
AcDbCircle
 62
7
  6
CONTINUOUS
 10
-46.8515306127
 20
-46.8811862245
 40
1.0
100
AcDbArc
 50
180.0
 51
270.0
  0
ARC
  5
370
100
AcDbEntity
  8
SMUSSO
100
AcDbCircle
 62
7
  6
CONTINUOUS
 10
46.5484693873
 20
-46.8811862245
 40
1.0
100
AcDbArc
 50
270.0
 51
360.0
  0
ARC
  5
371
100
AcDbEntity
  8
SMUSSO
100
AcDbCircle
 62
7
  6
CONTINUOUS
 10
46.5484693873
 20
46.5188137755
 40
1.0
100
AcDbArc
 50
0.0
 51
90.0
  0
ARC
  5
372
100
AcDbEntity
  8
RACCORDO
100
AcDbCircle
 62
7
  6
CONTINUOUS
 10
-90.9353316327
 20
25.7777486745
 40
0.3
100
AcDbArc
 50
91.0
 51
180.0
  0
ARC
  5
373
100
AcDbEntity
  8
RACCORDO
100
AcDbCircle
 62
7
  6
CONTINUOUS
 10
-90.9353316327
 20
-26.1401211235
 40
0.3
100
AcDbArc
 50
180.0
 51
269.0
  0
ARC
  5
374
100
AcDbEntity
  8
ASSI
100
AcDbCircle
 62
7
  6
CONTINUOUS
 10
-81.5853316327
 20
25.2188137755
 40
0.2
100
AcDbArc
 50
270.0
 51
360.0
  0
ARC
  5
375
100
AcDbEntity
  8
ASSI
100
AcDbCircle
 62
7
  6
CONTINUOUS
 10
-81.5853316327
 20
-25.5811862245
 40
0.2
100
AcDbArc
 50
0.0
 51
90.0
  0
ELLIPSE
  5
376
100
AcDbEntity
  8
RACCORDO
100
AcDbEllipse
 62
7
  6
CONTINUOUS
 10
33.4405689097
 20
22.1109132979
 30
0.0
 11
0.2121966568
 21
0.2121966568
 31
0.0
 40
0.9996954599
 41
-0.7852458701
 42
0.7852458701
  0
ELLIPSE
  5
377
100
AcDbEntity
  8
RACCORDO
100
AcDbEllipse
 62
7
  6
CONTINUOUS
 10
33.4405689097
 20
-22.4732857469
 30
0.0
 11
0.2121966568
 21
-0.2121966568
 31
0.0
 40
0.9996954599
 41
-0.7852458701
 42
0.7852458701
  0
ELLIPSE
  5
378
100
AcDbEntity
  8
RACCORDO
100
AcDbEllipse
 62
7
  6
CONTINUOUS
 10
-33.7436301351
 20
22.1109132979
 30
0.0
 11
0.2121966568
 21
-0.2121966568
 31
0.0
 40
0.9996954599
 41
2.3563467834
 42
3.9268385237
  0
ELLIPSE
  5
379
100
AcDbEntity
  8
RACCORDO
100
AcDbEllipse
 62
7
  6
CONTINUOUS
 10
-33.7436301351
 20
-22.4732857469
 30
0.0
 11
-0.2121966568
 21
-0.2121966568
 31
0.0
 40
0.9996954599
 41
-0.7852458701
 42
0.7852458701
  0
ELLIPSE
  5
37A
100
AcDbEntity
  8
RACCORDO
100
AcDbEllipse
 62
7
  6
CONTINUOUS
 10
36.3143253811
 20
25.3846697693
 30
0.0
 11
0.4951255324
 21
0.4951255324
 31
0.0
 40
0.9996954599
 41
-0.7852458701
 42
0.7852458701
  0
ELLIPSE
  5
37B
100
AcDbEntity
  8
RACCORDO
100
AcDbEllipse
 62
7
  6
CONTINUOUS
 10
36.3143253811
 20
-25.7470422182
 30
0.0
 11
0.4951255324
 21
-0.4951255324
 31
0.0
 40
0.9996954599
 41
-0.7852458701
 42
0.7852458701
  0
ELLIPSE
  5
37C
100
AcDbEntity
  8
RACCORDO
100
AcDbEllipse
 62
7
  6
CONTINUOUS
 10
-36.6173866065
 20
-25.7470422182
 30
0.0
 11
0.4951255324
 21
0.4951255324
 31
0.0
 40
0.9996954599
 41
-3.9268385237
 42
-2.3563467834
  0
ELLIPSE
  5
37D
100
AcDbEntity
  8
RACCORDO
100
AcDbEllipse
 62
7
  6
CONTINUOUS
 10
-36.6173866065
 20
25.3846697693
 30
0.0
 11
-0.4951255324
 21
0.4951255324
 31
0.0
 40
0.9996954599
 41
-0.7852458701
 42
0.7852458701
  0
ELLIPSE
  5
37E
100
AcDbEntity
  8
ASSI
100
AcDbEllipse
 62
7
  6
CONTINUOUS
 10
-81.5853316327
 20
-26.1726246686
 30
0.0
 11
0.1417119467
 21
0.1422961243
 31
0.0
 40
0.9918061237
 41
-0.7833412615
 42
0.7350951877
  0
ELLIPSE
  5
37F
100
AcDbEntity
  8
ASSI
100
AcDbEllipse
 62
7
  6
CONTINUOUS
 10
-81.5853316327
 20
25.8102522196
 30
0.0
 11
-0.1417119467
 21
0.1422961243
 31
0.0
 40
0.9918061237
 41
-3.8766878413
 42
-2.358251392
  0
ENDSEC
  0
SECTION
  2
OBJECTS
  0
DICTIONARY
  5
C
100
AcDbDictionary
280
0
281
1
  3
ACAD_GROUP
350
D
  3
ACAD_MLINESTYLE
350
17
  3
ACAD_LAYOUT
350
1A
  3
ACAD_PLOTSETTINGS
350
19
  3
ACAD_PLOTSTYLENAME
350
E
  0
DICTIONARY
  5
D
102
{ACAD_REACTORS
330
C
102
}
100
AcDbDictionary
280
0
281
1
  0
ACDBDICTIONARYWDFLT
  5
E
102
{ACAD_REACTORS
330
C
102
}
100
AcDbDictionary
281
1
  3
Normal
350
F
100
AcDbDictionaryWithDefault
340
F
  0
DICTIONARY
  5
17
102
{ACAD_REACTORS
330
C
102
}
100
AcDbDictionary
280
0
281
1
  3
Standard
350
18
  0
DICTIONARY
  5
19
102
{ACAD_REACTORS
330
C
102
}
100
AcDbDictionary
281
1
  0
DICTIONARY
  5
1A
102
{ACAD_REACTORS
330
C
102
}
100
AcDbDictionary
281
1
  3
Model
350
380
  3
Layout1
350
381
  0
ACDBPLACEHOLDER
  5
F
102
{ACAD_REACTORS
330
E
102
}
  0
MLINESTYLE
  5
18
102
{ACAD_REACTORS
330
17
102
}
100
AcDbMlineStyle
  2
STANDARD
 70
0
  3

 62
256
 51
90.0
 52
90.0
 71
2
 49
0.5
 62
256
  6
BYLAYER
 49
-0.5
 62
256
  6
BYLAYER
  0
LAYOUT
  5
380
102
{ACAD_REACTORS
330
1A
102
}
100
AcDbPlotSettings
  1

  2
none_device
  4
ISO_A4_(297.00_x_210.00_MM)
  6

 40
0.0
 41
0.0
 42
0.0
 43
0.0
 44
297.0
 45
210.0
 46
0.0
 47
0.0
 48
0.0
 49
0.0
140
0.0
141
0.0
142
1.0
143
1.0
 70
1024
 72
1
 73
0
 74
0
  7

 75
0
147
1.0
148
0.0
149
0.0
100
AcDbLayout
  1
Model
 70
0
 71
0
 10
0.0
 20
0.0
 11
297.0
 21
210.0
 12
0.0
 22
0.0
 32
0.0
 14
0.0
 24
0.0
 34
0.0
 15
0.0
 25
0.0
 35
0.0
146
0.0
 13
0.0
 23
0.0
 33
0.0
 16
1.0
 26
0.0
 36
0.0
 17
0.0
 27
1.0
 37
0.0
 76
0
330
212
345
0
346
0
  0
LAYOUT
  5
381
102
{ACAD_REACTORS
330
1A
102
}
100
AcDbPlotSettings
  1

  2
none_device
  4
ISO_A4_(297.00_x_210.00_MM)
  6

 40
0.0
 41
0.0
 42
0.0
 43
0.0
 44
297.0
 45
210.0
 46
0.0
 47
0.0
 48
0.0
 49
0.0
140
0.0
141
0.0
142
1.0
143
1.0
 70
0
 72
1
 73
0
 74
0
  7

 75
0
147
1.0
148
0.0
149
0.0
100
AcDbLayout
  1
Layout1
 70
0
 71
1
 10
0.0
 20
0.0
 11
297.0
 21
210.0
 12
0.0
 22
0.0
 32
0.0
 14
0.0
 24
0.0
 34
0.0
 15
0.0
 25
0.0
 35
0.0
146
0.0
 13
0.0
 23
0.0
 33
0.0
 16
1.0
 26
0.0
 36
0.0
 17
0.0
 27
1.0
 37
0.0
 76
0
330
213
345
0
346
0
  0
ENDSEC
  0
EOF
