  0
SECTION
  2
HEADER
  9
$ACADVER
  1
AC1015
  9
$DWGCODEPAGE
  3
ANSI_1252
  9
$EXTMAX
 10
297.0
 20
210.0
 30
0.0
  9
$EXTMIN
 10
0.0
 20
0.0
 30
0.0
  9
$LIMMIN
 10
0.0
 20
0.0
  9
$LIMMAX
 10
297.0
 20
210.0
  9
$VIEWCTR
 10
148.5
 20
105.0
  9
$VIEWSIZE
 40
210.0
  9
$CLAYER
  8
0
  9
$LTSCALE
 40
16.335
  9
$CELTYPE
  6
BYLAYER
  9
$DIMSCALE
 40
1.0
  9
$DIMASZ
 40
3.0
  9
$DIMEXO
 40
0.5
  9
$DIMDLI
 40
11.286
  9
$DIMEXE
 40
1.5
  9
$DIMCEN
 40
2.673
  9
$DIMLFAC
 40
1.0
  9
$DIMBLK
  1
_FILLED
  9
$DIMTXT
 40
3.0
  9
$DIMTOL
 70
1
  9
$DIMLIM
 70
0
  9
$DIMTFAC
 40
1.0
  9
$DIMTP
 40
0.01
  9
$DIMTM
 40
0.01
  9
$DIMGAP
 40
0.625
  9
$DIMDSEP
 70
44
  9
$PDMODE
 70
3
  9
$PDSIZE
 40
3.0
  9
$HANDSEED
  5
36B
  9
$TILEMODE
 70
1
  9
$MEASUREMENT
 70
1
  9
$INSUNITS
 70
4
  0
ENDSEC
  0
SECTION
  2
CLASSES
  0
CLASS
  1
ACDBDICTIONARYWDFLT
  2
AcDbDictionaryWithDefault
  3
AutoCAD 2000
 90
0
280
0
281
0
  0
CLASS
  1
ACDBPLACEHOLDER
  2
AcDbPlaceHolder
  3
AutoCAD 2000
 90
0
280
0
281
0
  0
CLASS
  1
LAYOUT
  2
AcDbLayout
  3
AutoCAD 2000
 90
0
280
0
281
0
  0
ENDSEC
  0
SECTION
  2
TABLES
  0
TABLE
  2
VPORT
  5
8
100
AcDbSymbolTable
 70
2
  0
VPORT
  5
1F4
100
AcDbSymbolTableRecord
100
AcDbViewportTableRecord
  2
*ACTIVE
 70
0
 10
0.0
 20
0.0
 11
1.0
 21
1.0
 12
148.5
 22
105.0
 13
0.0
 23
0.0
 14
1.0
 24
1.0
 15
0.0
 25
0.0
 16
0.0
 26
0.0
 36
1.0
 17
0.0
 27
0.0
 37
0.0
 40
210.0
 41
1.4142857143
 42
50.0
 43
0.0
 44
0.0
 50
0.0
 51
0.0
 71
0
 72
100
 73
1
 74
1
 75
0
 76
0
 77
0
 78
0
  0
ENDTAB
  0
TABLE
  2
LTYPE
  5
5
100
AcDbSymbolTable
 70
6
  0
LTYPE
  5
14
100
AcDbSymbolTableRecord
100
AcDbLinetypeTableRecord
  2
BYBLOCK
 70
0
  3

 72
65
 73
0
 40
0.0
  0
LTYPE
  5
15
100
AcDbSymbolTableRecord
100
AcDbLinetypeTableRecord
  2
BYLAYER
 70
0
  3

 72
65
 73
0
 40
0.0
  0
LTYPE
  5
16
100
AcDbSymbolTableRecord
100
AcDbLinetypeTableRecord
  2
CONTINUOUS
 70
64
  3
Solid line
 72
65
 73
0
 40
0.0
  0
LTYPE
  5
1F5
100
AcDbSymbolTableRecord
100
AcDbLinetypeTableRecord
  2
CENTER
 70
64
  3
____ _ ____ _ ____ _ ____ _ ____ _ ____ _ ____
 72
65
 73
4
 40
0.6
 49
0.375
 74
0
 49
-0.075
 74
0
 49
0.075
 74
0
 49
-0.075
 74
0
  0
LTYPE
  5
1F6
100
AcDbSymbolTableRecord
100
AcDbLinetypeTableRecord
  2
HIDDEN
 70
64
  3
- - - - - - - - - - - - - - - - - - - -
 72
65
 73
2
 40
0.2
 49
0.1
 74
0
 49
-0.1
 74
0
  0
LTYPE
  5
1F7
100
AcDbSymbolTableRecord
100
AcDbLinetypeTableRecord
  2
PHANTOM
 70
64
  3
_____ _ _ _____ _ _ _____ _ _ _____
 72
65
 73
6
 40
0.8
 49
0.45
 74
0
 49
-0.05
 74
0
 49
0.1
 74
0
 49
-0.05
 74
0
 49
0.1
 74
0
 49
-0.05
 74
0
  0
LTYPE
  5
1F8
100
AcDbSymbolTableRecord
100
AcDbLinetypeTableRecord
  2
DOT
 70
64
  3
. . . . . . . . . . . . . . . . . . . .
 72
65
 73
2
 40
0.2
 49
0.1
 74
0
 49
-0.1
 74
0
  0
LTYPE
  5
1F9
100
AcDbSymbolTableRecord
100
AcDbLinetypeTableRecord
  2
DASHED
 70
64
  3
- - - - - - - - - - - - - - - - - - - -
 72
65
 73
2
 40
0.2
 49
0.1
 74
0
 49
-0.1
 74
0
  0
ENDTAB
  0
TABLE
  2
LAYER
  5
2
100
AcDbSymbolTable
 70
36
  0
LAYER
  5
10
100
AcDbSymbolTableRecord
100
AcDbLayerTableRecord
  2
0
 70
0
 62
7
  6
CONTINUOUS
370
-3
390
F
  0
LAYER
  5
1FA
100
AcDbSymbolTableRecord
100
AcDbLayerTableRecord
  2
DEFAULT_1
 70
0
 62
7
  6
CENTER
370
-3
390
F
  0
LAYER
  5
1FB
100
AcDbSymbolTableRecord
100
AcDbLayerTableRecord
  2
DEFAULT_2
 70
0
 62
7
  6
HIDDEN
370
-3
390
F
  0
LAYER
  5
1FC
100
AcDbSymbolTableRecord
100
AcDbLayerTableRecord
  2
DEFAULT_3
 70
0
 62
7
  6
PHANTOM
370
-3
390
F
  0
LAYER
  5
1FD
100
AcDbSymbolTableRecord
100
AcDbLayerTableRecord
  2
ASSI
 70
0
 62
7
  6
CONTINUOUS
370
-3
390
F
  0
LAYER
  5
1FE
100
AcDbSymbolTableRecord
100
AcDbLayerTableRecord
  2
COORDINATE
 70
0
 62
7
  6
CONTINUOUS
370
-3
390
F
  0
LAYER
  5
1FF
100
AcDbSymbolTableRecord
100
AcDbLayerTableRecord
  2
COORD_ORIGINE
 70
0
 62
7
  6
CONTINUOUS
370
-3
390
F
  0
LAYER
  5
200
100
AcDbSymbolTableRecord
100
AcDbLayerTableRecord
  2
COPY_PUBLISH
 70
0
 62
7
  6
CONTINUOUS
370
-3
390
F
  0
LAYER
  5
201
100
AcDbSymbolTableRecord
100
AcDbLayerTableRecord
  2
COSMETIC
 70
0
 62
7
  6
CONTINUOUS
370
-3
390
F
  0
LAYER
  5
202
100
AcDbSymbolTableRecord
100
AcDbLayerTableRecord
  2
CURVE
 70
0
 62
7
  6
CONTINUOUS
370
-3
390
F
  0
LAYER
  5
203
100
AcDbSymbolTableRecord
100
AcDbLayerTableRecord
  2
DRAFT
 70
0
 62
7
  6
CONTINUOUS
370
-3
390
F
  0
LAYER
  5
204
100
AcDbSymbolTableRecord
100
AcDbLayerTableRecord
  2
IMPORT_IGES
 70
0
 62
7
  6
CONTINUOUS
370
-3
390
F
  0
LAYER
  5
205
100
AcDbSymbolTableRecord
100
AcDbLayerTableRecord
  2
INTFCLR_2
 70
0
 62
7
  6
CONTINUOUS
370
-3
390
F
  0
LAYER
  5
206
100
AcDbSymbolTableRecord
100
AcDbLayerTableRecord
  2
PIANI
 70
0
 62
7
  6
CONTINUOUS
370
-3
390
F
  0
LAYER
  5
207
100
AcDbSymbolTableRecord
100
AcDbLayerTableRecord
  2
PIANI_ORIGINE
 70
0
 62
7
  6
CONTINUOUS
370
-3
390
F
  0
LAYER
  5
208
100
AcDbSymbolTableRecord
100
AcDbLayerTableRecord
  2
PIANI_RIFERIMENTO
 70
0
 62
7
  6
CONTINUOUS
370
-3
390
F
  0
LAYER
  5
209
100
AcDbSymbolTableRecord
100
AcDbLayerTableRecord
  2
PUNTI
 70
0
 62
7
  6
CONTINUOUS
370
-3
390
F
  0
LAYER
  5
20A
100
AcDbSymbolTableRecord
100
AcDbLayerTableRecord
  2
RACCORDO
 70
0
 62
7
  6
CONTINUOUS
370
-3
390
F
  0
LAYER
  5
20B
100
AcDbSymbolTableRecord
100
AcDbLayerTableRecord
  2
SMUSSO
 70
0
 62
7
  6
CONTINUOUS
370
-3
390
F
  0
LAYER
  5
20C
100
AcDbSymbolTableRecord
100
AcDbLayerTableRecord
  2
SNAPLINE
 70
0
 62
7
  6
CONTINUOUS
370
-3
390
F
  0
LAYER
  5
20D
100
AcDbSymbolTableRecord
100
AcDbLayerTableRecord
  2
SUPERFICI
 70
0
 62
7
  6
CONTINUOUS
370
-3
390
F
  0
LAYER
  5
20E
100
AcDbSymbolTableRecord
100
AcDbLayerTableRecord
  2
TRASH
 70
0
 62
7
  6
CONTINUOUS
370
-3
390
F
  0
LAYER
  5
20F
100
AcDbSymbolTableRecord
100
AcDbLayerTableRecord
  2
XSEC_DATUMS
 70
0
 62
7
  6
CONTINUOUS
370
-3
390
F
  0
ENDTAB
  0
TABLE
  2
STYLE
  5
3
100
AcDbSymbolTable
 70
1
  0
STYLE
  5
11
100
AcDbSymbolTableRecord
100
AcDbTextStyleTableRecord
  2
STANDARD
 70
0
 40
0.0
 41
0.8
 50
0.0
 71
0
 42
0.2
  3
txt
  4

  0
STYLE
  5
210
100
AcDbSymbolTableRecord
100
AcDbTextStyleTableRecord
  2
TEXTSTYLE_1
 70
0
 40
0.0
 41
0.8
 50
0.0
 71
0
 42
0.2
  3
gdt
  4

  0
ENDTAB
  0
TABLE
  2
VIEW
  5
6
100
AcDbSymbolTable
 70
0
  0
ENDTAB
  0
TABLE
  2
UCS
  5
7
100
AcDbSymbolTable
 70
0
  0
ENDTAB
  0
TABLE
  2
APPID
  5
9
100
AcDbSymbolTable
 70
1
  0
APPID
  5
211
100
AcDbSymbolTableRecord
100
AcDbRegAppTableRecord
  2
ACAD
 70
0
  0
ENDTAB
  0
TABLE
  2
BLOCK_RECORD
  5
1
100
AcDbSymbolTable
 70
0
  0
BLOCK_RECORD
  5
212
100
AcDbSymbolTableRecord
100
AcDbBlockTableRecord
  2
*Model_Space
  0
BLOCK_RECORD
  5
213
100
AcDbSymbolTableRecord
100
AcDbBlockTableRecord
  2
*Paper_Space
  0
BLOCK_RECORD
  5
214
100
AcDbSymbolTableRecord
100
AcDbBlockTableRecord
  2
_FILLED
  0
BLOCK_RECORD
  5
215
100
AcDbSymbolTableRecord
100
AcDbBlockTableRecord
  2
*D0
  0
BLOCK_RECORD
  5
216
100
AcDbSymbolTableRecord
100
AcDbBlockTableRecord
  2
*D1
  0
BLOCK_RECORD
  5
217
100
AcDbSymbolTableRecord
100
AcDbBlockTableRecord
  2
*D2
  0
BLOCK_RECORD
  5
218
100
AcDbSymbolTableRecord
100
AcDbBlockTableRecord
  2
*D3
  0
ENDTAB
  0
TABLE
  2
DIMSTYLE
  5
A
100
AcDbSymbolTable
 70
1
100
AcDbDimStyleTable
 71
0
  0
DIMSTYLE
105
219
100
AcDbSymbolTableRecord
100
AcDbDimStyleTableRecord
  2
STANDARD
 70
0
  3

  4

 40
1.0
 41
3.0
 42
0.5
 43
0.38
 44
1.5
 45
0.0
 46
0.0
 47
0.01
 48
0.01
140
3.0
141
0.09
142
0.0
143
25.4
144
1.0
145
0.0
146
1.0
147
0.625
 71
1.0
 72
0.0
 73
0
 74
0
 75
0
 76
0
 77
1
 78
8
170
0
171
2
172
0
173
0
174
0
175
0
176
0
177
0
178
0
270
2
271
2
272
2
273
2
274
2
275
0
280
0
281
0
282
0
283
1
284
8
285
0
286
0
287
3
288
0
340
11
278
44
341
214
342
214
343
214
344
214
  0
DIMSTYLE
105
21A
100
AcDbSymbolTableRecord
100
AcDbDimStyleTableRecord
  2
DIMSTYLE_1
 70
0
  3

  4

 40
1.0
 41
3.0
 42
0.5
 43
0.38
 44
1.5
 45
0.0
 46
0.0
 47
0.0
 48
0.0
140
3.0
141
0.09
142
0.0
143
25.4
144
1.0
145
0.0
146
1.0
147
0.75
 71
0.0
 72
0.0
 73
0
 74
0
 75
0
 76
0
 77
1
 78
8
170
0
171
2
172
0
173
0
174
0
175
0
176
0
177
0
178
0
270
2
271
2
272
2
273
2
274
2
275
0
280
0
281
0
282
0
283
1
284
8
285
0
286
0
287
3
288
0
340
11
278
44
341
214
342
214
343
214
344
214
  0
ENDTAB
  0
ENDSEC
  0
SECTION
  2
BLOCKS
  0
BLOCK
  5
20
100
AcDbEntity
  8
0
100
AcDbBlockBegin
  2
*Model_Space
 70
0
 10
0.0
 20
0.0
 30
0.0
  3
*Model_Space
  1

  0
ENDBLK
  5
21
100
AcDbEntity
  8
0
100
AcDbBlockEnd
  0
BLOCK
  5
1C
100
AcDbEntity
  8
0
100
AcDbBlockBegin
  2
*Paper_Space
 70
0
 10
0.0
 20
0.0
 30
0.0
  3
*Paper_Space
  1

  0
ENDBLK
  5
1D
100
AcDbEntity
  8
0
100
AcDbBlockEnd
  0
BLOCK
  5
21B
100
AcDbEntity
  8
0
100
AcDbBlockBegin
  2
_FILLED
 70
64
 10
0.0
 20
0.0
  3
_FILLED
  1

  0
SOLID
  5
21C
100
AcDbEntity
  8
0
  6
BYBLOCK
 62
0
100
AcDbTrace
 10
0.0
 20
0.0
 11
-1.0
 21
0.3166666667
 12
-1.0
 22
-0.3166666667
 13
-1.0
 23
-0.3166666667
  0
ENDBLK
  5
21D
100
AcDbEntity
  8
0
  6
BYBLOCK
 62
0
100
AcDbBlockEnd
  0
BLOCK
  5
21E
100
AcDbEntity
  8
0
100
AcDbBlockBegin
 62
7
  6
CONTINUOUS
  2
*D0
 70
65
 10
0.0
 20
0.0
  3
*D0
  1

  0
MTEXT
  5
21F
100
AcDbEntity
  8
0
100
AcDbMText
 62
7
  6
CONTINUOUS
  7
STANDARD
 71
2
 72
1
 10
51.5598086735
 20
-0.3175637755
 30
0.0
 11
0.0
 21
1.0
 31
0.0
 44
0.9
  1
95,4
 40
3.0
 41
8.5714285714
  0
LINE
  5
220
100
AcDbEntity
  8
0
100
AcDbLine
 62
7
  6
CONTINUOUS
 10
46.8098086735
 20
47.3824362245
 11
56.8098086735
 21
47.3824362245
  0
LINE
  5
221
100
AcDbEntity
  8
0
100
AcDbLine
 62
7
  6
CONTINUOUS
 10
46.8098086732
 20
-48.0175637755
 11
56.8098086735
 21
-48.0175637755
  0
LINE
  5
222
100
AcDbEntity
  8
0
100
AcDbLine
 62
7
  6
CONTINUOUS
 10
55.3098086735
 20
47.3824362245
 11
55.3098086735
 21
-0.3175637755
  0
LINE
  5
223
100
AcDbEntity
  8
0
100
AcDbLine
 62
7
  6
CONTINUOUS
 10
55.3098086735
 20
-48.0175637755
 11
55.3098086735
 21
-0.3175637755
  0
INSERT
  5
224
100
AcDbEntity
  8
0
100
AcDbBlockReference
 62
7
  6
CONTINUOUS
  2
_FILLED
 10
55.3098086735
 20
47.3824362245
 41
3.0
 42
3.0
 43
3.0
 50
90.0
  0
INSERT
  5
225
100
AcDbEntity
  8
0
100
AcDbBlockReference
 62
7
  6
CONTINUOUS
  2
_FILLED
 10
55.3098086735
 20
-48.0175637755
 41
3.0
 42
3.0
 43
3.0
 50
270.0
  0
ENDBLK
  5
226
100
AcDbEntity
  8
0
  6
BYBLOCK
 62
0
100
AcDbBlockEnd
  0
BLOCK
  5
227
100
AcDbEntity
  8
0
100
AcDbBlockBegin
 62
7
  6
CONTINUOUS
  2
*D1
 70
65
 10
0.0
 20
0.0
  3
*D1
  1

  0
MTEXT
  5
228
100
AcDbEntity
  8
0
100
AcDbMText
 62
7
  6
CONTINUOUS
  7
STANDARD
 71
2
 72
1
 10
-0.3901913265
 20
59.1324362245
 30
0.0
 11
1.0
 21
0.0
 31
0.0
 44
0.9
  1
95,4
 40
3.0
 41
8.5714285714
  0
LINE
  5
229
100
AcDbEntity
  8
0
100
AcDbLine
 62
7
  6
CONTINUOUS
 10
47.3098086735
 20
46.8824362242
 11
47.3098086735
 21
56.8824362245
  0
LINE
  5
22A
100
AcDbEntity
  8
0
100
AcDbLine
 62
7
  6
CONTINUOUS
 10
-48.0901913265
 20
46.8824362245
 11
-48.0901913265
 21
56.8824362245
  0
LINE
  5
22B
100
AcDbEntity
  8
0
100
AcDbLine
 62
7
  6
CONTINUOUS
 10
47.3098086735
 20
55.3824362245
 11
-0.3901913265
 21
55.3824362245
  0
LINE
  5
22C
100
AcDbEntity
  8
0
100
AcDbLine
 62
7
  6
CONTINUOUS
 10
-48.0901913265
 20
55.3824362245
 11
-0.3901913265
 21
55.3824362245
  0
INSERT
  5
22D
100
AcDbEntity
  8
0
100
AcDbBlockReference
 62
7
  6
CONTINUOUS
  2
_FILLED
 10
47.3098086735
 20
55.3824362245
 41
3.0
 42
3.0
 43
3.0
 50
0.0
  0
INSERT
  5
22E
100
AcDbEntity
  8
0
100
AcDbBlockReference
 62
7
  6
CONTINUOUS
  2
_FILLED
 10
-48.0901913265
 20
55.3824362245
 41
3.0
 42
3.0
 43
3.0
 50
180.0
  0
ENDBLK
  5
22F
100
AcDbEntity
  8
0
  6
BYBLOCK
 62
0
100
AcDbBlockEnd
  0
BLOCK
  5
230
100
AcDbEntity
  8
0
100
AcDbBlockBegin
 62
7
  6
CONTINUOUS
  2
*D2
 70
65
 10
0.0
 20
0.0
  3
*D2
  1

  0
MTEXT
  5
231
100
AcDbEntity
  8
0
100
AcDbMText
 62
7
  6
CONTINUOUS
  7
STANDARD
 71
2
 72
1
 10
-78.5981505102
 20
59.1324362245
 30
0.0
 11
1.0
 21
0.0
 31
0.0
 44
0.9
  1
9,2
 40
3.0
 41
6.4285714286
  0
LINE
  5
232
100
AcDbEntity
  8
0
100
AcDbLine
 62
7
  6
CONTINUOUS
 10
-73.9981505102
 20
45.4783255232
 11
-73.9981505102
 21
56.8824362245
  0
LINE
  5
233
100
AcDbEntity
  8
0
100
AcDbLine
 62
7
  6
CONTINUOUS
 10
-83.1981505102
 20
25.7414320454
 11
-83.1981505102
 21
56.8824362245
  0
LINE
  5
234
100
AcDbEntity
  8
0
100
AcDbLine
 62
7
  6
CONTINUOUS
 10
-73.9981505102
 20
55.3824362245
 11
-69.9981505102
 21
55.3824362245
  0
LINE
  5
235
100
AcDbEntity
  8
0
100
AcDbLine
 62
7
  6
CONTINUOUS
 10
-69.9981505102
 20
55.3824362245
 11
-78.5981505102
 21
55.3824362245
  0
LINE
  5
236
100
AcDbEntity
  8
0
100
AcDbLine
 62
7
  6
CONTINUOUS
 10
-83.1981505102
 20
55.3824362245
 11
-87.1981505102
 21
55.3824362245
  0
LINE
  5
237
100
AcDbEntity
  8
0
100
AcDbLine
 62
7
  6
CONTINUOUS
 10
-87.1981505102
 20
55.3824362245
 11
-78.5981505102
 21
55.3824362245
  0
INSERT
  5
238
100
AcDbEntity
  8
0
100
AcDbBlockReference
 62
7
  6
CONTINUOUS
  2
_FILLED
 10
-73.9981505102
 20
55.3824362245
 41
3.0
 42
3.0
 43
3.0
 50
180.0
  0
INSERT
  5
239
100
AcDbEntity
  8
0
100
AcDbBlockReference
 62
7
  6
CONTINUOUS
  2
_FILLED
 10
-83.1981505102
 20
55.3824362245
 41
3.0
 42
3.0
 43
3.0
  0
ENDBLK
  5
23A
100
AcDbEntity
  8
0
  6
BYBLOCK
 62
0
100
AcDbBlockEnd
  0
BLOCK
  5
23B
100
AcDbEntity
  8
0
100
AcDbBlockBegin
 62
7
  6
CONTINUOUS
  2
*D3
 70
65
 10
0.0
 20
0.0
  3
*D3
  1

  0
MTEXT
  5
23C
100
AcDbEntity
  8
0
100
AcDbMText
 62
7
  6
CONTINUOUS
  7
STANDARD
 71
2
 72
1
 10
-78.2981505102
 20
69.1324362245
 30
0.0
 11
1.0
 21
0.0
 31
0.0
 44
0.9
  1
9,8
 40
3.0
 41
6.4285714286
  0
LINE
  5
23D
100
AcDbEntity
  8
0
100
AcDbLine
 62
7
  6
CONTINUOUS
 10
-83.1981505102
 20
25.7414320454
 11
-83.1981505102
 21
66.8824362245
  0
LINE
  5
23E
100
AcDbEntity
  8
0
100
AcDbLine
 62
7
  6
CONTINUOUS
 10
-73.3981505102
 20
26.8324362245
 11
-73.3981505102
 21
66.8824362245
  0
LINE
  5
23F
100
AcDbEntity
  8
0
100
AcDbLine
 62
7
  6
CONTINUOUS
 10
-83.1981505102
 20
65.3824362245
 11
-87.1981505102
 21
65.3824362245
  0
LINE
  5
240
100
AcDbEntity
  8
0
100
AcDbLine
 62
7
  6
CONTINUOUS
 10
-87.1981505102
 20
65.3824362245
 11
-78.2981505102
 21
65.3824362245
  0
LINE
  5
241
100
AcDbEntity
  8
0
100
AcDbLine
 62
7
  6
CONTINUOUS
 10
-73.3981505102
 20
65.3824362245
 11
-69.3981505102
 21
65.3824362245
  0
LINE
  5
242
100
AcDbEntity
  8
0
100
AcDbLine
 62
7
  6
CONTINUOUS
 10
-69.3981505102
 20
65.3824362245
 11
-78.2981505102
 21
65.3824362245
  0
INSERT
  5
243
100
AcDbEntity
  8
0
100
AcDbBlockReference
 62
7
  6
CONTINUOUS
  2
_FILLED
 10
-83.1981505102
 20
65.3824362245
 41
3.0
 42
3.0
 43
3.0
  0
INSERT
  5
244
100
AcDbEntity
  8
0
100
AcDbBlockReference
 62
7
  6
CONTINUOUS
  2
_FILLED
 10
-73.3981505102
 20
65.3824362245
 41
3.0
 42
3.0
 43
3.0
 50
180.0
  0
ENDBLK
  5
245
100
AcDbEntity
  8
0
  6
BYBLOCK
 62
0
100
AcDbBlockEnd
  0
ENDSEC
  0
SECTION
  2
ENTITIES
  0
DIMENSION
  5
246
100
AcDbEntity
  8
0
100
AcDbDimension
 62
7
  6
CONTINUOUS
  2
*D0
 10
55.3098086735
 20
-48.0175637755
 11
55.3098086735
 21
-0.3175637755
 70
160
 71
2
 42
95.4
  3
DIMSTYLE_1
100
AcDbAlignedDimension
 13
46.3098086735
 23
47.3824362245
 14
46.3098086732
 24
-48.0175637755
 50
270.0
100
AcDbRotatedDimension
  0
DIMENSION
  5
247
100
AcDbEntity
  8
0
100
AcDbDimension
 62
7
  6
CONTINUOUS
  2
*D1
 10
-48.0901913265
 20
55.3824362245
 11
-0.3901913265
 21
55.3824362245
 70
160
 71
2
 42
95.4
  3
DIMSTYLE_1
100
AcDbAlignedDimension
 13
47.3098086735
 23
46.3824362242
 14
-48.0901913265
 24
46.3824362245
 50
180.0
100
AcDbRotatedDimension
  0
DIMENSION
  5
248
100
AcDbEntity
  8
0
100
AcDbDimension
 62
7
  6
CONTINUOUS
  2
*D2
 10
-83.1981505102
 20
55.3824362245
 11
-78.5981505102
 21
55.3824362245
 70
160
 71
2
 42
9.2
  3
DIMSTYLE_1
100
AcDbAlignedDimension
 13
-73.9981505102
 23
44.9783255232
 14
-83.1981505102
 24
25.2414320454
 50
180.0
100
AcDbRotatedDimension
  0
DIMENSION
  5
249
100
AcDbEntity
  8
0
100
AcDbDimension
 62
7
  6
CONTINUOUS
  2
*D3
 10
-73.3981505102
 20
65.3824362245
 11
-78.2981505102
 21
65.3824362245
 70
160
 71
2
 42
9.8
  3
DIMSTYLE_1
100
AcDbAlignedDimension
 13
-83.1981505102
 23
25.2414320454
 14
-73.3981505102
 24
26.3324362245
100
AcDbRotatedDimension
  0
LINE
  5
24A
100
AcDbEntity
  8
RACCORDO
100
AcDbLine
 62
7
  6
CONTINUOUS
 10
-48.0901913265
 20
46.3824362245
 11
-48.0901913265
 21
-47.0175637755
  0
LINE
  5
24B
100
AcDbEntity
  8
RACCORDO
100
AcDbLine
 62
253
  6
CONTINUOUS
 10
-47.5901913265
 20
46.3824362245
 11
-47.5901913265
 21
-47.0175637755
  0
LINE
  5
24C
100
AcDbEntity
  8
RACCORDO
100
AcDbLine
 62
253
  6
CONTINUOUS
 10
-47.0901913265
 20
-47.5175637755
 11
-47.0901913265
 21
-48.0175637755
  0
LINE
  5
24D
100
AcDbEntity
  8
RACCORDO
100
AcDbLine
 62
253
  6
CONTINUOUS
 10
-47.0901913265
 20
46.8824362245
 11
-47.0901913263
 21
47.3824362245
  0
LINE
  5
24E
100
AcDbEntity
  8
RACCORDO
100
AcDbLine
 62
7
  6
CONTINUOUS
 10
-47.0901913265
 20
-48.0175637755
 11
46.3098086735
 21
-48.0175637755
  0
LINE
  5
24F
100
AcDbEntity
  8
RACCORDO
100
AcDbLine
 62
253
  6
CONTINUOUS
 10
-47.0901913265
 20
-47.5175637755
 11
46.3098086735
 21
-47.5175637755
  0
LINE
  5
250
100
AcDbEntity
  8
RACCORDO
100
AcDbLine
 62
253
  6
CONTINUOUS
 10
46.8098086735
 20
-47.0175637755
 11
47.3098086735
 21
-47.0175637755
  0
LINE
  5
251
100
AcDbEntity
  8
RACCORDO
100
AcDbLine
 62
253
  6
CONTINUOUS
 10
-47.5901913265
 20
-47.0175637755
 11
-48.0901913265
 21
-47.0175637752
  0
LWPOLYLINE
  5
252
100
AcDbEntity
  8
RACCORDO
100
AcDbPolyline
 62
253
  6
CONTINUOUS
 90
22
 70
0
 10
-37.5490805341
 20
-25.8765595965
 10
-37.5471170252
 20
-25.9288630496
 10
-37.5412509735
 20
-25.9808729283
 10
-37.5315153088
 20
-26.0322985263
 10
-37.5179646426
 20
-26.0828523624
 10
-37.5006748084
 20
-26.132251935
 10
-37.4797423793
 20
-26.1802212808
 10
-37.4552843558
 20
-26.2264923741
 10
-37.4274375749
 20
-26.2708064901
 10
-37.3963577757
 20
-26.3129157991
 10
-37.3622189095
 20
-26.3525847577
 10
-37.3252117424
 20
-26.3895918836
 10
-37.2855427023
 20
-26.4237307406
 10
-37.2434332246
 20
-26.4548105797
 10
-37.1991188826
 20
-26.4826574058
 10
-37.1528476326
 20
-26.5071154049
 10
-37.1048782569
 20
-26.5280477391
 10
-37.0554787462
 20
-26.5453374512
 10
-37.0049250639
 20
-26.558887989
 10
-36.953499712
 20
-26.5686235381
 10
-36.9014901723
 20
-26.5744895063
 10
-36.8491871475
 20
-26.5764529831
  0
LINE
  5
253
100
AcDbEntity
  8
RACCORDO
100
AcDbLine
 62
7
  6
CONTINUOUS
 10
-37.5901913265
 20
25.2825428379
 11
-37.5901913265
 21
-25.9176703889
  0
LINE
  5
254
100
AcDbEntity
  8
RACCORDO
100
AcDbLine
 62
253
  6
CONTINUOUS
 10
-37.5490805341
 20
25.2414320454
 11
-37.5490805341
 21
-25.8765595965
  0
LINE
  5
255
100
AcDbEntity
  8
RACCORDO
100
AcDbLine
 62
253
  6
CONTINUOUS
 10
-37.2491262255
 20
25.2414320454
 11
-37.2491262255
 21
-25.879788731
  0
LINE
  5
256
100
AcDbEntity
  8
RACCORDO
100
AcDbLine
 62
253
  6
CONTINUOUS
 10
-36.8491871455
 20
25.941325432
 11
-36.8491871475
 21
25.6413711235
  0
LINE
  5
257
100
AcDbEntity
  8
RACCORDO
100
AcDbLine
 62
253
  6
CONTINUOUS
 10
-36.8491871461
 20
-26.5764529831
 11
-36.8491871475
 21
-26.2764986745
  0
LWPOLYLINE
  5
258
100
AcDbEntity
  8
RACCORDO
100
AcDbPolyline
 62
253
  6
CONTINUOUS
 90
22
 70
0
 10
-37.2491262255
 20
25.2414320454
 10
-37.2480034375
 20
25.2712499848
 10
-37.2447255512
 20
25.300634311
 10
-37.2392925668
 20
25.3295850241
 10
-37.2316517743
 20
25.3582733175
 10
-37.2218558836
 20
25.3865279977
 10
-37.2100630242
 20
25.4138354847
 10
-37.1962407228
 20
25.4401648309
 10
-37.1804214527
 20
25.465546984
 10
-37.162860763
 20
25.4895612064
 10
-37.1435250928
 20
25.5121874372
 10
-37.122448003
 20
25.5334457374
 10
-37.0999857256
 20
25.5529755521
 10
-37.0761168557
 20
25.5707438471
 10
-37.0508627982
 20
25.5867836566
 10
-37.0246439996
 20
25.6008335284
 10
-36.997433804
 20
25.6128600166
 10
-36.9692588673
 20
25.6228965671
 10
-36.9406196047
 20
25.6307820645
 10
-36.9116828211
 20
25.6364628038
 10
-36.8822817115
 20
25.6399924902
 10
-36.8524162759
 20
25.6413711235
  0
LWPOLYLINE
  5
259
100
AcDbEntity
  8
RACCORDO
100
AcDbPolyline
 62
253
  6
CONTINUOUS
 90
19
 70
0
 10
-34.9122078754
 20
22.6562509752
 10
-34.9095039793
 20
22.7129756957
 10
-34.9025157689
 20
22.7677834271
 10
-34.8912432442
 20
22.8206741695
 10
-34.8754479542
 20
22.8719533461
 10
-34.8553683499
 20
22.9213155335
 10
-34.831719784
 20
22.9678444624
 10
-34.8044806656
 20
23.011430429
 10
-34.7736725857
 20
23.0521831371
 10
-34.7400756695
 20
23.0895154282
 10
-34.7037217322
 20
23.1233536181
 10
-34.6645789587
 20
23.153771391
 10
-34.6233320289
 20
23.1804026414
 10
-34.5799831024
 20
23.2032403335
 10
-34.5345300196
 20
23.2222915031
 10
-34.4876509815
 20
23.2372111522
 10
-34.4395720549
 20
23.2478842813
 10
-34.390067173
 20
23.2544258899
 10
-34.3391363358
 20
23.2568359779
  0
LWPOLYLINE
  5
25A
100
AcDbEntity
  8
RACCORDO
100
AcDbPolyline
 62
253
  6
CONTINUOUS
 90
22
 70
0
 10
-34.2894463092
 20
-22.6222288676
 10
-34.2886901475
 20
-22.6376639099
 10
-34.2870538651
 20
-22.6536481146
 10
-34.2844435778
 20
-22.6701253748
 10
-34.280772991
 20
-22.686990794
 10
-34.2759471637
 20
-22.7042042387
 10
-34.2698423613
 20
-22.7217838378
 10
-34.2623538606
 20
-22.7396172318
 10
-34.2533830717
 20
-22.7575761547
 10
-34.2427849426
 20
-22.7756150336
 10
-34.2303977933
 20
-22.7936404266
 10
-34.2161853218
 20
-22.8113620779
 10
-34.2002273329
 20
-22.8284259517
 10
-34.1824379648
 20
-22.844690158
 10
-34.1628905296
 20
-22.8598620615
 10
-34.1420461562
 20
-22.8734680214
 10
-34.1201434229
 20
-22.8853285767
 10
-34.0972110762
 20
-22.8954022968
 10
-34.0734987385
 20
-22.9035555666
 10
-34.0492048467
 20
-22.9097149143
 10
-34.024463571
 20
-22.913840193
 10
-33.9994475935
 20
-22.9158927117
  0
LINE
  5
25B
100
AcDbEntity
  8
RACCORDO
100
AcDbLine
 62
253
  6
CONTINUOUS
 10
-34.2969622915
 20
-22.6263079635
 11
-34.2968850731
 21
-22.6310883571
  0
LWPOLYLINE
  5
25C
100
AcDbEntity
  8
RACCORDO
100
AcDbPolyline
 62
253
  6
CONTINUOUS
 90
19
 70
0
 10
-34.6167655611
 20
22.6562512511
 10
-34.6171166097
 20
22.6874957983
 10
-34.615009162
 20
22.7178964419
 10
-34.610534528
 20
22.7472712914
 10
-34.6038096953
 20
22.7754693276
 10
-34.5949414205
 20
22.802313915
 10
-34.5840224609
 20
22.8276026926
 10
-34.5711918781
 20
22.8511781683
 10
-34.5565924299
 20
22.8729506092
 10
-34.5403215531
 20
22.8928314874
 10
-34.5225382678
 20
22.9107030829
 10
-34.5033810958
 20
22.9265031561
 10
-34.4828966139
 20
22.9402162615
 10
-34.4612260468
 20
22.9517599936
 10
-34.4385193648
 20
22.9610634706
 10
-34.4148172419
 20
22.968099197
 10
-34.3902319747
 20
22.9728015746
 10
-34.3649579733
 20
22.9750948714
 10
-34.3391590874
 20
22.9749287232
  0
LINE
  5
25D
100
AcDbEntity
  8
RACCORDO
100
AcDbLine
 62
253
  6
CONTINUOUS
 10
-34.2895045594
 20
-22.6169226999
 11
-34.2894463092
 21
-22.6222288676
  0
LINE
  5
25E
100
AcDbEntity
  8
RACCORDO
100
AcDbLine
 62
253
  6
CONTINUOUS
 10
-34.2970087773
 20
-22.6215860777
 11
-34.2969622915
 21
-22.6263079635
  0
LINE
  5
25F
100
AcDbEntity
  8
RACCORDO
100
AcDbLine
 62
253
  6
CONTINUOUS
 10
-34.2970245305
 20
-22.6169226999
 11
-34.2970087773
 21
-22.6215860777
  0
LINE
  5
260
100
AcDbEntity
  8
RACCORDO
100
AcDbLine
 62
253
  6
CONTINUOUS
 10
-34.9122078754
 20
-23.2913785262
 11
-34.9122078754
 21
22.6562509752
  0
LINE
  5
261
100
AcDbEntity
  8
RACCORDO
100
AcDbLine
 62
253
  6
CONTINUOUS
 10
-34.6167655495
 20
-23.2913788526
 11
-34.6167655495
 21
22.6562512271
  0
LINE
  5
262
100
AcDbEntity
  8
RACCORDO
100
AcDbLine
 62
253
  6
CONTINUOUS
 10
-34.3391363358
 20
23.2568359779
 11
-34.3391363358
 21
22.9749281917
  0
LINE
  5
263
100
AcDbEntity
  8
RACCORDO
100
AcDbLine
 62
253
  6
CONTINUOUS
 10
-34.3391363358
 20
-23.8919635289
 11
-34.3391363358
 21
-23.6100557427
  0
LINE
  5
264
100
AcDbEntity
  8
RACCORDO
100
AcDbLine
 62
253
  6
CONTINUOUS
 10
-34.2970245305
 20
21.9817951489
 11
-34.2970245305
 21
-22.6169226999
  0
LINE
  5
265
100
AcDbEntity
  8
RACCORDO
100
AcDbLine
 62
253
  6
CONTINUOUS
 10
-34.2895045594
 20
21.9817951489
 11
-34.2895045594
 21
-22.6169226999
  0
LINE
  5
266
100
AcDbEntity
  8
RACCORDO
100
AcDbLine
 62
7
  6
CONTINUOUS
 10
-34.2823365473
 20
-22.6097546877
 11
-34.2823365473
 21
21.9746271367
  0
LINE
  5
267
100
AcDbEntity
  8
RACCORDO
100
AcDbLine
 62
253
  6
CONTINUOUS
 10
-33.9887767524
 20
-22.9161035099
 11
-33.9887767524
 21
-22.9461810471
  0
LINE
  5
268
100
AcDbEntity
  8
RACCORDO
100
AcDbLine
 62
253
  6
CONTINUOUS
 10
-33.9887767524
 20
22.2809759589
 11
-33.9887767529
 21
22.311053496
  0
LINE
  5
269
100
AcDbEntity
  8
RACCORDO
100
AcDbLine
 62
253
  6
CONTINUOUS
 10
-34.2968850731
 20
21.9959608061
 11
-34.2970245305
 21
21.9817951489
  0
LINE
  5
26A
100
AcDbEntity
  8
RACCORDO
100
AcDbLine
 62
253
  6
CONTINUOUS
 10
-34.2894463092
 20
21.9871013166
 11
-34.2895045594
 21
21.9817951489
  0
LWPOLYLINE
  5
26B
100
AcDbEntity
  8
RACCORDO
100
AcDbPolyline
 62
253
  6
CONTINUOUS
 90
22
 70
0
 10
-34.2968850731
 20
-22.6310883571
 10
-34.2971200748
 20
-22.6485114926
 10
-34.2964507248
 20
-22.6664202375
 10
-34.2947815786
 20
-22.6847653052
 10
-34.2920254497
 20
-22.7034613404
 10
-34.288083574
 20
-22.722462443
 10
-34.2828311478
 20
-22.7417575599
 10
-34.2761803607
 20
-22.7612566035
 10
-34.2680236812
 20
-22.7808290806
 10
-34.2581825585
 20
-22.8003673663
 10
-34.2465052783
 20
-22.8198012402
 10
-34.2329569111
 20
-22.8388438812
 10
-34.2175710989
 20
-22.8570492375
 10
-34.2002603858
 20
-22.874274537
 10
-34.1811104083
 20
-22.89025154
 10
-34.1605518947
 20
-22.9044429157
 10
-34.1388094222
 20
-22.9166475728
 10
-34.1159268169
 20
-22.9268485604
 10
-34.092162421
 20
-22.9349095306
 10
-34.0677174028
 20
-22.9407559622
 10
-34.0427228405
 20
-22.9443479906
 10
-34.0173504746
 20
-22.9456451177
  0
LWPOLYLINE
  5
26C
100
AcDbEntity
  8
RACCORDO
100
AcDbPolyline
 62
253
  6
CONTINUOUS
 90
10
 70
0
 10
-34.2894532644
 20
-22.6222289943
 10
-34.2896672065
 20
-22.6232066228
 10
-34.2900347704
 20
-22.6241866509
 10
-34.2905558432
 20
-22.6251687737
 10
-34.2912302647
 20
-22.6261526858
 10
-34.2920578277
 20
-22.6271380812
 10
-34.2930382778
 20
-22.6281246535
 10
-34.2941713136
 20
-22.6291120958
 10
-34.2954565868
 20
-22.6301001013
 10
-34.2968937023
 20
-22.6310883625
  0
LWPOLYLINE
  5
26D
100
AcDbEntity
  8
RACCORDO
100
AcDbPolyline
 62
253
  6
CONTINUOUS
 90
22
 70
0
 10
36.0688044944
 20
-26.5764529831
 10
36.1211079476
 20
-26.5744894742
 10
36.1731178263
 20
-26.5686234225
 10
36.2245434242
 20
-26.5588877578
 10
36.2750972603
 20
-26.5453370915
 10
36.3244968329
 20
-26.5280472574
 10
36.3724661787
 20
-26.5071148283
 10
36.4187372721
 20
-26.4826568048
 10
36.4630513881
 20
-26.4548100239
 10
36.5051606971
 20
-26.4237302247
 10
36.5448296556
 20
-26.3895913584
 10
36.5818367815
 20
-26.3525841914
 10
36.6159756386
 20
-26.3129151513
 10
36.6470554777
 20
-26.2708056735
 10
36.6749023037
 20
-26.2264913316
 10
36.6993603028
 20
-26.1802200816
 10
36.7202926371
 20
-26.1322507059
 10
36.7375823492
 20
-26.0828511952
 10
36.7511328869
 20
-26.0322975129
 10
36.7608684361
 20
-25.980872161
 10
36.7667344043
 20
-25.9288626213
 10
36.768697881
 20
-25.8765595965
  0
LWPOLYLINE
  5
26E
100
AcDbEntity
  8
RACCORDO
100
AcDbPolyline
 62
253
  6
CONTINUOUS
 90
22
 70
0
 10
-36.8491871475
 20
-26.2764986745
 10
-36.8790050865
 20
-26.2753758865
 10
-36.9083894124
 20
-26.2720980003
 10
-36.9373401253
 20
-26.2666650159
 10
-36.9660284183
 20
-26.2590242236
 10
-36.9942830983
 20
-26.2492283331
 10
-37.021590585
 20
-26.2374354739
 10
-37.0479199311
 20
-26.2236131728
 10
-37.073302084
 20
-26.207793903
 10
-37.0973163062
 20
-26.1902332137
 10
-37.119942537
 20
-26.1708975439
 10
-37.1412008371
 20
-26.1498204545
 10
-37.1607306518
 20
-26.1273581775
 10
-37.1784989468
 20
-26.103489308
 10
-37.1945387565
 20
-26.0782352509
 10
-37.2085886284
 20
-26.0520164528
 10
-37.2206151168
 20
-26.0248062576
 10
-37.2306516675
 20
-25.9966313214
 10
-37.2385371653
 20
-25.9679920591
 10
-37.244217905
 20
-25.9390552758
 10
-37.2477475917
 20
-25.9096541664
 10
-37.2491262255
 20
-25.879788731
  0
LWPOLYLINE
  5
26F
100
AcDbEntity
  8
RACCORDO
100
AcDbPolyline
 62
253
  6
CONTINUOUS
 90
10
 70
0
 10
-34.2894455341
 20
21.987101303
 10
-34.2896599975
 20
21.9880786957
 10
-34.2900280658
 20
21.9890585422
 10
-34.2905496259
 20
21.9900405414
 10
-34.2912245174
 20
21.9910243913
 10
-34.2920525328
 20
21.9920097897
 10
-34.2930334175
 20
21.9929964339
 10
-34.29416687
 20
21.9939840208
 10
-34.2954525419
 20
21.994972247
 10
-34.2968900377
 20
21.9959608085
  0
LWPOLYLINE
  5
270
100
AcDbEntity
  8
0
100
AcDbPolyline
 62
7
  6
CONTINUOUS
 90
52
 70
0
 10
3.2421932837
 20
-25.1401510816
 10
3.252348254
 20
-25.1377725286
 10
3.2624999147
 20
-25.1341725749
 10
3.2726482659
 20
-25.1293512206
 10
3.2827654841
 20
-25.1230659011
 10
3.2928793928
 20
-25.1155591809
 10
3.3030734626
 20
-25.1075587538
 10
3.3133707179
 20
-25.0992548151
 10
3.3237481342
 20
-25.0904571696
 10
3.3342201085
 20
-25.0813229249
 10
3.344806023
 20
-25.0719600664
 10
3.3554864955
 20
-25.0622606089
 10
3.3662177761
 20
-25.0520577039
 10
3.3770104127
 20
-25.041375093
 10
3.3878538574
 20
-25.0301890346
 10
3.3986727161
 20
-25.0182614569
 10
3.409479731
 20
-25.0055725266
 10
3.42026216
 20
-24.9921420768
 10
3.4309063819
 20
-24.9777915353
 10
3.4414251818
 20
-24.9624858083
 10
3.4518057746
 20
-24.9462599894
 10
3.4618961851
 20
-24.9290407875
 10
3.47171589
 20
-24.9108148539
 10
3.4812454125
 20
-24.8915955374
 10
3.4902743464
 20
-24.8713495921
 10
3.4988171228
 20
-24.8500775119
 10
3.5068593106
 20
-24.827778803
 10
3.5141472102
 20
-24.8044187384
 10
3.5206846619
 20
-24.7800151027
 10
3.5264678255
 20
-24.7545501114
 10
3.5312314805
 20
-24.7279356836
 10
3.5349919494
 20
-24.7001449198
 10
3.5377329098
 20
-24.6712047196
 10
3.5391401735
 20
-24.641107701
 10
3.5392906433
 20
-24.6098239664
 10
3.5381074165
 20
-24.5773834134
 10
3.5350455968
 20
-24.5438683537
 10
3.5302639173
 20
-24.5092194056
 10
3.523603645
 20
-24.4734959507
 10
3.5140436847
 20
-24.4369584453
 10
3.5014877062
 20
-24.3993028784
 10
3.4860320396
 20
-24.360833261
 10
3.4669445809
 20
-24.3227220826
 10
3.4432913535
 20
-24.2843742149
 10
3.4160063339
 20
-24.2463847861
 10
3.3871593473
 20
-24.2117116704
 10
3.3570112435
 20
-24.1813288184
 10
3.3253011728
 20
-24.1542622793
 10
3.2933164107
 20
-24.1305480751
 10
3.261486049
 20
-24.1101982128
 10
3.2293809959
 20
-24.0932006852
 10
3.1970012513
 20
-24.0795554924
  0
LWPOLYLINE
  5
271
100
AcDbEntity
  8
0
100
AcDbPolyline
 62
7
  6
CONTINUOUS
 90
10
 70
0
 10
2.5373235494
 20
-24.3906404373
 10
2.5760123371
 20
-24.3842057617
 10
2.61454837
 20
-24.3790311261
 10
2.6529316481
 20
-24.3751165308
 10
2.6911369567
 20
-24.3724549477
 10
2.7291895105
 20
-24.3710534048
 10
2.7671649537
 20
-24.3709329853
 10
2.805088501
 20
-24.3721007169
 10
2.8429349377
 20
-24.374549572
 10
2.8807042637
 20
-24.3782795504
  0
LWPOLYLINE
  5
272
100
AcDbEntity
  8
RACCORDO
100
AcDbPolyline
 62
253
  6
CONTINUOUS
 90
22
 70
0
 10
33.2190649405
 20
-22.9158927117
 10
33.243380323
 20
-22.9139264328
 10
33.2674304236
 20
-22.910003543
 10
33.2910571741
 20
-22.904161528
 10
33.3140725077
 20
-22.8964636608
 10
33.3363652125
 20
-22.8869640535
 10
33.3578901086
 20
-22.8756794554
 10
33.3786809814
 20
-22.8625464248
 10
33.3983902107
 20
-22.847733667
 10
33.4164776645
 20
-22.8317076425
 10
33.4328518542
 20
-22.8147218161
 10
33.4475560528
 20
-22.7969088457
 10
33.4604176912
 20
-22.7786978418
 10
33.4714543983
 20
-22.7603938686
 10
33.4808269197
 20
-22.7420844419
 10
33.4886474879
 20
-22.723883555
 10
33.4950108566
 20
-22.7059550261
 10
33.5000382904
 20
-22.68839455
 10
33.503861722
 20
-22.6711771801
 10
33.5065798512
 20
-22.6543435769
 10
33.5082812916
 20
-22.638007523
 10
33.5090636561
 20
-22.6222288676
  0
LWPOLYLINE
  5
273
100
AcDbEntity
  8
RACCORDO
100
AcDbPolyline
 62
253
  6
CONTINUOUS
 90
22
 70
0
 10
33.2373607996
 20
-22.9456352471
 10
33.2618493565
 20
-22.944392306
 10
33.2860198688
 20
-22.9410027276
 10
33.3097162828
 20
-22.9354953009
 10
33.3327692263
 20
-22.9279231499
 10
33.3550450941
 20
-22.9183285927
 10
33.3764414122
 20
-22.9067291521
 10
33.3969683826
 20
-22.8930509957
 10
33.4163060073
 20
-22.8774799709
 10
33.4339343794
 20
-22.8605279811
 10
33.4497479757
 20
-22.8424200944
 10
33.4637959955
 20
-22.8232983921
 10
33.4759496908
 20
-22.8036821689
 10
33.4862229619
 20
-22.7838700537
 10
33.4947698006
 20
-22.7639297297
 10
33.5017404245
 20
-22.7440426802
 10
33.5072398536
 20
-22.724374854
 10
33.5113699293
 20
-22.7049981359
 10
33.5142624718
 20
-22.6859196665
 10
33.5160203055
 20
-22.6671867464
 10
33.516733757
 20
-22.6488921064
 10
33.5165024201
 20
-22.6310883571
  0
LWPOLYLINE
  5
274
100
AcDbEntity
  8
RACCORDO
100
AcDbPolyline
 62
253
  6
CONTINUOUS
 90
6
 70
0
 10
33.2101599823
 20
-22.9160985549
 10
33.2119309867
 20
-22.9160816846
 10
33.2137070497
 20
-22.9160527822
 10
33.215488107
 20
-22.9160117305
 10
33.2172740929
 20
-22.9159584127
 10
33.2190649405
 20
-22.9158927117
  0
LWPOLYLINE
  5
275
100
AcDbEntity
  8
RACCORDO
100
AcDbPolyline
 62
253
  6
CONTINUOUS
 90
6
 70
0
 10
33.2130465372
 20
-22.9461680723
 10
33.2177690572
 20
-22.9461238091
 10
33.2225616594
 20
-22.9460482575
 10
33.2274243437
 20
-22.9459414175
 10
33.2323571101
 20
-22.945803289
 10
33.2373599587
 20
-22.9456338721
  0
LWPOLYLINE
  5
276
100
AcDbEntity
  8
RACCORDO
100
AcDbPolyline
 62
253
  6
CONTINUOUS
 90
19
 70
0
 10
-34.3391574861
 20
-23.6100562372
 10
-34.3649377094
 20
-23.6102239913
 10
-34.3901998302
 20
-23.607934223
 10
-34.414780045
 20
-23.6032357717
 10
-34.4384866464
 20
-23.5962019707
 10
-34.4612037857
 20
-23.5868975197
 10
-34.4828818861
 20
-23.57535266
 10
-34.5033673676
 20
-23.5616412496
 10
-34.5225234497
 20
-23.5458444316
 10
-34.5403070762
 20
-23.527975094
 10
-34.55658087
 20
-23.5080935734
 10
-34.5711838881
 20
-23.4863187583
 10
-34.5840173155
 20
-23.4627407954
 10
-34.5949380879
 20
-23.4374502336
 10
-34.6038076596
 20
-23.4106040059
 10
-34.6105334576
 20
-23.3824042691
 10
-34.6150087631
 20
-23.3530276062
 10
-34.6171165613
 20
-23.3226251682
 10
-34.6167655646
 20
-23.2913788838
  0
LINE
  5
277
100
AcDbEntity
  8
RACCORDO
100
AcDbLine
 62
7
  6
CONTINUOUS
 10
-36.8902979399
 20
-26.6175637755
 11
36.1099152869
 21
-26.6175637755
  0
LINE
  5
278
100
AcDbEntity
  8
RACCORDO
100
AcDbLine
 62
253
  6
CONTINUOUS
 10
-36.8491871475
 20
-26.5764529831
 11
36.0688044944
 21
-26.5764529831
  0
LINE
  5
279
100
AcDbEntity
  8
RACCORDO
100
AcDbLine
 62
253
  6
CONTINUOUS
 10
-36.8491871475
 20
-26.2764986745
 11
36.0720336228
 21
-26.2764986745
  0
LINE
  5
27A
100
AcDbEntity
  8
0
100
AcDbLine
 62
7
  6
CONTINUOUS
 10
-3.8369183265
 20
-26.1327377755
 11
-3.4506523265
 21
-26.1327377755
  0
LINE
  5
27B
100
AcDbEntity
  8
0
100
AcDbLine
 62
7
  6
CONTINUOUS
 10
-2.6130253265
 20
-26.1327377755
 11
-2.1747093265
 21
-26.1327377755
  0
LINE
  5
27C
100
AcDbEntity
  8
0
100
AcDbLine
 62
7
  6
CONTINUOUS
 10
-1.9387503265
 20
-26.1327377755
 11
-1.5194253265
 21
-26.1327377755
  0
LINE
  5
27D
100
AcDbEntity
  8
0
100
AcDbLine
 62
7
  6
CONTINUOUS
 10
-0.9106393265
 20
-26.1327377755
 11
-0.8491663265
 21
-26.1327377755
  0
LINE
  5
27E
100
AcDbEntity
  8
0
100
AcDbLine
 62
7
  6
CONTINUOUS
 10
0.2596606735
 20
-26.1327377755
 11
0.6932206735
 21
-26.1327377755
  0
LINE
  5
27F
100
AcDbEntity
  8
0
100
AcDbLine
 62
7
  6
CONTINUOUS
 10
-0.2379553265
 20
-26.1327377755
 11
0.1908336735
 21
-26.1327377755
  0
LINE
  5
280
100
AcDbEntity
  8
0
100
AcDbLine
 62
7
  6
CONTINUOUS
 10
1.5246286735
 20
-26.1327377755
 11
1.9865946735
 21
-26.1327377755
  0
LINE
  5
281
100
AcDbEntity
  8
0
100
AcDbLine
 62
7
  6
CONTINUOUS
 10
2.1153055495
 20
-26.1327381732
 11
2.551857433
 21
-26.1327381732
  0
LINE
  5
282
100
AcDbEntity
  8
0
100
AcDbLine
 62
7
  6
CONTINUOUS
 10
3.2230772115
 20
-26.1327381732
 11
3.6446858062
 21
-26.1327381732
  0
LINE
  5
283
100
AcDbEntity
  8
RACCORDO
100
AcDbLine
 62
253
  6
CONTINUOUS
 10
-37.5490805341
 20
-25.8765595945
 11
-37.2491262255
 21
-25.8765595965
  0
LINE
  5
284
100
AcDbEntity
  8
RACCORDO
100
AcDbLine
 62
253
  6
CONTINUOUS
 10
36.768697881
 20
-25.8765595951
 11
36.4687435725
 21
-25.8765595965
  0
LINE
  5
285
100
AcDbEntity
  8
0
100
AcDbLine
 62
7
  6
CONTINUOUS
 10
0.8141686735
 20
-25.7135387755
 11
1.4110816735
 21
-25.7135387755
  0
LINE
  5
286
100
AcDbEntity
  8
0
100
AcDbLine
 62
7
  6
CONTINUOUS
 10
1.3234846735
 20
-25.3891637755
 11
0.9038286735
 21
-25.3891637755
  0
LINE
  5
287
100
AcDbEntity
  8
0
100
AcDbLine
 62
7
  6
CONTINUOUS
 10
2.551857433
 20
-25.3109832625
 11
2.7868717477
 21
-25.3109832625
  0
LINE
  5
288
100
AcDbEntity
  8
0
100
AcDbLine
 62
7
  6
CONTINUOUS
 10
2.7878165289
 20
-24.9670829186
 11
2.5373235494
 21
-24.9670829186
  0
LINE
  5
289
100
AcDbEntity
  8
0
100
AcDbLine
 62
7
  6
CONTINUOUS
 10
1.3423166735
 20
-24.0329147755
 11
0.9182996735
 21
-24.0329147755
  0
LINE
  5
28A
100
AcDbEntity
  8
0
100
AcDbLine
 62
7
  6
CONTINUOUS
 10
-0.0055233265
 20
-24.0329147755
 11
-0.4391933265
 21
-24.0329147755
  0
LINE
  5
28B
100
AcDbEntity
  8
0
100
AcDbLine
 62
7
  6
CONTINUOUS
 10
-1.3111953265
 20
-24.0329147755
 11
-1.7491483265
 21
-24.0329147755
  0
LINE
  5
28C
100
AcDbEntity
  8
0
100
AcDbLine
 62
7
  6
CONTINUOUS
 10
-2.7756843265
 20
-24.0329147755
 11
-3.2137013265
 21
-24.0329147755
  0
LINE
  5
28D
100
AcDbEntity
  8
0
100
AcDbLine
 62
7
  6
CONTINUOUS
 10
-4.0264573265
 20
-24.0329147755
 11
-4.5026033265
 21
-24.0329147755
  0
LINE
  5
28E
100
AcDbEntity
  8
0
100
AcDbLine
 62
7
  6
CONTINUOUS
 10
-2.1747093265
 20
-24.0327887755
 11
-2.6130253265
 21
-24.0327887755
  0
LINE
  5
28F
100
AcDbEntity
  8
RACCORDO
100
AcDbLine
 62
253
  6
CONTINUOUS
 10
33.5587536827
 20
-23.8919635289
 11
-34.3391363358
 21
-23.8919635289
  0
LINE
  5
290
100
AcDbEntity
  8
RACCORDO
100
AcDbLine
 62
253
  6
CONTINUOUS
 10
33.5587400033
 20
-23.6100557427
 11
-34.3391572462
 21
-23.6100557427
  0
LINE
  5
291
100
AcDbEntity
  8
RACCORDO
100
AcDbLine
 62
253
  6
CONTINUOUS
 10
-34.9122078754
 20
-23.2913785262
 11
-34.6167655495
 21
-23.2913785262
  0
LINE
  5
292
100
AcDbEntity
  8
RACCORDO
100
AcDbLine
 62
253
  6
CONTINUOUS
 10
34.1318252223
 20
-23.2913785262
 11
33.8363828964
 21
-23.2913785264
  0
LINE
  5
293
100
AcDbEntity
  8
RACCORDO
100
AcDbLine
 62
253
  6
CONTINUOUS
 10
-33.9887767524
 20
-22.9461810471
 11
33.2130465372
 21
-22.9461680723
  0
LINE
  5
294
100
AcDbEntity
  8
RACCORDO
100
AcDbLine
 62
253
  6
CONTINUOUS
 10
-33.9887767524
 20
-22.9161035099
 11
33.2101599823
 21
-22.9160985549
  0
LINE
  5
295
100
AcDbEntity
  8
RACCORDO
100
AcDbLine
 62
7
  6
CONTINUOUS
 10
33.2019995857
 20
-22.9097089963
 11
-33.9823822388
 21
-22.9097089963
  0
LINE
  5
296
100
AcDbEntity
  8
RACCORDO
100
AcDbLine
 62
253
  6
CONTINUOUS
 10
33.5091219064
 20
-22.6169226999
 11
33.5166418775
 21
-22.6169226999
  0
LINE
  5
297
100
AcDbEntity
  8
RACCORDO
100
AcDbLine
 62
253
  6
CONTINUOUS
 10
-34.2895045594
 20
-22.6169226999
 11
-34.2970245305
 21
-22.6169226999
  0
LWPOLYLINE
  5
298
100
AcDbEntity
  8
RACCORDO
100
AcDbPolyline
 62
253
  6
CONTINUOUS
 90
7
 70
0
 10
-34.0173503356
 20
-22.9456448432
 10
-34.0125961075
 20
-22.9458084927
 10
-34.0078386651
 20
-22.9459424293
 10
-34.0030780084
 20
-22.9460466531
 10
-33.9983141374
 20
-22.9461211639
 10
-33.993547052
 20
-22.9461659619
 10
-33.9887767524
 20
-22.9461810471
  0
LWPOLYLINE
  5
299
100
AcDbEntity
  8
RACCORDO
100
AcDbPolyline
 62
253
  6
CONTINUOUS
 90
7
 70
0
 10
-33.9994475935
 20
-22.9158927117
 10
-33.9976854228
 20
-22.9159574948
 10
-33.9959166502
 20
-22.9160105351
 10
-33.9941413356
 20
-22.9160517446
 10
-33.9923595397
 20
-22.9160810354
 10
-33.9905713243
 20
-22.9160983198
 10
-33.9887767524
 20
-22.9161035099
  0
LWPOLYLINE
  5
29A
100
AcDbEntity
  8
RACCORDO
100
AcDbPolyline
 62
253
  6
CONTINUOUS
 90
19
 70
0
 10
-34.3391363358
 20
-23.8919635289
 10
-34.390030398
 20
-23.8895624106
 10
-34.4395113605
 20
-23.8830272798
 10
-34.4875792232
 20
-23.8723581363
 10
-34.5344659861
 20
-23.8574385748
 10
-34.5799396492
 20
-23.8383850008
 10
-34.6233042126
 20
-23.8155466305
 10
-34.6645535651
 20
-23.7889192729
 10
-34.7036938179
 20
-23.7585071191
 10
-34.7400473053
 20
-23.7246719592
 10
-34.7736492478
 20
-23.6873377506
 10
-34.8044644249
 20
-23.6465805359
 10
-34.8317095098
 20
-23.6029902321
 10
-34.8553616733
 20
-23.5564581025
 10
-34.8754437446
 20
-23.5070928838
 10
-34.8912408845
 20
-23.4558107041
 10
-34.902514813
 20
-23.4029169392
 10
-34.9095038099
 20
-23.3481062133
 10
-34.9122078754
 20
-23.2913785262
  0
LWPOLYLINE
  5
29B
100
AcDbEntity
  8
0
100
AcDbPolyline
 62
7
  6
CONTINUOUS
 90
13
 70
0
 10
2.7868717477
 20
-25.3109832625
 10
2.8143280571
 20
-25.3125384603
 10
2.8404135422
 20
-25.3165571658
 10
2.8651282029
 20
-25.323039379
 10
2.8883627471
 20
-25.3319354021
 10
2.910226467
 20
-25.3432949329
 10
2.9310472389
 20
-25.3572670647
 10
2.9510570624
 20
-25.3739111158
 10
2.9700239379
 20
-25.3931677678
 10
2.9875797423
 20
-25.4150081592
 10
3.0036017679
 20
-25.4394226692
 10
3.0182127224
 20
-25.4664209186
 10
3.0314126059
 20
-25.4960029073
  0
LWPOLYLINE
  5
29C
100
AcDbEntity
  8
0
100
AcDbPolyline
 62
7
  6
CONTINUOUS
 90
16
 70
0
 10
2.8807042637
 20
-24.3782795504
 10
2.9096653476
 20
-24.3832827727
 10
2.9371181239
 20
-24.3904015137
 10
2.9630625927
 20
-24.3996357735
 10
2.9876599345
 20
-24.4111243847
 10
3.0107489688
 20
-24.4247285147
 10
3.0318461542
 20
-24.440031665
 10
3.050776082
 20
-24.4569322812
 10
3.067714161
 20
-24.4755319177
 10
3.0827030756
 20
-24.4957187401
 10
3.0958862974
 20
-24.5177953094
 10
3.1071203549
 20
-24.5414590646
 10
3.1160175183
 20
-24.565690488
 10
3.1224485444
 20
-24.5901497406
 10
3.1265426764
 20
-24.6151766615
 10
3.1282999143
 20
-24.6407712506
  0
LINE
  5
29D
100
AcDbEntity
  8
RACCORDO
100
AcDbLine
 62
253
  6
CONTINUOUS
 10
-34.6167655495
 20
-23.2913788526
 11
-34.2968850731
 21
-22.6310883571
  0
LINE
  5
29E
100
AcDbEntity
  8
RACCORDO
100
AcDbLine
 62
253
  6
CONTINUOUS
 10
-34.3391572462
 20
-23.6100557427
 11
-34.0173503356
 21
-22.9456448432
  0
LWPOLYLINE
  5
29F
100
AcDbEntity
  8
0
100
AcDbPolyline
 62
7
  6
CONTINUOUS
 90
13
 70
0
 10
3.1970012513
 20
-24.0795554924
 10
3.1269426481
 20
-24.0581192613
 10
3.0529797131
 20
-24.040519158
 10
2.9751124464
 20
-24.0267551826
 10
2.8931492976
 20
-24.0170143741
 10
2.8072818171
 20
-24.0111096934
 10
2.718084656
 20
-24.0084800236
 10
2.6257057407
 20
-24.0090460066
 10
2.5299971448
 20
-24.0128870004
 10
2.4310897406
 20
-24.0196799622
 10
2.329027152
 20
-24.0293172112
 10
2.2237657549
 20
-24.0419064282
 10
2.1153055495
 20
-24.0574476132
  0
LINE
  5
2A0
100
AcDbEntity
  8
RACCORDO
100
AcDbLine
 62
253
  6
CONTINUOUS
 10
-34.2968850731
 20
21.9959608061
 11
-34.6167655495
 21
22.6562512271
  0
LINE
  5
2A1
100
AcDbEntity
  8
RACCORDO
100
AcDbLine
 62
253
  6
CONTINUOUS
 10
-34.017350415
 20
22.3105173011
 11
-34.3391588295
 21
22.9749281917
  0
LWPOLYLINE
  5
2A2
100
AcDbEntity
  8
RACCORDO
100
AcDbPolyline
 62
253
  6
CONTINUOUS
 90
10
 70
0
 10
33.2190649209
 20
22.2807646148
 10
33.220981734
 20
22.2813708581
 10
33.2229204149
 20
22.2826595122
 10
33.2248783149
 20
22.2846288147
 10
33.2268527589
 20
22.2872760725
 10
33.2288410489
 20
22.2905976649
 10
33.230840468
 20
22.2945890495
 10
33.2328482838
 20
22.2992447675
 10
33.2348617522
 20
22.3045584519
 10
33.2368781211
 20
22.3105228357
  0
LWPOLYLINE
  5
2A3
100
AcDbEntity
  8
RACCORDO
100
AcDbPolyline
 62
253
  6
CONTINUOUS
 90
10
 70
0
 10
33.2190649464
 20
-22.9158928776
 10
33.2209823027
 20
-22.9164989179
 10
33.2229213962
 20
-22.9177873176
 10
33.2248795751
 20
-22.9197563149
 10
33.2268541616
 20
-22.9224032173
 10
33.2288424554
 20
-22.9257244053
 10
33.2308417377
 20
-22.9297153372
 10
33.2328492743
 20
-22.9343705556
 10
33.23486232
 20
-22.9396836946
 10
33.2368781219
 20
-22.9456474887
  0
LINE
  5
2A4
100
AcDbEntity
  8
0
100
AcDbLine
 62
7
  6
CONTINUOUS
 10
-1.4248363265
 20
-24.7615927755
 11
-0.9106393265
 21
-26.1327377755
  0
LINE
  5
2A5
100
AcDbEntity
  8
0
100
AcDbLine
 62
7
  6
CONTINUOUS
 10
-0.8775093265
 20
-25.1987427755
 11
-1.3111953265
 21
-24.0329147755
  0
LINE
  5
2A6
100
AcDbEntity
  8
0
100
AcDbLine
 62
7
  6
CONTINUOUS
 10
-4.5026033265
 20
-24.0329147755
 11
-3.8369183265
 21
-26.1327377755
  0
LINE
  5
2A7
100
AcDbEntity
  8
0
100
AcDbLine
 62
7
  6
CONTINUOUS
 10
-3.6261923265
 20
-25.4782877755
 11
-4.0264573265
 21
-24.0329147755
  0
LINE
  5
2A8
100
AcDbEntity
  8
RACCORDO
100
AcDbLine
 62
253
  6
CONTINUOUS
 10
-34.2895045594
 20
-22.6169226999
 11
-34.2823365473
 21
-22.6097546877
  0
LINE
  5
2A9
100
AcDbEntity
  8
RACCORDO
100
AcDbLine
 62
253
  6
CONTINUOUS
 10
-37.5490805341
 20
-25.8765595965
 11
-37.5901913265
 21
-25.9176703889
  0
LINE
  5
2AA
100
AcDbEntity
  8
RACCORDO
100
AcDbLine
 62
253
  6
CONTINUOUS
 10
-33.9887767524
 20
-22.9161035099
 11
-33.9823822388
 21
-22.9097089963
  0
LINE
  5
2AB
100
AcDbEntity
  8
RACCORDO
100
AcDbLine
 62
253
  6
CONTINUOUS
 10
-36.8491871475
 20
-26.5764529831
 11
-36.8902979399
 21
-26.6175637755
  0
LINE
  5
2AC
100
AcDbEntity
  8
RACCORDO
100
AcDbLine
 62
253
  6
CONTINUOUS
 10
-34.2823365473
 20
21.9746271367
 11
-34.2895045594
 21
21.9817951489
  0
LINE
  5
2AD
100
AcDbEntity
  8
RACCORDO
100
AcDbLine
 62
253
  6
CONTINUOUS
 10
-37.5490805341
 20
25.2414320454
 11
-37.5901913265
 21
25.2825428379
  0
LINE
  5
2AE
100
AcDbEntity
  8
RACCORDO
100
AcDbLine
 62
253
  6
CONTINUOUS
 10
-33.9823822388
 20
22.2745814453
 11
-33.9887767524
 21
22.2809759589
  0
LINE
  5
2AF
100
AcDbEntity
  8
RACCORDO
100
AcDbLine
 62
253
  6
CONTINUOUS
 10
-36.8491871475
 20
25.941325432
 11
-36.8902979399
 21
25.9824362245
  0
LWPOLYLINE
  5
2B0
100
AcDbEntity
  8
0
100
AcDbPolyline
 62
7
  6
CONTINUOUS
 90
6
 70
0
 10
3.0314126059
 20
-25.4960029073
 10
3.0537015599
 20
-25.56126128
 10
3.0755041093
 20
-25.6279774292
 10
3.096820254
 20
-25.6961513547
 10
3.1173324167
 20
-25.7658967616
 10
3.1578502601
 20
-25.9094197894
  0
LINE
  5
2B1
100
AcDbEntity
  8
0
100
AcDbLine
 62
7
  6
CONTINUOUS
 10
1.9865946735
 20
-26.1327377755
 11
1.3423166735
 21
-24.0329147755
  0
LINE
  5
2B2
100
AcDbEntity
  8
0
100
AcDbLine
 62
7
  6
CONTINUOUS
 10
1.4110816735
 20
-25.7135387755
 11
1.5246286735
 21
-26.1327377755
  0
LINE
  5
2B3
100
AcDbEntity
  8
0
100
AcDbLine
 62
7
  6
CONTINUOUS
 10
1.1220726735
 20
-24.6098927755
 11
1.3234846735
 21
-25.3891637755
  0
LINE
  5
2B4
100
AcDbEntity
  8
0
100
AcDbLine
 62
7
  6
CONTINUOUS
 10
0.1908336735
 20
-26.1327377755
 11
-0.0055233265
 21
-24.0329147755
  0
LINE
  5
2B5
100
AcDbEntity
  8
0
100
AcDbLine
 62
7
  6
CONTINUOUS
 10
-0.3280083265
 20
-24.7673087755
 11
-0.2379553265
 21
-26.1327377755
  0
LINE
  5
2B6
100
AcDbEntity
  8
0
100
AcDbLine
 62
7
  6
CONTINUOUS
 10
-2.6130253265
 20
-24.0327887755
 11
-2.6130253265
 21
-26.1327377755
  0
LINE
  5
2B7
100
AcDbEntity
  8
0
100
AcDbLine
 62
7
  6
CONTINUOUS
 10
-2.1747093265
 20
-26.1327377755
 11
-2.1747093265
 21
-24.0327887755
  0
LINE
  5
2B8
100
AcDbEntity
  8
0
100
AcDbLine
 62
7
  6
CONTINUOUS
 10
3.1578502601
 20
-25.9094197894
 11
3.2230772115
 21
-26.1327381732
  0
LINE
  5
2B9
100
AcDbEntity
  8
0
100
AcDbLine
 62
7
  6
CONTINUOUS
 10
3.546293512
 20
-25.7572522887
 11
3.4948435135
 21
-25.5644050636
  0
LINE
  5
2BA
100
AcDbEntity
  8
0
100
AcDbLine
 62
7
  6
CONTINUOUS
 10
3.6446858062
 20
-26.1327381732
 11
3.546293512
 21
-25.7572522887
  0
LWPOLYLINE
  5
2BB
100
AcDbEntity
  8
0
100
AcDbPolyline
 62
7
  6
CONTINUOUS
 90
16
 70
0
 10
3.4948435135
 20
-25.5644050636
 10
3.4850488651
 20
-25.5255151532
 10
3.4742231533
 20
-25.4875075936
 10
3.4623663779
 20
-25.450382385
 10
3.4495263043
 20
-25.4137821019
 10
3.4356551672
 20
-25.3780641697
 10
3.4206096707
 20
-25.3443008643
 10
3.4042499429
 20
-25.3126045789
 10
3.3867158556
 20
-25.2828629202
 10
3.3682837286
 20
-25.2558109844
 10
3.3489416493
 20
-25.2316528606
 10
3.3287015303
 20
-25.2101844597
 10
3.3078754286
 20
-25.191528611
 10
3.2865673631
 20
-25.1757262576
 10
3.2646733148
 20
-25.1627364565
 10
3.2421932837
 20
-25.1525592076
  0
LINE
  5
2BC
100
AcDbEntity
  8
0
100
AcDbLine
 62
7
  6
CONTINUOUS
 10
2.1153055495
 20
-24.0574476132
 11
2.1153055495
 21
-26.1327381732
  0
LINE
  5
2BD
100
AcDbEntity
  8
0
100
AcDbLine
 62
7
  6
CONTINUOUS
 10
2.5373235494
 20
-24.9670829186
 11
2.5373235494
 21
-24.3906404373
  0
LINE
  5
2BE
100
AcDbEntity
  8
0
100
AcDbLine
 62
7
  6
CONTINUOUS
 10
2.551857433
 20
-26.1327381732
 11
2.551857433
 21
-25.3109832625
  0
LINE
  5
2BF
100
AcDbEntity
  8
0
100
AcDbLine
 62
7
  6
CONTINUOUS
 10
3.2421932837
 20
-25.1525592076
 11
3.2421932837
 21
-25.1401510816
  0
LWPOLYLINE
  5
2C0
100
AcDbEntity
  8
0
100
AcDbPolyline
 62
7
  6
CONTINUOUS
 90
19
 70
0
 10
3.1282999143
 20
-24.6407712506
 10
3.1267407365
 20
-24.6755996495
 10
3.1227927033
 20
-24.7087656309
 10
3.1164558148
 20
-24.7402691949
 10
3.1074597015
 20
-24.7703935455
 10
3.0960747329
 20
-24.7988554787
 10
3.0831120174
 20
-24.8248053816
 10
3.0689190888
 20
-24.8478250259
 10
3.0531484134
 20
-24.86833264
 10
3.0355684977
 20
-24.8867332962
 10
3.0162700123
 20
-24.90304768
 10
2.9951622868
 20
-24.9172551058
 10
2.9717418156
 20
-24.9296985899
 10
2.9456121633
 20
-24.9405265388
 10
2.9171697654
 20
-24.949590546
 10
2.8871004229
 20
-24.9567884079
 10
2.8556327362
 20
-24.9620860567
 10
2.8225381048
 20
-24.9655175603
 10
2.7878165289
 20
-24.9670829186
  0
LINE
  5
2C1
100
AcDbEntity
  8
0
100
AcDbLine
 62
7
  6
CONTINUOUS
 10
-1.5194253265
 20
-26.1327377755
 11
-1.4248363265
 21
-24.7615927755
  0
LINE
  5
2C2
100
AcDbEntity
  8
0
100
AcDbLine
 62
7
  6
CONTINUOUS
 10
-1.7491483265
 20
-24.0329147755
 11
-1.9387503265
 21
-26.1327377755
  0
LINE
  5
2C3
100
AcDbEntity
  8
0
100
AcDbLine
 62
7
  6
CONTINUOUS
 10
-3.2137013265
 20
-24.0329147755
 11
-3.6261923265
 21
-25.4782877755
  0
LINE
  5
2C4
100
AcDbEntity
  8
0
100
AcDbLine
 62
7
  6
CONTINUOUS
 10
-3.4506523265
 20
-26.1327377755
 11
-2.7756843265
 21
-24.0329147755
  0
LINE
  5
2C5
100
AcDbEntity
  8
0
100
AcDbLine
 62
7
  6
CONTINUOUS
 10
0.9038286735
 20
-25.3891637755
 11
1.1220726735
 21
-24.6098927755
  0
LINE
  5
2C6
100
AcDbEntity
  8
0
100
AcDbLine
 62
7
  6
CONTINUOUS
 10
0.6932206735
 20
-26.1327377755
 11
0.8141686735
 21
-25.7135387755
  0
LINE
  5
2C7
100
AcDbEntity
  8
0
100
AcDbLine
 62
7
  6
CONTINUOUS
 10
0.9182996735
 20
-24.0329147755
 11
0.2596606735
 21
-26.1327377755
  0
LINE
  5
2C8
100
AcDbEntity
  8
0
100
AcDbLine
 62
7
  6
CONTINUOUS
 10
-0.4391933265
 20
-24.0329147755
 11
-0.8775093265
 21
-25.1987427755
  0
LINE
  5
2C9
100
AcDbEntity
  8
0
100
AcDbLine
 62
7
  6
CONTINUOUS
 10
-0.8491663265
 20
-26.1327377755
 11
-0.3280083265
 21
-24.7673087755
  0
LINE
  5
2CA
100
AcDbEntity
  8
RACCORDO
100
AcDbLine
 62
253
  6
CONTINUOUS
 10
36.0688044944
 20
25.941325432
 11
36.1099152869
 21
25.9824362245
  0
LINE
  5
2CB
100
AcDbEntity
  8
RACCORDO
100
AcDbLine
 62
253
  6
CONTINUOUS
 10
33.2083940993
 20
22.2809759589
 11
33.2019995857
 21
22.2745814453
  0
LINE
  5
2CC
100
AcDbEntity
  8
RACCORDO
100
AcDbLine
 62
253
  6
CONTINUOUS
 10
36.768697881
 20
25.2414320454
 11
36.8098086735
 21
25.2825428379
  0
LINE
  5
2CD
100
AcDbEntity
  8
RACCORDO
100
AcDbLine
 62
253
  6
CONTINUOUS
 10
33.5091219064
 20
21.9817951489
 11
33.5019538943
 21
21.9746271367
  0
LINE
  5
2CE
100
AcDbEntity
  8
RACCORDO
100
AcDbLine
 62
253
  6
CONTINUOUS
 10
36.0688044944
 20
-26.5764529831
 11
36.1099152869
 21
-26.6175637755
  0
LINE
  5
2CF
100
AcDbEntity
  8
RACCORDO
100
AcDbLine
 62
253
  6
CONTINUOUS
 10
33.2083940993
 20
-22.9161035099
 11
33.2019995857
 21
-22.9097089963
  0
LINE
  5
2D0
100
AcDbEntity
  8
RACCORDO
100
AcDbLine
 62
253
  6
CONTINUOUS
 10
36.768697881
 20
-25.8765595965
 11
36.8098086735
 21
-25.9176703889
  0
LINE
  5
2D1
100
AcDbEntity
  8
RACCORDO
100
AcDbLine
 62
253
  6
CONTINUOUS
 10
33.5091219064
 20
-22.6169226999
 11
33.5019538943
 21
-22.6097546877
  0
LWPOLYLINE
  5
2D2
100
AcDbEntity
  8
RACCORDO
100
AcDbPolyline
 62
253
  6
CONTINUOUS
 90
10
 70
0
 10
-33.999447574
 20
-22.9158921659
 10
-34.0013643871
 20
-22.9164984091
 10
-34.003303068
 20
-22.9177870632
 10
-34.005260968
 20
-22.9197563657
 10
-34.007235412
 20
-22.9224036235
 10
-34.009223702
 20
-22.9257252159
 10
-34.0112231211
 20
-22.9297166005
 10
-34.0132309369
 20
-22.9343723186
 10
-34.0152444052
 20
-22.9396860029
 10
-34.0172607741
 20
-22.9456503867
  0
LWPOLYLINE
  5
2D3
100
AcDbEntity
  8
RACCORDO
100
AcDbPolyline
 62
253
  6
CONTINUOUS
 90
10
 70
0
 10
-33.9994475054
 20
22.2807626614
 10
-34.0013648685
 20
22.2813686967
 10
-34.0033039682
 20
22.2826571127
 10
-34.0052621534
 20
22.2846261474
 10
-34.007236747
 20
22.2872731081
 10
-34.0092250493
 20
22.2905943751
 10
-34.011224342
 20
22.2945854063
 10
-34.0132318917
 20
22.299240744
 10
-34.0152449536
 20
22.3045540218
 10
-34.0172607756
 20
22.3105179737
  0
LINE
  5
2D4
100
AcDbEntity
  8
RACCORDO
100
AcDbLine
 62
253
  6
CONTINUOUS
 10
33.5587745932
 20
22.9749281917
 11
33.2369676826
 21
22.3105172922
  0
LINE
  5
2D5
100
AcDbEntity
  8
RACCORDO
100
AcDbLine
 62
253
  6
CONTINUOUS
 10
33.8363828964
 20
22.6562513016
 11
33.5165024201
 21
21.9959608061
  0
LWPOLYLINE
  5
2D6
100
AcDbEntity
  8
RACCORDO
100
AcDbPolyline
 62
253
  6
CONTINUOUS
 90
6
 70
0
 10
-33.9905622824
 20
22.2809708518
 10
-33.9923450734
 20
22.2809537037
 10
-33.9941250625
 20
22.2809245373
 10
-33.995902187
 20
22.2808833756
 10
-33.9976763847
 20
22.2808302422
 10
-33.9994475935
 20
22.2807651606
  0
LWPOLYLINE
  5
2D7
100
AcDbEntity
  8
RACCORDO
100
AcDbPolyline
 62
253
  6
CONTINUOUS
 90
6
 70
0
 10
-33.9935242707
 20
22.3110380743
 10
-33.9982776926
 20
22.310993075
 10
-34.003037018
 20
22.310918498
 10
-34.0078022468
 20
22.3108143433
 10
-34.0125733792
 20
22.310680611
 10
-34.017350415
 20
22.3105173011
  0
LWPOLYLINE
  5
2D8
100
AcDbEntity
  8
RACCORDO
100
AcDbPolyline
 62
253
  6
CONTINUOUS
 90
19
 70
0
 10
33.5587748331
 20
22.9749286862
 10
33.5845550563
 20
22.9750964403
 10
33.6098171771
 20
22.9728066719
 10
33.634397392
 20
22.9681082207
 10
33.6581039933
 20
22.9610744197
 10
33.6808211326
 20
22.9517699687
 10
33.702499233
 20
22.940225109
 10
33.7229847145
 20
22.9265136986
 10
33.7421407967
 20
22.9107168806
 10
33.7599244231
 20
22.8928475429
 10
33.776198217
 20
22.8729660224
 10
33.7908012351
 20
22.8511912073
 10
33.8036346624
 20
22.8276132443
 10
33.8145554348
 20
22.8023226826
 10
33.8234250065
 20
22.7754764549
 10
33.8301508045
 20
22.747276718
 10
33.83462611
 20
22.7179000551
 10
33.8367339083
 20
22.6874976172
 10
33.8363829115
 20
22.6562513328
  0
LINE
  5
2D9
100
AcDbEntity
  8
RACCORDO
100
AcDbLine
 62
253
  6
CONTINUOUS
 10
33.5091219064
 20
21.9817951489
 11
33.5166418775
 21
21.9817951488
  0
LINE
  5
2DA
100
AcDbEntity
  8
RACCORDO
100
AcDbLine
 62
253
  6
CONTINUOUS
 10
-34.2895045594
 20
21.9817951489
 11
-34.2970245305
 21
21.9817951489
  0
LINE
  5
2DB
100
AcDbEntity
  8
RACCORDO
100
AcDbLine
 62
7
  6
CONTINUOUS
 10
-33.9823822388
 20
22.2745814453
 11
33.2019995857
 21
22.2745814453
  0
LINE
  5
2DC
100
AcDbEntity
  8
RACCORDO
100
AcDbLine
 62
253
  6
CONTINUOUS
 10
33.2083940993
 20
22.2809759589
 11
-33.9905622824
 21
22.2809708518
  0
LINE
  5
2DD
100
AcDbEntity
  8
RACCORDO
100
AcDbLine
 62
253
  6
CONTINUOUS
 10
33.2083940993
 20
22.3110534961
 11
-33.9935242707
 21
22.3110380743
  0
LINE
  5
2DE
100
AcDbEntity
  8
RACCORDO
100
AcDbLine
 62
253
  6
CONTINUOUS
 10
-34.9122078754
 20
22.6562509752
 11
-34.6167655495
 21
22.6562509752
  0
LINE
  5
2DF
100
AcDbEntity
  8
RACCORDO
100
AcDbLine
 62
253
  6
CONTINUOUS
 10
34.1318252223
 20
22.6562509752
 11
33.8363828964
 21
22.6562509752
  0
LINE
  5
2E0
100
AcDbEntity
  8
RACCORDO
100
AcDbLine
 62
253
  6
CONTINUOUS
 10
33.8363828964
 20
-23.2913785262
 11
33.5165024201
 21
-22.6310883571
  0
LINE
  5
2E1
100
AcDbEntity
  8
RACCORDO
100
AcDbLine
 62
253
  6
CONTINUOUS
 10
33.5587400033
 20
-23.6100557427
 11
33.2373599587
 21
-22.9456338721
  0
LWPOLYLINE
  5
2E2
100
AcDbEntity
  8
RACCORDO
100
AcDbPolyline
 62
253
  6
CONTINUOUS
 90
22
 70
0
 10
-33.9994475935
 20
22.2807651606
 10
-34.0244635699
 20
22.2787126419
 10
-34.049204845
 20
22.2745873634
 10
-34.0734987366
 20
22.2684280158
 10
-34.0972110748
 20
22.260274746
 10
-34.1201434224
 20
22.2502010257
 10
-34.1420461562
 20
22.2383404702
 10
-34.1628905294
 20
22.2247345106
 10
-34.1824379643
 20
22.2095626077
 10
-34.2002273323
 20
22.1932984016
 10
-34.2161853214
 20
22.1762345276
 10
-34.2303977933
 20
22.1585128757
 10
-34.242784943
 20
22.1404874817
 10
-34.2533830734
 20
22.1224485997
 10
-34.2623538632
 20
22.1044896733
 10
-34.2698423631
 20
22.0866562807
 10
-34.2759471621
 20
22.0690766946
 10
-34.2807729866
 20
22.0518632686
 10
-34.2844435737
 20
22.0349978599
 10
-34.2870538631
 20
22.0185205966
 10
-34.2886901473
 20
22.0025363799
 10
-34.2894463092
 20
21.9871013166
  0
LWPOLYLINE
  5
2E3
100
AcDbEntity
  8
RACCORDO
100
AcDbPolyline
 62
253
  6
CONTINUOUS
 90
22
 70
0
 10
-34.0173505489
 20
22.3105175648
 10
-34.0427228796
 20
22.3092204306
 10
-34.0677174161
 20
22.305628401
 10
-34.0921624183
 20
22.2997819723
 10
-34.1159268113
 20
22.2917210077
 10
-34.1388094228
 20
22.2815200254
 10
-34.1605518996
 20
22.2693153709
 10
-34.1811104124
 20
22.2551239941
 10
-34.2002603875
 20
22.2391469878
 10
-34.2175710972
 20
22.2219216855
 10
-34.2329569012
 20
22.2037163273
 10
-34.2465052603
 20
22.1846736856
 10
-34.2581825446
 20
22.1652398121
 10
-34.2680237045
 20
22.1457015247
 10
-34.2761804265
 20
22.1261290436
 10
-34.2828312102
 20
22.1066300027
 10
-34.2880835517
 20
22.0873349114
 10
-34.2920253227
 20
22.0683338487
 10
-34.2947814093
 20
22.0496378372
 10
-34.2964505843
 20
22.0312927633
 10
-34.2971199947
 20
22.0133839907
 10
-34.2968850731
 20
21.9959608061
  0
LINE
  5
2E4
100
AcDbEntity
  8
RACCORDO
100
AcDbLine
 62
253
  6
CONTINUOUS
 10
-34.3391588295
 20
22.9749281917
 11
33.5587745932
 21
22.9749281917
  0
LINE
  5
2E5
100
AcDbEntity
  8
RACCORDO
100
AcDbLine
 62
253
  6
CONTINUOUS
 10
-34.3391363358
 20
23.2568359779
 11
33.5587536827
 21
23.2568359779
  0
LINE
  5
2E6
100
AcDbEntity
  8
RACCORDO
100
AcDbLine
 62
253
  6
CONTINUOUS
 10
-37.5490805341
 20
25.241432044
 11
-37.2491262255
 21
25.2414320454
  0
LINE
  5
2E7
100
AcDbEntity
  8
RACCORDO
100
AcDbLine
 62
253
  6
CONTINUOUS
 10
36.768697881
 20
25.2414320435
 11
36.4687435725
 21
25.2414320454
  0
LINE
  5
2E8
100
AcDbEntity
  8
RACCORDO
100
AcDbLine
 62
253
  6
CONTINUOUS
 10
36.0688044944
 20
25.6413711235
 11
-36.8524162759
 21
25.6413711235
  0
LINE
  5
2E9
100
AcDbEntity
  8
RACCORDO
100
AcDbLine
 62
253
  6
CONTINUOUS
 10
36.0688044944
 20
25.941325432
 11
-36.8491871475
 21
25.941325432
  0
LINE
  5
2EA
100
AcDbEntity
  8
RACCORDO
100
AcDbLine
 62
7
  6
CONTINUOUS
 10
36.1099152869
 20
25.9824362245
 11
-36.8902979399
 21
25.9824362245
  0
LWPOLYLINE
  5
2EB
100
AcDbEntity
  8
RACCORDO
100
AcDbPolyline
 62
253
  6
CONTINUOUS
 90
7
 70
0
 10
33.2369676826
 20
22.3105172922
 10
33.2322134545
 20
22.3106809417
 10
33.2274560121
 20
22.3108148783
 10
33.2226953553
 20
22.310919102
 10
33.2179314843
 20
22.3109936129
 10
33.213164399
 20
22.3110384109
 10
33.2083940993
 20
22.3110534961
  0
LWPOLYLINE
  5
2EC
100
AcDbEntity
  8
RACCORDO
100
AcDbPolyline
 62
253
  6
CONTINUOUS
 90
7
 70
0
 10
33.2190649405
 20
22.2807651606
 10
33.2173027697
 20
22.2808299437
 10
33.2155339972
 20
22.2808829841
 10
33.2137586825
 20
22.2809241936
 10
33.2119768866
 20
22.2809534844
 10
33.2101886713
 20
22.2809707687
 10
33.2083940993
 20
22.2809759589
  0
LWPOLYLINE
  5
2ED
100
AcDbEntity
  8
RACCORDO
100
AcDbPolyline
 62
253
  6
CONTINUOUS
 90
22
 70
0
 10
36.0688044944
 20
25.6413711235
 10
36.0987866576
 20
25.6402356057
 10
36.1283276488
 20
25.6369222148
 10
36.1574274679
 20
25.631430951
 10
36.1862598674
 20
25.6237079268
 10
36.2146510948
 20
25.6138070296
 10
36.2420798928
 20
25.6018899216
 10
36.2685147594
 20
25.5879234731
 10
36.2939871965
 20
25.5719408138
 10
36.3180704526
 20
25.5542029951
 10
36.3407438631
 20
25.5346758376
 10
36.3620280927
 20
25.5133935207
 10
36.3815583831
 20
25.4907196341
 10
36.3993009933
 20
25.466632269
 10
36.4152896644
 20
25.4411533341
 10
36.4292608618
 20
25.4147121455
 10
36.4411804611
 20
25.3872771518
 10
36.4510825867
 20
25.3588799044
 10
36.4588060768
 20
25.3300443731
 10
36.4642972108
 20
25.3009452145
 10
36.4676097094
 20
25.2714077719
 10
36.4687435725
 20
25.2414320454
  0
LWPOLYLINE
  5
2EE
100
AcDbEntity
  8
RACCORDO
100
AcDbPolyline
 62
253
  6
CONTINUOUS
 90
19
 70
0
 10
33.5587536827
 20
23.2568359779
 10
33.609647745
 20
23.2544348596
 10
33.6591287074
 20
23.2478997287
 10
33.7071965701
 20
23.2372305853
 10
33.754083333
 20
23.2223110238
 10
33.7995569961
 20
23.2032574497
 10
33.8429215596
 20
23.1804190795
 10
33.884170912
 20
23.1537917219
 10
33.9233111648
 20
23.1233795681
 10
33.9596646523
 20
23.0895444082
 10
33.9932665947
 20
23.0522101996
 10
34.0240817718
 20
23.0114529849
 10
34.0513268567
 20
22.9678626811
 10
34.0749790203
 20
22.9213305515
 10
34.0950610916
 20
22.8719653328
 10
34.1108582314
 20
22.8206831531
 10
34.1221321599
 20
22.7677893882
 10
34.1291211569
 20
22.7129786622
 10
34.1318252223
 20
22.6562509752
  0
LWPOLYLINE
  5
2EF
100
AcDbEntity
  8
RACCORDO
100
AcDbPolyline
 62
253
  6
CONTINUOUS
 90
10
 70
0
 10
33.5090706113
 20
21.9871014433
 10
33.5092845534
 20
21.9880790718
 10
33.5096521173
 20
21.9890590999
 10
33.5101731901
 20
21.9900412226
 10
33.5108476117
 20
21.9910251347
 10
33.5116751747
 20
21.9920105302
 10
33.5126556248
 20
21.9929971025
 10
33.5137886605
 20
21.9939845448
 10
33.5150739337
 20
21.9949725502
 10
33.5165110492
 20
21.9959608115
  0
LWPOLYLINE
  5
2F0
100
AcDbEntity
  8
RACCORDO
100
AcDbPolyline
 62
253
  6
CONTINUOUS
 90
22
 70
0
 10
-36.8491871475
 20
25.941325432
 10
-36.9014906006
 20
25.9393619232
 10
-36.9535004794
 20
25.9334958715
 10
-37.0049260773
 20
25.9237602068
 10
-37.0554799134
 20
25.9102095405
 10
-37.104879486
 20
25.8929197064
 10
-37.1528488318
 20
25.8719872772
 10
-37.1991199252
 20
25.8475292538
 10
-37.2434340412
 20
25.8196824728
 10
-37.2855433501
 20
25.7886026737
 10
-37.3252123087
 20
25.7544638074
 10
-37.3622194346
 20
25.7174566404
 10
-37.3963582917
 20
25.6777876003
 10
-37.4274381307
 20
25.6356781225
 10
-37.4552849568
 20
25.5913637806
 10
-37.4797429559
 20
25.5450925305
 10
-37.5006752901
 20
25.4971231549
 10
-37.5179650022
 20
25.4477236442
 10
-37.53151554
 20
25.3971699619
 10
-37.5412510891
 20
25.34574461
 10
-37.5471170573
 20
25.2937350702
 10
-37.5490805341
 20
25.2414320454
  0
LWPOLYLINE
  5
2F1
100
AcDbEntity
  8
RACCORDO
100
AcDbPolyline
 62
253
  6
CONTINUOUS
 90
10
 70
0
 10
33.5090628692
 20
-22.6222288538
 10
33.5092773374
 20
-22.6232062218
 10
33.5096454118
 20
-22.6241860499
 10
33.5101669794
 20
-22.6251680368
 10
33.5108418799
 20
-22.6261518805
 10
33.5116699056
 20
-22.6271372787
 10
33.5126508021
 20
-22.628123929
 10
33.5137842678
 20
-22.6291115283
 10
33.5150699541
 20
-22.6300997731
 10
33.5165074659
 20
-22.6310883595
  0
LWPOLYLINE
  5
2F2
100
AcDbEntity
  8
RACCORDO
100
AcDbPolyline
 62
253
  6
CONTINUOUS
 90
22
 70
0
 10
33.5090636561
 20
21.9871013166
 10
33.5083074944
 20
22.0025363589
 10
33.5066712121
 20
22.0185205636
 10
33.5040609248
 20
22.0349978238
 10
33.5003903379
 20
22.0518632429
 10
33.4955645106
 20
22.0690766877
 10
33.4894597082
 20
22.0866562868
 10
33.4819712075
 20
22.1044896808
 10
33.4730004186
 20
22.1224486036
 10
33.4624022895
 20
22.1404874826
 10
33.4500151403
 20
22.1585128756
 10
33.4358026688
 20
22.1762345269
 10
33.4198446799
 20
22.1932984006
 10
33.4020553118
 20
22.209562607
 10
33.3825078765
 20
22.2247345105
 10
33.3616635032
 20
22.2383404703
 10
33.3397607698
 20
22.2502010257
 10
33.3168284232
 20
22.2602747458
 10
33.2931160855
 20
22.2684280156
 10
33.2688221937
 20
22.2745873633
 10
33.2440809179
 20
22.278712642
 10
33.2190649405
 20
22.2807651606
  0
LINE
  5
2F3
100
AcDbEntity
  8
RACCORDO
100
AcDbLine
 62
253
  6
CONTINUOUS
 10
33.5165796385
 20
21.9911804125
 11
33.5165024201
 21
21.9959608061
  0
LWPOLYLINE
  5
2F4
100
AcDbEntity
  8
RACCORDO
100
AcDbPolyline
 62
253
  6
CONTINUOUS
 90
19
 70
0
 10
33.8363828964
 20
-23.2913785262
 10
33.8367352126
 20
-23.3226006301
 10
33.8346322332
 20
-23.3529838004
 10
33.8301642382
 20
-23.3823463772
 10
33.8234477334
 20
-23.4105369112
 10
33.8145881158
 20
-23.4373792232
 10
33.8036752137
 20
-23.4626720171
 10
33.7908453568
 20
-23.4862587958
 10
33.7762411137
 20
-23.5080469753
 10
33.759961124
 20
-23.5279432847
 10
33.7421616494
 20
-23.5458306682
 10
33.7229833932
 20
-23.5616445094
 10
33.7024841597
 20
-23.5753627929
 10
33.6808151386
 20
-23.586900555
 10
33.6581195547
 20
-23.5961945326
 10
33.6344241022
 20
-23.6032251715
 10
33.6098355645
 20
-23.6079271712
 10
33.584552862
 20
-23.61022117
 10
33.5587398468
 20
-23.6100554193
  0
LINE
  5
2F5
100
AcDbEntity
  8
RACCORDO
100
AcDbLine
 62
253
  6
CONTINUOUS
 10
33.5091219064
 20
21.9817951489
 11
33.5090636561
 21
21.9871013166
  0
LINE
  5
2F6
100
AcDbEntity
  8
RACCORDO
100
AcDbLine
 62
253
  6
CONTINUOUS
 10
33.5166261243
 20
21.9864585267
 11
33.5165796385
 21
21.9911804125
  0
LINE
  5
2F7
100
AcDbEntity
  8
RACCORDO
100
AcDbLine
 62
253
  6
CONTINUOUS
 10
33.5166418775
 20
21.9817951489
 11
33.5166261243
 21
21.9864585267
  0
LINE
  5
2F8
100
AcDbEntity
  8
RACCORDO
100
AcDbLine
 62
253
  6
CONTINUOUS
 10
33.2083940993
 20
-22.9161035099
 11
33.2083940997
 21
-22.9461810471
  0
LINE
  5
2F9
100
AcDbEntity
  8
RACCORDO
100
AcDbLine
 62
253
  6
CONTINUOUS
 10
33.2083940993
 20
22.2809759589
 11
33.2083940993
 21
22.3110534961
  0
LINE
  5
2FA
100
AcDbEntity
  8
RACCORDO
100
AcDbLine
 62
7
  6
CONTINUOUS
 10
33.5019538943
 20
21.9746271367
 11
33.5019538943
 21
-22.6097546877
  0
LINE
  5
2FB
100
AcDbEntity
  8
RACCORDO
100
AcDbLine
 62
253
  6
CONTINUOUS
 10
33.5091219064
 20
-22.6169226999
 11
33.5091219064
 21
21.9817951489
  0
LINE
  5
2FC
100
AcDbEntity
  8
RACCORDO
100
AcDbLine
 62
253
  6
CONTINUOUS
 10
33.5166418775
 20
-22.6169226999
 11
33.5166418775
 21
21.9817951489
  0
LINE
  5
2FD
100
AcDbEntity
  8
RACCORDO
100
AcDbLine
 62
253
  6
CONTINUOUS
 10
33.5587536827
 20
23.2568359779
 11
33.5587536827
 21
22.9749281917
  0
LINE
  5
2FE
100
AcDbEntity
  8
RACCORDO
100
AcDbLine
 62
253
  6
CONTINUOUS
 10
33.5587536827
 20
-23.8919635289
 11
33.5587536827
 21
-23.6100557427
  0
LINE
  5
2FF
100
AcDbEntity
  8
RACCORDO
100
AcDbLine
 62
253
  6
CONTINUOUS
 10
33.8363828964
 20
22.6562513016
 11
33.8363828964
 21
-23.2913785262
  0
LINE
  5
300
100
AcDbEntity
  8
RACCORDO
100
AcDbLine
 62
253
  6
CONTINUOUS
 10
34.1318252223
 20
22.6562509752
 11
34.1318252223
 21
-23.2913785262
  0
LINE
  5
301
100
AcDbEntity
  8
RACCORDO
100
AcDbLine
 62
253
  6
CONTINUOUS
 10
36.068804493
 20
25.941325432
 11
36.0688044944
 21
25.6413711235
  0
LINE
  5
302
100
AcDbEntity
  8
RACCORDO
100
AcDbLine
 62
253
  6
CONTINUOUS
 10
36.0688044924
 20
-26.5764529831
 11
36.0688044944
 21
-26.2764986745
  0
LINE
  5
303
100
AcDbEntity
  8
RACCORDO
100
AcDbLine
 62
253
  6
CONTINUOUS
 10
33.5165024201
 20
-22.6310883571
 11
33.5166418775
 21
-22.6169226999
  0
LINE
  5
304
100
AcDbEntity
  8
RACCORDO
100
AcDbLine
 62
253
  6
CONTINUOUS
 10
33.5090636561
 20
-22.6222288676
 11
33.5091219064
 21
-22.6169226999
  0
LWPOLYLINE
  5
305
100
AcDbEntity
  8
RACCORDO
100
AcDbPolyline
 62
253
  6
CONTINUOUS
 90
22
 70
0
 10
33.5165024201
 20
21.9959608061
 10
33.5167374217
 20
22.0133839416
 10
33.5160680718
 20
22.0312926865
 10
33.5143989255
 20
22.0496377542
 10
33.5116427966
 20
22.0683337894
 10
33.507700921
 20
22.0873348919
 10
33.5024484948
 20
22.1066300089
 10
33.4957977076
 20
22.1261290525
 10
33.4876410281
 20
22.1457015295
 10
33.4777999054
 20
22.1652398153
 10
33.4661226253
 20
22.1846736892
 10
33.452574258
 20
22.2037163301
 10
33.4371884458
 20
22.2219216865
 10
33.4198777328
 20
22.239146986
 10
33.4007277553
 20
22.255123989
 10
33.3801692416
 20
22.2693153647
 10
33.3584267691
 20
22.2815200217
 10
33.3355441638
 20
22.2917210094
 10
33.311779768
 20
22.2997819796
 10
33.2873347497
 20
22.3056284111
 10
33.2623401875
 20
22.3092204396
 10
33.2369678216
 20
22.3105175666
  0
LWPOLYLINE
  5
306
100
AcDbEntity
  8
RACCORDO
100
AcDbPolyline
 62
253
  6
CONTINUOUS
 90
19
 70
0
 10
34.1318252223
 20
-23.2913785262
 10
34.1291323947
 20
-23.3480828933
 10
34.1221518765
 20
-23.4028774703
 10
34.1108836677
 20
-23.4557622572
 10
34.0950901572
 20
-23.50704373
 10
34.0750089561
 20
-23.5564154127
 10
34.0513528974
 20
-23.6029578775
 10
34.0240992159
 20
-23.6465629324
 10
33.9932706768
 20
-23.6873387694
 10
33.9596484094
 20
-23.7246905365
 10
33.9232569718
 20
-23.7585446721
 10
33.8840718059
 20
-23.7889747377
 10
33.842800366
 20
-23.8156065667
 10
33.7994570331
 20
-23.8384236851
 10
33.7540274263
 20
-23.8574425668
 10
33.7071758566
 20
-23.8723384666
 10
33.6591237614
 20
-23.883003136
 10
33.6096497034
 20
-23.8895448234
 10
33.5587536827
 20
-23.8919635289
  0
LWPOLYLINE
  5
307
100
AcDbEntity
  8
RACCORDO
100
AcDbPolyline
 62
253
  6
CONTINUOUS
 90
22
 70
0
 10
36.768697881
 20
25.2414320454
 10
36.7667343721
 20
25.2937354986
 10
36.7608683204
 20
25.3457453773
 10
36.7511326558
 20
25.3971709752
 10
36.7375819895
 20
25.4477248113
 10
36.7202921554
 20
25.497124384
 10
36.6993597262
 20
25.5450937298
 10
36.6749017028
 20
25.5913648231
 10
36.6470549218
 20
25.6356789391
 10
36.6159751227
 20
25.6777882481
 10
36.5818362564
 20
25.7174572066
 10
36.5448290894
 20
25.7544643326
 10
36.5051600493
 20
25.7886031896
 10
36.4630505715
 20
25.8196830287
 10
36.4187362296
 20
25.8475298548
 10
36.3724649795
 20
25.8719878539
 10
36.3244956039
 20
25.8929201881
 10
36.2750960932
 20
25.9102099002
 10
36.2245424109
 20
25.9237604379
 10
36.1731170589
 20
25.9334959871
 10
36.1211075192
 20
25.9393619553
 10
36.0688044944
 20
25.941325432
  0
LINE
  5
308
100
AcDbEntity
  8
RACCORDO
100
AcDbLine
 62
253
  6
CONTINUOUS
 10
36.4687435725
 20
-25.8765595965
 11
36.4687435725
 21
25.2414320454
  0
LINE
  5
309
100
AcDbEntity
  8
RACCORDO
100
AcDbLine
 62
253
  6
CONTINUOUS
 10
36.768697881
 20
-25.8765595965
 11
36.768697881
 21
25.2414320454
  0
LINE
  5
30A
100
AcDbEntity
  8
RACCORDO
100
AcDbLine
 62
7
  6
CONTINUOUS
 10
36.8098086735
 20
-25.9176703889
 11
36.8098086735
 21
25.2825428379
  0
LWPOLYLINE
  5
30B
100
AcDbEntity
  8
RACCORDO
100
AcDbPolyline
 62
253
  6
CONTINUOUS
 90
22
 70
0
 10
36.4687435725
 20
-25.8765595965
 10
36.4676207844
 20
-25.9063775358
 10
36.4643428982
 20
-25.935761862
 10
36.4589099137
 20
-25.9647125751
 10
36.4512691212
 20
-25.9934008685
 10
36.4414732305
 20
-26.0216555487
 10
36.4296803711
 20
-26.0489630357
 10
36.4158580697
 20
-26.0752923819
 10
36.4000387996
 20
-26.100674535
 10
36.3824781099
 20
-26.1246887574
 10
36.3631424397
 20
-26.1473149882
 10
36.3420653499
 20
-26.1685732884
 10
36.3196030725
 20
-26.1881031031
 10
36.2957342026
 20
-26.2058713981
 10
36.2704801451
 20
-26.2219112076
 10
36.2442613466
 20
-26.2359610794
 10
36.2170511509
 20
-26.2479875676
 10
36.1888762143
 20
-26.2580241181
 10
36.1602369516
 20
-26.2659096155
 10
36.131300168
 20
-26.2715903549
 10
36.1018990584
 20
-26.2751200412
 10
36.0720336228
 20
-26.2764986745
  0
LINE
  5
30C
100
AcDbEntity
  8
RACCORDO
100
AcDbLine
 62
253
  6
CONTINUOUS
 10
46.3098086735
 20
-47.5175637755
 11
46.3098086732
 21
-48.0175637755
  0
LINE
  5
30D
100
AcDbEntity
  8
RACCORDO
100
AcDbLine
 62
253
  6
CONTINUOUS
 10
46.3098086735
 20
46.8824362245
 11
46.3098086735
 21
47.3824362245
  0
LINE
  5
30E
100
AcDbEntity
  8
RACCORDO
100
AcDbLine
 62
253
  6
CONTINUOUS
 10
46.8098086735
 20
-47.0175637755
 11
46.8098086735
 21
46.3824362245
  0
LINE
  5
30F
100
AcDbEntity
  8
RACCORDO
100
AcDbLine
 62
7
  6
CONTINUOUS
 10
47.3098086735
 20
-47.0175637755
 11
47.3098086735
 21
46.3824362245
  0
LINE
  5
310
100
AcDbEntity
  8
RACCORDO
100
AcDbLine
 62
253
  6
CONTINUOUS
 10
46.8098086735
 20
46.3824362245
 11
47.3098086735
 21
46.3824362242
  0
LINE
  5
311
100
AcDbEntity
  8
RACCORDO
100
AcDbLine
 62
253
  6
CONTINUOUS
 10
-47.5901913265
 20
46.3824362245
 11
-48.0901913265
 21
46.3824362245
  0
LINE
  5
312
100
AcDbEntity
  8
RACCORDO
100
AcDbLine
 62
253
  6
CONTINUOUS
 10
46.3098086735
 20
46.8824362245
 11
-47.0901913265
 21
46.8824362245
  0
LINE
  5
313
100
AcDbEntity
  8
RACCORDO
100
AcDbLine
 62
7
  6
CONTINUOUS
 10
46.3098086735
 20
47.3824362245
 11
-47.0901913265
 21
47.3824362245
  0
LINE
  5
314
100
AcDbEntity
  8
RACCORDO
100
AcDbLine
 62
7
  6
CONTINUOUS
 10
-80.0481505102
 20
-48.0175637755
 11
-75.0981505102
 21
-48.0175637755
  0
LINE
  5
315
100
AcDbEntity
  8
RACCORDO
100
AcDbLine
 62
7
  6
CONTINUOUS
 10
-74.5981505102
 20
-45.6239261132
 11
-73.9981505102
 21
-45.6134530742
  0
LINE
  5
316
100
AcDbEntity
  8
RACCORDO
100
AcDbLine
 62
253
  6
CONTINUOUS
 10
-74.5981505102
 20
-47.0175637755
 11
-80.5481505102
 21
-47.0175637755
  0
LINE
  5
317
100
AcDbEntity
  8
RACCORDO
100
AcDbLine
 62
253
  6
CONTINUOUS
 10
-74.5981505102
 20
-43.6242307229
 11
-73.9981505102
 21
-43.6137576839
  0
LINE
  5
318
100
AcDbEntity
  8
0
100
AcDbLine
 62
7
  6
CONTINUOUS
 10
-73.3981505102
 20
-26.6675637755
 11
-73.9981505102
 21
-26.6710544734
  0
LINE
  5
319
100
AcDbEntity
  8
ASSI
100
AcDbLine
 62
7
  6
CONTINUOUS
 10
-73.8975120283
 20
-27.4684353267
 11
-73.9981505102
 21
-27.4686109741
  0
LINE
  5
31A
100
AcDbEntity
  8
0
100
AcDbLine
 62
253
  6
CONTINUOUS
 10
-73.6759216999
 20
-27.2453349652
 11
-73.9981505102
 21
-27.245480524
  0
LINE
  5
31B
100
AcDbEntity
  8
0
100
AcDbLine
 62
7
  6
CONTINUOUS
 10
-83.1981505102
 20
-26.1327381732
 11
-83.3981505102
 21
-26.1327381732
  0
LINE
  5
31C
100
AcDbEntity
  8
RACCORDO
100
AcDbLine
 62
253
  6
CONTINUOUS
 10
-82.9033862321
 20
-25.8765595951
 11
-83.1981505102
 21
-25.8765595965
  0
LINE
  5
31D
100
AcDbEntity
  8
0
100
AcDbLine
 62
253
  6
CONTINUOUS
 10
-83.1981505102
 20
-25.5644050636
 11
-83.3981505102
 21
-25.5644050636
  0
LINE
  5
31E
100
AcDbEntity
  8
0
100
AcDbLine
 62
7
  6
CONTINUOUS
 10
-73.5981505102
 20
-25.5175637755
 11
-73.9981505102
 21
-25.5175637755
  0
LINE
  5
31F
100
AcDbEntity
  8
RACCORDO
100
AcDbLine
 62
7
  6
CONTINUOUS
 10
-82.9033862321
 20
-26.5764529831
 11
-80.5481505102
 21
-26.6175637755
  0
LINE
  5
320
100
AcDbEntity
  8
RACCORDO
100
AcDbLine
 62
253
  6
CONTINUOUS
 10
-82.9033862321
 20
-25.8765595965
 11
-80.5481505102
 21
-25.9176703889
  0
LINE
  5
321
100
AcDbEntity
  8
0
100
AcDbLine
 62
7
  6
CONTINUOUS
 10
-73.587683319
 20
-26.1091901922
 11
-73.9981505102
 21
-26.0910557002
  0
LINE
  5
322
100
AcDbEntity
  8
ASSI
100
AcDbLine
 62
7
  6
CONTINUOUS
 10
-73.9481505102
 20
-25.3675637755
 11
-73.7481505102
 21
-25.3675637755
  0
LINE
  5
323
100
AcDbEntity
  8
0
100
AcDbLine
 62
7
  6
CONTINUOUS
 10
-83.1981505102
 20
-25.1525592076
 11
-83.3981505102
 21
-25.1525592076
  0
LINE
  5
324
100
AcDbEntity
  8
0
100
AcDbLine
 62
7
  6
CONTINUOUS
 10
-83.1981505102
 20
-25.1401510816
 11
-83.3981505102
 21
-25.1401510816
  0
LINE
  5
325
100
AcDbEntity
  8
0
100
AcDbLine
 62
253
  6
CONTINUOUS
 10
-83.1981505102
 20
-24.0795554924
 11
-83.3981505102
 21
-24.0795554924
  0
LINE
  5
326
100
AcDbEntity
  8
0
100
AcDbLine
 62
7
  6
CONTINUOUS
 10
-83.1981505102
 20
-24.0082774007
 11
-83.3981505102
 21
-24.0082774007
  0
LINE
  5
327
100
AcDbEntity
  8
ASSI
100
AcDbLine
 62
7
  6
CONTINUOUS
 10
-73.7481505102
 20
24.7324362245
 11
-73.5981505102
 21
24.8824362245
  0
LINE
  5
328
100
AcDbEntity
  8
ASSI
100
AcDbLine
 62
7
  6
CONTINUOUS
 10
-73.7481505102
 20
-25.3675637755
 11
-73.5981505102
 21
-25.5175637755
  0
LWPOLYLINE
  5
329
100
AcDbEntity
  8
RACCORDO
100
AcDbPolyline
 62
253
  6
CONTINUOUS
 90
5
 70
0
 10
-82.9033862321
 20
-26.5764529831
 10
-82.9037588491
 20
-26.5744894742
 10
-82.904104817
 20
-26.5686234225
 10
-82.9044196364
 20
-26.5588877578
 10
-82.9046974852
 20
-26.5453370915
  0
LINE
  5
32A
100
AcDbEntity
  8
RACCORDO
100
AcDbLine
 62
253
  6
CONTINUOUS
 10
-82.9046974852
 20
-26.5453370915
 11
-82.905138861
 21
-26.5071148283
  0
LINE
  5
32B
100
AcDbEntity
  8
RACCORDO
100
AcDbLine
 62
253
  6
CONTINUOUS
 10
-82.9033862321
 20
25.2414320454
 11
-82.9054251048
 21
25.6356789391
  0
LINE
  5
32C
100
AcDbEntity
  8
RACCORDO
100
AcDbLine
 62
253
  6
CONTINUOUS
 10
-82.905138861
 20
-26.5071148283
 11
-82.9055072876
 21
-26.4237302247
  0
LINE
  5
32D
100
AcDbEntity
  8
0
100
AcDbLine
 62
7
  6
CONTINUOUS
 10
-83.3981505102
 20
-26.1327381732
 11
-83.3981505102
 21
-24.00828541
  0
LINE
  5
32E
100
AcDbEntity
  8
RACCORDO
100
AcDbLine
 62
7
  6
CONTINUOUS
 10
-83.1981505102
 20
-26.2764986745
 11
-83.1981505102
 21
25.6413711235
  0
LINE
  5
32F
100
AcDbEntity
  8
RACCORDO
100
AcDbLine
 62
253
  6
CONTINUOUS
 10
-82.9033862321
 20
-25.8765595965
 11
-82.9033862321
 21
25.2414320454
  0
LINE
  5
330
100
AcDbEntity
  8
RACCORDO
100
AcDbLine
 62
253
  6
CONTINUOUS
 10
-82.9054251048
 20
25.6356789391
 11
-82.905507309
 21
25.7886031896
  0
LINE
  5
331
100
AcDbEntity
  8
RACCORDO
100
AcDbLine
 62
253
  6
CONTINUOUS
 10
-82.9055072876
 20
-26.4237302247
 11
-82.9053027384
 21
-26.2264913316
  0
LINE
  5
332
100
AcDbEntity
  8
RACCORDO
100
AcDbLine
 62
253
  6
CONTINUOUS
 10
-82.905507309
 20
25.7886031896
 11
-82.9051388938
 21
25.8719878539
  0
LINE
  5
333
100
AcDbEntity
  8
RACCORDO
100
AcDbLine
 62
253
  6
CONTINUOUS
 10
-82.9053027384
 20
-26.2264913316
 11
-82.9033862321
 21
-25.8765595965
  0
LWPOLYLINE
  5
334
100
AcDbEntity
  8
RACCORDO
100
AcDbPolyline
 62
253
  6
CONTINUOUS
 90
6
 70
0
 10
-82.9051388938
 20
25.8719878539
 10
-82.9046974997
 20
25.9102099002
 10
-82.9044196419
 20
25.9237604379
 10
-82.9041048179
 20
25.9334959871
 10
-82.903758848
 20
25.9393619553
 10
-82.9033862321
 20
25.941325432
  0
LINE
  5
335
100
AcDbEntity
  8
RACCORDO
100
AcDbLine
 62
7
  6
CONTINUOUS
 10
-80.5481505102
 20
-47.5175637755
 11
-80.5481505102
 21
46.8824362245
  0
LINE
  5
336
100
AcDbEntity
  8
RACCORDO
100
AcDbLine
 62
253
  6
CONTINUOUS
 10
-80.0481505102
 20
-48.0175637755
 11
-80.0481505102
 21
47.3824362245
  0
LINE
  5
337
100
AcDbEntity
  8
RACCORDO
100
AcDbLine
 62
253
  6
CONTINUOUS
 10
-75.0981505102
 20
47.3824362245
 11
-75.0981505102
 21
-48.0175637755
  0
LINE
  5
338
100
AcDbEntity
  8
RACCORDO
100
AcDbLine
 62
7
  6
CONTINUOUS
 10
-74.5981505102
 20
46.8824362245
 11
-74.5981505102
 21
-47.5175637755
  0
LINE
  5
339
100
AcDbEntity
  8
RACCORDO
100
AcDbLine
 62
7
  6
CONTINUOUS
 10
-73.9981505102
 20
44.9783255232
 11
-73.9981505102
 21
-45.6134530742
  0
LINE
  5
33A
100
AcDbEntity
  8
ASSI
100
AcDbLine
 62
253
  6
CONTINUOUS
 10
-73.587683319
 20
25.4740626412
 11
-73.587683319
 21
24.8827103175
  0
LINE
  5
33B
100
AcDbEntity
  8
ASSI
100
AcDbLine
 62
253
  6
CONTINUOUS
 10
-73.587683319
 20
-25.5178378686
 11
-73.587683319
 21
-26.1091901922
  0
LINE
  5
33C
100
AcDbEntity
  8
ASSI
100
AcDbLine
 62
7
  6
CONTINUOUS
 10
-73.3981505102
 20
-25.7175637755
 11
-73.3981505102
 21
-26.9675637755
  0
LINE
  5
33D
100
AcDbEntity
  8
ASSI
100
AcDbLine
 62
7
  6
CONTINUOUS
 10
-73.3981505102
 20
25.0824362245
 11
-73.3981505102
 21
26.3324362245
  0
LINE
  5
33E
100
AcDbEntity
  8
ASSI
100
AcDbLine
 62
7
  6
CONTINUOUS
 10
-73.9981505102
 20
-25.4175637755
 11
-73.9481505102
 21
-25.3675637755
  0
LINE
  5
33F
100
AcDbEntity
  8
ASSI
100
AcDbLine
 62
7
  6
CONTINUOUS
 10
-73.3981505102
 20
-26.9675637755
 11
-73.8989657033
 21
-27.4683789686
  0
LINE
  5
340
100
AcDbEntity
  8
ASSI
100
AcDbLine
 62
7
  6
CONTINUOUS
 10
-73.9981505102
 20
24.7824362245
 11
-73.9481505102
 21
24.7324362245
  0
LINE
  5
341
100
AcDbEntity
  8
ASSI
100
AcDbLine
 62
7
  6
CONTINUOUS
 10
-73.8989657033
 20
26.8332514176
 11
-73.3981505102
 21
26.3324362245
  0
LINE
  5
342
100
AcDbEntity
  8
0
100
AcDbLine
 62
7
  6
CONTINUOUS
 10
-73.587683319
 20
25.4740626412
 11
-73.9981505102
 21
25.4559281492
  0
LINE
  5
343
100
AcDbEntity
  8
RACCORDO
100
AcDbLine
 62
253
  6
CONTINUOUS
 10
-82.9033862321
 20
25.2414320454
 11
-80.5481505102
 21
25.2825428379
  0
LINE
  5
344
100
AcDbEntity
  8
ASSI
100
AcDbLine
 62
7
  6
CONTINUOUS
 10
-73.9481505102
 20
24.7324362245
 11
-73.7481505102
 21
24.7324362245
  0
LINE
  5
345
100
AcDbEntity
  8
0
100
AcDbLine
 62
7
  6
CONTINUOUS
 10
-73.5981505102
 20
24.8824362245
 11
-73.9981505102
 21
24.8824362245
  0
LINE
  5
346
100
AcDbEntity
  8
RACCORDO
100
AcDbLine
 62
253
  6
CONTINUOUS
 10
-82.9033862321
 20
25.2414320435
 11
-83.1981505102
 21
25.2414320454
  0
LINE
  5
347
100
AcDbEntity
  8
RACCORDO
100
AcDbLine
 62
7
  6
CONTINUOUS
 10
-82.9033862321
 20
25.941325432
 11
-80.5481505102
 21
25.9824362245
  0
LINE
  5
348
100
AcDbEntity
  8
0
100
AcDbLine
 62
253
  6
CONTINUOUS
 10
-73.6759216999
 20
26.6102074142
 11
-73.9981505102
 21
26.610352973
  0
LINE
  5
349
100
AcDbEntity
  8
ASSI
100
AcDbLine
 62
7
  6
CONTINUOUS
 10
-73.8975120283
 20
26.8333077756
 11
-73.9981505102
 21
26.8334834231
  0
LINE
  5
34A
100
AcDbEntity
  8
0
100
AcDbLine
 62
7
  6
CONTINUOUS
 10
-73.3981505102
 20
26.0324362245
 11
-73.9981505102
 21
26.0359269224
  0
LINE
  5
34B
100
AcDbEntity
  8
RACCORDO
100
AcDbLine
 62
253
  6
CONTINUOUS
 10
-74.5981505102
 20
46.3824362245
 11
-80.5481505102
 21
46.3824362245
  0
LINE
  5
34C
100
AcDbEntity
  8
RACCORDO
100
AcDbLine
 62
7
  6
CONTINUOUS
 10
-80.0481505102
 20
47.3824362245
 11
-75.0981505102
 21
47.3824362245
  0
LINE
  5
34D
100
AcDbEntity
  8
RACCORDO
100
AcDbLine
 62
253
  6
CONTINUOUS
 10
-74.5981505102
 20
42.9891031719
 11
-73.9981505102
 21
42.9786301329
  0
LINE
  5
34E
100
AcDbEntity
  8
RACCORDO
100
AcDbLine
 62
7
  6
CONTINUOUS
 10
-74.5981505102
 20
44.9887985622
 11
-73.9981505102
 21
44.9783255232
  0
ARC
  5
34F
100
AcDbEntity
  8
RACCORDO
100
AcDbCircle
 62
7
  6
CONTINUOUS
 10
-47.0901913265
 20
46.3824362245
 40
1.0
100
AcDbArc
 50
90.0
 51
180.0
  0
ARC
  5
350
100
AcDbEntity
  8
RACCORDO
100
AcDbCircle
 62
7
  6
CONTINUOUS
 10
46.3098086735
 20
46.3824362245
 40
1.0
100
AcDbArc
 50
0.0
 51
90.0
  0
ARC
  5
351
100
AcDbEntity
  8
RACCORDO
100
AcDbCircle
 62
7
  6
CONTINUOUS
 10
46.3098086735
 20
-47.0175637755
 40
1.0
100
AcDbArc
 50
270.0
 51
360.0
  0
ARC
  5
352
100
AcDbEntity
  8
RACCORDO
100
AcDbCircle
 62
7
  6
CONTINUOUS
 10
-47.0901913265
 20
-47.0175637755
 40
1.0
100
AcDbArc
 50
180.0
 51
270.0
  0
ARC
  5
353
100
AcDbEntity
  8
RACCORDO
100
AcDbCircle
 62
253
  6
CONTINUOUS
 10
-47.0901913265
 20
46.3824362245
 40
0.5
100
AcDbArc
 50
90.0
 51
180.0
  0
ARC
  5
354
100
AcDbEntity
  8
RACCORDO
100
AcDbCircle
 62
253
  6
CONTINUOUS
 10
46.3098086735
 20
46.3824362245
 40
0.5
100
AcDbArc
 50
0.0
 51
90.0
  0
ARC
  5
355
100
AcDbEntity
  8
RACCORDO
100
AcDbCircle
 62
253
  6
CONTINUOUS
 10
46.3098086735
 20
-47.0175637755
 40
0.5
100
AcDbArc
 50
270.0
 51
360.0
  0
ARC
  5
356
100
AcDbEntity
  8
RACCORDO
100
AcDbCircle
 62
253
  6
CONTINUOUS
 10
-47.0901913265
 20
-47.0175637755
 40
0.5
100
AcDbArc
 50
180.0
 51
270.0
  0
ARC
  5
357
100
AcDbEntity
  8
RACCORDO
100
AcDbCircle
 62
7
  6
CONTINUOUS
 10
-80.0481505102
 20
-47.5175637755
 40
0.5
100
AcDbArc
 50
180.0
 51
270.0
  0
ARC
  5
358
100
AcDbEntity
  8
RACCORDO
100
AcDbCircle
 62
7
  6
CONTINUOUS
 10
-80.0481505102
 20
46.8824362245
 40
0.5
100
AcDbArc
 50
90.0
 51
180.0
  0
ARC
  5
359
100
AcDbEntity
  8
RACCORDO
100
AcDbCircle
 62
7
  6
CONTINUOUS
 10
-75.0981505102
 20
46.8824362245
 40
0.5
100
AcDbArc
 50
0.0
 51
90.0
  0
ARC
  5
35A
100
AcDbEntity
  8
RACCORDO
100
AcDbCircle
 62
7
  6
CONTINUOUS
 10
-75.0981505102
 20
-47.5175637755
 40
0.5
100
AcDbArc
 50
270.0
 51
360.0
  0
ARC
  5
35B
100
AcDbEntity
  8
RACCORDO
100
AcDbCircle
 62
7
  6
CONTINUOUS
 10
-82.8981505102
 20
25.6413711235
 40
0.3
100
AcDbArc
 50
91.0
 51
180.0
  0
ARC
  5
35C
100
AcDbEntity
  8
RACCORDO
100
AcDbCircle
 62
7
  6
CONTINUOUS
 10
-82.8981505102
 20
-26.2764986745
 40
0.3
100
AcDbArc
 50
180.0
 51
269.0
  0
ARC
  5
35D
100
AcDbEntity
  8
ASSI
100
AcDbCircle
 62
7
  6
CONTINUOUS
 10
-73.5981505102
 20
25.0824362245
 40
0.2
100
AcDbArc
 50
270.0
 51
360.0
  0
ARC
  5
35E
100
AcDbEntity
  8
ASSI
100
AcDbCircle
 62
7
  6
CONTINUOUS
 10
-73.5981505102
 20
-25.7175637755
 40
0.2
100
AcDbArc
 50
0.0
 51
90.0
  0
ELLIPSE
  5
35F
100
AcDbEntity
  8
RACCORDO
100
AcDbEllipse
 62
7
  6
CONTINUOUS
 10
-36.8900846969
 20
25.2823295949
 30
0.0
 11
-0.4951255324
 21
0.4951255324
 31
0.0
 40
0.9996954599
 41
-0.7852458701
 42
0.7852458701
  0
ELLIPSE
  5
360
100
AcDbEntity
  8
RACCORDO
100
AcDbEllipse
 62
7
  6
CONTINUOUS
 10
-36.8900846969
 20
-25.9174571459
 30
0.0
 11
0.4951255324
 21
0.4951255324
 31
0.0
 40
0.9996954599
 41
-3.9268385237
 42
-2.3563467834
  0
ELLIPSE
  5
361
100
AcDbEntity
  8
RACCORDO
100
AcDbEllipse
 62
7
  6
CONTINUOUS
 10
36.1097020438
 20
-25.9174571459
 30
0.0
 11
-0.4951255324
 21
0.4951255324
 31
0.0
 40
0.9996954599
 41
-3.9268385237
 42
-2.3563467834
  0
ELLIPSE
  5
362
100
AcDbEntity
  8
RACCORDO
100
AcDbEllipse
 62
7
  6
CONTINUOUS
 10
36.1097020438
 20
25.2823295949
 30
0.0
 11
0.4951255324
 21
0.4951255324
 31
0.0
 40
0.9996954599
 41
-0.7852458701
 42
0.7852458701
  0
ELLIPSE
  5
363
100
AcDbEntity
  8
RACCORDO
100
AcDbEllipse
 62
7
  6
CONTINUOUS
 10
33.2019081958
 20
21.9745357469
 30
0.0
 11
0.2121966568
 21
0.2121966568
 31
0.0
 40
0.9996954599
 41
-0.7852458701
 42
0.7852458701
  0
ELLIPSE
  5
364
100
AcDbEntity
  8
RACCORDO
100
AcDbEllipse
 62
7
  6
CONTINUOUS
 10
33.2019081958
 20
-22.6096632979
 30
0.0
 11
0.2121966568
 21
-0.2121966568
 31
0.0
 40
0.9996954599
 41
-0.7852458701
 42
0.7852458701
  0
ELLIPSE
  5
365
100
AcDbEntity
  8
RACCORDO
100
AcDbEllipse
 62
7
  6
CONTINUOUS
 10
-33.9822908489
 20
21.9745357469
 30
0.0
 11
0.2121966568
 21
-0.2121966568
 31
0.0
 40
0.9996954599
 41
2.3563467834
 42
3.9268385237
  0
ELLIPSE
  5
366
100
AcDbEntity
  8
RACCORDO
100
AcDbEllipse
 62
7
  6
CONTINUOUS
 10
-33.9822908489
 20
-22.6096632979
 30
0.0
 11
-0.2121966568
 21
-0.2121966568
 31
0.0
 40
0.9996954599
 41
-0.7852458701
 42
0.7852458701
  0
ELLIPSE
  5
367
100
AcDbEntity
  8
ASSI
100
AcDbEllipse
 62
7
  6
CONTINUOUS
 10
-73.5981505102
 20
-26.3090022196
 30
0.0
 11
0.1417119467
 21
0.1422961243
 31
0.0
 40
0.9918061237
 41
-0.7833412615
 42
0.7350951877
  0
ELLIPSE
  5
368
100
AcDbEntity
  8
ASSI
100
AcDbEllipse
 62
7
  6
CONTINUOUS
 10
-73.5981505102
 20
25.6738746686
 30
0.0
 11
-0.1417119467
 21
0.1422961243
 31
0.0
 40
0.9918061237
 41
-3.8766878413
 42
-2.358251392
  0
ENDSEC
  0
SECTION
  2
OBJECTS
  0
DICTIONARY
  5
C
100
AcDbDictionary
280
0
281
1
  3
ACAD_GROUP
350
D
  3
ACAD_MLINESTYLE
350
17
  3
ACAD_LAYOUT
350
1A
  3
ACAD_PLOTSETTINGS
350
19
  3
ACAD_PLOTSTYLENAME
350
E
  0
DICTIONARY
  5
D
102
{ACAD_REACTORS
330
C
102
}
100
AcDbDictionary
280
0
281
1
  0
ACDBDICTIONARYWDFLT
  5
E
102
{ACAD_REACTORS
330
C
102
}
100
AcDbDictionary
281
1
  3
Normal
350
F
100
AcDbDictionaryWithDefault
340
F
  0
DICTIONARY
  5
17
102
{ACAD_REACTORS
330
C
102
}
100
AcDbDictionary
280
0
281
1
  3
Standard
350
18
  0
DICTIONARY
  5
19
102
{ACAD_REACTORS
330
C
102
}
100
AcDbDictionary
281
1
  0
DICTIONARY
  5
1A
102
{ACAD_REACTORS
330
C
102
}
100
AcDbDictionary
281
1
  3
Model
350
369
  3
Layout1
350
36A
  0
ACDBPLACEHOLDER
  5
F
102
{ACAD_REACTORS
330
E
102
}
  0
MLINESTYLE
  5
18
102
{ACAD_REACTORS
330
17
102
}
100
AcDbMlineStyle
  2
STANDARD
 70
0
  3

 62
256
 51
90.0
 52
90.0
 71
2
 49
0.5
 62
256
  6
BYLAYER
 49
-0.5
 62
256
  6
BYLAYER
  0
LAYOUT
  5
369
102
{ACAD_REACTORS
330
1A
102
}
100
AcDbPlotSettings
  1

  2
none_device
  4
ISO_A4_(297.00_x_210.00_MM)
  6

 40
0.0
 41
0.0
 42
0.0
 43
0.0
 44
297.0
 45
210.0
 46
0.0
 47
0.0
 48
0.0
 49
0.0
140
0.0
141
0.0
142
1.0
143
1.0
 70
1024
 72
1
 73
0
 74
0
  7

 75
0
147
1.0
148
0.0
149
0.0
100
AcDbLayout
  1
Model
 70
0
 71
0
 10
0.0
 20
0.0
 11
297.0
 21
210.0
 12
0.0
 22
0.0
 32
0.0
 14
0.0
 24
0.0
 34
0.0
 15
0.0
 25
0.0
 35
0.0
146
0.0
 13
0.0
 23
0.0
 33
0.0
 16
1.0
 26
0.0
 36
0.0
 17
0.0
 27
1.0
 37
0.0
 76
0
330
212
345
0
346
0
  0
LAYOUT
  5
36A
102
{ACAD_REACTORS
330
1A
102
}
100
AcDbPlotSettings
  1

  2
none_device
  4
ISO_A4_(297.00_x_210.00_MM)
  6

 40
0.0
 41
0.0
 42
0.0
 43
0.0
 44
297.0
 45
210.0
 46
0.0
 47
0.0
 48
0.0
 49
0.0
140
0.0
141
0.0
142
1.0
143
1.0
 70
0
 72
1
 73
0
 74
0
  7

 75
0
147
1.0
148
0.0
149
0.0
100
AcDbLayout
  1
Layout1
 70
0
 71
1
 10
0.0
 20
0.0
 11
297.0
 21
210.0
 12
0.0
 22
0.0
 32
0.0
 14
0.0
 24
0.0
 34
0.0
 15
0.0
 25
0.0
 35
0.0
146
0.0
 13
0.0
 23
0.0
 33
0.0
 16
1.0
 26
0.0
 36
0.0
 17
0.0
 27
1.0
 37
0.0
 76
0
330
213
345
0
346
0
  0
ENDSEC
  0
EOF
