  0
SECTION
  2
HEADER
  9
$ACADVER
  1
AC1015
  9
$DWGCODEPAGE
  3
ANSI_1252
  9
$EXTMAX
 10
297.0
 20
210.0
 30
0.0
  9
$EXTMIN
 10
0.0
 20
0.0
 30
0.0
  9
$LIMMIN
 10
0.0
 20
0.0
  9
$LIMMAX
 10
297.0
 20
210.0
  9
$VIEWCTR
 10
148.5
 20
105.0
  9
$VIEWSIZE
 40
210.0
  9
$CLAYER
  8
0
  9
$LTSCALE
 40
16.335
  9
$CELTYPE
  6
BYLAYER
  9
$DIMSCALE
 40
1.0
  9
$DIMASZ
 40
3.0
  9
$DIMEXO
 40
0.5
  9
$DIMDLI
 40
11.286
  9
$DIMEXE
 40
1.5
  9
$DIMCEN
 40
2.673
  9
$DIMLFAC
 40
1.0
  9
$DIMBLK
  1
_FILLED
  9
$DIMTXT
 40
3.0
  9
$DIMTOL
 70
1
  9
$DIMLIM
 70
0
  9
$DIMTFAC
 40
1.0
  9
$DIMTP
 40
0.01
  9
$DIMTM
 40
0.01
  9
$DIMGAP
 40
0.625
  9
$DIMDSEP
 70
44
  9
$PDMODE
 70
3
  9
$PDSIZE
 40
3.0
  9
$HANDSEED
  5
380
  9
$TILEMODE
 70
1
  9
$MEASUREMENT
 70
1
  9
$INSUNITS
 70
4
  0
ENDSEC
  0
SECTION
  2
CLASSES
  0
CLASS
  1
ACDBDICTIONARYWDFLT
  2
AcDbDictionaryWithDefault
  3
AutoCAD 2000
 90
0
280
0
281
0
  0
CLASS
  1
ACDBPLACEHOLDER
  2
AcDbPlaceHolder
  3
AutoCAD 2000
 90
0
280
0
281
0
  0
CLASS
  1
LAYOUT
  2
AcDbLayout
  3
AutoCAD 2000
 90
0
280
0
281
0
  0
ENDSEC
  0
SECTION
  2
TABLES
  0
TABLE
  2
VPORT
  5
8
100
AcDbSymbolTable
 70
2
  0
VPORT
  5
1F4
100
AcDbSymbolTableRecord
100
AcDbViewportTableRecord
  2
*ACTIVE
 70
0
 10
0.0
 20
0.0
 11
1.0
 21
1.0
 12
148.5
 22
105.0
 13
0.0
 23
0.0
 14
1.0
 24
1.0
 15
0.0
 25
0.0
 16
0.0
 26
0.0
 36
1.0
 17
0.0
 27
0.0
 37
0.0
 40
210.0
 41
1.4142857143
 42
50.0
 43
0.0
 44
0.0
 50
0.0
 51
0.0
 71
0
 72
100
 73
1
 74
1
 75
0
 76
0
 77
0
 78
0
  0
ENDTAB
  0
TABLE
  2
LTYPE
  5
5
100
AcDbSymbolTable
 70
6
  0
LTYPE
  5
14
100
AcDbSymbolTableRecord
100
AcDbLinetypeTableRecord
  2
BYBLOCK
 70
0
  3

 72
65
 73
0
 40
0.0
  0
LTYPE
  5
15
100
AcDbSymbolTableRecord
100
AcDbLinetypeTableRecord
  2
BYLAYER
 70
0
  3

 72
65
 73
0
 40
0.0
  0
LTYPE
  5
16
100
AcDbSymbolTableRecord
100
AcDbLinetypeTableRecord
  2
CONTINUOUS
 70
64
  3
Solid line
 72
65
 73
0
 40
0.0
  0
LTYPE
  5
1F5
100
AcDbSymbolTableRecord
100
AcDbLinetypeTableRecord
  2
CENTER
 70
64
  3
____ _ ____ _ ____ _ ____ _ ____ _ ____ _ ____
 72
65
 73
4
 40
0.6
 49
0.375
 74
0
 49
-0.075
 74
0
 49
0.075
 74
0
 49
-0.075
 74
0
  0
LTYPE
  5
1F6
100
AcDbSymbolTableRecord
100
AcDbLinetypeTableRecord
  2
HIDDEN
 70
64
  3
- - - - - - - - - - - - - - - - - - - -
 72
65
 73
2
 40
0.2
 49
0.1
 74
0
 49
-0.1
 74
0
  0
LTYPE
  5
1F7
100
AcDbSymbolTableRecord
100
AcDbLinetypeTableRecord
  2
PHANTOM
 70
64
  3
_____ _ _ _____ _ _ _____ _ _ _____
 72
65
 73
6
 40
0.8
 49
0.45
 74
0
 49
-0.05
 74
0
 49
0.1
 74
0
 49
-0.05
 74
0
 49
0.1
 74
0
 49
-0.05
 74
0
  0
LTYPE
  5
1F8
100
AcDbSymbolTableRecord
100
AcDbLinetypeTableRecord
  2
DOT
 70
64
  3
. . . . . . . . . . . . . . . . . . . .
 72
65
 73
2
 40
0.2
 49
0.1
 74
0
 49
-0.1
 74
0
  0
LTYPE
  5
1F9
100
AcDbSymbolTableRecord
100
AcDbLinetypeTableRecord
  2
DASHED
 70
64
  3
- - - - - - - - - - - - - - - - - - - -
 72
65
 73
2
 40
0.2
 49
0.1
 74
0
 49
-0.1
 74
0
  0
ENDTAB
  0
TABLE
  2
LAYER
  5
2
100
AcDbSymbolTable
 70
36
  0
LAYER
  5
10
100
AcDbSymbolTableRecord
100
AcDbLayerTableRecord
  2
0
 70
0
 62
7
  6
CONTINUOUS
370
-3
390
F
  0
LAYER
  5
1FA
100
AcDbSymbolTableRecord
100
AcDbLayerTableRecord
  2
DEFAULT_1
 70
0
 62
7
  6
CENTER
370
-3
390
F
  0
LAYER
  5
1FB
100
AcDbSymbolTableRecord
100
AcDbLayerTableRecord
  2
DEFAULT_2
 70
0
 62
7
  6
HIDDEN
370
-3
390
F
  0
LAYER
  5
1FC
100
AcDbSymbolTableRecord
100
AcDbLayerTableRecord
  2
DEFAULT_3
 70
0
 62
7
  6
PHANTOM
370
-3
390
F
  0
LAYER
  5
1FD
100
AcDbSymbolTableRecord
100
AcDbLayerTableRecord
  2
ASSI
 70
0
 62
7
  6
CONTINUOUS
370
-3
390
F
  0
LAYER
  5
1FE
100
AcDbSymbolTableRecord
100
AcDbLayerTableRecord
  2
COORDINATE
 70
0
 62
7
  6
CONTINUOUS
370
-3
390
F
  0
LAYER
  5
1FF
100
AcDbSymbolTableRecord
100
AcDbLayerTableRecord
  2
COORD_ORIGINE
 70
0
 62
7
  6
CONTINUOUS
370
-3
390
F
  0
LAYER
  5
200
100
AcDbSymbolTableRecord
100
AcDbLayerTableRecord
  2
COPY_PUBLISH
 70
0
 62
7
  6
CONTINUOUS
370
-3
390
F
  0
LAYER
  5
201
100
AcDbSymbolTableRecord
100
AcDbLayerTableRecord
  2
COSMETIC
 70
0
 62
7
  6
CONTINUOUS
370
-3
390
F
  0
LAYER
  5
202
100
AcDbSymbolTableRecord
100
AcDbLayerTableRecord
  2
CURVE
 70
0
 62
7
  6
CONTINUOUS
370
-3
390
F
  0
LAYER
  5
203
100
AcDbSymbolTableRecord
100
AcDbLayerTableRecord
  2
DRAFT
 70
0
 62
7
  6
CONTINUOUS
370
-3
390
F
  0
LAYER
  5
204
100
AcDbSymbolTableRecord
100
AcDbLayerTableRecord
  2
IMPORT_IGES
 70
0
 62
7
  6
CONTINUOUS
370
-3
390
F
  0
LAYER
  5
205
100
AcDbSymbolTableRecord
100
AcDbLayerTableRecord
  2
INTFCLR_2
 70
0
 62
7
  6
CONTINUOUS
370
-3
390
F
  0
LAYER
  5
206
100
AcDbSymbolTableRecord
100
AcDbLayerTableRecord
  2
PIANI
 70
0
 62
7
  6
CONTINUOUS
370
-3
390
F
  0
LAYER
  5
207
100
AcDbSymbolTableRecord
100
AcDbLayerTableRecord
  2
PIANI_ORIGINE
 70
0
 62
7
  6
CONTINUOUS
370
-3
390
F
  0
LAYER
  5
208
100
AcDbSymbolTableRecord
100
AcDbLayerTableRecord
  2
PIANI_RIFERIMENTO
 70
0
 62
7
  6
CONTINUOUS
370
-3
390
F
  0
LAYER
  5
209
100
AcDbSymbolTableRecord
100
AcDbLayerTableRecord
  2
PUNTI
 70
0
 62
7
  6
CONTINUOUS
370
-3
390
F
  0
LAYER
  5
20A
100
AcDbSymbolTableRecord
100
AcDbLayerTableRecord
  2
RACCORDO
 70
0
 62
7
  6
CONTINUOUS
370
-3
390
F
  0
LAYER
  5
20B
100
AcDbSymbolTableRecord
100
AcDbLayerTableRecord
  2
SMUSSO
 70
0
 62
7
  6
CONTINUOUS
370
-3
390
F
  0
LAYER
  5
20C
100
AcDbSymbolTableRecord
100
AcDbLayerTableRecord
  2
SNAPLINE
 70
0
 62
7
  6
CONTINUOUS
370
-3
390
F
  0
LAYER
  5
20D
100
AcDbSymbolTableRecord
100
AcDbLayerTableRecord
  2
SUPERFICI
 70
0
 62
7
  6
CONTINUOUS
370
-3
390
F
  0
LAYER
  5
20E
100
AcDbSymbolTableRecord
100
AcDbLayerTableRecord
  2
TRASH
 70
0
 62
7
  6
CONTINUOUS
370
-3
390
F
  0
LAYER
  5
20F
100
AcDbSymbolTableRecord
100
AcDbLayerTableRecord
  2
XSEC_DATUMS
 70
0
 62
7
  6
CONTINUOUS
370
-3
390
F
  0
ENDTAB
  0
TABLE
  2
STYLE
  5
3
100
AcDbSymbolTable
 70
1
  0
STYLE
  5
11
100
AcDbSymbolTableRecord
100
AcDbTextStyleTableRecord
  2
STANDARD
 70
0
 40
0.0
 41
0.8
 50
0.0
 71
0
 42
0.2
  3
txt
  4

  0
STYLE
  5
210
100
AcDbSymbolTableRecord
100
AcDbTextStyleTableRecord
  2
TEXTSTYLE_1
 70
0
 40
0.0
 41
0.8
 50
0.0
 71
0
 42
0.2
  3
gdt
  4

  0
ENDTAB
  0
TABLE
  2
VIEW
  5
6
100
AcDbSymbolTable
 70
0
  0
ENDTAB
  0
TABLE
  2
UCS
  5
7
100
AcDbSymbolTable
 70
0
  0
ENDTAB
  0
TABLE
  2
APPID
  5
9
100
AcDbSymbolTable
 70
1
  0
APPID
  5
211
100
AcDbSymbolTableRecord
100
AcDbRegAppTableRecord
  2
ACAD
 70
0
  0
ENDTAB
  0
TABLE
  2
BLOCK_RECORD
  5
1
100
AcDbSymbolTable
 70
0
  0
BLOCK_RECORD
  5
212
100
AcDbSymbolTableRecord
100
AcDbBlockTableRecord
  2
*Model_Space
  0
BLOCK_RECORD
  5
213
100
AcDbSymbolTableRecord
100
AcDbBlockTableRecord
  2
*Paper_Space
  0
BLOCK_RECORD
  5
214
100
AcDbSymbolTableRecord
100
AcDbBlockTableRecord
  2
_FILLED
  0
BLOCK_RECORD
  5
215
100
AcDbSymbolTableRecord
100
AcDbBlockTableRecord
  2
*D0
  0
BLOCK_RECORD
  5
216
100
AcDbSymbolTableRecord
100
AcDbBlockTableRecord
  2
*D1
  0
BLOCK_RECORD
  5
217
100
AcDbSymbolTableRecord
100
AcDbBlockTableRecord
  2
*D2
  0
BLOCK_RECORD
  5
218
100
AcDbSymbolTableRecord
100
AcDbBlockTableRecord
  2
*D3
  0
ENDTAB
  0
TABLE
  2
DIMSTYLE
  5
A
100
AcDbSymbolTable
 70
1
100
AcDbDimStyleTable
 71
0
  0
DIMSTYLE
105
219
100
AcDbSymbolTableRecord
100
AcDbDimStyleTableRecord
  2
STANDARD
 70
0
  3

  4

 40
1.0
 41
3.0
 42
0.5
 43
0.38
 44
1.5
 45
0.0
 46
0.0
 47
0.01
 48
0.01
140
3.0
141
0.09
142
0.0
143
25.4
144
1.0
145
0.0
146
1.0
147
0.625
 71
1.0
 72
0.0
 73
0
 74
0
 75
0
 76
0
 77
1
 78
8
170
0
171
2
172
0
173
0
174
0
175
0
176
0
177
0
178
0
270
2
271
2
272
2
273
2
274
2
275
0
280
0
281
0
282
0
283
1
284
8
285
0
286
0
287
3
288
0
340
11
278
44
341
214
342
214
343
214
344
214
  0
DIMSTYLE
105
21A
100
AcDbSymbolTableRecord
100
AcDbDimStyleTableRecord
  2
DIMSTYLE_1
 70
0
  3

  4

 40
1.0
 41
3.0
 42
0.5
 43
0.38
 44
1.5
 45
0.0
 46
0.0
 47
0.0
 48
0.0
140
3.0
141
0.09
142
0.0
143
25.4
144
1.0
145
0.0
146
1.0
147
0.75
 71
0.0
 72
0.0
 73
0
 74
0
 75
0
 76
0
 77
1
 78
8
170
0
171
2
172
0
173
0
174
0
175
0
176
0
177
0
178
0
270
2
271
2
272
2
273
2
274
2
275
0
280
0
281
0
282
0
283
1
284
8
285
0
286
0
287
3
288
0
340
11
278
44
341
214
342
214
343
214
344
214
  0
ENDTAB
  0
ENDSEC
  0
SECTION
  2
BLOCKS
  0
BLOCK
  5
20
100
AcDbEntity
  8
0
100
AcDbBlockBegin
  2
*Model_Space
 70
0
 10
0.0
 20
0.0
 30
0.0
  3
*Model_Space
  1

  0
ENDBLK
  5
21
100
AcDbEntity
  8
0
100
AcDbBlockEnd
  0
BLOCK
  5
1C
100
AcDbEntity
  8
0
100
AcDbBlockBegin
  2
*Paper_Space
 70
0
 10
0.0
 20
0.0
 30
0.0
  3
*Paper_Space
  1

  0
ENDBLK
  5
1D
100
AcDbEntity
  8
0
100
AcDbBlockEnd
  0
BLOCK
  5
21B
100
AcDbEntity
  8
0
100
AcDbBlockBegin
  2
_FILLED
 70
64
 10
0.0
 20
0.0
  3
_FILLED
  1

  0
SOLID
  5
21C
100
AcDbEntity
  8
0
  6
BYBLOCK
 62
0
100
AcDbTrace
 10
0.0
 20
0.0
 11
-1.0
 21
0.3166666667
 12
-1.0
 22
-0.3166666667
 13
-1.0
 23
-0.3166666667
  0
ENDBLK
  5
21D
100
AcDbEntity
  8
0
  6
BYBLOCK
 62
0
100
AcDbBlockEnd
  0
BLOCK
  5
21E
100
AcDbEntity
  8
0
100
AcDbBlockBegin
 62
7
  6
CONTINUOUS
  2
*D0
 70
65
 10
0.0
 20
0.0
  3
*D0
  1

  0
MTEXT
  5
21F
100
AcDbEntity
  8
0
100
AcDbMText
 62
7
  6
CONTINUOUS
  7
STANDARD
 71
1
 72
1
 10
-75.2242317587
 20
60.1211734694
 30
0.0
 11
1.0
 21
0.0
 31
0.0
 44
0.9
  1
9,25
 40
3.0
 41
8.5714285714
  0
LINE
  5
220
100
AcDbEntity
  8
0
100
AcDbLine
 62
7
  6
CONTINUOUS
 10
-78.8445566327
 20
47.3211734694
 11
-78.8445566327
 21
57.8711734694
  0
LINE
  5
221
100
AcDbEntity
  8
0
100
AcDbLine
 62
7
  6
CONTINUOUS
 10
-88.0945566327
 20
26.7301692903
 11
-88.0945566327
 21
57.8711734694
  0
LINE
  5
222
100
AcDbEntity
  8
0
100
AcDbLine
 62
7
  6
CONTINUOUS
 10
-78.8445566327
 20
56.3711734694
 11
-83.4695566327
 21
56.3711734694
  0
LINE
  5
223
100
AcDbEntity
  8
0
100
AcDbLine
 62
7
  6
CONTINUOUS
 10
-83.4695566327
 20
56.3711734694
 11
-66.6528031872
 21
56.3711734694
  0
LINE
  5
224
100
AcDbEntity
  8
0
100
AcDbLine
 62
7
  6
CONTINUOUS
 10
-88.0945566327
 20
56.3711734694
 11
-83.4695566327
 21
56.3711734694
  0
INSERT
  5
225
100
AcDbEntity
  8
0
100
AcDbBlockReference
 62
7
  6
CONTINUOUS
  2
_FILLED
 10
-78.8445566327
 20
56.3711734694
 41
3.0
 42
3.0
 43
3.0
  0
INSERT
  5
226
100
AcDbEntity
  8
0
100
AcDbBlockReference
 62
7
  6
CONTINUOUS
  2
_FILLED
 10
-88.0945566327
 20
56.3711734694
 41
3.0
 42
3.0
 43
3.0
 50
180.0
  0
ENDBLK
  5
227
100
AcDbEntity
  8
0
  6
BYBLOCK
 62
0
100
AcDbBlockEnd
  0
BLOCK
  5
228
100
AcDbEntity
  8
0
100
AcDbBlockBegin
 62
7
  6
CONTINUOUS
  2
*D1
 70
65
 10
0.0
 20
0.0
  3
*D1
  1

  0
MTEXT
  5
229
100
AcDbEntity
  8
0
100
AcDbMText
 62
7
  6
CONTINUOUS
  7
STANDARD
 71
1
 72
1
 10
-75.46119038
 20
70.1211734694
 30
0.0
 11
1.0
 21
0.0
 31
0.0
 44
0.9
  1
9,85
 40
3.0
 41
8.5714285714
  0
LINE
  5
22A
100
AcDbEntity
  8
0
100
AcDbLine
 62
7
  6
CONTINUOUS
 10
-88.0945566327
 20
26.7301692903
 11
-88.0945566327
 21
67.8711734694
  0
LINE
  5
22B
100
AcDbEntity
  8
0
100
AcDbLine
 62
7
  6
CONTINUOUS
 10
-78.2445566327
 20
27.5211734694
 11
-78.2445566327
 21
67.8711734694
  0
LINE
  5
22C
100
AcDbEntity
  8
0
100
AcDbLine
 62
7
  6
CONTINUOUS
 10
-88.0945566327
 20
66.3711734694
 11
-83.1695566327
 21
66.3711734694
  0
LINE
  5
22D
100
AcDbEntity
  8
0
100
AcDbLine
 62
7
  6
CONTINUOUS
 10
-78.2445566327
 20
66.3711734694
 11
-83.1695566327
 21
66.3711734694
  0
LINE
  5
22E
100
AcDbEntity
  8
0
100
AcDbLine
 62
7
  6
CONTINUOUS
 10
-83.1695566327
 20
66.3711734694
 11
-66.8897618085
 21
66.3711734694
  0
INSERT
  5
22F
100
AcDbEntity
  8
0
100
AcDbBlockReference
 62
7
  6
CONTINUOUS
  2
_FILLED
 10
-88.0945566327
 20
66.3711734694
 41
3.0
 42
3.0
 43
3.0
 50
180.0
  0
INSERT
  5
230
100
AcDbEntity
  8
0
100
AcDbBlockReference
 62
7
  6
CONTINUOUS
  2
_FILLED
 10
-78.2445566327
 20
66.3711734694
 41
3.0
 42
3.0
 43
3.0
  0
ENDBLK
  5
231
100
AcDbEntity
  8
0
  6
BYBLOCK
 62
0
100
AcDbBlockEnd
  0
BLOCK
  5
232
100
AcDbEntity
  8
0
100
AcDbBlockBegin
 62
7
  6
CONTINUOUS
  2
*D2
 70
65
 10
0.0
 20
0.0
  3
*D2
  1

  0
MTEXT
  5
233
100
AcDbEntity
  8
0
100
AcDbMText
 62
7
  6
CONTINUOUS
  7
STANDARD
 71
2
 72
1
 10
-0.6629464286
 20
60.1211734694
 30
0.0
 11
1.0
 21
0.0
 31
0.0
 44
0.9
  1
95,4
 40
3.0
 41
8.5714285714
  0
LINE
  5
234
100
AcDbEntity
  8
0
100
AcDbLine
 62
7
  6
CONTINUOUS
 10
-48.3629464286
 20
47.8711734694
 11
-48.3629464286
 21
57.8711734694
  0
LINE
  5
235
100
AcDbEntity
  8
0
100
AcDbLine
 62
7
  6
CONTINUOUS
 10
47.0370535714
 20
47.8711734694
 11
47.0370535714
 21
57.8711734694
  0
LINE
  5
236
100
AcDbEntity
  8
0
100
AcDbLine
 62
7
  6
CONTINUOUS
 10
-48.3629464286
 20
56.3711734694
 11
-0.6629464286
 21
56.3711734694
  0
LINE
  5
237
100
AcDbEntity
  8
0
100
AcDbLine
 62
7
  6
CONTINUOUS
 10
47.0370535714
 20
56.3711734694
 11
-0.6629464286
 21
56.3711734694
  0
INSERT
  5
238
100
AcDbEntity
  8
0
100
AcDbBlockReference
 62
7
  6
CONTINUOUS
  2
_FILLED
 10
-48.3629464286
 20
56.3711734694
 41
3.0
 42
3.0
 43
3.0
 50
180.0
  0
INSERT
  5
239
100
AcDbEntity
  8
0
100
AcDbBlockReference
 62
7
  6
CONTINUOUS
  2
_FILLED
 10
47.0370535714
 20
56.3711734694
 41
3.0
 42
3.0
 43
3.0
 50
0.0
  0
ENDBLK
  5
23A
100
AcDbEntity
  8
0
  6
BYBLOCK
 62
0
100
AcDbBlockEnd
  0
BLOCK
  5
23B
100
AcDbEntity
  8
0
100
AcDbBlockBegin
 62
7
  6
CONTINUOUS
  2
*D3
 70
65
 10
0.0
 20
0.0
  3
*D3
  1

  0
MTEXT
  5
23C
100
AcDbEntity
  8
0
100
AcDbMText
 62
7
  6
CONTINUOUS
  7
STANDARD
 71
2
 72
1
 10
51.2870535714
 20
0.6711734694
 30
0.0
 11
0.0
 21
1.0
 31
0.0
 44
0.9
  1
95,4
 40
3.0
 41
8.5714285714
  0
LINE
  5
23D
100
AcDbEntity
  8
0
100
AcDbLine
 62
7
  6
CONTINUOUS
 10
46.5370535714
 20
48.3711734694
 11
56.5370535714
 21
48.3711734694
  0
LINE
  5
23E
100
AcDbEntity
  8
0
100
AcDbLine
 62
7
  6
CONTINUOUS
 10
46.5370535714
 20
-47.0288265306
 11
56.5370535714
 21
-47.0288265306
  0
LINE
  5
23F
100
AcDbEntity
  8
0
100
AcDbLine
 62
7
  6
CONTINUOUS
 10
55.0370535714
 20
48.3711734694
 11
55.0370535714
 21
0.6711734694
  0
LINE
  5
240
100
AcDbEntity
  8
0
100
AcDbLine
 62
7
  6
CONTINUOUS
 10
55.0370535714
 20
-47.0288265306
 11
55.0370535714
 21
0.6711734694
  0
INSERT
  5
241
100
AcDbEntity
  8
0
100
AcDbBlockReference
 62
7
  6
CONTINUOUS
  2
_FILLED
 10
55.0370535714
 20
48.3711734694
 41
3.0
 42
3.0
 43
3.0
 50
90.0
  0
INSERT
  5
242
100
AcDbEntity
  8
0
100
AcDbBlockReference
 62
7
  6
CONTINUOUS
  2
_FILLED
 10
55.0370535714
 20
-47.0288265306
 41
3.0
 42
3.0
 43
3.0
 50
270.0
  0
ENDBLK
  5
243
100
AcDbEntity
  8
0
  6
BYBLOCK
 62
0
100
AcDbBlockEnd
  0
ENDSEC
  0
SECTION
  2
ENTITIES
  0
DIMENSION
  5
244
100
AcDbEntity
  8
0
100
AcDbDimension
 62
7
  6
CONTINUOUS
  2
*D0
 10
-88.0945566327
 20
56.3711734694
 11
-70.9385174729
 21
56.3711734694
 70
160
 71
1
 42
9.25
  3
DIMSTYLE_1
100
AcDbAlignedDimension
 13
-78.8445566327
 23
46.8211734694
 14
-88.0945566327
 24
26.2301692903
 50
180.0
100
AcDbRotatedDimension
  0
DIMENSION
  5
245
100
AcDbEntity
  8
0
100
AcDbDimension
 62
7
  6
CONTINUOUS
  2
*D1
 10
-78.2445566327
 20
66.3711734694
 11
-71.1754760943
 21
66.3711734694
 70
160
 71
1
 42
9.85
  3
DIMSTYLE_1
100
AcDbAlignedDimension
 13
-88.0945566327
 23
26.2301692903
 14
-78.2445566327
 24
27.0211734694
100
AcDbRotatedDimension
  0
DIMENSION
  5
246
100
AcDbEntity
  8
0
100
AcDbDimension
 62
7
  6
CONTINUOUS
  2
*D2
 10
47.0370535714
 20
56.3711734694
 11
-0.6629464286
 21
56.3711734694
 70
160
 71
2
 42
95.4
  3
DIMSTYLE_1
100
AcDbAlignedDimension
 13
-48.3629464286
 23
47.3711734694
 14
47.0370535714
 24
47.3711734694
100
AcDbRotatedDimension
  0
DIMENSION
  5
247
100
AcDbEntity
  8
0
100
AcDbDimension
 62
7
  6
CONTINUOUS
  2
*D3
 10
55.0370535714
 20
-47.0288265306
 11
55.0370535714
 21
0.6711734694
 70
160
 71
2
 42
95.4
  3
DIMSTYLE_1
100
AcDbAlignedDimension
 13
46.0370535714
 23
48.3711734694
 14
46.0370535714
 24
-47.0288265306
 50
270.0
100
AcDbRotatedDimension
  0
LINE
  5
248
100
AcDbEntity
  8
SMUSSO
100
AcDbLine
 62
7
  6
CONTINUOUS
 10
-48.3629464286
 20
47.3711734694
 11
-48.3629464286
 21
-46.0288265306
  0
LINE
  5
249
100
AcDbEntity
  8
SMUSSO
100
AcDbLine
 62
7
  6
CONTINUOUS
 10
-47.3629464286
 20
-47.0288265306
 11
46.0370535714
 21
-47.0288265306
  0
LINE
  5
24A
100
AcDbEntity
  8
SMUSSO
100
AcDbLine
 62
7
  6
CONTINUOUS
 10
-42.3629464286
 20
42.3711734694
 11
-42.3629464286
 21
-41.0288265306
  0
LINE
  5
24B
100
AcDbEntity
  8
SMUSSO
100
AcDbLine
 62
7
  6
CONTINUOUS
 10
-42.3629464286
 20
-41.0288265306
 11
41.0370535714
 21
-41.0288265306
  0
LWPOLYLINE
  5
24C
100
AcDbEntity
  8
RACCORDO
100
AcDbPolyline
 62
253
  6
CONTINUOUS
 90
22
 70
0
 10
-37.8218356361
 20
-24.8878223516
 10
-37.8198721272
 20
-24.9401258047
 10
-37.8140060755
 20
-24.9921356834
 10
-37.8042704109
 20
-25.0435612814
 10
-37.7907197446
 20
-25.0941151175
 10
-37.7734299105
 20
-25.1435146901
 10
-37.7524974813
 20
-25.1914840359
 10
-37.7280394579
 20
-25.2377551292
 10
-37.7001926769
 20
-25.2820692452
 10
-37.6691128778
 20
-25.3241785542
 10
-37.6349740115
 20
-25.3638475128
 10
-37.5979668445
 20
-25.4008546387
 10
-37.5582978044
 20
-25.4349934957
 10
-37.5161883266
 20
-25.4660733348
 10
-37.4718739847
 20
-25.4939201609
 10
-37.4256027346
 20
-25.51837816
 10
-37.377633359
 20
-25.5393104942
 10
-37.3282338483
 20
-25.5566002063
 10
-37.277680166
 20
-25.5701507441
 10
-37.226254814
 20
-25.5798862932
 10
-37.1742452743
 20
-25.5857522614
 10
-37.1219422495
 20
-25.5877157382
  0
LINE
  5
24D
100
AcDbEntity
  8
RACCORDO
100
AcDbLine
 62
7
  6
CONTINUOUS
 10
-37.828909052
 20
26.2372427062
 11
-37.828909052
 21
-24.8948957674
  0
LINE
  5
24E
100
AcDbEntity
  8
RACCORDO
100
AcDbLine
 62
253
  6
CONTINUOUS
 10
-37.8218356361
 20
26.2301692903
 11
-37.8218356361
 21
-24.8878223516
  0
LINE
  5
24F
100
AcDbEntity
  8
RACCORDO
100
AcDbLine
 62
253
  6
CONTINUOUS
 10
-37.5218813276
 20
26.2301692903
 11
-37.5218813276
 21
-24.8910514861
  0
LINE
  5
250
100
AcDbEntity
  8
RACCORDO
100
AcDbLine
 62
253
  6
CONTINUOUS
 10
-37.1219422475
 20
26.9300626769
 11
-37.1219422495
 21
26.6301083684
  0
LINE
  5
251
100
AcDbEntity
  8
RACCORDO
100
AcDbLine
 62
253
  6
CONTINUOUS
 10
-37.1219422481
 20
-25.5877157382
 11
-37.1219422495
 21
-25.2877614296
  0
LWPOLYLINE
  5
252
100
AcDbEntity
  8
RACCORDO
100
AcDbPolyline
 62
253
  6
CONTINUOUS
 90
22
 70
0
 10
-37.5218813276
 20
26.2301692903
 10
-37.5207585396
 20
26.2599872292
 10
-37.5174806534
 20
26.2893715549
 10
-37.5120476691
 20
26.3183222675
 10
-37.5044068769
 20
26.3470105604
 10
-37.4946109865
 20
26.3752652402
 10
-37.4828181275
 20
26.4025727268
 10
-37.4689958266
 20
26.4289020728
 10
-37.453176557
 20
26.4542842255
 10
-37.4356158678
 20
26.4782984477
 10
-37.4162801982
 20
26.5009246784
 10
-37.3952031091
 20
26.5221829785
 10
-37.3727408324
 20
26.5417127932
 10
-37.3488719631
 20
26.5594810883
 10
-37.3236179063
 20
26.575520898
 10
-37.2973991085
 20
26.5895707699
 10
-37.2701889135
 20
26.6015972585
 10
-37.2420139776
 20
26.6116338094
 10
-37.2133747155
 20
26.6195193073
 10
-37.1844379324
 20
26.6252000473
 10
-37.1550368232
 20
26.6287297343
 10
-37.1251713879
 20
26.6301083684
  0
LWPOLYLINE
  5
253
100
AcDbEntity
  8
RACCORDO
100
AcDbPolyline
 62
253
  6
CONTINUOUS
 90
19
 70
0
 10
-35.1849629774
 20
23.6449882201
 10
-35.1822590814
 20
23.7017129406
 10
-35.175270871
 20
23.756520672
 10
-35.1639983463
 20
23.8094114144
 10
-35.1482030563
 20
23.8606905909
 10
-35.128123452
 20
23.9100527784
 10
-35.1044748861
 20
23.9565817073
 10
-35.0772357677
 20
24.0001676739
 10
-35.0464276877
 20
24.040920382
 10
-35.0128307715
 20
24.0782526731
 10
-34.9764768342
 20
24.112090863
 10
-34.9373340607
 20
24.1425086359
 10
-34.8960871309
 20
24.1691398863
 10
-34.8527382045
 20
24.1919775784
 10
-34.8072851217
 20
24.211028748
 10
-34.7604060835
 20
24.2259483971
 10
-34.712327157
 20
24.2366215262
 10
-34.6628222751
 20
24.2431631348
 10
-34.6118914378
 20
24.2455732228
  0
LWPOLYLINE
  5
254
100
AcDbEntity
  8
RACCORDO
100
AcDbPolyline
 62
253
  6
CONTINUOUS
 90
22
 70
0
 10
-34.5622014112
 20
-21.6334916227
 10
-34.5614452343
 20
-21.6489268671
 10
-34.5598089318
 20
-21.664911142
 10
-34.5571986401
 20
-21.6813883421
 10
-34.5535280818
 20
-21.698253595
 10
-34.5487023413
 20
-21.7154667531
 10
-34.54259773
 20
-21.7330458958
 10
-34.5351095766
 20
-21.7508786472
 10
-34.5261393153
 20
-21.7688368032
 10
-34.5155419004
 20
-21.7868748672
 10
-34.5031557501
 20
-21.8048993327
 10
-34.4889445234
 20
-21.8226200947
 10
-34.4729877355
 20
-21.8396834597
 10
-34.45519945
 20
-21.8559475265
 10
-34.4356529298
 20
-21.871119612
 10
-34.4148089238
 20
-21.8847262093
 10
-34.3929056155
 20
-21.8965878626
 10
-34.3699719648
 20
-21.9066627912
 10
-34.34625817
 20
-21.9148170308
 10
-34.3219629078
 20
-21.9209770487
 10
-34.2972201788
 20
-21.9251027611
 10
-34.2722026956
 20
-21.9271554668
  0
LINE
  5
255
100
AcDbEntity
  8
RACCORDO
100
AcDbLine
 62
253
  6
CONTINUOUS
 10
-34.569717393
 20
-21.6375707177
 11
-34.5696401752
 21
-21.6423511122
  0
LWPOLYLINE
  5
256
100
AcDbEntity
  8
RACCORDO
100
AcDbPolyline
 62
253
  6
CONTINUOUS
 90
19
 70
0
 10
-34.8895206632
 20
23.644988496
 10
-34.8898717118
 20
23.6762330432
 10
-34.887764264
 20
23.7066336868
 10
-34.8832896301
 20
23.7360085363
 10
-34.8765647974
 20
23.7642065725
 10
-34.8676965225
 20
23.7910511599
 10
-34.8567775629
 20
23.8163399375
 10
-34.8439469802
 20
23.8399154132
 10
-34.829347532
 20
23.8616878541
 10
-34.8130766551
 20
23.8815687323
 10
-34.7952933699
 20
23.8994403278
 10
-34.7761361978
 20
23.915240401
 10
-34.755651716
 20
23.9289535064
 10
-34.7339811489
 20
23.9404972385
 10
-34.7112744668
 20
23.9498007155
 10
-34.6875723439
 20
23.9568364419
 10
-34.6629870767
 20
23.9615388195
 10
-34.6377130753
 20
23.9638321163
 10
-34.6119141895
 20
23.9636659681
  0
LINE
  5
257
100
AcDbEntity
  8
RACCORDO
100
AcDbLine
 62
253
  6
CONTINUOUS
 10
-34.5622596615
 20
-21.628185455
 11
-34.5622014112
 21
-21.6334916227
  0
LINE
  5
258
100
AcDbEntity
  8
RACCORDO
100
AcDbLine
 62
253
  6
CONTINUOUS
 10
-34.5697638788
 20
-21.632848832
 11
-34.569717393
 21
-21.6375707177
  0
LINE
  5
259
100
AcDbEntity
  8
RACCORDO
100
AcDbLine
 62
253
  6
CONTINUOUS
 10
-34.5697796326
 20
-21.628185455
 11
-34.5697638788
 21
-21.632848832
  0
LINE
  5
25A
100
AcDbEntity
  8
RACCORDO
100
AcDbLine
 62
253
  6
CONTINUOUS
 10
-35.1849629774
 20
-22.3026412813
 11
-35.1849629774
 21
23.6449882201
  0
LINE
  5
25B
100
AcDbEntity
  8
RACCORDO
100
AcDbLine
 62
253
  6
CONTINUOUS
 10
-34.8895206515
 20
-22.3026416077
 11
-34.8895206515
 21
23.644988472
  0
LINE
  5
25C
100
AcDbEntity
  8
RACCORDO
100
AcDbLine
 62
253
  6
CONTINUOUS
 10
-34.6118914378
 20
24.2455732228
 11
-34.6118914378
 21
23.9636654366
  0
LINE
  5
25D
100
AcDbEntity
  8
RACCORDO
100
AcDbLine
 62
253
  6
CONTINUOUS
 10
-34.6118914378
 20
-22.903226284
 11
-34.6118914378
 21
-22.6213184978
  0
LINE
  5
25E
100
AcDbEntity
  8
RACCORDO
100
AcDbLine
 62
253
  6
CONTINUOUS
 10
-34.5697796326
 20
22.9705323938
 11
-34.5697796326
 21
-21.628185455
  0
LINE
  5
25F
100
AcDbEntity
  8
RACCORDO
100
AcDbLine
 62
253
  6
CONTINUOUS
 10
-34.5622596615
 20
22.9705323938
 11
-34.5622596615
 21
-21.628185455
  0
LINE
  5
260
100
AcDbEntity
  8
RACCORDO
100
AcDbLine
 62
7
  6
CONTINUOUS
 10
-34.5550916494
 20
-21.6210174428
 11
-34.5550916494
 21
22.9633643816
  0
LINE
  5
261
100
AcDbEntity
  8
RACCORDO
100
AcDbLine
 62
253
  6
CONTINUOUS
 10
-34.2615318544
 20
-21.927366265
 11
-34.2615318544
 21
-21.9574438022
  0
LINE
  5
262
100
AcDbEntity
  8
RACCORDO
100
AcDbLine
 62
253
  6
CONTINUOUS
 10
-34.2615318544
 20
23.2697132038
 11
-34.261531855
 21
23.2997907409
  0
LINE
  5
263
100
AcDbEntity
  8
RACCORDO
100
AcDbLine
 62
253
  6
CONTINUOUS
 10
-34.5696401752
 20
22.984698051
 11
-34.5697796326
 21
22.9705323938
  0
LINE
  5
264
100
AcDbEntity
  8
RACCORDO
100
AcDbLine
 62
253
  6
CONTINUOUS
 10
-34.5622014112
 20
22.9758385615
 11
-34.5622596615
 21
22.9705323938
  0
LWPOLYLINE
  5
265
100
AcDbEntity
  8
RACCORDO
100
AcDbPolyline
 62
253
  6
CONTINUOUS
 90
22
 70
0
 10
-34.5696401752
 20
-21.6423511122
 10
-34.5698751709
 20
-21.6597744619
 10
-34.5692058059
 20
-21.6776832796
 10
-34.5675366551
 20
-21.6960282797
 10
-34.5647805463
 20
-21.7147241281
 10
-34.5608387415
 20
-21.7337249117
 10
-34.5555864873
 20
-21.7530195342
 10
-34.5489360215
 20
-21.7725178836
 10
-34.5407798372
 20
-21.7920895318
 10
-34.5309394018
 20
-21.8116269515
 10
-34.5192630991
 20
-21.8310598571
 10
-34.5057159572
 20
-21.8501015725
 10
-34.4903313388
 20
-21.8683064069
 10
-34.4730217295
 20
-21.8855316032
 10
-34.4538727056
 20
-21.9015088555
 10
-34.4333145916
 20
-21.9157009297
 10
-34.4115715743
 20
-21.9279067522
 10
-34.3886877026
 20
-21.9381090331
 10
-34.3649218775
 20
-21.9461710316
 10
-34.340475499
 20
-21.9520181475
 10
-34.315479483
 20
-21.9556105971
 10
-34.2901056002
 20
-21.9569078721
  0
LWPOLYLINE
  5
266
100
AcDbEntity
  8
RACCORDO
100
AcDbPolyline
 62
253
  6
CONTINUOUS
 90
10
 70
0
 10
-34.5622083681
 20
-21.6334917494
 10
-34.5624223103
 20
-21.6344693779
 10
-34.5627898742
 20
-21.635449406
 10
-34.5633109471
 20
-21.6364315287
 10
-34.5639853688
 20
-21.6374154408
 10
-34.564812932
 20
-21.6384008363
 10
-34.5657933822
 20
-21.6393874085
 10
-34.5669264182
 20
-21.6403748509
 10
-34.5682116917
 20
-21.6413628563
 10
-34.5696488074
 20
-21.6423511176
  0
LWPOLYLINE
  5
267
100
AcDbEntity
  8
RACCORDO
100
AcDbPolyline
 62
253
  6
CONTINUOUS
 90
22
 70
0
 10
35.7960493924
 20
-25.5877157382
 10
35.8483528455
 20
-25.5857522293
 10
35.9003627243
 20
-25.5798861776
 10
35.9517883222
 20
-25.5701505129
 10
36.0023421583
 20
-25.5565998466
 10
36.0517417309
 20
-25.5393100125
 10
36.0997110767
 20
-25.5183775834
 10
36.1459821701
 20
-25.4939195599
 10
36.1902962861
 20
-25.466072779
 10
36.232405595
 20
-25.4349929798
 10
36.2720745536
 20
-25.4008541135
 10
36.3090816795
 20
-25.3638469465
 10
36.3432205366
 20
-25.3241779064
 10
36.3743003756
 20
-25.2820684286
 10
36.4021472017
 20
-25.2377540867
 10
36.4266052008
 20
-25.1914828367
 10
36.447537535
 20
-25.143513461
 10
36.4648272471
 20
-25.0941139503
 10
36.4783777849
 20
-25.043560268
 10
36.488113334
 20
-24.9921349161
 10
36.4939793022
 20
-24.9401253764
 10
36.495942779
 20
-24.8878223516
  0
LWPOLYLINE
  5
268
100
AcDbEntity
  8
RACCORDO
100
AcDbPolyline
 62
253
  6
CONTINUOUS
 90
22
 70
0
 10
-37.1219422495
 20
-25.2877614296
 10
-37.1517601886
 20
-25.2866386416
 10
-37.1811445145
 20
-25.2833607554
 10
-37.2100952273
 20
-25.277927771
 10
-37.2387835203
 20
-25.2702869787
 10
-37.2670382003
 20
-25.2604910882
 10
-37.2943456871
 20
-25.248698229
 10
-37.3206750331
 20
-25.2348759279
 10
-37.346057186
 20
-25.2190566581
 10
-37.3700714083
 20
-25.2014959688
 10
-37.392697639
 20
-25.182160299
 10
-37.4139559391
 20
-25.1610832096
 10
-37.4334857538
 20
-25.1386209326
 10
-37.4512540489
 20
-25.1147520631
 10
-37.4672938585
 20
-25.089498006
 10
-37.4813437304
 20
-25.0632792079
 10
-37.4933702188
 20
-25.0360690127
 10
-37.5034067695
 20
-25.0078940765
 10
-37.5112922673
 20
-24.9792548142
 10
-37.516973007
 20
-24.9503180309
 10
-37.5205026938
 20
-24.9209169215
 10
-37.5218813276
 20
-24.8910514861
  0
LWPOLYLINE
  5
269
100
AcDbEntity
  8
RACCORDO
100
AcDbPolyline
 62
253
  6
CONTINUOUS
 90
10
 70
0
 10
-34.5622006379
 20
22.9758385479
 10
-34.5624151007
 20
22.9768159429
 10
-34.5627831681
 20
22.9777957911
 10
-34.5633047271
 20
22.9787777915
 10
-34.5639796174
 20
22.979761642
 10
-34.5648076313
 20
22.9807470404
 10
-34.5657885144
 20
22.981733684
 10
-34.5669219651
 20
22.9827212698
 10
-34.5682076349
 20
22.9837094942
 10
-34.5696451286
 20
22.9846980534
  0
LWPOLYLINE
  5
26A
100
AcDbEntity
  8
0
100
AcDbPolyline
 62
7
  6
CONTINUOUS
 90
52
 70
0
 10
2.9694381817
 20
-24.1514138367
 10
2.9795943149
 20
-24.1490347856
 10
2.9897470582
 20
-24.1454342188
 10
2.9998964115
 20
-24.1406121365
 10
3.0100145377
 20
-24.134325911
 10
3.020129274
 20
-24.1268181699
 10
3.0303241319
 20
-24.1188167962
 10
3.0406221562
 20
-24.1105120779
 10
3.0510003021
 20
-24.101713727
 10
3.061472947
 20
-24.092578762
 10
3.0720594723
 20
-24.0832151449
 10
3.0827404967
 20
-24.0735149137
 10
3.0934722533
 20
-24.0633112003
 10
3.1042652912
 20
-24.0526277395
 10
3.1151090615
 20
-24.0414407965
 10
3.1259281509
 20
-24.0295122993
 10
3.136735298
 20
-24.0168223873
 10
3.1475177643
 20
-24.0033909212
 10
3.1581619209
 20
-23.9890394104
 10
3.1686805495
 20
-23.9737327685
 10
3.1790608685
 20
-23.957506082
 10
3.1891509032
 20
-23.940286119
 10
3.198970126
 20
-23.922059531
 10
3.2084990645
 20
-23.9028396667
 10
3.2175273274
 20
-23.8825933396
 10
3.2260693321
 20
-23.861321053
 10
3.2341106612
 20
-23.8390223037
 10
3.2413976707
 20
-23.8156623963
 10
3.2479341944
 20
-23.7912591064
 10
3.2537163985
 20
-23.7657946583
 10
3.258479138
 20
-23.7391810296
 10
3.2622387261
 20
-23.7113913182
 10
3.2649788495
 20
-23.6824524262
 10
3.2663854243
 20
-23.6523570376
 10
3.2665353319
 20
-23.6210752635
 10
3.2653516907
 20
-23.5886369929
 10
3.2622897727
 20
-23.5551245762
 10
3.2575082363
 20
-23.5204786532
 10
3.250848423
 20
-23.4847585842
 10
3.2412896288
 20
-23.4482248006
 10
3.2287359404
 20
-23.410573865
 10
3.213283271
 20
-23.3721092149
 10
3.1941986563
 20
-23.3340015937
 10
3.1705482518
 20
-23.2956552214
 10
3.143265902
 20
-23.2576658781
 10
3.1144201749
 20
-23.222991647
 10
3.0842711814
 20
-23.1926060203
 10
3.0525588108
 20
-23.1655355058
 10
3.0205712987
 20
-23.1418177107
 10
2.988738057
 20
-23.1214651704
 10
2.9566296739
 20
-23.1044653493
 10
2.9242461493
 20
-23.0908182475
  0
LWPOLYLINE
  5
26B
100
AcDbEntity
  8
0
100
AcDbPolyline
 62
7
  6
CONTINUOUS
 90
10
 70
0
 10
2.2645684474
 20
-23.4019031924
 10
2.3032570038
 20
-23.3954685395
 10
2.341792883
 20
-23.3902939175
 10
2.3801760848
 20
-23.3863793262
 10
2.4183814206
 20
-23.3837177332
 10
2.4564340792
 20
-23.3823161709
 10
2.494409626
 20
-23.3821957372
 10
2.5323332496
 20
-23.3833634647
 10
2.5701797615
 20
-23.3858123208
 10
2.6079491617
 20
-23.3895423055
  0
LWPOLYLINE
  5
26C
100
AcDbEntity
  8
RACCORDO
100
AcDbPolyline
 62
253
  6
CONTINUOUS
 90
22
 70
0
 10
32.9463098384
 20
-21.9271554668
 10
32.9706263167
 20
-21.9251890541
 10
32.99467755
 20
-21.9212658413
 10
33.018305445
 20
-21.9154233034
 10
33.0413220089
 20
-21.9077246687
 10
33.0636158942
 20
-21.8982240667
 10
33.0851416081
 20
-21.886938405
 10
33.1059329515
 20
-21.8738043009
 10
33.1256423142
 20
-21.8589905347
 10
33.1437293466
 20
-21.8429638872
 10
33.1601024557
 20
-21.8259781719
 10
33.1748052741
 20
-21.8081659337
 10
33.1876656798
 20
-21.7899558594
 10
33.1987013602
 20
-21.771652909
 10
33.208073014
 20
-21.7533446473
 10
33.2158929937
 20
-21.7351447561
 10
33.2222560474
 20
-21.7172168658
 10
33.2272833207
 20
-21.6996567834
 10
33.2311066662
 20
-21.6824396933
 10
33.2338247537
 20
-21.6656062987
 10
33.2355261859
 20
-21.6492703264
 10
33.2363085541
 20
-21.6334916227
  0
LWPOLYLINE
  5
26D
100
AcDbEntity
  8
RACCORDO
100
AcDbPolyline
 62
253
  6
CONTINUOUS
 90
22
 70
0
 10
32.9646051733
 20
-21.9568980154
 10
32.9890950787
 20
-21.9556549904
 10
33.0132669058
 20
-21.95226509
 10
33.0369645748
 20
-21.9467571076
 10
33.0600187681
 20
-21.9391841374
 10
33.08229577
 20
-21.9295885309
 10
33.1036928567
 20
-21.9179879666
 10
33.1242202497
 20
-21.9043086371
 10
33.1435579513
 20
-21.8887364886
 10
33.1611858669
 20
-21.8717838058
 10
33.1769983727
 20
-21.8536760202
 10
33.1910450124
 20
-21.8345550658
 10
33.2031974879
 20
-21.8149398056
 10
33.2134697683
 20
-21.795128777
 10
33.2220157873
 20
-21.775189701
 10
33.2289858603
 20
-21.755303716
 10
33.2344849989
 20
-21.7356365771
 10
33.2386149343
 20
-21.7162602949
 10
33.2415074047
 20
-21.6971821382
 10
33.2432652043
 20
-21.678449449
 10
33.2439786511
 20
-21.6601549053
 10
33.2437473181
 20
-21.6423511153
  0
LWPOLYLINE
  5
26E
100
AcDbEntity
  8
RACCORDO
100
AcDbPolyline
 62
253
  6
CONTINUOUS
 90
6
 70
0
 10
32.9374048773
 20
-21.92736131
 10
32.93917588
 20
-21.9273444398
 10
32.9409519424
 20
-21.9273155374
 10
32.9427330002
 20
-21.9272744858
 10
32.9445189879
 20
-21.9272211679
 10
32.9463098384
 20
-21.9271554668
  0
LWPOLYLINE
  5
26F
100
AcDbEntity
  8
RACCORDO
100
AcDbPolyline
 62
253
  6
CONTINUOUS
 90
6
 70
0
 10
32.9402914903
 20
-21.9574308266
 10
32.9450140086
 20
-21.9573865639
 10
32.949806552
 20
-21.9573110141
 10
32.9546691206
 20
-21.9572041771
 10
32.9596017144
 20
-21.9570660531
 10
32.9646043334
 20
-21.9568966419
  0
LWPOLYLINE
  5
270
100
AcDbEntity
  8
RACCORDO
100
AcDbPolyline
 62
253
  6
CONTINUOUS
 90
19
 70
0
 10
-34.6119125891
 20
-22.6213189924
 10
-34.6376928376
 20
-22.6214867445
 10
-34.6629549756
 20
-22.6191969713
 10
-34.6875351995
 20
-22.614498514
 10
-34.7112417993
 20
-22.6074647085
 10
-34.7339589298
 20
-22.5981602555
 10
-34.7556370223
 20
-22.5866153946
 10
-34.7761225001
 20
-22.5729039819
 10
-34.7952785793
 20
-22.5571071615
 10
-34.8130622022
 20
-22.5392378226
 10
-34.8293359913
 20
-22.5193563027
 10
-34.8439390046
 20
-22.4975814896
 10
-34.8567724278
 20
-22.4740035293
 10
-34.867693197
 20
-22.4487129701
 10
-34.8765627661
 20
-22.4218667452
 10
-34.883288562
 20
-22.3936670117
 10
-34.8877638661
 20
-22.3642903526
 10
-34.8898716635
 20
-22.3338879189
 10
-34.8895206666
 20
-22.3026416389
  0
LINE
  5
271
100
AcDbEntity
  8
RACCORDO
100
AcDbLine
 62
7
  6
CONTINUOUS
 10
-37.1290156654
 20
-25.594789154
 11
35.8031228082
 21
-25.594789154
  0
LINE
  5
272
100
AcDbEntity
  8
RACCORDO
100
AcDbLine
 62
253
  6
CONTINUOUS
 10
-37.1219422495
 20
-25.5877157382
 11
35.7960493924
 21
-25.5877157382
  0
LINE
  5
273
100
AcDbEntity
  8
RACCORDO
100
AcDbLine
 62
253
  6
CONTINUOUS
 10
-37.1219422495
 20
-25.2877614296
 11
35.7992785272
 21
-25.2877614296
  0
LINE
  5
274
100
AcDbEntity
  8
0
100
AcDbLine
 62
7
  6
CONTINUOUS
 10
-4.1096734286
 20
-25.1440005306
 11
-3.7234074286
 21
-25.1440005306
  0
LINE
  5
275
100
AcDbEntity
  8
0
100
AcDbLine
 62
7
  6
CONTINUOUS
 10
-2.8857804286
 20
-25.1440005306
 11
-2.4474644286
 21
-25.1440005306
  0
LINE
  5
276
100
AcDbEntity
  8
0
100
AcDbLine
 62
7
  6
CONTINUOUS
 10
-2.2115054286
 20
-25.1440005306
 11
-1.7921804286
 21
-25.1440005306
  0
LINE
  5
277
100
AcDbEntity
  8
0
100
AcDbLine
 62
7
  6
CONTINUOUS
 10
-1.1833944286
 20
-25.1440005306
 11
-1.1219214286
 21
-25.1440005306
  0
LINE
  5
278
100
AcDbEntity
  8
0
100
AcDbLine
 62
7
  6
CONTINUOUS
 10
-0.5107104286
 20
-25.1440005306
 11
-0.0819214286
 21
-25.1440005306
  0
LINE
  5
279
100
AcDbEntity
  8
0
100
AcDbLine
 62
7
  6
CONTINUOUS
 10
-0.0130944286
 20
-25.1440005306
 11
0.4204655714
 21
-25.1440005306
  0
LINE
  5
27A
100
AcDbEntity
  8
0
100
AcDbLine
 62
7
  6
CONTINUOUS
 10
1.2518735714
 20
-25.1440005306
 11
1.7138395714
 21
-25.1440005306
  0
LINE
  5
27B
100
AcDbEntity
  8
0
100
AcDbLine
 62
7
  6
CONTINUOUS
 10
1.8425504475
 20
-25.1440009283
 11
2.279102331
 21
-25.1440009283
  0
LINE
  5
27C
100
AcDbEntity
  8
0
100
AcDbLine
 62
7
  6
CONTINUOUS
 10
2.9503221094
 20
-25.1440009283
 11
3.3719307042
 21
-25.1440009283
  0
LINE
  5
27D
100
AcDbEntity
  8
RACCORDO
100
AcDbLine
 62
253
  6
CONTINUOUS
 10
-37.8218356361
 20
-24.8878223496
 11
-37.5218813276
 21
-24.8878223516
  0
LINE
  5
27E
100
AcDbEntity
  8
RACCORDO
100
AcDbLine
 62
253
  6
CONTINUOUS
 10
36.495942779
 20
-24.8878223502
 11
36.1959884704
 21
-24.8878223516
  0
LINE
  5
27F
100
AcDbEntity
  8
0
100
AcDbLine
 62
7
  6
CONTINUOUS
 10
0.5414135714
 20
-24.7248015306
 11
1.1383265714
 21
-24.7248015306
  0
LINE
  5
280
100
AcDbEntity
  8
0
100
AcDbLine
 62
7
  6
CONTINUOUS
 10
1.0507295714
 20
-24.4004265306
 11
0.6310735714
 21
-24.4004265306
  0
LINE
  5
281
100
AcDbEntity
  8
0
100
AcDbLine
 62
7
  6
CONTINUOUS
 10
2.279102331
 20
-24.3222460176
 11
2.5141166457
 21
-24.3222460176
  0
LINE
  5
282
100
AcDbEntity
  8
0
100
AcDbLine
 62
7
  6
CONTINUOUS
 10
2.5150614268
 20
-23.9783456737
 11
2.2645684474
 21
-23.9783456737
  0
LINE
  5
283
100
AcDbEntity
  8
0
100
AcDbLine
 62
7
  6
CONTINUOUS
 10
1.0695615714
 20
-23.0441775306
 11
0.6455445714
 21
-23.0441775306
  0
LINE
  5
284
100
AcDbEntity
  8
0
100
AcDbLine
 62
7
  6
CONTINUOUS
 10
-0.2782784286
 20
-23.0441775306
 11
-0.7119484286
 21
-23.0441775306
  0
LINE
  5
285
100
AcDbEntity
  8
0
100
AcDbLine
 62
7
  6
CONTINUOUS
 10
-1.5839504286
 20
-23.0441775306
 11
-2.0219034286
 21
-23.0441775306
  0
LINE
  5
286
100
AcDbEntity
  8
0
100
AcDbLine
 62
7
  6
CONTINUOUS
 10
-3.0484394286
 20
-23.0441775306
 11
-3.4864564286
 21
-23.0441775306
  0
LINE
  5
287
100
AcDbEntity
  8
0
100
AcDbLine
 62
7
  6
CONTINUOUS
 10
-4.2992124286
 20
-23.0441775306
 11
-4.7753584286
 21
-23.0441775306
  0
LINE
  5
288
100
AcDbEntity
  8
0
100
AcDbLine
 62
7
  6
CONTINUOUS
 10
-2.4474644286
 20
-23.0440515306
 11
-2.8857804286
 21
-23.0440515306
  0
LINE
  5
289
100
AcDbEntity
  8
RACCORDO
100
AcDbLine
 62
253
  6
CONTINUOUS
 10
33.2859985807
 20
-22.903226284
 11
-34.6118914378
 21
-22.903226284
  0
LINE
  5
28A
100
AcDbEntity
  8
RACCORDO
100
AcDbLine
 62
253
  6
CONTINUOUS
 10
33.2859849013
 20
-22.6213184978
 11
-34.6119123492
 21
-22.6213184978
  0
LINE
  5
28B
100
AcDbEntity
  8
RACCORDO
100
AcDbLine
 62
253
  6
CONTINUOUS
 10
-35.1849629774
 20
-22.3026412813
 11
-34.8895206515
 21
-22.3026412813
  0
LINE
  5
28C
100
AcDbEntity
  8
RACCORDO
100
AcDbLine
 62
253
  6
CONTINUOUS
 10
33.8590701203
 20
-22.3026412813
 11
33.5636277944
 21
-22.3026412815
  0
LINE
  5
28D
100
AcDbEntity
  8
RACCORDO
100
AcDbLine
 62
253
  6
CONTINUOUS
 10
-34.2615318544
 20
-21.9574438022
 11
32.9402914903
 21
-21.9574308266
  0
LINE
  5
28E
100
AcDbEntity
  8
RACCORDO
100
AcDbLine
 62
253
  6
CONTINUOUS
 10
-34.2615318544
 20
-21.927366265
 11
32.9374048773
 21
-21.92736131
  0
LINE
  5
28F
100
AcDbEntity
  8
RACCORDO
100
AcDbLine
 62
7
  6
CONTINUOUS
 10
32.9292444837
 20
-21.9209717514
 11
-34.2551373408
 21
-21.9209717514
  0
LINE
  5
290
100
AcDbEntity
  8
RACCORDO
100
AcDbLine
 62
253
  6
CONTINUOUS
 10
33.2363668043
 20
-21.628185455
 11
33.2438867754
 21
-21.628185455
  0
LINE
  5
291
100
AcDbEntity
  8
RACCORDO
100
AcDbLine
 62
253
  6
CONTINUOUS
 10
-34.5622596615
 20
-21.628185455
 11
-34.5697796326
 21
-21.628185455
  0
LWPOLYLINE
  5
292
100
AcDbEntity
  8
RACCORDO
100
AcDbPolyline
 62
253
  6
CONTINUOUS
 90
7
 70
0
 10
-34.2901054612
 20
-21.9569075977
 10
-34.2853512156
 20
-21.9570712476
 10
-34.280593761
 20
-21.9572051846
 10
-34.2758330977
 20
-21.9573094085
 10
-34.2710692254
 20
-21.9573839194
 10
-34.2663021443
 20
-21.9574287173
 10
-34.2615318544
 20
-21.9574438022
  0
LWPOLYLINE
  5
293
100
AcDbEntity
  8
RACCORDO
100
AcDbPolyline
 62
253
  6
CONTINUOUS
 90
7
 70
0
 10
-34.2722026956
 20
-21.9271554668
 10
-34.2704405216
 20
-21.92722025
 10
-34.2686717471
 20
-21.9272732903
 10
-34.2668964318
 20
-21.9273144998
 10
-34.2651146365
 20
-21.9273437906
 10
-34.2633264231
 20
-21.9273610749
 10
-34.2615318544
 20
-21.927366265
  0
LWPOLYLINE
  5
294
100
AcDbEntity
  8
RACCORDO
100
AcDbPolyline
 62
253
  6
CONTINUOUS
 90
19
 70
0
 10
-34.6118914378
 20
-22.903226284
 10
-34.6627855496
 20
-22.9008251547
 10
-34.7122665462
 20
-22.8942900146
 10
-34.7603344279
 20
-22.8836208636
 10
-34.8072211887
 20
-22.8687012969
 10
-34.8526948344
 20
-22.8496477194
 10
-34.8960593823
 20
-22.826809346
 10
-34.9373087274
 20
-22.8001819843
 10
-34.9764489746
 20
-22.7697698267
 10
-35.0128024556
 20
-22.7359346651
 10
-35.0464043894
 20
-22.6986004585
 10
-35.0772195569
 20
-22.657843248
 10
-35.1044646335
 20
-22.614252949
 10
-35.1281167905
 20
-22.5677208241
 10
-35.1481988566
 20
-22.5183556108
 10
-35.1639959923
 20
-22.4670734371
 10
-35.1752699177
 20
-22.4141796789
 10
-35.1822589128
 20
-22.3593689603
 10
-35.1849629774
 20
-22.3026412813
  0
LWPOLYLINE
  5
295
100
AcDbEntity
  8
0
100
AcDbPolyline
 62
7
  6
CONTINUOUS
 90
13
 70
0
 10
2.5141166457
 20
-24.3222460176
 10
2.5415735175
 20
-24.323801286
 10
2.5676594956
 20
-24.3278201507
 10
2.59237458
 20
-24.3343026116
 10
2.615609507
 20
-24.3431990225
 10
2.6374735404
 20
-24.3545590296
 10
2.658294471
 20
-24.368531572
 10
2.6783042653
 20
-24.3851760101
 10
2.6972709568
 20
-24.4044329834
 10
2.7148264373
 20
-24.4262733495
 10
2.7308480039
 20
-24.4506873943
 10
2.7454583594
 20
-24.4776848319
 10
2.7586575038
 20
-24.5072656624
  0
LWPOLYLINE
  5
296
100
AcDbEntity
  8
0
100
AcDbPolyline
 62
7
  6
CONTINUOUS
 90
16
 70
0
 10
2.6079491617
 20
-23.3895423055
 10
2.6369102455
 20
-23.3945455278
 10
2.6643630218
 20
-23.4016642688
 10
2.6903074907
 20
-23.4108985286
 10
2.7149048324
 20
-23.4223871398
 10
2.7379938667
 20
-23.4359912698
 10
2.7590910521
 20
-23.4512944201
 10
2.77802098
 20
-23.4681950363
 10
2.7949590589
 20
-23.4867946728
 10
2.8099479736
 20
-23.5069814952
 10
2.8231311954
 20
-23.5290580645
 10
2.8343652528
 20
-23.5527218197
 10
2.8432624163
 20
-23.5769532431
 10
2.8496934423
 20
-23.6014124957
 10
2.8537875743
 20
-23.6264394166
 10
2.8555448123
 20
-23.6520340057
  0
LINE
  5
297
100
AcDbEntity
  8
RACCORDO
100
AcDbLine
 62
253
  6
CONTINUOUS
 10
-34.8895206515
 20
-22.3026416077
 11
-34.5696401752
 21
-21.6423511122
  0
LINE
  5
298
100
AcDbEntity
  8
RACCORDO
100
AcDbLine
 62
253
  6
CONTINUOUS
 10
-34.6119123492
 20
-22.6213184978
 11
-34.2901054612
 21
-21.9569075977
  0
LWPOLYLINE
  5
299
100
AcDbEntity
  8
0
100
AcDbPolyline
 62
7
  6
CONTINUOUS
 90
13
 70
0
 10
2.9242461493
 20
-23.0908182475
 10
2.854183868
 20
-23.0693813135
 10
2.7802178441
 20
-23.0517807773
 10
2.7023480776
 20
-23.0380166389
 10
2.6203829643
 20
-23.0282760301
 10
2.5345141083
 20
-23.0223718192
 10
2.4453163222
 20
-23.0197426101
 10
2.3529375526
 20
-23.0203090205
 10
2.2572298527
 20
-23.0241504328
 10
2.1583241951
 20
-23.0309435985
 10
2.056264237
 20
-23.0405807683
 10
1.9510063212
 20
-23.0531696916
 10
1.8425504475
 20
-23.0687103683
  0
LINE
  5
29A
100
AcDbEntity
  8
RACCORDO
100
AcDbLine
 62
253
  6
CONTINUOUS
 10
-34.5696401752
 20
22.984698051
 11
-34.8895206515
 21
23.644988472
  0
LINE
  5
29B
100
AcDbEntity
  8
RACCORDO
100
AcDbLine
 62
253
  6
CONTINUOUS
 10
-34.2901055409
 20
23.2992545453
 11
-34.6119139316
 21
23.9636654366
  0
LWPOLYLINE
  5
29C
100
AcDbEntity
  8
RACCORDO
100
AcDbPolyline
 62
253
  6
CONTINUOUS
 90
10
 70
0
 10
32.9463098189
 20
23.2695018597
 10
32.9482266319
 20
23.2701081029
 10
32.9501653127
 20
23.2713967571
 10
32.9521232126
 20
23.2733660596
 10
32.9540976565
 20
23.2760133174
 10
32.9560859466
 20
23.2793349099
 10
32.9580853657
 20
23.2833262945
 10
32.9600931815
 20
23.2879820126
 10
32.96210665
 20
23.293295697
 10
32.964123019
 20
23.2992600807
  0
LWPOLYLINE
  5
29D
100
AcDbEntity
  8
RACCORDO
100
AcDbPolyline
 62
253
  6
CONTINUOUS
 90
10
 70
0
 10
32.9463098443
 20
-21.9271556322
 10
32.9482272006
 20
-21.9277616725
 10
32.9501662941
 20
-21.9290500722
 10
32.952124473
 20
-21.9310190695
 10
32.9540990595
 20
-21.933665972
 10
32.9560873534
 20
-21.9369871599
 10
32.9580866357
 20
-21.9409780919
 10
32.9600941723
 20
-21.9456333103
 10
32.962107218
 20
-21.9509464493
 10
32.9641230199
 20
-21.9569102434
  0
LINE
  5
29E
100
AcDbEntity
  8
0
100
AcDbLine
 62
7
  6
CONTINUOUS
 10
-1.6975914286
 20
-23.7728555306
 11
-1.1833944286
 21
-25.1440005306
  0
LINE
  5
29F
100
AcDbEntity
  8
0
100
AcDbLine
 62
7
  6
CONTINUOUS
 10
-1.1502644286
 20
-24.2100055306
 11
-1.5839504286
 21
-23.0441775306
  0
LINE
  5
2A0
100
AcDbEntity
  8
0
100
AcDbLine
 62
7
  6
CONTINUOUS
 10
-4.7753584286
 20
-23.0441775306
 11
-4.1096734286
 21
-25.1440005306
  0
LINE
  5
2A1
100
AcDbEntity
  8
0
100
AcDbLine
 62
7
  6
CONTINUOUS
 10
-3.8989474286
 20
-24.4895505306
 11
-4.2992124286
 21
-23.0441775306
  0
LINE
  5
2A2
100
AcDbEntity
  8
RACCORDO
100
AcDbLine
 62
253
  6
CONTINUOUS
 10
-34.5622596615
 20
-21.628185455
 11
-34.5550916494
 21
-21.6210174428
  0
LINE
  5
2A3
100
AcDbEntity
  8
RACCORDO
100
AcDbLine
 62
253
  6
CONTINUOUS
 10
-37.8218356361
 20
-24.8878223516
 11
-37.828909052
 21
-24.8948957674
  0
LINE
  5
2A4
100
AcDbEntity
  8
RACCORDO
100
AcDbLine
 62
253
  6
CONTINUOUS
 10
-34.2615318544
 20
-21.927366265
 11
-34.2551373408
 21
-21.9209717514
  0
LINE
  5
2A5
100
AcDbEntity
  8
RACCORDO
100
AcDbLine
 62
253
  6
CONTINUOUS
 10
-37.1219422495
 20
-25.5877157382
 11
-37.1290156654
 21
-25.594789154
  0
LINE
  5
2A6
100
AcDbEntity
  8
RACCORDO
100
AcDbLine
 62
253
  6
CONTINUOUS
 10
-34.5550916494
 20
22.9633643816
 11
-34.5622596615
 21
22.9705323938
  0
LINE
  5
2A7
100
AcDbEntity
  8
RACCORDO
100
AcDbLine
 62
253
  6
CONTINUOUS
 10
-37.8218356361
 20
26.2301692903
 11
-37.828909052
 21
26.2372427062
  0
LINE
  5
2A8
100
AcDbEntity
  8
RACCORDO
100
AcDbLine
 62
253
  6
CONTINUOUS
 10
-34.2551373408
 20
23.2633186902
 11
-34.2615318544
 21
23.2697132038
  0
LINE
  5
2A9
100
AcDbEntity
  8
RACCORDO
100
AcDbLine
 62
253
  6
CONTINUOUS
 10
-37.1219422495
 20
26.9300626769
 11
-37.1290156654
 21
26.9371360928
  0
LWPOLYLINE
  5
2AA
100
AcDbEntity
  8
0
100
AcDbPolyline
 62
7
  6
CONTINUOUS
 90
6
 70
0
 10
2.7586575038
 20
-24.5072656624
 10
2.7809467895
 20
-24.5725251658
 10
2.8027495882
 20
-24.6392421665
 10
2.8240658999
 20
-24.7074166645
 10
2.8445781482
 20
-24.7771623695
 10
2.8850959132
 20
-24.9206851417
  0
LINE
  5
2AB
100
AcDbEntity
  8
0
100
AcDbLine
 62
7
  6
CONTINUOUS
 10
1.7138395714
 20
-25.1440005306
 11
1.0695615714
 21
-23.0441775306
  0
LINE
  5
2AC
100
AcDbEntity
  8
0
100
AcDbLine
 62
7
  6
CONTINUOUS
 10
1.1383265714
 20
-24.7248015306
 11
1.2518735714
 21
-25.1440005306
  0
LINE
  5
2AD
100
AcDbEntity
  8
0
100
AcDbLine
 62
7
  6
CONTINUOUS
 10
0.8493175714
 20
-23.6211555306
 11
1.0507295714
 21
-24.4004265306
  0
LINE
  5
2AE
100
AcDbEntity
  8
0
100
AcDbLine
 62
7
  6
CONTINUOUS
 10
-0.0819214286
 20
-25.1440005306
 11
-0.2782784286
 21
-23.0441775306
  0
LINE
  5
2AF
100
AcDbEntity
  8
0
100
AcDbLine
 62
7
  6
CONTINUOUS
 10
-0.6007634286
 20
-23.7785715306
 11
-0.5107104286
 21
-25.1440005306
  0
LINE
  5
2B0
100
AcDbEntity
  8
0
100
AcDbLine
 62
7
  6
CONTINUOUS
 10
-2.8857804286
 20
-23.0440515306
 11
-2.8857804286
 21
-25.1440005306
  0
LINE
  5
2B1
100
AcDbEntity
  8
0
100
AcDbLine
 62
7
  6
CONTINUOUS
 10
-2.4474644286
 20
-25.1440005306
 11
-2.4474644286
 21
-23.0440515306
  0
LINE
  5
2B2
100
AcDbEntity
  8
SMUSSO
100
AcDbLine
 62
7
  6
CONTINUOUS
 10
46.7441603526
 20
48.0782802506
 11
41.0370535714
 21
42.3711734694
  0
LINE
  5
2B3
100
AcDbEntity
  8
SMUSSO
100
AcDbLine
 62
7
  6
CONTINUOUS
 10
-48.0700532098
 20
-46.7359333118
 11
-42.3629464286
 21
-41.0288265306
  0
LINE
  5
2B4
100
AcDbEntity
  8
SMUSSO
100
AcDbLine
 62
7
  6
CONTINUOUS
 10
-48.0700532098
 20
48.0782802506
 11
-42.3629464286
 21
42.3711734694
  0
LINE
  5
2B5
100
AcDbEntity
  8
SMUSSO
100
AcDbLine
 62
7
  6
CONTINUOUS
 10
46.7441603526
 20
-46.7359333118
 11
41.0370535714
 21
-41.0288265306
  0
LINE
  5
2B6
100
AcDbEntity
  8
0
100
AcDbLine
 62
7
  6
CONTINUOUS
 10
2.8850959132
 20
-24.9206851417
 11
2.9503221094
 21
-25.1440009283
  0
LINE
  5
2B7
100
AcDbEntity
  8
0
100
AcDbLine
 62
7
  6
CONTINUOUS
 10
3.2735381763
 20
-24.7685141536
 11
3.2220884115
 21
-24.5756678187
  0
LINE
  5
2B8
100
AcDbEntity
  8
0
100
AcDbLine
 62
7
  6
CONTINUOUS
 10
3.3719307042
 20
-25.1440009283
 11
3.2735381763
 21
-24.7685141536
  0
LWPOLYLINE
  5
2B9
100
AcDbEntity
  8
0
100
AcDbPolyline
 62
7
  6
CONTINUOUS
 90
16
 70
0
 10
3.2220884115
 20
-24.5756678187
 10
3.2122942364
 20
-24.5367797268
 10
3.2014690206
 20
-24.4987737012
 10
3.189612764
 20
-24.4616497417
 10
3.1767732704
 20
-24.4250504472
 10
3.162902736
 20
-24.3893332189
 10
3.1478577496
 20
-24.3555702607
 10
3.1314984339
 20
-24.323873887
 10
3.1139646661
 20
-24.2941317834
 10
3.0955326664
 20
-24.2670792103
 10
3.0761905105
 20
-24.242920235
 10
3.0559501227
 20
-24.2214507903
 10
3.0351234965
 20
-24.2027939348
 10
3.0138146299
 20
-24.1869906881
 10
2.991919525
 20
-24.1740000308
 10
2.9694381817
 20
-24.1638219627
  0
LINE
  5
2BA
100
AcDbEntity
  8
0
100
AcDbLine
 62
7
  6
CONTINUOUS
 10
1.8425504475
 20
-23.0687103683
 11
1.8425504475
 21
-25.1440009283
  0
LINE
  5
2BB
100
AcDbEntity
  8
0
100
AcDbLine
 62
7
  6
CONTINUOUS
 10
2.2645684474
 20
-23.9783456737
 11
2.2645684474
 21
-23.4019031924
  0
LINE
  5
2BC
100
AcDbEntity
  8
0
100
AcDbLine
 62
7
  6
CONTINUOUS
 10
2.279102331
 20
-25.1440009283
 11
2.279102331
 21
-24.3222460176
  0
LINE
  5
2BD
100
AcDbEntity
  8
0
100
AcDbLine
 62
7
  6
CONTINUOUS
 10
2.9694381817
 20
-24.1638219627
 11
2.9694381817
 21
-24.1514138367
  0
LWPOLYLINE
  5
2BE
100
AcDbEntity
  8
0
100
AcDbPolyline
 62
7
  6
CONTINUOUS
 90
19
 70
0
 10
2.8555448123
 20
-23.6520340057
 10
2.8539855733
 20
-23.6868625834
 10
2.8500375206
 20
-23.7200286416
 10
2.8437006542
 20
-23.7515321803
 10
2.8347046721
 20
-23.7816562966
 10
2.8233198763
 20
-23.8101178934
 10
2.8103571725
 20
-23.8360676795
 10
2.7961640023
 20
-23.8590876366
 10
2.7803929241
 20
-23.879595783
 10
2.7628125183
 20
-23.8979968829
 10
2.743513386
 20
-23.9143115349
 10
2.7224049261
 20
-23.9285191405
 10
2.6989839163
 20
-23.9409626681
 10
2.6728539654
 20
-23.9517904577
 10
2.6444114646
 20
-23.9608541694
 10
2.6143423652
 20
-23.9680517519
 10
2.5828753176
 20
-23.9733491883
 10
2.5497816715
 20
-23.9767804955
 10
2.5150614268
 20
-23.9783456737
  0
LINE
  5
2BF
100
AcDbEntity
  8
0
100
AcDbLine
 62
7
  6
CONTINUOUS
 10
-1.7921804286
 20
-25.1440005306
 11
-1.6975914286
 21
-23.7728555306
  0
LINE
  5
2C0
100
AcDbEntity
  8
0
100
AcDbLine
 62
7
  6
CONTINUOUS
 10
-2.0219034286
 20
-23.0441775306
 11
-2.2115054286
 21
-25.1440005306
  0
LINE
  5
2C1
100
AcDbEntity
  8
0
100
AcDbLine
 62
7
  6
CONTINUOUS
 10
-3.4864564286
 20
-23.0441775306
 11
-3.8989474286
 21
-24.4895505306
  0
LINE
  5
2C2
100
AcDbEntity
  8
0
100
AcDbLine
 62
7
  6
CONTINUOUS
 10
-3.7234074286
 20
-25.1440005306
 11
-3.0484394286
 21
-23.0441775306
  0
LINE
  5
2C3
100
AcDbEntity
  8
0
100
AcDbLine
 62
7
  6
CONTINUOUS
 10
0.6310735714
 20
-24.4004265306
 11
0.8493175714
 21
-23.6211555306
  0
LINE
  5
2C4
100
AcDbEntity
  8
0
100
AcDbLine
 62
7
  6
CONTINUOUS
 10
0.4204655714
 20
-25.1440005306
 11
0.5414135714
 21
-24.7248015306
  0
LINE
  5
2C5
100
AcDbEntity
  8
0
100
AcDbLine
 62
7
  6
CONTINUOUS
 10
0.6455445714
 20
-23.0441775306
 11
-0.0130944286
 21
-25.1440005306
  0
LINE
  5
2C6
100
AcDbEntity
  8
0
100
AcDbLine
 62
7
  6
CONTINUOUS
 10
-0.7119484286
 20
-23.0441775306
 11
-1.1502644286
 21
-24.2100055306
  0
LINE
  5
2C7
100
AcDbEntity
  8
0
100
AcDbLine
 62
7
  6
CONTINUOUS
 10
-1.1219214286
 20
-25.1440005306
 11
-0.6007634286
 21
-23.7785715306
  0
LINE
  5
2C8
100
AcDbEntity
  8
RACCORDO
100
AcDbLine
 62
253
  6
CONTINUOUS
 10
35.7960493924
 20
26.9300626769
 11
35.8031228082
 21
26.9371360928
  0
LINE
  5
2C9
100
AcDbEntity
  8
RACCORDO
100
AcDbLine
 62
253
  6
CONTINUOUS
 10
32.9356389973
 20
23.2697132038
 11
32.9292444837
 21
23.2633186902
  0
LINE
  5
2CA
100
AcDbEntity
  8
RACCORDO
100
AcDbLine
 62
253
  6
CONTINUOUS
 10
36.495942779
 20
26.2301692903
 11
36.5030161948
 21
26.2372427062
  0
LINE
  5
2CB
100
AcDbEntity
  8
RACCORDO
100
AcDbLine
 62
253
  6
CONTINUOUS
 10
33.2363668043
 20
22.9705323938
 11
33.2291987922
 21
22.9633643816
  0
LINE
  5
2CC
100
AcDbEntity
  8
RACCORDO
100
AcDbLine
 62
253
  6
CONTINUOUS
 10
35.7960493924
 20
-25.5877157382
 11
35.8031228082
 21
-25.594789154
  0
LINE
  5
2CD
100
AcDbEntity
  8
RACCORDO
100
AcDbLine
 62
253
  6
CONTINUOUS
 10
32.9356389973
 20
-21.927366265
 11
32.9292444837
 21
-21.9209717514
  0
LINE
  5
2CE
100
AcDbEntity
  8
RACCORDO
100
AcDbLine
 62
253
  6
CONTINUOUS
 10
36.495942779
 20
-24.8878223516
 11
36.5030161948
 21
-24.8948957674
  0
LINE
  5
2CF
100
AcDbEntity
  8
RACCORDO
100
AcDbLine
 62
253
  6
CONTINUOUS
 10
33.2363668043
 20
-21.628185455
 11
33.2291987922
 21
-21.6210174428
  0
LWPOLYLINE
  5
2D0
100
AcDbEntity
  8
RACCORDO
100
AcDbPolyline
 62
253
  6
CONTINUOUS
 90
10
 70
0
 10
-34.272202676
 20
-21.9271549209
 10
-34.274119489
 20
-21.9277611642
 10
-34.2760581698
 20
-21.9290498183
 10
-34.2780160698
 20
-21.9310191209
 10
-34.2799905137
 20
-21.9336663786
 10
-34.2819788037
 20
-21.9369879711
 10
-34.2839782228
 20
-21.9409793557
 10
-34.2859860387
 20
-21.9456350738
 10
-34.2879995071
 20
-21.9509487582
 10
-34.2900158762
 20
-21.956913142
  0
LWPOLYLINE
  5
2D1
100
AcDbEntity
  8
RACCORDO
100
AcDbPolyline
 62
253
  6
CONTINUOUS
 90
10
 70
0
 10
-34.2722026073
 20
23.2694999044
 10
-34.2741199704
 20
23.2701059397
 10
-34.2760590702
 20
23.2713943557
 10
-34.2780172554
 20
23.2733633905
 10
-34.279991849
 20
23.2760103512
 10
-34.2819801513
 20
23.2793316182
 10
-34.283979444
 20
23.2833226495
 10
-34.2859869937
 20
23.2879779873
 10
-34.2880000556
 20
23.2932912652
 10
-34.2900158776
 20
23.2992552172
  0
LINE
  5
2D2
100
AcDbEntity
  8
RACCORDO
100
AcDbLine
 62
253
  6
CONTINUOUS
 10
33.2860194921
 20
23.9636654366
 11
32.9641230198
 21
23.2992570585
  0
LINE
  5
2D3
100
AcDbEntity
  8
RACCORDO
100
AcDbLine
 62
253
  6
CONTINUOUS
 10
33.5636277944
 20
23.6449885465
 11
33.243747318
 21
22.984698051
  0
LWPOLYLINE
  5
2D4
100
AcDbEntity
  8
RACCORDO
100
AcDbPolyline
 62
253
  6
CONTINUOUS
 90
6
 70
0
 10
-34.2633173818
 20
23.2697080967
 10
-34.2651001712
 20
23.2696909486
 10
-34.2668801598
 20
23.2696617823
 10
-34.2686572848
 20
23.2696206207
 10
-34.2704314841
 20
23.2695674872
 10
-34.2722026956
 20
23.2695024055
  0
LWPOLYLINE
  5
2D5
100
AcDbEntity
  8
RACCORDO
100
AcDbPolyline
 62
253
  6
CONTINUOUS
 90
6
 70
0
 10
-34.2662793647
 20
23.2997753198
 10
-34.2710327833
 20
23.2997303208
 10
-34.2757921103
 20
23.2996557438
 10
-34.2805573455
 20
23.2995515889
 10
-34.2853284891
 20
23.299417856
 10
-34.2901055409
 20
23.2992545453
  0
LWPOLYLINE
  5
2D6
100
AcDbEntity
  8
RACCORDO
100
AcDbPolyline
 62
253
  6
CONTINUOUS
 90
19
 70
0
 10
33.286019732
 20
23.9636659311
 10
33.3117999805
 20
23.9638336833
 10
33.3370621184
 20
23.9615439101
 10
33.3616423424
 20
23.9568454528
 10
33.3853489422
 20
23.9498116473
 10
33.4080660726
 20
23.9405071942
 10
33.4297441652
 20
23.9289623334
 10
33.4502296429
 20
23.9152509206
 10
33.4693857221
 20
23.8994541003
 10
33.487169345
 20
23.8815847613
 10
33.5034431342
 20
23.8617032415
 10
33.5180461475
 20
23.8399284284
 10
33.5308795707
 20
23.8163504681
 10
33.5418003399
 20
23.7910599089
 10
33.550669909
 20
23.764213684
 10
33.5573957049
 20
23.7360139504
 10
33.5618710089
 20
23.7066372914
 10
33.5639788064
 20
23.6762348576
 10
33.5636278095
 20
23.6449885777
  0
LINE
  5
2D7
100
AcDbEntity
  8
RACCORDO
100
AcDbLine
 62
253
  6
CONTINUOUS
 10
33.2363668043
 20
22.9705323938
 11
33.2438867754
 21
22.9705323937
  0
LINE
  5
2D8
100
AcDbEntity
  8
RACCORDO
100
AcDbLine
 62
253
  6
CONTINUOUS
 10
-34.5622596615
 20
22.9705323938
 11
-34.5697796326
 21
22.9705323938
  0
LINE
  5
2D9
100
AcDbEntity
  8
RACCORDO
100
AcDbLine
 62
7
  6
CONTINUOUS
 10
-34.2551373408
 20
23.2633186902
 11
32.9292444837
 21
23.2633186902
  0
LINE
  5
2DA
100
AcDbEntity
  8
RACCORDO
100
AcDbLine
 62
253
  6
CONTINUOUS
 10
32.9356389973
 20
23.2697132038
 11
-34.2633173818
 21
23.2697080967
  0
LINE
  5
2DB
100
AcDbEntity
  8
RACCORDO
100
AcDbLine
 62
253
  6
CONTINUOUS
 10
32.9356389973
 20
23.299790741
 11
-34.2662793647
 21
23.2997753198
  0
LINE
  5
2DC
100
AcDbEntity
  8
RACCORDO
100
AcDbLine
 62
253
  6
CONTINUOUS
 10
-35.1849629774
 20
23.6449882201
 11
-34.8895206515
 21
23.6449882201
  0
LINE
  5
2DD
100
AcDbEntity
  8
RACCORDO
100
AcDbLine
 62
253
  6
CONTINUOUS
 10
33.8590701203
 20
23.6449882201
 11
33.5636277944
 21
23.6449882201
  0
LINE
  5
2DE
100
AcDbEntity
  8
RACCORDO
100
AcDbLine
 62
253
  6
CONTINUOUS
 10
33.5636277944
 20
-22.3026726857
 11
33.243747318
 21
-21.6423511151
  0
LINE
  5
2DF
100
AcDbEntity
  8
RACCORDO
100
AcDbLine
 62
253
  6
CONTINUOUS
 10
33.2859849013
 20
-22.6213184978
 11
32.9646043334
 21
-21.9568966419
  0
LWPOLYLINE
  5
2E0
100
AcDbEntity
  8
RACCORDO
100
AcDbPolyline
 62
253
  6
CONTINUOUS
 90
22
 70
0
 10
-34.2722026956
 20
23.2695024055
 10
-34.2972201777
 20
23.2674496999
 10
-34.3219629061
 20
23.2633239875
 10
-34.3462581681
 20
23.2571639698
 10
-34.3699719634
 20
23.2490097302
 10
-34.392905615
 20
23.2389348014
 10
-34.4148089238
 20
23.2270731479
 10
-34.4356529296
 20
23.2134665509
 10
-34.4551994495
 20
23.1982944659
 10
-34.4729877349
 20
23.1820303994
 10
-34.488944523
 20
23.1649670342
 10
-34.5031557501
 20
23.1472462716
 10
-34.5155419009
 20
23.1292218051
 10
-34.526139317
 20
23.111183738
 10
-34.5351095793
 20
23.0932255784
 10
-34.5425977318
 20
23.0753928285
 10
-34.5487023397
 20
23.0578136988
 10
-34.5535280774
 20
23.0406005595
 10
-34.557198636
 20
23.023735317
 10
-34.5598089298
 20
23.0072581139
 10
-34.5614452341
 20
22.9912738269
 10
-34.5622014112
 20
22.9758385615
  0
LWPOLYLINE
  5
2E1
100
AcDbEntity
  8
RACCORDO
100
AcDbPolyline
 62
253
  6
CONTINUOUS
 90
22
 70
0
 10
-34.2901056747
 20
23.299254809
 10
-34.3154795222
 20
23.2979575268
 10
-34.3404755123
 20
23.2943650761
 10
-34.3649218748
 20
23.2885179631
 10
-34.388687697
 20
23.2804559702
 10
-34.411571575
 20
23.2702536946
 10
-34.4333145966
 20
23.2580478747
 10
-34.4538727097
 20
23.2438557994
 10
-34.4730217312
 20
23.2278785439
 10
-34.4903313371
 20
23.2106533447
 10
-34.5057159473
 20
23.1924485084
 10
-34.519263081
 20
23.1734067923
 10
-34.5309393879
 20
23.1539738871
 10
-34.5407798606
 20
23.1344364657
 10
-34.5489360873
 20
23.1148648135
 10
-34.5555865497
 20
23.0953664668
 10
-34.5608387192
 20
23.0760718699
 10
-34.5647804193
 20
23.0570711261
 10
-34.5675364858
 20
23.0383753014
 10
-34.5692056654
 20
23.0200302951
 10
-34.5698750907
 20
23.0021214498
 10
-34.5696401752
 20
22.984698051
  0
LINE
  5
2E2
100
AcDbEntity
  8
RACCORDO
100
AcDbLine
 62
253
  6
CONTINUOUS
 10
-34.6119139316
 20
23.9636654366
 11
33.2860194921
 21
23.9636654366
  0
LINE
  5
2E3
100
AcDbEntity
  8
RACCORDO
100
AcDbLine
 62
253
  6
CONTINUOUS
 10
-34.6118914378
 20
24.2455732228
 11
33.2859985807
 21
24.2455732228
  0
LINE
  5
2E4
100
AcDbEntity
  8
RACCORDO
100
AcDbLine
 62
253
  6
CONTINUOUS
 10
-37.8218356361
 20
26.2301692889
 11
-37.5218813276
 21
26.2301692903
  0
LINE
  5
2E5
100
AcDbEntity
  8
RACCORDO
100
AcDbLine
 62
253
  6
CONTINUOUS
 10
36.495942779
 20
26.2301692883
 11
36.1959884704
 21
26.2301692903
  0
LINE
  5
2E6
100
AcDbEntity
  8
RACCORDO
100
AcDbLine
 62
253
  6
CONTINUOUS
 10
35.7960493924
 20
26.6301083684
 11
-37.1251713879
 21
26.6301083684
  0
LINE
  5
2E7
100
AcDbEntity
  8
RACCORDO
100
AcDbLine
 62
253
  6
CONTINUOUS
 10
35.7960493924
 20
26.9300626769
 11
-37.1219422495
 21
26.9300626769
  0
LINE
  5
2E8
100
AcDbEntity
  8
RACCORDO
100
AcDbLine
 62
7
  6
CONTINUOUS
 10
35.8031228082
 20
26.9371360928
 11
-37.1290156654
 21
26.9371360928
  0
LWPOLYLINE
  5
2E9
100
AcDbEntity
  8
RACCORDO
100
AcDbPolyline
 62
253
  6
CONTINUOUS
 90
7
 70
0
 10
32.9641230198
 20
23.2992570585
 10
32.9594085894
 20
23.2994195876
 10
32.9546809963
 20
23.2995526838
 10
32.9499402405
 20
23.2996563473
 10
32.9451863221
 20
23.299730578
 10
32.940419241
 20
23.2997753758
 10
32.9356389973
 20
23.299790741
  0
LWPOLYLINE
  5
2EA
100
AcDbEntity
  8
RACCORDO
100
AcDbPolyline
 62
253
  6
CONTINUOUS
 90
7
 70
0
 10
32.9463098384
 20
23.2695024055
 10
32.9445476644
 20
23.2695671887
 10
32.9427788899
 20
23.2696202291
 10
32.9410035747
 20
23.2696614386
 10
32.9392217794
 20
23.2696907294
 10
32.937433566
 20
23.2697080137
 10
32.9356389973
 20
23.2697132038
  0
LWPOLYLINE
  5
2EB
100
AcDbEntity
  8
RACCORDO
100
AcDbPolyline
 62
253
  6
CONTINUOUS
 90
22
 70
0
 10
35.7960493924
 20
26.6301083684
 10
35.8260315556
 20
26.6289728506
 10
35.8555725468
 20
26.6256594597
 10
35.8846723659
 20
26.6201681959
 10
35.9135047654
 20
26.6124451717
 10
35.9418959928
 20
26.6025442745
 10
35.9693247908
 20
26.5906271665
 10
35.9957596573
 20
26.576660718
 10
36.0212320944
 20
26.5606780587
 10
36.0453153505
 20
26.54294024
 10
36.0679887611
 20
26.5234130825
 10
36.0892729906
 20
26.5021307656
 10
36.1088032811
 20
26.479456879
 10
36.1265458913
 20
26.4553695139
 10
36.1425345624
 20
26.429890579
 10
36.1565057598
 20
26.4034493904
 10
36.1684253591
 20
26.3760143967
 10
36.1783274847
 20
26.3476171493
 10
36.1860509747
 20
26.318781618
 10
36.1915421088
 20
26.2896824594
 10
36.1948546073
 20
26.2601450168
 10
36.1959884704
 20
26.2301692903
  0
LWPOLYLINE
  5
2EC
100
AcDbEntity
  8
RACCORDO
100
AcDbPolyline
 62
253
  6
CONTINUOUS
 90
19
 70
0
 10
33.2859985807
 20
24.2455732228
 10
33.3368926924
 20
24.2431720935
 10
33.3863736891
 20
24.2366369533
 10
33.4344415707
 20
24.2259678024
 10
33.4813283315
 20
24.2110482357
 10
33.5268019773
 20
24.1919946582
 10
33.5701665251
 20
24.1691562848
 10
33.6114158702
 20
24.1425289231
 10
33.6505561175
 20
24.1121167655
 10
33.6869095985
 20
24.0782816039
 10
33.7205115322
 20
24.0409473973
 10
33.7513266998
 20
24.0001901868
 10
33.7785717763
 20
23.9565998878
 10
33.8022239334
 20
23.9100677629
 10
33.8223059995
 20
23.8607025496
 10
33.8381031351
 20
23.8094203759
 10
33.8493770606
 20
23.7565266177
 10
33.8563660556
 20
23.7017158991
 10
33.8590701203
 20
23.6449882201
  0
LWPOLYLINE
  5
2ED
100
AcDbEntity
  8
RACCORDO
100
AcDbPolyline
 62
253
  6
CONTINUOUS
 90
10
 70
0
 10
33.236315511
 20
22.9758386882
 10
33.2365294531
 20
22.9768163167
 10
33.2368970171
 20
22.9777963448
 10
33.23741809
 20
22.9787784675
 10
33.2380925117
 20
22.9797623796
 10
33.2389200748
 20
22.980747775
 10
33.2399005251
 20
22.9817343473
 10
33.2410335611
 20
22.9827217897
 10
33.2423188345
 20
22.9837097951
 10
33.2437559503
 20
22.9846980564
  0
LWPOLYLINE
  5
2EE
100
AcDbEntity
  8
RACCORDO
100
AcDbPolyline
 62
253
  6
CONTINUOUS
 90
22
 70
0
 10
-37.1219422495
 20
26.9300626769
 10
-37.1742457027
 20
26.9280991681
 10
-37.2262555814
 20
26.9222331164
 10
-37.2776811793
 20
26.9124974517
 10
-37.3282350154
 20
26.8989467854
 10
-37.377634588
 20
26.8816569513
 10
-37.4256039338
 20
26.8607245221
 10
-37.4718750272
 20
26.8362664987
 10
-37.5161891432
 20
26.8084197177
 10
-37.5582984522
 20
26.7773399186
 10
-37.5979674107
 20
26.7432010523
 10
-37.6349745366
 20
26.7061938853
 10
-37.6691133937
 20
26.6665248452
 10
-37.7001932328
 20
26.6244153674
 10
-37.7280400588
 20
26.5801010255
 10
-37.7524980579
 20
26.5338297754
 10
-37.7734303922
 20
26.4858603998
 10
-37.7907201043
 20
26.4364608891
 10
-37.804270642
 20
26.3859072068
 10
-37.8140061912
 20
26.3344818549
 10
-37.8198721594
 20
26.2824723151
 10
-37.8218356361
 20
26.2301692903
  0
LWPOLYLINE
  5
2EF
100
AcDbEntity
  8
RACCORDO
100
AcDbPolyline
 62
253
  6
CONTINUOUS
 90
10
 70
0
 10
33.2363077679
 20
-21.6334916089
 10
33.2365222358
 20
-21.6344689772
 10
33.2368903099
 20
-21.6354488054
 10
33.2374118771
 20
-21.6364307924
 10
33.238086777
 20
-21.6374146362
 10
33.2389148022
 20
-21.6384000344
 10
33.239895698
 20
-21.6393866846
 10
33.241029163
 20
-21.6403742839
 10
33.2423148485
 20
-21.6413625284
 10
33.2437523593
 20
-21.6423511146
  0
LWPOLYLINE
  5
2F0
100
AcDbEntity
  8
RACCORDO
100
AcDbPolyline
 62
253
  6
CONTINUOUS
 90
22
 70
0
 10
33.2363085541
 20
22.9758385615
 10
33.2355523772
 20
22.9912738059
 10
33.2339160747
 20
23.0072580808
 10
33.231305783
 20
23.0237352809
 10
33.2276352246
 20
23.0406005338
 10
33.2228094841
 20
23.0578136919
 10
33.2167048729
 20
23.0753928346
 10
33.2092167195
 20
23.0932255859
 10
33.2002464582
 20
23.111183742
 10
33.1896490433
 20
23.129221806
 10
33.177262893
 20
23.1472462715
 10
33.1630516663
 20
23.1649670335
 10
33.1470948784
 20
23.1820303985
 10
33.1293065929
 20
23.1982944652
 10
33.1097600727
 20
23.2134665507
 10
33.0889160667
 20
23.2270731481
 10
33.0670127584
 20
23.2389348014
 10
33.0440791076
 20
23.24900973
 10
33.0203653128
 20
23.2571639696
 10
32.9960700507
 20
23.2633239875
 10
32.9713273217
 20
23.2674496999
 10
32.9463098384
 20
23.2695024055
  0
LINE
  5
2F1
100
AcDbEntity
  8
RACCORDO
100
AcDbLine
 62
253
  6
CONTINUOUS
 10
33.2438245359
 20
22.9799176565
 11
33.243747318
 21
22.984698051
  0
LWPOLYLINE
  5
2F2
100
AcDbEntity
  8
RACCORDO
100
AcDbPolyline
 62
253
  6
CONTINUOUS
 90
19
 70
0
 10
33.5636292485
 20
-22.3026756904
 10
33.5639794955
 20
-22.333882441
 10
33.5618763277
 20
-22.3642541064
 10
33.5574091362
 20
-22.3936091323
 10
33.5506932537
 20
-22.4217972419
 10
33.541833408
 20
-22.4486407998
 10
33.5309201117
 20
-22.4739347722
 10
33.5180902548
 20
-22.4975215509
 10
33.5034860117
 20
-22.5193097304
 10
33.487206022
 20
-22.5392060398
 10
33.4694065473
 20
-22.5570934233
 10
33.4502282912
 20
-22.5729072645
 10
33.4297290577
 20
-22.586625548
 10
33.4080600366
 20
-22.5981633101
 10
33.3853644527
 20
-22.6074572877
 10
33.3616690002
 20
-22.6144879266
 10
33.3370804625
 20
-22.6191899263
 10
33.31179776
 20
-22.6214839251
 10
33.2859847447
 20
-22.6213181744
  0
LINE
  5
2F3
100
AcDbEntity
  8
RACCORDO
100
AcDbLine
 62
253
  6
CONTINUOUS
 10
33.2363668043
 20
22.9705323938
 11
33.2363085541
 21
22.9758385615
  0
LINE
  5
2F4
100
AcDbEntity
  8
RACCORDO
100
AcDbLine
 62
253
  6
CONTINUOUS
 10
33.2438710217
 20
22.9751957708
 11
33.2438245359
 21
22.9799176565
  0
LINE
  5
2F5
100
AcDbEntity
  8
RACCORDO
100
AcDbLine
 62
253
  6
CONTINUOUS
 10
33.2438867754
 20
22.9705323938
 11
33.2438710217
 21
22.9751957708
  0
LINE
  5
2F6
100
AcDbEntity
  8
RACCORDO
100
AcDbLine
 62
253
  6
CONTINUOUS
 10
32.9356389973
 20
-21.927366265
 11
32.9356389977
 21
-21.9574438022
  0
LINE
  5
2F7
100
AcDbEntity
  8
RACCORDO
100
AcDbLine
 62
253
  6
CONTINUOUS
 10
32.9356389973
 20
23.2697132038
 11
32.9356389973
 21
23.299790741
  0
LINE
  5
2F8
100
AcDbEntity
  8
RACCORDO
100
AcDbLine
 62
7
  6
CONTINUOUS
 10
33.2291987922
 20
22.9633643816
 11
33.2291987922
 21
-21.6210174428
  0
LINE
  5
2F9
100
AcDbEntity
  8
RACCORDO
100
AcDbLine
 62
253
  6
CONTINUOUS
 10
33.2363668043
 20
-21.628185455
 11
33.2363668043
 21
22.9705323938
  0
LINE
  5
2FA
100
AcDbEntity
  8
RACCORDO
100
AcDbLine
 62
253
  6
CONTINUOUS
 10
33.2438867754
 20
-21.628185455
 11
33.2438867754
 21
22.9705323938
  0
LINE
  5
2FB
100
AcDbEntity
  8
RACCORDO
100
AcDbLine
 62
253
  6
CONTINUOUS
 10
33.2859985807
 20
24.2455732228
 11
33.2859985807
 21
23.9636654366
  0
LINE
  5
2FC
100
AcDbEntity
  8
RACCORDO
100
AcDbLine
 62
253
  6
CONTINUOUS
 10
33.2859985807
 20
-22.903226284
 11
33.2859985807
 21
-22.6213184978
  0
LINE
  5
2FD
100
AcDbEntity
  8
RACCORDO
100
AcDbLine
 62
253
  6
CONTINUOUS
 10
33.5636277944
 20
23.6449885465
 11
33.5636277944
 21
-22.3026726857
  0
LINE
  5
2FE
100
AcDbEntity
  8
RACCORDO
100
AcDbLine
 62
253
  6
CONTINUOUS
 10
33.8590701203
 20
23.6449882201
 11
33.8590701203
 21
-22.3026412813
  0
LINE
  5
2FF
100
AcDbEntity
  8
RACCORDO
100
AcDbLine
 62
253
  6
CONTINUOUS
 10
35.796049391
 20
26.9300626769
 11
35.7960493924
 21
26.6301083684
  0
LINE
  5
300
100
AcDbEntity
  8
RACCORDO
100
AcDbLine
 62
253
  6
CONTINUOUS
 10
35.7960493904
 20
-25.5877157382
 11
35.7960493924
 21
-25.2877614296
  0
LINE
  5
301
100
AcDbEntity
  8
RACCORDO
100
AcDbLine
 62
253
  6
CONTINUOUS
 10
33.243747318
 20
-21.6423511151
 11
33.2438867754
 21
-21.628185455
  0
LINE
  5
302
100
AcDbEntity
  8
RACCORDO
100
AcDbLine
 62
253
  6
CONTINUOUS
 10
33.2363085541
 20
-21.6334916227
 11
33.2363668043
 21
-21.628185455
  0
LWPOLYLINE
  5
303
100
AcDbEntity
  8
RACCORDO
100
AcDbPolyline
 62
253
  6
CONTINUOUS
 90
22
 70
0
 10
33.243747318
 20
22.984698051
 10
33.2439823137
 20
23.0021214006
 10
33.2433129487
 20
23.0200302183
 10
33.241643798
 20
23.0383752184
 10
33.2388876892
 20
23.0570710669
 10
33.2349458844
 20
23.0760718505
 10
33.2296936302
 20
23.0953664729
 10
33.2230431643
 20
23.1148648224
 10
33.2148869801
 20
23.1344364706
 10
33.2050465446
 20
23.1539738903
 10
33.1933702419
 20
23.1734067959
 10
33.1798231
 20
23.1924485113
 10
33.1644384816
 20
23.2106533457
 10
33.1471288724
 20
23.227878542
 10
33.1279798484
 20
23.2438557943
 10
33.1074217345
 20
23.2580478685
 10
33.0856817568
 20
23.2702523551
 10
33.0628011263
 20
23.2804537731
 10
33.0390290204
 20
23.2885179704
 10
33.0145629803
 20
23.2943686981
 10
32.9895369537
 20
23.2979627023
 10
32.9641230198
 20
23.2992570585
  0
LWPOLYLINE
  5
304
100
AcDbEntity
  8
RACCORDO
100
AcDbPolyline
 62
253
  6
CONTINUOUS
 90
19
 70
0
 10
33.8590701203
 20
-22.3026412813
 10
33.8563772927
 20
-22.3593456484
 10
33.8493967745
 20
-22.4141402254
 10
33.8381285657
 20
-22.4670250123
 10
33.8223350552
 20
-22.5183064851
 10
33.8022538541
 20
-22.5676781678
 10
33.7785977954
 20
-22.6142206326
 10
33.7513441139
 20
-22.6578256875
 10
33.7205155748
 20
-22.6986015245
 10
33.6868933073
 20
-22.7359532916
 10
33.6505018698
 20
-22.7698074272
 10
33.6113167039
 20
-22.8002374928
 10
33.570045264
 20
-22.8268693218
 10
33.5267019311
 20
-22.8496864402
 10
33.4812723242
 20
-22.8687053219
 10
33.4344207546
 20
-22.8836012217
 10
33.3863686594
 20
-22.8942658911
 10
33.3368946014
 20
-22.9008075785
 10
33.2859985807
 20
-22.903226284
  0
LWPOLYLINE
  5
305
100
AcDbEntity
  8
RACCORDO
100
AcDbPolyline
 62
253
  6
CONTINUOUS
 90
22
 70
0
 10
36.495942779
 20
26.2301692903
 10
36.4939792701
 20
26.2824727435
 10
36.4881132184
 20
26.3344826222
 10
36.4783775537
 20
26.3859082201
 10
36.4648268875
 20
26.4364620562
 10
36.4475370533
 20
26.4858616289
 10
36.4266046242
 20
26.5338309747
 10
36.4021466007
 20
26.580102068
 10
36.3742998198
 20
26.624416184
 10
36.3432200206
 20
26.666525493
 10
36.3090811544
 20
26.7061944515
 10
36.2720739873
 20
26.7432015775
 10
36.2324049472
 20
26.7773404345
 10
36.1902954695
 20
26.8084202736
 10
36.1459811275
 20
26.8362670997
 10
36.0997098775
 20
26.8607250988
 10
36.0517405018
 20
26.881657433
 10
36.0023409911
 20
26.8989471451
 10
35.9517873088
 20
26.9124976828
 10
35.9003619569
 20
26.922233232
 10
35.8483524172
 20
26.9280992002
 10
35.7960493924
 20
26.9300626769
  0
LINE
  5
306
100
AcDbEntity
  8
RACCORDO
100
AcDbLine
 62
253
  6
CONTINUOUS
 10
36.1959884704
 20
-24.8878223516
 11
36.1959884704
 21
26.2301692903
  0
LINE
  5
307
100
AcDbEntity
  8
RACCORDO
100
AcDbLine
 62
253
  6
CONTINUOUS
 10
36.495942779
 20
-24.8878223516
 11
36.495942779
 21
26.2301692903
  0
LINE
  5
308
100
AcDbEntity
  8
RACCORDO
100
AcDbLine
 62
7
  6
CONTINUOUS
 10
36.5030161948
 20
-24.8948957674
 11
36.5030161948
 21
26.2372427062
  0
LWPOLYLINE
  5
309
100
AcDbEntity
  8
RACCORDO
100
AcDbPolyline
 62
253
  6
CONTINUOUS
 90
22
 70
0
 10
36.1959884704
 20
-24.8878223516
 10
36.1948656824
 20
-24.9176402906
 10
36.1915877962
 20
-24.9470246165
 10
36.1861548119
 20
-24.9759753293
 10
36.1785140195
 20
-25.0046636223
 10
36.1687181291
 20
-25.0329183023
 10
36.1569252699
 20
-25.060225789
 10
36.1431029688
 20
-25.0865551351
 10
36.127283699
 20
-25.111937288
 10
36.1097230097
 20
-25.1359515102
 10
36.0903873399
 20
-25.1585777409
 10
36.0693102505
 20
-25.1798360411
 10
36.0468479736
 20
-25.1993658557
 10
36.0229791041
 20
-25.2171341508
 10
35.997725047
 20
-25.2331739604
 10
35.9715062489
 20
-25.2472238323
 10
35.9442960537
 20
-25.2592503208
 10
35.9161211175
 20
-25.2692868715
 10
35.8874818553
 20
-25.2771723693
 10
35.858545072
 20
-25.282853109
 10
35.8291439626
 20
-25.2863827958
 10
35.7992785272
 20
-25.2877614296
  0
LINE
  5
30A
100
AcDbEntity
  8
SMUSSO
100
AcDbLine
 62
7
  6
CONTINUOUS
 10
41.0370535714
 20
-41.0288265306
 11
41.0370535714
 21
42.3711734694
  0
LINE
  5
30B
100
AcDbEntity
  8
SMUSSO
100
AcDbLine
 62
7
  6
CONTINUOUS
 10
41.0370535714
 20
42.3711734694
 11
-42.3629464286
 21
42.3711734694
  0
LINE
  5
30C
100
AcDbEntity
  8
SMUSSO
100
AcDbLine
 62
7
  6
CONTINUOUS
 10
47.0370535714
 20
-46.0288265306
 11
47.0370535714
 21
47.3711734694
  0
LINE
  5
30D
100
AcDbEntity
  8
SMUSSO
100
AcDbLine
 62
7
  6
CONTINUOUS
 10
46.0370535714
 20
48.3711734694
 11
-47.3629464286
 21
48.3711734694
  0
LINE
  5
30E
100
AcDbEntity
  8
SMUSSO
100
AcDbLine
 62
7
  6
CONTINUOUS
 10
-85.3945566327
 20
-47.0288265306
 11
-83.8945566327
 21
-47.0288265306
  0
LINE
  5
30F
100
AcDbEntity
  8
DRAFT
100
AcDbLine
 62
7
  6
CONTINUOUS
 10
-82.8469638455
 20
-46.9264193178
 11
-79.8445566327
 21
-46.9788265306
  0
LINE
  5
310
100
AcDbEntity
  8
SMUSSO
100
AcDbLine
 62
253
  6
CONTINUOUS
 10
-83.3945566327
 20
-46.0288265306
 11
-85.3945566327
 21
-46.0288265306
  0
LINE
  5
311
100
AcDbEntity
  8
DRAFT
100
AcDbLine
 62
253
  6
CONTINUOUS
 10
-78.8445566327
 20
-45.4788265306
 11
-83.2945566327
 21
-45.4788265306
  0
LINE
  5
312
100
AcDbEntity
  8
SMUSSO
100
AcDbLine
 62
7
  6
CONTINUOUS
 10
-83.2945566329
 20
47.8211734691
 11
-82.8469638455
 21
48.2687662565
  0
LINE
  5
313
100
AcDbEntity
  8
DRAFT
100
AcDbLine
 62
7
  6
CONTINUOUS
 10
-83.2945566327
 20
47.8211734694
 11
-82.8469638455
 21
48.2687662565
  0
LINE
  5
314
100
AcDbEntity
  8
DRAFT
100
AcDbLine
 62
7
  6
CONTINUOUS
 10
-83.2945566327
 20
-46.4788265306
 11
-82.8469638455
 21
-46.9264193178
  0
LINE
  5
315
100
AcDbEntity
  8
0
100
AcDbLine
 62
7
  6
CONTINUOUS
 10
-78.2445566327
 20
-25.6788265306
 11
-78.8445566327
 21
-25.6823172285
  0
LINE
  5
316
100
AcDbEntity
  8
ASSI
100
AcDbLine
 62
7
  6
CONTINUOUS
 10
-78.7439181507
 20
-26.4796980818
 11
-78.8445566327
 21
-26.4798737292
  0
LINE
  5
317
100
AcDbEntity
  8
0
100
AcDbLine
 62
253
  6
CONTINUOUS
 10
-78.5223278223
 20
-26.2565977203
 11
-78.8445566327
 21
-26.2567432791
  0
LINE
  5
318
100
AcDbEntity
  8
0
100
AcDbLine
 62
7
  6
CONTINUOUS
 10
-88.0945566327
 20
-25.1440009283
 11
-88.2945566327
 21
-25.1440009283
  0
LINE
  5
319
100
AcDbEntity
  8
RACCORDO
100
AcDbLine
 62
253
  6
CONTINUOUS
 10
-87.7997923546
 20
-24.8878223502
 11
-88.0945566327
 21
-24.8878223516
  0
LINE
  5
31A
100
AcDbEntity
  8
0
100
AcDbLine
 62
253
  6
CONTINUOUS
 10
-88.0945566327
 20
-24.5756678187
 11
-88.2945566327
 21
-24.5756678187
  0
LINE
  5
31B
100
AcDbEntity
  8
0
100
AcDbLine
 62
7
  6
CONTINUOUS
 10
-78.4445566327
 20
-24.5288265306
 11
-78.8445566327
 21
-24.5288265306
  0
LINE
  5
31C
100
AcDbEntity
  8
RACCORDO
100
AcDbLine
 62
7
  6
CONTINUOUS
 10
-87.7997923546
 20
-25.5877157382
 11
-87.3945566327
 21
-25.594789154
  0
LINE
  5
31D
100
AcDbEntity
  8
RACCORDO
100
AcDbLine
 62
7
  6
CONTINUOUS
 10
-83.3945566327
 20
-25.0244627644
 11
-83.2945566327
 21
-25.0262082709
  0
LINE
  5
31E
100
AcDbEntity
  8
RACCORDO
100
AcDbLine
 62
253
  6
CONTINUOUS
 10
-87.7997923546
 20
-24.8878223516
 11
-87.3945566327
 21
-24.8948957674
  0
LINE
  5
31F
100
AcDbEntity
  8
RACCORDO
100
AcDbLine
 62
7
  6
CONTINUOUS
 10
-83.2945566327
 20
-25.1759779489
 11
-83.3945566327
 21
-25.1740788944
  0
LINE
  5
320
100
AcDbEntity
  8
0
100
AcDbLine
 62
7
  6
CONTINUOUS
 10
-78.4340894414
 20
-25.1204529473
 11
-78.8445566327
 21
-25.1023184553
  0
LINE
  5
321
100
AcDbEntity
  8
ASSI
100
AcDbLine
 62
7
  6
CONTINUOUS
 10
-78.7945566327
 20
-24.3788265306
 11
-78.5945566327
 21
-24.3788265306
  0
LINE
  5
322
100
AcDbEntity
  8
0
100
AcDbLine
 62
7
  6
CONTINUOUS
 10
-88.0945566327
 20
-24.1638219627
 11
-88.2945566327
 21
-24.1638219627
  0
LINE
  5
323
100
AcDbEntity
  8
0
100
AcDbLine
 62
7
  6
CONTINUOUS
 10
-88.0945566327
 20
-24.1514138367
 11
-88.2945566327
 21
-24.1514138367
  0
LINE
  5
324
100
AcDbEntity
  8
0
100
AcDbLine
 62
253
  6
CONTINUOUS
 10
-88.0945566327
 20
-23.0908182475
 11
-88.2945566327
 21
-23.0908182475
  0
LINE
  5
325
100
AcDbEntity
  8
0
100
AcDbLine
 62
7
  6
CONTINUOUS
 10
-88.0945566327
 20
-23.0195401558
 11
-88.2945566327
 21
-23.0195401558
  0
LINE
  5
326
100
AcDbEntity
  8
RACCORDO
100
AcDbLine
 62
253
  6
CONTINUOUS
 10
-83.3945566327
 20
-23.7246607607
 11
-83.2945566327
 21
-23.7264062672
  0
LINE
  5
327
100
AcDbEntity
  8
RACCORDO
100
AcDbLine
 62
7
  6
CONTINUOUS
 10
-83.2945566327
 20
-20.4793639486
 11
-83.3945566327
 21
-20.4797222272
  0
LINE
  5
328
100
AcDbEntity
  8
RACCORDO
100
AcDbLine
 62
7
  6
CONTINUOUS
 10
-83.2945566327
 20
-20.8288265306
 11
-83.3945566327
 21
-20.8288265306
  0
LINE
  5
329
100
AcDbEntity
  8
RACCORDO
100
AcDbLine
 62
7
  6
CONTINUOUS
 10
-83.2945566327
 20
-21.1782891126
 11
-83.3945566327
 21
-21.177930834
  0
LINE
  5
32A
100
AcDbEntity
  8
SMUSSO
100
AcDbLine
 62
7
  6
CONTINUOUS
 10
-85.3945566327
 20
48.3711734694
 11
-87.3945566327
 21
42.3711734694
  0
LINE
  5
32B
100
AcDbEntity
  8
SMUSSO
100
AcDbLine
 62
7
  6
CONTINUOUS
 10
-85.3945566327
 20
-47.0288265306
 11
-87.3945566327
 21
-41.0288265306
  0
LINE
  5
32C
100
AcDbEntity
  8
ASSI
100
AcDbLine
 62
7
  6
CONTINUOUS
 10
-78.5945566327
 20
25.7211734694
 11
-78.4445566327
 21
25.8711734694
  0
LINE
  5
32D
100
AcDbEntity
  8
RACCORDO
100
AcDbLine
 62
7
  6
CONTINUOUS
 10
-83.2945566327
 20
-14.5523908683
 11
-83.3945566327
 21
-14.5541363748
  0
LINE
  5
32E
100
AcDbEntity
  8
RACCORDO
100
AcDbLine
 62
7
  6
CONTINUOUS
 10
-83.2941454409
 20
-13.8052693703
 11
-83.3945566327
 21
-13.8035166865
  0
LINE
  5
32F
100
AcDbEntity
  8
ASSI
100
AcDbLine
 62
7
  6
CONTINUOUS
 10
-78.5945566327
 20
-24.3788265306
 11
-78.4445566327
 21
-24.5288265306
  0
LWPOLYLINE
  5
330
100
AcDbEntity
  8
RACCORDO
100
AcDbPolyline
 62
253
  6
CONTINUOUS
 90
5
 70
0
 10
-87.7997923546
 20
-25.5877157382
 10
-87.8001649716
 20
-25.5857522293
 10
-87.8005109395
 20
-25.5798861776
 10
-87.8008257588
 20
-25.5701505129
 10
-87.8011036076
 20
-25.5565998466
  0
LINE
  5
331
100
AcDbEntity
  8
RACCORDO
100
AcDbLine
 62
7
  6
CONTINUOUS
 10
-83.2945566327
 20
-6.8523908683
 11
-83.3945566327
 21
-6.8541363748
  0
LINE
  5
332
100
AcDbEntity
  8
RACCORDO
100
AcDbLine
 62
7
  6
CONTINUOUS
 10
-83.2945566327
 20
-6.105262193
 11
-83.3945566327
 21
-6.1035166865
  0
LINE
  5
333
100
AcDbEntity
  8
RACCORDO
100
AcDbLine
 62
253
  6
CONTINUOUS
 10
-87.8011036076
 20
-25.5565998466
 11
-87.8015449835
 21
-25.5183775834
  0
LINE
  5
334
100
AcDbEntity
  8
RACCORDO
100
AcDbLine
 62
253
  6
CONTINUOUS
 10
-87.7997923546
 20
26.2301692903
 11
-87.8018312272
 21
26.624416184
  0
LINE
  5
335
100
AcDbEntity
  8
RACCORDO
100
AcDbLine
 62
253
  6
CONTINUOUS
 10
-87.8015449835
 20
-25.5183775834
 11
-87.8019134101
 21
-25.4349929798
  0
LINE
  5
336
100
AcDbEntity
  8
0
100
AcDbLine
 62
7
  6
CONTINUOUS
 10
-88.2945566327
 20
-25.1440009283
 11
-88.2945566327
 21
-23.0195481255
  0
LINE
  5
337
100
AcDbEntity
  8
RACCORDO
100
AcDbLine
 62
7
  6
CONTINUOUS
 10
-88.0945566327
 20
-25.2877614296
 11
-88.0945566327
 21
26.6301083684
  0
LINE
  5
338
100
AcDbEntity
  8
RACCORDO
100
AcDbLine
 62
253
  6
CONTINUOUS
 10
-87.7997923546
 20
-24.8878223516
 11
-87.7997923546
 21
26.2301692903
  0
LINE
  5
339
100
AcDbEntity
  8
SMUSSO
100
AcDbLine
 62
7
  6
CONTINUOUS
 10
-87.3945566327
 20
-41.0288265306
 11
-87.3945566327
 21
42.3711734694
  0
LINE
  5
33A
100
AcDbEntity
  8
RACCORDO
100
AcDbLine
 62
253
  6
CONTINUOUS
 10
-87.8018312272
 20
26.624416184
 11
-87.8019134314
 21
26.7773404345
  0
LINE
  5
33B
100
AcDbEntity
  8
RACCORDO
100
AcDbLine
 62
253
  6
CONTINUOUS
 10
-87.8019134101
 20
-25.4349929798
 11
-87.8017088609
 21
-25.2377540867
  0
LINE
  5
33C
100
AcDbEntity
  8
RACCORDO
100
AcDbLine
 62
253
  6
CONTINUOUS
 10
-87.8019134314
 20
26.7773404345
 11
-87.8015450162
 21
26.8607250988
  0
LINE
  5
33D
100
AcDbEntity
  8
RACCORDO
100
AcDbLine
 62
253
  6
CONTINUOUS
 10
-87.8017088609
 20
-25.2377540867
 11
-87.7997923546
 21
-24.8878223516
  0
LWPOLYLINE
  5
33E
100
AcDbEntity
  8
RACCORDO
100
AcDbPolyline
 62
253
  6
CONTINUOUS
 90
6
 70
0
 10
-87.8015450162
 20
26.8607250988
 10
-87.8011036221
 20
26.8989471451
 10
-87.8008257644
 20
26.9124976828
 10
-87.8005109403
 20
26.922233232
 10
-87.8001649705
 20
26.9280992002
 10
-87.7997923546
 20
26.9300626769
  0
LINE
  5
33F
100
AcDbEntity
  8
SMUSSO
100
AcDbLine
 62
7
  6
CONTINUOUS
 10
-85.3945566327
 20
-46.0288265306
 11
-85.3945566327
 21
47.3711734694
  0
LINE
  5
340
100
AcDbEntity
  8
SMUSSO
100
AcDbLine
 62
7
  6
CONTINUOUS
 10
-83.8945566327
 20
48.3711734694
 11
-83.8945566327
 21
-47.0288265306
  0
LINE
  5
341
100
AcDbEntity
  8
SMUSSO
100
AcDbLine
 62
7
  6
CONTINUOUS
 10
-83.3945566327
 20
47.8711734694
 11
-83.3945566327
 21
-46.5288265306
  0
LINE
  5
342
100
AcDbEntity
  8
SMUSSO
100
AcDbLine
 62
7
  6
CONTINUOUS
 10
-83.2945566327
 20
-46.4788265306
 11
-83.2945566327
 21
47.8211734694
  0
LINE
  5
343
100
AcDbEntity
  8
DRAFT
100
AcDbLine
 62
7
  6
CONTINUOUS
 10
-82.8469638455
 20
-46.9264193178
 11
-82.8469638455
 21
48.2687662565
  0
LINE
  5
344
100
AcDbEntity
  8
DRAFT
100
AcDbLine
 62
7
  6
CONTINUOUS
 10
-79.8445566327
 20
-46.9788265306
 11
-79.8445566327
 21
48.3211734694
  0
LINE
  5
345
100
AcDbEntity
  8
SMUSSO
100
AcDbLine
 62
7
  6
CONTINUOUS
 10
-78.8445566327
 20
47.3211734694
 11
-78.8445566327
 21
-45.9788265306
  0
LINE
  5
346
100
AcDbEntity
  8
ASSI
100
AcDbLine
 62
253
  6
CONTINUOUS
 10
-78.4340894414
 20
26.4627998861
 11
-78.4340894414
 21
25.8714475624
  0
LINE
  5
347
100
AcDbEntity
  8
ASSI
100
AcDbLine
 62
253
  6
CONTINUOUS
 10
-78.4340894414
 20
-24.5291006237
 11
-78.4340894414
 21
-25.1204529473
  0
LINE
  5
348
100
AcDbEntity
  8
ASSI
100
AcDbLine
 62
7
  6
CONTINUOUS
 10
-78.2445566327
 20
-24.7288265306
 11
-78.2445566327
 21
-25.9788265306
  0
LINE
  5
349
100
AcDbEntity
  8
ASSI
100
AcDbLine
 62
7
  6
CONTINUOUS
 10
-78.2445566327
 20
26.0711734694
 11
-78.2445566327
 21
27.3211734694
  0
LINE
  5
34A
100
AcDbEntity
  8
RACCORDO
100
AcDbLine
 62
7
  6
CONTINUOUS
 10
-83.2945566327
 20
7.4476091317
 11
-83.3945566327
 21
7.4458636252
  0
LINE
  5
34B
100
AcDbEntity
  8
RACCORDO
100
AcDbLine
 62
7
  6
CONTINUOUS
 10
-83.2945566327
 20
8.194737807
 11
-83.3945566327
 21
8.1964833135
  0
LINE
  5
34C
100
AcDbEntity
  8
RACCORDO
100
AcDbLine
 62
7
  6
CONTINUOUS
 10
-83.2941454409
 20
15.1476163091
 11
-83.3945566327
 21
15.1458636252
  0
LINE
  5
34D
100
AcDbEntity
  8
RACCORDO
100
AcDbLine
 62
7
  6
CONTINUOUS
 10
-83.2945566327
 20
15.894737807
 11
-83.3945566327
 21
15.8964833135
  0
LINE
  5
34E
100
AcDbEntity
  8
ASSI
100
AcDbLine
 62
7
  6
CONTINUOUS
 10
-78.8445566327
 20
-24.4288265306
 11
-78.7945566327
 21
-24.3788265306
  0
LINE
  5
34F
100
AcDbEntity
  8
ASSI
100
AcDbLine
 62
7
  6
CONTINUOUS
 10
-78.2445566327
 20
-25.9788265306
 11
-78.7453718257
 21
-26.4796417237
  0
LINE
  5
350
100
AcDbEntity
  8
RACCORDO
100
AcDbLine
 62
7
  6
CONTINUOUS
 10
-83.2945566327
 20
22.5206360514
 11
-83.3945566327
 21
22.5202777728
  0
LINE
  5
351
100
AcDbEntity
  8
RACCORDO
100
AcDbLine
 62
7
  6
CONTINUOUS
 10
-83.2945566327
 20
22.1711734694
 11
-83.3945566327
 21
22.1711734694
  0
LINE
  5
352
100
AcDbEntity
  8
RACCORDO
100
AcDbLine
 62
7
  6
CONTINUOUS
 10
-83.2945566327
 20
21.8217108874
 11
-83.3945566327
 21
21.822069166
  0
LINE
  5
353
100
AcDbEntity
  8
ASSI
100
AcDbLine
 62
7
  6
CONTINUOUS
 10
-78.8445566327
 20
25.7711734694
 11
-78.7945566327
 21
25.7211734694
  0
LINE
  5
354
100
AcDbEntity
  8
ASSI
100
AcDbLine
 62
7
  6
CONTINUOUS
 10
-78.7453718257
 20
27.8219886625
 11
-78.2445566327
 21
27.3211734694
  0
LINE
  5
355
100
AcDbEntity
  8
0
100
AcDbLine
 62
7
  6
CONTINUOUS
 10
-78.4340894414
 20
26.4627998861
 11
-78.8445566327
 21
26.4446653941
  0
LINE
  5
356
100
AcDbEntity
  8
RACCORDO
100
AcDbLine
 62
7
  6
CONTINUOUS
 10
-83.2945566327
 20
26.5183248877
 11
-83.3945566327
 21
26.5164258332
  0
LINE
  5
357
100
AcDbEntity
  8
RACCORDO
100
AcDbLine
 62
253
  6
CONTINUOUS
 10
-83.3945566327
 20
25.0670076995
 11
-83.2945566327
 21
25.0687532059
  0
LINE
  5
358
100
AcDbEntity
  8
RACCORDO
100
AcDbLine
 62
253
  6
CONTINUOUS
 10
-87.7997923546
 20
26.2301692903
 11
-87.3945566327
 21
26.2372427062
  0
LINE
  5
359
100
AcDbEntity
  8
RACCORDO
100
AcDbLine
 62
7
  6
CONTINUOUS
 10
-83.3945566327
 20
26.3668097032
 11
-83.2945566327
 21
26.3685552096
  0
LINE
  5
35A
100
AcDbEntity
  8
ASSI
100
AcDbLine
 62
7
  6
CONTINUOUS
 10
-78.7945566327
 20
25.7211734694
 11
-78.5945566327
 21
25.7211734694
  0
LINE
  5
35B
100
AcDbEntity
  8
0
100
AcDbLine
 62
7
  6
CONTINUOUS
 10
-78.4445566327
 20
25.8711734694
 11
-78.8445566327
 21
25.8711734694
  0
LINE
  5
35C
100
AcDbEntity
  8
RACCORDO
100
AcDbLine
 62
253
  6
CONTINUOUS
 10
-87.7997923546
 20
26.2301692883
 11
-88.0945566327
 21
26.2301692903
  0
LINE
  5
35D
100
AcDbEntity
  8
RACCORDO
100
AcDbLine
 62
7
  6
CONTINUOUS
 10
-87.7997923546
 20
26.9300626769
 11
-87.3945566327
 21
26.9371360928
  0
LINE
  5
35E
100
AcDbEntity
  8
0
100
AcDbLine
 62
253
  6
CONTINUOUS
 10
-78.5223278223
 20
27.5989446591
 11
-78.8445566327
 21
27.5990902179
  0
LINE
  5
35F
100
AcDbEntity
  8
ASSI
100
AcDbLine
 62
7
  6
CONTINUOUS
 10
-78.7439181507
 20
27.8220450205
 11
-78.8445566327
 21
27.822220668
  0
LINE
  5
360
100
AcDbEntity
  8
0
100
AcDbLine
 62
7
  6
CONTINUOUS
 10
-78.2445566327
 20
27.0211734694
 11
-78.8445566327
 21
27.0246641673
  0
LINE
  5
361
100
AcDbEntity
  8
SMUSSO
100
AcDbLine
 62
7
  6
CONTINUOUS
 10
-83.3945566327
 20
-46.5288265306
 11
-83.8945566327
 21
-47.0288265306
  0
LINE
  5
362
100
AcDbEntity
  8
SMUSSO
100
AcDbLine
 62
7
  6
CONTINUOUS
 10
-83.3945566321
 20
47.8711734689
 11
-83.8945566316
 21
48.3711734684
  0
LINE
  5
363
100
AcDbEntity
  8
DRAFT
100
AcDbLine
 62
7
  6
CONTINUOUS
 10
-78.8445566327
 20
-45.9788265306
 11
-79.8445566327
 21
-46.9788265306
  0
LINE
  5
364
100
AcDbEntity
  8
SMUSSO
100
AcDbLine
 62
7
  6
CONTINUOUS
 10
-78.8445566325
 20
47.3211734693
 11
-79.8445566327
 21
48.3211734694
  0
LINE
  5
365
100
AcDbEntity
  8
DRAFT
100
AcDbLine
 62
7
  6
CONTINUOUS
 10
-78.8445566327
 20
47.3211734694
 11
-79.8445566327
 21
48.3211734694
  0
LINE
  5
366
100
AcDbEntity
  8
DRAFT
100
AcDbLine
 62
7
  6
CONTINUOUS
 10
-82.8469638455
 20
48.2687662565
 11
-79.8445566327
 21
48.3211734694
  0
LINE
  5
367
100
AcDbEntity
  8
DRAFT
100
AcDbLine
 62
253
  6
CONTINUOUS
 10
-78.8445566327
 20
46.8211734694
 11
-83.2945566327
 21
46.8211734694
  0
LINE
  5
368
100
AcDbEntity
  8
SMUSSO
100
AcDbLine
 62
253
  6
CONTINUOUS
 10
-83.3945566327
 20
47.3711734694
 11
-85.3945566327
 21
47.3711734694
  0
LINE
  5
369
100
AcDbEntity
  8
SMUSSO
100
AcDbLine
 62
7
  6
CONTINUOUS
 10
-85.3945566327
 20
48.3711734694
 11
-83.8945566327
 21
48.3711734694
  0
ARC
  5
36A
100
AcDbEntity
  8
SMUSSO
100
AcDbCircle
 62
7
  6
CONTINUOUS
 10
-47.3629464286
 20
47.3711734694
 40
1.0
100
AcDbArc
 50
90.0
 51
180.0
  0
ARC
  5
36B
100
AcDbEntity
  8
SMUSSO
100
AcDbCircle
 62
7
  6
CONTINUOUS
 10
-47.3629464286
 20
-46.0288265306
 40
1.0
100
AcDbArc
 50
180.0
 51
270.0
  0
ARC
  5
36C
100
AcDbEntity
  8
SMUSSO
100
AcDbCircle
 62
7
  6
CONTINUOUS
 10
46.0370535714
 20
-46.0288265306
 40
1.0
100
AcDbArc
 50
270.0
 51
360.0
  0
ARC
  5
36D
100
AcDbEntity
  8
SMUSSO
100
AcDbCircle
 62
7
  6
CONTINUOUS
 10
46.0370535714
 20
47.3711734694
 40
1.0
100
AcDbArc
 50
0.0
 51
90.0
  0
ARC
  5
36E
100
AcDbEntity
  8
RACCORDO
100
AcDbCircle
 62
7
  6
CONTINUOUS
 10
-87.7945566327
 20
26.6301083684
 40
0.3
100
AcDbArc
 50
91.0
 51
180.0
  0
ARC
  5
36F
100
AcDbEntity
  8
RACCORDO
100
AcDbCircle
 62
7
  6
CONTINUOUS
 10
-87.7945566327
 20
-25.2877614296
 40
0.3
100
AcDbArc
 50
180.0
 51
269.0
  0
ARC
  5
370
100
AcDbEntity
  8
ASSI
100
AcDbCircle
 62
7
  6
CONTINUOUS
 10
-78.4445566327
 20
26.0711734694
 40
0.2
100
AcDbArc
 50
270.0
 51
360.0
  0
ARC
  5
371
100
AcDbEntity
  8
ASSI
100
AcDbCircle
 62
7
  6
CONTINUOUS
 10
-78.4445566327
 20
-24.7288265306
 40
0.2
100
AcDbArc
 50
0.0
 51
90.0
  0
ELLIPSE
  5
372
100
AcDbEntity
  8
RACCORDO
100
AcDbEllipse
 62
7
  6
CONTINUOUS
 10
32.9291530938
 20
22.9632729918
 30
0.0
 11
0.2121966568
 21
0.2121966568
 31
0.0
 40
0.9996954599
 41
-0.7852458701
 42
0.7852458701
  0
ELLIPSE
  5
373
100
AcDbEntity
  8
RACCORDO
100
AcDbEllipse
 62
7
  6
CONTINUOUS
 10
32.9291530938
 20
-21.620926053
 30
0.0
 11
0.2121966568
 21
-0.2121966568
 31
0.0
 40
0.9996954599
 41
-0.7852458701
 42
0.7852458701
  0
ELLIPSE
  5
374
100
AcDbEntity
  8
RACCORDO
100
AcDbEllipse
 62
7
  6
CONTINUOUS
 10
-34.2550459509
 20
22.9632729918
 30
0.0
 11
0.2121966568
 21
-0.2121966568
 31
0.0
 40
0.9996954599
 41
2.3563467834
 42
3.9268385237
  0
ELLIPSE
  5
375
100
AcDbEntity
  8
RACCORDO
100
AcDbEllipse
 62
7
  6
CONTINUOUS
 10
-34.2550459509
 20
-21.620926053
 30
0.0
 11
-0.2121966568
 21
-0.2121966568
 31
0.0
 40
0.9996954599
 41
-0.7852458701
 42
0.7852458701
  0
ELLIPSE
  5
376
100
AcDbEntity
  8
RACCORDO
100
AcDbEllipse
 62
7
  6
CONTINUOUS
 10
35.8029095652
 20
26.2370294631
 30
0.0
 11
0.4951255324
 21
0.4951255324
 31
0.0
 40
0.9996954599
 41
-0.7852458701
 42
0.7852458701
  0
ELLIPSE
  5
377
100
AcDbEntity
  8
RACCORDO
100
AcDbEllipse
 62
7
  6
CONTINUOUS
 10
35.8029095652
 20
-24.8946825244
 30
0.0
 11
-0.4951255324
 21
0.4951255324
 31
0.0
 40
0.9996954599
 41
-3.9268385237
 42
-2.3563467834
  0
ELLIPSE
  5
378
100
AcDbEntity
  8
RACCORDO
100
AcDbEllipse
 62
7
  6
CONTINUOUS
 10
-37.1288024223
 20
-24.8946825244
 30
0.0
 11
0.4951255324
 21
0.4951255324
 31
0.0
 40
0.9996954599
 41
-3.9268385237
 42
-2.3563467834
  0
ELLIPSE
  5
379
100
AcDbEntity
  8
RACCORDO
100
AcDbEllipse
 62
7
  6
CONTINUOUS
 10
-37.1288024223
 20
26.2370294631
 30
0.0
 11
-0.4951255324
 21
0.4951255324
 31
0.0
 40
0.9996954599
 41
-0.7852458701
 42
0.7852458701
  0
ELLIPSE
  5
37A
100
AcDbEntity
  8
SMUSSO
100
AcDbEllipse
 62
7
  6
CONTINUOUS
 10
-85.727889966
 20
47.3711734694
 30
0.0
 11
-0.0
 21
1.0
 31
0.0
 40
0.3333333333
 41
-1.5707963268
 42
-0.7853981634
  0
ELLIPSE
  5
37B
100
AcDbEntity
  8
SMUSSO
100
AcDbEllipse
 62
7
  6
CONTINUOUS
 10
-85.727889966
 20
-46.0288265306
 30
0.0
 11
-0.0
 21
1.0
 31
0.0
 40
0.3333333333
 41
-2.3561944902
 42
-1.5707963268
  0
ELLIPSE
  5
37C
100
AcDbEntity
  8
ASSI
100
AcDbEllipse
 62
7
  6
CONTINUOUS
 10
-78.4445566327
 20
-25.3202649747
 30
0.0
 11
0.1417119467
 21
0.1422961243
 31
0.0
 40
0.9918061237
 41
-0.7833412615
 42
0.7350951877
  0
ELLIPSE
  5
37D
100
AcDbEntity
  8
ASSI
100
AcDbEllipse
 62
7
  6
CONTINUOUS
 10
-78.4445566327
 20
26.6626119135
 30
0.0
 11
-0.1417119467
 21
0.1422961243
 31
0.0
 40
0.9918061237
 41
-3.8766878413
 42
-2.358251392
  0
ENDSEC
  0
SECTION
  2
OBJECTS
  0
DICTIONARY
  5
C
100
AcDbDictionary
280
0
281
1
  3
ACAD_GROUP
350
D
  3
ACAD_MLINESTYLE
350
17
  3
ACAD_LAYOUT
350
1A
  3
ACAD_PLOTSETTINGS
350
19
  3
ACAD_PLOTSTYLENAME
350
E
  0
DICTIONARY
  5
D
102
{ACAD_REACTORS
330
C
102
}
100
AcDbDictionary
280
0
281
1
  0
ACDBDICTIONARYWDFLT
  5
E
102
{ACAD_REACTORS
330
C
102
}
100
AcDbDictionary
281
1
  3
Normal
350
F
100
AcDbDictionaryWithDefault
340
F
  0
DICTIONARY
  5
17
102
{ACAD_REACTORS
330
C
102
}
100
AcDbDictionary
280
0
281
1
  3
Standard
350
18
  0
DICTIONARY
  5
19
102
{ACAD_REACTORS
330
C
102
}
100
AcDbDictionary
281
1
  0
DICTIONARY
  5
1A
102
{ACAD_REACTORS
330
C
102
}
100
AcDbDictionary
281
1
  3
Model
350
37E
  3
Layout1
350
37F
  0
ACDBPLACEHOLDER
  5
F
102
{ACAD_REACTORS
330
E
102
}
  0
MLINESTYLE
  5
18
102
{ACAD_REACTORS
330
17
102
}
100
AcDbMlineStyle
  2
STANDARD
 70
0
  3

 62
256
 51
90.0
 52
90.0
 71
2
 49
0.5
 62
256
  6
BYLAYER
 49
-0.5
 62
256
  6
BYLAYER
  0
LAYOUT
  5
37E
102
{ACAD_REACTORS
330
1A
102
}
100
AcDbPlotSettings
  1

  2
none_device
  4
ISO_A4_(297.00_x_210.00_MM)
  6

 40
0.0
 41
0.0
 42
0.0
 43
0.0
 44
297.0
 45
210.0
 46
0.0
 47
0.0
 48
0.0
 49
0.0
140
0.0
141
0.0
142
1.0
143
1.0
 70
1024
 72
1
 73
0
 74
0
  7

 75
0
147
1.0
148
0.0
149
0.0
100
AcDbLayout
  1
Model
 70
0
 71
0
 10
0.0
 20
0.0
 11
297.0
 21
210.0
 12
0.0
 22
0.0
 32
0.0
 14
0.0
 24
0.0
 34
0.0
 15
0.0
 25
0.0
 35
0.0
146
0.0
 13
0.0
 23
0.0
 33
0.0
 16
1.0
 26
0.0
 36
0.0
 17
0.0
 27
1.0
 37
0.0
 76
0
330
212
345
0
346
0
  0
LAYOUT
  5
37F
102
{ACAD_REACTORS
330
1A
102
}
100
AcDbPlotSettings
  1

  2
none_device
  4
ISO_A4_(297.00_x_210.00_MM)
  6

 40
0.0
 41
0.0
 42
0.0
 43
0.0
 44
297.0
 45
210.0
 46
0.0
 47
0.0
 48
0.0
 49
0.0
140
0.0
141
0.0
142
1.0
143
1.0
 70
0
 72
1
 73
0
 74
0
  7

 75
0
147
1.0
148
0.0
149
0.0
100
AcDbLayout
  1
Layout1
 70
0
 71
1
 10
0.0
 20
0.0
 11
297.0
 21
210.0
 12
0.0
 22
0.0
 32
0.0
 14
0.0
 24
0.0
 34
0.0
 15
0.0
 25
0.0
 35
0.0
146
0.0
 13
0.0
 23
0.0
 33
0.0
 16
1.0
 26
0.0
 36
0.0
 17
0.0
 27
1.0
 37
0.0
 76
0
330
213
345
0
346
0
  0
ENDSEC
  0
EOF
