  0
SECTION
  2
HEADER
  9
$ACADVER
  1
AC1015
  9
$DWGCODEPAGE
  3
ANSI_1252
  9
$EXTMAX
 10
297.0
 20
210.0
 30
0.0
  9
$EXTMIN
 10
0.0
 20
0.0
 30
0.0
  9
$LIMMIN
 10
0.0
 20
0.0
  9
$LIMMAX
 10
297.0
 20
210.0
  9
$VIEWCTR
 10
148.5
 20
105.0
  9
$VIEWSIZE
 40
210.0
  9
$CLAYER
  8
0
  9
$LTSCALE
 40
16.335
  9
$CELTYPE
  6
BYLAYER
  9
$DIMSCALE
 40
1.0
  9
$DIMASZ
 40
3.0
  9
$DIMEXO
 40
0.5
  9
$DIMDLI
 40
11.286
  9
$DIMEXE
 40
1.5
  9
$DIMCEN
 40
2.673
  9
$DIMLFAC
 40
1.0
  9
$DIMBLK
  1
_FILLED
  9
$DIMTXT
 40
3.0
  9
$DIMTOL
 70
1
  9
$DIMLIM
 70
0
  9
$DIMTFAC
 40
1.0
  9
$DIMTP
 40
0.01
  9
$DIMTM
 40
0.01
  9
$DIMGAP
 40
0.625
  9
$DIMDSEP
 70
44
  9
$PDMODE
 70
3
  9
$PDSIZE
 40
3.0
  9
$HANDSEED
  5
379
  9
$TILEMODE
 70
1
  9
$MEASUREMENT
 70
1
  9
$INSUNITS
 70
4
  0
ENDSEC
  0
SECTION
  2
CLASSES
  0
CLASS
  1
ACDBDICTIONARYWDFLT
  2
AcDbDictionaryWithDefault
  3
AutoCAD 2000
 90
0
280
0
281
0
  0
CLASS
  1
ACDBPLACEHOLDER
  2
AcDbPlaceHolder
  3
AutoCAD 2000
 90
0
280
0
281
0
  0
CLASS
  1
LAYOUT
  2
AcDbLayout
  3
AutoCAD 2000
 90
0
280
0
281
0
  0
ENDSEC
  0
SECTION
  2
TABLES
  0
TABLE
  2
VPORT
  5
8
100
AcDbSymbolTable
 70
2
  0
VPORT
  5
1F4
100
AcDbSymbolTableRecord
100
AcDbViewportTableRecord
  2
*ACTIVE
 70
0
 10
0.0
 20
0.0
 11
1.0
 21
1.0
 12
148.5
 22
105.0
 13
0.0
 23
0.0
 14
1.0
 24
1.0
 15
0.0
 25
0.0
 16
0.0
 26
0.0
 36
1.0
 17
0.0
 27
0.0
 37
0.0
 40
210.0
 41
1.4142857143
 42
50.0
 43
0.0
 44
0.0
 50
0.0
 51
0.0
 71
0
 72
100
 73
1
 74
1
 75
0
 76
0
 77
0
 78
0
  0
ENDTAB
  0
TABLE
  2
LTYPE
  5
5
100
AcDbSymbolTable
 70
6
  0
LTYPE
  5
14
100
AcDbSymbolTableRecord
100
AcDbLinetypeTableRecord
  2
BYBLOCK
 70
0
  3

 72
65
 73
0
 40
0.0
  0
LTYPE
  5
15
100
AcDbSymbolTableRecord
100
AcDbLinetypeTableRecord
  2
BYLAYER
 70
0
  3

 72
65
 73
0
 40
0.0
  0
LTYPE
  5
16
100
AcDbSymbolTableRecord
100
AcDbLinetypeTableRecord
  2
CONTINUOUS
 70
64
  3
Solid line
 72
65
 73
0
 40
0.0
  0
LTYPE
  5
1F5
100
AcDbSymbolTableRecord
100
AcDbLinetypeTableRecord
  2
CENTER
 70
64
  3
____ _ ____ _ ____ _ ____ _ ____ _ ____ _ ____
 72
65
 73
4
 40
0.6
 49
0.375
 74
0
 49
-0.075
 74
0
 49
0.075
 74
0
 49
-0.075
 74
0
  0
LTYPE
  5
1F6
100
AcDbSymbolTableRecord
100
AcDbLinetypeTableRecord
  2
HIDDEN
 70
64
  3
- - - - - - - - - - - - - - - - - - - -
 72
65
 73
2
 40
0.2
 49
0.1
 74
0
 49
-0.1
 74
0
  0
LTYPE
  5
1F7
100
AcDbSymbolTableRecord
100
AcDbLinetypeTableRecord
  2
PHANTOM
 70
64
  3
_____ _ _ _____ _ _ _____ _ _ _____
 72
65
 73
6
 40
0.8
 49
0.45
 74
0
 49
-0.05
 74
0
 49
0.1
 74
0
 49
-0.05
 74
0
 49
0.1
 74
0
 49
-0.05
 74
0
  0
LTYPE
  5
1F8
100
AcDbSymbolTableRecord
100
AcDbLinetypeTableRecord
  2
DOT
 70
64
  3
. . . . . . . . . . . . . . . . . . . .
 72
65
 73
2
 40
0.2
 49
0.1
 74
0
 49
-0.1
 74
0
  0
LTYPE
  5
1F9
100
AcDbSymbolTableRecord
100
AcDbLinetypeTableRecord
  2
DASHED
 70
64
  3
- - - - - - - - - - - - - - - - - - - -
 72
65
 73
2
 40
0.2
 49
0.1
 74
0
 49
-0.1
 74
0
  0
ENDTAB
  0
TABLE
  2
LAYER
  5
2
100
AcDbSymbolTable
 70
36
  0
LAYER
  5
10
100
AcDbSymbolTableRecord
100
AcDbLayerTableRecord
  2
0
 70
0
 62
7
  6
CONTINUOUS
370
-3
390
F
  0
LAYER
  5
1FA
100
AcDbSymbolTableRecord
100
AcDbLayerTableRecord
  2
DEFAULT_1
 70
0
 62
7
  6
CENTER
370
-3
390
F
  0
LAYER
  5
1FB
100
AcDbSymbolTableRecord
100
AcDbLayerTableRecord
  2
DEFAULT_2
 70
0
 62
7
  6
HIDDEN
370
-3
390
F
  0
LAYER
  5
1FC
100
AcDbSymbolTableRecord
100
AcDbLayerTableRecord
  2
DEFAULT_3
 70
0
 62
7
  6
PHANTOM
370
-3
390
F
  0
LAYER
  5
1FD
100
AcDbSymbolTableRecord
100
AcDbLayerTableRecord
  2
ASSI
 70
0
 62
7
  6
CONTINUOUS
370
-3
390
F
  0
LAYER
  5
1FE
100
AcDbSymbolTableRecord
100
AcDbLayerTableRecord
  2
COORDINATE
 70
0
 62
7
  6
CONTINUOUS
370
-3
390
F
  0
LAYER
  5
1FF
100
AcDbSymbolTableRecord
100
AcDbLayerTableRecord
  2
COORD_ORIGINE
 70
0
 62
7
  6
CONTINUOUS
370
-3
390
F
  0
LAYER
  5
200
100
AcDbSymbolTableRecord
100
AcDbLayerTableRecord
  2
COPY_PUBLISH
 70
0
 62
7
  6
CONTINUOUS
370
-3
390
F
  0
LAYER
  5
201
100
AcDbSymbolTableRecord
100
AcDbLayerTableRecord
  2
COSMETIC
 70
0
 62
7
  6
CONTINUOUS
370
-3
390
F
  0
LAYER
  5
202
100
AcDbSymbolTableRecord
100
AcDbLayerTableRecord
  2
COSMETICI
 70
0
 62
7
  6
CONTINUOUS
370
-3
390
F
  0
LAYER
  5
203
100
AcDbSymbolTableRecord
100
AcDbLayerTableRecord
  2
CURVE
 70
0
 62
7
  6
CONTINUOUS
370
-3
390
F
  0
LAYER
  5
204
100
AcDbSymbolTableRecord
100
AcDbLayerTableRecord
  2
DRAFT
 70
0
 62
7
  6
CONTINUOUS
370
-3
390
F
  0
LAYER
  5
205
100
AcDbSymbolTableRecord
100
AcDbLayerTableRecord
  2
IMPORT_IGES
 70
0
 62
7
  6
CONTINUOUS
370
-3
390
F
  0
LAYER
  5
206
100
AcDbSymbolTableRecord
100
AcDbLayerTableRecord
  2
INTFCLR_2
 70
0
 62
7
  6
CONTINUOUS
370
-3
390
F
  0
LAYER
  5
207
100
AcDbSymbolTableRecord
100
AcDbLayerTableRecord
  2
NOTE
 70
0
 62
7
  6
CONTINUOUS
370
-3
390
F
  0
LAYER
  5
208
100
AcDbSymbolTableRecord
100
AcDbLayerTableRecord
  2
PIANI
 70
0
 62
7
  6
CONTINUOUS
370
-3
390
F
  0
LAYER
  5
209
100
AcDbSymbolTableRecord
100
AcDbLayerTableRecord
  2
PIANI_ORIGINE
 70
0
 62
7
  6
CONTINUOUS
370
-3
390
F
  0
LAYER
  5
20A
100
AcDbSymbolTableRecord
100
AcDbLayerTableRecord
  2
PIANI_RIFERIMENTO
 70
0
 62
7
  6
CONTINUOUS
370
-3
390
F
  0
LAYER
  5
20B
100
AcDbSymbolTableRecord
100
AcDbLayerTableRecord
  2
PUNTI
 70
0
 62
7
  6
CONTINUOUS
370
-3
390
F
  0
LAYER
  5
20C
100
AcDbSymbolTableRecord
100
AcDbLayerTableRecord
  2
RACCORDO
 70
0
 62
7
  6
CONTINUOUS
370
-3
390
F
  0
LAYER
  5
20D
100
AcDbSymbolTableRecord
100
AcDbLayerTableRecord
  2
SIMBOLI
 70
0
 62
7
  6
CONTINUOUS
370
-3
390
F
  0
LAYER
  5
20E
100
AcDbSymbolTableRecord
100
AcDbLayerTableRecord
  2
SMUSSO
 70
0
 62
7
  6
CONTINUOUS
370
-3
390
F
  0
LAYER
  5
20F
100
AcDbSymbolTableRecord
100
AcDbLayerTableRecord
  2
SNAPLINE
 70
0
 62
7
  6
CONTINUOUS
370
-3
390
F
  0
LAYER
  5
210
100
AcDbSymbolTableRecord
100
AcDbLayerTableRecord
  2
SUPERFICI
 70
0
 62
7
  6
CONTINUOUS
370
-3
390
F
  0
LAYER
  5
211
100
AcDbSymbolTableRecord
100
AcDbLayerTableRecord
  2
TRASH
 70
0
 62
7
  6
CONTINUOUS
370
-3
390
F
  0
LAYER
  5
212
100
AcDbSymbolTableRecord
100
AcDbLayerTableRecord
  2
XSEC_DATUMS
 70
0
 62
7
  6
CONTINUOUS
370
-3
390
F
  0
ENDTAB
  0
TABLE
  2
STYLE
  5
3
100
AcDbSymbolTable
 70
1
  0
STYLE
  5
11
100
AcDbSymbolTableRecord
100
AcDbTextStyleTableRecord
  2
STANDARD
 70
0
 40
0.0
 41
0.8
 50
0.0
 71
0
 42
0.2
  3
txt
  4

  0
STYLE
  5
213
100
AcDbSymbolTableRecord
100
AcDbTextStyleTableRecord
  2
TEXTSTYLE_1
 70
0
 40
0.0
 41
0.8
 50
0.0
 71
0
 42
0.2
  3
gdt
  4

  0
ENDTAB
  0
TABLE
  2
VIEW
  5
6
100
AcDbSymbolTable
 70
0
  0
ENDTAB
  0
TABLE
  2
UCS
  5
7
100
AcDbSymbolTable
 70
0
  0
ENDTAB
  0
TABLE
  2
APPID
  5
9
100
AcDbSymbolTable
 70
1
  0
APPID
  5
214
100
AcDbSymbolTableRecord
100
AcDbRegAppTableRecord
  2
ACAD
 70
0
  0
ENDTAB
  0
TABLE
  2
BLOCK_RECORD
  5
1
100
AcDbSymbolTable
 70
0
  0
BLOCK_RECORD
  5
215
100
AcDbSymbolTableRecord
100
AcDbBlockTableRecord
  2
*Model_Space
  0
BLOCK_RECORD
  5
216
100
AcDbSymbolTableRecord
100
AcDbBlockTableRecord
  2
*Paper_Space
  0
BLOCK_RECORD
  5
217
100
AcDbSymbolTableRecord
100
AcDbBlockTableRecord
  2
_FILLED
  0
BLOCK_RECORD
  5
218
100
AcDbSymbolTableRecord
100
AcDbBlockTableRecord
  2
*D0
  0
BLOCK_RECORD
  5
219
100
AcDbSymbolTableRecord
100
AcDbBlockTableRecord
  2
*D1
  0
BLOCK_RECORD
  5
21A
100
AcDbSymbolTableRecord
100
AcDbBlockTableRecord
  2
*D2
  0
BLOCK_RECORD
  5
21B
100
AcDbSymbolTableRecord
100
AcDbBlockTableRecord
  2
*D3
  0
ENDTAB
  0
TABLE
  2
DIMSTYLE
  5
A
100
AcDbSymbolTable
 70
1
100
AcDbDimStyleTable
 71
0
  0
DIMSTYLE
105
21C
100
AcDbSymbolTableRecord
100
AcDbDimStyleTableRecord
  2
STANDARD
 70
0
  3

  4

 40
1.0
 41
3.0
 42
0.5
 43
0.38
 44
1.5
 45
0.0
 46
0.0
 47
0.01
 48
0.01
140
3.0
141
0.09
142
0.0
143
25.4
144
1.0
145
0.0
146
1.0
147
0.625
 71
1.0
 72
0.0
 73
0
 74
0
 75
0
 76
0
 77
1
 78
8
170
0
171
2
172
0
173
0
174
0
175
0
176
0
177
0
178
0
270
2
271
2
272
2
273
2
274
2
275
0
280
0
281
0
282
0
283
1
284
8
285
0
286
0
287
3
288
0
340
11
278
44
341
217
342
217
343
217
344
217
  0
DIMSTYLE
105
21D
100
AcDbSymbolTableRecord
100
AcDbDimStyleTableRecord
  2
DIMSTYLE_1
 70
0
  3

  4

 40
1.0
 41
3.0
 42
0.5
 43
0.38
 44
1.5
 45
0.0
 46
0.0
 47
0.0
 48
0.0
140
3.0
141
0.09
142
0.0
143
25.4
144
1.0
145
0.0
146
1.0
147
0.75
 71
0.0
 72
0.0
 73
0
 74
0
 75
0
 76
0
 77
1
 78
8
170
0
171
2
172
0
173
0
174
0
175
0
176
0
177
0
178
0
270
2
271
2
272
2
273
2
274
2
275
0
280
0
281
0
282
0
283
1
284
8
285
0
286
0
287
3
288
0
340
11
278
44
341
217
342
217
343
217
344
217
  0
ENDTAB
  0
ENDSEC
  0
SECTION
  2
BLOCKS
  0
BLOCK
  5
20
100
AcDbEntity
  8
0
100
AcDbBlockBegin
  2
*Model_Space
 70
0
 10
0.0
 20
0.0
 30
0.0
  3
*Model_Space
  1

  0
ENDBLK
  5
21
100
AcDbEntity
  8
0
100
AcDbBlockEnd
  0
BLOCK
  5
1C
100
AcDbEntity
  8
0
100
AcDbBlockBegin
  2
*Paper_Space
 70
0
 10
0.0
 20
0.0
 30
0.0
  3
*Paper_Space
  1

  0
ENDBLK
  5
1D
100
AcDbEntity
  8
0
100
AcDbBlockEnd
  0
BLOCK
  5
21E
100
AcDbEntity
  8
0
100
AcDbBlockBegin
  2
_FILLED
 70
64
 10
0.0
 20
0.0
  3
_FILLED
  1

  0
SOLID
  5
21F
100
AcDbEntity
  8
0
  6
BYBLOCK
 62
0
100
AcDbTrace
 10
0.0
 20
0.0
 11
-1.0
 21
0.3166666667
 12
-1.0
 22
-0.3166666667
 13
-1.0
 23
-0.3166666667
  0
ENDBLK
  5
220
100
AcDbEntity
  8
0
  6
BYBLOCK
 62
0
100
AcDbBlockEnd
  0
BLOCK
  5
221
100
AcDbEntity
  8
0
100
AcDbBlockBegin
 62
7
  6
CONTINUOUS
  2
*D0
 70
65
 10
0.0
 20
0.0
  3
*D0
  1

  0
MTEXT
  5
222
100
AcDbEntity
  8
0
100
AcDbMText
 62
7
  6
CONTINUOUS
  7
STANDARD
 71
2
 72
1
 10
84.7370535714
 20
0.1597576531
 30
0.0
 11
0.0
 21
1.0
 31
0.0
 44
0.9
  1
94,7
 40
3.0
 41
8.7857142857
  0
LINE
  5
223
100
AcDbEntity
  8
0
100
AcDbLine
 62
7
  6
CONTINUOUS
 10
79.9870535714
 20
47.5097576531
 11
89.9870535714
 21
47.5097576531
  0
LINE
  5
224
100
AcDbEntity
  8
0
100
AcDbLine
 62
7
  6
CONTINUOUS
 10
79.9870535714
 20
-47.1902423469
 11
89.9870535714
 21
-47.1902423469
  0
LINE
  5
225
100
AcDbEntity
  8
0
100
AcDbLine
 62
7
  6
CONTINUOUS
 10
88.4870535714
 20
47.5097576531
 11
88.4870535714
 21
0.1597576531
  0
LINE
  5
226
100
AcDbEntity
  8
0
100
AcDbLine
 62
7
  6
CONTINUOUS
 10
88.4870535714
 20
-47.1902423469
 11
88.4870535714
 21
0.1597576531
  0
INSERT
  5
227
100
AcDbEntity
  8
0
100
AcDbBlockReference
 62
7
  6
CONTINUOUS
  2
_FILLED
 10
88.4870535714
 20
47.5097576531
 41
3.0
 42
3.0
 43
3.0
 50
90.0
  0
INSERT
  5
228
100
AcDbEntity
  8
0
100
AcDbBlockReference
 62
7
  6
CONTINUOUS
  2
_FILLED
 10
88.4870535714
 20
-47.1902423469
 41
3.0
 42
3.0
 43
3.0
 50
270.0
  0
ENDBLK
  5
229
100
AcDbEntity
  8
0
  6
BYBLOCK
 62
0
100
AcDbBlockEnd
  0
BLOCK
  5
22A
100
AcDbEntity
  8
0
100
AcDbBlockBegin
 62
7
  6
CONTINUOUS
  2
*D1
 70
65
 10
0.0
 20
0.0
  3
*D1
  1

  0
MTEXT
  5
22B
100
AcDbEntity
  8
0
100
AcDbMText
 62
7
  6
CONTINUOUS
  7
STANDARD
 71
2
 72
1
 10
-0.6629464286
 20
59.2597576531
 30
0.0
 11
1.0
 21
0.0
 31
0.0
 44
0.9
  1
162,3
 40
3.0
 41
10.2857142857
  0
LINE
  5
22C
100
AcDbEntity
  8
0
100
AcDbLine
 62
7
  6
CONTINUOUS
 10
80.4870535714
 20
47.0097576531
 11
80.4870535714
 21
57.0097576531
  0
LINE
  5
22D
100
AcDbEntity
  8
0
100
AcDbLine
 62
7
  6
CONTINUOUS
 10
-81.8129464286
 20
47.0097576531
 11
-81.8129464286
 21
57.0097576531
  0
LINE
  5
22E
100
AcDbEntity
  8
0
100
AcDbLine
 62
7
  6
CONTINUOUS
 10
80.4870535714
 20
55.5097576531
 11
-0.6629464286
 21
55.5097576531
  0
LINE
  5
22F
100
AcDbEntity
  8
0
100
AcDbLine
 62
7
  6
CONTINUOUS
 10
-81.8129464286
 20
55.5097576531
 11
-0.6629464286
 21
55.5097576531
  0
INSERT
  5
230
100
AcDbEntity
  8
0
100
AcDbBlockReference
 62
7
  6
CONTINUOUS
  2
_FILLED
 10
80.4870535714
 20
55.5097576531
 41
3.0
 42
3.0
 43
3.0
  0
INSERT
  5
231
100
AcDbEntity
  8
0
100
AcDbBlockReference
 62
7
  6
CONTINUOUS
  2
_FILLED
 10
-81.8129464286
 20
55.5097576531
 41
3.0
 42
3.0
 43
3.0
 50
180.0
  0
ENDBLK
  5
232
100
AcDbEntity
  8
0
  6
BYBLOCK
 62
0
100
AcDbBlockEnd
  0
BLOCK
  5
233
100
AcDbEntity
  8
0
100
AcDbBlockBegin
 62
7
  6
CONTINUOUS
  2
*D2
 70
65
 10
0.0
 20
0.0
  3
*D2
  1

  0
MTEXT
  5
234
100
AcDbEntity
  8
0
100
AcDbMText
 62
7
  6
CONTINUOUS
  7
STANDARD
 71
1
 72
1
 10
-109.6970716609
 20
59.2597576531
 30
0.0
 11
1.0
 21
0.0
 31
0.0
 44
0.9
  1
9,15
 40
3.0
 41
7.9285714286
  0
LINE
  5
235
100
AcDbEntity
  8
0
100
AcDbLine
 62
7
  6
CONTINUOUS
 10
-114.2545280612
 20
43.9559515615
 11
-114.2545280612
 21
57.0097576531
  0
LINE
  5
236
100
AcDbEntity
  8
0
100
AcDbLine
 62
7
  6
CONTINUOUS
 10
-123.4045280612
 20
26.218753474
 11
-123.4045280612
 21
57.0097576531
  0
LINE
  5
237
100
AcDbEntity
  8
0
100
AcDbLine
 62
7
  6
CONTINUOUS
 10
-114.2545280612
 20
55.5097576531
 11
-118.8295280612
 21
55.5097576531
  0
LINE
  5
238
100
AcDbEntity
  8
0
100
AcDbLine
 62
7
  6
CONTINUOUS
 10
-118.8295280612
 20
55.5097576531
 11
-101.7685002323
 21
55.5097576531
  0
LINE
  5
239
100
AcDbEntity
  8
0
100
AcDbLine
 62
7
  6
CONTINUOUS
 10
-123.4045280612
 20
55.5097576531
 11
-118.8295280612
 21
55.5097576531
  0
INSERT
  5
23A
100
AcDbEntity
  8
0
100
AcDbBlockReference
 62
7
  6
CONTINUOUS
  2
_FILLED
 10
-114.2545280612
 20
55.5097576531
 41
3.0
 42
3.0
 43
3.0
  0
INSERT
  5
23B
100
AcDbEntity
  8
0
100
AcDbBlockReference
 62
7
  6
CONTINUOUS
  2
_FILLED
 10
-123.4045280612
 20
55.5097576531
 41
3.0
 42
3.0
 43
3.0
 50
180.0
  0
ENDBLK
  5
23C
100
AcDbEntity
  8
0
  6
BYBLOCK
 62
0
100
AcDbBlockEnd
  0
BLOCK
  5
23D
100
AcDbEntity
  8
0
100
AcDbBlockBegin
 62
7
  6
CONTINUOUS
  2
*D3
 70
65
 10
0.0
 20
0.0
  3
*D3
  1

  0
MTEXT
  5
23E
100
AcDbEntity
  8
0
100
AcDbMText
 62
7
  6
CONTINUOUS
  7
STANDARD
 71
1
 72
1
 10
-110.2883192997
 20
69.2597576531
 30
0.0
 11
1.0
 21
0.0
 31
0.0
 44
0.9
  1
9,75
 40
3.0
 41
8.5714285714
  0
LINE
  5
23F
100
AcDbEntity
  8
0
100
AcDbLine
 62
7
  6
CONTINUOUS
 10
-123.4045280612
 20
26.218753474
 11
-123.4045280612
 21
67.0097576531
  0
LINE
  5
240
100
AcDbEntity
  8
0
100
AcDbLine
 62
7
  6
CONTINUOUS
 10
-113.6545280612
 20
27.8097576531
 11
-113.6545280612
 21
67.0097576531
  0
LINE
  5
241
100
AcDbEntity
  8
0
100
AcDbLine
 62
7
  6
CONTINUOUS
 10
-123.4045280612
 20
65.5097576531
 11
-118.5295280612
 21
65.5097576531
  0
LINE
  5
242
100
AcDbEntity
  8
0
100
AcDbLine
 62
7
  6
CONTINUOUS
 10
-113.6545280612
 20
65.5097576531
 11
-118.5295280612
 21
65.5097576531
  0
LINE
  5
243
100
AcDbEntity
  8
0
100
AcDbLine
 62
7
  6
CONTINUOUS
 10
-118.5295280612
 20
65.5097576531
 11
-101.7168907282
 21
65.5097576531
  0
INSERT
  5
244
100
AcDbEntity
  8
0
100
AcDbBlockReference
 62
7
  6
CONTINUOUS
  2
_FILLED
 10
-123.4045280612
 20
65.5097576531
 41
3.0
 42
3.0
 43
3.0
 50
180.0
  0
INSERT
  5
245
100
AcDbEntity
  8
0
100
AcDbBlockReference
 62
7
  6
CONTINUOUS
  2
_FILLED
 10
-113.6545280612
 20
65.5097576531
 41
3.0
 42
3.0
 43
3.0
  0
ENDBLK
  5
246
100
AcDbEntity
  8
0
  6
BYBLOCK
 62
0
100
AcDbBlockEnd
  0
ENDSEC
  0
SECTION
  2
ENTITIES
  0
DIMENSION
  5
247
100
AcDbEntity
  8
0
100
AcDbDimension
 62
7
  6
CONTINUOUS
  2
*D0
 10
88.4870535714
 20
-47.1902423469
 11
88.4870535714
 21
0.1597576531
 70
160
 71
2
 42
94.7
  3
DIMSTYLE_1
100
AcDbAlignedDimension
 13
79.4870535714
 23
47.5097576531
 14
79.4870535714
 24
-47.1902423469
 50
270.0
100
AcDbRotatedDimension
  0
DIMENSION
  5
248
100
AcDbEntity
  8
0
100
AcDbDimension
 62
7
  6
CONTINUOUS
  2
*D1
 10
-81.8129464286
 20
55.5097576531
 11
-0.6629464286
 21
55.5097576531
 70
160
 71
2
 42
162.3
  3
DIMSTYLE_1
100
AcDbAlignedDimension
 13
80.4870535714
 23
46.5097576531
 14
-81.8129464286
 24
46.5097576531
 50
180.0
100
AcDbRotatedDimension
  0
DIMENSION
  5
249
100
AcDbEntity
  8
0
100
AcDbDimension
 62
7
  6
CONTINUOUS
  2
*D2
 10
-123.4045280612
 20
55.5097576531
 11
-105.7327859466
 21
55.5097576531
 70
160
 71
1
 42
9.15
  3
DIMSTYLE_1
100
AcDbAlignedDimension
 13
-114.2545280612
 23
43.4559515615
 14
-123.4045280612
 24
25.718753474
 50
180.0
100
AcDbRotatedDimension
  0
DIMENSION
  5
24A
100
AcDbEntity
  8
0
100
AcDbDimension
 62
7
  6
CONTINUOUS
  2
*D3
 10
-113.6545280612
 20
65.5097576531
 11
-106.002605014
 21
65.5097576531
 70
160
 71
1
 42
9.75
  3
DIMSTYLE_1
100
AcDbAlignedDimension
 13
-123.4045280612
 23
25.718753474
 14
-113.6545280612
 24
27.3097576531
100
AcDbRotatedDimension
  0
LINE
  5
24B
100
AcDbEntity
  8
SMUSSO
100
AcDbLine
 62
7
  6
CONTINUOUS
 10
-80.8129464286
 20
47.5097576531
 11
-81.8129464286
 21
46.5097576531
  0
LINE
  5
24C
100
AcDbEntity
  8
SMUSSO
100
AcDbLine
 62
7
  6
CONTINUOUS
 10
-80.3987328662
 20
46.5097576531
 11
-80.8129464286
 21
46.0955440907
  0
LINE
  5
24D
100
AcDbEntity
  8
SMUSSO
100
AcDbLine
 62
7
  6
CONTINUOUS
 10
-81.8129464286
 20
-46.1902423469
 11
-80.8129464286
 21
-47.1902423469
  0
LINE
  5
24E
100
AcDbEntity
  8
SMUSSO
100
AcDbLine
 62
7
  6
CONTINUOUS
 10
-80.8129464286
 20
-45.7760287846
 11
-80.3987328662
 21
-46.1902423469
  0
LINE
  5
24F
100
AcDbEntity
  8
SMUSSO
100
AcDbLine
 62
7
  6
CONTINUOUS
 10
-81.8129464286
 20
46.5097576531
 11
-81.8129464286
 21
-46.1902423469
  0
LINE
  5
250
100
AcDbEntity
  8
SMUSSO
100
AcDbLine
 62
7
  6
CONTINUOUS
 10
-80.8129464286
 20
46.0955440907
 11
-80.8129464286
 21
-45.7760287846
  0
LWPOLYLINE
  5
251
100
AcDbEntity
  8
RACCORDO
100
AcDbPolyline
 62
253
  6
CONTINUOUS
 90
22
 70
0
 10
-57.0622014112
 20
-22.144907439
 10
-57.0614496985
 20
-22.1602831421
 10
-57.0598182299
 20
-22.1762552096
 10
-57.0572056125
 20
-22.1927669259
 10
-57.0535198531
 20
-22.2097023718
 10
-57.0486565276
 20
-22.2270285876
 10
-57.0424729636
 20
-22.2447873243
 10
-57.0348402307
 20
-22.2628805404
 10
-57.0256527751
 20
-22.281146916
 10
-57.0147748514
 20
-22.2994919373
 10
-57.0020169737
 20
-22.3178404681
 10
-56.9873566827
 20
-22.3358564733
 10
-56.970983241
 20
-22.3530652989
 10
-56.9528532814
 20
-22.3693230065
 10
-56.9330497927
 20
-22.3843712386
 10
-56.9121325687
 20
-22.3977181623
 10
-56.8904574434
 20
-22.4091880012
 10
-56.8679894211
 20
-22.4188451856
 10
-56.844785806
 20
-22.4266677926
 10
-56.8209650034
 20
-22.4326004836
 10
-56.7967165433
 20
-22.4365807189
 10
-56.7722026956
 20
-22.4385712831
  0
LWPOLYLINE
  5
252
100
AcDbEntity
  8
RACCORDO
100
AcDbPolyline
 62
253
  6
CONTINUOUS
 90
25
 70
0
 10
-60.3218356361
 20
-25.3992381679
 10
-60.3203314024
 20
-25.4450138052
 10
-60.3158369807
 20
-25.4905925989
 10
-60.3083717017
 20
-25.5357794754
 10
-60.297967639
 20
-25.5803810416
 10
-60.2846693876
 20
-25.6242064172
 10
-60.2685338573
 20
-25.6670680471
 10
-60.2496301745
 20
-25.7087824855
 10
-60.2280393212
 20
-25.7491712255
 10
-60.2038536776
 20
-25.7880614552
 10
-60.1771767995
 20
-25.8252867185
 10
-60.1481229095
 20
-25.8606877213
 10
-60.1168162958
 20
-25.8941130299
 10
-60.0833909973
 20
-25.9254195341
 10
-60.0479900607
 20
-25.9544732847
 10
-60.0107647921
 20
-25.9811500929
 10
-59.9718743604
 20
-26.0053357856
 10
-59.931485317
 20
-26.026926709
 10
-59.8897706827
 20
-26.0458303745
 10
-59.8469090708
 20
-26.0619657907
 10
-59.8030838468
 20
-26.0752638995
 10
-59.7584825067
 20
-26.0856678292
 10
-59.7132959091
 20
-26.0931330007
 10
-59.6677174667
 20
-26.0976273484
 10
-59.6219422495
 20
-26.0991315545
  0
LWPOLYLINE
  5
253
100
AcDbEntity
  8
RACCORDO
100
AcDbPolyline
 62
253
  6
CONTINUOUS
 90
22
 70
0
 10
-57.3895206599
 20
23.133572596
 10
-57.3899675341
 20
23.1603744984
 10
-57.388604864
 20
23.1865865912
 10
-57.3854877615
 20
23.2120929228
 10
-57.3806870612
 20
23.2367985851
 10
-57.3742651371
 20
23.260585362
 10
-57.3662746198
 20
23.2833119371
 10
-57.3567957571
 20
23.3048773548
 10
-57.3459169239
 20
23.3252116859
 10
-57.3337069801
 20
23.3442293751
 10
-57.3202656792
 20
23.3618449887
 10
-57.3056806158
 20
23.3780158983
 10
-57.2899951458
 20
23.3927214015
 10
-57.2733019766
 20
23.40590269
 10
-57.2556927327
 20
23.4175141071
 10
-57.2371964675
 20
23.427543675
 10
-57.217911391
 20
23.4359400255
 10
-57.1979250671
 20
23.4426642016
 10
-57.1772412192
 20
23.4477022749
 10
-57.1559236656
 20
23.4510112452
 10
-57.1341028447
 20
23.4525390188
 10
-57.1118826994
 20
23.4522493772
  0
LINE
  5
254
100
AcDbEntity
  8
RACCORDO
100
AcDbLine
 62
253
  6
CONTINUOUS
 10
-57.0697179012
 20
-22.1489675764
 11
-57.0696401752
 21
-22.1537669285
  0
LINE
  5
255
100
AcDbEntity
  8
RACCORDO
100
AcDbLine
 62
253
  6
CONTINUOUS
 10
-57.0622596615
 20
-22.1396012713
 11
-57.0622014112
 21
-22.144907439
  0
LINE
  5
256
100
AcDbEntity
  8
RACCORDO
100
AcDbLine
 62
253
  6
CONTINUOUS
 10
-57.069764387
 20
-22.1442456906
 11
-57.0697179012
 21
-22.1489675764
  0
LINE
  5
257
100
AcDbEntity
  8
RACCORDO
100
AcDbLine
 62
253
  6
CONTINUOUS
 10
-57.0697796326
 20
-22.1396012713
 11
-57.069764387
 21
-22.1442456906
  0
LINE
  5
258
100
AcDbEntity
  8
RACCORDO
100
AcDbLine
 62
7
  6
CONTINUOUS
 10
-60.3629464286
 20
25.7598642665
 11
-60.3629464286
 21
-25.4403489603
  0
LINE
  5
259
100
AcDbEntity
  8
RACCORDO
100
AcDbLine
 62
253
  6
CONTINUOUS
 10
-60.3218356361
 20
25.718753474
 11
-60.3218356361
 21
-25.3992381679
  0
LINE
  5
25A
100
AcDbEntity
  8
RACCORDO
100
AcDbLine
 62
253
  6
CONTINUOUS
 10
-60.0218813276
 20
25.718753474
 11
-60.0218813276
 21
-25.3992381679
  0
LINE
  5
25B
100
AcDbEntity
  8
RACCORDO
100
AcDbLine
 62
253
  6
CONTINUOUS
 10
-59.6219422491
 20
26.4186468606
 11
-59.6219422495
 21
26.1186925521
  0
LINE
  5
25C
100
AcDbEntity
  8
RACCORDO
100
AcDbLine
 62
253
  6
CONTINUOUS
 10
-59.6219422495
 20
-26.0991315545
 11
-59.6219422495
 21
-25.7991772459
  0
LINE
  5
25D
100
AcDbEntity
  8
RACCORDO
100
AcDbLine
 62
253
  6
CONTINUOUS
 10
-57.6849629774
 20
-22.8140570976
 11
-57.6849629774
 21
23.1335724037
  0
LINE
  5
25E
100
AcDbEntity
  8
RACCORDO
100
AcDbLine
 62
253
  6
CONTINUOUS
 10
-57.3895206515
 20
-22.814057272
 11
-57.3895206515
 21
23.1335725787
  0
LINE
  5
25F
100
AcDbEntity
  8
RACCORDO
100
AcDbLine
 62
253
  6
CONTINUOUS
 10
-57.1118914378
 20
23.7341574065
 11
-57.1118914378
 21
23.4522496202
  0
LINE
  5
260
100
AcDbEntity
  8
RACCORDO
100
AcDbLine
 62
253
  6
CONTINUOUS
 10
-57.1118914378
 20
-23.4146421004
 11
-57.1118914378
 21
-23.1327343141
  0
LINE
  5
261
100
AcDbEntity
  8
RACCORDO
100
AcDbLine
 62
253
  6
CONTINUOUS
 10
-57.0622596615
 20
22.4591165774
 11
-57.0622596615
 21
-22.1396012713
  0
LINE
  5
262
100
AcDbEntity
  8
RACCORDO
100
AcDbLine
 62
7
  6
CONTINUOUS
 10
-57.0550916494
 20
-22.1324332592
 11
-57.0550916494
 21
22.4519485653
  0
LINE
  5
263
100
AcDbEntity
  8
RACCORDO
100
AcDbLine
 62
253
  6
CONTINUOUS
 10
-56.7615318544
 20
-22.4387820813
 11
-56.7615318544
 21
-22.4688596185
  0
LINE
  5
264
100
AcDbEntity
  8
RACCORDO
100
AcDbLine
 62
253
  6
CONTINUOUS
 10
-56.7615318544
 20
22.7582973874
 11
-56.7615318537
 21
22.7883749246
  0
LINE
  5
265
100
AcDbEntity
  8
RACCORDO
100
AcDbLine
 62
253
  6
CONTINUOUS
 10
-57.0697729637
 20
22.4615297867
 11
-57.0697796326
 21
-22.1396012713
  0
LINE
  5
266
100
AcDbEntity
  8
RACCORDO
100
AcDbLine
 62
253
  6
CONTINUOUS
 10
-57.0697397372
 20
22.4662934855
 11
-57.0697729637
 21
22.4615297867
  0
LINE
  5
267
100
AcDbEntity
  8
RACCORDO
100
AcDbLine
 62
253
  6
CONTINUOUS
 10
-57.0622014112
 20
22.4644227452
 11
-57.0622596615
 21
22.4591165774
  0
LWPOLYLINE
  5
268
100
AcDbEntity
  8
RACCORDO
100
AcDbPolyline
 62
253
  6
CONTINUOUS
 90
22
 70
0
 10
-57.0696401752
 20
-22.1537669285
 10
-57.0698771364
 20
-22.1711276812
 10
-57.0692115209
 20
-22.1890245793
 10
-57.0675407667
 20
-22.2074079
 10
-57.0647730317
 20
-22.2261823909
 10
-57.0607998238
 20
-22.2453087982
 10
-57.0554759756
 20
-22.2647977145
 10
-57.0486912689
 20
-22.2845766266
 10
-57.0403307519
 20
-22.3044806605
 10
-57.0302201295
 20
-22.3243443635
 10
-57.0181788824
 20
-22.3441147278
 10
-57.0041877655
 20
-22.3634620958
 10
-56.9883874277
 20
-22.38181452
 10
-56.9707273675
 20
-22.3990175943
 10
-56.9513062303
 20
-22.4148434834
 10
-56.9306622247
 20
-22.4287514242
 10
-56.9091380677
 20
-22.4405409008
 10
-56.8867087815
 20
-22.4502968278
 10
-56.8634409851
 20
-22.4580088116
 10
-56.8394565428
 20
-22.4636253324
 10
-56.8149412102
 20
-22.467077411
 10
-56.7900565572
 20
-22.4683249363
  0
LWPOLYLINE
  5
269
100
AcDbEntity
  8
RACCORDO
100
AcDbPolyline
 62
253
  6
CONTINUOUS
 90
3
 70
0
 10
-57.0696401752
 20
22.4732822346
 10
-57.0696799921
 20
22.4709735582
 10
-57.0697397372
 20
22.4662934855
  0
LWPOLYLINE
  5
26A
100
AcDbEntity
  8
RACCORDO
100
AcDbPolyline
 62
253
  6
CONTINUOUS
 90
25
 70
0
 10
-60.0218813276
 20
25.718753474
 10
-60.0210127296
 20
25.7449847674
 10
-60.0184672009
 20
25.7709148938
 10
-60.0142447415
 20
25.7965438533
 10
-60.0083134173
 20
25.8219881434
 10
-60.0007051624
 20
25.8471312665
 10
-59.9915157797
 20
25.8716237303
 10
-59.980725713
 20
25.8954476885
 10
-59.9683545185
 20
25.9186209874
 10
-59.9545566678
 20
25.9408476728
 10
-59.9393124597
 20
25.9621169367
 10
-59.9226415953
 20
25.9824395871
 10
-59.90475765
 20
26.0015520938
 10
-59.8856430131
 20
26.019439062
 10
-59.8653152951
 20
26.0361158865
 10
-59.8440409031
 20
26.0513652204
 10
-59.8218098586
 20
26.0651660766
 10
-59.79863214
 20
26.0775394423
 10
-59.7748040897
 20
26.0883309319
 10
-59.7503070535
 20
26.0975209043
 10
-59.7251596857
 20
26.1051290006
 10
-59.6997142909
 20
26.1110597597
 10
-59.674088304
 20
26.1152813611
 10
-59.6481642902
 20
26.1178256252
 10
-59.6219422495
 20
26.1186925521
  0
LWPOLYLINE
  5
26B
100
AcDbEntity
  8
RACCORDO
100
AcDbPolyline
 62
253
  6
CONTINUOUS
 90
22
 70
0
 10
-57.6849629774
 20
23.1335724037
 10
-57.6830221262
 20
23.1820968899
 10
-57.6778684621
 20
23.229326621
 10
-57.6695019849
 20
23.2752615971
 10
-57.6577807758
 20
23.3201081023
 10
-57.6428467537
 20
23.3636598525
 10
-57.6251256758
 20
23.4052979949
 10
-57.6045928324
 20
23.4449656589
 10
-57.5812729333
 20
23.4827197151
 10
-57.5556658649
 20
23.5181119222
 10
-57.5277854142
 20
23.5510840021
 10
-57.4976177942
 20
23.5816942329
 10
-57.4656215305
 20
23.6096692074
 10
-57.4318066905
 20
23.6349915246
 10
-57.3961632067
 20
23.6576785855
 10
-57.3591194028
 20
23.6775091867
 10
-57.320685278
 20
23.6944802355
 10
-57.2808508331
 20
23.7085948245
 10
-57.2400143941
 20
23.7196410286
 10
-57.1983087361
 20
23.7275482062
 10
-57.1556010841
 20
23.7323869988
 10
-57.1118914378
 20
23.7341574065
  0
LINE
  5
26C
100
AcDbEntity
  8
SMUSSO
100
AcDbLine
 62
7
  6
CONTINUOUS
 10
-80.8129464286
 20
-47.1902423469
 11
-80.3987328662
 21
-46.1902423469
  0
LINE
  5
26D
100
AcDbEntity
  8
SMUSSO
100
AcDbLine
 62
7
  6
CONTINUOUS
 10
-80.8129464286
 20
47.5097576531
 11
-80.3987328662
 21
46.5097576531
  0
LWPOLYLINE
  5
26E
100
AcDbEntity
  8
RACCORDO
100
AcDbPolyline
 62
253
  6
CONTINUOUS
 90
10
 70
0
 10
-57.0622078046
 20
-22.1449075555
 10
-57.0624217365
 20
-22.1458851914
 10
-57.0627892801
 20
-22.1468652256
 10
-57.0633103225
 20
-22.1478473531
 10
-57.0639847037
 20
-22.1488312684
 10
-57.0648122162
 20
-22.1498166653
 10
-57.0657926059
 20
-22.1508032373
 10
-57.0669255714
 20
-22.1517906773
 10
-57.0682107643
 20
-22.1527786784
 10
-57.0696477897
 20
-22.153766933
  0
LWPOLYLINE
  5
26F
100
AcDbEntity
  8
RACCORDO
100
AcDbPolyline
 62
253
  6
CONTINUOUS
 90
10
 70
0
 10
-57.0622014426
 20
22.4644227457
 10
-57.0624156225
 20
22.4654000722
 10
-57.0627833101
 20
22.466379868
 10
-57.0633043924
 20
22.4673618323
 10
-57.0639787093
 20
22.4683456635
 10
-57.0648060537
 20
22.4693310595
 10
-57.0657861714
 20
22.4703177178
 10
-57.0669187611
 20
22.4713053353
 10
-57.068203475
 20
22.4722936088
 10
-57.0696399183
 20
22.4732822346
  0
LINE
  5
270
100
AcDbEntity
  8
SMUSSO
100
AcDbLine
 62
7
  6
CONTINUOUS
 10
-80.8129464286
 20
-47.1902423469
 11
79.4870535714
 21
-47.1902423469
  0
LINE
  5
271
100
AcDbEntity
  8
SMUSSO
100
AcDbLine
 62
7
  6
CONTINUOUS
 10
-80.3987328662
 20
-46.1902423469
 11
79.0728400091
 21
-46.1902423469
  0
LINE
  5
272
100
AcDbEntity
  8
RACCORDO
100
AcDbLine
 62
253
  6
CONTINUOUS
 10
-57.3895206515
 20
-22.814057272
 11
-57.0696401752
 21
-22.1537669285
  0
LINE
  5
273
100
AcDbEntity
  8
RACCORDO
100
AcDbLine
 62
253
  6
CONTINUOUS
 10
-57.1118817905
 20
-23.1327343141
 11
-56.790056496
 21
-22.4683248126
  0
LINE
  5
274
100
AcDbEntity
  8
RACCORDO
100
AcDbLine
 62
253
  6
CONTINUOUS
 10
-57.0696401752
 20
22.4732822346
 11
-57.3895206515
 21
23.1335725787
  0
LINE
  5
275
100
AcDbEntity
  8
RACCORDO
100
AcDbLine
 62
253
  6
CONTINUOUS
 10
-56.7900564872
 20
22.7878401242
 11
-57.1118828171
 21
23.4522496202
  0
LWPOLYLINE
  5
276
100
AcDbEntity
  8
0
100
AcDbPolyline
 62
7
  6
CONTINUOUS
 90
10
 70
0
 10
2.9694381817
 20
-24.662829653
 10
2.9786440009
 20
-24.6608205034
 10
2.9878746714
 20
-24.6577259951
 10
2.9971301932
 20
-24.6535461284
 10
3.0063933385
 20
-24.6480931144
 10
3.0156813351
 20
-24.6415547419
 10
3.0250458663
 20
-24.6344943766
 10
3.0344950122
 20
-24.6270192303
 10
3.0440206926
 20
-24.6190220913
 10
3.063402089
 20
-24.60230798
  0
LWPOLYLINE
  5
277
100
AcDbEntity
  8
0
100
AcDbPolyline
 62
7
  6
CONTINUOUS
 90
10
 70
0
 10
2.2645684474
 20
-23.9133190087
 10
2.3033403609
 20
-23.9068761472
 10
2.3419316696
 20
-23.901696676
 10
2.3803423733
 20
-23.8977805952
 10
2.4185378326
 20
-23.8951226152
 10
2.4565526869
 20
-23.8937280256
 10
2.4944908551
 20
-23.8936126946
 10
2.5323869768
 20
-23.8947819116
 10
2.5702064123
 20
-23.8972303874
 10
2.6079491617
 20
-23.9009581218
  0
LWPOLYLINE
  5
278
100
AcDbEntity
  8
RACCORDO
100
AcDbPolyline
 62
253
  6
CONTINUOUS
 90
22
 70
0
 10
55.4463098384
 20
-22.4385712831
 10
55.4702867504
 20
-22.4366460757
 10
55.4939997207
 20
-22.4328197591
 10
55.5172976048
 20
-22.4271299643
 10
55.5399904361
 20
-22.4196424307
 10
55.5619832784
 20
-22.410408098
 10
55.583262771
 20
-22.3994283967
 10
55.6038309633
 20
-22.3866571816
 10
55.6233827214
 20
-22.3722345583
 10
55.6414922028
 20
-22.3565049052
 10
55.6580995685
 20
-22.3396188318
 10
55.6731452727
 20
-22.3217372866
 10
55.6863583488
 20
-22.3033584946
 10
55.6977429465
 20
-22.284780681
 10
55.7074424577
 20
-22.2660957712
 10
55.7155092829
 20
-22.2475365348
 10
55.7220367767
 20
-22.2293157042
 10
55.7271741222
 20
-22.2115021486
 10
55.7310626707
 20
-22.1940850663
 10
55.7338127011
 20
-22.1771126564
 10
55.7355251122
 20
-22.1606995487
 10
55.7363085541
 20
-22.144907439
  0
LWPOLYLINE
  5
279
100
AcDbEntity
  8
RACCORDO
100
AcDbPolyline
 62
253
  6
CONTINUOUS
 90
22
 70
0
 10
55.4641554925
 20
-22.4683251525
 10
55.488501158
 20
-22.467127541
 10
55.5124830301
 20
-22.4638237578
 10
55.5359504442
 20
-22.4584542065
 10
55.5587169257
 20
-22.4510914393
 10
55.5806840614
 20
-22.4417821051
 10
55.6018296585
 20
-22.4305151212
 10
55.6221497029
 20
-22.4172316961
 10
55.6413483427
 20
-22.4020893617
 10
55.6590120171
 20
-22.3854609356
 10
55.6750674896
 20
-22.3674677458
 10
55.6894638989
 20
-22.3482869774
 10
55.7019699376
 20
-22.3285023712
 10
55.7125828995
 20
-22.3084005167
 10
55.721443788
 20
-22.2880599355
 10
55.7286483302
 20
-22.2677907683
 10
55.7342998742
 20
-22.2478079439
 10
55.738527382
 20
-22.2281544792
 10
55.7414755379
 20
-22.2088571561
 10
55.7432594831
 20
-22.1899722543
 10
55.7439800313
 20
-22.1715908083
 10
55.743747318
 20
-22.1537669291
  0
LWPOLYLINE
  5
27A
100
AcDbEntity
  8
RACCORDO
100
AcDbPolyline
 62
253
  6
CONTINUOUS
 90
25
 70
0
 10
58.2960493924
 20
-26.0991315545
 10
58.3418250297
 20
-26.0976273208
 10
58.3874038234
 20
-26.093132899
 10
58.4325906999
 20
-26.0856676201
 10
58.4771922661
 20
-26.0752635574
 10
58.5210176417
 20
-26.0619653059
 10
58.5638792716
 20
-26.0458297757
 10
58.60559371
 20
-26.0269260928
 10
58.64598245
 20
-26.0053352396
 10
58.6848726797
 20
-25.981149596
 10
58.722097943
 20
-25.9544727179
 10
58.7574989458
 20
-25.9254188278
 10
58.7909242544
 20
-25.8941122142
 10
58.8222307585
 20
-25.8606869157
 10
58.8512845092
 20
-25.825285979
 10
58.8779613174
 20
-25.7880607104
 10
58.9021470101
 20
-25.7491702787
 10
58.9237379335
 20
-25.7087812354
 10
58.942641599
 20
-25.667066601
 10
58.9587770151
 20
-25.6242049892
 10
58.972075124
 20
-25.5803797651
 10
58.9824790537
 20
-25.5357784251
 10
58.9899442252
 20
-25.4905918275
 10
58.9944385729
 20
-25.445013385
 10
58.995942779
 20
-25.3992381679
  0
LINE
  5
27B
100
AcDbEntity
  8
RACCORDO
100
AcDbLine
 62
7
  6
CONTINUOUS
 10
-59.663053042
 20
-26.1402423469
 11
58.3371601848
 21
-26.1402423469
  0
LINE
  5
27C
100
AcDbEntity
  8
RACCORDO
100
AcDbLine
 62
253
  6
CONTINUOUS
 10
-59.6219422495
 20
-26.0991315545
 11
58.2960493924
 21
-26.0991315545
  0
LINE
  5
27D
100
AcDbEntity
  8
RACCORDO
100
AcDbLine
 62
253
  6
CONTINUOUS
 10
-59.6219422495
 20
-25.7991772459
 11
58.2960493924
 21
-25.7991772459
  0
LINE
  5
27E
100
AcDbEntity
  8
0
100
AcDbLine
 62
7
  6
CONTINUOUS
 10
-4.1096734286
 20
-25.6554163469
 11
-3.7234074286
 21
-25.6554163469
  0
LINE
  5
27F
100
AcDbEntity
  8
0
100
AcDbLine
 62
7
  6
CONTINUOUS
 10
-2.8857804286
 20
-25.6554163469
 11
-2.4474644286
 21
-25.6554163469
  0
LINE
  5
280
100
AcDbEntity
  8
0
100
AcDbLine
 62
7
  6
CONTINUOUS
 10
-2.2115054286
 20
-25.6554163469
 11
-1.7921804286
 21
-25.6554163469
  0
LINE
  5
281
100
AcDbEntity
  8
0
100
AcDbLine
 62
7
  6
CONTINUOUS
 10
-1.1833944286
 20
-25.6554163469
 11
-1.1219214286
 21
-25.6554163469
  0
LINE
  5
282
100
AcDbEntity
  8
0
100
AcDbLine
 62
7
  6
CONTINUOUS
 10
-0.5107104286
 20
-25.6554163469
 11
-0.0819214286
 21
-25.6554163469
  0
LINE
  5
283
100
AcDbEntity
  8
0
100
AcDbLine
 62
7
  6
CONTINUOUS
 10
-0.0130944286
 20
-25.6554163469
 11
0.4204655714
 21
-25.6554163469
  0
LINE
  5
284
100
AcDbEntity
  8
0
100
AcDbLine
 62
7
  6
CONTINUOUS
 10
1.2518735714
 20
-25.6554163469
 11
1.7138395714
 21
-25.6554163469
  0
LINE
  5
285
100
AcDbEntity
  8
0
100
AcDbLine
 62
7
  6
CONTINUOUS
 10
1.8425504475
 20
-25.6554167447
 11
2.279102331
 21
-25.6554167447
  0
LINE
  5
286
100
AcDbEntity
  8
0
100
AcDbLine
 62
7
  6
CONTINUOUS
 10
2.9503221094
 20
-25.6554167447
 11
3.3719307042
 21
-25.6554167447
  0
LINE
  5
287
100
AcDbEntity
  8
RACCORDO
100
AcDbLine
 62
253
  6
CONTINUOUS
 10
-60.3218356361
 20
-25.3992381675
 11
-60.0218813276
 21
-25.3992381679
  0
LINE
  5
288
100
AcDbEntity
  8
RACCORDO
100
AcDbLine
 62
253
  6
CONTINUOUS
 10
58.995942779
 20
-25.3992381678
 11
58.6959884704
 21
-25.3992381679
  0
LINE
  5
289
100
AcDbEntity
  8
0
100
AcDbLine
 62
7
  6
CONTINUOUS
 10
0.5414135714
 20
-25.2362173469
 11
1.1383265714
 21
-25.2362173469
  0
LINE
  5
28A
100
AcDbEntity
  8
0
100
AcDbLine
 62
7
  6
CONTINUOUS
 10
1.0507295714
 20
-24.9118423469
 11
0.6310735714
 21
-24.9118423469
  0
LINE
  5
28B
100
AcDbEntity
  8
0
100
AcDbLine
 62
7
  6
CONTINUOUS
 10
2.279102331
 20
-24.833661834
 11
2.5141166457
 21
-24.833661834
  0
LINE
  5
28C
100
AcDbEntity
  8
0
100
AcDbLine
 62
7
  6
CONTINUOUS
 10
2.5150614268
 20
-24.48976149
 11
2.2645684474
 21
-24.48976149
  0
LWPOLYLINE
  5
28D
100
AcDbEntity
  8
RACCORDO
100
AcDbPolyline
 62
253
  6
CONTINUOUS
 90
25
 70
0
 10
-59.6219422495
 20
-25.7991772459
 10
-59.6481735429
 20
-25.7983086479
 10
-59.6741036693
 20
-25.7957631192
 10
-59.6997326288
 20
-25.7915406599
 10
-59.7251769189
 20
-25.7856093356
 10
-59.750320042
 20
-25.7780010807
 10
-59.7748125058
 20
-25.768811698
 10
-59.7986364641
 20
-25.7580216313
 10
-59.8218097629
 20
-25.7456504368
 10
-59.8440364483
 20
-25.7318525862
 10
-59.8653057122
 20
-25.716608378
 10
-59.8856283626
 20
-25.6999375137
 10
-59.9047408693
 20
-25.6820535684
 10
-59.9226278375
 20
-25.6629389315
 10
-59.939304662
 20
-25.6426112135
 10
-59.9545539959
 20
-25.6213368215
 10
-59.9683548521
 20
-25.599105777
 10
-59.9807282178
 20
-25.5759280584
 10
-59.9915197074
 20
-25.552100008
 10
-60.0007096798
 20
-25.5276029719
 10
-60.0083177761
 20
-25.502455604
 10
-60.0142485352
 20
-25.4770102092
 10
-60.0184701366
 20
-25.4513842224
 10
-60.0210144007
 20
-25.4254602086
 10
-60.0218813276
 20
-25.3992381679
  0
LWPOLYLINE
  5
28E
100
AcDbEntity
  8
RACCORDO
100
AcDbPolyline
 62
253
  6
CONTINUOUS
 90
7
 70
0
 10
-56.790056496
 20
-22.4683248126
 10
-56.7853103327
 20
-22.4684843328
 10
-56.7805609919
 20
-22.4686156987
 10
-56.7758084736
 20
-22.4687189102
 10
-56.771052778
 20
-22.4687939674
 10
-56.7662939049
 20
-22.4688408701
 10
-56.7615318544
 20
-22.4688596185
  0
LWPOLYLINE
  5
28F
100
AcDbEntity
  8
RACCORDO
100
AcDbPolyline
 62
253
  6
CONTINUOUS
 90
7
 70
0
 10
-56.7722026956
 20
-22.4385712831
 10
-56.7704324514
 20
-22.4386362696
 10
-56.7686588328
 20
-22.4386893559
 10
-56.7668819014
 20
-22.4387305107
 10
-56.7651017195
 20
-22.4387597034
 10
-56.7633183496
 20
-22.4387769037
 10
-56.7615318544
 20
-22.4387820813
  0
LWPOLYLINE
  5
290
100
AcDbEntity
  8
RACCORDO
100
AcDbPolyline
 62
253
  6
CONTINUOUS
 90
22
 70
0
 10
-57.1118914378
 20
-23.4146421004
 10
-57.1555857111
 20
-23.4128727229
 10
-57.1982784116
 20
-23.4080373492
 10
-57.2399695392
 20
-23.4001359791
 10
-57.2807885661
 20
-23.3891004765
 10
-57.3206060202
 20
-23.3749989775
 10
-57.3590334851
 20
-23.3580358907
 10
-57.3960894636
 20
-23.3382029969
 10
-57.431755453
 20
-23.3155085152
 10
-57.4655875288
 20
-23.290181511
 10
-57.497588376
 20
-23.2622088308
 10
-57.5277553096
 20
-23.2316036281
 10
-57.5556363505
 20
-23.1986344293
 10
-57.5812480908
 20
-23.1632408606
 10
-57.6045739384
 20
-23.1254832959
 10
-57.6251121376
 20
-23.0858113829
 10
-57.6428374451
 20
-23.0441683668
 10
-57.6577751042
 20
-23.0006110025
 10
-57.6694990895
 20
-22.9557592021
 10
-57.6778673926
 20
-22.9098196033
 10
-57.6830220219
 20
-22.8625855684
 10
-57.6849629774
 20
-22.8140570976
  0
LWPOLYLINE
  5
291
100
AcDbEntity
  8
0
100
AcDbPolyline
 62
7
  6
CONTINUOUS
 90
13
 70
0
 10
2.5141166457
 20
-24.833661834
 10
2.5413943777
 20
-24.8351948135
 10
2.5673231059
 20
-24.839163096
 10
2.5919028303
 20
-24.8455666815
 10
2.6150129296
 20
-24.8543366729
 10
2.6367740251
 20
-24.8655419673
 10
2.6575479806
 20
-24.8793892555
 10
2.6775860841
 20
-24.895935833
 10
2.6966370476
 20
-24.9151244044
 10
2.7143088713
 20
-24.9369897742
 10
2.7304708886
 20
-24.961543544
 10
2.7452537661
 20
-24.9887741121
 10
2.7586575038
 20
-25.0186814787
  0
LINE
  5
292
100
AcDbEntity
  8
RACCORDO
100
AcDbLine
 62
253
  6
CONTINUOUS
 10
-57.0622596615
 20
-22.1396012713
 11
-57.0550916494
 21
-22.1324332592
  0
LINE
  5
293
100
AcDbEntity
  8
RACCORDO
100
AcDbLine
 62
253
  6
CONTINUOUS
 10
-60.3218356361
 20
-25.3992381679
 11
-60.3629464286
 21
-25.4403489603
  0
LINE
  5
294
100
AcDbEntity
  8
RACCORDO
100
AcDbLine
 62
253
  6
CONTINUOUS
 10
-56.7615318544
 20
-22.4387820813
 11
-56.7551373408
 21
-22.4323875677
  0
LINE
  5
295
100
AcDbEntity
  8
RACCORDO
100
AcDbLine
 62
253
  6
CONTINUOUS
 10
-59.6219422495
 20
-26.0991315545
 11
-59.663053042
 21
-26.1402423469
  0
LWPOLYLINE
  5
296
100
AcDbEntity
  8
RACCORDO
100
AcDbPolyline
 62
253
  6
CONTINUOUS
 90
22
 70
0
 10
-57.1118816588
 20
-23.1327340421
 10
-57.1340954805
 20
-23.1330238512
 10
-57.15590961
 20
-23.1314974349
 10
-57.1772202165
 20
-23.1281911067
 10
-57.1978950524
 20
-23.1231577934
 10
-57.2178724627
 20
-23.1164400659
 10
-57.2371544099
 20
-23.1080488865
 10
-57.2556572386
 20
-23.0980195856
 10
-57.2732775623
 20
-23.0864045789
 10
-57.2899786718
 20
-23.0732202835
 10
-57.3056659894
 20
-23.0585157904
 10
-57.3202507533
 20
-23.0423479113
 10
-57.3336927299
 20
-23.0247344116
 10
-57.3459051653
 20
-23.0057162915
 10
-57.3567868932
 20
-22.9853801764
 10
-57.3662683434
 20
-22.9638124768
 10
-57.3742609907
 20
-22.941083319
 10
-57.3806846567
 20
-22.9172935268
 10
-57.3854865972
 20
-22.8925849283
 10
-57.3886044659
 20
-22.8670759574
 10
-57.3899675062
 20
-22.8408614135
 10
-57.3895206598
 20
-22.8140572892
  0
LWPOLYLINE
  5
297
100
AcDbEntity
  8
RACCORDO
100
AcDbPolyline
 62
253
  6
CONTINUOUS
 90
6
 70
0
 10
55.440342906
 20
-22.4688449352
 10
55.4450663469
 20
-22.4688004859
 10
55.44980932
 20
-22.4687262707
 10
55.4545718252
 20
-22.4686222896
 10
55.4593538626
 20
-22.4684885425
 10
55.4641554321
 20
-22.4683250296
  0
LWPOLYLINE
  5
298
100
AcDbEntity
  8
RACCORDO
100
AcDbPolyline
 62
253
  6
CONTINUOUS
 90
6
 70
0
 10
55.4374060865
 20
-22.4387771169
 10
55.4391778145
 20
-22.4387602296
 10
55.4409541185
 20
-22.438731311
 10
55.4427349343
 20
-22.4386902526
 10
55.4445201966
 20
-22.4386369461
 10
55.4463098384
 20
-22.4385712831
  0
LINE
  5
299
100
AcDbEntity
  8
0
100
AcDbLine
 62
7
  6
CONTINUOUS
 10
1.0695615714
 20
-23.5555933469
 11
0.6455445714
 21
-23.5555933469
  0
LINE
  5
29A
100
AcDbEntity
  8
0
100
AcDbLine
 62
7
  6
CONTINUOUS
 10
-0.2782784286
 20
-23.5555933469
 11
-0.7119484286
 21
-23.5555933469
  0
LINE
  5
29B
100
AcDbEntity
  8
0
100
AcDbLine
 62
7
  6
CONTINUOUS
 10
-1.5839504286
 20
-23.5555933469
 11
-2.0219034286
 21
-23.5555933469
  0
LINE
  5
29C
100
AcDbEntity
  8
0
100
AcDbLine
 62
7
  6
CONTINUOUS
 10
-3.0484394286
 20
-23.5555933469
 11
-3.4864564286
 21
-23.5555933469
  0
LINE
  5
29D
100
AcDbEntity
  8
0
100
AcDbLine
 62
7
  6
CONTINUOUS
 10
-4.2992124286
 20
-23.5555933469
 11
-4.7753584286
 21
-23.5555933469
  0
LINE
  5
29E
100
AcDbEntity
  8
0
100
AcDbLine
 62
7
  6
CONTINUOUS
 10
-2.4474644286
 20
-23.5554673469
 11
-2.8857804286
 21
-23.5554673469
  0
LINE
  5
29F
100
AcDbEntity
  8
RACCORDO
100
AcDbLine
 62
253
  6
CONTINUOUS
 10
55.7859985807
 20
-23.4146421004
 11
-57.1118914378
 21
-23.4146421004
  0
LINE
  5
2A0
100
AcDbEntity
  8
RACCORDO
100
AcDbLine
 62
253
  6
CONTINUOUS
 10
55.7860035698
 20
-23.1327343141
 11
-57.1118817905
 21
-23.1327343141
  0
LINE
  5
2A1
100
AcDbEntity
  8
RACCORDO
100
AcDbLine
 62
253
  6
CONTINUOUS
 10
-57.6849629774
 20
-22.8140570976
 11
-57.3895206515
 21
-22.8140570976
  0
LINE
  5
2A2
100
AcDbEntity
  8
RACCORDO
100
AcDbLine
 62
253
  6
CONTINUOUS
 10
56.3590701203
 20
-22.8140570976
 11
56.0636277944
 21
-22.8140570976
  0
LINE
  5
2A3
100
AcDbEntity
  8
RACCORDO
100
AcDbLine
 62
253
  6
CONTINUOUS
 10
-56.7615318544
 20
-22.4688596185
 11
55.440342906
 21
-22.4688449352
  0
LINE
  5
2A4
100
AcDbEntity
  8
RACCORDO
100
AcDbLine
 62
253
  6
CONTINUOUS
 10
-56.7615318544
 20
-22.4387820813
 11
55.4374060865
 21
-22.4387771169
  0
LINE
  5
2A5
100
AcDbEntity
  8
RACCORDO
100
AcDbLine
 62
7
  6
CONTINUOUS
 10
55.4292444837
 20
-22.4323875677
 11
-56.7551373408
 21
-22.4323875677
  0
LINE
  5
2A6
100
AcDbEntity
  8
RACCORDO
100
AcDbLine
 62
253
  6
CONTINUOUS
 10
55.7363668043
 20
-22.1396012713
 11
55.7438867754
 21
-22.1396012713
  0
LINE
  5
2A7
100
AcDbEntity
  8
RACCORDO
100
AcDbLine
 62
253
  6
CONTINUOUS
 10
-57.0622596615
 20
-22.1396012713
 11
-57.0697796326
 21
-22.1396012713
  0
LWPOLYLINE
  5
2A8
100
AcDbEntity
  8
0
100
AcDbPolyline
 62
7
  6
CONTINUOUS
 90
16
 70
0
 10
2.6079491617
 20
-23.9009581218
 10
2.6369102455
 20
-23.9059613441
 10
2.6643630218
 20
-23.9130800851
 10
2.6903074907
 20
-23.9223143449
 10
2.7149048324
 20
-23.9338029561
 10
2.7379938667
 20
-23.9474070861
 10
2.7590910521
 20
-23.9627102365
 10
2.77802098
 20
-23.9796108526
 10
2.7949590589
 20
-23.9982104891
 10
2.8099479736
 20
-24.0183973115
 10
2.8231311954
 20
-24.0404738808
 10
2.8343652528
 20
-24.064137636
 10
2.8432624163
 20
-24.0883690594
 10
2.8496934423
 20
-24.112828312
 10
2.8537875743
 20
-24.1378552329
 10
2.8555448123
 20
-24.1634498221
  0
LWPOLYLINE
  5
2A9
100
AcDbEntity
  8
0
100
AcDbPolyline
 62
7
  6
CONTINUOUS
 90
16
 70
0
 10
2.9242461493
 20
-23.6022340639
 10
2.8698820917
 20
-23.5847934716
 10
2.8127448878
 20
-23.5698596686
 10
2.7528345377
 20
-23.557432655
 10
2.6900031533
 20
-23.5476425727
 10
2.6243986228
 20
-23.5403592796
 10
2.5564646097
 20
-23.5351923502
 10
2.4863470726
 20
-23.5320195453
 10
2.4139000529
 20
-23.530963104
 10
2.3391293399
 20
-23.5319993176
 10
2.2620060717
 20
-23.535193941
 10
2.1825591101
 20
-23.5404812193
 10
2.1008808294
 20
-23.5476401801
 10
2.0170020212
 20
-23.5565971658
 10
1.9308918938
 20
-23.567425834
 10
1.8425504475
 20
-23.5801261846
  0
LINE
  5
2AA
100
AcDbEntity
  8
RACCORDO
100
AcDbLine
 62
253
  6
CONTINUOUS
 10
-57.0550916494
 20
22.4519485653
 11
-57.0622596615
 21
22.4591165774
  0
LINE
  5
2AB
100
AcDbEntity
  8
RACCORDO
100
AcDbLine
 62
253
  6
CONTINUOUS
 10
-60.3218356361
 20
25.718753474
 11
-60.3629464286
 21
25.7598642665
  0
LINE
  5
2AC
100
AcDbEntity
  8
RACCORDO
100
AcDbLine
 62
253
  6
CONTINUOUS
 10
-56.7551373408
 20
22.7519028738
 11
-56.7615318544
 21
22.7582973874
  0
LINE
  5
2AD
100
AcDbEntity
  8
RACCORDO
100
AcDbLine
 62
253
  6
CONTINUOUS
 10
-59.6219422495
 20
26.4186468606
 11
-59.663053042
 21
26.4597576531
  0
LINE
  5
2AE
100
AcDbEntity
  8
SMUSSO
100
AcDbLine
 62
7
  6
CONTINUOUS
 10
80.4870535714
 20
46.5097576531
 11
79.4870535714
 21
46.0955440907
  0
LINE
  5
2AF
100
AcDbEntity
  8
SMUSSO
100
AcDbLine
 62
7
  6
CONTINUOUS
 10
80.4870535714
 20
-46.1902423469
 11
79.4870535714
 21
-45.7760287846
  0
LINE
  5
2B0
100
AcDbEntity
  8
0
100
AcDbLine
 62
7
  6
CONTINUOUS
 10
-1.6975914286
 20
-24.2842713469
 11
-1.1833944286
 21
-25.6554163469
  0
LINE
  5
2B1
100
AcDbEntity
  8
0
100
AcDbLine
 62
7
  6
CONTINUOUS
 10
-1.1502644286
 20
-24.7214213469
 11
-1.5839504286
 21
-23.5555933469
  0
LINE
  5
2B2
100
AcDbEntity
  8
0
100
AcDbLine
 62
7
  6
CONTINUOUS
 10
-4.7753584286
 20
-23.5555933469
 11
-4.1096734286
 21
-25.6554163469
  0
LINE
  5
2B3
100
AcDbEntity
  8
0
100
AcDbLine
 62
7
  6
CONTINUOUS
 10
-3.8989474286
 20
-25.0009663469
 11
-4.2992124286
 21
-23.5555933469
  0
LINE
  5
2B4
100
AcDbEntity
  8
0
100
AcDbLine
 62
7
  6
CONTINUOUS
 10
-0.0819214286
 20
-25.6554163469
 11
-0.2782784286
 21
-23.5555933469
  0
LINE
  5
2B5
100
AcDbEntity
  8
0
100
AcDbLine
 62
7
  6
CONTINUOUS
 10
-0.6007634286
 20
-24.2899873469
 11
-0.5107104286
 21
-25.6554163469
  0
LINE
  5
2B6
100
AcDbEntity
  8
0
100
AcDbLine
 62
7
  6
CONTINUOUS
 10
-2.8857804286
 20
-23.5554673469
 11
-2.8857804286
 21
-25.6554163469
  0
LINE
  5
2B7
100
AcDbEntity
  8
0
100
AcDbLine
 62
7
  6
CONTINUOUS
 10
-2.4474644286
 20
-25.6554163469
 11
-2.4474644286
 21
-23.5554673469
  0
LINE
  5
2B8
100
AcDbEntity
  8
0
100
AcDbLine
 62
7
  6
CONTINUOUS
 10
-1.7921804286
 20
-25.6554163469
 11
-1.6975914286
 21
-24.2842713469
  0
LINE
  5
2B9
100
AcDbEntity
  8
0
100
AcDbLine
 62
7
  6
CONTINUOUS
 10
-2.0219034286
 20
-23.5555933469
 11
-2.2115054286
 21
-25.6554163469
  0
LWPOLYLINE
  5
2BA
100
AcDbEntity
  8
RACCORDO
100
AcDbPolyline
 62
253
  6
CONTINUOUS
 90
10
 70
0
 10
55.4463098302
 20
22.7580863578
 10
55.4482272049
 20
22.758692477
 10
55.450166313
 20
22.7599809847
 10
55.4521245024
 20
22.7619501189
 10
55.4540990953
 20
22.7645971868
 10
55.4560873913
 20
22.7679185683
 10
55.4580866712
 20
22.7719097215
 10
55.4600942008
 20
22.7765651884
 10
55.4621072348
 20
22.7818786023
 10
55.4641230202
 20
22.7878426972
  0
LWPOLYLINE
  5
2BB
100
AcDbEntity
  8
RACCORDO
100
AcDbPolyline
 62
253
  6
CONTINUOUS
 90
10
 70
0
 10
55.4463098491
 20
-22.4385715827
 10
55.4482272051
 20
-22.4391776227
 10
55.4501662983
 20
-22.4404660213
 10
55.4521244769
 20
-22.4424350167
 10
55.4540990632
 20
-22.4450819163
 10
55.4560873567
 20
-22.4484031007
 10
55.4580866384
 20
-22.4523940281
 10
55.4600941744
 20
-22.4570492412
 10
55.4621072192
 20
-22.4623623742
 10
55.4641230199
 20
-22.4683261614
  0
LWPOLYLINE
  5
2BC
100
AcDbEntity
  8
0
100
AcDbPolyline
 62
7
  6
CONTINUOUS
 90
6
 70
0
 10
2.7586575038
 20
-25.0186814787
 10
2.7808275522
 20
-25.0835346485
 10
2.8025406829
 20
-25.1499454958
 10
2.823796896
 20
-25.2179140205
 10
2.844278295
 20
-25.2875520616
 10
2.8848240296
 20
-25.4311656594
  0
LINE
  5
2BD
100
AcDbEntity
  8
0
100
AcDbLine
 62
7
  6
CONTINUOUS
 10
1.7138395714
 20
-25.6554163469
 11
1.0695615714
 21
-23.5555933469
  0
LINE
  5
2BE
100
AcDbEntity
  8
0
100
AcDbLine
 62
7
  6
CONTINUOUS
 10
2.8848240296
 20
-25.4311656594
 11
2.9503221094
 21
-25.6554167447
  0
LINE
  5
2BF
100
AcDbEntity
  8
0
100
AcDbLine
 62
7
  6
CONTINUOUS
 10
1.1383265714
 20
-25.2362173469
 11
1.2518735714
 21
-25.6554163469
  0
LINE
  5
2C0
100
AcDbEntity
  8
0
100
AcDbLine
 62
7
  6
CONTINUOUS
 10
3.2736225627
 20
-25.2802515137
 11
3.2220884115
 21
-25.087083635
  0
LINE
  5
2C1
100
AcDbEntity
  8
0
100
AcDbLine
 62
7
  6
CONTINUOUS
 10
3.3719307042
 20
-25.6554167447
 11
3.2736225627
 21
-25.2802515137
  0
LINE
  5
2C2
100
AcDbEntity
  8
0
100
AcDbLine
 62
7
  6
CONTINUOUS
 10
0.8493175714
 20
-24.1325713469
 11
1.0507295714
 21
-24.9118423469
  0
LWPOLYLINE
  5
2C3
100
AcDbEntity
  8
0
100
AcDbPolyline
 62
7
  6
CONTINUOUS
 90
16
 70
0
 10
3.2220884115
 20
-25.087083635
 10
3.2121047925
 20
-25.047469394
 10
3.2010810953
 20
-25.0088515606
 10
3.18901732
 20
-24.9712301349
 10
3.1759455003
 20
-24.9342380743
 10
3.1618336024
 20
-24.8982424214
 10
3.1465855251
 20
-24.864344304
 10
3.1300645279
 20
-24.8326887111
 10
3.1124073513
 20
-24.8031306537
 10
3.0939281148
 20
-24.7763362932
 10
3.0746196545
 20
-24.7525166577
 10
3.0544891342
 20
-24.7314607191
 10
3.0338721657
 20
-24.7132015542
 10
3.0128806193
 20
-24.6977501887
 10
2.9914026246
 20
-24.685095597
 10
2.9694381817
 20
-24.675237779
  0
LINE
  5
2C4
100
AcDbEntity
  8
0
100
AcDbLine
 62
7
  6
CONTINUOUS
 10
1.8425504475
 20
-23.5801261846
 11
1.8425504475
 21
-25.6554167447
  0
LINE
  5
2C5
100
AcDbEntity
  8
0
100
AcDbLine
 62
7
  6
CONTINUOUS
 10
2.2645684474
 20
-24.48976149
 11
2.2645684474
 21
-23.9133190087
  0
LINE
  5
2C6
100
AcDbEntity
  8
0
100
AcDbLine
 62
7
  6
CONTINUOUS
 10
2.279102331
 20
-25.6554167447
 11
2.279102331
 21
-24.833661834
  0
LINE
  5
2C7
100
AcDbEntity
  8
0
100
AcDbLine
 62
7
  6
CONTINUOUS
 10
2.9694381817
 20
-24.675237779
 11
2.9694381817
 21
-24.662829653
  0
LWPOLYLINE
  5
2C8
100
AcDbEntity
  8
0
100
AcDbPolyline
 62
7
  6
CONTINUOUS
 90
19
 70
0
 10
2.8555448123
 20
-24.1634498221
 10
2.8540079113
 20
-24.1982128195
 10
2.850067064
 20
-24.2313505393
 10
2.8437222703
 20
-24.2628629816
 10
2.834679004
 20
-24.2930719541
 10
2.8232317914
 20
-24.321655649
 10
2.8102642114
 20
-24.3476486431
 10
2.7961566017
 20
-24.3705575222
 10
2.7805286248
 20
-24.3908757005
 10
2.7631228461
 20
-24.409117998
 10
2.7440547624
 20
-24.4253357701
 10
2.7232088771
 20
-24.4394776614
 10
2.6999812656
 20
-24.4519044253
 10
2.6739606224
 20
-24.462788437
 10
2.645558253
 20
-24.4719573213
 10
2.6154041496
 20
-24.4792547059
 10
2.5837083094
 20
-24.4846284669
 10
2.5502607352
 20
-24.4881307283
 10
2.5150614268
 20
-24.48976149
  0
LINE
  5
2C9
100
AcDbEntity
  8
0
100
AcDbLine
 62
7
  6
CONTINUOUS
 10
-3.4864564286
 20
-23.5555933469
 11
-3.8989474286
 21
-25.0009663469
  0
LINE
  5
2CA
100
AcDbEntity
  8
0
100
AcDbLine
 62
7
  6
CONTINUOUS
 10
-3.7234074286
 20
-25.6554163469
 11
-3.0484394286
 21
-23.5555933469
  0
LWPOLYLINE
  5
2CB
100
AcDbEntity
  8
RACCORDO
100
AcDbPolyline
 62
253
  6
CONTINUOUS
 90
10
 70
0
 10
-56.7722026873
 20
-22.4385710517
 10
-56.7741200621
 20
-22.4391771709
 10
-56.7760591701
 20
-22.4404656786
 10
-56.7780173596
 20
-22.4424348128
 10
-56.7799919525
 20
-22.4450818806
 10
-56.7819802485
 20
-22.4484032622
 10
-56.7839795283
 20
-22.4523944154
 10
-56.785987058
 20
-22.4570498822
 10
-56.788000092
 20
-22.4623632962
 10
-56.7900158774
 20
-22.4683273911
  0
LWPOLYLINE
  5
2CC
100
AcDbEntity
  8
RACCORDO
100
AcDbPolyline
 62
253
  6
CONTINUOUS
 90
10
 70
0
 10
-56.7722026286
 20
22.7580846924
 10
-56.7741199901
 20
22.7586907293
 10
-56.7760590884
 20
22.7599791419
 10
-56.7780172721
 20
22.7619481683
 10
-56.7799918641
 20
22.7645951158
 10
-56.7819801646
 20
22.7679163646
 10
-56.7839794549
 20
22.7719073729
 10
-56.7859870016
 20
22.776562683
 10
-56.7880000599
 20
22.7818759285
 10
-56.7900158774
 20
22.7878398437
  0
LINE
  5
2CD
100
AcDbEntity
  8
0
100
AcDbLine
 62
7
  6
CONTINUOUS
 10
0.6310735714
 20
-24.9118423469
 11
0.8493175714
 21
-24.1325713469
  0
LINE
  5
2CE
100
AcDbEntity
  8
0
100
AcDbLine
 62
7
  6
CONTINUOUS
 10
0.4204655714
 20
-25.6554163469
 11
0.5414135714
 21
-25.2362173469
  0
LINE
  5
2CF
100
AcDbEntity
  8
0
100
AcDbLine
 62
7
  6
CONTINUOUS
 10
0.6455445714
 20
-23.5555933469
 11
-0.0130944286
 21
-25.6554163469
  0
LINE
  5
2D0
100
AcDbEntity
  8
0
100
AcDbLine
 62
7
  6
CONTINUOUS
 10
-0.7119484286
 20
-23.5555933469
 11
-1.1502644286
 21
-24.7214213469
  0
LINE
  5
2D1
100
AcDbEntity
  8
0
100
AcDbLine
 62
7
  6
CONTINUOUS
 10
-1.1219214286
 20
-25.6554163469
 11
-0.6007634286
 21
-24.2899873469
  0
LINE
  5
2D2
100
AcDbEntity
  8
SMUSSO
100
AcDbLine
 62
7
  6
CONTINUOUS
 10
-81.8129464286
 20
-46.1902423469
 11
-80.8129464286
 21
-45.7760287846
  0
LINE
  5
2D3
100
AcDbEntity
  8
SMUSSO
100
AcDbLine
 62
7
  6
CONTINUOUS
 10
-81.8129464286
 20
46.5097576531
 11
-80.8129464286
 21
46.0955440907
  0
LINE
  5
2D4
100
AcDbEntity
  8
RACCORDO
100
AcDbLine
 62
253
  6
CONTINUOUS
 10
58.2960493924
 20
26.4186468606
 11
58.3371601848
 21
26.4597576531
  0
LINE
  5
2D5
100
AcDbEntity
  8
RACCORDO
100
AcDbLine
 62
253
  6
CONTINUOUS
 10
55.4356389973
 20
22.7582973874
 11
55.4292444837
 21
22.7519028738
  0
LINE
  5
2D6
100
AcDbEntity
  8
RACCORDO
100
AcDbLine
 62
253
  6
CONTINUOUS
 10
58.995942779
 20
25.718753474
 11
59.0370535714
 21
25.7598642665
  0
LINE
  5
2D7
100
AcDbEntity
  8
RACCORDO
100
AcDbLine
 62
253
  6
CONTINUOUS
 10
55.7363668043
 20
22.4591165774
 11
55.7291987922
 21
22.4519485653
  0
LWPOLYLINE
  5
2D8
100
AcDbEntity
  8
0
100
AcDbPolyline
 62
7
  6
CONTINUOUS
 90
45
 70
0
 10
3.063402089
 20
-24.60230798
 10
3.0732578049
 20
-24.5935910078
 10
3.0831906373
 20
-24.5844726488
 10
3.0932083325
 20
-24.5749737674
 10
3.1033031442
 20
-24.5650734993
 10
3.1134249715
 20
-24.5545881271
 10
3.1235846374
 20
-24.5435248485
 10
3.1337713189
 20
-24.5318764658
 10
3.1439024472
 20
-24.5194376686
 10
3.1539883296
 20
-24.5061736516
 10
3.1640186587
 20
-24.4921192202
 10
3.1738799432
 20
-24.47717348
 10
3.1835866041
 20
-24.4613230235
 10
3.1931242204
 20
-24.4445812582
 10
3.2023360376
 20
-24.4268875116
 10
3.2112409975
 20
-24.4082314525
 10
3.2198201583
 20
-24.3886234121
 10
3.2278599402
 20
-24.3680337118
 10
3.2353677298
 20
-24.3464760024
 10
3.2423361406
 20
-24.3239366331
 10
3.2485294333
 20
-24.3003449736
 10
3.253957089
 20
-24.2757046223
 10
3.2586096267
 20
-24.2500119808
 10
3.2622228643
 20
-24.2231856236
 10
3.2648187738
 20
-24.1951948541
 10
3.2663753831
 20
-24.1660703689
 10
3.2665625937
 20
-24.135822833
 10
3.2654900289
 20
-24.1044287881
 10
3.2630480654
 20
-24.0719116926
 10
3.2585777343
 20
-24.0383525861
 10
3.2522144636
 20
-24.0036721339
 10
3.2438228253
 20
-23.9679496707
 10
3.2323375679
 20
-23.9315042412
 10
3.2173156011
 20
-23.8937083729
 10
3.199200015
 20
-23.8551895381
 10
3.1782548284
 20
-23.8181491983
 10
3.1538969887
 20
-23.7827300977
 10
3.1267095485
 20
-23.7487894921
 10
3.0987056836
 20
-23.7181006105
 10
3.0703089631
 20
-23.6913866
 10
3.0410958179
 20
-23.6679243134
 10
3.0118087171
 20
-23.6473175378
 10
2.9826951502
 20
-23.6294342022
 10
2.9535076276
 20
-23.6144063776
 10
2.9242461493
 20
-23.6022340639
  0
LWPOLYLINE
  5
2D9
100
AcDbEntity
  8
RACCORDO
100
AcDbPolyline
 62
253
  6
CONTINUOUS
 90
22
 70
0
 10
-56.7900565458
 20
22.7878402427
 10
-56.8149412117
 20
22.786592713
 10
-56.8394565575
 20
22.7831406294
 10
-56.863441013
 20
22.7775241033
 10
-56.8867088242
 20
22.7698121148
 10
-56.9091381246
 20
22.760056183
 10
-56.9306622902
 20
22.7482666991
 10
-56.9513062963
 20
22.7343587483
 10
-56.9707274291
 20
22.7185328488
 10
-56.9883874823
 20
22.7013297655
 10
-57.0041878072
 20
22.682977333
 10
-57.01817891
 20
22.6636299592
 10
-57.0302201545
 20
22.6438595943
 10
-57.0403308079
 20
22.623995895
 10
-57.0486913614
 20
22.6040918668
 10
-57.0554760572
 20
22.5843129677
 10
-57.0607998097
 20
22.5648240868
 10
-57.064772902
 20
22.5456977298
 10
-57.067540589
 20
22.526923272
 10
-57.0692113722
 20
22.5085399524
 10
-57.0698770511
 20
22.4906430324
 10
-57.0696401752
 20
22.4732822346
  0
LWPOLYLINE
  5
2DA
100
AcDbEntity
  8
RACCORDO
100
AcDbPolyline
 62
253
  6
CONTINUOUS
 90
22
 70
0
 10
55.7859888017
 20
23.4522493482
 10
55.8082026234
 20
23.4525391573
 10
55.8300167529
 20
23.4510127411
 10
55.8513273593
 20
23.4477064128
 10
55.8720021952
 20
23.4426730996
 10
55.8919796056
 20
23.435955372
 10
55.9112615527
 20
23.4275641926
 10
55.9297643814
 20
23.4175348918
 10
55.9473847051
 20
23.4059198851
 10
55.9640858146
 20
23.3927355896
 10
55.9797731322
 20
23.3780310966
 10
55.9943578961
 20
23.3618632174
 10
56.0077998728
 20
23.3442497178
 10
56.0200123082
 20
23.3252315977
 10
56.0308940361
 20
23.3048954825
 10
56.0403754862
 20
23.2833277829
 10
56.0483681335
 20
23.2605986251
 10
56.0547917995
 20
23.2368088329
 10
56.05959374
 20
23.2121002344
 10
56.0627116087
 20
23.1865912635
 10
56.0640746491
 20
23.1603767197
 10
56.0636278027
 20
23.1335725953
  0
LWPOLYLINE
  5
2DB
100
AcDbEntity
  8
RACCORDO
100
AcDbPolyline
 62
253
  6
CONTINUOUS
 90
6
 70
0
 10
-56.7662828015
 20
22.7883554621
 10
-56.7710350119
 20
22.7883081313
 10
-56.7757884857
 20
22.788232932
 10
-56.7805432228
 20
22.7881298644
 10
-56.7852992233
 20
22.7879989285
 10
-56.7900564872
 20
22.7878401242
  0
LWPOLYLINE
  5
2DC
100
AcDbEntity
  8
RACCORDO
100
AcDbPolyline
 62
253
  6
CONTINUOUS
 90
6
 70
0
 10
-56.7633150123
 20
22.758292216
 10
-56.7650963802
 20
22.7582750512
 10
-56.7668758952
 20
22.7582458992
 10
-56.7686534946
 20
22.7582047667
 10
-56.7704291156
 20
22.7581516609
 10
-56.7722026956
 20
22.7580865892
  0
LINE
  5
2DD
100
AcDbEntity
  8
RACCORDO
100
AcDbLine
 62
253
  6
CONTINUOUS
 10
55.7363668043
 20
22.4591165774
 11
55.7438867754
 21
22.4591165774
  0
LINE
  5
2DE
100
AcDbEntity
  8
RACCORDO
100
AcDbLine
 62
253
  6
CONTINUOUS
 10
-57.0622596615
 20
22.4591165774
 11
-57.0697796326
 21
22.4591165774
  0
LINE
  5
2DF
100
AcDbEntity
  8
RACCORDO
100
AcDbLine
 62
7
  6
CONTINUOUS
 10
-56.7551373408
 20
22.7519028738
 11
55.4292444837
 21
22.7519028738
  0
LINE
  5
2E0
100
AcDbEntity
  8
RACCORDO
100
AcDbLine
 62
253
  6
CONTINUOUS
 10
55.4356389973
 20
22.7582973874
 11
-56.7633150123
 21
22.758292216
  0
LINE
  5
2E1
100
AcDbEntity
  8
RACCORDO
100
AcDbLine
 62
253
  6
CONTINUOUS
 10
55.4356389973
 20
22.7883749246
 11
-56.7662828015
 21
22.7883554621
  0
LINE
  5
2E2
100
AcDbEntity
  8
RACCORDO
100
AcDbLine
 62
253
  6
CONTINUOUS
 10
-57.6849629774
 20
23.1335724037
 11
-57.3895206515
 21
23.1335724037
  0
LINE
  5
2E3
100
AcDbEntity
  8
RACCORDO
100
AcDbLine
 62
253
  6
CONTINUOUS
 10
56.3590701203
 20
23.1335724037
 11
56.0636277944
 21
23.1335724037
  0
LINE
  5
2E4
100
AcDbEntity
  8
RACCORDO
100
AcDbLine
 62
253
  6
CONTINUOUS
 10
-57.1118828171
 20
23.4522496202
 11
55.7859889334
 21
23.4522496202
  0
LINE
  5
2E5
100
AcDbEntity
  8
RACCORDO
100
AcDbLine
 62
253
  6
CONTINUOUS
 10
-57.1118914378
 20
23.7341574065
 11
55.7859985807
 21
23.7341574065
  0
LINE
  5
2E6
100
AcDbEntity
  8
RACCORDO
100
AcDbLine
 62
253
  6
CONTINUOUS
 10
-60.3218356361
 20
25.718753474
 11
-60.0218813276
 21
25.718753474
  0
LINE
  5
2E7
100
AcDbEntity
  8
RACCORDO
100
AcDbLine
 62
253
  6
CONTINUOUS
 10
58.995942779
 20
25.7187534736
 11
58.6959884704
 21
25.718753474
  0
LWPOLYLINE
  5
2E8
100
AcDbEntity
  8
RACCORDO
100
AcDbPolyline
 62
253
  6
CONTINUOUS
 90
7
 70
0
 10
55.4641636389
 20
22.7878401187
 10
55.4594174755
 20
22.787999639
 10
55.4546681347
 20
22.7881310049
 10
55.4499156165
 20
22.7882342164
 10
55.4451599208
 20
22.7883092735
 10
55.4404010478
 20
22.7883561763
 10
55.4356389973
 20
22.7883749246
  0
LWPOLYLINE
  5
2E9
100
AcDbEntity
  8
RACCORDO
100
AcDbPolyline
 62
253
  6
CONTINUOUS
 90
7
 70
0
 10
55.4463098384
 20
22.7580865892
 10
55.4445395943
 20
22.7581515758
 10
55.4427659756
 20
22.758204662
 10
55.4409890443
 20
22.7582458168
 10
55.4392088624
 20
22.7582750096
 10
55.4374254924
 20
22.7582922098
 10
55.4356389973
 20
22.7582973874
  0
LWPOLYLINE
  5
2EA
100
AcDbEntity
  8
RACCORDO
100
AcDbPolyline
 62
253
  6
CONTINUOUS
 90
22
 70
0
 10
55.7859985807
 20
23.7341574065
 10
55.829692854
 20
23.7323880291
 10
55.8723855545
 20
23.7275526553
 10
55.9140766821
 20
23.7196512852
 10
55.954895709
 20
23.7086157826
 10
55.9947131631
 20
23.6945142837
 10
56.033140628
 20
23.6775511968
 10
56.0701966065
 20
23.657718303
 10
56.1058625958
 20
23.6350238213
 10
56.1396946716
 20
23.6096968171
 10
56.1716955188
 20
23.5817241369
 10
56.2018624525
 20
23.5511189342
 10
56.2297434934
 20
23.5181497354
 10
56.2553552337
 20
23.4827561668
 10
56.2786810813
 20
23.444998602
 10
56.2992192805
 20
23.405326689
 10
56.3169445879
 20
23.3636836729
 10
56.331882247
 20
23.3201263086
 10
56.3436062324
 20
23.2752745082
 10
56.3519745354
 20
23.2293349094
 10
56.3571291647
 20
23.1821008745
 10
56.3590701203
 20
23.1335724037
  0
LINE
  5
2EB
100
AcDbEntity
  8
RACCORDO
100
AcDbLine
 62
253
  6
CONTINUOUS
 10
58.2960493924
 20
-26.0991315545
 11
58.3371601848
 21
-26.1402423469
  0
LINE
  5
2EC
100
AcDbEntity
  8
RACCORDO
100
AcDbLine
 62
253
  6
CONTINUOUS
 10
55.4356389973
 20
-22.4387820813
 11
55.4292444837
 21
-22.4323875677
  0
LINE
  5
2ED
100
AcDbEntity
  8
RACCORDO
100
AcDbLine
 62
253
  6
CONTINUOUS
 10
58.995942779
 20
-25.3992381679
 11
59.0370535714
 21
-25.4403489603
  0
LINE
  5
2EE
100
AcDbEntity
  8
RACCORDO
100
AcDbLine
 62
253
  6
CONTINUOUS
 10
55.7363668043
 20
-22.1396012713
 11
55.7291987922
 21
-22.1324332592
  0
LWPOLYLINE
  5
2EF
100
AcDbEntity
  8
RACCORDO
100
AcDbPolyline
 62
253
  6
CONTINUOUS
 90
22
 70
0
 10
-56.7722026956
 20
22.7580865892
 10
-56.7967165517
 20
22.7560960238
 10
-56.8209650212
 20
22.7521157857
 10
-56.8447858343
 20
22.7461830901
 10
-56.8679894621
 20
22.7383604757
 10
-56.8904574972
 20
22.7287032813
 10
-56.9121326308
 20
22.7172334321
 10
-56.9330498563
 20
22.7038865004
 10
-56.9528533427
 20
22.688838262
 10
-56.9709832989
 20
22.6725805491
 10
-56.9873567372
 20
22.6553717177
 10
-57.0020170238
 20
22.6373557076
 10
-57.0147748952
 20
22.619007175
 10
-57.0256528111
 20
22.6006621553
 10
-57.0348402582
 20
22.5823957849
 10
-57.0424729824
 20
22.5643025799
 10
-57.0486565369
 20
22.5465438659
 10
-57.0535198552
 20
22.5292176789
 10
-57.0572056118
 20
22.5122822522
 10
-57.0598182294
 20
22.4957705398
 10
-57.0614496988
 20
22.4797984656
 10
-57.0622014112
 20
22.4644227452
  0
LWPOLYLINE
  5
2F0
100
AcDbEntity
  8
RACCORDO
100
AcDbPolyline
 62
253
  6
CONTINUOUS
 90
25
 70
0
 10
-59.6219422495
 20
26.4186468606
 10
-59.6677178868
 20
26.4171426269
 10
-59.7132966805
 20
26.4126482052
 10
-59.7584835571
 20
26.4051829262
 10
-59.8030851232
 20
26.3947788635
 10
-59.8469104988
 20
26.381480612
 10
-59.8897721288
 20
26.3653450818
 10
-59.9314865672
 20
26.346441399
 10
-59.9718753071
 20
26.3248505457
 10
-60.0107655368
 20
26.3006649021
 10
-60.0479908001
 20
26.273988024
 10
-60.0833918029
 20
26.2449341339
 10
-60.1168171115
 20
26.2136275203
 10
-60.1481236157
 20
26.1802022218
 10
-60.1771773664
 20
26.1448012851
 10
-60.2038541745
 20
26.1075760166
 10
-60.2280398672
 20
26.0686855848
 10
-60.2496307906
 20
26.0282965415
 10
-60.2685344561
 20
25.9865819072
 10
-60.2846698723
 20
25.9437202953
 10
-60.2979679811
 20
25.8998950712
 10
-60.3083719108
 20
25.8552937312
 10
-60.3158370824
 20
25.8101071336
 10
-60.3203314301
 20
25.7645286912
 10
-60.3218356361
 20
25.718753474
  0
LINE
  5
2F1
100
AcDbEntity
  8
RACCORDO
100
AcDbLine
 62
253
  6
CONTINUOUS
 10
58.2960493924
 20
26.1186925521
 11
-59.6219422495
 21
26.1186925521
  0
LINE
  5
2F2
100
AcDbEntity
  8
RACCORDO
100
AcDbLine
 62
253
  6
CONTINUOUS
 10
58.2960493924
 20
26.4186468606
 11
-59.6219422495
 21
26.4186468606
  0
LINE
  5
2F3
100
AcDbEntity
  8
RACCORDO
100
AcDbLine
 62
7
  6
CONTINUOUS
 10
58.3371601848
 20
26.4597576531
 11
-59.663053042
 21
26.4597576531
  0
LWPOLYLINE
  5
2F4
100
AcDbEntity
  8
RACCORDO
100
AcDbPolyline
 62
253
  6
CONTINUOUS
 90
25
 70
0
 10
58.2960493924
 20
26.1186925521
 10
58.3222806857
 20
26.117823954
 10
58.3482108122
 20
26.1152784254
 10
58.3738397717
 20
26.111055966
 10
58.3992840617
 20
26.1051246418
 10
58.4244271849
 20
26.0975163868
 10
58.4489196487
 20
26.0883270041
 10
58.4727436069
 20
26.0775369374
 10
58.4959169058
 20
26.065165743
 10
58.5181435911
 20
26.0513678923
 10
58.5394128551
 20
26.0361236842
 10
58.5597355055
 20
26.0194528198
 10
58.5788480121
 20
26.0015688745
 10
58.5967349804
 20
25.9824542376
 10
58.6134118049
 20
25.9621265196
 10
58.6286611388
 20
25.9408521276
 10
58.642461995
 20
25.9186210831
 10
58.6548353606
 20
25.8954433645
 10
58.6656268503
 20
25.8716153142
 10
58.6748168226
 20
25.847118278
 10
58.682424919
 20
25.8219709102
 10
58.6883556781
 20
25.7965255153
 10
58.6925772795
 20
25.7708995285
 10
58.6951215436
 20
25.7449755147
 10
58.6959884704
 20
25.718753474
  0
LINE
  5
2F5
100
AcDbEntity
  8
RACCORDO
100
AcDbLine
 62
253
  6
CONTINUOUS
 10
55.7859889334
 20
23.4522496202
 11
55.4641636389
 21
22.7878401187
  0
LINE
  5
2F6
100
AcDbEntity
  8
RACCORDO
100
AcDbLine
 62
253
  6
CONTINUOUS
 10
56.0636277944
 20
23.1335725781
 11
55.743747318
 21
22.4732822346
  0
LINE
  5
2F7
100
AcDbEntity
  8
RACCORDO
100
AcDbLine
 62
253
  6
CONTINUOUS
 10
56.0636277944
 20
-22.8140687161
 11
55.743747318
 21
-22.153766929
  0
LINE
  5
2F8
100
AcDbEntity
  8
RACCORDO
100
AcDbLine
 62
253
  6
CONTINUOUS
 10
55.7860035698
 20
-23.1327343141
 11
55.4641554321
 21
-22.4683250296
  0
LWPOLYLINE
  5
2F9
100
AcDbEntity
  8
RACCORDO
100
AcDbPolyline
 62
253
  6
CONTINUOUS
 90
10
 70
0
 10
55.7363149475
 20
22.4644228616
 10
55.7365288793
 20
22.4654004975
 10
55.736896423
 20
22.4663805317
 10
55.7374174654
 20
22.4673626592
 10
55.7380918465
 20
22.4683465745
 10
55.7389193591
 20
22.4693319714
 10
55.7398997488
 20
22.4703185434
 10
55.7410327142
 20
22.4713059835
 10
55.7423179072
 20
22.4722939845
 10
55.7437549326
 20
22.4732822392
  0
LINE
  5
2FA
100
AcDbEntity
  8
SMUSSO
100
AcDbLine
 62
7
  6
CONTINUOUS
 10
79.0728400091
 20
46.5097576531
 11
-80.3987328662
 21
46.5097576531
  0
LINE
  5
2FB
100
AcDbEntity
  8
SMUSSO
100
AcDbLine
 62
7
  6
CONTINUOUS
 10
79.4870535714
 20
47.5097576531
 11
-80.8129464286
 21
47.5097576531
  0
LWPOLYLINE
  5
2FC
100
AcDbEntity
  8
RACCORDO
100
AcDbPolyline
 62
253
  6
CONTINUOUS
 90
10
 70
0
 10
55.7363085657
 20
-22.1449074392
 10
55.7365227558
 20
-22.1458845588
 10
55.7368904535
 20
-22.146864199
 10
55.7374115458
 20
-22.1478460593
 10
55.7380858724
 20
-22.1488298383
 10
55.7389132264
 20
-22.1498152339
 10
55.7398933533
 20
-22.1508019439
 10
55.7410259522
 20
-22.1517896652
 10
55.7423106749
 20
-22.1527780946
 10
55.7437471269
 20
-22.1537669285
  0
LWPOLYLINE
  5
2FD
100
AcDbEntity
  8
RACCORDO
100
AcDbPolyline
 62
253
  6
CONTINUOUS
 90
22
 70
0
 10
56.0636283487
 20
-22.8140698607
 10
56.0640736925
 20
-22.8408857325
 10
56.0627084152
 20
-22.8671061256
 10
56.0595888061
 20
-22.8926150969
 10
56.0547878478
 20
-22.9173145078
 10
56.0483684249
 20
-22.9410900288
 10
56.0403797408
 20
-22.9638105559
 10
56.0308993891
 20
-22.9853783432
 10
56.0200160261
 20
-23.0057192061
 10
56.0077976577
 20
-23.0247457619
 10
55.9943415854
 20
-23.0423735988
 10
55.9797365108
 20
-23.0585574306
 10
55.9640316787
 20
-23.0732702746
 10
55.9473224021
 20
-23.0864517454
 10
55.9296992546
 20
-23.0980589139
 10
55.9111927716
 20
-23.1080812965
 10
55.8918988897
 20
-23.1164692737
 10
55.8719081524
 20
-23.1231832432
 10
55.8512341403
 20
-23.1282090346
 10
55.8299444219
 20
-23.1315061382
 10
55.8081663823
 20
-23.1330257499
 10
55.786003638
 20
-23.1327344549
  0
LINE
  5
2FE
100
AcDbEntity
  8
RACCORDO
100
AcDbLine
 62
253
  6
CONTINUOUS
 10
55.743825044
 20
22.4684828825
 11
55.743747318
 21
22.4732822346
  0
LINE
  5
2FF
100
AcDbEntity
  8
RACCORDO
100
AcDbLine
 62
253
  6
CONTINUOUS
 10
55.7363668043
 20
22.4591165774
 11
55.7363085541
 21
22.4644227452
  0
LINE
  5
300
100
AcDbEntity
  8
RACCORDO
100
AcDbLine
 62
253
  6
CONTINUOUS
 10
55.7438715298
 20
22.4637609968
 11
55.743825044
 21
22.4684828825
  0
LINE
  5
301
100
AcDbEntity
  8
RACCORDO
100
AcDbLine
 62
253
  6
CONTINUOUS
 10
55.7438867754
 20
22.4591165774
 11
55.7438715298
 21
22.4637609968
  0
LINE
  5
302
100
AcDbEntity
  8
RACCORDO
100
AcDbLine
 62
253
  6
CONTINUOUS
 10
55.4356389973
 20
-22.4387820813
 11
55.4356389975
 21
-22.4688596185
  0
LINE
  5
303
100
AcDbEntity
  8
RACCORDO
100
AcDbLine
 62
253
  6
CONTINUOUS
 10
55.4356389973
 20
22.7582973874
 11
55.4356389973
 21
22.7883749246
  0
LINE
  5
304
100
AcDbEntity
  8
RACCORDO
100
AcDbLine
 62
7
  6
CONTINUOUS
 10
55.7291987922
 20
22.4519485653
 11
55.7291987922
 21
-22.1324332592
  0
LINE
  5
305
100
AcDbEntity
  8
RACCORDO
100
AcDbLine
 62
253
  6
CONTINUOUS
 10
55.7363668043
 20
-22.1396012713
 11
55.7363668043
 21
22.4591165774
  0
LINE
  5
306
100
AcDbEntity
  8
RACCORDO
100
AcDbLine
 62
253
  6
CONTINUOUS
 10
55.7859985807
 20
23.7341574065
 11
55.7859985807
 21
23.4522496202
  0
LINE
  5
307
100
AcDbEntity
  8
RACCORDO
100
AcDbLine
 62
253
  6
CONTINUOUS
 10
55.7859985807
 20
-23.4146421004
 11
55.7859985807
 21
-23.1327343141
  0
LINE
  5
308
100
AcDbEntity
  8
RACCORDO
100
AcDbLine
 62
253
  6
CONTINUOUS
 10
56.0636277944
 20
23.1335725781
 11
56.0636277944
 21
-22.8140687161
  0
LINE
  5
309
100
AcDbEntity
  8
RACCORDO
100
AcDbLine
 62
253
  6
CONTINUOUS
 10
56.3590701203
 20
23.1335724037
 11
56.3590701203
 21
-22.8140570976
  0
LINE
  5
30A
100
AcDbEntity
  8
RACCORDO
100
AcDbLine
 62
253
  6
CONTINUOUS
 10
55.7438811027
 20
-22.1420053784
 11
55.7438867754
 21
22.4591165774
  0
LINE
  5
30B
100
AcDbEntity
  8
RACCORDO
100
AcDbLine
 62
253
  6
CONTINUOUS
 10
55.7438486731
 20
-22.1467617955
 11
55.7438811027
 21
-22.1420053784
  0
LINE
  5
30C
100
AcDbEntity
  8
RACCORDO
100
AcDbLine
 62
253
  6
CONTINUOUS
 10
55.7363085541
 20
-22.144907439
 11
55.7363668043
 21
-22.1396012713
  0
LWPOLYLINE
  5
30D
100
AcDbEntity
  8
RACCORDO
100
AcDbPolyline
 62
253
  6
CONTINUOUS
 90
22
 70
0
 10
55.743747318
 20
22.4732822346
 10
55.7439842793
 20
22.4906429873
 10
55.7433186637
 20
22.5085398854
 10
55.7416479095
 20
22.5269232061
 10
55.7388801745
 20
22.545697697
 10
55.7349069667
 20
22.5648241044
 10
55.7295831185
 20
22.5843130206
 10
55.7227984117
 20
22.6040919327
 10
55.7144378947
 20
22.6239959667
 10
55.7043272724
 20
22.6438596696
 10
55.6922860253
 20
22.6636300339
 10
55.6782949084
 20
22.6829774019
 10
55.6624945705
 20
22.7013298261
 10
55.6448345103
 20
22.7185329004
 10
55.6254133731
 20
22.7343587895
 10
55.6047693676
 20
22.7482667304
 10
55.5832452105
 20
22.760056207
 10
55.5608159244
 20
22.7698121339
 10
55.5375481279
 20
22.7775241177
 10
55.5135636857
 20
22.7831406385
 10
55.4890483531
 20
22.7865927172
 10
55.4641637001
 20
22.7878402424
  0
LWPOLYLINE
  5
30E
100
AcDbEntity
  8
RACCORDO
100
AcDbPolyline
 62
253
  6
CONTINUOUS
 90
3
 70
0
 10
55.743747318
 20
-22.153766929
 10
55.7437881311
 20
-22.1514491502
 10
55.7438486731
 20
-22.1467617955
  0
LINE
  5
30F
100
AcDbEntity
  8
SMUSSO
100
AcDbLine
 62
7
  6
CONTINUOUS
 10
79.4870535714
 20
47.5097576531
 11
79.0728400091
 21
46.5097576531
  0
LINE
  5
310
100
AcDbEntity
  8
SMUSSO
100
AcDbLine
 62
7
  6
CONTINUOUS
 10
79.4870535714
 20
-47.1902423469
 11
79.0728400091
 21
-46.1902423469
  0
LWPOLYLINE
  5
311
100
AcDbEntity
  8
RACCORDO
100
AcDbPolyline
 62
253
  6
CONTINUOUS
 90
22
 70
0
 10
55.7363085541
 20
22.4644227452
 10
55.7355568414
 20
22.4797984482
 10
55.7339253728
 20
22.4957705157
 10
55.7313127554
 20
22.512282232
 10
55.727626996
 20
22.5292176779
 10
55.7227636704
 20
22.5465438937
 10
55.7165801065
 20
22.5643026305
 10
55.7089473736
 20
22.5823958465
 10
55.699759918
 20
22.6006622221
 10
55.6888819943
 20
22.6190072434
 10
55.6761241166
 20
22.6373557742
 10
55.6614638255
 20
22.6553717794
 10
55.6450903838
 20
22.672580605
 10
55.6269604242
 20
22.6888383126
 10
55.6071569356
 20
22.7038865447
 10
55.5862397116
 20
22.7172334684
 10
55.5645645862
 20
22.7287033073
 10
55.542096564
 20
22.7383604917
 10
55.5188929489
 20
22.7461830987
 10
55.4950721462
 20
22.7521157897
 10
55.4708236862
 20
22.7560960251
 10
55.4463098384
 20
22.7580865892
  0
LWPOLYLINE
  5
312
100
AcDbEntity
  8
RACCORDO
100
AcDbPolyline
 62
253
  6
CONTINUOUS
 90
25
 70
0
 10
58.995942779
 20
25.718753474
 10
58.9944385453
 20
25.7645291113
 10
58.9899441235
 20
25.810107905
 10
58.9824788446
 20
25.8552947815
 10
58.9720747819
 20
25.8998963477
 10
58.9587765304
 20
25.9437217233
 10
58.9426410002
 20
25.9865833532
 10
58.9237373173
 20
26.0282977917
 10
58.9021464641
 20
26.0686865316
 10
58.8779608205
 20
26.1075767613
 10
58.8512839424
 20
26.1448020246
 10
58.8222300523
 20
26.1802030274
 10
58.7909234386
 20
26.213628336
 10
58.7574981401
 20
26.2449348402
 10
58.7220972035
 20
26.2739885909
 10
58.6848719349
 20
26.300665399
 10
58.6459815032
 20
26.3248510917
 10
58.6055924599
 20
26.3464420151
 10
58.5638778255
 20
26.3653456806
 10
58.5210162137
 20
26.3814810968
 10
58.4771909896
 20
26.3947792056
 10
58.4325896495
 20
26.4051831353
 10
58.387403052
 20
26.4126483069
 10
58.3418246095
 20
26.4171426545
 10
58.2960493924
 20
26.4186468606
  0
LINE
  5
313
100
AcDbEntity
  8
RACCORDO
100
AcDbLine
 62
253
  6
CONTINUOUS
 10
58.2960493923
 20
26.4186468606
 11
58.2960493924
 21
26.1186925521
  0
LINE
  5
314
100
AcDbEntity
  8
RACCORDO
100
AcDbLine
 62
253
  6
CONTINUOUS
 10
58.296049392
 20
-26.0991315545
 11
58.2960493924
 21
-25.7991772459
  0
LINE
  5
315
100
AcDbEntity
  8
RACCORDO
100
AcDbLine
 62
253
  6
CONTINUOUS
 10
58.6959884704
 20
-25.3992381679
 11
58.6959884704
 21
25.718753474
  0
LINE
  5
316
100
AcDbEntity
  8
RACCORDO
100
AcDbLine
 62
253
  6
CONTINUOUS
 10
58.995942779
 20
-25.3992381679
 11
58.995942779
 21
25.718753474
  0
LINE
  5
317
100
AcDbEntity
  8
RACCORDO
100
AcDbLine
 62
7
  6
CONTINUOUS
 10
59.0370535714
 20
-25.4403489603
 11
59.0370535714
 21
25.7598642665
  0
LWPOLYLINE
  5
318
100
AcDbEntity
  8
RACCORDO
100
AcDbPolyline
 62
253
  6
CONTINUOUS
 90
25
 70
0
 10
58.6959884704
 20
-25.3992381679
 10
58.6951198724
 20
-25.4254694612
 10
58.6925743437
 20
-25.4513995877
 10
58.6883518844
 20
-25.4770285472
 10
58.6824205601
 20
-25.5024728372
 10
58.6748123052
 20
-25.5276159604
 10
58.6656229225
 20
-25.5521084242
 10
58.6548328558
 20
-25.5759323824
 10
58.6424616613
 20
-25.5991056813
 10
58.6286638106
 20
-25.6213323666
 10
58.6134196025
 20
-25.6426016306
 10
58.5967487382
 20
-25.662924281
 10
58.5788647929
 20
-25.6820367876
 10
58.5597501559
 20
-25.6999237559
 10
58.539422438
 20
-25.7166005804
 10
58.518148046
 20
-25.7318499143
 10
58.4959170015
 20
-25.7456507705
 10
58.4727392828
 20
-25.7580241361
 10
58.4489112325
 20
-25.7688156258
 10
58.4244141964
 20
-25.7780055981
 10
58.3992668285
 20
-25.7856136945
 10
58.3738214337
 20
-25.7915444536
 10
58.3481954469
 20
-25.795766055
 10
58.3222714331
 20
-25.7983103191
 10
58.2960493924
 20
-25.7991772459
  0
LWPOLYLINE
  5
319
100
AcDbEntity
  8
RACCORDO
100
AcDbPolyline
 62
253
  6
CONTINUOUS
 90
22
 70
0
 10
56.3590701203
 20
-22.8140570976
 10
56.3571194561
 20
-22.8626705158
 10
56.3519526412
 20
-22.9099698802
 10
56.3435696754
 20
-22.9559551909
 10
56.3318287571
 20
-23.0008263667
 10
56.3168716881
 20
-23.0443834887
 10
56.2991238729
 20
-23.0860268003
 10
56.2785605896
 20
-23.1257069948
 10
56.2552065601
 20
-23.163473379
 10
56.2295613557
 20
-23.1988741157
 10
56.2016341845
 20
-23.2318518996
 10
56.1714158383
 20
-23.262464036
 10
56.1393782641
 20
-23.2904306036
 10
56.1055342894
 20
-23.3157297415
 10
56.0698710867
 20
-23.3383833105
 10
56.0328221196
 20
-23.3581769715
 10
55.9943946763
 20
-23.3751063185
 10
55.9545814687
 20
-23.3891757574
 10
55.9137940954
 20
-23.4001841672
 10
55.8721697561
 20
-23.4080645074
 10
55.8295712512
 20
-23.4128838185
 10
55.7859985807
 20
-23.4146421004
  0
LINE
  5
31A
100
AcDbEntity
  8
SMUSSO
100
AcDbLine
 62
7
  6
CONTINUOUS
 10
79.4870535714
 20
-45.7760287846
 11
79.4870535714
 21
46.0955440907
  0
LINE
  5
31B
100
AcDbEntity
  8
SMUSSO
100
AcDbLine
 62
7
  6
CONTINUOUS
 10
80.4870535714
 20
-46.1902423469
 11
80.4870535714
 21
46.5097576531
  0
LINE
  5
31C
100
AcDbEntity
  8
SMUSSO
100
AcDbLine
 62
7
  6
CONTINUOUS
 10
79.0728400091
 20
-46.1902423469
 11
79.4870535714
 21
-45.7760287846
  0
LINE
  5
31D
100
AcDbEntity
  8
SMUSSO
100
AcDbLine
 62
7
  6
CONTINUOUS
 10
79.4870535714
 20
-47.1902423469
 11
80.4870535714
 21
-46.1902423469
  0
LINE
  5
31E
100
AcDbEntity
  8
SMUSSO
100
AcDbLine
 62
7
  6
CONTINUOUS
 10
79.4870535714
 20
46.0955440907
 11
79.0728400091
 21
46.5097576531
  0
LINE
  5
31F
100
AcDbEntity
  8
SMUSSO
100
AcDbLine
 62
7
  6
CONTINUOUS
 10
80.4870535714
 20
46.5097576531
 11
79.4870535714
 21
47.5097576531
  0
LINE
  5
320
100
AcDbEntity
  8
SMUSSO
100
AcDbLine
 62
7
  6
CONTINUOUS
 10
-119.7545280612
 20
-47.1902423469
 11
-115.3045280612
 21
-47.1902423469
  0
LINE
  5
321
100
AcDbEntity
  8
RACCORDO
100
AcDbLine
 62
7
  6
CONTINUOUS
 10
-114.8045280612
 20
-45.1457319314
 11
-114.2545280612
 21
-45.1361316457
  0
LINE
  5
322
100
AcDbEntity
  8
SMUSSO
100
AcDbLine
 62
7
  6
CONTINUOUS
 10
-119.7545280612
 20
-46.1902423469
 11
-115.3045280612
 21
-46.1902423469
  0
LINE
  5
323
100
AcDbEntity
  8
SMUSSO
100
AcDbLine
 62
7
  6
CONTINUOUS
 10
-119.7545280612
 20
46.5097576531
 11
-120.7545280612
 21
46.0955440907
  0
LINE
  5
324
100
AcDbEntity
  8
RACCORDO
100
AcDbLine
 62
253
  6
CONTINUOUS
 10
-114.8045280612
 20
-43.1460365411
 11
-114.2545280612
 21
-43.1364362553
  0
LINE
  5
325
100
AcDbEntity
  8
SMUSSO
100
AcDbLine
 62
7
  6
CONTINUOUS
 10
-119.7545280612
 20
-46.1902423469
 11
-120.7545280612
 21
-45.7760287846
  0
LINE
  5
326
100
AcDbEntity
  8
SMUSSO
100
AcDbLine
 62
7
  6
CONTINUOUS
 10
-119.7545280612
 20
47.5097576531
 11
-120.7545280612
 21
46.5097576531
  0
LINE
  5
327
100
AcDbEntity
  8
SMUSSO
100
AcDbLine
 62
7
  6
CONTINUOUS
 10
-119.7545280612
 20
-47.1902423469
 11
-120.7545280612
 21
-46.1902423469
  0
LINE
  5
328
100
AcDbEntity
  8
0
100
AcDbLine
 62
7
  6
CONTINUOUS
 10
-113.6545280612
 20
-26.1902423469
 11
-114.2545280612
 21
-26.1937330448
  0
LINE
  5
329
100
AcDbEntity
  8
ASSI
100
AcDbLine
 62
7
  6
CONTINUOUS
 10
-113.6545280612
 20
-26.9902423469
 11
-114.1538895793
 21
-26.9911138981
  0
LINE
  5
32A
100
AcDbEntity
  8
0
100
AcDbLine
 62
7
  6
CONTINUOUS
 10
-114.1538895793
 20
-26.9911138981
 11
-114.2545280612
 21
-26.9912895456
  0
LINE
  5
32B
100
AcDbEntity
  8
ASSI
100
AcDbLine
 62
253
  6
CONTINUOUS
 10
-113.6545280612
 20
-26.7678880605
 11
-113.9322992509
 21
-26.7680135366
  0
LINE
  5
32C
100
AcDbEntity
  8
0
100
AcDbLine
 62
253
  6
CONTINUOUS
 10
-113.9322992509
 20
-26.7680135366
 11
-114.2545280612
 21
-26.7681590954
  0
LINE
  5
32D
100
AcDbEntity
  8
0
100
AcDbLine
 62
7
  6
CONTINUOUS
 10
-123.4045280612
 20
-25.6554167447
 11
-123.6045280612
 21
-25.6554167447
  0
LINE
  5
32E
100
AcDbEntity
  8
RACCORDO
100
AcDbLine
 62
253
  6
CONTINUOUS
 10
-123.1097637832
 20
-25.3992381678
 11
-123.4045280612
 21
-25.3992381679
  0
LINE
  5
32F
100
AcDbEntity
  8
0
100
AcDbLine
 62
253
  6
CONTINUOUS
 10
-123.4045280612
 20
-25.087083635
 11
-123.6045280612
 21
-25.087083635
  0
LINE
  5
330
100
AcDbEntity
  8
0
100
AcDbLine
 62
7
  6
CONTINUOUS
 10
-113.8545280612
 20
-25.0402423469
 11
-114.2545280612
 21
-25.0402423469
  0
LINE
  5
331
100
AcDbEntity
  8
0
100
AcDbLine
 62
7
  6
CONTINUOUS
 10
-114.2045280612
 20
-24.8902423469
 11
-114.0045280612
 21
-24.8902423469
  0
LINE
  5
332
100
AcDbEntity
  8
RACCORDO
100
AcDbLine
 62
7
  6
CONTINUOUS
 10
-123.1097637832
 20
-26.0991315545
 11
-120.7545280612
 21
-26.1402423469
  0
LINE
  5
333
100
AcDbEntity
  8
RACCORDO
100
AcDbLine
 62
253
  6
CONTINUOUS
 10
-123.1097637832
 20
-25.3992381679
 11
-120.7545280612
 21
-25.4403489603
  0
LINE
  5
334
100
AcDbEntity
  8
0
100
AcDbLine
 62
7
  6
CONTINUOUS
 10
-113.84406087
 20
-25.6318687637
 11
-114.2545280612
 21
-25.6137342717
  0
LINE
  5
335
100
AcDbEntity
  8
0
100
AcDbLine
 62
7
  6
CONTINUOUS
 10
-123.4045280612
 20
-24.675237779
 11
-123.6045280612
 21
-24.675237779
  0
LINE
  5
336
100
AcDbEntity
  8
0
100
AcDbLine
 62
7
  6
CONTINUOUS
 10
-123.4045280612
 20
-24.662829653
 11
-123.6045280612
 21
-24.662829653
  0
LINE
  5
337
100
AcDbEntity
  8
0
100
AcDbLine
 62
253
  6
CONTINUOUS
 10
-123.4045280612
 20
-23.6022340639
 11
-123.6045280612
 21
-23.6022340639
  0
LINE
  5
338
100
AcDbEntity
  8
0
100
AcDbLine
 62
7
  6
CONTINUOUS
 10
-123.4045280612
 20
-23.5309559721
 11
-123.6045280612
 21
-23.5309559721
  0
LINE
  5
339
100
AcDbEntity
  8
0
100
AcDbLine
 62
7
  6
CONTINUOUS
 10
-114.0045280612
 20
25.2097576531
 11
-113.8545280612
 21
25.3597576531
  0
LINE
  5
33A
100
AcDbEntity
  8
0
100
AcDbLine
 62
7
  6
CONTINUOUS
 10
-114.0045280612
 20
-24.8902423469
 11
-113.8545280612
 21
-25.0402423469
  0
LWPOLYLINE
  5
33B
100
AcDbEntity
  8
RACCORDO
100
AcDbPolyline
 62
253
  6
CONTINUOUS
 90
6
 70
0
 10
-123.1097637832
 20
-26.0991315545
 10
-123.1100921962
 20
-26.0976273208
 10
-123.110400046
 20
-26.093132899
 10
-123.1106842651
 20
-26.0856676201
 10
-123.1109407556
 20
-26.0752635574
 10
-123.1111682462
 20
-26.0619653059
  0
LINE
  5
33C
100
AcDbEntity
  8
RACCORDO
100
AcDbLine
 62
253
  6
CONTINUOUS
 10
-123.1111682462
 20
-26.0619653059
 11
-123.111539392
 21
-26.0269260928
  0
LINE
  5
33D
100
AcDbEntity
  8
RACCORDO
100
AcDbLine
 62
253
  6
CONTINUOUS
 10
-123.111539392
 20
-26.0269260928
 11
-123.1118684613
 21
-25.9544727179
  0
LINE
  5
33E
100
AcDbEntity
  8
RACCORDO
100
AcDbLine
 62
253
  6
CONTINUOUS
 10
-123.1097637832
 20
25.718753474
 11
-123.1117892223
 21
26.1075767613
  0
LINE
  5
33F
100
AcDbEntity
  8
0
100
AcDbLine
 62
7
  6
CONTINUOUS
 10
-123.6045280612
 20
-25.6554167447
 11
-123.6045280612
 21
-23.5309631188
  0
LINE
  5
340
100
AcDbEntity
  8
RACCORDO
100
AcDbLine
 62
7
  6
CONTINUOUS
 10
-123.4045280612
 20
-25.7991772459
 11
-123.4045280612
 21
26.1186925521
  0
LINE
  5
341
100
AcDbEntity
  8
RACCORDO
100
AcDbLine
 62
253
  6
CONTINUOUS
 10
-123.1097637832
 20
-25.3992381679
 11
-123.1097637832
 21
25.718753474
  0
LINE
  5
342
100
AcDbEntity
  8
RACCORDO
100
AcDbLine
 62
253
  6
CONTINUOUS
 10
-123.1117892223
 20
26.1075767613
 11
-123.1118684799
 21
26.2739885909
  0
LINE
  5
343
100
AcDbEntity
  8
RACCORDO
100
AcDbLine
 62
253
  6
CONTINUOUS
 10
-123.1118684613
 20
-25.9544727179
 11
-123.1117892463
 21
-25.7880607104
  0
LINE
  5
344
100
AcDbEntity
  8
RACCORDO
100
AcDbLine
 62
253
  6
CONTINUOUS
 10
-123.1118684799
 20
26.2739885909
 11
-123.1115394055
 21
26.3464420151
  0
LINE
  5
345
100
AcDbEntity
  8
RACCORDO
100
AcDbLine
 62
253
  6
CONTINUOUS
 10
-123.1117892463
 20
-25.7880607104
 11
-123.1097637832
 21
-25.3992381679
  0
LWPOLYLINE
  5
346
100
AcDbEntity
  8
RACCORDO
100
AcDbPolyline
 62
253
  6
CONTINUOUS
 90
7
 70
0
 10
-123.1115394055
 20
26.3464420151
 10
-123.1111682451
 20
26.3814810968
 10
-123.1109407495
 20
26.3947792056
 10
-123.1106842562
 20
26.4051831353
 10
-123.1104000372
 20
26.4126483069
 10
-123.1100921903
 20
26.4171426545
 10
-123.1097637832
 20
26.4186468606
  0
LINE
  5
347
100
AcDbEntity
  8
SMUSSO
100
AcDbLine
 62
7
  6
CONTINUOUS
 10
-120.7545280612
 20
-46.1902423469
 11
-120.7545280612
 21
46.5097576531
  0
LINE
  5
348
100
AcDbEntity
  8
SMUSSO
100
AcDbLine
 62
7
  6
CONTINUOUS
 10
-119.7545280612
 20
-47.1902423469
 11
-119.7545280612
 21
47.5097576531
  0
LINE
  5
349
100
AcDbEntity
  8
SMUSSO
100
AcDbLine
 62
7
  6
CONTINUOUS
 10
-115.3045280612
 20
47.5097576531
 11
-115.3045280612
 21
-47.1902423469
  0
LINE
  5
34A
100
AcDbEntity
  8
SMUSSO
100
AcDbLine
 62
7
  6
CONTINUOUS
 10
-114.8045280612
 20
47.0097576531
 11
-114.8045280612
 21
-46.6902423469
  0
LINE
  5
34B
100
AcDbEntity
  8
RACCORDO
100
AcDbLine
 62
7
  6
CONTINUOUS
 10
-114.2545280612
 20
-45.1361316457
 11
-114.2545280612
 21
45.4556469518
  0
LINE
  5
34C
100
AcDbEntity
  8
0
100
AcDbLine
 62
253
  6
CONTINUOUS
 10
-113.84406087
 20
25.9513840698
 11
-113.84406087
 21
25.3600317461
  0
LINE
  5
34D
100
AcDbEntity
  8
0
100
AcDbLine
 62
253
  6
CONTINUOUS
 10
-113.84406087
 20
-25.04051644
 11
-113.84406087
 21
-25.6318687637
  0
LINE
  5
34E
100
AcDbEntity
  8
ASSI
100
AcDbLine
 62
7
  6
CONTINUOUS
 10
-113.6545280612
 20
-26.9901902737
 11
-113.6545280612
 21
-26.4902423469
  0
LINE
  5
34F
100
AcDbEntity
  8
0
100
AcDbLine
 62
7
  6
CONTINUOUS
 10
-113.6545280612
 20
-25.2402423469
 11
-113.6545280612
 21
-26.4902423469
  0
LINE
  5
350
100
AcDbEntity
  8
0
100
AcDbLine
 62
7
  6
CONTINUOUS
 10
-113.6545280612
 20
25.5597576531
 11
-113.6545280612
 21
26.8097576531
  0
LINE
  5
351
100
AcDbEntity
  8
ASSI
100
AcDbLine
 62
7
  6
CONTINUOUS
 10
-113.6545280612
 20
26.8097576531
 11
-113.6545280612
 21
27.3097055798
  0
LINE
  5
352
100
AcDbEntity
  8
0
100
AcDbLine
 62
7
  6
CONTINUOUS
 10
-114.2545280612
 20
-24.9402423469
 11
-114.2045280612
 21
-24.8902423469
  0
LINE
  5
353
100
AcDbEntity
  8
0
100
AcDbLine
 62
7
  6
CONTINUOUS
 10
-113.6545280612
 20
-26.4902423469
 11
-114.1553432543
 21
-26.99105754
  0
LINE
  5
354
100
AcDbEntity
  8
0
100
AcDbLine
 62
7
  6
CONTINUOUS
 10
-114.2545280612
 20
25.2597576531
 11
-114.2045280612
 21
25.2097576531
  0
LINE
  5
355
100
AcDbEntity
  8
0
100
AcDbLine
 62
7
  6
CONTINUOUS
 10
-114.1553432543
 20
27.3105728462
 11
-113.6545280612
 21
26.8097576531
  0
LINE
  5
356
100
AcDbEntity
  8
0
100
AcDbLine
 62
7
  6
CONTINUOUS
 10
-113.84406087
 20
25.9513840698
 11
-114.2545280612
 21
25.9332495778
  0
LINE
  5
357
100
AcDbEntity
  8
RACCORDO
100
AcDbLine
 62
253
  6
CONTINUOUS
 10
-123.1097637832
 20
25.718753474
 11
-120.7545280612
 21
25.7598642665
  0
LINE
  5
358
100
AcDbEntity
  8
0
100
AcDbLine
 62
7
  6
CONTINUOUS
 10
-114.2045280612
 20
25.2097576531
 11
-114.0045280612
 21
25.2097576531
  0
LINE
  5
359
100
AcDbEntity
  8
0
100
AcDbLine
 62
7
  6
CONTINUOUS
 10
-113.8545280612
 20
25.3597576531
 11
-114.2545280612
 21
25.3597576531
  0
LINE
  5
35A
100
AcDbEntity
  8
RACCORDO
100
AcDbLine
 62
253
  6
CONTINUOUS
 10
-123.1097637832
 20
25.7187534736
 11
-123.4045280612
 21
25.718753474
  0
LINE
  5
35B
100
AcDbEntity
  8
RACCORDO
100
AcDbLine
 62
7
  6
CONTINUOUS
 10
-123.1097637832
 20
26.4186468606
 11
-120.7545280612
 21
26.4597576531
  0
LINE
  5
35C
100
AcDbEntity
  8
ASSI
100
AcDbLine
 62
253
  6
CONTINUOUS
 10
-113.6545280612
 20
27.0874033666
 11
-113.9322992509
 21
27.0875288428
  0
LINE
  5
35D
100
AcDbEntity
  8
0
100
AcDbLine
 62
253
  6
CONTINUOUS
 10
-113.9322992509
 20
27.0875288428
 11
-114.2545280612
 21
27.0876744015
  0
LINE
  5
35E
100
AcDbEntity
  8
ASSI
100
AcDbLine
 62
7
  6
CONTINUOUS
 10
-113.6545280612
 20
27.3097576531
 11
-114.1553431515
 21
27.3106317412
  0
LINE
  5
35F
100
AcDbEntity
  8
0
100
AcDbLine
 62
7
  6
CONTINUOUS
 10
-114.1538895793
 20
27.3106292042
 11
-114.2545280612
 21
27.3108048517
  0
LINE
  5
360
100
AcDbEntity
  8
0
100
AcDbLine
 62
7
  6
CONTINUOUS
 10
-113.6545280612
 20
26.5097576531
 11
-114.2545280612
 21
26.5132483509
  0
LINE
  5
361
100
AcDbEntity
  8
SMUSSO
100
AcDbLine
 62
7
  6
CONTINUOUS
 10
-115.3045280612
 20
-47.1902423469
 11
-114.8045280612
 21
-46.6902423469
  0
LINE
  5
362
100
AcDbEntity
  8
SMUSSO
100
AcDbLine
 62
7
  6
CONTINUOUS
 10
-115.3045280612
 20
47.5097576531
 11
-114.8045280612
 21
47.0097576531
  0
LINE
  5
363
100
AcDbEntity
  8
SMUSSO
100
AcDbLine
 62
7
  6
CONTINUOUS
 10
-115.3045280612
 20
-46.1902423469
 11
-114.8045280612
 21
-45.9831355658
  0
LINE
  5
364
100
AcDbEntity
  8
SMUSSO
100
AcDbLine
 62
7
  6
CONTINUOUS
 10
-119.7545280612
 20
46.5097576531
 11
-115.3045280612
 21
46.5097576531
  0
LINE
  5
365
100
AcDbEntity
  8
SMUSSO
100
AcDbLine
 62
7
  6
CONTINUOUS
 10
-119.7545280612
 20
47.5097576531
 11
-115.3045280612
 21
47.5097576531
  0
LINE
  5
366
100
AcDbEntity
  8
RACCORDO
100
AcDbLine
 62
253
  6
CONTINUOUS
 10
-114.8045280612
 20
43.4655518472
 11
-114.2545280612
 21
43.4559515615
  0
LINE
  5
367
100
AcDbEntity
  8
RACCORDO
100
AcDbLine
 62
7
  6
CONTINUOUS
 10
-114.8045280612
 20
45.4652472375
 11
-114.2545280612
 21
45.4556469518
  0
LINE
  5
368
100
AcDbEntity
  8
SMUSSO
100
AcDbLine
 62
7
  6
CONTINUOUS
 10
-115.3045280612
 20
46.5097576531
 11
-114.8045280612
 21
46.3026508719
  0
ARC
  5
369
100
AcDbEntity
  8
RACCORDO
100
AcDbCircle
 62
7
  6
CONTINUOUS
 10
-123.1045280612
 20
26.1186925521
 40
0.3
100
AcDbArc
 50
91.0
 51
180.0
  0
ARC
  5
36A
100
AcDbEntity
  8
RACCORDO
100
AcDbCircle
 62
7
  6
CONTINUOUS
 10
-123.1045280612
 20
-25.7991772459
 40
0.3
100
AcDbArc
 50
180.0
 51
269.0
  0
ARC
  5
36B
100
AcDbEntity
  8
0
100
AcDbCircle
 62
7
  6
CONTINUOUS
 10
-113.8545280612
 20
-25.2402423469
 40
0.2
100
AcDbArc
 50
0.0
 51
90.0
  0
ARC
  5
36C
100
AcDbEntity
  8
0
100
AcDbCircle
 62
7
  6
CONTINUOUS
 10
-113.8545280612
 20
25.5597576531
 40
0.2
100
AcDbArc
 50
270.0
 51
360.0
  0
ELLIPSE
  5
36D
100
AcDbEntity
  8
RACCORDO
100
AcDbEllipse
 62
7
  6
CONTINUOUS
 10
-59.6628397989
 20
25.7596510234
 30
0.0
 11
0.4951255324
 21
-0.4951255324
 31
0.0
 40
0.9996954599
 41
2.3563467834
 42
3.9268385237
  0
ELLIPSE
  5
36E
100
AcDbEntity
  8
RACCORDO
100
AcDbEllipse
 62
7
  6
CONTINUOUS
 10
-59.6628397989
 20
-25.4401357173
 30
0.0
 11
0.4951255324
 21
0.4951255324
 31
0.0
 40
0.9996954599
 41
2.3563467834
 42
3.9268385237
  0
ELLIPSE
  5
36F
100
AcDbEntity
  8
RACCORDO
100
AcDbEllipse
 62
7
  6
CONTINUOUS
 10
58.3369469418
 20
-25.4401357173
 30
0.0
 11
0.4951255324
 21
-0.4951255324
 31
0.0
 40
0.9996954599
 41
-0.7852458701
 42
0.7852458701
  0
ELLIPSE
  5
370
100
AcDbEntity
  8
RACCORDO
100
AcDbEllipse
 62
7
  6
CONTINUOUS
 10
58.3369469418
 20
25.7596510234
 30
0.0
 11
0.4951255324
 21
0.4951255324
 31
0.0
 40
0.9996954599
 41
-0.7852458701
 42
0.7852458701
  0
ELLIPSE
  5
371
100
AcDbEntity
  8
RACCORDO
100
AcDbEllipse
 62
7
  6
CONTINUOUS
 10
55.4291530938
 20
22.4518571754
 30
0.0
 11
0.2121966568
 21
0.2121966568
 31
0.0
 40
0.9996954599
 41
-0.7852458701
 42
0.7852458701
  0
ELLIPSE
  5
372
100
AcDbEntity
  8
RACCORDO
100
AcDbEllipse
 62
7
  6
CONTINUOUS
 10
55.4291530938
 20
-22.1323418693
 30
0.0
 11
0.2121966568
 21
-0.2121966568
 31
0.0
 40
0.9996954599
 41
-0.7852458701
 42
0.7852458701
  0
ELLIPSE
  5
373
100
AcDbEntity
  8
RACCORDO
100
AcDbEllipse
 62
7
  6
CONTINUOUS
 10
-56.7550459509
 20
22.4518571754
 30
0.0
 11
0.2121966568
 21
-0.2121966568
 31
0.0
 40
0.9996954599
 41
2.3563467834
 42
3.9268385237
  0
ELLIPSE
  5
374
100
AcDbEntity
  8
RACCORDO
100
AcDbEllipse
 62
7
  6
CONTINUOUS
 10
-56.7550459509
 20
-22.1323418693
 30
0.0
 11
-0.2121966568
 21
-0.2121966568
 31
0.0
 40
0.9996954599
 41
-0.7852458701
 42
0.7852458701
  0
ELLIPSE
  5
375
100
AcDbEntity
  8
0
100
AcDbEllipse
 62
7
  6
CONTINUOUS
 10
-113.8545280612
 20
26.1511960972
 30
0.0
 11
-0.1417119467
 21
0.1422961243
 31
0.0
 40
0.9918061237
 41
-3.8766878413
 42
-2.358251392
  0
ELLIPSE
  5
376
100
AcDbEntity
  8
0
100
AcDbEllipse
 62
7
  6
CONTINUOUS
 10
-113.8545280612
 20
-25.831680791
 30
0.0
 11
0.1417119467
 21
0.1422961243
 31
0.0
 40
0.9918061237
 41
-0.7833412615
 42
0.7350951877
  0
ENDSEC
  0
SECTION
  2
OBJECTS
  0
DICTIONARY
  5
C
100
AcDbDictionary
280
0
281
1
  3
ACAD_GROUP
350
D
  3
ACAD_MLINESTYLE
350
17
  3
ACAD_LAYOUT
350
1A
  3
ACAD_PLOTSETTINGS
350
19
  3
ACAD_PLOTSTYLENAME
350
E
  0
DICTIONARY
  5
D
102
{ACAD_REACTORS
330
C
102
}
100
AcDbDictionary
280
0
281
1
  0
ACDBDICTIONARYWDFLT
  5
E
102
{ACAD_REACTORS
330
C
102
}
100
AcDbDictionary
281
1
  3
Normal
350
F
100
AcDbDictionaryWithDefault
340
F
  0
DICTIONARY
  5
17
102
{ACAD_REACTORS
330
C
102
}
100
AcDbDictionary
280
0
281
1
  3
Standard
350
18
  0
DICTIONARY
  5
19
102
{ACAD_REACTORS
330
C
102
}
100
AcDbDictionary
281
1
  0
DICTIONARY
  5
1A
102
{ACAD_REACTORS
330
C
102
}
100
AcDbDictionary
281
1
  3
Model
350
377
  3
Layout1
350
378
  0
ACDBPLACEHOLDER
  5
F
102
{ACAD_REACTORS
330
E
102
}
  0
MLINESTYLE
  5
18
102
{ACAD_REACTORS
330
17
102
}
100
AcDbMlineStyle
  2
STANDARD
 70
0
  3

 62
256
 51
90.0
 52
90.0
 71
2
 49
0.5
 62
256
  6
BYLAYER
 49
-0.5
 62
256
  6
BYLAYER
  0
LAYOUT
  5
377
102
{ACAD_REACTORS
330
1A
102
}
100
AcDbPlotSettings
  1

  2
none_device
  4
ISO_A4_(297.00_x_210.00_MM)
  6

 40
0.0
 41
0.0
 42
0.0
 43
0.0
 44
297.0
 45
210.0
 46
0.0
 47
0.0
 48
0.0
 49
0.0
140
0.0
141
0.0
142
1.0
143
1.0
 70
1024
 72
1
 73
0
 74
0
  7

 75
0
147
1.0
148
0.0
149
0.0
100
AcDbLayout
  1
Model
 70
0
 71
0
 10
0.0
 20
0.0
 11
297.0
 21
210.0
 12
0.0
 22
0.0
 32
0.0
 14
0.0
 24
0.0
 34
0.0
 15
0.0
 25
0.0
 35
0.0
146
0.0
 13
0.0
 23
0.0
 33
0.0
 16
1.0
 26
0.0
 36
0.0
 17
0.0
 27
1.0
 37
0.0
 76
0
330
215
345
0
346
0
  0
LAYOUT
  5
378
102
{ACAD_REACTORS
330
1A
102
}
100
AcDbPlotSettings
  1

  2
none_device
  4
ISO_A4_(297.00_x_210.00_MM)
  6

 40
0.0
 41
0.0
 42
0.0
 43
0.0
 44
297.0
 45
210.0
 46
0.0
 47
0.0
 48
0.0
 49
0.0
140
0.0
141
0.0
142
1.0
143
1.0
 70
0
 72
1
 73
0
 74
0
  7

 75
0
147
1.0
148
0.0
149
0.0
100
AcDbLayout
  1
Layout1
 70
0
 71
1
 10
0.0
 20
0.0
 11
297.0
 21
210.0
 12
0.0
 22
0.0
 32
0.0
 14
0.0
 24
0.0
 34
0.0
 15
0.0
 25
0.0
 35
0.0
146
0.0
 13
0.0
 23
0.0
 33
0.0
 16
1.0
 26
0.0
 36
0.0
 17
0.0
 27
1.0
 37
0.0
 76
0
330
216
345
0
346
0
  0
ENDSEC
  0
EOF
