  0
SECTION
  2
HEADER
  9
$ACADVER
  1
AC1015
  9
$DWGCODEPAGE
  3
ANSI_1252
  9
$EXTMAX
 10
297.0
 20
210.0
 30
0.0
  9
$EXTMIN
 10
0.0
 20
0.0
 30
0.0
  9
$LIMMIN
 10
0.0
 20
0.0
  9
$LIMMAX
 10
297.0
 20
210.0
  9
$VIEWCTR
 10
148.5
 20
105.0
  9
$VIEWSIZE
 40
210.0
  9
$CLAYER
  8
0
  9
$LTSCALE
 40
16.335
  9
$CELTYPE
  6
BYLAYER
  9
$DIMSCALE
 40
1.0
  9
$DIMASZ
 40
3.0
  9
$DIMEXO
 40
0.5
  9
$DIMDLI
 40
11.286
  9
$DIMEXE
 40
1.5
  9
$DIMCEN
 40
2.673
  9
$DIMLFAC
 40
1.0
  9
$DIMBLK
  1
_FILLED
  9
$DIMTXT
 40
3.0
  9
$DIMTOL
 70
1
  9
$DIMLIM
 70
0
  9
$DIMTFAC
 40
1.0
  9
$DIMTP
 40
0.01
  9
$DIMTM
 40
0.01
  9
$DIMGAP
 40
0.625
  9
$DIMDSEP
 70
44
  9
$PDMODE
 70
3
  9
$PDSIZE
 40
3.0
  9
$HANDSEED
  5
38E
  9
$TILEMODE
 70
1
  9
$MEASUREMENT
 70
1
  9
$INSUNITS
 70
4
  0
ENDSEC
  0
SECTION
  2
CLASSES
  0
CLASS
  1
ACDBDICTIONARYWDFLT
  2
AcDbDictionaryWithDefault
  3
AutoCAD 2000
 90
0
280
0
281
0
  0
CLASS
  1
ACDBPLACEHOLDER
  2
AcDbPlaceHolder
  3
AutoCAD 2000
 90
0
280
0
281
0
  0
CLASS
  1
LAYOUT
  2
AcDbLayout
  3
AutoCAD 2000
 90
0
280
0
281
0
  0
ENDSEC
  0
SECTION
  2
TABLES
  0
TABLE
  2
VPORT
  5
8
100
AcDbSymbolTable
 70
2
  0
VPORT
  5
1F4
100
AcDbSymbolTableRecord
100
AcDbViewportTableRecord
  2
*ACTIVE
 70
0
 10
0.0
 20
0.0
 11
1.0
 21
1.0
 12
148.5
 22
105.0
 13
0.0
 23
0.0
 14
1.0
 24
1.0
 15
0.0
 25
0.0
 16
0.0
 26
0.0
 36
1.0
 17
0.0
 27
0.0
 37
0.0
 40
210.0
 41
1.4142857143
 42
50.0
 43
0.0
 44
0.0
 50
0.0
 51
0.0
 71
0
 72
100
 73
1
 74
1
 75
0
 76
0
 77
0
 78
0
  0
ENDTAB
  0
TABLE
  2
LTYPE
  5
5
100
AcDbSymbolTable
 70
6
  0
LTYPE
  5
14
100
AcDbSymbolTableRecord
100
AcDbLinetypeTableRecord
  2
BYBLOCK
 70
0
  3

 72
65
 73
0
 40
0.0
  0
LTYPE
  5
15
100
AcDbSymbolTableRecord
100
AcDbLinetypeTableRecord
  2
BYLAYER
 70
0
  3

 72
65
 73
0
 40
0.0
  0
LTYPE
  5
16
100
AcDbSymbolTableRecord
100
AcDbLinetypeTableRecord
  2
CONTINUOUS
 70
64
  3
Solid line
 72
65
 73
0
 40
0.0
  0
LTYPE
  5
1F5
100
AcDbSymbolTableRecord
100
AcDbLinetypeTableRecord
  2
CENTER
 70
64
  3
____ _ ____ _ ____ _ ____ _ ____ _ ____ _ ____
 72
65
 73
4
 40
0.6
 49
0.375
 74
0
 49
-0.075
 74
0
 49
0.075
 74
0
 49
-0.075
 74
0
  0
LTYPE
  5
1F6
100
AcDbSymbolTableRecord
100
AcDbLinetypeTableRecord
  2
HIDDEN
 70
64
  3
- - - - - - - - - - - - - - - - - - - -
 72
65
 73
2
 40
0.2
 49
0.1
 74
0
 49
-0.1
 74
0
  0
LTYPE
  5
1F7
100
AcDbSymbolTableRecord
100
AcDbLinetypeTableRecord
  2
PHANTOM
 70
64
  3
_____ _ _ _____ _ _ _____ _ _ _____
 72
65
 73
6
 40
0.8
 49
0.45
 74
0
 49
-0.05
 74
0
 49
0.1
 74
0
 49
-0.05
 74
0
 49
0.1
 74
0
 49
-0.05
 74
0
  0
LTYPE
  5
1F8
100
AcDbSymbolTableRecord
100
AcDbLinetypeTableRecord
  2
DOT
 70
64
  3
. . . . . . . . . . . . . . . . . . . .
 72
65
 73
2
 40
0.2
 49
0.1
 74
0
 49
-0.1
 74
0
  0
LTYPE
  5
1F9
100
AcDbSymbolTableRecord
100
AcDbLinetypeTableRecord
  2
DASHED
 70
64
  3
- - - - - - - - - - - - - - - - - - - -
 72
65
 73
2
 40
0.2
 49
0.1
 74
0
 49
-0.1
 74
0
  0
ENDTAB
  0
TABLE
  2
LAYER
  5
2
100
AcDbSymbolTable
 70
36
  0
LAYER
  5
10
100
AcDbSymbolTableRecord
100
AcDbLayerTableRecord
  2
0
 70
0
 62
7
  6
CONTINUOUS
370
-3
390
F
  0
LAYER
  5
1FA
100
AcDbSymbolTableRecord
100
AcDbLayerTableRecord
  2
DEFAULT_1
 70
0
 62
7
  6
CENTER
370
-3
390
F
  0
LAYER
  5
1FB
100
AcDbSymbolTableRecord
100
AcDbLayerTableRecord
  2
DEFAULT_2
 70
0
 62
7
  6
HIDDEN
370
-3
390
F
  0
LAYER
  5
1FC
100
AcDbSymbolTableRecord
100
AcDbLayerTableRecord
  2
DEFAULT_3
 70
0
 62
7
  6
PHANTOM
370
-3
390
F
  0
LAYER
  5
1FD
100
AcDbSymbolTableRecord
100
AcDbLayerTableRecord
  2
ASSI
 70
0
 62
7
  6
CONTINUOUS
370
-3
390
F
  0
LAYER
  5
1FE
100
AcDbSymbolTableRecord
100
AcDbLayerTableRecord
  2
COORDINATE
 70
0
 62
7
  6
CONTINUOUS
370
-3
390
F
  0
LAYER
  5
1FF
100
AcDbSymbolTableRecord
100
AcDbLayerTableRecord
  2
COORD_ORIGINE
 70
0
 62
7
  6
CONTINUOUS
370
-3
390
F
  0
LAYER
  5
200
100
AcDbSymbolTableRecord
100
AcDbLayerTableRecord
  2
COPY_PUBLISH
 70
0
 62
7
  6
CONTINUOUS
370
-3
390
F
  0
LAYER
  5
201
100
AcDbSymbolTableRecord
100
AcDbLayerTableRecord
  2
COSMETIC
 70
0
 62
7
  6
CONTINUOUS
370
-3
390
F
  0
LAYER
  5
202
100
AcDbSymbolTableRecord
100
AcDbLayerTableRecord
  2
COSMETICI
 70
0
 62
7
  6
CONTINUOUS
370
-3
390
F
  0
LAYER
  5
203
100
AcDbSymbolTableRecord
100
AcDbLayerTableRecord
  2
CURVE
 70
0
 62
7
  6
CONTINUOUS
370
-3
390
F
  0
LAYER
  5
204
100
AcDbSymbolTableRecord
100
AcDbLayerTableRecord
  2
DRAFT
 70
0
 62
7
  6
CONTINUOUS
370
-3
390
F
  0
LAYER
  5
205
100
AcDbSymbolTableRecord
100
AcDbLayerTableRecord
  2
IMPORT_IGES
 70
0
 62
7
  6
CONTINUOUS
370
-3
390
F
  0
LAYER
  5
206
100
AcDbSymbolTableRecord
100
AcDbLayerTableRecord
  2
INTFCLR_2
 70
0
 62
7
  6
CONTINUOUS
370
-3
390
F
  0
LAYER
  5
207
100
AcDbSymbolTableRecord
100
AcDbLayerTableRecord
  2
NOTE
 70
0
 62
7
  6
CONTINUOUS
370
-3
390
F
  0
LAYER
  5
208
100
AcDbSymbolTableRecord
100
AcDbLayerTableRecord
  2
PIANI
 70
0
 62
7
  6
CONTINUOUS
370
-3
390
F
  0
LAYER
  5
209
100
AcDbSymbolTableRecord
100
AcDbLayerTableRecord
  2
PIANI_ORIGINE
 70
0
 62
7
  6
CONTINUOUS
370
-3
390
F
  0
LAYER
  5
20A
100
AcDbSymbolTableRecord
100
AcDbLayerTableRecord
  2
PIANI_RIFERIMENTO
 70
0
 62
7
  6
CONTINUOUS
370
-3
390
F
  0
LAYER
  5
20B
100
AcDbSymbolTableRecord
100
AcDbLayerTableRecord
  2
PUNTI
 70
0
 62
7
  6
CONTINUOUS
370
-3
390
F
  0
LAYER
  5
20C
100
AcDbSymbolTableRecord
100
AcDbLayerTableRecord
  2
RACCORDO
 70
0
 62
7
  6
CONTINUOUS
370
-3
390
F
  0
LAYER
  5
20D
100
AcDbSymbolTableRecord
100
AcDbLayerTableRecord
  2
SIMBOLI
 70
0
 62
7
  6
CONTINUOUS
370
-3
390
F
  0
LAYER
  5
20E
100
AcDbSymbolTableRecord
100
AcDbLayerTableRecord
  2
SMUSSO
 70
0
 62
7
  6
CONTINUOUS
370
-3
390
F
  0
LAYER
  5
20F
100
AcDbSymbolTableRecord
100
AcDbLayerTableRecord
  2
SNAPLINE
 70
0
 62
7
  6
CONTINUOUS
370
-3
390
F
  0
LAYER
  5
210
100
AcDbSymbolTableRecord
100
AcDbLayerTableRecord
  2
SUPERFICI
 70
0
 62
7
  6
CONTINUOUS
370
-3
390
F
  0
LAYER
  5
211
100
AcDbSymbolTableRecord
100
AcDbLayerTableRecord
  2
TRASH
 70
0
 62
7
  6
CONTINUOUS
370
-3
390
F
  0
LAYER
  5
212
100
AcDbSymbolTableRecord
100
AcDbLayerTableRecord
  2
XSEC_DATUMS
 70
0
 62
7
  6
CONTINUOUS
370
-3
390
F
  0
ENDTAB
  0
TABLE
  2
STYLE
  5
3
100
AcDbSymbolTable
 70
1
  0
STYLE
  5
11
100
AcDbSymbolTableRecord
100
AcDbTextStyleTableRecord
  2
STANDARD
 70
0
 40
0.0
 41
0.8
 50
0.0
 71
0
 42
0.2
  3
txt
  4

  0
STYLE
  5
213
100
AcDbSymbolTableRecord
100
AcDbTextStyleTableRecord
  2
TEXTSTYLE_1
 70
0
 40
0.0
 41
0.8
 50
0.0
 71
0
 42
0.2
  3
gdt
  4

  0
ENDTAB
  0
TABLE
  2
VIEW
  5
6
100
AcDbSymbolTable
 70
0
  0
ENDTAB
  0
TABLE
  2
UCS
  5
7
100
AcDbSymbolTable
 70
0
  0
ENDTAB
  0
TABLE
  2
APPID
  5
9
100
AcDbSymbolTable
 70
1
  0
APPID
  5
214
100
AcDbSymbolTableRecord
100
AcDbRegAppTableRecord
  2
ACAD
 70
0
  0
ENDTAB
  0
TABLE
  2
BLOCK_RECORD
  5
1
100
AcDbSymbolTable
 70
0
  0
BLOCK_RECORD
  5
215
100
AcDbSymbolTableRecord
100
AcDbBlockTableRecord
  2
*Model_Space
  0
BLOCK_RECORD
  5
216
100
AcDbSymbolTableRecord
100
AcDbBlockTableRecord
  2
*Paper_Space
  0
BLOCK_RECORD
  5
217
100
AcDbSymbolTableRecord
100
AcDbBlockTableRecord
  2
_FILLED
  0
BLOCK_RECORD
  5
218
100
AcDbSymbolTableRecord
100
AcDbBlockTableRecord
  2
*D0
  0
BLOCK_RECORD
  5
219
100
AcDbSymbolTableRecord
100
AcDbBlockTableRecord
  2
*D1
  0
BLOCK_RECORD
  5
21A
100
AcDbSymbolTableRecord
100
AcDbBlockTableRecord
  2
*D2
  0
BLOCK_RECORD
  5
21B
100
AcDbSymbolTableRecord
100
AcDbBlockTableRecord
  2
*D3
  0
ENDTAB
  0
TABLE
  2
DIMSTYLE
  5
A
100
AcDbSymbolTable
 70
1
100
AcDbDimStyleTable
 71
0
  0
DIMSTYLE
105
21C
100
AcDbSymbolTableRecord
100
AcDbDimStyleTableRecord
  2
STANDARD
 70
0
  3

  4

 40
1.0
 41
3.0
 42
0.5
 43
0.38
 44
1.5
 45
0.0
 46
0.0
 47
0.01
 48
0.01
140
3.0
141
0.09
142
0.0
143
25.4
144
1.0
145
0.0
146
1.0
147
0.625
 71
1.0
 72
0.0
 73
0
 74
0
 75
0
 76
0
 77
1
 78
8
170
0
171
2
172
0
173
0
174
0
175
0
176
0
177
0
178
0
270
2
271
2
272
2
273
2
274
2
275
0
280
0
281
0
282
0
283
1
284
8
285
0
286
0
287
3
288
0
340
11
278
44
341
217
342
217
343
217
344
217
  0
DIMSTYLE
105
21D
100
AcDbSymbolTableRecord
100
AcDbDimStyleTableRecord
  2
DIMSTYLE_1
 70
0
  3

  4

 40
1.0
 41
3.0
 42
0.5
 43
0.38
 44
1.5
 45
0.0
 46
0.0
 47
0.0
 48
0.0
140
3.0
141
0.09
142
0.0
143
25.4
144
1.0
145
0.0
146
1.0
147
0.75
 71
0.0
 72
0.0
 73
0
 74
0
 75
0
 76
0
 77
1
 78
8
170
0
171
2
172
0
173
0
174
0
175
0
176
0
177
0
178
0
270
2
271
2
272
2
273
2
274
2
275
0
280
0
281
0
282
0
283
1
284
8
285
0
286
0
287
3
288
0
340
11
278
44
341
217
342
217
343
217
344
217
  0
ENDTAB
  0
ENDSEC
  0
SECTION
  2
BLOCKS
  0
BLOCK
  5
20
100
AcDbEntity
  8
0
100
AcDbBlockBegin
  2
*Model_Space
 70
0
 10
0.0
 20
0.0
 30
0.0
  3
*Model_Space
  1

  0
ENDBLK
  5
21
100
AcDbEntity
  8
0
100
AcDbBlockEnd
  0
BLOCK
  5
1C
100
AcDbEntity
  8
0
100
AcDbBlockBegin
  2
*Paper_Space
 70
0
 10
0.0
 20
0.0
 30
0.0
  3
*Paper_Space
  1

  0
ENDBLK
  5
1D
100
AcDbEntity
  8
0
100
AcDbBlockEnd
  0
BLOCK
  5
21E
100
AcDbEntity
  8
0
100
AcDbBlockBegin
  2
_FILLED
 70
64
 10
0.0
 20
0.0
  3
_FILLED
  1

  0
SOLID
  5
21F
100
AcDbEntity
  8
0
  6
BYBLOCK
 62
0
100
AcDbTrace
 10
0.0
 20
0.0
 11
-1.0
 21
0.3166666667
 12
-1.0
 22
-0.3166666667
 13
-1.0
 23
-0.3166666667
  0
ENDBLK
  5
220
100
AcDbEntity
  8
0
  6
BYBLOCK
 62
0
100
AcDbBlockEnd
  0
BLOCK
  5
221
100
AcDbEntity
  8
0
100
AcDbBlockBegin
 62
7
  6
CONTINUOUS
  2
*D0
 70
65
 10
0.0
 20
0.0
  3
*D0
  1

  0
MTEXT
  5
222
100
AcDbEntity
  8
0
100
AcDbMText
 62
7
  6
CONTINUOUS
  7
STANDARD
 71
2
 72
1
 10
85.0870535711
 20
-0.522130102
 30
0.0
 11
0.0
 21
1.0
 31
0.0
 44
0.9
  1
95,4
 40
3.0
 41
8.5714285714
  0
LINE
  5
223
100
AcDbEntity
  8
0
100
AcDbLine
 62
7
  6
CONTINUOUS
 10
80.3370535714
 20
47.177869898
 11
90.3370535711
 21
47.177869898
  0
LINE
  5
224
100
AcDbEntity
  8
0
100
AcDbLine
 62
7
  6
CONTINUOUS
 10
80.3370535714
 20
-48.222130102
 11
90.3370535711
 21
-48.222130102
  0
LINE
  5
225
100
AcDbEntity
  8
0
100
AcDbLine
 62
7
  6
CONTINUOUS
 10
88.8370535711
 20
47.177869898
 11
88.8370535711
 21
-0.522130102
  0
LINE
  5
226
100
AcDbEntity
  8
0
100
AcDbLine
 62
7
  6
CONTINUOUS
 10
88.8370535711
 20
-48.222130102
 11
88.8370535711
 21
-0.522130102
  0
INSERT
  5
227
100
AcDbEntity
  8
0
100
AcDbBlockReference
 62
7
  6
CONTINUOUS
  2
_FILLED
 10
88.8370535711
 20
47.177869898
 41
3.0
 42
3.0
 43
3.0
 50
90.0
  0
INSERT
  5
228
100
AcDbEntity
  8
0
100
AcDbBlockReference
 62
7
  6
CONTINUOUS
  2
_FILLED
 10
88.8370535711
 20
-48.222130102
 41
3.0
 42
3.0
 43
3.0
 50
270.0
  0
ENDBLK
  5
229
100
AcDbEntity
  8
0
  6
BYBLOCK
 62
0
100
AcDbBlockEnd
  0
BLOCK
  5
22A
100
AcDbEntity
  8
0
100
AcDbBlockBegin
 62
7
  6
CONTINUOUS
  2
*D1
 70
65
 10
0.0
 20
0.0
  3
*D1
  1

  0
MTEXT
  5
22B
100
AcDbEntity
  8
0
100
AcDbMText
 62
7
  6
CONTINUOUS
  7
STANDARD
 71
2
 72
1
 10
-0.6629464286
 20
58.9278698977
 30
0.0
 11
1.0
 21
0.0
 31
0.0
 44
0.9
  1
163
 40
3.0
 41
6.2142857143
  0
LINE
  5
22C
100
AcDbEntity
  8
0
100
AcDbLine
 62
7
  6
CONTINUOUS
 10
80.8370535714
 20
46.677869898
 11
80.8370535714
 21
56.6778698977
  0
LINE
  5
22D
100
AcDbEntity
  8
0
100
AcDbLine
 62
7
  6
CONTINUOUS
 10
-82.1629464286
 20
46.677869898
 11
-82.1629464286
 21
56.6778698977
  0
LINE
  5
22E
100
AcDbEntity
  8
0
100
AcDbLine
 62
7
  6
CONTINUOUS
 10
80.8370535714
 20
55.1778698977
 11
-0.6629464286
 21
55.1778698977
  0
LINE
  5
22F
100
AcDbEntity
  8
0
100
AcDbLine
 62
7
  6
CONTINUOUS
 10
-82.1629464286
 20
55.1778698977
 11
-0.6629464286
 21
55.1778698977
  0
INSERT
  5
230
100
AcDbEntity
  8
0
100
AcDbBlockReference
 62
7
  6
CONTINUOUS
  2
_FILLED
 10
80.8370535714
 20
55.1778698977
 41
3.0
 42
3.0
 43
3.0
  0
INSERT
  5
231
100
AcDbEntity
  8
0
100
AcDbBlockReference
 62
7
  6
CONTINUOUS
  2
_FILLED
 10
-82.1629464286
 20
55.1778698977
 41
3.0
 42
3.0
 43
3.0
 50
180.0
  0
ENDBLK
  5
232
100
AcDbEntity
  8
0
  6
BYBLOCK
 62
0
100
AcDbBlockEnd
  0
BLOCK
  5
233
100
AcDbEntity
  8
0
100
AcDbBlockBegin
 62
7
  6
CONTINUOUS
  2
*D2
 70
65
 10
0.0
 20
0.0
  3
*D2
  1

  0
MTEXT
  5
234
100
AcDbEntity
  8
0
100
AcDbMText
 62
7
  6
CONTINUOUS
  7
STANDARD
 71
1
 72
1
 10
-104.8040582398
 20
58.9278698977
 30
0.0
 11
1.0
 21
0.0
 31
0.0
 44
0.9
  1
9,25
 40
3.0
 41
8.5714285714
  0
LINE
  5
235
100
AcDbEntity
  8
0
100
AcDbLine
 62
7
  6
CONTINUOUS
 10
-108.7494260204
 20
46.127869898
 11
-108.7494260204
 21
56.6778698977
  0
LINE
  5
236
100
AcDbEntity
  8
0
100
AcDbLine
 62
7
  6
CONTINUOUS
 10
-117.9994260204
 20
25.5368657189
 11
-117.9994260204
 21
56.6778698977
  0
LINE
  5
237
100
AcDbEntity
  8
0
100
AcDbLine
 62
7
  6
CONTINUOUS
 10
-108.7494260204
 20
55.1778698977
 11
-113.3744260204
 21
55.1778698977
  0
LINE
  5
238
100
AcDbEntity
  8
0
100
AcDbLine
 62
7
  6
CONTINUOUS
 10
-113.3744260204
 20
55.1778698977
 11
-96.2326296683
 21
55.1778698977
  0
LINE
  5
239
100
AcDbEntity
  8
0
100
AcDbLine
 62
7
  6
CONTINUOUS
 10
-117.9994260204
 20
55.1778698977
 11
-113.3744260204
 21
55.1778698977
  0
INSERT
  5
23A
100
AcDbEntity
  8
0
100
AcDbBlockReference
 62
7
  6
CONTINUOUS
  2
_FILLED
 10
-108.7494260204
 20
55.1778698977
 41
3.0
 42
3.0
 43
3.0
  0
INSERT
  5
23B
100
AcDbEntity
  8
0
100
AcDbBlockReference
 62
7
  6
CONTINUOUS
  2
_FILLED
 10
-117.9994260204
 20
55.1778698977
 41
3.0
 42
3.0
 43
3.0
 50
180.0
  0
ENDBLK
  5
23C
100
AcDbEntity
  8
0
  6
BYBLOCK
 62
0
100
AcDbBlockEnd
  0
BLOCK
  5
23D
100
AcDbEntity
  8
0
100
AcDbBlockBegin
 62
7
  6
CONTINUOUS
  2
*D3
 70
65
 10
0.0
 20
0.0
  3
*D3
  1

  0
MTEXT
  5
23E
100
AcDbEntity
  8
0
100
AcDbMText
 62
7
  6
CONTINUOUS
  7
STANDARD
 71
1
 72
1
 10
-104.9843141405
 20
68.9278698977
 30
0.0
 11
1.0
 21
0.0
 31
0.0
 44
0.9
  1
9,85
 40
3.0
 41
8.5714285714
  0
LINE
  5
23F
100
AcDbEntity
  8
0
100
AcDbLine
 62
7
  6
CONTINUOUS
 10
-117.9994260204
 20
25.5368657189
 11
-117.9994260204
 21
66.6778698977
  0
LINE
  5
240
100
AcDbEntity
  8
0
100
AcDbLine
 62
7
  6
CONTINUOUS
 10
-108.1494260204
 20
27.127869898
 11
-108.1494260204
 21
66.6778698977
  0
LINE
  5
241
100
AcDbEntity
  8
0
100
AcDbLine
 62
7
  6
CONTINUOUS
 10
-117.9994260204
 20
65.1778698977
 11
-113.0744260204
 21
65.1778698977
  0
LINE
  5
242
100
AcDbEntity
  8
0
100
AcDbLine
 62
7
  6
CONTINUOUS
 10
-108.1494260204
 20
65.1778698977
 11
-113.0744260204
 21
65.1778698977
  0
LINE
  5
243
100
AcDbEntity
  8
0
100
AcDbLine
 62
7
  6
CONTINUOUS
 10
-113.0744260204
 20
65.1778698977
 11
-96.4128855691
 21
65.1778698977
  0
INSERT
  5
244
100
AcDbEntity
  8
0
100
AcDbBlockReference
 62
7
  6
CONTINUOUS
  2
_FILLED
 10
-117.9994260204
 20
65.1778698977
 41
3.0
 42
3.0
 43
3.0
 50
180.0
  0
INSERT
  5
245
100
AcDbEntity
  8
0
100
AcDbBlockReference
 62
7
  6
CONTINUOUS
  2
_FILLED
 10
-108.1494260204
 20
65.1778698977
 41
3.0
 42
3.0
 43
3.0
  0
ENDBLK
  5
246
100
AcDbEntity
  8
0
  6
BYBLOCK
 62
0
100
AcDbBlockEnd
  0
ENDSEC
  0
SECTION
  2
ENTITIES
  0
DIMENSION
  5
247
100
AcDbEntity
  8
0
100
AcDbDimension
 62
7
  6
CONTINUOUS
  2
*D0
 10
88.8370535711
 20
-48.222130102
 11
88.8370535711
 21
-0.522130102
 70
160
 71
2
 42
95.4
  3
DIMSTYLE_1
100
AcDbAlignedDimension
 13
79.8370535714
 23
47.177869898
 14
79.8370535714
 24
-48.222130102
 50
270.0
100
AcDbRotatedDimension
  0
DIMENSION
  5
248
100
AcDbEntity
  8
0
100
AcDbDimension
 62
7
  6
CONTINUOUS
  2
*D1
 10
-82.1629464286
 20
55.1778698977
 11
-0.6629464286
 21
55.1778698977
 70
160
 71
2
 42
163.0
  3
DIMSTYLE_1
100
AcDbAlignedDimension
 13
80.8370535714
 23
46.177869898
 14
-82.1629464286
 24
46.177869898
 50
180.0
100
AcDbRotatedDimension
  0
DIMENSION
  5
249
100
AcDbEntity
  8
0
100
AcDbDimension
 62
7
  6
CONTINUOUS
  2
*D2
 10
-117.9994260204
 20
55.1778698977
 11
-100.518343954
 21
55.1778698977
 70
160
 71
1
 42
9.25
  3
DIMSTYLE_1
100
AcDbAlignedDimension
 13
-108.7494260204
 23
45.627869898
 14
-117.9994260204
 24
25.0368657189
 50
180.0
100
AcDbRotatedDimension
  0
DIMENSION
  5
24A
100
AcDbEntity
  8
0
100
AcDbDimension
 62
7
  6
CONTINUOUS
  2
*D3
 10
-108.1494260204
 20
65.1778698977
 11
-100.6985998548
 21
65.1778698977
 70
160
 71
1
 42
9.85
  3
DIMSTYLE_1
100
AcDbAlignedDimension
 13
-117.9994260204
 23
25.0368657189
 14
-108.1494260204
 24
26.627869898
100
AcDbRotatedDimension
  0
LINE
  5
24B
100
AcDbEntity
  8
SMUSSO
100
AcDbLine
 62
7
  6
CONTINUOUS
 10
-82.1629464286
 20
46.177869898
 11
-82.1629464286
 21
-47.222130102
  0
LINE
  5
24C
100
AcDbEntity
  8
SMUSSO
100
AcDbLine
 62
7
  6
CONTINUOUS
 10
-81.1629464286
 20
46.177869898
 11
-81.1629464286
 21
-47.222130102
  0
LINE
  5
24D
100
AcDbEntity
  8
SMUSSO
100
AcDbLine
 62
253
  6
CONTINUOUS
 10
-81.1629464286
 20
-47.222130102
 11
-81.1629464286
 21
-48.222130102
  0
LINE
  5
24E
100
AcDbEntity
  8
SMUSSO
100
AcDbLine
 62
253
  6
CONTINUOUS
 10
-81.1629464286
 20
46.177869898
 11
-81.1629464286
 21
47.177869898
  0
LWPOLYLINE
  5
24F
100
AcDbEntity
  8
RACCORDO
100
AcDbPolyline
 62
253
  6
CONTINUOUS
 90
22
 70
0
 10
-57.0622014112
 20
-22.8267951941
 10
-57.0614496994
 20
-22.8421708858
 10
-57.0598182456
 20
-22.8581428444
 10
-57.0572056732
 20
-22.8746543571
 10
-57.0535199967
 20
-22.8915895493
 10
-57.0486568148
 20
-22.9089154272
 10
-57.0424735179
 20
-22.9266736356
 10
-57.0348412791
 20
-22.9447660202
 10
-57.0256545423
 20
-22.9630314351
 10
-57.0147774279
 20
-22.9813756782
 10
-57.0020204342
 20
-22.9997236186
 10
-56.9873610736
 20
-23.017739234
 10
-56.9709883314
 20
-23.0349481073
 10
-56.952858591
 20
-23.0512063731
 10
-56.9330549078
 20
-23.0662554276
 10
-56.9121372724
 20
-23.0796031796
 10
-56.8904615485
 20
-23.0910737925
 10
-56.8679927085
 20
-23.1007316826
 10
-56.8447882351
 20
-23.1085548368
 10
-56.8209666139
 20
-23.1144879063
 10
-56.7967173382
 20
-23.1184683765
 10
-56.7722026956
 20
-23.1204590382
  0
LWPOLYLINE
  5
250
100
AcDbEntity
  8
RACCORDO
100
AcDbPolyline
 62
253
  6
CONTINUOUS
 90
25
 70
0
 10
-60.3218356361
 20
-26.081125923
 10
-60.3203314024
 20
-26.1269015603
 10
-60.3158369807
 20
-26.172480354
 10
-60.3083717017
 20
-26.2176672305
 10
-60.297967639
 20
-26.2622687967
 10
-60.2846693876
 20
-26.3060941723
 10
-60.2685338573
 20
-26.3489558022
 10
-60.2496301745
 20
-26.3906702406
 10
-60.2280393212
 20
-26.4310589806
 10
-60.2038536776
 20
-26.4699492103
 10
-60.1771767995
 20
-26.5071744736
 10
-60.1481229095
 20
-26.5425754764
 10
-60.1168162958
 20
-26.576000785
 10
-60.0833909973
 20
-26.6073072892
 10
-60.0479900607
 20
-26.6363610398
 10
-60.0107647921
 20
-26.663037848
 10
-59.9718743604
 20
-26.6872235407
 10
-59.931485317
 20
-26.7088144641
 10
-59.8897706827
 20
-26.7277181296
 10
-59.8469090708
 20
-26.7438535458
 10
-59.8030838468
 20
-26.7571516546
 10
-59.7584825067
 20
-26.7675555843
 10
-59.7132959091
 20
-26.7750207558
 10
-59.6677174667
 20
-26.7795151035
 10
-59.6219422495
 20
-26.7810193096
  0
LWPOLYLINE
  5
251
100
AcDbEntity
  8
RACCORDO
100
AcDbPolyline
 62
253
  6
CONTINUOUS
 90
22
 70
0
 10
-57.3895206599
 20
22.4516848409
 10
-57.3899675341
 20
22.4784867433
 10
-57.388604864
 20
22.5046988361
 10
-57.3854877615
 20
22.5302051677
 10
-57.3806870612
 20
22.55491083
 10
-57.3742651371
 20
22.5786976069
 10
-57.3662746198
 20
22.601424182
 10
-57.3567957571
 20
22.6229895997
 10
-57.3459169239
 20
22.6433239308
 10
-57.3337069801
 20
22.66234162
 10
-57.3202656792
 20
22.6799572336
 10
-57.3056806158
 20
22.6961281432
 10
-57.2899951458
 20
22.7108336464
 10
-57.2733019766
 20
22.7240149349
 10
-57.2556927327
 20
22.7356263519
 10
-57.2371964675
 20
22.7456559199
 10
-57.217911391
 20
22.7540522704
 10
-57.1979250671
 20
22.7607764465
 10
-57.1772412192
 20
22.7658145198
 10
-57.1559236656
 20
22.7691234901
 10
-57.1341028447
 20
22.7706512637
 10
-57.1118826994
 20
22.7703616221
  0
LINE
  5
252
100
AcDbEntity
  8
RACCORDO
100
AcDbLine
 62
253
  6
CONTINUOUS
 10
-57.0697179016
 20
-22.8308553358
 11
-57.0696401752
 21
-22.8356546836
  0
LINE
  5
253
100
AcDbEntity
  8
RACCORDO
100
AcDbLine
 62
253
  6
CONTINUOUS
 10
-57.0622596615
 20
-22.8214890264
 11
-57.0622014112
 21
-22.8267951941
  0
LINE
  5
254
100
AcDbEntity
  8
RACCORDO
100
AcDbLine
 62
253
  6
CONTINUOUS
 10
-57.0697643874
 20
-22.8261334501
 11
-57.0697179016
 21
-22.8308553358
  0
LINE
  5
255
100
AcDbEntity
  8
RACCORDO
100
AcDbLine
 62
253
  6
CONTINUOUS
 10
-57.0697796326
 20
-22.8214890264
 11
-57.0697643874
 21
-22.8261334501
  0
LINE
  5
256
100
AcDbEntity
  8
RACCORDO
100
AcDbLine
 62
7
  6
CONTINUOUS
 10
-60.328909052
 20
25.0439391347
 11
-60.328909052
 21
-26.0881993388
  0
LINE
  5
257
100
AcDbEntity
  8
RACCORDO
100
AcDbLine
 62
253
  6
CONTINUOUS
 10
-60.3218356361
 20
25.0368657189
 11
-60.3218356361
 21
-26.081125923
  0
LINE
  5
258
100
AcDbEntity
  8
RACCORDO
100
AcDbLine
 62
253
  6
CONTINUOUS
 10
-60.0218813276
 20
25.0368657189
 11
-60.0218813276
 21
-26.081125923
  0
LINE
  5
259
100
AcDbEntity
  8
RACCORDO
100
AcDbLine
 62
253
  6
CONTINUOUS
 10
-59.6219422491
 20
25.7367591055
 11
-59.6219422495
 21
25.436804797
  0
LINE
  5
25A
100
AcDbEntity
  8
RACCORDO
100
AcDbLine
 62
253
  6
CONTINUOUS
 10
-59.6219422495
 20
-26.7810193096
 11
-59.6219422495
 21
-26.481065001
  0
LINE
  5
25B
100
AcDbEntity
  8
RACCORDO
100
AcDbLine
 62
253
  6
CONTINUOUS
 10
-57.6849629774
 20
-23.4959448527
 11
-57.6849629774
 21
22.4516846486
  0
LINE
  5
25C
100
AcDbEntity
  8
RACCORDO
100
AcDbLine
 62
253
  6
CONTINUOUS
 10
-57.3895206515
 20
-23.4959450271
 11
-57.3895206515
 21
22.4516848236
  0
LINE
  5
25D
100
AcDbEntity
  8
RACCORDO
100
AcDbLine
 62
253
  6
CONTINUOUS
 10
-57.1118914378
 20
23.0522696514
 11
-57.1118914378
 21
22.7703618651
  0
LINE
  5
25E
100
AcDbEntity
  8
RACCORDO
100
AcDbLine
 62
253
  6
CONTINUOUS
 10
-57.1118914378
 20
-24.0965298555
 11
-57.1118914378
 21
-23.8146220692
  0
LINE
  5
25F
100
AcDbEntity
  8
RACCORDO
100
AcDbLine
 62
253
  6
CONTINUOUS
 10
-57.0622596615
 20
21.7772288223
 11
-57.0622596615
 21
-22.8214890264
  0
LINE
  5
260
100
AcDbEntity
  8
RACCORDO
100
AcDbLine
 62
7
  6
CONTINUOUS
 10
-57.0550916494
 20
-22.8143210143
 11
-57.0550916494
 21
21.7700608102
  0
LINE
  5
261
100
AcDbEntity
  8
RACCORDO
100
AcDbLine
 62
253
  6
CONTINUOUS
 10
-56.7615318544
 20
-23.1206698364
 11
-56.7615318544
 21
-23.1507473736
  0
LINE
  5
262
100
AcDbEntity
  8
RACCORDO
100
AcDbLine
 62
253
  6
CONTINUOUS
 10
-56.7615318544
 20
22.0764096323
 11
-56.7615318537
 21
22.1064871695
  0
LINE
  5
263
100
AcDbEntity
  8
RACCORDO
100
AcDbLine
 62
253
  6
CONTINUOUS
 10
-57.0697729732
 20
21.7796419922
 11
-57.0697796326
 21
-22.8214890264
  0
LINE
  5
264
100
AcDbEntity
  8
RACCORDO
100
AcDbLine
 62
253
  6
CONTINUOUS
 10
-57.0697397542
 20
21.7844056596
 11
-57.0697729732
 21
21.7796419922
  0
LINE
  5
265
100
AcDbEntity
  8
RACCORDO
100
AcDbLine
 62
253
  6
CONTINUOUS
 10
-57.0622014112
 20
21.7825349901
 11
-57.0622596615
 21
21.7772288223
  0
LWPOLYLINE
  5
266
100
AcDbEntity
  8
RACCORDO
100
AcDbPolyline
 62
253
  6
CONTINUOUS
 90
22
 70
0
 10
-57.0696401752
 20
-22.8356546836
 10
-57.0698771342
 20
-22.8530154166
 10
-57.0692115279
 20
-22.8709121919
 10
-57.0675408103
 20
-22.8892952888
 10
-57.0647731452
 20
-22.9080694977
 10
-57.0608000638
 20
-22.9271955313
 10
-57.0554764625
 20
-22.9466838786
 10
-57.0486922191
 20
-22.9664619022
 10
-57.040332382
 20
-22.9863649073
 10
-57.030222541
 20
-23.0062277821
 10
-57.0181821718
 20
-23.0259975384
 10
-57.0041919921
 20
-23.0453445183
 10
-56.988392367
 20
-23.0636970091
 10
-56.9707325545
 20
-23.0809006987
 10
-56.9513112661
 20
-23.0967274986
 10
-56.930666886
 20
-23.1106363438
 10
-56.909142154
 20
-23.1224266449
 10
-56.8867120693
 20
-23.1321833196
 10
-56.8634434277
 20
-23.1398958781
 10
-56.8394581723
 20
-23.1455127865
 10
-56.814942022
 20
-23.1489650928
 10
-56.7900565645
 20
-23.1502126912
  0
LWPOLYLINE
  5
267
100
AcDbEntity
  8
RACCORDO
100
AcDbPolyline
 62
253
  6
CONTINUOUS
 90
3
 70
0
 10
-57.0696401752
 20
21.7913944795
 10
-57.0696800016
 20
21.7890857637
 10
-57.0697397542
 20
21.7844056596
  0
LWPOLYLINE
  5
268
100
AcDbEntity
  8
RACCORDO
100
AcDbPolyline
 62
253
  6
CONTINUOUS
 90
25
 70
0
 10
-60.0218813276
 20
25.0368657189
 10
-60.0210127296
 20
25.0630970123
 10
-60.0184672009
 20
25.0890271387
 10
-60.0142447415
 20
25.1146560982
 10
-60.0083134173
 20
25.1401003883
 10
-60.0007051624
 20
25.1652435114
 10
-59.9915157797
 20
25.1897359752
 10
-59.980725713
 20
25.2135599334
 10
-59.9683545185
 20
25.2367332323
 10
-59.9545566678
 20
25.2589599177
 10
-59.9393124597
 20
25.2802291816
 10
-59.9226415953
 20
25.300551832
 10
-59.90475765
 20
25.3196643387
 10
-59.8856430131
 20
25.3375513069
 10
-59.8653152951
 20
25.3542281314
 10
-59.8440409031
 20
25.3694774653
 10
-59.8218098586
 20
25.3832783215
 10
-59.79863214
 20
25.3956516872
 10
-59.7748040897
 20
25.4064431768
 10
-59.7503070535
 20
25.4156331492
 10
-59.7251596857
 20
25.4232412455
 10
-59.6997142909
 20
25.4291720046
 10
-59.674088304
 20
25.433393606
 10
-59.6481642902
 20
25.4359378701
 10
-59.6219422495
 20
25.436804797
  0
LWPOLYLINE
  5
269
100
AcDbEntity
  8
RACCORDO
100
AcDbPolyline
 62
253
  6
CONTINUOUS
 90
22
 70
0
 10
-57.6849629774
 20
22.4516846486
 10
-57.6830221262
 20
22.5002091348
 10
-57.6778684621
 20
22.5474388659
 10
-57.6695019849
 20
22.593373842
 10
-57.6577807758
 20
22.6382203472
 10
-57.6428467537
 20
22.6817720974
 10
-57.6251256758
 20
22.7234102398
 10
-57.6045928324
 20
22.7630779038
 10
-57.5812729333
 20
22.80083196
 10
-57.5556658649
 20
22.8362241671
 10
-57.5277854142
 20
22.869196247
 10
-57.4976177942
 20
22.8998064778
 10
-57.4656215305
 20
22.9277814523
 10
-57.4318066905
 20
22.9531037695
 10
-57.3961632067
 20
22.9757908304
 10
-57.3591194028
 20
22.9956214316
 10
-57.320685278
 20
23.0125924804
 10
-57.2808508331
 20
23.0267070694
 10
-57.2400143941
 20
23.0377532735
 10
-57.1983087361
 20
23.045660451
 10
-57.1556010841
 20
23.0504992437
 10
-57.1118914378
 20
23.0522696514
  0
LWPOLYLINE
  5
26A
100
AcDbEntity
  8
RACCORDO
100
AcDbPolyline
 62
253
  6
CONTINUOUS
 90
10
 70
0
 10
-57.0622078054
 20
-22.8267953106
 10
-57.0624217373
 20
-22.8277729465
 10
-57.0627892809
 20
-22.8287529807
 10
-57.0633103234
 20
-22.8297351082
 10
-57.0639847046
 20
-22.8307190234
 10
-57.0648122172
 20
-22.8317044204
 10
-57.065792607
 20
-22.8326909923
 10
-57.0669255725
 20
-22.8336784324
 10
-57.0682107656
 20
-22.8346664335
 10
-57.0696477912
 20
-22.8356546881
  0
LWPOLYLINE
  5
26B
100
AcDbEntity
  8
RACCORDO
100
AcDbPolyline
 62
253
  6
CONTINUOUS
 90
10
 70
0
 10
-57.0622014426
 20
21.7825349906
 10
-57.0624156225
 20
21.7835123155
 10
-57.0627833101
 20
21.7844921101
 10
-57.0633043924
 20
21.7854740736
 10
-57.0639787093
 20
21.7864579044
 10
-57.0648060537
 20
21.7874433004
 10
-57.0657861712
 20
21.7884299591
 10
-57.0669187609
 20
21.7894175774
 10
-57.0682034747
 20
21.7904058521
 10
-57.0696399179
 20
21.7913944795
  0
LINE
  5
26C
100
AcDbEntity
  8
SMUSSO
100
AcDbLine
 62
7
  6
CONTINUOUS
 10
-81.1629464286
 20
-48.222130102
 11
79.8370535714
 21
-48.222130102
  0
LINE
  5
26D
100
AcDbEntity
  8
SMUSSO
100
AcDbLine
 62
7
  6
CONTINUOUS
 10
-81.1629464286
 20
-47.222130102
 11
79.8370535714
 21
-47.222130102
  0
LINE
  5
26E
100
AcDbEntity
  8
SMUSSO
100
AcDbLine
 62
253
  6
CONTINUOUS
 10
79.8370535714
 20
-47.222130102
 11
80.8370535714
 21
-47.222130102
  0
LINE
  5
26F
100
AcDbEntity
  8
SMUSSO
100
AcDbLine
 62
253
  6
CONTINUOUS
 10
-81.1629464286
 20
-47.222130102
 11
-82.1629464286
 21
-47.222130102
  0
LINE
  5
270
100
AcDbEntity
  8
RACCORDO
100
AcDbLine
 62
253
  6
CONTINUOUS
 10
-57.3895206515
 20
-23.4959450271
 11
-57.0696401752
 21
-22.8356546836
  0
LINE
  5
271
100
AcDbEntity
  8
RACCORDO
100
AcDbLine
 62
253
  6
CONTINUOUS
 10
-57.1118817908
 20
-23.8146220692
 11
-56.7900565033
 21
-23.1502125675
  0
LINE
  5
272
100
AcDbEntity
  8
RACCORDO
100
AcDbLine
 62
253
  6
CONTINUOUS
 10
-57.0696401752
 20
21.7913944795
 11
-57.3895206515
 21
22.4516848236
  0
LINE
  5
273
100
AcDbEntity
  8
RACCORDO
100
AcDbLine
 62
253
  6
CONTINUOUS
 10
-56.7900564944
 20
22.1059523689
 11
-57.1118828171
 21
22.7703618651
  0
LWPOLYLINE
  5
274
100
AcDbEntity
  8
0
100
AcDbPolyline
 62
7
  6
CONTINUOUS
 90
10
 70
0
 10
2.9694381817
 20
-25.3447174081
 10
2.9786447557
 20
-25.3427079685
 10
2.9878761299
 20
-25.3396130865
 10
2.9971323044
 20
-25.3354327622
 10
3.0063960425
 20
-25.329979163
 10
3.015684581
 20
-25.3234401214
 10
3.0250496292
 20
-25.3163791353
 10
3.0344992783
 20
-25.3089034766
 10
3.0440254373
 20
-25.3009058734
 10
3.0634076952
 20
-25.2841908199
  0
LWPOLYLINE
  5
275
100
AcDbEntity
  8
RACCORDO
100
AcDbPolyline
 62
253
  6
CONTINUOUS
 90
22
 70
0
 10
55.4463098384
 20
-23.1204590382
 10
55.4702874004
 20
-23.1185337524
 10
55.4940010061
 20
-23.1147072538
 10
55.5172994984
 20
-23.1090171765
 10
55.5399928933
 20
-23.101529266
 10
55.5619862492
 20
-23.0922944658
 10
55.5832662095
 20
-23.0813142021
 10
55.6038349108
 20
-23.0685422623
 10
55.6233870931
 20
-23.0541188109
 10
55.641496649
 20
-23.0383884794
 10
55.6581036807
 20
-23.0215020642
 10
55.6731488264
 20
-23.00362047
 10
55.6863612612
 20
-22.9852418612
 10
55.6977451554
 20
-22.9666645203
 10
55.7074439705
 20
-22.9479803429
 10
55.7155102476
 20
-22.9294218487
 10
55.7220373472
 20
-22.911201689
 10
55.7271744104
 20
-22.8933887734
 10
55.7310627887
 20
-22.8759722068
 10
55.733812736
 20
-22.8590001489
 10
55.7355251166
 20
-22.8425872477
 10
55.7363085541
 20
-22.8267951941
  0
LWPOLYLINE
  5
276
100
AcDbEntity
  8
RACCORDO
100
AcDbPolyline
 62
253
  6
CONTINUOUS
 90
22
 70
0
 10
55.464155505
 20
-23.1502129072
 10
55.4885018248
 20
-23.1490152348
 10
55.512484332
 20
-23.145711276
 10
55.5359523497
 20
-23.140341437
 10
55.5587193865
 20
-23.1329782771
 10
55.580687023
 20
-23.1236684478
 10
55.6018330687
 20
-23.1124008608
 10
55.622153591
 20
-23.0991166459
 10
55.6413526186
 20
-23.0839734068
 10
55.6590163393
 20
-23.0673442442
 10
55.6750714548
 20
-23.0493506705
 10
55.6894672847
 20
-23.0301698183
 10
55.7019726747
 20
-23.010385385
 10
55.7125849451
 20
-22.9902840288
 10
55.7214451599
 20
-22.969944226
 10
55.7286491782
 20
-22.9496758492
 10
55.7343003563
 20
-22.929693748
 10
55.738527613
 20
-22.910040981
 10
55.741475623
 20
-22.8907442209
 10
55.7432595001
 20
-22.8718597038
 10
55.7439800284
 20
-22.8534784892
 10
55.743747318
 20
-22.8356546842
  0
LWPOLYLINE
  5
277
100
AcDbEntity
  8
RACCORDO
100
AcDbPolyline
 62
253
  6
CONTINUOUS
 90
25
 70
0
 10
58.2960493924
 20
-26.7810193096
 10
58.3418250297
 20
-26.7795150759
 10
58.3874038234
 20
-26.7750206541
 10
58.4325906999
 20
-26.7675553752
 10
58.4771922661
 20
-26.7571513125
 10
58.5210176417
 20
-26.743853061
 10
58.5638792716
 20
-26.7277175308
 10
58.60559371
 20
-26.708813848
 10
58.64598245
 20
-26.6872229947
 10
58.6848726797
 20
-26.6630373511
 10
58.722097943
 20
-26.636360473
 10
58.7574989458
 20
-26.6073065829
 10
58.7909242544
 20
-26.5759999693
 10
58.8222307585
 20
-26.5425746708
 10
58.8512845092
 20
-26.5071737341
 10
58.8779613174
 20
-26.4699484656
 10
58.9021470101
 20
-26.4310580338
 10
58.9237379335
 20
-26.3906689905
 10
58.942641599
 20
-26.3489543561
 10
58.9587770151
 20
-26.3060927443
 10
58.972075124
 20
-26.2622675202
 10
58.9824790537
 20
-26.2176661802
 10
58.9899442252
 20
-26.1724795826
 10
58.9944385729
 20
-26.1269011401
 10
58.995942779
 20
-26.081125923
  0
LINE
  5
278
100
AcDbEntity
  8
RACCORDO
100
AcDbLine
 62
7
  6
CONTINUOUS
 10
-59.6290156654
 20
-26.7880927254
 11
58.3031228082
 21
-26.7880927254
  0
LINE
  5
279
100
AcDbEntity
  8
RACCORDO
100
AcDbLine
 62
253
  6
CONTINUOUS
 10
-59.6219422495
 20
-26.7810193096
 11
58.2960493924
 21
-26.7810193096
  0
LINE
  5
27A
100
AcDbEntity
  8
RACCORDO
100
AcDbLine
 62
253
  6
CONTINUOUS
 10
-59.6219422495
 20
-26.481065001
 11
58.2960493924
 21
-26.481065001
  0
LINE
  5
27B
100
AcDbEntity
  8
0
100
AcDbLine
 62
7
  6
CONTINUOUS
 10
-4.1096734286
 20
-26.337304102
 11
-3.7234074286
 21
-26.337304102
  0
LINE
  5
27C
100
AcDbEntity
  8
0
100
AcDbLine
 62
7
  6
CONTINUOUS
 10
-2.8857804286
 20
-26.337304102
 11
-2.4474644286
 21
-26.337304102
  0
LINE
  5
27D
100
AcDbEntity
  8
0
100
AcDbLine
 62
7
  6
CONTINUOUS
 10
-2.2115054286
 20
-26.337304102
 11
-1.7921804286
 21
-26.337304102
  0
LINE
  5
27E
100
AcDbEntity
  8
0
100
AcDbLine
 62
7
  6
CONTINUOUS
 10
-1.1833944286
 20
-26.337304102
 11
-1.1219214286
 21
-26.337304102
  0
LINE
  5
27F
100
AcDbEntity
  8
0
100
AcDbLine
 62
7
  6
CONTINUOUS
 10
-0.5107104286
 20
-26.337304102
 11
-0.0819214286
 21
-26.337304102
  0
LINE
  5
280
100
AcDbEntity
  8
0
100
AcDbLine
 62
7
  6
CONTINUOUS
 10
-0.0130944286
 20
-26.337304102
 11
0.4204655714
 21
-26.337304102
  0
LINE
  5
281
100
AcDbEntity
  8
0
100
AcDbLine
 62
7
  6
CONTINUOUS
 10
1.2518735714
 20
-26.337304102
 11
1.7138395714
 21
-26.337304102
  0
LINE
  5
282
100
AcDbEntity
  8
0
100
AcDbLine
 62
7
  6
CONTINUOUS
 10
1.8425504475
 20
-26.3373044998
 11
2.279102331
 21
-26.3373044998
  0
LINE
  5
283
100
AcDbEntity
  8
0
100
AcDbLine
 62
7
  6
CONTINUOUS
 10
2.9503221094
 20
-26.3373044998
 11
3.3719307042
 21
-26.3373044998
  0
LINE
  5
284
100
AcDbEntity
  8
RACCORDO
100
AcDbLine
 62
253
  6
CONTINUOUS
 10
-60.3218356361
 20
-26.0811259226
 11
-60.0218813276
 21
-26.081125923
  0
LINE
  5
285
100
AcDbEntity
  8
RACCORDO
100
AcDbLine
 62
253
  6
CONTINUOUS
 10
58.995942779
 20
-26.0811259229
 11
58.6959884704
 21
-26.081125923
  0
LINE
  5
286
100
AcDbEntity
  8
0
100
AcDbLine
 62
7
  6
CONTINUOUS
 10
0.5414135714
 20
-25.918105102
 11
1.1383265714
 21
-25.918105102
  0
LINE
  5
287
100
AcDbEntity
  8
0
100
AcDbLine
 62
7
  6
CONTINUOUS
 10
1.0507295714
 20
-25.593730102
 11
0.6310735714
 21
-25.593730102
  0
LINE
  5
288
100
AcDbEntity
  8
0
100
AcDbLine
 62
7
  6
CONTINUOUS
 10
2.279102331
 20
-25.5155495891
 11
2.5141166457
 21
-25.5155495891
  0
LINE
  5
289
100
AcDbEntity
  8
0
100
AcDbLine
 62
7
  6
CONTINUOUS
 10
2.5150614268
 20
-25.1716492451
 11
2.2645684474
 21
-25.1716492451
  0
LWPOLYLINE
  5
28A
100
AcDbEntity
  8
RACCORDO
100
AcDbPolyline
 62
253
  6
CONTINUOUS
 90
25
 70
0
 10
-59.6219422495
 20
-26.481065001
 10
-59.6481735429
 20
-26.480196403
 10
-59.6741036693
 20
-26.4776508743
 10
-59.6997326288
 20
-26.473428415
 10
-59.7251769189
 20
-26.4674970907
 10
-59.750320042
 20
-26.4598888358
 10
-59.7748125058
 20
-26.4506994531
 10
-59.7986364641
 20
-26.4399093864
 10
-59.8218097629
 20
-26.4275381919
 10
-59.8440364483
 20
-26.4137403413
 10
-59.8653057122
 20
-26.3984961331
 10
-59.8856283626
 20
-26.3818252688
 10
-59.9047408693
 20
-26.3639413235
 10
-59.9226278375
 20
-26.3448266866
 10
-59.939304662
 20
-26.3244989686
 10
-59.9545539959
 20
-26.3032245766
 10
-59.9683548521
 20
-26.2809935321
 10
-59.9807282178
 20
-26.2578158135
 10
-59.9915197074
 20
-26.2339877631
 10
-60.0007096798
 20
-26.209490727
 10
-60.0083177761
 20
-26.1843433591
 10
-60.0142485352
 20
-26.1588979643
 10
-60.0184701366
 20
-26.1332719775
 10
-60.0210144007
 20
-26.1073479637
 10
-60.0218813276
 20
-26.081125923
  0
LWPOLYLINE
  5
28B
100
AcDbEntity
  8
RACCORDO
100
AcDbPolyline
 62
253
  6
CONTINUOUS
 90
7
 70
0
 10
-56.7900565033
 20
-23.1502125675
 10
-56.7853103378
 20
-23.1503720871
 10
-56.7805609953
 20
-23.1505034527
 10
-56.7758084757
 20
-23.1506066641
 10
-56.771052779
 20
-23.1506817214
 10
-56.7662939053
 20
-23.1507286246
 10
-56.7615318544
 20
-23.1507473736
  0
LWPOLYLINE
  5
28C
100
AcDbEntity
  8
RACCORDO
100
AcDbPolyline
 62
253
  6
CONTINUOUS
 90
7
 70
0
 10
-56.7722026956
 20
-23.1204590382
 10
-56.7704324523
 20
-23.1205240247
 10
-56.7686588341
 20
-23.1205771109
 10
-56.7668819029
 20
-23.1206182658
 10
-56.7651017209
 20
-23.1206474585
 10
-56.7633183504
 20
-23.1206646587
 10
-56.7615318544
 20
-23.1206698364
  0
LWPOLYLINE
  5
28D
100
AcDbEntity
  8
RACCORDO
100
AcDbPolyline
 62
253
  6
CONTINUOUS
 90
22
 70
0
 10
-57.1118914378
 20
-24.0965298555
 10
-57.1555857373
 20
-24.0947604744
 10
-57.1982784589
 20
-24.0899250957
 10
-57.2399696026
 20
-24.0820237196
 10
-57.2807886409
 20
-24.0709882084
 10
-57.3206061013
 20
-24.0568866996
 10
-57.3590335665
 20
-24.0399236061
 10
-57.3960895363
 20
-24.0200907113
 10
-57.4317555109
 20
-23.9973962318
 10
-57.4655875744
 20
-23.9720692292
 10
-57.4975884152
 20
-23.9440965481
 10
-57.5277553447
 20
-23.9134913439
 10
-57.5556363814
 20
-23.8805221449
 10
-57.5812481163
 20
-23.8451285779
 10
-57.6045739583
 20
-23.807371016
 10
-57.6251121525
 20
-23.7676991065
 10
-57.6428374556
 20
-23.7260560947
 10
-57.6577751109
 20
-23.6824987354
 10
-57.6694990933
 20
-23.6376469403
 10
-57.6778673943
 20
-23.5917073468
 10
-57.6830220223
 20
-23.5444733176
 10
-57.6849629774
 20
-23.4959448527
  0
LWPOLYLINE
  5
28E
100
AcDbEntity
  8
0
100
AcDbPolyline
 62
7
  6
CONTINUOUS
 90
13
 70
0
 10
2.5141166457
 20
-25.5155495891
 10
2.5413946723
 20
-25.517082605
 10
2.5673236594
 20
-25.5210509705
 10
2.5919036069
 20
-25.5274546855
 10
2.6150139213
 20
-25.5362248966
 10
2.6367751961
 20
-25.5474304571
 10
2.6575492121
 20
-25.5612779276
 10
2.6775871897
 20
-25.5778245596
 10
2.6966379084
 20
-25.5970131015
 10
2.7143094872
 20
-25.6188783592
 10
2.7304712993
 20
-25.6434319349
 10
2.7452539715
 20
-25.6706622264
 10
2.7586575038
 20
-25.7005692338
  0
LINE
  5
28F
100
AcDbEntity
  8
RACCORDO
100
AcDbLine
 62
253
  6
CONTINUOUS
 10
-57.0622596615
 20
-22.8214890264
 11
-57.0550916494
 21
-22.8143210143
  0
LINE
  5
290
100
AcDbEntity
  8
RACCORDO
100
AcDbLine
 62
253
  6
CONTINUOUS
 10
-60.3218356361
 20
-26.081125923
 11
-60.328909052
 21
-26.0881993388
  0
LINE
  5
291
100
AcDbEntity
  8
RACCORDO
100
AcDbLine
 62
253
  6
CONTINUOUS
 10
-56.7615318544
 20
-23.1206698364
 11
-56.7551373408
 21
-23.1142753228
  0
LINE
  5
292
100
AcDbEntity
  8
RACCORDO
100
AcDbLine
 62
253
  6
CONTINUOUS
 10
-59.6219422495
 20
-26.7810193096
 11
-59.6290156654
 21
-26.7880927254
  0
LWPOLYLINE
  5
293
100
AcDbEntity
  8
0
100
AcDbPolyline
 62
7
  6
CONTINUOUS
 90
10
 70
0
 10
2.2645684474
 20
-24.5952067638
 10
2.303340187
 20
-24.5887639194
 10
2.34193138
 20
-24.5835844584
 10
2.3803420264
 20
-24.5796683806
 10
2.4185375064
 20
-24.5770103931
 10
2.4565524396
 20
-24.5756157889
 10
2.4944906859
 20
-24.5755004473
 10
2.5323868649
 20
-24.5766696613
 10
2.5702063568
 20
-24.5791181378
 10
2.6079491617
 20
-24.5828458769
  0
LWPOLYLINE
  5
294
100
AcDbEntity
  8
RACCORDO
100
AcDbPolyline
 62
253
  6
CONTINUOUS
 90
22
 70
0
 10
-57.1118816591
 20
-23.8146217972
 10
-57.1340954936
 20
-23.8149116057
 10
-57.1559096336
 20
-23.8133851873
 10
-57.177220248
 20
-23.8100788556
 10
-57.1978950896
 20
-23.8050455378
 10
-57.2178725032
 20
-23.7983278053
 10
-57.2371544503
 20
-23.7899366219
 10
-57.2556572742
 20
-23.7799073196
 10
-57.2732775906
 20
-23.7682923138
 10
-57.2899786941
 20
-23.7551080193
 10
-57.3056660086
 20
-23.7404035258
 10
-57.3202507704
 20
-23.7242356456
 10
-57.3336927448
 20
-23.7066221456
 10
-57.3459051774
 20
-23.6876040261
 10
-57.3567869025
 20
-23.6672679124
 10
-57.3662683502
 20
-23.6457002147
 10
-57.3742609953
 20
-23.6229710591
 10
-57.3806846596
 20
-23.5991812696
 10
-57.3854865987
 20
-23.574472674
 10
-57.3886044664
 20
-23.5489637061
 10
-57.3899675063
 20
-23.5227491654
 10
-57.3895206598
 20
-23.4959450443
  0
LWPOLYLINE
  5
295
100
AcDbEntity
  8
RACCORDO
100
AcDbPolyline
 62
253
  6
CONTINUOUS
 90
6
 70
0
 10
55.4403429006
 20
-23.150732691
 10
55.4450663391
 20
-23.1506882421
 10
55.4498093128
 20
-23.150614027
 10
55.4545718216
 20
-23.1505100457
 10
55.4593538656
 20
-23.1503762981
 10
55.4641554447
 20
-23.1502127843
  0
LWPOLYLINE
  5
296
100
AcDbEntity
  8
RACCORDO
100
AcDbPolyline
 62
253
  6
CONTINUOUS
 90
6
 70
0
 10
55.4374060837
 20
-23.1206648721
 10
55.4391778101
 20
-23.1206479848
 10
55.4409541135
 20
-23.1206190662
 10
55.4427349299
 20
-23.1205780078
 10
55.4445201938
 20
-23.1205247013
 10
55.4463098384
 20
-23.1204590382
  0
LINE
  5
297
100
AcDbEntity
  8
0
100
AcDbLine
 62
7
  6
CONTINUOUS
 10
1.0695615714
 20
-24.237481102
 11
0.6455445714
 21
-24.237481102
  0
LINE
  5
298
100
AcDbEntity
  8
0
100
AcDbLine
 62
7
  6
CONTINUOUS
 10
-0.2782784286
 20
-24.237481102
 11
-0.7119484286
 21
-24.237481102
  0
LINE
  5
299
100
AcDbEntity
  8
0
100
AcDbLine
 62
7
  6
CONTINUOUS
 10
-1.5839504286
 20
-24.237481102
 11
-2.0219034286
 21
-24.237481102
  0
LINE
  5
29A
100
AcDbEntity
  8
0
100
AcDbLine
 62
7
  6
CONTINUOUS
 10
-3.0484394286
 20
-24.237481102
 11
-3.4864564286
 21
-24.237481102
  0
LINE
  5
29B
100
AcDbEntity
  8
0
100
AcDbLine
 62
7
  6
CONTINUOUS
 10
-4.2992124286
 20
-24.237481102
 11
-4.7753584286
 21
-24.237481102
  0
LINE
  5
29C
100
AcDbEntity
  8
0
100
AcDbLine
 62
7
  6
CONTINUOUS
 10
-2.4474644286
 20
-24.237355102
 11
-2.8857804286
 21
-24.237355102
  0
LINE
  5
29D
100
AcDbEntity
  8
RACCORDO
100
AcDbLine
 62
253
  6
CONTINUOUS
 10
55.7859985807
 20
-24.0965298555
 11
-57.1118914378
 21
-24.0965298555
  0
LINE
  5
29E
100
AcDbEntity
  8
RACCORDO
100
AcDbLine
 62
253
  6
CONTINUOUS
 10
55.7860035698
 20
-23.8146220692
 11
-57.1118817908
 21
-23.8146220692
  0
LINE
  5
29F
100
AcDbEntity
  8
RACCORDO
100
AcDbLine
 62
253
  6
CONTINUOUS
 10
-57.6849629774
 20
-23.4959448527
 11
-57.3895206515
 21
-23.4959448527
  0
LINE
  5
2A0
100
AcDbEntity
  8
RACCORDO
100
AcDbLine
 62
253
  6
CONTINUOUS
 10
56.3590701203
 20
-23.4959448527
 11
56.0636277944
 21
-23.4959448527
  0
LINE
  5
2A1
100
AcDbEntity
  8
RACCORDO
100
AcDbLine
 62
253
  6
CONTINUOUS
 10
-56.7615318544
 20
-23.1507473736
 11
55.4403429006
 21
-23.150732691
  0
LINE
  5
2A2
100
AcDbEntity
  8
RACCORDO
100
AcDbLine
 62
253
  6
CONTINUOUS
 10
-56.7615318544
 20
-23.1206698364
 11
55.4374060837
 21
-23.1206648721
  0
LINE
  5
2A3
100
AcDbEntity
  8
RACCORDO
100
AcDbLine
 62
7
  6
CONTINUOUS
 10
55.4292444837
 20
-23.1142753228
 11
-56.7551373408
 21
-23.1142753228
  0
LINE
  5
2A4
100
AcDbEntity
  8
RACCORDO
100
AcDbLine
 62
253
  6
CONTINUOUS
 10
55.7363668043
 20
-22.8214890264
 11
55.7438867754
 21
-22.8214890264
  0
LINE
  5
2A5
100
AcDbEntity
  8
RACCORDO
100
AcDbLine
 62
253
  6
CONTINUOUS
 10
-57.0622596615
 20
-22.8214890264
 11
-57.0697796326
 21
-22.8214890264
  0
LWPOLYLINE
  5
2A6
100
AcDbEntity
  8
0
100
AcDbPolyline
 62
7
  6
CONTINUOUS
 90
16
 70
0
 10
2.6079491617
 20
-24.5828458769
 10
2.6369102455
 20
-24.5878490992
 10
2.6643630218
 20
-24.5949678403
 10
2.6903074907
 20
-24.6042021
 10
2.7149048324
 20
-24.6156907112
 10
2.7379938667
 20
-24.6292948412
 10
2.7590910521
 20
-24.6445979916
 10
2.77802098
 20
-24.6614986077
 10
2.7949590589
 20
-24.6800982442
 10
2.8099479736
 20
-24.7002850666
 10
2.8231311954
 20
-24.7223616359
 10
2.8343652528
 20
-24.7460253911
 10
2.8432624163
 20
-24.7702568145
 10
2.8496934423
 20
-24.7947160671
 10
2.8537875743
 20
-24.819742988
 10
2.8555448123
 20
-24.8453375772
  0
LWPOLYLINE
  5
2A7
100
AcDbEntity
  8
0
100
AcDbPolyline
 62
7
  6
CONTINUOUS
 90
16
 70
0
 10
2.9242461493
 20
-24.284121819
 10
2.8698799432
 20
-24.2666807255
 10
2.8127408387
 20
-24.2517465846
 10
2.752828836
 20
-24.2393193964
 10
2.6899960203
 20
-24.2295293433
 10
2.6243903063
 20
-24.2222462429
 10
2.5564554375
 20
-24.2170795473
 10
2.4863373797
 20
-24.2139070061
 10
2.4138901671
 20
-24.2128508698
 10
2.3391196468
 20
-24.2138873412
 10
2.2619969644
 20
-24.2170821692
 10
2.1825509743
 20
-24.2223696049
 10
2.1008740866
 20
-24.2295286043
 10
2.0169971045
 20
-24.2384854858
 10
1.9308892248
 20
-24.249313931
 10
1.8425504475
 20
-24.2620139397
  0
LINE
  5
2A8
100
AcDbEntity
  8
RACCORDO
100
AcDbLine
 62
253
  6
CONTINUOUS
 10
-57.0550916494
 20
21.7700608102
 11
-57.0622596615
 21
21.7772288223
  0
LINE
  5
2A9
100
AcDbEntity
  8
RACCORDO
100
AcDbLine
 62
253
  6
CONTINUOUS
 10
-60.3218356361
 20
25.0368657189
 11
-60.328909052
 21
25.0439391347
  0
LINE
  5
2AA
100
AcDbEntity
  8
RACCORDO
100
AcDbLine
 62
253
  6
CONTINUOUS
 10
-56.7551373408
 20
22.0700151187
 11
-56.7615318544
 21
22.0764096323
  0
LINE
  5
2AB
100
AcDbEntity
  8
RACCORDO
100
AcDbLine
 62
253
  6
CONTINUOUS
 10
-59.6219422495
 20
25.7367591055
 11
-59.6290156654
 21
25.7438325213
  0
LINE
  5
2AC
100
AcDbEntity
  8
0
100
AcDbLine
 62
7
  6
CONTINUOUS
 10
-1.6975914286
 20
-24.966159102
 11
-1.1833944286
 21
-26.337304102
  0
LINE
  5
2AD
100
AcDbEntity
  8
0
100
AcDbLine
 62
7
  6
CONTINUOUS
 10
-1.1502644286
 20
-25.403309102
 11
-1.5839504286
 21
-24.237481102
  0
LINE
  5
2AE
100
AcDbEntity
  8
0
100
AcDbLine
 62
7
  6
CONTINUOUS
 10
-4.7753584286
 20
-24.237481102
 11
-4.1096734286
 21
-26.337304102
  0
LINE
  5
2AF
100
AcDbEntity
  8
0
100
AcDbLine
 62
7
  6
CONTINUOUS
 10
-3.8989474286
 20
-25.682854102
 11
-4.2992124286
 21
-24.237481102
  0
LINE
  5
2B0
100
AcDbEntity
  8
0
100
AcDbLine
 62
7
  6
CONTINUOUS
 10
-0.0819214286
 20
-26.337304102
 11
-0.2782784286
 21
-24.237481102
  0
LINE
  5
2B1
100
AcDbEntity
  8
0
100
AcDbLine
 62
7
  6
CONTINUOUS
 10
-0.6007634286
 20
-24.971875102
 11
-0.5107104286
 21
-26.337304102
  0
LINE
  5
2B2
100
AcDbEntity
  8
0
100
AcDbLine
 62
7
  6
CONTINUOUS
 10
-2.8857804286
 20
-24.237355102
 11
-2.8857804286
 21
-26.337304102
  0
LINE
  5
2B3
100
AcDbEntity
  8
0
100
AcDbLine
 62
7
  6
CONTINUOUS
 10
-2.4474644286
 20
-26.337304102
 11
-2.4474644286
 21
-24.237355102
  0
LINE
  5
2B4
100
AcDbEntity
  8
0
100
AcDbLine
 62
7
  6
CONTINUOUS
 10
-1.7921804286
 20
-26.337304102
 11
-1.6975914286
 21
-24.966159102
  0
LINE
  5
2B5
100
AcDbEntity
  8
0
100
AcDbLine
 62
7
  6
CONTINUOUS
 10
-2.0219034286
 20
-24.237481102
 11
-2.2115054286
 21
-26.337304102
  0
LWPOLYLINE
  5
2B6
100
AcDbEntity
  8
RACCORDO
100
AcDbPolyline
 62
253
  6
CONTINUOUS
 90
10
 70
0
 10
55.4463098302
 20
22.0761986026
 10
55.4482272049
 20
22.0768047218
 10
55.4501663129
 20
22.0780932296
 10
55.4521245024
 20
22.0800623638
 10
55.4540990953
 20
22.0827094318
 10
55.4560873913
 20
22.0860308134
 10
55.4580866712
 20
22.0900219667
 10
55.4600942008
 20
22.0946774336
 10
55.4621072348
 20
22.0999908477
 10
55.4641230202
 20
22.1059549427
  0
LWPOLYLINE
  5
2B7
100
AcDbEntity
  8
RACCORDO
100
AcDbPolyline
 62
253
  6
CONTINUOUS
 90
10
 70
0
 10
55.4463098491
 20
-23.1204593376
 10
55.4482272051
 20
-23.1210653776
 10
55.4501662983
 20
-23.1223537762
 10
55.4521244769
 20
-23.1243227716
 10
55.4540990632
 20
-23.1269696712
 10
55.4560873567
 20
-23.1302908556
 10
55.4580866384
 20
-23.134281783
 10
55.4600941744
 20
-23.1389369962
 10
55.4621072192
 20
-23.1442501291
 10
55.4641230199
 20
-23.1502139164
  0
LWPOLYLINE
  5
2B8
100
AcDbEntity
  8
0
100
AcDbPolyline
 62
7
  6
CONTINUOUS
 90
6
 70
0
 10
2.7586575038
 20
-25.7005692338
 10
2.7808278003
 20
-25.7654232487
 10
2.8025411176
 20
-25.831834733
 10
2.8237974559
 20
-25.8998036866
 10
2.8442789193
 20
-25.9694419528
 10
2.8848245961
 20
-26.1130553639
  0
LINE
  5
2B9
100
AcDbEntity
  8
0
100
AcDbLine
 62
7
  6
CONTINUOUS
 10
1.7138395714
 20
-26.337304102
 11
1.0695615714
 21
-24.237481102
  0
LINE
  5
2BA
100
AcDbEntity
  8
0
100
AcDbLine
 62
7
  6
CONTINUOUS
 10
2.8848245961
 20
-26.1130553639
 11
2.9503221094
 21
-26.3373044998
  0
LINE
  5
2BB
100
AcDbEntity
  8
0
100
AcDbLine
 62
7
  6
CONTINUOUS
 10
1.1383265714
 20
-25.918105102
 11
1.2518735714
 21
-26.337304102
  0
LINE
  5
2BC
100
AcDbEntity
  8
0
100
AcDbLine
 62
7
  6
CONTINUOUS
 10
3.2736223863
 20
-25.9621385967
 11
3.2220884115
 21
-25.7689713901
  0
LINE
  5
2BD
100
AcDbEntity
  8
0
100
AcDbLine
 62
7
  6
CONTINUOUS
 10
3.3719307042
 20
-26.3373044998
 11
3.2736223863
 21
-25.9621385967
  0
LINE
  5
2BE
100
AcDbEntity
  8
0
100
AcDbLine
 62
7
  6
CONTINUOUS
 10
0.8493175714
 20
-24.814459102
 11
1.0507295714
 21
-25.593730102
  0
LWPOLYLINE
  5
2BF
100
AcDbEntity
  8
0
100
AcDbPolyline
 62
7
  6
CONTINUOUS
 90
16
 70
0
 10
3.2220884115
 20
-25.7689713901
 10
3.2121051599
 20
-25.729358548
 10
3.2010818439
 20
-25.690741886
 10
3.1890184636
 20
-25.653121404
 10
3.1759470815
 20
-25.6161300726
 10
3.161835635
 20
-25.5801349213
 10
3.1465879363
 20
-25.5462370386
 10
3.1300672401
 20
-25.5145813569
 10
3.1124102917
 20
-25.4850229438
 10
3.0939311393
 20
-25.4582280908
 10
3.0746226081
 20
-25.434407813
 10
3.0544918729
 20
-25.4133510952
 10
3.0338745055
 20
-25.3950911838
 10
3.0128823631
 20
-25.3796391609
 10
2.9914035885
 20
-25.3669839443
 10
2.9694381817
 20
-25.3571255341
  0
LINE
  5
2C0
100
AcDbEntity
  8
0
100
AcDbLine
 62
7
  6
CONTINUOUS
 10
1.8425504475
 20
-24.2620139397
 11
1.8425504475
 21
-26.3373044998
  0
LINE
  5
2C1
100
AcDbEntity
  8
0
100
AcDbLine
 62
7
  6
CONTINUOUS
 10
2.2645684474
 20
-25.1716492451
 11
2.2645684474
 21
-24.5952067638
  0
LINE
  5
2C2
100
AcDbEntity
  8
0
100
AcDbLine
 62
7
  6
CONTINUOUS
 10
2.279102331
 20
-26.3373044998
 11
2.279102331
 21
-25.5155495891
  0
LINE
  5
2C3
100
AcDbEntity
  8
0
100
AcDbLine
 62
7
  6
CONTINUOUS
 10
2.9694381817
 20
-25.3571255341
 11
2.9694381817
 21
-25.3447174081
  0
LWPOLYLINE
  5
2C4
100
AcDbEntity
  8
0
100
AcDbPolyline
 62
7
  6
CONTINUOUS
 90
19
 70
0
 10
2.8555448123
 20
-24.8453375772
 10
2.854007864
 20
-24.8801007138
 10
2.8500670014
 20
-24.9132384941
 10
2.8437222242
 20
-24.9447509182
 10
2.8346790565
 20
-24.9749597129
 10
2.8232319743
 20
-25.0035431513
 10
2.8102644058
 20
-25.029536053
 10
2.7961566209
 20
-25.0524451604
 10
2.7805283497
 20
-25.0727637311
 10
2.7631222108
 20
-25.0910063575
 10
2.7440536497
 20
-25.1072243321
 10
2.7232072209
 20
-25.1213663624
 10
2.6999792075
 20
-25.1337931634
 10
2.6739583329
 20
-25.1446770603
 10
2.6455558735
 20
-25.153845728
 10
2.615401942
 20
-25.1611429063
 10
2.5837065758
 20
-25.1665165086
 10
2.5502597374
 20
-25.1700186215
 10
2.5150614268
 20
-25.1716492451
  0
LINE
  5
2C5
100
AcDbEntity
  8
0
100
AcDbLine
 62
7
  6
CONTINUOUS
 10
-3.4864564286
 20
-24.237481102
 11
-3.8989474286
 21
-25.682854102
  0
LINE
  5
2C6
100
AcDbEntity
  8
0
100
AcDbLine
 62
7
  6
CONTINUOUS
 10
-3.7234074286
 20
-26.337304102
 11
-3.0484394286
 21
-24.237481102
  0
LWPOLYLINE
  5
2C7
100
AcDbEntity
  8
RACCORDO
100
AcDbPolyline
 62
253
  6
CONTINUOUS
 90
10
 70
0
 10
-56.7722026873
 20
-23.1204588067
 10
-56.7741200621
 20
-23.1210649259
 10
-56.7760591701
 20
-23.1223534337
 10
-56.7780173595
 20
-23.1243225679
 10
-56.7799919525
 20
-23.1269696358
 10
-56.7819802484
 20
-23.1302910175
 10
-56.7839795283
 20
-23.1342821707
 10
-56.785987058
 20
-23.1389376377
 10
-56.788000092
 20
-23.1442510517
 10
-56.7900158774
 20
-23.1502151467
  0
LWPOLYLINE
  5
2C8
100
AcDbEntity
  8
RACCORDO
100
AcDbPolyline
 62
253
  6
CONTINUOUS
 90
10
 70
0
 10
-56.7722026286
 20
22.0761969363
 10
-56.7741199901
 20
22.0768029732
 10
-56.7760590884
 20
22.0780913859
 10
-56.7780172721
 20
22.0800604123
 10
-56.7799918641
 20
22.0827073598
 10
-56.7819801645
 20
22.0860286086
 10
-56.7839794549
 20
22.090019617
 10
-56.7859870016
 20
22.094674927
 10
-56.7880000599
 20
22.0999881727
 10
-56.7900158774
 20
22.1059520879
  0
LINE
  5
2C9
100
AcDbEntity
  8
0
100
AcDbLine
 62
7
  6
CONTINUOUS
 10
0.6310735714
 20
-25.593730102
 11
0.8493175714
 21
-24.814459102
  0
LINE
  5
2CA
100
AcDbEntity
  8
0
100
AcDbLine
 62
7
  6
CONTINUOUS
 10
0.4204655714
 20
-26.337304102
 11
0.5414135714
 21
-25.918105102
  0
LINE
  5
2CB
100
AcDbEntity
  8
0
100
AcDbLine
 62
7
  6
CONTINUOUS
 10
0.6455445714
 20
-24.237481102
 11
-0.0130944286
 21
-26.337304102
  0
LINE
  5
2CC
100
AcDbEntity
  8
0
100
AcDbLine
 62
7
  6
CONTINUOUS
 10
-0.7119484286
 20
-24.237481102
 11
-1.1502644286
 21
-25.403309102
  0
LINE
  5
2CD
100
AcDbEntity
  8
0
100
AcDbLine
 62
7
  6
CONTINUOUS
 10
-1.1219214286
 20
-26.337304102
 11
-0.6007634286
 21
-24.971875102
  0
LINE
  5
2CE
100
AcDbEntity
  8
RACCORDO
100
AcDbLine
 62
253
  6
CONTINUOUS
 10
58.2960493924
 20
25.7367591055
 11
58.3031228082
 21
25.7438325213
  0
LINE
  5
2CF
100
AcDbEntity
  8
RACCORDO
100
AcDbLine
 62
253
  6
CONTINUOUS
 10
55.4356389973
 20
22.0764096323
 11
55.4292444837
 21
22.0700151187
  0
LINE
  5
2D0
100
AcDbEntity
  8
RACCORDO
100
AcDbLine
 62
253
  6
CONTINUOUS
 10
58.995942779
 20
25.0368657189
 11
59.0030161948
 21
25.0439391347
  0
LINE
  5
2D1
100
AcDbEntity
  8
RACCORDO
100
AcDbLine
 62
253
  6
CONTINUOUS
 10
55.7363668043
 20
21.7772288223
 11
55.7291987922
 21
21.7700608102
  0
LWPOLYLINE
  5
2D2
100
AcDbEntity
  8
0
100
AcDbPolyline
 62
7
  6
CONTINUOUS
 90
45
 70
0
 10
3.0634076952
 20
-25.2841908199
 10
3.0732637941
 20
-25.2754733697
 10
3.0831969666
 20
-25.2663545163
 10
3.0932149595
 20
-25.2568551215
 10
3.103310026
 20
-25.2469543234
 10
3.1134320541
 20
-25.236468396
 10
3.1235918657
 20
-25.2254045227
 10
3.1337786389
 20
-25.2137555201
 10
3.1439097959
 20
-25.2013161115
 10
3.1539956416
 20
-25.1880514876
 10
3.1640258712
 20
-25.1739964577
 10
3.1738869914
 20
-25.1590501731
 10
3.1835934214
 20
-25.1431992295
 10
3.193130742
 20
-25.126457031
 10
3.202342203
 20
-25.1087629421
 10
3.2112467409
 20
-25.0901066322
 10
3.2198254191
 20
-25.0704984319
 10
3.227864677
 20
-25.0499086966
 10
3.2353718926
 20
-25.0283510805
 10
3.2423396879
 20
-25.0058119296
 10
3.2485323681
 20
-24.9822206366
 10
3.2539594101
 20
-24.9575807919
 10
3.258611337
 20
-24.9318888052
 10
3.262224023
 20
-24.9050632992
 10
3.2648194317
 20
-24.8770735805
 10
3.2663755995
 20
-24.8479503424
 10
3.266562509
 20
-24.817704288
 10
3.2654897559
 20
-24.7863119631
 10
3.2630477447
 20
-24.7537968219
 10
3.2585776711
 20
-24.7202399289
 10
3.2522149189
 20
-24.6855619899
 10
3.2438241043
 20
-24.6498422993
 10
3.2323402727
 20
-24.6133998041
 10
3.217320942
 20
-24.5756076629
 10
3.1992085941
 20
-24.5370927172
 10
3.1782657199
 20
-24.500054438
 10
3.1539086004
 20
-24.4646342824
 10
3.1267209546
 20
-24.4306907934
 10
3.0987164298
 20
-24.3999990707
 10
3.070318685
 20
-24.373282822
 10
3.0411040613
 20
-24.3498183398
 10
3.0118152288
 20
-24.3292096006
 10
2.9826997444
 20
-24.3113245969
 10
2.9535100512
 20
-24.2962953364
 10
2.9242461493
 20
-24.284121819
  0
LWPOLYLINE
  5
2D3
100
AcDbEntity
  8
RACCORDO
100
AcDbPolyline
 62
253
  6
CONTINUOUS
 90
22
 70
0
 10
-56.7900565531
 20
22.1059524874
 10
-56.8149420235
 20
22.1047048846
 10
-56.8394581869
 20
22.1012525734
 10
-56.8634434555
 20
22.0956356596
 10
-56.886712112
 20
22.0879230965
 10
-56.9091422109
 20
22.0781664169
 10
-56.9306669514
 20
22.0663761085
 10
-56.9513113321
 20
22.0524672534
 10
-56.9707326161
 20
22.0366404431
 10
-56.9883924216
 20
22.0194367444
 10
-57.0041920338
 20
22.0010842454
 10
-57.0181821993
 20
21.9817372596
 10
-57.0302225659
 20
21.9619675027
 10
-57.040332438
 20
21.9421046316
 10
-57.0486923115
 20
21.9222016323
 10
-57.055476544
 20
21.9024236215
 10
-57.0608000497
 20
21.8829353097
 10
-57.0647730155
 20
21.8638093264
 10
-57.0675406327
 20
21.8450351506
 10
-57.0692113793
 20
21.8266520548
 10
-57.0698770489
 20
21.8087552576
 10
-57.0696401752
 20
21.7913944795
  0
LWPOLYLINE
  5
2D4
100
AcDbEntity
  8
RACCORDO
100
AcDbPolyline
 62
253
  6
CONTINUOUS
 90
22
 70
0
 10
55.7859888019
 20
22.7703615931
 10
55.8082026365
 20
22.7706514016
 10
55.8300167764
 20
22.7691249832
 10
55.8513273908
 20
22.7658186515
 10
55.8720022325
 20
22.7607853337
 10
55.8919796461
 20
22.7540676012
 10
55.9112615931
 20
22.7456764178
 10
55.9297644171
 20
22.7356471156
 10
55.9473847334
 20
22.7240321097
 10
55.964085837
 20
22.7108478153
 10
55.9797731515
 20
22.6961433217
 10
55.9943579133
 20
22.6799754416
 10
56.0077998876
 20
22.6623619415
 10
56.0200123202
 20
22.6433438221
 10
56.0308940454
 20
22.6230077083
 10
56.040375493
 20
22.6014400106
 10
56.0483681382
 20
22.578710855
 10
56.0547918024
 20
22.5549210655
 10
56.0595937415
 20
22.5302124699
 10
56.0627116093
 20
22.504703502
 10
56.0640746491
 20
22.4784889613
 10
56.0636278027
 20
22.4516848402
  0
LWPOLYLINE
  5
2D5
100
AcDbEntity
  8
RACCORDO
100
AcDbPolyline
 62
253
  6
CONTINUOUS
 90
6
 70
0
 10
-56.7662828041
 20
22.1064677062
 10
-56.7710350165
 20
22.1064203748
 10
-56.7757884918
 20
22.1063451754
 10
-56.7805432299
 20
22.106242108
 10
-56.7852992307
 20
22.1061111724
 10
-56.7900564944
 20
22.1059523689
  0
LWPOLYLINE
  5
2D6
100
AcDbEntity
  8
RACCORDO
100
AcDbPolyline
 62
253
  6
CONTINUOUS
 90
6
 70
0
 10
-56.7633150139
 20
22.0764044609
 10
-56.7650963828
 20
22.076387296
 10
-56.7668758981
 20
22.076358144
 10
-56.7686534971
 20
22.0763170116
 10
-56.7704291172
 20
22.0762639058
 10
-56.7722026956
 20
22.0761988341
  0
LINE
  5
2D7
100
AcDbEntity
  8
RACCORDO
100
AcDbLine
 62
253
  6
CONTINUOUS
 10
55.7363668043
 20
21.7772288223
 11
55.7438867754
 21
21.7772288223
  0
LINE
  5
2D8
100
AcDbEntity
  8
RACCORDO
100
AcDbLine
 62
253
  6
CONTINUOUS
 10
-57.0622596615
 20
21.7772288223
 11
-57.0697796326
 21
21.7772288223
  0
LINE
  5
2D9
100
AcDbEntity
  8
RACCORDO
100
AcDbLine
 62
7
  6
CONTINUOUS
 10
-56.7551373408
 20
22.0700151187
 11
55.4292444837
 21
22.0700151187
  0
LINE
  5
2DA
100
AcDbEntity
  8
RACCORDO
100
AcDbLine
 62
253
  6
CONTINUOUS
 10
55.4356389973
 20
22.0764096323
 11
-56.7633150139
 21
22.0764044609
  0
LINE
  5
2DB
100
AcDbEntity
  8
RACCORDO
100
AcDbLine
 62
253
  6
CONTINUOUS
 10
55.4356389973
 20
22.1064871695
 11
-56.7662828041
 21
22.1064677062
  0
LINE
  5
2DC
100
AcDbEntity
  8
RACCORDO
100
AcDbLine
 62
253
  6
CONTINUOUS
 10
-57.6849629774
 20
22.4516846486
 11
-57.3895206515
 21
22.4516846486
  0
LINE
  5
2DD
100
AcDbEntity
  8
RACCORDO
100
AcDbLine
 62
253
  6
CONTINUOUS
 10
56.3590701203
 20
22.4516846486
 11
56.0636277944
 21
22.4516846486
  0
LINE
  5
2DE
100
AcDbEntity
  8
RACCORDO
100
AcDbLine
 62
253
  6
CONTINUOUS
 10
-57.1118828171
 20
22.7703618651
 11
55.7859889337
 21
22.7703618651
  0
LINE
  5
2DF
100
AcDbEntity
  8
RACCORDO
100
AcDbLine
 62
253
  6
CONTINUOUS
 10
-57.1118914378
 20
23.0522696514
 11
55.7859985807
 21
23.0522696514
  0
LINE
  5
2E0
100
AcDbEntity
  8
RACCORDO
100
AcDbLine
 62
253
  6
CONTINUOUS
 10
-60.3218356361
 20
25.0368657189
 11
-60.0218813276
 21
25.0368657189
  0
LINE
  5
2E1
100
AcDbEntity
  8
RACCORDO
100
AcDbLine
 62
253
  6
CONTINUOUS
 10
58.995942779
 20
25.0368657185
 11
58.6959884704
 21
25.0368657189
  0
LINE
  5
2E2
100
AcDbEntity
  8
RACCORDO
100
AcDbLine
 62
253
  6
CONTINUOUS
 10
58.2960493924
 20
25.436804797
 11
-59.6219422495
 21
25.436804797
  0
LWPOLYLINE
  5
2E3
100
AcDbEntity
  8
RACCORDO
100
AcDbPolyline
 62
253
  6
CONTINUOUS
 90
7
 70
0
 10
55.4641636461
 20
22.1059523634
 10
55.4594174807
 20
22.1061118831
 10
55.4546681382
 20
22.1062432486
 10
55.4499156186
 20
22.10634646
 10
55.4451599219
 20
22.1064215173
 10
55.4404010481
 20
22.1064684205
 10
55.4356389973
 20
22.1064871695
  0
LWPOLYLINE
  5
2E4
100
AcDbEntity
  8
RACCORDO
100
AcDbPolyline
 62
253
  6
CONTINUOUS
 90
7
 70
0
 10
55.4463098384
 20
22.0761988341
 10
55.4445395951
 20
22.0762638206
 10
55.442765977
 20
22.0763169068
 10
55.4409890458
 20
22.0763580617
 10
55.4392088637
 20
22.0763872544
 10
55.4374254933
 20
22.0764044547
 10
55.4356389973
 20
22.0764096323
  0
LWPOLYLINE
  5
2E5
100
AcDbEntity
  8
RACCORDO
100
AcDbPolyline
 62
253
  6
CONTINUOUS
 90
22
 70
0
 10
55.7859985807
 20
23.0522696514
 10
55.8296928802
 20
23.0505002703
 10
55.8723856018
 20
23.0456648916
 10
55.9140767455
 20
23.0377635155
 10
55.9548957838
 20
23.0267280043
 10
55.9947132441
 20
23.0126264955
 10
56.0331407094
 20
22.995663402
 10
56.0701966792
 20
22.9758305072
 10
56.1058626538
 20
22.9531360277
 10
56.1396947172
 20
22.9278090251
 10
56.171695558
 20
22.899836344
 10
56.2018624876
 20
22.8692311399
 10
56.2297435243
 20
22.8362619408
 10
56.2553552592
 20
22.8008683738
 10
56.2786811011
 20
22.7631108119
 10
56.2992192953
 20
22.7234389024
 10
56.3169445985
 20
22.6817958906
 10
56.3318822538
 20
22.6382385313
 10
56.3436062361
 20
22.5933867362
 10
56.3519745371
 20
22.5474471427
 10
56.3571291652
 20
22.5002131135
 10
56.3590701203
 20
22.4516846486
  0
LINE
  5
2E6
100
AcDbEntity
  8
RACCORDO
100
AcDbLine
 62
253
  6
CONTINUOUS
 10
58.2960493924
 20
-26.7810193096
 11
58.3031228082
 21
-26.7880927254
  0
LINE
  5
2E7
100
AcDbEntity
  8
RACCORDO
100
AcDbLine
 62
253
  6
CONTINUOUS
 10
55.4356389973
 20
-23.1206698364
 11
55.4292444837
 21
-23.1142753228
  0
LINE
  5
2E8
100
AcDbEntity
  8
RACCORDO
100
AcDbLine
 62
253
  6
CONTINUOUS
 10
58.995942779
 20
-26.081125923
 11
59.0030161948
 21
-26.0881993388
  0
LINE
  5
2E9
100
AcDbEntity
  8
RACCORDO
100
AcDbLine
 62
253
  6
CONTINUOUS
 10
55.7363668043
 20
-22.8214890264
 11
55.7291987922
 21
-22.8143210143
  0
LWPOLYLINE
  5
2EA
100
AcDbEntity
  8
RACCORDO
100
AcDbPolyline
 62
253
  6
CONTINUOUS
 90
22
 70
0
 10
-56.7722026956
 20
22.0761988341
 10
-56.7967173465
 20
22.0742081712
 10
-56.8209666317
 20
22.0702276982
 10
-56.8447882633
 20
22.0642946241
 10
-56.8679927494
 20
22.0564714625
 10
-56.8904616024
 20
22.0468135624
 10
-56.9121373344
 20
22.0353429393
 10
-56.9330549714
 20
22.0219951792
 10
-56.9528586523
 20
22.0069461185
 10
-56.9709883893
 20
21.9906878472
 10
-56.9873611281
 20
21.9734789682
 10
-57.0020204844
 20
21.9554633479
 10
-57.0147774717
 20
21.9371154057
 10
-57.0256545782
 20
21.9187711642
 10
-57.0348413066
 20
21.9005057546
 10
-57.0424735366
 20
21.8824133809
 10
-57.0486568241
 20
21.8646551952
 10
-57.0535199987
 20
21.8473293462
 10
-57.0572056725
 20
21.8303941732
 10
-57.0598182451
 20
21.8138826644
 10
-57.0614496997
 20
21.7979106991
 10
-57.0622014112
 20
21.7825349901
  0
LWPOLYLINE
  5
2EB
100
AcDbEntity
  8
RACCORDO
100
AcDbPolyline
 62
253
  6
CONTINUOUS
 90
25
 70
0
 10
-59.6219422495
 20
25.7367591055
 10
-59.6677178868
 20
25.7352548718
 10
-59.7132966805
 20
25.7307604501
 10
-59.7584835571
 20
25.7232951711
 10
-59.8030851232
 20
25.7128911084
 10
-59.8469104988
 20
25.6995928569
 10
-59.8897721288
 20
25.6834573267
 10
-59.9314865672
 20
25.6645536439
 10
-59.9718753071
 20
25.6429627906
 10
-60.0107655368
 20
25.618777147
 10
-60.0479908001
 20
25.5921002689
 10
-60.0833918029
 20
25.5630463788
 10
-60.1168171115
 20
25.5317397652
 10
-60.1481236157
 20
25.4983144667
 10
-60.1771773664
 20
25.46291353
 10
-60.2038541745
 20
25.4256882615
 10
-60.2280398672
 20
25.3867978297
 10
-60.2496307906
 20
25.3464087864
 10
-60.2685344561
 20
25.3046941521
 10
-60.2846698723
 20
25.2618325402
 10
-60.2979679811
 20
25.2180073161
 10
-60.3083719108
 20
25.1734059761
 10
-60.3158370824
 20
25.1282193785
 10
-60.3203314301
 20
25.0826409361
 10
-60.3218356361
 20
25.0368657189
  0
LINE
  5
2EC
100
AcDbEntity
  8
RACCORDO
100
AcDbLine
 62
253
  6
CONTINUOUS
 10
58.2960493924
 20
25.7367591055
 11
-59.6219422495
 21
25.7367591055
  0
LINE
  5
2ED
100
AcDbEntity
  8
RACCORDO
100
AcDbLine
 62
7
  6
CONTINUOUS
 10
58.3031228082
 20
25.7438325213
 11
-59.6290156654
 21
25.7438325213
  0
LWPOLYLINE
  5
2EE
100
AcDbEntity
  8
RACCORDO
100
AcDbPolyline
 62
253
  6
CONTINUOUS
 90
25
 70
0
 10
58.2960493924
 20
25.436804797
 10
58.3222806857
 20
25.4359361989
 10
58.3482108122
 20
25.4333906703
 10
58.3738397717
 20
25.4291682109
 10
58.3992840617
 20
25.4232368867
 10
58.4244271849
 20
25.4156286317
 10
58.4489196487
 20
25.406439249
 10
58.4727436069
 20
25.3956491823
 10
58.4959169058
 20
25.3832779879
 10
58.5181435911
 20
25.3694801372
 10
58.5394128551
 20
25.3542359291
 10
58.5597355055
 20
25.3375650647
 10
58.5788480121
 20
25.3196811194
 10
58.5967349804
 20
25.3005664825
 10
58.6134118049
 20
25.2802387645
 10
58.6286611388
 20
25.2589643725
 10
58.642461995
 20
25.236733328
 10
58.6548353606
 20
25.2135556094
 10
58.6656268503
 20
25.1897275591
 10
58.6748168226
 20
25.1652305229
 10
58.682424919
 20
25.140083155
 10
58.6883556781
 20
25.1146377602
 10
58.6925772795
 20
25.0890117734
 10
58.6951215436
 20
25.0630877596
 10
58.6959884704
 20
25.0368657189
  0
LINE
  5
2EF
100
AcDbEntity
  8
RACCORDO
100
AcDbLine
 62
253
  6
CONTINUOUS
 10
55.7859889337
 20
22.7703618651
 11
55.4641636461
 21
22.1059523634
  0
LINE
  5
2F0
100
AcDbEntity
  8
RACCORDO
100
AcDbLine
 62
253
  6
CONTINUOUS
 10
56.0636277944
 20
22.451684823
 11
55.743747318
 21
21.7913944795
  0
LINE
  5
2F1
100
AcDbEntity
  8
RACCORDO
100
AcDbLine
 62
253
  6
CONTINUOUS
 10
56.0636277944
 20
-23.4959564712
 11
55.743747318
 21
-22.8356546841
  0
LINE
  5
2F2
100
AcDbEntity
  8
RACCORDO
100
AcDbLine
 62
253
  6
CONTINUOUS
 10
55.7860035698
 20
-23.8146220692
 11
55.4641554447
 21
-23.1502127843
  0
LWPOLYLINE
  5
2F3
100
AcDbEntity
  8
RACCORDO
100
AcDbPolyline
 62
253
  6
CONTINUOUS
 90
10
 70
0
 10
55.7363149482
 20
21.7825351065
 10
55.7365288801
 20
21.7835127424
 10
55.7368964238
 20
21.7844927766
 10
55.7374174662
 20
21.7854749041
 10
55.7380918474
 20
21.7864588194
 10
55.7389193601
 20
21.7874442163
 10
55.7398997499
 20
21.7884307883
 10
55.7410327154
 20
21.7894182283
 10
55.7423179085
 20
21.7904062294
 10
55.743754934
 20
21.7913944841
  0
LINE
  5
2F4
100
AcDbEntity
  8
SMUSSO
100
AcDbLine
 62
253
  6
CONTINUOUS
 10
79.8370535714
 20
46.177869898
 11
80.8370535714
 21
46.177869898
  0
LINE
  5
2F5
100
AcDbEntity
  8
SMUSSO
100
AcDbLine
 62
7
  6
CONTINUOUS
 10
79.8370535714
 20
46.177869898
 11
-81.1629464286
 21
46.177869898
  0
LINE
  5
2F6
100
AcDbEntity
  8
SMUSSO
100
AcDbLine
 62
253
  6
CONTINUOUS
 10
-81.1629464286
 20
46.177869898
 11
-82.1629464286
 21
46.177869898
  0
LINE
  5
2F7
100
AcDbEntity
  8
SMUSSO
100
AcDbLine
 62
7
  6
CONTINUOUS
 10
79.8370535714
 20
47.177869898
 11
-81.1629464286
 21
47.177869898
  0
LWPOLYLINE
  5
2F8
100
AcDbEntity
  8
RACCORDO
100
AcDbPolyline
 62
253
  6
CONTINUOUS
 90
10
 70
0
 10
55.7363085653
 20
-22.8267951943
 10
55.7365227556
 20
-22.8277723122
 10
55.7368904535
 20
-22.8287519511
 10
55.7374115459
 20
-22.8297338105
 10
55.7380858728
 20
-22.8307175891
 10
55.738913227
 20
-22.8317029847
 10
55.7398933542
 20
-22.8326896951
 10
55.7410259533
 20
-22.8336774173
 10
55.7423106764
 20
-22.8346658479
 10
55.7437471287
 20
-22.8356546836
  0
LWPOLYLINE
  5
2F9
100
AcDbEntity
  8
RACCORDO
100
AcDbPolyline
 62
253
  6
CONTINUOUS
 90
22
 70
0
 10
55.7363085541
 20
21.7825349901
 10
55.7355568423
 20
21.7979106817
 10
55.7339253884
 20
21.8138826404
 10
55.7313128161
 20
21.830394153
 10
55.7276271396
 20
21.8473293452
 10
55.7227639576
 20
21.8646552231
 10
55.7165806607
 20
21.8824134315
 10
55.708948422
 20
21.9005058162
 10
55.6997616851
 20
21.918771231
 10
55.6888845708
 20
21.9371154741
 10
55.6761275771
 20
21.9554634145
 10
55.6614682165
 20
21.9734790299
 10
55.6450954743
 20
21.9906879032
 10
55.6269657339
 20
22.006946169
 10
55.6071620506
 20
22.0219952235
 10
55.5862444152
 20
22.0353429755
 10
55.5645686914
 20
22.0468135884
 10
55.5420998513
 20
22.0564714785
 10
55.5188953779
 20
22.0642946328
 10
55.4950737568
 20
22.0702277022
 10
55.470824481
 20
22.0742081724
 10
55.4463098384
 20
22.0761988341
  0
LWPOLYLINE
  5
2FA
100
AcDbEntity
  8
RACCORDO
100
AcDbPolyline
 62
253
  6
CONTINUOUS
 90
22
 70
0
 10
56.0636283487
 20
-23.4959576158
 10
56.0640736925
 20
-23.5227734876
 10
56.0627084152
 20
-23.5489938807
 10
56.0595888061
 20
-23.574502852
 10
56.0547878478
 20
-23.5992022629
 10
56.0483684249
 20
-23.6229777839
 10
56.0403797408
 20
-23.645698311
 10
56.0308993891
 20
-23.6672660983
 10
56.0200160261
 20
-23.6876069612
 10
56.0077976577
 20
-23.706633517
 10
55.9943415854
 20
-23.7242613539
 10
55.9797365108
 20
-23.7404451857
 10
55.9640316787
 20
-23.7551580297
 10
55.9473224021
 20
-23.7683395005
 10
55.9296992546
 20
-23.779946669
 10
55.9111927716
 20
-23.7899690516
 10
55.8918988897
 20
-23.7983570289
 10
55.8719081524
 20
-23.8050709983
 10
55.8512341403
 20
-23.8100967897
 10
55.8299444219
 20
-23.8133938933
 10
55.8081663823
 20
-23.814913505
 10
55.786003638
 20
-23.81462221
  0
LINE
  5
2FB
100
AcDbEntity
  8
RACCORDO
100
AcDbLine
 62
253
  6
CONTINUOUS
 10
55.7438250445
 20
21.7865951317
 11
55.743747318
 21
21.7913944795
  0
LINE
  5
2FC
100
AcDbEntity
  8
RACCORDO
100
AcDbLine
 62
253
  6
CONTINUOUS
 10
55.7363668043
 20
21.7772288223
 11
55.7363085541
 21
21.7825349901
  0
LINE
  5
2FD
100
AcDbEntity
  8
RACCORDO
100
AcDbLine
 62
253
  6
CONTINUOUS
 10
55.7438715303
 20
21.781873246
 11
55.7438250445
 21
21.7865951317
  0
LINE
  5
2FE
100
AcDbEntity
  8
RACCORDO
100
AcDbLine
 62
253
  6
CONTINUOUS
 10
55.7438867754
 20
21.7772288223
 11
55.7438715303
 21
21.781873246
  0
LINE
  5
2FF
100
AcDbEntity
  8
RACCORDO
100
AcDbLine
 62
253
  6
CONTINUOUS
 10
55.4356389973
 20
-23.1206698364
 11
55.4356389975
 21
-23.1507473736
  0
LINE
  5
300
100
AcDbEntity
  8
RACCORDO
100
AcDbLine
 62
253
  6
CONTINUOUS
 10
55.4356389973
 20
22.0764096323
 11
55.4356389973
 21
22.1064871695
  0
LINE
  5
301
100
AcDbEntity
  8
RACCORDO
100
AcDbLine
 62
7
  6
CONTINUOUS
 10
55.7291987922
 20
21.7700608102
 11
55.7291987922
 21
-22.8143210143
  0
LINE
  5
302
100
AcDbEntity
  8
RACCORDO
100
AcDbLine
 62
253
  6
CONTINUOUS
 10
55.7363668043
 20
-22.8214890264
 11
55.7363668043
 21
21.7772288223
  0
LINE
  5
303
100
AcDbEntity
  8
RACCORDO
100
AcDbLine
 62
253
  6
CONTINUOUS
 10
55.7859985807
 20
23.0522696514
 11
55.7859985807
 21
22.7703618651
  0
LINE
  5
304
100
AcDbEntity
  8
RACCORDO
100
AcDbLine
 62
253
  6
CONTINUOUS
 10
55.7859985807
 20
-24.0965298555
 11
55.7859985807
 21
-23.8146220692
  0
LINE
  5
305
100
AcDbEntity
  8
RACCORDO
100
AcDbLine
 62
253
  6
CONTINUOUS
 10
56.0636277944
 20
22.451684823
 11
56.0636277944
 21
-23.4959564712
  0
LINE
  5
306
100
AcDbEntity
  8
RACCORDO
100
AcDbLine
 62
253
  6
CONTINUOUS
 10
56.3590701203
 20
22.4516846486
 11
56.3590701203
 21
-23.4959448527
  0
LINE
  5
307
100
AcDbEntity
  8
RACCORDO
100
AcDbLine
 62
253
  6
CONTINUOUS
 10
55.7438811115
 20
-22.8238930363
 11
55.7438867754
 21
21.7772288223
  0
LINE
  5
308
100
AcDbEntity
  8
RACCORDO
100
AcDbLine
 62
253
  6
CONTINUOUS
 10
55.7438486888
 20
-22.8286493758
 11
55.7438811115
 21
-22.8238930363
  0
LINE
  5
309
100
AcDbEntity
  8
RACCORDO
100
AcDbLine
 62
253
  6
CONTINUOUS
 10
55.7363085541
 20
-22.8267951941
 11
55.7363668043
 21
-22.8214890264
  0
LWPOLYLINE
  5
30A
100
AcDbEntity
  8
RACCORDO
100
AcDbPolyline
 62
253
  6
CONTINUOUS
 90
22
 70
0
 10
55.743747318
 20
21.7913944795
 10
55.7439842771
 20
21.8087552125
 10
55.7433186708
 20
21.8266519878
 10
55.7416479531
 20
21.8450350848
 10
55.738880288
 20
21.8638092936
 10
55.7349072067
 20
21.8829353272
 10
55.7295836054
 20
21.9024236745
 10
55.7227993619
 20
21.9222016982
 10
55.7144395249
 20
21.9421047032
 10
55.7043296838
 20
21.961967578
 10
55.6922893147
 20
21.9817373343
 10
55.678299135
 20
22.0010843143
 10
55.6624995098
 20
22.019436805
 10
55.6448396974
 20
22.0366404946
 10
55.625418409
 20
22.0524672946
 10
55.6047740288
 20
22.0663761397
 10
55.5832492969
 20
22.0781664408
 10
55.5608192122
 20
22.0879231155
 10
55.5375505705
 20
22.095635674
 10
55.5135653151
 20
22.1012525824
 10
55.4890491649
 20
22.1047048887
 10
55.4641637073
 20
22.1059524871
  0
LWPOLYLINE
  5
30B
100
AcDbEntity
  8
RACCORDO
100
AcDbPolyline
 62
253
  6
CONTINUOUS
 90
3
 70
0
 10
55.743747318
 20
-22.8356546841
 10
55.7437881399
 20
-22.8333368081
 10
55.7438486888
 20
-22.8286493758
  0
LWPOLYLINE
  5
30C
100
AcDbEntity
  8
RACCORDO
100
AcDbPolyline
 62
253
  6
CONTINUOUS
 90
25
 70
0
 10
58.995942779
 20
25.0368657189
 10
58.9944385453
 20
25.0826413562
 10
58.9899441235
 20
25.1282201499
 10
58.9824788446
 20
25.1734070264
 10
58.9720747819
 20
25.2180085926
 10
58.9587765304
 20
25.2618339682
 10
58.9426410002
 20
25.3046955981
 10
58.9237373173
 20
25.3464100366
 10
58.9021464641
 20
25.3867987765
 10
58.8779608205
 20
25.4256890062
 10
58.8512839424
 20
25.4629142695
 10
58.8222300523
 20
25.4983152723
 10
58.7909234386
 20
25.5317405809
 10
58.7574981401
 20
25.5630470851
 10
58.7220972035
 20
25.5921008357
 10
58.6848719349
 20
25.6187776439
 10
58.6459815032
 20
25.6429633366
 10
58.6055924599
 20
25.66455426
 10
58.5638778255
 20
25.6834579255
 10
58.5210162137
 20
25.6995933417
 10
58.4771909896
 20
25.7128914505
 10
58.4325896495
 20
25.7232953802
 10
58.387403052
 20
25.7307605518
 10
58.3418246095
 20
25.7352548994
 10
58.2960493924
 20
25.7367591055
  0
LINE
  5
30D
100
AcDbEntity
  8
RACCORDO
100
AcDbLine
 62
253
  6
CONTINUOUS
 10
58.2960493923
 20
25.7367591055
 11
58.2960493924
 21
25.436804797
  0
LINE
  5
30E
100
AcDbEntity
  8
RACCORDO
100
AcDbLine
 62
253
  6
CONTINUOUS
 10
58.296049392
 20
-26.7810193096
 11
58.2960493924
 21
-26.481065001
  0
LINE
  5
30F
100
AcDbEntity
  8
RACCORDO
100
AcDbLine
 62
253
  6
CONTINUOUS
 10
58.6959884704
 20
-26.081125923
 11
58.6959884704
 21
25.0368657189
  0
LINE
  5
310
100
AcDbEntity
  8
RACCORDO
100
AcDbLine
 62
253
  6
CONTINUOUS
 10
58.995942779
 20
-26.081125923
 11
58.995942779
 21
25.0368657189
  0
LINE
  5
311
100
AcDbEntity
  8
RACCORDO
100
AcDbLine
 62
7
  6
CONTINUOUS
 10
59.0030161948
 20
-26.0881993388
 11
59.0030161948
 21
25.0439391347
  0
LWPOLYLINE
  5
312
100
AcDbEntity
  8
RACCORDO
100
AcDbPolyline
 62
253
  6
CONTINUOUS
 90
25
 70
0
 10
58.6959884704
 20
-26.081125923
 10
58.6951198724
 20
-26.1073572163
 10
58.6925743437
 20
-26.1332873428
 10
58.6883518844
 20
-26.1589163023
 10
58.6824205601
 20
-26.1843605924
 10
58.6748123052
 20
-26.2095037155
 10
58.6656229225
 20
-26.2339961793
 10
58.6548328558
 20
-26.2578201375
 10
58.6424616613
 20
-26.2809934364
 10
58.6286638106
 20
-26.3032201218
 10
58.6134196025
 20
-26.3244893857
 10
58.5967487382
 20
-26.3448120361
 10
58.5788647929
 20
-26.3639245427
 10
58.5597501559
 20
-26.381811511
 10
58.539422438
 20
-26.3984883355
 10
58.518148046
 20
-26.4137376694
 10
58.4959170015
 20
-26.4275385256
 10
58.4727392828
 20
-26.4399118912
 10
58.4489112325
 20
-26.4507033809
 10
58.4244141964
 20
-26.4598933532
 10
58.3992668285
 20
-26.4675014496
 10
58.3738214337
 20
-26.4734322087
 10
58.3481954469
 20
-26.4776538101
 10
58.3222714331
 20
-26.4801980742
 10
58.2960493924
 20
-26.481065001
  0
LWPOLYLINE
  5
313
100
AcDbEntity
  8
RACCORDO
100
AcDbPolyline
 62
253
  6
CONTINUOUS
 90
22
 70
0
 10
56.3590701203
 20
-23.4959448527
 10
56.3571194561
 20
-23.5445582709
 10
56.3519526412
 20
-23.5918576353
 10
56.3435696754
 20
-23.637842946
 10
56.3318287571
 20
-23.6827141218
 10
56.3168716881
 20
-23.7262712438
 10
56.2991238729
 20
-23.7679145554
 10
56.2785605896
 20
-23.8075947499
 10
56.2552065601
 20
-23.8453611341
 10
56.2295613557
 20
-23.8807618708
 10
56.2016341845
 20
-23.9137396547
 10
56.1714158383
 20
-23.9443517911
 10
56.1393782641
 20
-23.9723183587
 10
56.1055342894
 20
-23.9976174966
 10
56.0698710867
 20
-24.0202710656
 10
56.0328221196
 20
-24.0400647266
 10
55.9943946763
 20
-24.0569940736
 10
55.9545814687
 20
-24.0710635125
 10
55.9137940954
 20
-24.0820719223
 10
55.8721697561
 20
-24.0899522625
 10
55.8295712512
 20
-24.0947715736
 10
55.7859985807
 20
-24.0965298555
  0
LINE
  5
314
100
AcDbEntity
  8
SMUSSO
100
AcDbLine
 62
253
  6
CONTINUOUS
 10
79.8370535714
 20
-47.222130102
 11
79.8370535714
 21
-48.222130102
  0
LINE
  5
315
100
AcDbEntity
  8
SMUSSO
100
AcDbLine
 62
7
  6
CONTINUOUS
 10
79.8370535714
 20
-47.222130102
 11
79.8370535714
 21
46.177869898
  0
LINE
  5
316
100
AcDbEntity
  8
SMUSSO
100
AcDbLine
 62
253
  6
CONTINUOUS
 10
79.8370535714
 20
46.177869898
 11
79.8370535714
 21
47.177869898
  0
LINE
  5
317
100
AcDbEntity
  8
SMUSSO
100
AcDbLine
 62
7
  6
CONTINUOUS
 10
80.8370535714
 20
-47.222130102
 11
80.8370535714
 21
46.177869898
  0
LINE
  5
318
100
AcDbEntity
  8
SMUSSO
100
AcDbLine
 62
7
  6
CONTINUOUS
 10
-116.2994260204
 20
-48.222130102
 11
-113.7994260204
 21
-48.222130102
  0
LINE
  5
319
100
AcDbEntity
  8
DRAFT
100
AcDbLine
 62
7
  6
CONTINUOUS
 10
-112.7518332332
 20
-48.1197228892
 11
-109.7494260204
 21
-48.172130102
  0
LINE
  5
31A
100
AcDbEntity
  8
SMUSSO
100
AcDbLine
 62
253
  6
CONTINUOUS
 10
-113.2994260204
 20
-47.222130102
 11
-117.2994260204
 21
-47.222130102
  0
LINE
  5
31B
100
AcDbEntity
  8
DRAFT
100
AcDbLine
 62
253
  6
CONTINUOUS
 10
-108.7494260204
 20
-46.672130102
 11
-113.1994260204
 21
-46.672130102
  0
LINE
  5
31C
100
AcDbEntity
  8
SMUSSO
100
AcDbLine
 62
7
  6
CONTINUOUS
 10
-117.2994260204
 20
46.177869898
 11
-116.2994260204
 21
47.177869898
  0
LINE
  5
31D
100
AcDbEntity
  8
SMUSSO
100
AcDbLine
 62
7
  6
CONTINUOUS
 10
-117.2994260204
 20
-47.222130102
 11
-116.2994260204
 21
-48.222130102
  0
LINE
  5
31E
100
AcDbEntity
  8
SMUSSO
100
AcDbLine
 62
7
  6
CONTINUOUS
 10
-113.1994260205
 20
46.6278698979
 11
-112.7518332332
 21
47.0754626851
  0
LINE
  5
31F
100
AcDbEntity
  8
DRAFT
100
AcDbLine
 62
7
  6
CONTINUOUS
 10
-113.1994260204
 20
46.627869898
 11
-112.7518332332
 21
47.0754626851
  0
LINE
  5
320
100
AcDbEntity
  8
DRAFT
100
AcDbLine
 62
7
  6
CONTINUOUS
 10
-113.1994260204
 20
-47.672130102
 11
-112.7518332332
 21
-48.1197228892
  0
LINE
  5
321
100
AcDbEntity
  8
0
100
AcDbLine
 62
7
  6
CONTINUOUS
 10
-108.1494260204
 20
-26.872130102
 11
-108.7494260204
 21
-26.8756207999
  0
LINE
  5
322
100
AcDbEntity
  8
ASSI
100
AcDbLine
 62
7
  6
CONTINUOUS
 10
-108.1494260204
 20
-27.672130102
 11
-108.6487875385
 21
-27.6730016532
  0
LINE
  5
323
100
AcDbEntity
  8
0
100
AcDbLine
 62
7
  6
CONTINUOUS
 10
-108.6487875385
 20
-27.6730016532
 11
-108.7494260204
 21
-27.6731773007
  0
LINE
  5
324
100
AcDbEntity
  8
ASSI
100
AcDbLine
 62
253
  6
CONTINUOUS
 10
-108.1494260204
 20
-27.4497758156
 11
-108.4271972101
 21
-27.4499012917
  0
LINE
  5
325
100
AcDbEntity
  8
0
100
AcDbLine
 62
253
  6
CONTINUOUS
 10
-108.4271972101
 20
-27.4499012917
 11
-108.7494260204
 21
-27.4500468505
  0
LINE
  5
326
100
AcDbEntity
  8
0
100
AcDbLine
 62
7
  6
CONTINUOUS
 10
-117.9994260204
 20
-26.3373044998
 11
-118.1994260204
 21
-26.3373044998
  0
LINE
  5
327
100
AcDbEntity
  8
RACCORDO
100
AcDbLine
 62
253
  6
CONTINUOUS
 10
-117.7046617423
 20
-26.0811259229
 11
-117.9994260204
 21
-26.081125923
  0
LINE
  5
328
100
AcDbEntity
  8
0
100
AcDbLine
 62
253
  6
CONTINUOUS
 10
-117.9994260204
 20
-25.7689713901
 11
-118.1994260204
 21
-25.7689713901
  0
LINE
  5
329
100
AcDbEntity
  8
0
100
AcDbLine
 62
7
  6
CONTINUOUS
 10
-108.3494260204
 20
-25.722130102
 11
-108.7494260204
 21
-25.722130102
  0
LINE
  5
32A
100
AcDbEntity
  8
RACCORDO
100
AcDbLine
 62
7
  6
CONTINUOUS
 10
-117.7046617423
 20
-26.7810193096
 11
-117.2994260204
 21
-26.7880927254
  0
LINE
  5
32B
100
AcDbEntity
  8
RACCORDO
100
AcDbLine
 62
7
  6
CONTINUOUS
 10
-113.2994260204
 20
-26.2177663358
 11
-113.1994260204
 21
-26.2195118423
  0
LINE
  5
32C
100
AcDbEntity
  8
RACCORDO
100
AcDbLine
 62
253
  6
CONTINUOUS
 10
-117.7046617423
 20
-26.081125923
 11
-117.2994260204
 21
-26.0881993388
  0
LINE
  5
32D
100
AcDbEntity
  8
RACCORDO
100
AcDbLine
 62
7
  6
CONTINUOUS
 10
-113.1994260204
 20
-26.3692815203
 11
-113.2994260204
 21
-26.3673824658
  0
LINE
  5
32E
100
AcDbEntity
  8
0
100
AcDbLine
 62
7
  6
CONTINUOUS
 10
-108.3389588292
 20
-26.3137565188
 11
-108.7494260204
 21
-26.2956220268
  0
LINE
  5
32F
100
AcDbEntity
  8
0
100
AcDbLine
 62
7
  6
CONTINUOUS
 10
-108.6994260204
 20
-25.572130102
 11
-108.4994260204
 21
-25.572130102
  0
LINE
  5
330
100
AcDbEntity
  8
0
100
AcDbLine
 62
7
  6
CONTINUOUS
 10
-117.9994260204
 20
-25.3571255341
 11
-118.1994260204
 21
-25.3571255341
  0
LINE
  5
331
100
AcDbEntity
  8
0
100
AcDbLine
 62
7
  6
CONTINUOUS
 10
-117.9994260204
 20
-25.3447174081
 11
-118.1994260204
 21
-25.3447174081
  0
LINE
  5
332
100
AcDbEntity
  8
0
100
AcDbLine
 62
253
  6
CONTINUOUS
 10
-117.9994260204
 20
-24.284121819
 11
-118.1994260204
 21
-24.284121819
  0
LINE
  5
333
100
AcDbEntity
  8
0
100
AcDbLine
 62
7
  6
CONTINUOUS
 10
-117.9994260204
 20
-24.2128437272
 11
-118.1994260204
 21
-24.2128437272
  0
LINE
  5
334
100
AcDbEntity
  8
RACCORDO
100
AcDbLine
 62
253
  6
CONTINUOUS
 10
-113.2994260204
 20
-24.9179643321
 11
-113.1994260204
 21
-24.9197098386
  0
LINE
  5
335
100
AcDbEntity
  8
RACCORDO
100
AcDbLine
 62
7
  6
CONTINUOUS
 10
-113.1994260204
 20
-21.67266752
 11
-113.2994260204
 21
-21.6730257987
  0
LINE
  5
336
100
AcDbEntity
  8
RACCORDO
100
AcDbLine
 62
7
  6
CONTINUOUS
 10
-113.1994260204
 20
-22.022130102
 11
-113.2994260204
 21
-22.022130102
  0
LINE
  5
337
100
AcDbEntity
  8
RACCORDO
100
AcDbLine
 62
7
  6
CONTINUOUS
 10
-113.1994260204
 20
-22.3715926841
 11
-113.2994260204
 21
-22.3712344054
  0
LINE
  5
338
100
AcDbEntity
  8
0
100
AcDbLine
 62
7
  6
CONTINUOUS
 10
-108.4994260204
 20
24.527869898
 11
-108.3494260204
 21
24.677869898
  0
LINE
  5
339
100
AcDbEntity
  8
RACCORDO
100
AcDbLine
 62
7
  6
CONTINUOUS
 10
-113.1994260204
 20
-16.0456944397
 11
-113.2994260204
 21
-16.0474399462
  0
LINE
  5
33A
100
AcDbEntity
  8
RACCORDO
100
AcDbLine
 62
7
  6
CONTINUOUS
 10
-113.1994260204
 20
-14.9985657644
 11
-113.2994260204
 21
-14.9968202579
  0
LINE
  5
33B
100
AcDbEntity
  8
0
100
AcDbLine
 62
7
  6
CONTINUOUS
 10
-108.4994260204
 20
-25.572130102
 11
-108.3494260204
 21
-25.722130102
  0
LWPOLYLINE
  5
33C
100
AcDbEntity
  8
RACCORDO
100
AcDbPolyline
 62
253
  6
CONTINUOUS
 90
6
 70
0
 10
-117.7046617423
 20
-26.7810193096
 10
-117.7049901553
 20
-26.7795150759
 10
-117.7052980052
 20
-26.7750206541
 10
-117.7055822242
 20
-26.7675553752
 10
-117.7058387148
 20
-26.7571513125
 10
-117.7060662054
 20
-26.743853061
  0
LINE
  5
33D
100
AcDbEntity
  8
RACCORDO
100
AcDbLine
 62
7
  6
CONTINUOUS
 10
-113.1994260204
 20
-8.0456944397
 11
-113.2994260204
 21
-8.0474399462
  0
LINE
  5
33E
100
AcDbEntity
  8
RACCORDO
100
AcDbLine
 62
7
  6
CONTINUOUS
 10
-113.1994260204
 20
-6.9985657644
 11
-113.2994260204
 21
-6.9968202579
  0
LINE
  5
33F
100
AcDbEntity
  8
RACCORDO
100
AcDbLine
 62
253
  6
CONTINUOUS
 10
-117.7060662054
 20
-26.743853061
 11
-117.7064373511
 21
-26.708813848
  0
LINE
  5
340
100
AcDbEntity
  8
RACCORDO
100
AcDbLine
 62
253
  6
CONTINUOUS
 10
-117.7064373511
 20
-26.708813848
 11
-117.7067664205
 21
-26.636360473
  0
LINE
  5
341
100
AcDbEntity
  8
RACCORDO
100
AcDbLine
 62
253
  6
CONTINUOUS
 10
-117.7046617423
 20
25.0368657189
 11
-117.7066871815
 21
25.4256890062
  0
LINE
  5
342
100
AcDbEntity
  8
0
100
AcDbLine
 62
7
  6
CONTINUOUS
 10
-118.1994260204
 20
-26.3373044998
 11
-118.1994260204
 21
-24.2128508856
  0
LINE
  5
343
100
AcDbEntity
  8
RACCORDO
100
AcDbLine
 62
7
  6
CONTINUOUS
 10
-117.9994260204
 20
-26.481065001
 11
-117.9994260204
 21
25.436804797
  0
LINE
  5
344
100
AcDbEntity
  8
RACCORDO
100
AcDbLine
 62
253
  6
CONTINUOUS
 10
-117.7046617423
 20
-26.081125923
 11
-117.7046617423
 21
25.0368657189
  0
LINE
  5
345
100
AcDbEntity
  8
SMUSSO
100
AcDbLine
 62
7
  6
CONTINUOUS
 10
-117.2994260204
 20
-47.222130102
 11
-117.2994260204
 21
46.177869898
  0
LINE
  5
346
100
AcDbEntity
  8
SMUSSO
100
AcDbLine
 62
7
  6
CONTINUOUS
 10
-116.2994260204
 20
-48.222130102
 11
-116.2994260204
 21
47.177869898
  0
LINE
  5
347
100
AcDbEntity
  8
RACCORDO
100
AcDbLine
 62
253
  6
CONTINUOUS
 10
-117.7066871815
 20
25.4256890062
 11
-117.706766439
 21
25.5921008357
  0
LINE
  5
348
100
AcDbEntity
  8
RACCORDO
100
AcDbLine
 62
253
  6
CONTINUOUS
 10
-117.7067664205
 20
-26.636360473
 11
-117.7066872054
 21
-26.4699484656
  0
LINE
  5
349
100
AcDbEntity
  8
RACCORDO
100
AcDbLine
 62
253
  6
CONTINUOUS
 10
-117.706766439
 20
25.5921008357
 11
-117.7064373646
 21
25.66455426
  0
LINE
  5
34A
100
AcDbEntity
  8
RACCORDO
100
AcDbLine
 62
253
  6
CONTINUOUS
 10
-117.7066872054
 20
-26.4699484656
 11
-117.7046617423
 21
-26.081125923
  0
LWPOLYLINE
  5
34B
100
AcDbEntity
  8
RACCORDO
100
AcDbPolyline
 62
253
  6
CONTINUOUS
 90
7
 70
0
 10
-117.7064373646
 20
25.66455426
 10
-117.7060662043
 20
25.6995933417
 10
-117.7058387086
 20
25.7128914505
 10
-117.7055822154
 20
25.7232953802
 10
-117.7052979964
 20
25.7307605518
 10
-117.7049901495
 20
25.7352548994
 10
-117.7046617423
 20
25.7367591055
  0
LINE
  5
34C
100
AcDbEntity
  8
SMUSSO
100
AcDbLine
 62
7
  6
CONTINUOUS
 10
-113.7994260204
 20
47.177869898
 11
-113.7994260204
 21
-48.222130102
  0
LINE
  5
34D
100
AcDbEntity
  8
SMUSSO
100
AcDbLine
 62
7
  6
CONTINUOUS
 10
-113.2994260204
 20
46.677869898
 11
-113.2994260204
 21
-47.722130102
  0
LINE
  5
34E
100
AcDbEntity
  8
SMUSSO
100
AcDbLine
 62
7
  6
CONTINUOUS
 10
-113.1994260204
 20
-47.672130102
 11
-113.1994260204
 21
46.627869898
  0
LINE
  5
34F
100
AcDbEntity
  8
DRAFT
100
AcDbLine
 62
7
  6
CONTINUOUS
 10
-112.7518332332
 20
-48.1197228892
 11
-112.7518332332
 21
47.0754626851
  0
LINE
  5
350
100
AcDbEntity
  8
DRAFT
100
AcDbLine
 62
7
  6
CONTINUOUS
 10
-109.7494260204
 20
-48.172130102
 11
-109.7494260204
 21
47.127869898
  0
LINE
  5
351
100
AcDbEntity
  8
SMUSSO
100
AcDbLine
 62
7
  6
CONTINUOUS
 10
-108.7494260204
 20
46.127869898
 11
-108.7494260204
 21
-47.172130102
  0
LINE
  5
352
100
AcDbEntity
  8
0
100
AcDbLine
 62
253
  6
CONTINUOUS
 10
-108.3389588292
 20
25.2694963147
 11
-108.3389588292
 21
24.678143991
  0
LINE
  5
353
100
AcDbEntity
  8
0
100
AcDbLine
 62
253
  6
CONTINUOUS
 10
-108.3389588292
 20
-25.7224041951
 11
-108.3389588292
 21
-26.3137565188
  0
LINE
  5
354
100
AcDbEntity
  8
ASSI
100
AcDbLine
 62
7
  6
CONTINUOUS
 10
-108.1494260204
 20
-27.6720780288
 11
-108.1494260204
 21
-27.172130102
  0
LINE
  5
355
100
AcDbEntity
  8
0
100
AcDbLine
 62
7
  6
CONTINUOUS
 10
-108.1494260204
 20
-25.922130102
 11
-108.1494260204
 21
-27.172130102
  0
LINE
  5
356
100
AcDbEntity
  8
0
100
AcDbLine
 62
7
  6
CONTINUOUS
 10
-108.1494260204
 20
24.877869898
 11
-108.1494260204
 21
26.127869898
  0
LINE
  5
357
100
AcDbEntity
  8
ASSI
100
AcDbLine
 62
7
  6
CONTINUOUS
 10
-108.1494260204
 20
26.127869898
 11
-108.1494260204
 21
26.6278178247
  0
LINE
  5
358
100
AcDbEntity
  8
RACCORDO
100
AcDbLine
 62
7
  6
CONTINUOUS
 10
-113.1994260204
 20
5.9543055603
 11
-113.2994260204
 21
5.9525600538
  0
LINE
  5
359
100
AcDbEntity
  8
RACCORDO
100
AcDbLine
 62
7
  6
CONTINUOUS
 10
-113.1994260204
 20
7.0014342356
 11
-113.2994260204
 21
7.0031797421
  0
LINE
  5
35A
100
AcDbEntity
  8
RACCORDO
100
AcDbLine
 62
7
  6
CONTINUOUS
 10
-113.1994260204
 20
13.9543055603
 11
-113.2994260204
 21
13.9525600538
  0
LINE
  5
35B
100
AcDbEntity
  8
RACCORDO
100
AcDbLine
 62
7
  6
CONTINUOUS
 10
-113.1994260204
 20
15.0014342356
 11
-113.2994260204
 21
15.0031797421
  0
LINE
  5
35C
100
AcDbEntity
  8
0
100
AcDbLine
 62
7
  6
CONTINUOUS
 10
-108.7494260204
 20
-25.622130102
 11
-108.6994260204
 21
-25.572130102
  0
LINE
  5
35D
100
AcDbEntity
  8
0
100
AcDbLine
 62
7
  6
CONTINUOUS
 10
-108.1494260204
 20
-27.172130102
 11
-108.6502412135
 21
-27.6729452951
  0
LINE
  5
35E
100
AcDbEntity
  8
RACCORDO
100
AcDbLine
 62
7
  6
CONTINUOUS
 10
-113.1994260204
 20
21.32733248
 11
-113.2994260204
 21
21.3269742013
  0
LINE
  5
35F
100
AcDbEntity
  8
RACCORDO
100
AcDbLine
 62
7
  6
CONTINUOUS
 10
-113.1994260204
 20
20.977869898
 11
-113.2994260204
 21
20.977869898
  0
LINE
  5
360
100
AcDbEntity
  8
RACCORDO
100
AcDbLine
 62
7
  6
CONTINUOUS
 10
-113.1994260204
 20
20.6284073159
 11
-113.2994260204
 21
20.6287655946
  0
LINE
  5
361
100
AcDbEntity
  8
0
100
AcDbLine
 62
7
  6
CONTINUOUS
 10
-108.7494260204
 20
24.577869898
 11
-108.6994260204
 21
24.527869898
  0
LINE
  5
362
100
AcDbEntity
  8
0
100
AcDbLine
 62
7
  6
CONTINUOUS
 10
-108.6502412135
 20
26.6286850911
 11
-108.1494260204
 21
26.127869898
  0
LINE
  5
363
100
AcDbEntity
  8
0
100
AcDbLine
 62
7
  6
CONTINUOUS
 10
-108.3389588292
 20
25.2694963147
 11
-108.7494260204
 21
25.2513618227
  0
LINE
  5
364
100
AcDbEntity
  8
RACCORDO
100
AcDbLine
 62
7
  6
CONTINUOUS
 10
-113.1994260204
 20
25.3250213162
 11
-113.2994260204
 21
25.3231222617
  0
LINE
  5
365
100
AcDbEntity
  8
RACCORDO
100
AcDbLine
 62
253
  6
CONTINUOUS
 10
-113.2994260204
 20
23.873704128
 11
-113.1994260204
 21
23.8754496345
  0
LINE
  5
366
100
AcDbEntity
  8
RACCORDO
100
AcDbLine
 62
253
  6
CONTINUOUS
 10
-117.7046617423
 20
25.0368657189
 11
-117.2994260204
 21
25.0439391347
  0
LINE
  5
367
100
AcDbEntity
  8
RACCORDO
100
AcDbLine
 62
7
  6
CONTINUOUS
 10
-113.2994260204
 20
25.1735061317
 11
-113.1994260204
 21
25.1752516382
  0
LINE
  5
368
100
AcDbEntity
  8
0
100
AcDbLine
 62
7
  6
CONTINUOUS
 10
-108.6994260204
 20
24.527869898
 11
-108.4994260204
 21
24.527869898
  0
LINE
  5
369
100
AcDbEntity
  8
0
100
AcDbLine
 62
7
  6
CONTINUOUS
 10
-108.3494260204
 20
24.677869898
 11
-108.7494260204
 21
24.677869898
  0
LINE
  5
36A
100
AcDbEntity
  8
RACCORDO
100
AcDbLine
 62
253
  6
CONTINUOUS
 10
-117.7046617423
 20
25.0368657185
 11
-117.9994260204
 21
25.0368657189
  0
LINE
  5
36B
100
AcDbEntity
  8
RACCORDO
100
AcDbLine
 62
7
  6
CONTINUOUS
 10
-117.7046617423
 20
25.7367591055
 11
-117.2994260204
 21
25.7438325213
  0
LINE
  5
36C
100
AcDbEntity
  8
ASSI
100
AcDbLine
 62
253
  6
CONTINUOUS
 10
-108.1494260204
 20
26.4055156115
 11
-108.4271972101
 21
26.4056410877
  0
LINE
  5
36D
100
AcDbEntity
  8
0
100
AcDbLine
 62
253
  6
CONTINUOUS
 10
-108.4271972101
 20
26.4056410877
 11
-108.7494260204
 21
26.4057866464
  0
LINE
  5
36E
100
AcDbEntity
  8
ASSI
100
AcDbLine
 62
7
  6
CONTINUOUS
 10
-108.1494260204
 20
26.627869898
 11
-108.6502411107
 21
26.6287439861
  0
LINE
  5
36F
100
AcDbEntity
  8
0
100
AcDbLine
 62
7
  6
CONTINUOUS
 10
-108.6487875385
 20
26.6287414491
 11
-108.7494260204
 21
26.6289170966
  0
LINE
  5
370
100
AcDbEntity
  8
0
100
AcDbLine
 62
7
  6
CONTINUOUS
 10
-108.1494260204
 20
25.827869898
 11
-108.7494260204
 21
25.8313605958
  0
LINE
  5
371
100
AcDbEntity
  8
SMUSSO
100
AcDbLine
 62
7
  6
CONTINUOUS
 10
-113.2994260204
 20
-47.722130102
 11
-113.7994260204
 21
-48.222130102
  0
LINE
  5
372
100
AcDbEntity
  8
SMUSSO
100
AcDbLine
 62
7
  6
CONTINUOUS
 10
-113.2994260204
 20
46.677869898
 11
-113.7994260204
 21
47.177869898
  0
LINE
  5
373
100
AcDbEntity
  8
DRAFT
100
AcDbLine
 62
7
  6
CONTINUOUS
 10
-108.7494260204
 20
-47.172130102
 11
-109.7494260204
 21
-48.172130102
  0
LINE
  5
374
100
AcDbEntity
  8
SMUSSO
100
AcDbLine
 62
7
  6
CONTINUOUS
 10
-108.7494260203
 20
46.1278698979
 11
-109.7494260204
 21
47.127869898
  0
LINE
  5
375
100
AcDbEntity
  8
DRAFT
100
AcDbLine
 62
7
  6
CONTINUOUS
 10
-108.7494260204
 20
46.127869898
 11
-109.7494260204
 21
47.127869898
  0
LINE
  5
376
100
AcDbEntity
  8
DRAFT
100
AcDbLine
 62
7
  6
CONTINUOUS
 10
-112.7518332332
 20
47.0754626851
 11
-109.7494260204
 21
47.127869898
  0
LINE
  5
377
100
AcDbEntity
  8
DRAFT
100
AcDbLine
 62
253
  6
CONTINUOUS
 10
-108.7494260204
 20
45.627869898
 11
-113.1994260204
 21
45.627869898
  0
LINE
  5
378
100
AcDbEntity
  8
SMUSSO
100
AcDbLine
 62
253
  6
CONTINUOUS
 10
-113.2994260204
 20
46.177869898
 11
-117.2994260204
 21
46.177869898
  0
LINE
  5
379
100
AcDbEntity
  8
SMUSSO
100
AcDbLine
 62
7
  6
CONTINUOUS
 10
-116.2994260204
 20
47.177869898
 11
-113.7994260204
 21
47.177869898
  0
ARC
  5
37A
100
AcDbEntity
  8
SMUSSO
100
AcDbCircle
 62
7
  6
CONTINUOUS
 10
-81.1629464286
 20
46.177869898
 40
1.0
100
AcDbArc
 50
90.0
 51
180.0
  0
ARC
  5
37B
100
AcDbEntity
  8
SMUSSO
100
AcDbCircle
 62
7
  6
CONTINUOUS
 10
-81.1629464286
 20
-47.222130102
 40
1.0
100
AcDbArc
 50
180.0
 51
270.0
  0
ARC
  5
37C
100
AcDbEntity
  8
SMUSSO
100
AcDbCircle
 62
7
  6
CONTINUOUS
 10
79.8370535714
 20
-47.222130102
 40
1.0
100
AcDbArc
 50
270.0
 51
360.0
  0
ARC
  5
37D
100
AcDbEntity
  8
SMUSSO
100
AcDbCircle
 62
7
  6
CONTINUOUS
 10
79.8370535714
 20
46.177869898
 40
1.0
100
AcDbArc
 50
0.0
 51
90.0
  0
ARC
  5
37E
100
AcDbEntity
  8
RACCORDO
100
AcDbCircle
 62
7
  6
CONTINUOUS
 10
-117.6994260204
 20
25.436804797
 40
0.3
100
AcDbArc
 50
91.0
 51
180.0
  0
ARC
  5
37F
100
AcDbEntity
  8
RACCORDO
100
AcDbCircle
 62
7
  6
CONTINUOUS
 10
-117.6994260204
 20
-26.481065001
 40
0.3
100
AcDbArc
 50
180.0
 51
269.0
  0
ARC
  5
380
100
AcDbEntity
  8
0
100
AcDbCircle
 62
7
  6
CONTINUOUS
 10
-108.3494260204
 20
-25.922130102
 40
0.2
100
AcDbArc
 50
0.0
 51
90.0
  0
ARC
  5
381
100
AcDbEntity
  8
0
100
AcDbCircle
 62
7
  6
CONTINUOUS
 10
-108.3494260204
 20
24.877869898
 40
0.2
100
AcDbArc
 50
270.0
 51
360.0
  0
ELLIPSE
  5
382
100
AcDbEntity
  8
RACCORDO
100
AcDbEllipse
 62
7
  6
CONTINUOUS
 10
55.4291530938
 20
21.7699694203
 30
0.0
 11
0.2121966568
 21
0.2121966568
 31
0.0
 40
0.9996954599
 41
-0.7852458701
 42
0.7852458701
  0
ELLIPSE
  5
383
100
AcDbEntity
  8
RACCORDO
100
AcDbEllipse
 62
7
  6
CONTINUOUS
 10
55.4291530938
 20
-22.8142296244
 30
0.0
 11
0.2121966568
 21
-0.2121966568
 31
0.0
 40
0.9996954599
 41
-0.7852458701
 42
0.7852458701
  0
ELLIPSE
  5
384
100
AcDbEntity
  8
RACCORDO
100
AcDbEllipse
 62
7
  6
CONTINUOUS
 10
-56.7550459509
 20
21.7699694203
 30
0.0
 11
0.2121966568
 21
-0.2121966568
 31
0.0
 40
0.9996954599
 41
2.3563467834
 42
3.9268385237
  0
ELLIPSE
  5
385
100
AcDbEntity
  8
RACCORDO
100
AcDbEllipse
 62
7
  6
CONTINUOUS
 10
-56.7550459509
 20
-22.8142296244
 30
0.0
 11
-0.2121966568
 21
-0.2121966568
 31
0.0
 40
0.9996954599
 41
-0.7852458701
 42
0.7852458701
  0
ELLIPSE
  5
386
100
AcDbEntity
  8
RACCORDO
100
AcDbEllipse
 62
7
  6
CONTINUOUS
 10
58.3029095652
 20
25.0437258917
 30
0.0
 11
0.4951255324
 21
0.4951255324
 31
0.0
 40
0.9996954599
 41
-0.7852458701
 42
0.7852458701
  0
ELLIPSE
  5
387
100
AcDbEntity
  8
RACCORDO
100
AcDbEllipse
 62
7
  6
CONTINUOUS
 10
58.3029095652
 20
-26.0879860958
 30
0.0
 11
0.4951255324
 21
-0.4951255324
 31
0.0
 40
0.9996954599
 41
-0.7852458701
 42
0.7852458701
  0
ELLIPSE
  5
388
100
AcDbEntity
  8
RACCORDO
100
AcDbEllipse
 62
7
  6
CONTINUOUS
 10
-59.6288024223
 20
-26.0879860958
 30
0.0
 11
0.4951255324
 21
0.4951255324
 31
0.0
 40
0.9996954599
 41
2.3563467834
 42
3.9268385237
  0
ELLIPSE
  5
389
100
AcDbEntity
  8
RACCORDO
100
AcDbEllipse
 62
7
  6
CONTINUOUS
 10
-59.6288024223
 20
25.0437258917
 30
0.0
 11
0.4951255324
 21
-0.4951255324
 31
0.0
 40
0.9996954599
 41
2.3563467834
 42
3.9268385237
  0
ELLIPSE
  5
38A
100
AcDbEntity
  8
0
100
AcDbEllipse
 62
7
  6
CONTINUOUS
 10
-108.3494260204
 20
25.4693083421
 30
0.0
 11
-0.1417119467
 21
0.1422961243
 31
0.0
 40
0.9918061237
 41
-3.8766878413
 42
-2.358251392
  0
ELLIPSE
  5
38B
100
AcDbEntity
  8
0
100
AcDbEllipse
 62
7
  6
CONTINUOUS
 10
-108.3494260204
 20
-26.5135685461
 30
0.0
 11
0.1417119467
 21
0.1422961243
 31
0.0
 40
0.9918061237
 41
-0.7833412616
 42
0.7350951877
  0
ENDSEC
  0
SECTION
  2
OBJECTS
  0
DICTIONARY
  5
C
100
AcDbDictionary
280
0
281
1
  3
ACAD_GROUP
350
D
  3
ACAD_MLINESTYLE
350
17
  3
ACAD_LAYOUT
350
1A
  3
ACAD_PLOTSETTINGS
350
19
  3
ACAD_PLOTSTYLENAME
350
E
  0
DICTIONARY
  5
D
102
{ACAD_REACTORS
330
C
102
}
100
AcDbDictionary
280
0
281
1
  0
ACDBDICTIONARYWDFLT
  5
E
102
{ACAD_REACTORS
330
C
102
}
100
AcDbDictionary
281
1
  3
Normal
350
F
100
AcDbDictionaryWithDefault
340
F
  0
DICTIONARY
  5
17
102
{ACAD_REACTORS
330
C
102
}
100
AcDbDictionary
280
0
281
1
  3
Standard
350
18
  0
DICTIONARY
  5
19
102
{ACAD_REACTORS
330
C
102
}
100
AcDbDictionary
281
1
  0
DICTIONARY
  5
1A
102
{ACAD_REACTORS
330
C
102
}
100
AcDbDictionary
281
1
  3
Model
350
38C
  3
Layout1
350
38D
  0
ACDBPLACEHOLDER
  5
F
102
{ACAD_REACTORS
330
E
102
}
  0
MLINESTYLE
  5
18
102
{ACAD_REACTORS
330
17
102
}
100
AcDbMlineStyle
  2
STANDARD
 70
0
  3

 62
256
 51
90.0
 52
90.0
 71
2
 49
0.5
 62
256
  6
BYLAYER
 49
-0.5
 62
256
  6
BYLAYER
  0
LAYOUT
  5
38C
102
{ACAD_REACTORS
330
1A
102
}
100
AcDbPlotSettings
  1

  2
none_device
  4
ISO_A4_(297.00_x_210.00_MM)
  6

 40
0.0
 41
0.0
 42
0.0
 43
0.0
 44
297.0
 45
210.0
 46
0.0
 47
0.0
 48
0.0
 49
0.0
140
0.0
141
0.0
142
1.0
143
1.0
 70
1024
 72
1
 73
0
 74
0
  7

 75
0
147
1.0
148
0.0
149
0.0
100
AcDbLayout
  1
Model
 70
0
 71
0
 10
0.0
 20
0.0
 11
297.0
 21
210.0
 12
0.0
 22
0.0
 32
0.0
 14
0.0
 24
0.0
 34
0.0
 15
0.0
 25
0.0
 35
0.0
146
0.0
 13
0.0
 23
0.0
 33
0.0
 16
1.0
 26
0.0
 36
0.0
 17
0.0
 27
1.0
 37
0.0
 76
0
330
215
345
0
346
0
  0
LAYOUT
  5
38D
102
{ACAD_REACTORS
330
1A
102
}
100
AcDbPlotSettings
  1

  2
none_device
  4
ISO_A4_(297.00_x_210.00_MM)
  6

 40
0.0
 41
0.0
 42
0.0
 43
0.0
 44
297.0
 45
210.0
 46
0.0
 47
0.0
 48
0.0
 49
0.0
140
0.0
141
0.0
142
1.0
143
1.0
 70
0
 72
1
 73
0
 74
0
  7

 75
0
147
1.0
148
0.0
149
0.0
100
AcDbLayout
  1
Layout1
 70
0
 71
1
 10
0.0
 20
0.0
 11
297.0
 21
210.0
 12
0.0
 22
0.0
 32
0.0
 14
0.0
 24
0.0
 34
0.0
 15
0.0
 25
0.0
 35
0.0
146
0.0
 13
0.0
 23
0.0
 33
0.0
 16
1.0
 26
0.0
 36
0.0
 17
0.0
 27
1.0
 37
0.0
 76
0
330
216
345
0
346
0
  0
ENDSEC
  0
EOF
