  0
SECTION
  2
HEADER
  9
$ACADVER
  1
AC1015
  9
$DWGCODEPAGE
  3
ANSI_1252
  9
$EXTMAX
 10
297.0
 20
210.0
 30
0.0
  9
$EXTMIN
 10
0.0
 20
0.0
 30
0.0
  9
$LIMMIN
 10
0.0
 20
0.0
  9
$LIMMAX
 10
297.0
 20
210.0
  9
$VIEWCTR
 10
148.5
 20
105.0
  9
$VIEWSIZE
 40
210.0
  9
$CLAYER
  8
0
  9
$LTSCALE
 40
16.335
  9
$CELTYPE
  6
BYLAYER
  9
$DIMSCALE
 40
1.0
  9
$DIMASZ
 40
3.0
  9
$DIMEXO
 40
0.5
  9
$DIMDLI
 40
11.286
  9
$DIMEXE
 40
1.5
  9
$DIMCEN
 40
2.673
  9
$DIMLFAC
 40
1.0
  9
$DIMBLK
  1
_FILLED
  9
$DIMTXT
 40
3.0
  9
$DIMTOL
 70
1
  9
$DIMLIM
 70
0
  9
$DIMTFAC
 40
1.0
  9
$DIMTP
 40
0.01
  9
$DIMTM
 40
0.01
  9
$DIMGAP
 40
0.625
  9
$DIMDSEP
 70
44
  9
$PDMODE
 70
3
  9
$PDSIZE
 40
3.0
  9
$HANDSEED
  5
377
  9
$TILEMODE
 70
1
  9
$MEASUREMENT
 70
1
  9
$INSUNITS
 70
4
  0
ENDSEC
  0
SECTION
  2
CLASSES
  0
CLASS
  1
ACDBDICTIONARYWDFLT
  2
AcDbDictionaryWithDefault
  3
AutoCAD 2000
 90
0
280
0
281
0
  0
CLASS
  1
ACDBPLACEHOLDER
  2
AcDbPlaceHolder
  3
AutoCAD 2000
 90
0
280
0
281
0
  0
CLASS
  1
LAYOUT
  2
AcDbLayout
  3
AutoCAD 2000
 90
0
280
0
281
0
  0
ENDSEC
  0
SECTION
  2
TABLES
  0
TABLE
  2
VPORT
  5
8
100
AcDbSymbolTable
 70
2
  0
VPORT
  5
1F4
100
AcDbSymbolTableRecord
100
AcDbViewportTableRecord
  2
*ACTIVE
 70
0
 10
0.0
 20
0.0
 11
1.0
 21
1.0
 12
148.5
 22
105.0
 13
0.0
 23
0.0
 14
1.0
 24
1.0
 15
0.0
 25
0.0
 16
0.0
 26
0.0
 36
1.0
 17
0.0
 27
0.0
 37
0.0
 40
210.0
 41
1.4142857143
 42
50.0
 43
0.0
 44
0.0
 50
0.0
 51
0.0
 71
0
 72
100
 73
1
 74
1
 75
0
 76
0
 77
0
 78
0
  0
ENDTAB
  0
TABLE
  2
LTYPE
  5
5
100
AcDbSymbolTable
 70
6
  0
LTYPE
  5
14
100
AcDbSymbolTableRecord
100
AcDbLinetypeTableRecord
  2
BYBLOCK
 70
0
  3

 72
65
 73
0
 40
0.0
  0
LTYPE
  5
15
100
AcDbSymbolTableRecord
100
AcDbLinetypeTableRecord
  2
BYLAYER
 70
0
  3

 72
65
 73
0
 40
0.0
  0
LTYPE
  5
16
100
AcDbSymbolTableRecord
100
AcDbLinetypeTableRecord
  2
CONTINUOUS
 70
64
  3
Solid line
 72
65
 73
0
 40
0.0
  0
LTYPE
  5
1F5
100
AcDbSymbolTableRecord
100
AcDbLinetypeTableRecord
  2
CENTER
 70
64
  3
____ _ ____ _ ____ _ ____ _ ____ _ ____ _ ____
 72
65
 73
4
 40
0.6
 49
0.375
 74
0
 49
-0.075
 74
0
 49
0.075
 74
0
 49
-0.075
 74
0
  0
LTYPE
  5
1F6
100
AcDbSymbolTableRecord
100
AcDbLinetypeTableRecord
  2
HIDDEN
 70
64
  3
- - - - - - - - - - - - - - - - - - - -
 72
65
 73
2
 40
0.2
 49
0.1
 74
0
 49
-0.1
 74
0
  0
LTYPE
  5
1F7
100
AcDbSymbolTableRecord
100
AcDbLinetypeTableRecord
  2
PHANTOM
 70
64
  3
_____ _ _ _____ _ _ _____ _ _ _____
 72
65
 73
6
 40
0.8
 49
0.45
 74
0
 49
-0.05
 74
0
 49
0.1
 74
0
 49
-0.05
 74
0
 49
0.1
 74
0
 49
-0.05
 74
0
  0
LTYPE
  5
1F8
100
AcDbSymbolTableRecord
100
AcDbLinetypeTableRecord
  2
DOT
 70
64
  3
. . . . . . . . . . . . . . . . . . . .
 72
65
 73
2
 40
0.2
 49
0.1
 74
0
 49
-0.1
 74
0
  0
LTYPE
  5
1F9
100
AcDbSymbolTableRecord
100
AcDbLinetypeTableRecord
  2
DASHED
 70
64
  3
- - - - - - - - - - - - - - - - - - - -
 72
65
 73
2
 40
0.2
 49
0.1
 74
0
 49
-0.1
 74
0
  0
ENDTAB
  0
TABLE
  2
LAYER
  5
2
100
AcDbSymbolTable
 70
36
  0
LAYER
  5
10
100
AcDbSymbolTableRecord
100
AcDbLayerTableRecord
  2
0
 70
0
 62
7
  6
CONTINUOUS
370
-3
390
F
  0
LAYER
  5
1FA
100
AcDbSymbolTableRecord
100
AcDbLayerTableRecord
  2
DEFAULT_1
 70
0
 62
7
  6
CENTER
370
-3
390
F
  0
LAYER
  5
1FB
100
AcDbSymbolTableRecord
100
AcDbLayerTableRecord
  2
DEFAULT_2
 70
0
 62
7
  6
HIDDEN
370
-3
390
F
  0
LAYER
  5
1FC
100
AcDbSymbolTableRecord
100
AcDbLayerTableRecord
  2
DEFAULT_3
 70
0
 62
7
  6
PHANTOM
370
-3
390
F
  0
LAYER
  5
1FD
100
AcDbSymbolTableRecord
100
AcDbLayerTableRecord
  2
ASSI
 70
0
 62
7
  6
CONTINUOUS
370
-3
390
F
  0
LAYER
  5
1FE
100
AcDbSymbolTableRecord
100
AcDbLayerTableRecord
  2
COORDINATE
 70
0
 62
7
  6
CONTINUOUS
370
-3
390
F
  0
LAYER
  5
1FF
100
AcDbSymbolTableRecord
100
AcDbLayerTableRecord
  2
COORD_ORIGINE
 70
0
 62
7
  6
CONTINUOUS
370
-3
390
F
  0
LAYER
  5
200
100
AcDbSymbolTableRecord
100
AcDbLayerTableRecord
  2
COPY_PUBLISH
 70
0
 62
7
  6
CONTINUOUS
370
-3
390
F
  0
LAYER
  5
201
100
AcDbSymbolTableRecord
100
AcDbLayerTableRecord
  2
COSMETIC
 70
0
 62
7
  6
CONTINUOUS
370
-3
390
F
  0
LAYER
  5
202
100
AcDbSymbolTableRecord
100
AcDbLayerTableRecord
  2
COSMETICI
 70
0
 62
7
  6
CONTINUOUS
370
-3
390
F
  0
LAYER
  5
203
100
AcDbSymbolTableRecord
100
AcDbLayerTableRecord
  2
CURVE
 70
0
 62
7
  6
CONTINUOUS
370
-3
390
F
  0
LAYER
  5
204
100
AcDbSymbolTableRecord
100
AcDbLayerTableRecord
  2
DRAFT
 70
0
 62
7
  6
CONTINUOUS
370
-3
390
F
  0
LAYER
  5
205
100
AcDbSymbolTableRecord
100
AcDbLayerTableRecord
  2
IMPORT_IGES
 70
0
 62
7
  6
CONTINUOUS
370
-3
390
F
  0
LAYER
  5
206
100
AcDbSymbolTableRecord
100
AcDbLayerTableRecord
  2
INTFCLR_2
 70
0
 62
7
  6
CONTINUOUS
370
-3
390
F
  0
LAYER
  5
207
100
AcDbSymbolTableRecord
100
AcDbLayerTableRecord
  2
NOTE
 70
0
 62
7
  6
CONTINUOUS
370
-3
390
F
  0
LAYER
  5
208
100
AcDbSymbolTableRecord
100
AcDbLayerTableRecord
  2
PIANI
 70
0
 62
7
  6
CONTINUOUS
370
-3
390
F
  0
LAYER
  5
209
100
AcDbSymbolTableRecord
100
AcDbLayerTableRecord
  2
PIANI_ORIGINE
 70
0
 62
7
  6
CONTINUOUS
370
-3
390
F
  0
LAYER
  5
20A
100
AcDbSymbolTableRecord
100
AcDbLayerTableRecord
  2
PIANI_RIFERIMENTO
 70
0
 62
7
  6
CONTINUOUS
370
-3
390
F
  0
LAYER
  5
20B
100
AcDbSymbolTableRecord
100
AcDbLayerTableRecord
  2
PUNTI
 70
0
 62
7
  6
CONTINUOUS
370
-3
390
F
  0
LAYER
  5
20C
100
AcDbSymbolTableRecord
100
AcDbLayerTableRecord
  2
RACCORDO
 70
0
 62
7
  6
CONTINUOUS
370
-3
390
F
  0
LAYER
  5
20D
100
AcDbSymbolTableRecord
100
AcDbLayerTableRecord
  2
SIMBOLI
 70
0
 62
7
  6
CONTINUOUS
370
-3
390
F
  0
LAYER
  5
20E
100
AcDbSymbolTableRecord
100
AcDbLayerTableRecord
  2
SMUSSO
 70
0
 62
7
  6
CONTINUOUS
370
-3
390
F
  0
LAYER
  5
20F
100
AcDbSymbolTableRecord
100
AcDbLayerTableRecord
  2
SNAPLINE
 70
0
 62
7
  6
CONTINUOUS
370
-3
390
F
  0
LAYER
  5
210
100
AcDbSymbolTableRecord
100
AcDbLayerTableRecord
  2
SUPERFICI
 70
0
 62
7
  6
CONTINUOUS
370
-3
390
F
  0
LAYER
  5
211
100
AcDbSymbolTableRecord
100
AcDbLayerTableRecord
  2
TRASH
 70
0
 62
7
  6
CONTINUOUS
370
-3
390
F
  0
LAYER
  5
212
100
AcDbSymbolTableRecord
100
AcDbLayerTableRecord
  2
XSEC_DATUMS
 70
0
 62
7
  6
CONTINUOUS
370
-3
390
F
  0
ENDTAB
  0
TABLE
  2
STYLE
  5
3
100
AcDbSymbolTable
 70
1
  0
STYLE
  5
11
100
AcDbSymbolTableRecord
100
AcDbTextStyleTableRecord
  2
STANDARD
 70
0
 40
0.0
 41
0.8
 50
0.0
 71
0
 42
0.2
  3
txt
  4

  0
STYLE
  5
213
100
AcDbSymbolTableRecord
100
AcDbTextStyleTableRecord
  2
TEXTSTYLE_1
 70
0
 40
0.0
 41
0.8
 50
0.0
 71
0
 42
0.2
  3
gdt
  4

  0
ENDTAB
  0
TABLE
  2
VIEW
  5
6
100
AcDbSymbolTable
 70
0
  0
ENDTAB
  0
TABLE
  2
UCS
  5
7
100
AcDbSymbolTable
 70
0
  0
ENDTAB
  0
TABLE
  2
APPID
  5
9
100
AcDbSymbolTable
 70
1
  0
APPID
  5
214
100
AcDbSymbolTableRecord
100
AcDbRegAppTableRecord
  2
ACAD
 70
0
  0
ENDTAB
  0
TABLE
  2
BLOCK_RECORD
  5
1
100
AcDbSymbolTable
 70
0
  0
BLOCK_RECORD
  5
215
100
AcDbSymbolTableRecord
100
AcDbBlockTableRecord
  2
*Model_Space
  0
BLOCK_RECORD
  5
216
100
AcDbSymbolTableRecord
100
AcDbBlockTableRecord
  2
*Paper_Space
  0
BLOCK_RECORD
  5
217
100
AcDbSymbolTableRecord
100
AcDbBlockTableRecord
  2
_FILLED
  0
BLOCK_RECORD
  5
218
100
AcDbSymbolTableRecord
100
AcDbBlockTableRecord
  2
*D0
  0
BLOCK_RECORD
  5
219
100
AcDbSymbolTableRecord
100
AcDbBlockTableRecord
  2
*D1
  0
BLOCK_RECORD
  5
21A
100
AcDbSymbolTableRecord
100
AcDbBlockTableRecord
  2
*D2
  0
BLOCK_RECORD
  5
21B
100
AcDbSymbolTableRecord
100
AcDbBlockTableRecord
  2
*D3
  0
ENDTAB
  0
TABLE
  2
DIMSTYLE
  5
A
100
AcDbSymbolTable
 70
1
100
AcDbDimStyleTable
 71
0
  0
DIMSTYLE
105
21C
100
AcDbSymbolTableRecord
100
AcDbDimStyleTableRecord
  2
STANDARD
 70
0
  3

  4

 40
1.0
 41
3.0
 42
0.5
 43
0.38
 44
1.5
 45
0.0
 46
0.0
 47
0.01
 48
0.01
140
3.0
141
0.09
142
0.0
143
25.4
144
1.0
145
0.0
146
1.0
147
0.625
 71
1.0
 72
0.0
 73
0
 74
0
 75
0
 76
0
 77
1
 78
8
170
0
171
2
172
0
173
0
174
0
175
0
176
0
177
0
178
0
270
2
271
2
272
2
273
2
274
2
275
0
280
0
281
0
282
0
283
1
284
8
285
0
286
0
287
3
288
0
340
11
278
44
341
217
342
217
343
217
344
217
  0
DIMSTYLE
105
21D
100
AcDbSymbolTableRecord
100
AcDbDimStyleTableRecord
  2
DIMSTYLE_1
 70
0
  3

  4

 40
1.0
 41
3.0
 42
0.5
 43
0.38
 44
1.5
 45
0.0
 46
0.0
 47
0.0
 48
0.0
140
3.0
141
0.09
142
0.0
143
25.4
144
1.0
145
0.0
146
1.0
147
0.75
 71
0.0
 72
0.0
 73
0
 74
0
 75
0
 76
0
 77
1
 78
8
170
0
171
2
172
0
173
0
174
0
175
0
176
0
177
0
178
0
270
2
271
2
272
2
273
2
274
2
275
0
280
0
281
0
282
0
283
1
284
8
285
0
286
0
287
3
288
0
340
11
278
44
341
217
342
217
343
217
344
217
  0
ENDTAB
  0
ENDSEC
  0
SECTION
  2
BLOCKS
  0
BLOCK
  5
20
100
AcDbEntity
  8
0
100
AcDbBlockBegin
  2
*Model_Space
 70
0
 10
0.0
 20
0.0
 30
0.0
  3
*Model_Space
  1

  0
ENDBLK
  5
21
100
AcDbEntity
  8
0
100
AcDbBlockEnd
  0
BLOCK
  5
1C
100
AcDbEntity
  8
0
100
AcDbBlockBegin
  2
*Paper_Space
 70
0
 10
0.0
 20
0.0
 30
0.0
  3
*Paper_Space
  1

  0
ENDBLK
  5
1D
100
AcDbEntity
  8
0
100
AcDbBlockEnd
  0
BLOCK
  5
21E
100
AcDbEntity
  8
0
100
AcDbBlockBegin
  2
_FILLED
 70
64
 10
0.0
 20
0.0
  3
_FILLED
  1

  0
SOLID
  5
21F
100
AcDbEntity
  8
0
  6
BYBLOCK
 62
0
100
AcDbTrace
 10
0.0
 20
0.0
 11
-1.0
 21
0.3166666667
 12
-1.0
 22
-0.3166666667
 13
-1.0
 23
-0.3166666667
  0
ENDBLK
  5
220
100
AcDbEntity
  8
0
  6
BYBLOCK
 62
0
100
AcDbBlockEnd
  0
BLOCK
  5
221
100
AcDbEntity
  8
0
100
AcDbBlockBegin
 62
7
  6
CONTINUOUS
  2
*D0
 70
65
 10
0.0
 20
0.0
  3
*D0
  1

  0
MTEXT
  5
222
100
AcDbEntity
  8
0
100
AcDbMText
 62
7
  6
CONTINUOUS
  7
STANDARD
 71
2
 72
1
 10
85.7071375
 20
-0.2499445313
 30
0.0
 11
0.0
 21
1.0
 31
0.0
 44
0.9
  1
95,4
 40
3.0
 41
8.5714285714
  0
LINE
  5
223
100
AcDbEntity
  8
0
100
AcDbLine
 62
7
  6
CONTINUOUS
 10
80.9571375
 20
47.4500554687
 11
90.9571375
 21
47.4500554687
  0
LINE
  5
224
100
AcDbEntity
  8
0
100
AcDbLine
 62
7
  6
CONTINUOUS
 10
80.9571375002
 20
-47.9499445313
 11
90.9571375
 21
-47.9499445313
  0
LINE
  5
225
100
AcDbEntity
  8
0
100
AcDbLine
 62
7
  6
CONTINUOUS
 10
89.4571375
 20
47.4500554687
 11
89.4571375
 21
-0.2499445313
  0
LINE
  5
226
100
AcDbEntity
  8
0
100
AcDbLine
 62
7
  6
CONTINUOUS
 10
89.4571375
 20
-47.9499445313
 11
89.4571375
 21
-0.2499445313
  0
INSERT
  5
227
100
AcDbEntity
  8
0
100
AcDbBlockReference
 62
7
  6
CONTINUOUS
  2
_FILLED
 10
89.4571375
 20
47.4500554687
 41
3.0
 42
3.0
 43
3.0
 50
90.0
  0
INSERT
  5
228
100
AcDbEntity
  8
0
100
AcDbBlockReference
 62
7
  6
CONTINUOUS
  2
_FILLED
 10
89.4571375
 20
-47.9499445313
 41
3.0
 42
3.0
 43
3.0
 50
270.0
  0
ENDBLK
  5
229
100
AcDbEntity
  8
0
  6
BYBLOCK
 62
0
100
AcDbBlockEnd
  0
BLOCK
  5
22A
100
AcDbEntity
  8
0
100
AcDbBlockBegin
 62
7
  6
CONTINUOUS
  2
*D1
 70
65
 10
0.0
 20
0.0
  3
*D1
  1

  0
MTEXT
  5
22B
100
AcDbEntity
  8
0
100
AcDbMText
 62
7
  6
CONTINUOUS
  7
STANDARD
 71
2
 72
1
 10
-0.0428625
 20
59.2000554688
 30
0.0
 11
1.0
 21
0.0
 31
0.0
 44
0.9
  1
163
 40
3.0
 41
6.2142857143
  0
LINE
  5
22C
100
AcDbEntity
  8
0
100
AcDbLine
 62
7
  6
CONTINUOUS
 10
81.4571375
 20
46.9500554689
 11
81.4571375
 21
56.9500554688
  0
LINE
  5
22D
100
AcDbEntity
  8
0
100
AcDbLine
 62
7
  6
CONTINUOUS
 10
-81.5428625
 20
46.9500554687
 11
-81.5428625
 21
56.9500554688
  0
LINE
  5
22E
100
AcDbEntity
  8
0
100
AcDbLine
 62
7
  6
CONTINUOUS
 10
81.4571375
 20
55.4500554688
 11
-0.0428625
 21
55.4500554688
  0
LINE
  5
22F
100
AcDbEntity
  8
0
100
AcDbLine
 62
7
  6
CONTINUOUS
 10
-81.5428625
 20
55.4500554688
 11
-0.0428625
 21
55.4500554688
  0
INSERT
  5
230
100
AcDbEntity
  8
0
100
AcDbBlockReference
 62
7
  6
CONTINUOUS
  2
_FILLED
 10
81.4571375
 20
55.4500554688
 41
3.0
 42
3.0
 43
3.0
  0
INSERT
  5
231
100
AcDbEntity
  8
0
100
AcDbBlockReference
 62
7
  6
CONTINUOUS
  2
_FILLED
 10
-81.5428625
 20
55.4500554688
 41
3.0
 42
3.0
 43
3.0
 50
180.0
  0
ENDBLK
  5
232
100
AcDbEntity
  8
0
  6
BYBLOCK
 62
0
100
AcDbBlockEnd
  0
BLOCK
  5
233
100
AcDbEntity
  8
0
100
AcDbBlockBegin
 62
7
  6
CONTINUOUS
  2
*D2
 70
65
 10
0.0
 20
0.0
  3
*D2
  1

  0
MTEXT
  5
234
100
AcDbEntity
  8
0
100
AcDbMText
 62
7
  6
CONTINUOUS
  7
STANDARD
 71
2
 72
1
 10
-111.13743125
 20
59.2000554688
 30
0.0
 11
1.0
 21
0.0
 31
0.0
 44
0.9
  1
9,2
 40
3.0
 41
6.4285714286
  0
LINE
  5
235
100
AcDbEntity
  8
0
100
AcDbLine
 62
7
  6
CONTINUOUS
 10
-106.53743125
 20
45.5459447675
 11
-106.53743125
 21
56.9500554688
  0
LINE
  5
236
100
AcDbEntity
  8
0
100
AcDbLine
 62
7
  6
CONTINUOUS
 10
-115.73743125
 20
25.8090512897
 11
-115.73743125
 21
56.9500554688
  0
LINE
  5
237
100
AcDbEntity
  8
0
100
AcDbLine
 62
7
  6
CONTINUOUS
 10
-106.53743125
 20
55.4500554688
 11
-102.53743125
 21
55.4500554688
  0
LINE
  5
238
100
AcDbEntity
  8
0
100
AcDbLine
 62
7
  6
CONTINUOUS
 10
-102.53743125
 20
55.4500554688
 11
-111.13743125
 21
55.4500554688
  0
LINE
  5
239
100
AcDbEntity
  8
0
100
AcDbLine
 62
7
  6
CONTINUOUS
 10
-115.73743125
 20
55.4500554688
 11
-119.73743125
 21
55.4500554688
  0
LINE
  5
23A
100
AcDbEntity
  8
0
100
AcDbLine
 62
7
  6
CONTINUOUS
 10
-119.73743125
 20
55.4500554688
 11
-111.13743125
 21
55.4500554688
  0
INSERT
  5
23B
100
AcDbEntity
  8
0
100
AcDbBlockReference
 62
7
  6
CONTINUOUS
  2
_FILLED
 10
-106.53743125
 20
55.4500554688
 41
3.0
 42
3.0
 43
3.0
 50
180.0
  0
INSERT
  5
23C
100
AcDbEntity
  8
0
100
AcDbBlockReference
 62
7
  6
CONTINUOUS
  2
_FILLED
 10
-115.73743125
 20
55.4500554688
 41
3.0
 42
3.0
 43
3.0
  0
ENDBLK
  5
23D
100
AcDbEntity
  8
0
  6
BYBLOCK
 62
0
100
AcDbBlockEnd
  0
BLOCK
  5
23E
100
AcDbEntity
  8
0
100
AcDbBlockBegin
 62
7
  6
CONTINUOUS
  2
*D3
 70
65
 10
0.0
 20
0.0
  3
*D3
  1

  0
MTEXT
  5
23F
100
AcDbEntity
  8
0
100
AcDbMText
 62
7
  6
CONTINUOUS
  7
STANDARD
 71
2
 72
1
 10
-110.83743125
 20
69.2000554688
 30
0.0
 11
1.0
 21
0.0
 31
0.0
 44
0.9
  1
9,8
 40
3.0
 41
6.4285714286
  0
LINE
  5
240
100
AcDbEntity
  8
0
100
AcDbLine
 62
7
  6
CONTINUOUS
 10
-115.73743125
 20
25.8090512897
 11
-115.73743125
 21
66.9500554688
  0
LINE
  5
241
100
AcDbEntity
  8
0
100
AcDbLine
 62
7
  6
CONTINUOUS
 10
-105.93743125
 20
27.4000554687
 11
-105.93743125
 21
66.9500554688
  0
LINE
  5
242
100
AcDbEntity
  8
0
100
AcDbLine
 62
7
  6
CONTINUOUS
 10
-115.73743125
 20
65.4500554688
 11
-119.73743125
 21
65.4500554688
  0
LINE
  5
243
100
AcDbEntity
  8
0
100
AcDbLine
 62
7
  6
CONTINUOUS
 10
-119.73743125
 20
65.4500554688
 11
-110.83743125
 21
65.4500554688
  0
LINE
  5
244
100
AcDbEntity
  8
0
100
AcDbLine
 62
7
  6
CONTINUOUS
 10
-105.93743125
 20
65.4500554688
 11
-101.93743125
 21
65.4500554688
  0
LINE
  5
245
100
AcDbEntity
  8
0
100
AcDbLine
 62
7
  6
CONTINUOUS
 10
-101.93743125
 20
65.4500554688
 11
-110.83743125
 21
65.4500554688
  0
INSERT
  5
246
100
AcDbEntity
  8
0
100
AcDbBlockReference
 62
7
  6
CONTINUOUS
  2
_FILLED
 10
-115.73743125
 20
65.4500554688
 41
3.0
 42
3.0
 43
3.0
  0
INSERT
  5
247
100
AcDbEntity
  8
0
100
AcDbBlockReference
 62
7
  6
CONTINUOUS
  2
_FILLED
 10
-105.93743125
 20
65.4500554688
 41
3.0
 42
3.0
 43
3.0
 50
180.0
  0
ENDBLK
  5
248
100
AcDbEntity
  8
0
  6
BYBLOCK
 62
0
100
AcDbBlockEnd
  0
ENDSEC
  0
SECTION
  2
ENTITIES
  0
DIMENSION
  5
249
100
AcDbEntity
  8
0
100
AcDbDimension
 62
7
  6
CONTINUOUS
  2
*D0
 10
89.4571375
 20
-47.9499445313
 11
89.4571375
 21
-0.2499445313
 70
160
 71
2
 42
95.4
  3
DIMSTYLE_1
100
AcDbAlignedDimension
 13
80.4571375
 23
47.4500554687
 14
80.4571375002
 24
-47.9499445313
 50
270.0
100
AcDbRotatedDimension
  0
DIMENSION
  5
24A
100
AcDbEntity
  8
0
100
AcDbDimension
 62
7
  6
CONTINUOUS
  2
*D1
 10
-81.5428625
 20
55.4500554688
 11
-0.0428625
 21
55.4500554688
 70
160
 71
2
 42
163.0
  3
DIMSTYLE_1
100
AcDbAlignedDimension
 13
81.4571375
 23
46.4500554689
 14
-81.5428625
 24
46.4500554687
 50
180.0
100
AcDbRotatedDimension
  0
DIMENSION
  5
24B
100
AcDbEntity
  8
0
100
AcDbDimension
 62
7
  6
CONTINUOUS
  2
*D2
 10
-115.73743125
 20
55.4500554688
 11
-111.13743125
 21
55.4500554688
 70
160
 71
2
 42
9.2
  3
DIMSTYLE_1
100
AcDbAlignedDimension
 13
-106.53743125
 23
45.0459447675
 14
-115.73743125
 24
25.3090512897
 50
180.0
100
AcDbRotatedDimension
  0
DIMENSION
  5
24C
100
AcDbEntity
  8
0
100
AcDbDimension
 62
7
  6
CONTINUOUS
  2
*D3
 10
-105.93743125
 20
65.4500554688
 11
-110.83743125
 21
65.4500554688
 70
160
 71
2
 42
9.8
  3
DIMSTYLE_1
100
AcDbAlignedDimension
 13
-115.73743125
 23
25.3090512897
 14
-105.93743125
 24
26.9000554687
100
AcDbRotatedDimension
  0
LINE
  5
24D
100
AcDbEntity
  8
RACCORDO
100
AcDbLine
 62
7
  6
CONTINUOUS
 10
-81.5428625
 20
46.4500554688
 11
-81.5428625
 21
-46.9499445312
  0
LINE
  5
24E
100
AcDbEntity
  8
RACCORDO
100
AcDbLine
 62
253
  6
CONTINUOUS
 10
-81.0428625
 20
46.4500554688
 11
-81.0428625
 21
-46.9499445312
  0
LINE
  5
24F
100
AcDbEntity
  8
RACCORDO
100
AcDbLine
 62
253
  6
CONTINUOUS
 10
-80.5428625
 20
-47.4499445312
 11
-80.5428625
 21
-47.9499445312
  0
LINE
  5
250
100
AcDbEntity
  8
RACCORDO
100
AcDbLine
 62
253
  6
CONTINUOUS
 10
-80.5428625
 20
46.9500554688
 11
-80.5428625002
 21
47.4500554688
  0
LWPOLYLINE
  5
251
100
AcDbEntity
  8
RACCORDO
100
AcDbPolyline
 62
253
  6
CONTINUOUS
 90
22
 70
0
 10
-56.4421174827
 20
-22.5546096233
 10
-56.4413657699
 20
-22.5699853264
 10
-56.4397343013
 20
-22.5859573939
 10
-56.4371216839
 20
-22.6024691102
 10
-56.4334359246
 20
-22.6194045561
 10
-56.428572599
 20
-22.6367307719
 10
-56.4223890351
 20
-22.6544895087
 10
-56.4147563021
 20
-22.6725827247
 10
-56.4055688466
 20
-22.6908491003
 10
-56.3946909229
 20
-22.7091941216
 10
-56.3819330451
 20
-22.7275426524
 10
-56.3672727541
 20
-22.7455586576
 10
-56.3508993124
 20
-22.7627674832
 10
-56.3327693528
 20
-22.7790251908
 10
-56.3129658642
 20
-22.7940734229
 10
-56.2920486402
 20
-22.8074203466
 10
-56.2703735148
 20
-22.8188901855
 10
-56.2479054926
 20
-22.8285473699
 10
-56.2247018775
 20
-22.8363699769
 10
-56.2008810748
 20
-22.8423026679
 10
-56.1766326148
 20
-22.8462829032
 10
-56.152118767
 20
-22.8482734674
  0
LWPOLYLINE
  5
252
100
AcDbEntity
  8
RACCORDO
100
AcDbPolyline
 62
253
  6
CONTINUOUS
 90
25
 70
0
 10
-59.7017517076
 20
-25.8089403522
 10
-59.7002474738
 20
-25.8547159895
 10
-59.6957530521
 20
-25.9002947832
 10
-59.6882877732
 20
-25.9454816597
 10
-59.6778837104
 20
-25.9900832259
 10
-59.664585459
 20
-26.0339086015
 10
-59.6484499288
 20
-26.0767702314
 10
-59.6295462459
 20
-26.1184846699
 10
-59.6079553927
 20
-26.1588734098
 10
-59.583769749
 20
-26.1977636395
 10
-59.557092871
 20
-26.2349889028
 10
-59.5280389809
 20
-26.2703899056
 10
-59.4967323672
 20
-26.3038152142
 10
-59.4633070687
 20
-26.3351217184
 10
-59.4279061321
 20
-26.364175469
 10
-59.3906808635
 20
-26.3908522772
 10
-59.3517904318
 20
-26.4150379699
 10
-59.3114013885
 20
-26.4366288933
 10
-59.2696867541
 20
-26.4555325588
 10
-59.2268251423
 20
-26.471667975
 10
-59.1829999182
 20
-26.4849660838
 10
-59.1383985781
 20
-26.4953700135
 10
-59.0932119806
 20
-26.5028351851
 10
-59.0476335381
 20
-26.5073295327
 10
-59.0018583209
 20
-26.5088337388
  0
LWPOLYLINE
  5
253
100
AcDbEntity
  8
RACCORDO
100
AcDbPolyline
 62
253
  6
CONTINUOUS
 90
22
 70
0
 10
-56.7694367313
 20
22.7238704117
 10
-56.7698836055
 20
22.7506723141
 10
-56.7685209354
 20
22.7768844069
 10
-56.7654038329
 20
22.8023907385
 10
-56.7606031326
 20
22.8270964008
 10
-56.7541812086
 20
22.8508831777
 10
-56.7461906912
 20
22.8736097528
 10
-56.7367118286
 20
22.8951751704
 10
-56.7258329953
 20
22.9155095016
 10
-56.7136230515
 20
22.9345271908
 10
-56.7001817507
 20
22.9521428044
 10
-56.6855966872
 20
22.968313714
 10
-56.6699112172
 20
22.9830192172
 10
-56.653218048
 20
22.9962005056
 10
-56.6356088041
 20
23.0078119227
 10
-56.6171125389
 20
23.0178414907
 10
-56.5978274625
 20
23.0262378412
 10
-56.5778411385
 20
23.0329620173
 10
-56.5571572906
 20
23.0380000905
 10
-56.535839737
 20
23.0413090609
 10
-56.5140189162
 20
23.0428368344
 10
-56.4917987708
 20
23.0425471929
  0
LINE
  5
254
100
AcDbEntity
  8
RACCORDO
100
AcDbLine
 62
253
  6
CONTINUOUS
 10
-56.4496339726
 20
-22.5586697607
 11
-56.4495562466
 21
-22.5634691128
  0
LINE
  5
255
100
AcDbEntity
  8
RACCORDO
100
AcDbLine
 62
253
  6
CONTINUOUS
 10
-56.4421757329
 20
-22.5493034556
 11
-56.4421174827
 21
-22.5546096233
  0
LINE
  5
256
100
AcDbEntity
  8
RACCORDO
100
AcDbLine
 62
253
  6
CONTINUOUS
 10
-56.4496804584
 20
-22.5539478749
 11
-56.4496339726
 21
-22.5586697607
  0
LINE
  5
257
100
AcDbEntity
  8
RACCORDO
100
AcDbLine
 62
253
  6
CONTINUOUS
 10
-56.449695704
 20
-22.5493034556
 11
-56.4496804584
 21
-22.5539478749
  0
LINE
  5
258
100
AcDbEntity
  8
RACCORDO
100
AcDbLine
 62
7
  6
CONTINUOUS
 10
-59.7428625
 20
25.3501620821
 11
-59.7428625
 21
-25.8500511446
  0
LINE
  5
259
100
AcDbEntity
  8
RACCORDO
100
AcDbLine
 62
253
  6
CONTINUOUS
 10
-59.7017517076
 20
25.3090512897
 11
-59.7017517076
 21
-25.8089403522
  0
LINE
  5
25A
100
AcDbEntity
  8
RACCORDO
100
AcDbLine
 62
253
  6
CONTINUOUS
 10
-59.401797399
 20
25.3090512897
 11
-59.401797399
 21
-25.8089403522
  0
LINE
  5
25B
100
AcDbEntity
  8
RACCORDO
100
AcDbLine
 62
253
  6
CONTINUOUS
 10
-59.0018583206
 20
26.0089446763
 11
-59.0018583209
 21
25.7089903678
  0
LINE
  5
25C
100
AcDbEntity
  8
RACCORDO
100
AcDbLine
 62
253
  6
CONTINUOUS
 10
-59.0018583209
 20
-26.5088337388
 11
-59.0018583209
 21
-26.2088794303
  0
LINE
  5
25D
100
AcDbEntity
  8
RACCORDO
100
AcDbLine
 62
253
  6
CONTINUOUS
 10
-57.0648790488
 20
-23.2237592819
 11
-57.0648790488
 21
22.7238702194
  0
LINE
  5
25E
100
AcDbEntity
  8
RACCORDO
100
AcDbLine
 62
253
  6
CONTINUOUS
 10
-56.7694367229
 20
-23.2237594563
 11
-56.7694367229
 21
22.7238703944
  0
LINE
  5
25F
100
AcDbEntity
  8
RACCORDO
100
AcDbLine
 62
253
  6
CONTINUOUS
 10
-56.4918075092
 20
23.3244552222
 11
-56.4918075092
 21
23.0425474359
  0
LINE
  5
260
100
AcDbEntity
  8
RACCORDO
100
AcDbLine
 62
253
  6
CONTINUOUS
 10
-56.4918075092
 20
-23.8243442847
 11
-56.4918075092
 21
-23.5424364984
  0
LINE
  5
261
100
AcDbEntity
  8
RACCORDO
100
AcDbLine
 62
253
  6
CONTINUOUS
 10
-56.4421757329
 20
22.0494143931
 11
-56.4421757329
 21
-22.5493034556
  0
LINE
  5
262
100
AcDbEntity
  8
RACCORDO
100
AcDbLine
 62
7
  6
CONTINUOUS
 10
-56.4350077208
 20
-22.5421354435
 11
-56.4350077208
 21
22.042246381
  0
LINE
  5
263
100
AcDbEntity
  8
RACCORDO
100
AcDbLine
 62
253
  6
CONTINUOUS
 10
-56.1414479258
 20
-22.8484842656
 11
-56.1414479258
 21
-22.8785618028
  0
LINE
  5
264
100
AcDbEntity
  8
RACCORDO
100
AcDbLine
 62
253
  6
CONTINUOUS
 10
-56.1414479258
 20
22.3485952031
 11
-56.1414479251
 21
22.3786727403
  0
LINE
  5
265
100
AcDbEntity
  8
RACCORDO
100
AcDbLine
 62
253
  6
CONTINUOUS
 10
-56.4496890352
 20
22.0518276024
 11
-56.449695704
 21
-22.5493034556
  0
LINE
  5
266
100
AcDbEntity
  8
RACCORDO
100
AcDbLine
 62
253
  6
CONTINUOUS
 10
-56.4496558086
 20
22.0565913012
 11
-56.4496890352
 21
22.0518276024
  0
LINE
  5
267
100
AcDbEntity
  8
RACCORDO
100
AcDbLine
 62
253
  6
CONTINUOUS
 10
-56.4421174827
 20
22.0547205608
 11
-56.4421757329
 21
22.0494143931
  0
LWPOLYLINE
  5
268
100
AcDbEntity
  8
RACCORDO
100
AcDbPolyline
 62
253
  6
CONTINUOUS
 90
22
 70
0
 10
-56.4495562466
 20
-22.5634691128
 10
-56.4497932079
 20
-22.5808298655
 10
-56.4491275923
 20
-22.5987267636
 10
-56.4474568381
 20
-22.6171100843
 10
-56.4446891031
 20
-22.6358845752
 10
-56.4407158952
 20
-22.6550109826
 10
-56.4353920471
 20
-22.6744998988
 10
-56.4286073403
 20
-22.6942788109
 10
-56.4202468233
 20
-22.7141828449
 10
-56.4101362009
 20
-22.7340465478
 10
-56.3980949539
 20
-22.7538169121
 10
-56.3841038369
 20
-22.7731642801
 10
-56.3683034991
 20
-22.7915167043
 10
-56.3506434389
 20
-22.8087197786
 10
-56.3312223017
 20
-22.8245456677
 10
-56.3105782962
 20
-22.8384536085
 10
-56.2890541391
 20
-22.8502430851
 10
-56.266624853
 20
-22.8599990121
 10
-56.2433570565
 20
-22.8677109959
 10
-56.2193726142
 20
-22.8733275167
 10
-56.1948572817
 20
-22.8767795953
 10
-56.1699726287
 20
-22.8780271206
  0
LWPOLYLINE
  5
269
100
AcDbEntity
  8
RACCORDO
100
AcDbPolyline
 62
253
  6
CONTINUOUS
 90
3
 70
0
 10
-56.4495562466
 20
22.0635800503
 10
-56.4495960636
 20
22.0612713738
 10
-56.4496558086
 20
22.0565913012
  0
LWPOLYLINE
  5
26A
100
AcDbEntity
  8
RACCORDO
100
AcDbPolyline
 62
253
  6
CONTINUOUS
 90
25
 70
0
 10
-59.401797399
 20
25.3090512897
 10
-59.400928801
 20
25.335282583
 10
-59.3983832723
 20
25.3612127095
 10
-59.394160813
 20
25.386841669
 10
-59.3882294887
 20
25.4122859591
 10
-59.3806212338
 20
25.4374290822
 10
-59.3714318511
 20
25.461921546
 10
-59.3606417844
 20
25.4857455042
 10
-59.3482705899
 20
25.5089188031
 10
-59.3344727392
 20
25.5311454885
 10
-59.3192285311
 20
25.5524147524
 10
-59.3025576668
 20
25.5727374028
 10
-59.2846737214
 20
25.5918499094
 10
-59.2655590845
 20
25.6097368777
 10
-59.2452313666
 20
25.6264137022
 10
-59.2239569746
 20
25.6416630361
 10
-59.20172593
 20
25.6554638923
 10
-59.1785482114
 20
25.6678372579
 10
-59.1547201611
 20
25.6786287476
 10
-59.1302231249
 20
25.6878187199
 10
-59.1050757571
 20
25.6954268163
 10
-59.0796303623
 20
25.7013575754
 10
-59.0540043755
 20
25.7055791768
 10
-59.0280803617
 20
25.7081234409
 10
-59.0018583209
 20
25.7089903678
  0
LWPOLYLINE
  5
26B
100
AcDbEntity
  8
RACCORDO
100
AcDbPolyline
 62
253
  6
CONTINUOUS
 90
22
 70
0
 10
-57.0648790488
 20
22.7238702194
 10
-57.0629381976
 20
22.7723947056
 10
-57.0577845335
 20
22.8196244367
 10
-57.0494180564
 20
22.8655594128
 10
-57.0376968472
 20
22.910405918
 10
-57.0227628251
 20
22.9539576682
 10
-57.0050417472
 20
22.9955958106
 10
-56.9845089038
 20
23.0352634746
 10
-56.9611890047
 20
23.0730175308
 10
-56.9355819363
 20
23.1084097379
 10
-56.9077014856
 20
23.1413818178
 10
-56.8775338656
 20
23.1719920486
 10
-56.8455376019
 20
23.1999670231
 10
-56.8117227619
 20
23.2252893403
 10
-56.7760792781
 20
23.2479764012
 10
-56.7390354743
 20
23.2678070024
 10
-56.7006013495
 20
23.2847780512
 10
-56.6607669046
 20
23.2988926402
 10
-56.6199304655
 20
23.3099388443
 10
-56.5782248076
 20
23.3178460218
 10
-56.5355171555
 20
23.3226848145
 10
-56.4918075092
 20
23.3244552222
  0
LWPOLYLINE
  5
26C
100
AcDbEntity
  8
RACCORDO
100
AcDbPolyline
 62
253
  6
CONTINUOUS
 90
10
 70
0
 10
-56.4421238761
 20
-22.5546097398
 10
-56.4423378079
 20
-22.5555873757
 10
-56.4427053515
 20
-22.5565674099
 10
-56.443226394
 20
-22.5575495374
 10
-56.4439007751
 20
-22.5585334527
 10
-56.4447282877
 20
-22.5595188496
 10
-56.4457086773
 20
-22.5605054216
 10
-56.4468416428
 20
-22.5614928617
 10
-56.4481268357
 20
-22.5624808627
 10
-56.4495638611
 20
-22.5634691173
  0
LWPOLYLINE
  5
26D
100
AcDbEntity
  8
RACCORDO
100
AcDbPolyline
 62
253
  6
CONTINUOUS
 90
10
 70
0
 10
-56.442117514
 20
22.0547205614
 10
-56.4423316939
 20
22.0556978878
 10
-56.4426993815
 20
22.0566776837
 10
-56.4432204638
 20
22.057659648
 10
-56.4438947808
 20
22.0586434792
 10
-56.4447221252
 20
22.0596288752
 10
-56.4457022428
 20
22.0606155335
 10
-56.4468348326
 20
22.061603151
 10
-56.4481195464
 20
22.0625914245
 10
-56.4495559897
 20
22.0635800503
  0
LINE
  5
26E
100
AcDbEntity
  8
RACCORDO
100
AcDbLine
 62
7
  6
CONTINUOUS
 10
-80.5428625
 20
-47.9499445312
 11
80.4571375
 21
-47.9499445313
  0
LINE
  5
26F
100
AcDbEntity
  8
RACCORDO
100
AcDbLine
 62
253
  6
CONTINUOUS
 10
-80.5428625
 20
-47.4499445312
 11
80.4571375
 21
-47.4499445313
  0
LINE
  5
270
100
AcDbEntity
  8
RACCORDO
100
AcDbLine
 62
253
  6
CONTINUOUS
 10
80.9571375
 20
-46.9499445312
 11
81.4571375
 21
-46.9499445312
  0
LINE
  5
271
100
AcDbEntity
  8
RACCORDO
100
AcDbLine
 62
253
  6
CONTINUOUS
 10
-81.0428625
 20
-46.9499445313
 11
-81.5428625
 21
-46.9499445314
  0
LINE
  5
272
100
AcDbEntity
  8
RACCORDO
100
AcDbLine
 62
253
  6
CONTINUOUS
 10
-56.7694367229
 20
-23.2237594563
 11
-56.4495562466
 21
-22.5634691128
  0
LINE
  5
273
100
AcDbEntity
  8
RACCORDO
100
AcDbLine
 62
253
  6
CONTINUOUS
 10
-56.491797862
 20
-23.5424364984
 11
-56.1699725675
 21
-22.8780269969
  0
LINE
  5
274
100
AcDbEntity
  8
RACCORDO
100
AcDbLine
 62
253
  6
CONTINUOUS
 10
-56.4495562466
 20
22.0635800503
 11
-56.7694367229
 21
22.7238703944
  0
LINE
  5
275
100
AcDbEntity
  8
RACCORDO
100
AcDbLine
 62
253
  6
CONTINUOUS
 10
-56.1699725586
 20
22.3781379399
 11
-56.4917988885
 21
23.0425474359
  0
LWPOLYLINE
  5
276
100
AcDbEntity
  8
0
100
AcDbPolyline
 62
7
  6
CONTINUOUS
 90
10
 70
0
 10
3.5895221102
 20
-25.0725318373
 10
3.5987279295
 20
-25.0705226877
 10
3.6079586
 20
-25.0674281795
 10
3.6172141218
 20
-25.0632483127
 10
3.6264772671
 20
-25.0577952987
 10
3.6357652637
 20
-25.0512569262
 10
3.6451297949
 20
-25.0441965609
 10
3.6545789407
 20
-25.0367214146
 10
3.6641046212
 20
-25.0287242756
 10
3.6834860175
 20
-25.0120101643
  0
LWPOLYLINE
  5
277
100
AcDbEntity
  8
RACCORDO
100
AcDbPolyline
 62
253
  6
CONTINUOUS
 90
22
 70
0
 10
56.066393767
 20
-22.8482734674
 10
56.090370679
 20
-22.8463482601
 10
56.1140836493
 20
-22.8425219434
 10
56.1373815334
 20
-22.8368321486
 10
56.1600743647
 20
-22.8293446151
 10
56.1820672069
 20
-22.8201102824
 10
56.2033466995
 20
-22.809130581
 10
56.2239148919
 20
-22.796359366
 10
56.24346665
 20
-22.7819367426
 10
56.2615761314
 20
-22.7662070895
 10
56.278183497
 20
-22.7493210161
 10
56.2932292012
 20
-22.7314394709
 10
56.3064422774
 20
-22.7130606789
 10
56.3178268751
 20
-22.6944828653
 10
56.3275263862
 20
-22.6757979555
 10
56.3355932115
 20
-22.6572387191
 10
56.3421207052
 20
-22.6390178885
 10
56.3472580508
 20
-22.621204333
 10
56.3511465992
 20
-22.6037872506
 10
56.3538966296
 20
-22.5868148407
 10
56.3556090407
 20
-22.5704017331
 10
56.3563924827
 20
-22.5546096233
  0
LWPOLYLINE
  5
278
100
AcDbEntity
  8
RACCORDO
100
AcDbPolyline
 62
253
  6
CONTINUOUS
 90
22
 70
0
 10
56.084239421
 20
-22.8780273368
 10
56.1085850866
 20
-22.8768297253
 10
56.1325669587
 20
-22.8735259421
 10
56.1560343728
 20
-22.8681563908
 10
56.1788008543
 20
-22.8607936236
 10
56.20076799
 20
-22.8514842894
 10
56.2219135871
 20
-22.8402173055
 10
56.2422336315
 20
-22.8269338804
 10
56.2614322713
 20
-22.811791546
 10
56.2790959456
 20
-22.79516312
 10
56.2951514181
 20
-22.7771699301
 10
56.3095478275
 20
-22.7579891617
 10
56.3220538662
 20
-22.7382045555
 10
56.3326668281
 20
-22.718102701
 10
56.3415277166
 20
-22.6977621198
 10
56.3487322588
 20
-22.6774929527
 10
56.3543838027
 20
-22.6575101282
 10
56.3586113105
 20
-22.6378566635
 10
56.3615594665
 20
-22.6185593404
 10
56.3633434116
 20
-22.5996744386
 10
56.3640639599
 20
-22.5812929926
 10
56.3638312466
 20
-22.5634691134
  0
LWPOLYLINE
  5
279
100
AcDbEntity
  8
RACCORDO
100
AcDbPolyline
 62
253
  6
CONTINUOUS
 90
25
 70
0
 10
58.9161333209
 20
-26.5088337388
 10
58.9619089583
 20
-26.5073295051
 10
59.007487752
 20
-26.5028350833
 10
59.0526746285
 20
-26.4953698044
 10
59.0972761947
 20
-26.4849657417
 10
59.1411015703
 20
-26.4716674902
 10
59.1839632002
 20
-26.45553196
 10
59.2256776386
 20
-26.4366282772
 10
59.2660663786
 20
-26.4150374239
 10
59.3049566082
 20
-26.3908517803
 10
59.3421818716
 20
-26.3641749022
 10
59.3775828744
 20
-26.3351210121
 10
59.4110081829
 20
-26.3038143985
 10
59.4423146871
 20
-26.2703891
 10
59.4713684378
 20
-26.2349881633
 10
59.4980452459
 20
-26.1977628948
 10
59.5222309387
 20
-26.158872463
 10
59.543821862
 20
-26.1184834197
 10
59.5627255276
 20
-26.0767687854
 10
59.5788609437
 20
-26.0339071735
 10
59.5921590526
 20
-25.9900819494
 10
59.6025629823
 20
-25.9454806094
 10
59.6100281538
 20
-25.9002940118
 10
59.6145225015
 20
-25.8547155693
 10
59.6160267076
 20
-25.8089403522
  0
LINE
  5
27A
100
AcDbEntity
  8
RACCORDO
100
AcDbLine
 62
7
  6
CONTINUOUS
 10
-59.0429691134
 20
-26.5499445312
 11
58.9572441134
 21
-26.5499445313
  0
LINE
  5
27B
100
AcDbEntity
  8
RACCORDO
100
AcDbLine
 62
253
  6
CONTINUOUS
 10
-59.0018583209
 20
-26.5088337388
 11
58.9161333209
 21
-26.5088337388
  0
LINE
  5
27C
100
AcDbEntity
  8
RACCORDO
100
AcDbLine
 62
253
  6
CONTINUOUS
 10
-59.0018583209
 20
-26.2088794303
 11
58.9161333209
 21
-26.2088794303
  0
LINE
  5
27D
100
AcDbEntity
  8
0
100
AcDbLine
 62
7
  6
CONTINUOUS
 10
-3.4895895
 20
-26.0651185313
 11
-3.1033235
 21
-26.0651185313
  0
LINE
  5
27E
100
AcDbEntity
  8
0
100
AcDbLine
 62
7
  6
CONTINUOUS
 10
-2.2656965
 20
-26.0651185313
 11
-1.8273805
 21
-26.0651185313
  0
LINE
  5
27F
100
AcDbEntity
  8
0
100
AcDbLine
 62
7
  6
CONTINUOUS
 10
-1.5914215
 20
-26.0651185313
 11
-1.1720965
 21
-26.0651185313
  0
LINE
  5
280
100
AcDbEntity
  8
0
100
AcDbLine
 62
7
  6
CONTINUOUS
 10
-0.5633105
 20
-26.0651185313
 11
-0.5018375
 21
-26.0651185313
  0
LINE
  5
281
100
AcDbEntity
  8
0
100
AcDbLine
 62
7
  6
CONTINUOUS
 10
0.1093735
 20
-26.0651185313
 11
0.5381625
 21
-26.0651185313
  0
LINE
  5
282
100
AcDbEntity
  8
0
100
AcDbLine
 62
7
  6
CONTINUOUS
 10
0.6069895
 20
-26.0651185313
 11
1.0405495
 21
-26.0651185313
  0
LINE
  5
283
100
AcDbEntity
  8
0
100
AcDbLine
 62
7
  6
CONTINUOUS
 10
1.8719575
 20
-26.0651185313
 11
2.3339235
 21
-26.0651185313
  0
LINE
  5
284
100
AcDbEntity
  8
0
100
AcDbLine
 62
7
  6
CONTINUOUS
 10
2.462634376
 20
-26.065118929
 11
2.8991862595
 21
-26.065118929
  0
LINE
  5
285
100
AcDbEntity
  8
0
100
AcDbLine
 62
7
  6
CONTINUOUS
 10
3.570406038
 20
-26.065118929
 11
3.9920146327
 21
-26.065118929
  0
LINE
  5
286
100
AcDbEntity
  8
RACCORDO
100
AcDbLine
 62
253
  6
CONTINUOUS
 10
-59.7017517076
 20
-25.8089403518
 11
-59.401797399
 21
-25.8089403522
  0
LINE
  5
287
100
AcDbEntity
  8
RACCORDO
100
AcDbLine
 62
253
  6
CONTINUOUS
 10
59.6160267076
 20
-25.8089403522
 11
59.316072399
 21
-25.8089403522
  0
LINE
  5
288
100
AcDbEntity
  8
0
100
AcDbLine
 62
7
  6
CONTINUOUS
 10
1.1614975
 20
-25.6459195312
 11
1.7584105
 21
-25.6459195312
  0
LINE
  5
289
100
AcDbEntity
  8
0
100
AcDbLine
 62
7
  6
CONTINUOUS
 10
1.6708135
 20
-25.3215445312
 11
1.2511575
 21
-25.3215445312
  0
LINE
  5
28A
100
AcDbEntity
  8
0
100
AcDbLine
 62
7
  6
CONTINUOUS
 10
2.8991862595
 20
-25.2433640183
 11
3.1342005743
 21
-25.2433640183
  0
LINE
  5
28B
100
AcDbEntity
  8
0
100
AcDbLine
 62
7
  6
CONTINUOUS
 10
3.1351453554
 20
-24.8994636743
 11
2.884652376
 21
-24.8994636743
  0
LWPOLYLINE
  5
28C
100
AcDbEntity
  8
RACCORDO
100
AcDbPolyline
 62
253
  6
CONTINUOUS
 90
25
 70
0
 10
-59.0018583209
 20
-26.2088794303
 10
-59.0280896143
 20
-26.2080108322
 10
-59.0540197407
 20
-26.2054653036
 10
-59.0796487002
 20
-26.2012428442
 10
-59.1050929903
 20
-26.19531152
 10
-59.1302361135
 20
-26.187703265
 10
-59.1547285772
 20
-26.1785138823
 10
-59.1785525355
 20
-26.1677238156
 10
-59.2017258343
 20
-26.1553526212
 10
-59.2239525197
 20
-26.1415547705
 10
-59.2452217836
 20
-26.1263105624
 10
-59.2655444341
 20
-26.109639698
 10
-59.2846569407
 20
-26.0917557527
 10
-59.302543909
 20
-26.0726411158
 10
-59.3192207334
 20
-26.0523133978
 10
-59.3344700673
 20
-26.0310390058
 10
-59.3482709235
 20
-26.0088079613
 10
-59.3606442892
 20
-25.9856302427
 10
-59.3714357789
 20
-25.9618021923
 10
-59.3806257512
 20
-25.9373051562
 10
-59.3882338475
 20
-25.9121577883
 10
-59.3941646066
 20
-25.8867123935
 10
-59.398386208
 20
-25.8610864067
 10
-59.4009304721
 20
-25.8351623929
 10
-59.401797399
 20
-25.8089403522
  0
LWPOLYLINE
  5
28D
100
AcDbEntity
  8
RACCORDO
100
AcDbPolyline
 62
253
  6
CONTINUOUS
 90
7
 70
0
 10
-56.1699725675
 20
-22.8780269969
 10
-56.1652264041
 20
-22.8781865171
 10
-56.1604770633
 20
-22.878317883
 10
-56.1557245451
 20
-22.8784210946
 10
-56.1509688494
 20
-22.8784961517
 10
-56.1462099763
 20
-22.8785430544
 10
-56.1414479258
 20
-22.8785618028
  0
LWPOLYLINE
  5
28E
100
AcDbEntity
  8
RACCORDO
100
AcDbPolyline
 62
253
  6
CONTINUOUS
 90
7
 70
0
 10
-56.152118767
 20
-22.8482734674
 10
-56.1503485229
 20
-22.8483384539
 10
-56.1485749042
 20
-22.8483915402
 10
-56.1467979729
 20
-22.848432695
 10
-56.145017791
 20
-22.8484618877
 10
-56.143234421
 20
-22.848479088
 10
-56.1414479258
 20
-22.8484842656
  0
LWPOLYLINE
  5
28F
100
AcDbEntity
  8
RACCORDO
100
AcDbPolyline
 62
253
  6
CONTINUOUS
 90
22
 70
0
 10
-56.4918075092
 20
-23.8243442847
 10
-56.5355017826
 20
-23.8225749073
 10
-56.578194483
 20
-23.8177395335
 10
-56.6198856107
 20
-23.8098381634
 10
-56.6607046376
 20
-23.7988026608
 10
-56.7005220916
 20
-23.7847011619
 10
-56.7389495566
 20
-23.767738075
 10
-56.776005535
 20
-23.7479051812
 10
-56.8116715244
 20
-23.7252106995
 10
-56.8455036002
 20
-23.6998836953
 10
-56.8775044474
 20
-23.6719110151
 10
-56.907671381
 20
-23.6413058124
 10
-56.9355524219
 20
-23.6083366136
 10
-56.9611641623
 20
-23.5729430449
 10
-56.9844900098
 20
-23.5351854802
 10
-57.005028209
 20
-23.4955135672
 10
-57.0227535165
 20
-23.4538705511
 10
-57.0376911756
 20
-23.4103131868
 10
-57.0494151609
 20
-23.3654613864
 10
-57.057783464
 20
-23.3195217876
 10
-57.0629380933
 20
-23.2722877527
 10
-57.0648790488
 20
-23.2237592819
  0
LWPOLYLINE
  5
290
100
AcDbEntity
  8
0
100
AcDbPolyline
 62
7
  6
CONTINUOUS
 90
13
 70
0
 10
3.1342005743
 20
-25.2433640183
 10
3.1614783063
 20
-25.2448969978
 10
3.1874070345
 20
-25.2488652804
 10
3.2119867589
 20
-25.2552688658
 10
3.2350968582
 20
-25.2640388572
 10
3.2568579537
 20
-25.2752441516
 10
3.2776319092
 20
-25.2890914398
 10
3.2976700127
 20
-25.3056380173
 10
3.3167209762
 20
-25.3248265887
 10
3.3343927999
 20
-25.3466919585
 10
3.3505548172
 20
-25.3712457283
 10
3.3653376947
 20
-25.3984762964
 10
3.3787414324
 20
-25.428383663
  0
LINE
  5
291
100
AcDbEntity
  8
RACCORDO
100
AcDbLine
 62
253
  6
CONTINUOUS
 10
-56.4421757329
 20
-22.5493034556
 11
-56.4350077208
 21
-22.5421354435
  0
LINE
  5
292
100
AcDbEntity
  8
RACCORDO
100
AcDbLine
 62
253
  6
CONTINUOUS
 10
-59.7017517076
 20
-25.8089403522
 11
-59.7428625
 21
-25.8500511446
  0
LINE
  5
293
100
AcDbEntity
  8
RACCORDO
100
AcDbLine
 62
253
  6
CONTINUOUS
 10
-56.1414479258
 20
-22.8484842656
 11
-56.1350534122
 21
-22.842089752
  0
LINE
  5
294
100
AcDbEntity
  8
RACCORDO
100
AcDbLine
 62
253
  6
CONTINUOUS
 10
-59.0018583209
 20
-26.5088337388
 11
-59.0429691134
 21
-26.5499445312
  0
LWPOLYLINE
  5
295
100
AcDbEntity
  8
0
100
AcDbPolyline
 62
7
  6
CONTINUOUS
 90
10
 70
0
 10
2.884652376
 20
-24.323021193
 10
2.9234242895
 20
-24.3165783315
 10
2.9620155982
 20
-24.3113988603
 10
3.0004263019
 20
-24.3074827795
 10
3.0386217612
 20
-24.3048247995
 10
3.0766366155
 20
-24.3034302099
 10
3.1145747837
 20
-24.3033148789
 10
3.1524709054
 20
-24.304484096
 10
3.1902903409
 20
-24.3069325717
 10
3.2280330903
 20
-24.3106603061
  0
LWPOLYLINE
  5
296
100
AcDbEntity
  8
RACCORDO
100
AcDbPolyline
 62
253
  6
CONTINUOUS
 90
22
 70
0
 10
-56.4917977302
 20
-23.5424362264
 10
-56.5140115519
 20
-23.5427260355
 10
-56.5358256814
 20
-23.5411996192
 10
-56.5571362879
 20
-23.537893291
 10
-56.5778111238
 20
-23.5328599778
 10
-56.5977885342
 20
-23.5261422502
 10
-56.6170704813
 20
-23.5177510708
 10
-56.63557331
 20
-23.5077217699
 10
-56.6531936337
 20
-23.4961067633
 10
-56.6698947432
 20
-23.4829224678
 10
-56.6855820608
 20
-23.4682179748
 10
-56.7001668247
 20
-23.4520500956
 10
-56.7136088013
 20
-23.434436596
 10
-56.7258212368
 20
-23.4154184758
 10
-56.7367029646
 20
-23.3950823607
 10
-56.7461844148
 20
-23.3735146611
 10
-56.7541770621
 20
-23.3507855033
 10
-56.7606007281
 20
-23.3269957111
 10
-56.7654026686
 20
-23.3022871126
 10
-56.7685205373
 20
-23.2767781417
 10
-56.7698835776
 20
-23.2505635978
 10
-56.7694367313
 20
-23.2237594735
  0
LWPOLYLINE
  5
297
100
AcDbEntity
  8
RACCORDO
100
AcDbPolyline
 62
253
  6
CONTINUOUS
 90
6
 70
0
 10
56.0604268346
 20
-22.8785471195
 10
56.0651502755
 20
-22.8785026702
 10
56.0698932485
 20
-22.878428455
 10
56.0746557538
 20
-22.8783244739
 10
56.0794377911
 20
-22.8781907268
 10
56.0842393607
 20
-22.8780272139
  0
LWPOLYLINE
  5
298
100
AcDbEntity
  8
RACCORDO
100
AcDbPolyline
 62
253
  6
CONTINUOUS
 90
6
 70
0
 10
56.057490015
 20
-22.8484793012
 10
56.0592617431
 20
-22.8484624139
 10
56.0610380471
 20
-22.8484334953
 10
56.0628188629
 20
-22.8483924369
 10
56.0646041251
 20
-22.8483391304
 10
56.066393767
 20
-22.8482734674
  0
LINE
  5
299
100
AcDbEntity
  8
0
100
AcDbLine
 62
7
  6
CONTINUOUS
 10
1.6896455
 20
-23.9652955312
 11
1.2656285
 21
-23.9652955312
  0
LINE
  5
29A
100
AcDbEntity
  8
0
100
AcDbLine
 62
7
  6
CONTINUOUS
 10
0.3418055
 20
-23.9652955312
 11
-0.0918645
 21
-23.9652955312
  0
LINE
  5
29B
100
AcDbEntity
  8
0
100
AcDbLine
 62
7
  6
CONTINUOUS
 10
-0.9638665
 20
-23.9652955312
 11
-1.4018195
 21
-23.9652955312
  0
LINE
  5
29C
100
AcDbEntity
  8
0
100
AcDbLine
 62
7
  6
CONTINUOUS
 10
-2.4283555
 20
-23.9652955312
 11
-2.8663725
 21
-23.9652955312
  0
LINE
  5
29D
100
AcDbEntity
  8
0
100
AcDbLine
 62
7
  6
CONTINUOUS
 10
-3.6791285
 20
-23.9652955312
 11
-4.1552745
 21
-23.9652955312
  0
LINE
  5
29E
100
AcDbEntity
  8
0
100
AcDbLine
 62
7
  6
CONTINUOUS
 10
-1.8273805
 20
-23.9651695312
 11
-2.2656965
 21
-23.9651695312
  0
LINE
  5
29F
100
AcDbEntity
  8
RACCORDO
100
AcDbLine
 62
253
  6
CONTINUOUS
 10
56.4060825092
 20
-23.8243442847
 11
-56.4918075092
 21
-23.8243442847
  0
LINE
  5
2A0
100
AcDbEntity
  8
RACCORDO
100
AcDbLine
 62
253
  6
CONTINUOUS
 10
56.4060874984
 20
-23.5424364984
 11
-56.491797862
 21
-23.5424364984
  0
LINE
  5
2A1
100
AcDbEntity
  8
RACCORDO
100
AcDbLine
 62
253
  6
CONTINUOUS
 10
-57.0648790488
 20
-23.2237592819
 11
-56.7694367229
 21
-23.2237592819
  0
LINE
  5
2A2
100
AcDbEntity
  8
RACCORDO
100
AcDbLine
 62
253
  6
CONTINUOUS
 10
56.9791540488
 20
-23.2237592819
 11
56.6837117229
 21
-23.2237592819
  0
LINE
  5
2A3
100
AcDbEntity
  8
RACCORDO
100
AcDbLine
 62
253
  6
CONTINUOUS
 10
-56.1414479258
 20
-22.8785618028
 11
56.0604268346
 21
-22.8785471195
  0
LINE
  5
2A4
100
AcDbEntity
  8
RACCORDO
100
AcDbLine
 62
253
  6
CONTINUOUS
 10
-56.1414479258
 20
-22.8484842656
 11
56.057490015
 21
-22.8484793012
  0
LINE
  5
2A5
100
AcDbEntity
  8
RACCORDO
100
AcDbLine
 62
7
  6
CONTINUOUS
 10
56.0493284122
 20
-22.842089752
 11
-56.1350534122
 21
-22.842089752
  0
LINE
  5
2A6
100
AcDbEntity
  8
RACCORDO
100
AcDbLine
 62
253
  6
CONTINUOUS
 10
56.3564507329
 20
-22.5493034556
 11
56.363970704
 21
-22.5493034556
  0
LINE
  5
2A7
100
AcDbEntity
  8
RACCORDO
100
AcDbLine
 62
253
  6
CONTINUOUS
 10
-56.4421757329
 20
-22.5493034556
 11
-56.449695704
 21
-22.5493034556
  0
LWPOLYLINE
  5
2A8
100
AcDbEntity
  8
0
100
AcDbPolyline
 62
7
  6
CONTINUOUS
 90
16
 70
0
 10
3.2280330903
 20
-24.3106603061
 10
3.2569941741
 20
-24.3156635284
 10
3.2844469504
 20
-24.3227822695
 10
3.3103914192
 20
-24.3320165292
 10
3.334988761
 20
-24.3435051405
 10
3.3580777953
 20
-24.3571092704
 10
3.3791749807
 20
-24.3724124208
 10
3.3981049085
 20
-24.3893130369
 10
3.4150429875
 20
-24.4079126735
 10
3.4300319021
 20
-24.4280994959
 10
3.4432151239
 20
-24.4501760651
 10
3.4544491814
 20
-24.4738398203
 10
3.4633463448
 20
-24.4980712438
 10
3.4697773709
 20
-24.5225304963
 10
3.4738715029
 20
-24.5475574172
 10
3.4756287408
 20
-24.5731520064
  0
LWPOLYLINE
  5
2A9
100
AcDbEntity
  8
0
100
AcDbPolyline
 62
7
  6
CONTINUOUS
 90
16
 70
0
 10
3.5443300779
 20
-24.0119362482
 10
3.4899660202
 20
-23.9944956559
 10
3.4328288164
 20
-23.979561853
 10
3.3729184662
 20
-23.9671348393
 10
3.3100870819
 20
-23.957344757
 10
3.2444825513
 20
-23.950061464
 10
3.1765485383
 20
-23.9448945345
 10
3.1064310011
 20
-23.9417217296
 10
3.0339839815
 20
-23.9406652883
 10
2.9592132685
 20
-23.941701502
 10
2.8820900003
 20
-23.9448961253
 10
2.8026430387
 20
-23.9501834036
 10
2.720964758
 20
-23.9573423644
 10
2.6370859497
 20
-23.9662993501
 10
2.5509758224
 20
-23.9771280183
 10
2.462634376
 20
-23.9898283689
  0
LINE
  5
2AA
100
AcDbEntity
  8
RACCORDO
100
AcDbLine
 62
253
  6
CONTINUOUS
 10
-56.4350077208
 20
22.042246381
 11
-56.4421757329
 21
22.0494143931
  0
LINE
  5
2AB
100
AcDbEntity
  8
RACCORDO
100
AcDbLine
 62
253
  6
CONTINUOUS
 10
-59.7017517076
 20
25.3090512897
 11
-59.7428625
 21
25.3501620821
  0
LINE
  5
2AC
100
AcDbEntity
  8
RACCORDO
100
AcDbLine
 62
253
  6
CONTINUOUS
 10
-56.1350534122
 20
22.3422006895
 11
-56.1414479258
 21
22.3485952031
  0
LINE
  5
2AD
100
AcDbEntity
  8
RACCORDO
100
AcDbLine
 62
253
  6
CONTINUOUS
 10
-59.0018583209
 20
26.0089446763
 11
-59.0429691134
 21
26.0500554688
  0
LINE
  5
2AE
100
AcDbEntity
  8
0
100
AcDbLine
 62
7
  6
CONTINUOUS
 10
-1.0775075
 20
-24.6939735312
 11
-0.5633105
 21
-26.0651185313
  0
LINE
  5
2AF
100
AcDbEntity
  8
0
100
AcDbLine
 62
7
  6
CONTINUOUS
 10
-0.5301805
 20
-25.1311235312
 11
-0.9638665
 21
-23.9652955312
  0
LINE
  5
2B0
100
AcDbEntity
  8
0
100
AcDbLine
 62
7
  6
CONTINUOUS
 10
-4.1552745
 20
-23.9652955312
 11
-3.4895895
 21
-26.0651185313
  0
LINE
  5
2B1
100
AcDbEntity
  8
0
100
AcDbLine
 62
7
  6
CONTINUOUS
 10
-3.2788635
 20
-25.4106685312
 11
-3.6791285
 21
-23.9652955312
  0
LINE
  5
2B2
100
AcDbEntity
  8
0
100
AcDbLine
 62
7
  6
CONTINUOUS
 10
0.5381625
 20
-26.0651185313
 11
0.3418055
 21
-23.9652955312
  0
LINE
  5
2B3
100
AcDbEntity
  8
0
100
AcDbLine
 62
7
  6
CONTINUOUS
 10
0.0193205
 20
-24.6996895312
 11
0.1093735
 21
-26.0651185313
  0
LINE
  5
2B4
100
AcDbEntity
  8
0
100
AcDbLine
 62
7
  6
CONTINUOUS
 10
-2.2656965
 20
-23.9651695312
 11
-2.2656965
 21
-26.0651185313
  0
LINE
  5
2B5
100
AcDbEntity
  8
0
100
AcDbLine
 62
7
  6
CONTINUOUS
 10
-1.8273805
 20
-26.0651185313
 11
-1.8273805
 21
-23.9651695312
  0
LINE
  5
2B6
100
AcDbEntity
  8
0
100
AcDbLine
 62
7
  6
CONTINUOUS
 10
-1.1720965
 20
-26.0651185313
 11
-1.0775075
 21
-24.6939735312
  0
LINE
  5
2B7
100
AcDbEntity
  8
0
100
AcDbLine
 62
7
  6
CONTINUOUS
 10
-1.4018195
 20
-23.9652955312
 11
-1.5914215
 21
-26.0651185313
  0
LWPOLYLINE
  5
2B8
100
AcDbEntity
  8
RACCORDO
100
AcDbPolyline
 62
253
  6
CONTINUOUS
 90
10
 70
0
 10
56.0663937588
 20
22.3483841735
 10
56.0683111335
 20
22.3489902927
 10
56.0702502415
 20
22.3502788004
 10
56.072208431
 20
22.3522479346
 10
56.0741830239
 20
22.3548950025
 10
56.0761713199
 20
22.358216384
 10
56.0781705998
 20
22.3622075372
 10
56.0801781294
 20
22.3668630041
 10
56.0821911634
 20
22.372176418
 10
56.0842069488
 20
22.3781405129
  0
LWPOLYLINE
  5
2B9
100
AcDbEntity
  8
RACCORDO
100
AcDbPolyline
 62
253
  6
CONTINUOUS
 90
10
 70
0
 10
56.0663937776
 20
-22.848273767
 10
56.0683111336
 20
-22.848879807
 10
56.0702502269
 20
-22.8501682056
 10
56.0722084055
 20
-22.852137201
 10
56.0741829917
 20
-22.8547841007
 10
56.0761712853
 20
-22.858105285
 10
56.078170567
 20
-22.8620962124
 10
56.080178103
 20
-22.8667514256
 10
56.0821911477
 20
-22.8720645585
 10
56.0842069484
 20
-22.8780283458
  0
LWPOLYLINE
  5
2BA
100
AcDbEntity
  8
0
100
AcDbPolyline
 62
7
  6
CONTINUOUS
 90
6
 70
0
 10
3.3787414324
 20
-25.428383663
 10
3.4009114808
 20
-25.4932368328
 10
3.4226246115
 20
-25.5596476801
 10
3.4438808246
 20
-25.6276162048
 10
3.4643622236
 20
-25.6972542459
 10
3.5049079581
 20
-25.8408678438
  0
LINE
  5
2BB
100
AcDbEntity
  8
0
100
AcDbLine
 62
7
  6
CONTINUOUS
 10
2.3339235
 20
-26.0651185313
 11
1.6896455
 21
-23.9652955312
  0
LINE
  5
2BC
100
AcDbEntity
  8
0
100
AcDbLine
 62
7
  6
CONTINUOUS
 10
3.5049079581
 20
-25.8408678438
 11
3.570406038
 21
-26.065118929
  0
LINE
  5
2BD
100
AcDbEntity
  8
0
100
AcDbLine
 62
7
  6
CONTINUOUS
 10
1.7584105
 20
-25.6459195312
 11
1.8719575
 21
-26.0651185313
  0
LINE
  5
2BE
100
AcDbEntity
  8
0
100
AcDbLine
 62
7
  6
CONTINUOUS
 10
3.8937064913
 20
-25.6899536981
 11
3.84217234
 21
-25.4967858193
  0
LINE
  5
2BF
100
AcDbEntity
  8
0
100
AcDbLine
 62
7
  6
CONTINUOUS
 10
3.9920146327
 20
-26.065118929
 11
3.8937064913
 21
-25.6899536981
  0
LINE
  5
2C0
100
AcDbEntity
  8
0
100
AcDbLine
 62
7
  6
CONTINUOUS
 10
1.4694015
 20
-24.5422735313
 11
1.6708135
 21
-25.3215445312
  0
LWPOLYLINE
  5
2C1
100
AcDbEntity
  8
0
100
AcDbPolyline
 62
7
  6
CONTINUOUS
 90
16
 70
0
 10
3.84217234
 20
-25.4967858193
 10
3.832188721
 20
-25.4571715783
 10
3.8211650239
 20
-25.4185537449
 10
3.8091012486
 20
-25.3809323192
 10
3.7960294289
 20
-25.3439402586
 10
3.781917531
 20
-25.3079446057
 10
3.7666694537
 20
-25.2740464883
 10
3.7501484565
 20
-25.2423908954
 10
3.7324912799
 20
-25.212832838
 10
3.7140120434
 20
-25.1860384775
 10
3.694703583
 20
-25.162218842
 10
3.6745730628
 20
-25.1411629034
 10
3.6539560942
 20
-25.1229037386
 10
3.6329645479
 20
-25.1074523731
 10
3.6114865532
 20
-25.0947977813
 10
3.5895221102
 20
-25.0849399633
  0
LINE
  5
2C2
100
AcDbEntity
  8
0
100
AcDbLine
 62
7
  6
CONTINUOUS
 10
2.462634376
 20
-23.9898283689
 11
2.462634376
 21
-26.065118929
  0
LINE
  5
2C3
100
AcDbEntity
  8
0
100
AcDbLine
 62
7
  6
CONTINUOUS
 10
2.884652376
 20
-24.8994636743
 11
2.884652376
 21
-24.323021193
  0
LINE
  5
2C4
100
AcDbEntity
  8
0
100
AcDbLine
 62
7
  6
CONTINUOUS
 10
2.8991862595
 20
-26.065118929
 11
2.8991862595
 21
-25.2433640183
  0
LINE
  5
2C5
100
AcDbEntity
  8
0
100
AcDbLine
 62
7
  6
CONTINUOUS
 10
3.5895221102
 20
-25.0849399633
 11
3.5895221102
 21
-25.0725318373
  0
LWPOLYLINE
  5
2C6
100
AcDbEntity
  8
0
100
AcDbPolyline
 62
7
  6
CONTINUOUS
 90
19
 70
0
 10
3.4756287408
 20
-24.5731520064
 10
3.4740918399
 20
-24.6079150038
 10
3.4701509925
 20
-24.6410527236
 10
3.4638061989
 20
-24.6725651659
 10
3.4547629326
 20
-24.7027741384
 10
3.4433157199
 20
-24.7313578333
 10
3.4303481399
 20
-24.7573508274
 10
3.4162405303
 20
-24.7802597065
 10
3.4006125533
 20
-24.8005778848
 10
3.3832067747
 20
-24.8188201823
 10
3.364138691
 20
-24.8350379544
 10
3.3432928057
 20
-24.8491798457
 10
3.3200651942
 20
-24.8616066096
 10
3.2940445509
 20
-24.8724906213
 10
3.2656421816
 20
-24.8816595056
 10
3.2354880781
 20
-24.8889568902
 10
3.203792238
 20
-24.8943306512
 10
3.1703446637
 20
-24.8978329126
 10
3.1351453554
 20
-24.8994636743
  0
LINE
  5
2C7
100
AcDbEntity
  8
0
100
AcDbLine
 62
7
  6
CONTINUOUS
 10
-2.8663725
 20
-23.9652955312
 11
-3.2788635
 21
-25.4106685312
  0
LINE
  5
2C8
100
AcDbEntity
  8
0
100
AcDbLine
 62
7
  6
CONTINUOUS
 10
-3.1033235
 20
-26.0651185313
 11
-2.4283555
 21
-23.9652955312
  0
LWPOLYLINE
  5
2C9
100
AcDbEntity
  8
RACCORDO
100
AcDbPolyline
 62
253
  6
CONTINUOUS
 90
10
 70
0
 10
-56.1521187588
 20
-22.848273236
 10
-56.1540361335
 20
-22.8488793552
 10
-56.1559752415
 20
-22.8501678629
 10
-56.157933431
 20
-22.8521369971
 10
-56.1599080239
 20
-22.854784065
 10
-56.1618963199
 20
-22.8581054465
 10
-56.1638955998
 20
-22.8620965997
 10
-56.1659031294
 20
-22.8667520666
 10
-56.1679161634
 20
-22.8720654805
 10
-56.1699319488
 20
-22.8780295754
  0
LWPOLYLINE
  5
2CA
100
AcDbEntity
  8
RACCORDO
100
AcDbPolyline
 62
253
  6
CONTINUOUS
 90
10
 70
0
 10
-56.1521187
 20
22.3483825081
 10
-56.1540360616
 20
22.348988545
 10
-56.1559751598
 20
22.3502769576
 10
-56.1579333436
 20
22.352245984
 10
-56.1599079356
 20
22.3548929315
 10
-56.161896236
 20
22.3582141803
 10
-56.1638955263
 20
22.3622051886
 10
-56.1659030731
 20
22.3668604986
 10
-56.1679161313
 20
22.3721737442
 10
-56.1699319489
 20
22.3781376594
  0
LINE
  5
2CB
100
AcDbEntity
  8
0
100
AcDbLine
 62
7
  6
CONTINUOUS
 10
1.2511575
 20
-25.3215445312
 11
1.4694015
 21
-24.5422735313
  0
LINE
  5
2CC
100
AcDbEntity
  8
0
100
AcDbLine
 62
7
  6
CONTINUOUS
 10
1.0405495
 20
-26.0651185313
 11
1.1614975
 21
-25.6459195312
  0
LINE
  5
2CD
100
AcDbEntity
  8
0
100
AcDbLine
 62
7
  6
CONTINUOUS
 10
1.2656285
 20
-23.9652955312
 11
0.6069895
 21
-26.0651185313
  0
LINE
  5
2CE
100
AcDbEntity
  8
0
100
AcDbLine
 62
7
  6
CONTINUOUS
 10
-0.0918645
 20
-23.9652955312
 11
-0.5301805
 21
-25.1311235312
  0
LINE
  5
2CF
100
AcDbEntity
  8
0
100
AcDbLine
 62
7
  6
CONTINUOUS
 10
-0.5018375
 20
-26.0651185313
 11
0.0193205
 21
-24.6996895312
  0
LINE
  5
2D0
100
AcDbEntity
  8
RACCORDO
100
AcDbLine
 62
253
  6
CONTINUOUS
 10
58.9161333209
 20
26.0089446763
 11
58.9572441134
 21
26.0500554687
  0
LINE
  5
2D1
100
AcDbEntity
  8
RACCORDO
100
AcDbLine
 62
253
  6
CONTINUOUS
 10
56.0557229258
 20
22.3485952031
 11
56.0493284122
 21
22.3422006895
  0
LINE
  5
2D2
100
AcDbEntity
  8
RACCORDO
100
AcDbLine
 62
253
  6
CONTINUOUS
 10
59.6160267076
 20
25.3090512897
 11
59.6571375
 21
25.3501620821
  0
LINE
  5
2D3
100
AcDbEntity
  8
RACCORDO
100
AcDbLine
 62
253
  6
CONTINUOUS
 10
56.3564507329
 20
22.0494143931
 11
56.3492827208
 21
22.042246381
  0
LWPOLYLINE
  5
2D4
100
AcDbEntity
  8
0
100
AcDbPolyline
 62
7
  6
CONTINUOUS
 90
45
 70
0
 10
3.6834860175
 20
-25.0120101643
 10
3.6933417335
 20
-25.0032931921
 10
3.7032745659
 20
-24.9941748332
 10
3.7132922611
 20
-24.9846759517
 10
3.7233870727
 20
-24.9747756836
 10
3.7335089001
 20
-24.9642903115
 10
3.7436685659
 20
-24.9532270328
 10
3.7538552475
 20
-24.9415786501
 10
3.7639863757
 20
-24.9291398529
 10
3.7740722582
 20
-24.9158758359
 10
3.7841025873
 20
-24.9018214046
 10
3.7939638718
 20
-24.8868756643
 10
3.8036705327
 20
-24.8710252078
 10
3.813208149
 20
-24.8542834425
 10
3.8224199662
 20
-24.8365896959
 10
3.8313249261
 20
-24.8179336368
 10
3.8399040869
 20
-24.7983255964
 10
3.8479438688
 20
-24.7777358962
 10
3.8554516584
 20
-24.7561781867
 10
3.8624200691
 20
-24.7336388174
 10
3.8686133619
 20
-24.7100471579
 10
3.8740410176
 20
-24.6854068066
 10
3.8786935553
 20
-24.6597141651
 10
3.8823067928
 20
-24.632887808
 10
3.8849027024
 20
-24.6048970384
 10
3.8864593117
 20
-24.5757725532
 10
3.8866465223
 20
-24.5455250173
 10
3.8855739575
 20
-24.5141309724
 10
3.8831319939
 20
-24.4816138769
 10
3.8786616629
 20
-24.4480547704
 10
3.8722983921
 20
-24.4133743182
 10
3.8639067539
 20
-24.3776518551
 10
3.8524214964
 20
-24.3412064255
 10
3.8373995296
 20
-24.3034105572
 10
3.8192839436
 20
-24.2648917224
 10
3.7983387569
 20
-24.2278513826
 10
3.7739809173
 20
-24.192432282
 10
3.746793477
 20
-24.1584916764
 10
3.7187896121
 20
-24.1278027948
 10
3.6903928916
 20
-24.1010887843
 10
3.6611797465
 20
-24.0776264977
 10
3.6318926457
 20
-24.0570197221
 10
3.6027790788
 20
-24.0391363865
 10
3.5735915562
 20
-24.0241085619
 10
3.5443300779
 20
-24.0119362482
  0
LWPOLYLINE
  5
2D5
100
AcDbEntity
  8
RACCORDO
100
AcDbPolyline
 62
253
  6
CONTINUOUS
 90
22
 70
0
 10
-56.1699726173
 20
22.3781380584
 10
-56.1948572831
 20
22.3768905287
 10
-56.2193726289
 20
22.3734384451
 10
-56.2433570844
 20
22.367821919
 10
-56.2666248956
 20
22.3601099305
 10
-56.289054196
 20
22.3503539987
 10
-56.3105783616
 20
22.3385645148
 10
-56.3312223677
 20
22.324656564
 10
-56.3506435005
 20
22.3088306645
 10
-56.3683035537
 20
22.2916275811
 10
-56.3841038786
 20
22.2732751487
 10
-56.3980949814
 20
22.2539277748
 10
-56.4101362259
 20
22.23415741
 10
-56.4202468793
 20
22.2142937107
 10
-56.4286074328
 20
22.1943896825
 10
-56.4353921286
 20
22.1746107833
 10
-56.4407158811
 20
22.1551219025
 10
-56.4446889734
 20
22.1359955455
 10
-56.4474566605
 20
22.1172210876
 10
-56.4491274436
 20
22.0988377681
 10
-56.4497931226
 20
22.0809408481
 10
-56.4495562466
 20
22.0635800503
  0
LWPOLYLINE
  5
2D6
100
AcDbEntity
  8
RACCORDO
100
AcDbPolyline
 62
253
  6
CONTINUOUS
 90
22
 70
0
 10
56.4060727302
 20
23.0425471639
 10
56.4282865519
 20
23.042836973
 10
56.4501006814
 20
23.0413105567
 10
56.4714112879
 20
23.0380042285
 10
56.4920861238
 20
23.0329709153
 10
56.5120635342
 20
23.0262531877
 10
56.5313454813
 20
23.0178620083
 10
56.54984831
 20
23.0078327074
 10
56.5674686337
 20
22.9962177008
 10
56.5841697432
 20
22.9830334053
 10
56.5998570608
 20
22.9683289123
 10
56.6144418247
 20
22.9521610331
 10
56.6278838013
 20
22.9345475335
 10
56.6400962368
 20
22.9155294133
 10
56.6509779646
 20
22.8951932982
 10
56.6604594148
 20
22.8736255986
 10
56.6684520621
 20
22.8508964408
 10
56.6748757281
 20
22.8271066486
 10
56.6796776686
 20
22.8023980501
 10
56.6827955373
 20
22.7768890792
 10
56.6841585776
 20
22.7506745353
 10
56.6837117313
 20
22.723870411
  0
LWPOLYLINE
  5
2D7
100
AcDbEntity
  8
RACCORDO
100
AcDbPolyline
 62
253
  6
CONTINUOUS
 90
6
 70
0
 10
-56.1461988729
 20
22.3786532778
 10
-56.1509510833
 20
22.378605947
 10
-56.1557045571
 20
22.3785307477
 10
-56.1604592943
 20
22.3784276801
 10
-56.1652152947
 20
22.3782967442
 10
-56.1699725586
 20
22.3781379399
  0
LWPOLYLINE
  5
2D8
100
AcDbEntity
  8
RACCORDO
100
AcDbPolyline
 62
253
  6
CONTINUOUS
 90
6
 70
0
 10
-56.1432310837
 20
22.3485900317
 10
-56.1450124516
 20
22.3485728668
 10
-56.1467919666
 20
22.3485437148
 10
-56.148569566
 20
22.3485025824
 10
-56.150345187
 20
22.3484494766
 10
-56.152118767
 20
22.3483844049
  0
LINE
  5
2D9
100
AcDbEntity
  8
RACCORDO
100
AcDbLine
 62
253
  6
CONTINUOUS
 10
56.3564507329
 20
22.0494143931
 11
56.363970704
 21
22.0494143931
  0
LINE
  5
2DA
100
AcDbEntity
  8
RACCORDO
100
AcDbLine
 62
253
  6
CONTINUOUS
 10
-56.4421757329
 20
22.0494143931
 11
-56.449695704
 21
22.0494143931
  0
LINE
  5
2DB
100
AcDbEntity
  8
RACCORDO
100
AcDbLine
 62
7
  6
CONTINUOUS
 10
-56.1350534122
 20
22.3422006895
 11
56.0493284122
 21
22.3422006895
  0
LINE
  5
2DC
100
AcDbEntity
  8
RACCORDO
100
AcDbLine
 62
253
  6
CONTINUOUS
 10
56.0557229258
 20
22.3485952031
 11
-56.1432310837
 21
22.3485900317
  0
LINE
  5
2DD
100
AcDbEntity
  8
RACCORDO
100
AcDbLine
 62
253
  6
CONTINUOUS
 10
56.0557229258
 20
22.3786727403
 11
-56.1461988729
 21
22.3786532778
  0
LINE
  5
2DE
100
AcDbEntity
  8
RACCORDO
100
AcDbLine
 62
253
  6
CONTINUOUS
 10
-57.0648790488
 20
22.7238702194
 11
-56.7694367229
 21
22.7238702194
  0
LINE
  5
2DF
100
AcDbEntity
  8
RACCORDO
100
AcDbLine
 62
253
  6
CONTINUOUS
 10
56.9791540488
 20
22.7238702194
 11
56.6837117229
 21
22.7238702194
  0
LINE
  5
2E0
100
AcDbEntity
  8
RACCORDO
100
AcDbLine
 62
253
  6
CONTINUOUS
 10
-56.4917988885
 20
23.0425474359
 11
56.406072862
 21
23.0425474359
  0
LINE
  5
2E1
100
AcDbEntity
  8
RACCORDO
100
AcDbLine
 62
253
  6
CONTINUOUS
 10
-56.4918075092
 20
23.3244552222
 11
56.4060825092
 21
23.3244552222
  0
LINE
  5
2E2
100
AcDbEntity
  8
RACCORDO
100
AcDbLine
 62
253
  6
CONTINUOUS
 10
-59.7017517076
 20
25.3090512897
 11
-59.401797399
 21
25.3090512897
  0
LINE
  5
2E3
100
AcDbEntity
  8
RACCORDO
100
AcDbLine
 62
253
  6
CONTINUOUS
 10
59.6160267076
 20
25.3090512893
 11
59.316072399
 21
25.3090512897
  0
LINE
  5
2E4
100
AcDbEntity
  8
RACCORDO
100
AcDbLine
 62
253
  6
CONTINUOUS
 10
58.9161333209
 20
25.7089903678
 11
-59.0018583209
 21
25.7089903678
  0
LWPOLYLINE
  5
2E5
100
AcDbEntity
  8
RACCORDO
100
AcDbPolyline
 62
253
  6
CONTINUOUS
 90
7
 70
0
 10
56.0842475675
 20
22.3781379344
 10
56.0795014041
 20
22.3782974546
 10
56.0747520633
 20
22.3784288205
 10
56.0699995451
 20
22.3785320321
 10
56.0652438494
 20
22.3786070892
 10
56.0604849763
 20
22.3786539919
 10
56.0557229258
 20
22.3786727403
  0
LWPOLYLINE
  5
2E6
100
AcDbEntity
  8
RACCORDO
100
AcDbPolyline
 62
253
  6
CONTINUOUS
 90
7
 70
0
 10
56.066393767
 20
22.3483844049
 10
56.0646235229
 20
22.3484493914
 10
56.0628499042
 20
22.3485024777
 10
56.0610729729
 20
22.3485436325
 10
56.059292791
 20
22.3485728252
 10
56.057509421
 20
22.3485900255
 10
56.0557229258
 20
22.3485952031
  0
LWPOLYLINE
  5
2E7
100
AcDbEntity
  8
RACCORDO
100
AcDbPolyline
 62
253
  6
CONTINUOUS
 90
22
 70
0
 10
56.4060825092
 20
23.3244552222
 10
56.4497767826
 20
23.3226858448
 10
56.492469483
 20
23.317850471
 10
56.5341606107
 20
23.3099491009
 10
56.5749796376
 20
23.2989135983
 10
56.6147970916
 20
23.2848120994
 10
56.6532245566
 20
23.2678490125
 10
56.690280535
 20
23.2480161187
 10
56.7259465244
 20
23.225321637
 10
56.7597786002
 20
23.1999946328
 10
56.7917794474
 20
23.1720219526
 10
56.821946381
 20
23.1414167499
 10
56.8498274219
 20
23.1084475511
 10
56.8754391623
 20
23.0730539824
 10
56.8987650098
 20
23.0352964177
 10
56.919303209
 20
22.9956245047
 10
56.9370285165
 20
22.9539814886
 10
56.9519661756
 20
22.9104241243
 10
56.9636901609
 20
22.8655723239
 10
56.972058464
 20
22.8196327251
 10
56.9772130933
 20
22.7723986902
 10
56.9791540488
 20
22.7238702194
  0
LINE
  5
2E8
100
AcDbEntity
  8
RACCORDO
100
AcDbLine
 62
253
  6
CONTINUOUS
 10
58.9161333209
 20
-26.5088337388
 11
58.9572441134
 21
-26.5499445313
  0
LINE
  5
2E9
100
AcDbEntity
  8
RACCORDO
100
AcDbLine
 62
253
  6
CONTINUOUS
 10
56.0557229258
 20
-22.8484842656
 11
56.0493284122
 21
-22.842089752
  0
LINE
  5
2EA
100
AcDbEntity
  8
RACCORDO
100
AcDbLine
 62
253
  6
CONTINUOUS
 10
59.6160267076
 20
-25.8089403522
 11
59.6571375
 21
-25.8500511446
  0
LINE
  5
2EB
100
AcDbEntity
  8
RACCORDO
100
AcDbLine
 62
253
  6
CONTINUOUS
 10
56.3564507329
 20
-22.5493034556
 11
56.3492827208
 21
-22.5421354435
  0
LWPOLYLINE
  5
2EC
100
AcDbEntity
  8
RACCORDO
100
AcDbPolyline
 62
253
  6
CONTINUOUS
 90
22
 70
0
 10
-56.152118767
 20
22.3483844049
 10
-56.1766326231
 20
22.3463938395
 10
-56.2008810926
 20
22.3424136014
 10
-56.2247019058
 20
22.3364809057
 10
-56.2479055335
 20
22.3286582914
 10
-56.2703735686
 20
22.3190010969
 10
-56.2920487022
 20
22.3075312478
 10
-56.3129659278
 20
22.2941843161
 10
-56.3327694142
 20
22.2791360777
 10
-56.3508993703
 20
22.2628783648
 10
-56.3672728086
 20
22.2456695334
 10
-56.3819330953
 20
22.2276535233
 10
-56.3946909667
 20
22.2093049907
 10
-56.4055688826
 20
22.190959971
 10
-56.4147563296
 20
22.1726936006
 10
-56.4223890538
 20
22.1546003956
 10
-56.4285726083
 20
22.1368416816
 10
-56.4334359266
 20
22.1195154946
 10
-56.4371216832
 20
22.1025800679
 10
-56.4397343009
 20
22.0860683554
 10
-56.4413657702
 20
22.0700962813
 10
-56.4421174827
 20
22.0547205608
  0
LWPOLYLINE
  5
2ED
100
AcDbEntity
  8
RACCORDO
100
AcDbPolyline
 62
253
  6
CONTINUOUS
 90
25
 70
0
 10
-59.0018583209
 20
26.0089446763
 10
-59.0476339583
 20
26.0074404426
 10
-59.093212752
 20
26.0029460208
 10
-59.1383996285
 20
25.9954807419
 10
-59.1830011947
 20
25.9850766792
 10
-59.2268265703
 20
25.9717784277
 10
-59.2696882002
 20
25.9556428975
 10
-59.3114026386
 20
25.9367392147
 10
-59.3517913786
 20
25.9151483614
 10
-59.3906816082
 20
25.8909627178
 10
-59.4279068716
 20
25.8642858397
 10
-59.4633078744
 20
25.8352319496
 10
-59.4967331829
 20
25.803925336
 10
-59.5280396871
 20
25.7705000375
 10
-59.5570934378
 20
25.7350991008
 10
-59.5837702459
 20
25.6978738323
 10
-59.6079559387
 20
25.6589834005
 10
-59.629546862
 20
25.6185943572
 10
-59.6484505276
 20
25.5768797229
 10
-59.6645859437
 20
25.534018111
 10
-59.6778840526
 20
25.4901928869
 10
-59.6882879823
 20
25.4455915469
 10
-59.6957531538
 20
25.4004049493
 10
-59.7002475015
 20
25.3548265068
 10
-59.7017517076
 20
25.3090512897
  0
LINE
  5
2EE
100
AcDbEntity
  8
RACCORDO
100
AcDbLine
 62
253
  6
CONTINUOUS
 10
58.9161333209
 20
26.0089446763
 11
-59.0018583209
 21
26.0089446763
  0
LINE
  5
2EF
100
AcDbEntity
  8
RACCORDO
100
AcDbLine
 62
7
  6
CONTINUOUS
 10
58.9572441134
 20
26.0500554687
 11
-59.0429691134
 21
26.0500554688
  0
LWPOLYLINE
  5
2F0
100
AcDbEntity
  8
RACCORDO
100
AcDbPolyline
 62
253
  6
CONTINUOUS
 90
25
 70
0
 10
58.9161333209
 20
25.7089903678
 10
58.9423646143
 20
25.7081217697
 10
58.9682947407
 20
25.7055762411
 10
58.9939237002
 20
25.7013537817
 10
59.0193679903
 20
25.6954224575
 10
59.0445111135
 20
25.6878142025
 10
59.0690035772
 20
25.6786248198
 10
59.0928275355
 20
25.6678347531
 10
59.1160008343
 20
25.6554635587
 10
59.1382275197
 20
25.641665708
 10
59.1594967836
 20
25.6264214999
 10
59.1798194341
 20
25.6097506355
 10
59.1989319407
 20
25.5918666902
 10
59.216818909
 20
25.5727520533
 10
59.2334957334
 20
25.5524243353
 10
59.2487450673
 20
25.5311499433
 10
59.2625459235
 20
25.5089188988
 10
59.2749192892
 20
25.4857411802
 10
59.2857107789
 20
25.4619131298
 10
59.2949007512
 20
25.4374160937
 10
59.3025088475
 20
25.4122687258
 10
59.3084396066
 20
25.386823331
 10
59.312661208
 20
25.3611973442
 10
59.3152054721
 20
25.3352733304
 10
59.316072399
 20
25.3090512897
  0
LINE
  5
2F1
100
AcDbEntity
  8
RACCORDO
100
AcDbLine
 62
253
  6
CONTINUOUS
 10
56.406072862
 20
23.0425474359
 11
56.0842475675
 21
22.3781379344
  0
LINE
  5
2F2
100
AcDbEntity
  8
RACCORDO
100
AcDbLine
 62
253
  6
CONTINUOUS
 10
56.6837117229
 20
22.7238703938
 11
56.3638312466
 21
22.0635800503
  0
LINE
  5
2F3
100
AcDbEntity
  8
RACCORDO
100
AcDbLine
 62
253
  6
CONTINUOUS
 10
56.6837117229
 20
-23.2237709004
 11
56.3638312466
 21
-22.5634691133
  0
LINE
  5
2F4
100
AcDbEntity
  8
RACCORDO
100
AcDbLine
 62
253
  6
CONTINUOUS
 10
56.4060874984
 20
-23.5424364984
 11
56.0842393607
 21
-22.8780272139
  0
LWPOLYLINE
  5
2F5
100
AcDbEntity
  8
RACCORDO
100
AcDbPolyline
 62
253
  6
CONTINUOUS
 90
10
 70
0
 10
56.3563988761
 20
22.0547206773
 10
56.3566128079
 20
22.0556983132
 10
56.3569803515
 20
22.0566783474
 10
56.357501394
 20
22.0576604749
 10
56.3581757751
 20
22.0586443902
 10
56.3590032877
 20
22.0596297871
 10
56.3599836773
 20
22.0606163591
 10
56.3611166428
 20
22.0616037992
 10
56.3624018357
 20
22.0625918002
 10
56.3638388611
 20
22.0635800548
  0
LINE
  5
2F6
100
AcDbEntity
  8
RACCORDO
100
AcDbLine
 62
253
  6
CONTINUOUS
 10
80.9571375
 20
46.4500554688
 11
81.4571375
 21
46.4500554689
  0
LINE
  5
2F7
100
AcDbEntity
  8
RACCORDO
100
AcDbLine
 62
253
  6
CONTINUOUS
 10
-81.0428625
 20
46.4500554687
 11
-81.5428625
 21
46.4500554687
  0
LINE
  5
2F8
100
AcDbEntity
  8
RACCORDO
100
AcDbLine
 62
253
  6
CONTINUOUS
 10
80.4571375
 20
46.9500554687
 11
-80.5428625
 21
46.9500554688
  0
LINE
  5
2F9
100
AcDbEntity
  8
RACCORDO
100
AcDbLine
 62
7
  6
CONTINUOUS
 10
80.4571375
 20
47.4500554687
 11
-80.5428625
 21
47.4500554688
  0
LWPOLYLINE
  5
2FA
100
AcDbEntity
  8
RACCORDO
100
AcDbPolyline
 62
253
  6
CONTINUOUS
 90
10
 70
0
 10
56.3563924942
 20
-22.5546096236
 10
56.3566066844
 20
-22.5555867431
 10
56.3569743821
 20
-22.5565663834
 10
56.3574954743
 20
-22.5575482436
 10
56.358169801
 20
-22.5585320226
 10
56.3589971549
 20
-22.5595174183
 10
56.3599772819
 20
-22.5605041282
 10
56.3611098807
 20
-22.5614918495
 10
56.3623946035
 20
-22.5624802789
 10
56.3638310555
 20
-22.5634691128
  0
LWPOLYLINE
  5
2FB
100
AcDbEntity
  8
RACCORDO
100
AcDbPolyline
 62
253
  6
CONTINUOUS
 90
22
 70
0
 10
56.3563924827
 20
22.0547205608
 10
56.3556407699
 20
22.0700962639
 10
56.3540093013
 20
22.0860683314
 10
56.3513966839
 20
22.1025800477
 10
56.3477109246
 20
22.1195154936
 10
56.342847599
 20
22.1368417094
 10
56.3366640351
 20
22.1546004462
 10
56.3290313021
 20
22.1726936622
 10
56.3198438466
 20
22.1909600378
 10
56.3089659229
 20
22.2093050591
 10
56.2962080451
 20
22.2276535899
 10
56.2815477541
 20
22.2456695951
 10
56.2651743124
 20
22.2628784207
 10
56.2470443528
 20
22.2791361283
 10
56.2272408642
 20
22.2941843604
 10
56.2063236402
 20
22.3075312841
 10
56.1846485148
 20
22.319001123
 10
56.1621804926
 20
22.3286583074
 10
56.1389768775
 20
22.3364809144
 10
56.1151560748
 20
22.3424136054
 10
56.0909076148
 20
22.3463938407
 10
56.066393767
 20
22.3483844049
  0
LWPOLYLINE
  5
2FC
100
AcDbEntity
  8
RACCORDO
100
AcDbPolyline
 62
253
  6
CONTINUOUS
 90
22
 70
0
 10
56.6837122772
 20
-23.223772045
 10
56.684157621
 20
-23.2505879168
 10
56.6827923437
 20
-23.2768083099
 10
56.6796727346
 20
-23.3023172812
 10
56.6748717763
 20
-23.3270166921
 10
56.6684523534
 20
-23.3507922131
 10
56.6604636694
 20
-23.3735127402
 10
56.6509833177
 20
-23.3950805275
 10
56.6400999547
 20
-23.4154213905
 10
56.6278815862
 20
-23.4344479462
 10
56.614425514
 20
-23.4520757831
 10
56.5998204394
 20
-23.4682596149
 10
56.5841156073
 20
-23.4829724589
 10
56.5674063307
 20
-23.4961539297
 10
56.5497831831
 20
-23.5077610982
 10
56.5312767002
 20
-23.5177834808
 10
56.5119828183
 20
-23.5261714581
 10
56.4919920809
 20
-23.5328854275
 10
56.4713180688
 20
-23.5379112189
 10
56.4500283505
 20
-23.5412083225
 10
56.4282503109
 20
-23.5427279342
 10
56.4060875666
 20
-23.5424366392
  0
LINE
  5
2FD
100
AcDbEntity
  8
RACCORDO
100
AcDbLine
 62
253
  6
CONTINUOUS
 10
56.3639089726
 20
22.0587806982
 11
56.3638312466
 21
22.0635800503
  0
LINE
  5
2FE
100
AcDbEntity
  8
RACCORDO
100
AcDbLine
 62
253
  6
CONTINUOUS
 10
56.3564507329
 20
22.0494143931
 11
56.3563924827
 21
22.0547205608
  0
LINE
  5
2FF
100
AcDbEntity
  8
RACCORDO
100
AcDbLine
 62
253
  6
CONTINUOUS
 10
56.3639554584
 20
22.0540588124
 11
56.3639089726
 21
22.0587806982
  0
LINE
  5
300
100
AcDbEntity
  8
RACCORDO
100
AcDbLine
 62
253
  6
CONTINUOUS
 10
56.363970704
 20
22.0494143931
 11
56.3639554584
 21
22.0540588124
  0
LINE
  5
301
100
AcDbEntity
  8
RACCORDO
100
AcDbLine
 62
253
  6
CONTINUOUS
 10
56.0557229258
 20
-22.8484842656
 11
56.0557229261
 21
-22.8785618028
  0
LINE
  5
302
100
AcDbEntity
  8
RACCORDO
100
AcDbLine
 62
253
  6
CONTINUOUS
 10
56.0557229258
 20
22.3485952031
 11
56.0557229258
 21
22.3786727403
  0
LINE
  5
303
100
AcDbEntity
  8
RACCORDO
100
AcDbLine
 62
7
  6
CONTINUOUS
 10
56.3492827208
 20
22.042246381
 11
56.3492827208
 21
-22.5421354435
  0
LINE
  5
304
100
AcDbEntity
  8
RACCORDO
100
AcDbLine
 62
253
  6
CONTINUOUS
 10
56.3564507329
 20
-22.5493034556
 11
56.3564507329
 21
22.0494143931
  0
LINE
  5
305
100
AcDbEntity
  8
RACCORDO
100
AcDbLine
 62
253
  6
CONTINUOUS
 10
56.4060825092
 20
23.3244552222
 11
56.4060825092
 21
23.0425474359
  0
LINE
  5
306
100
AcDbEntity
  8
RACCORDO
100
AcDbLine
 62
253
  6
CONTINUOUS
 10
56.4060825092
 20
-23.8243442847
 11
56.4060825092
 21
-23.5424364984
  0
LINE
  5
307
100
AcDbEntity
  8
RACCORDO
100
AcDbLine
 62
253
  6
CONTINUOUS
 10
56.6837117229
 20
22.7238703938
 11
56.6837117229
 21
-23.2237709004
  0
LINE
  5
308
100
AcDbEntity
  8
RACCORDO
100
AcDbLine
 62
253
  6
CONTINUOUS
 10
56.9791540488
 20
22.7238702194
 11
56.9791540488
 21
-23.2237592819
  0
LINE
  5
309
100
AcDbEntity
  8
RACCORDO
100
AcDbLine
 62
253
  6
CONTINUOUS
 10
56.3639650313
 20
-22.5517075627
 11
56.363970704
 21
22.0494143931
  0
LINE
  5
30A
100
AcDbEntity
  8
RACCORDO
100
AcDbLine
 62
253
  6
CONTINUOUS
 10
56.3639326016
 20
-22.5564639799
 11
56.3639650313
 21
-22.5517075627
  0
LINE
  5
30B
100
AcDbEntity
  8
RACCORDO
100
AcDbLine
 62
253
  6
CONTINUOUS
 10
56.3563924827
 20
-22.5546096233
 11
56.3564507329
 21
-22.5493034556
  0
LWPOLYLINE
  5
30C
100
AcDbEntity
  8
RACCORDO
100
AcDbPolyline
 62
253
  6
CONTINUOUS
 90
22
 70
0
 10
56.3638312466
 20
22.0635800503
 10
56.3640682079
 20
22.080940803
 10
56.3634025923
 20
22.0988377011
 10
56.3617318381
 20
22.1172210218
 10
56.3589641031
 20
22.1359955127
 10
56.3549908952
 20
22.1551219201
 10
56.3496670471
 20
22.1746108363
 10
56.3428823403
 20
22.1943897484
 10
56.3345218233
 20
22.2142937824
 10
56.3244112009
 20
22.2341574853
 10
56.3123699539
 20
22.2539278496
 10
56.2983788369
 20
22.2732752176
 10
56.2825784991
 20
22.2916276418
 10
56.2649184389
 20
22.3088307161
 10
56.2454973017
 20
22.3246566052
 10
56.2248532962
 20
22.338564546
 10
56.2033291391
 20
22.3503540226
 10
56.180899853
 20
22.3601099496
 10
56.1576320565
 20
22.3678219334
 10
56.1336476142
 20
22.3734384542
 10
56.1091322817
 20
22.3768905328
 10
56.0842476287
 20
22.3781380581
  0
LWPOLYLINE
  5
30D
100
AcDbEntity
  8
RACCORDO
100
AcDbPolyline
 62
253
  6
CONTINUOUS
 90
3
 70
0
 10
56.3638312466
 20
-22.5634691133
 10
56.3638720597
 20
-22.5611513345
 10
56.3639326016
 20
-22.5564639799
  0
LWPOLYLINE
  5
30E
100
AcDbEntity
  8
RACCORDO
100
AcDbPolyline
 62
253
  6
CONTINUOUS
 90
25
 70
0
 10
59.6160267076
 20
25.3090512897
 10
59.6145224738
 20
25.354826927
 10
59.6100280521
 20
25.4004057207
 10
59.6025627732
 20
25.4455925972
 10
59.5921587104
 20
25.4901941634
 10
59.578860459
 20
25.534019539
 10
59.5627249288
 20
25.5768811689
 10
59.5438212459
 20
25.6185956074
 10
59.5222303927
 20
25.6589843473
 10
59.498044749
 20
25.697874577
 10
59.471367871
 20
25.7350998403
 10
59.4423139809
 20
25.7705008431
 10
59.4110073672
 20
25.8039261517
 10
59.3775820687
 20
25.8352326559
 10
59.3421811321
 20
25.8642864065
 10
59.3049558635
 20
25.8909632147
 10
59.2660654318
 20
25.9151489074
 10
59.2256763885
 20
25.9367398308
 10
59.1839617541
 20
25.9556434963
 10
59.1411001423
 20
25.9717789125
 10
59.0972749182
 20
25.9850770213
 10
59.0526735781
 20
25.995480951
 10
59.0074869806
 20
26.0029461226
 10
58.9619085381
 20
26.0074404702
 10
58.9161333209
 20
26.0089446763
  0
LINE
  5
30F
100
AcDbEntity
  8
RACCORDO
100
AcDbLine
 62
253
  6
CONTINUOUS
 10
58.9161333209
 20
26.0089446763
 11
58.9161333209
 21
25.7089903678
  0
LINE
  5
310
100
AcDbEntity
  8
RACCORDO
100
AcDbLine
 62
253
  6
CONTINUOUS
 10
58.9161333206
 20
-26.5088337388
 11
58.9161333209
 21
-26.2088794303
  0
LINE
  5
311
100
AcDbEntity
  8
RACCORDO
100
AcDbLine
 62
253
  6
CONTINUOUS
 10
59.316072399
 20
-25.8089403522
 11
59.316072399
 21
25.3090512897
  0
LINE
  5
312
100
AcDbEntity
  8
RACCORDO
100
AcDbLine
 62
253
  6
CONTINUOUS
 10
59.6160267076
 20
-25.8089403522
 11
59.6160267076
 21
25.3090512897
  0
LINE
  5
313
100
AcDbEntity
  8
RACCORDO
100
AcDbLine
 62
7
  6
CONTINUOUS
 10
59.6571375
 20
-25.8500511446
 11
59.6571375
 21
25.3501620821
  0
LWPOLYLINE
  5
314
100
AcDbEntity
  8
RACCORDO
100
AcDbPolyline
 62
253
  6
CONTINUOUS
 90
25
 70
0
 10
59.316072399
 20
-25.8089403522
 10
59.315203801
 20
-25.8351716455
 10
59.3126582723
 20
-25.861101772
 10
59.308435813
 20
-25.8867307315
 10
59.3025044887
 20
-25.9121750216
 10
59.2948962338
 20
-25.9373181447
 10
59.2857068511
 20
-25.9618106085
 10
59.2749167844
 20
-25.9856345667
 10
59.2625455899
 20
-26.0088078656
 10
59.2487477392
 20
-26.031034551
 10
59.2335035311
 20
-26.0523038149
 10
59.2168326668
 20
-26.0726264653
 10
59.1989487214
 20
-26.0917389719
 10
59.1798340845
 20
-26.1096259402
 10
59.1595063666
 20
-26.1263027647
 10
59.1382319746
 20
-26.1415520986
 10
59.11600093
 20
-26.1553529548
 10
59.0928232114
 20
-26.1677263204
 10
59.0689951611
 20
-26.1785178101
 10
59.0444981249
 20
-26.1877077824
 10
59.0193507571
 20
-26.1953158788
 10
58.9939053623
 20
-26.2012466379
 10
58.9682793755
 20
-26.2054682393
 10
58.9423553617
 20
-26.2080125034
 10
58.9161333209
 20
-26.2088794303
  0
LWPOLYLINE
  5
315
100
AcDbEntity
  8
RACCORDO
100
AcDbPolyline
 62
253
  6
CONTINUOUS
 90
22
 70
0
 10
56.9791540488
 20
-23.2237592819
 10
56.9772033847
 20
-23.2723727001
 10
56.9720365697
 20
-23.3196720645
 10
56.9636536039
 20
-23.3656573752
 10
56.9519126857
 20
-23.410528551
 10
56.9369556166
 20
-23.454085673
 10
56.9192078015
 20
-23.4957289846
 10
56.8986445181
 20
-23.5354091792
 10
56.8752904887
 20
-23.5731755633
 10
56.8496452843
 20
-23.6085763
 10
56.8217181131
 20
-23.6415540839
 10
56.7914997669
 20
-23.6721662203
 10
56.7594621926
 20
-23.7001327879
 10
56.725618218
 20
-23.7254319258
 10
56.6899550153
 20
-23.7480854948
 10
56.6529060481
 20
-23.7678791558
 10
56.6144786049
 20
-23.7848085028
 10
56.5746653973
 20
-23.7988779417
 10
56.533878024
 20
-23.8098863515
 10
56.4922536847
 20
-23.8177666917
 10
56.4496551798
 20
-23.8225860028
 10
56.4060825092
 20
-23.8243442847
  0
LINE
  5
316
100
AcDbEntity
  8
RACCORDO
100
AcDbLine
 62
253
  6
CONTINUOUS
 10
80.4571375
 20
-47.4499445313
 11
80.4571375002
 21
-47.9499445313
  0
LINE
  5
317
100
AcDbEntity
  8
RACCORDO
100
AcDbLine
 62
253
  6
CONTINUOUS
 10
80.4571375
 20
46.9500554687
 11
80.4571375
 21
47.4500554687
  0
LINE
  5
318
100
AcDbEntity
  8
RACCORDO
100
AcDbLine
 62
253
  6
CONTINUOUS
 10
80.9571375
 20
-46.9499445313
 11
80.9571375
 21
46.4500554688
  0
LINE
  5
319
100
AcDbEntity
  8
RACCORDO
100
AcDbLine
 62
7
  6
CONTINUOUS
 10
81.4571375
 20
-46.9499445313
 11
81.4571375
 21
46.4500554687
  0
LINE
  5
31A
100
AcDbEntity
  8
RACCORDO
100
AcDbLine
 62
7
  6
CONTINUOUS
 10
-112.58743125
 20
-47.9499445313
 11
-107.63743125
 21
-47.9499445313
  0
LINE
  5
31B
100
AcDbEntity
  8
RACCORDO
100
AcDbLine
 62
7
  6
CONTINUOUS
 10
-107.13743125
 20
-45.5563068689
 11
-106.53743125
 21
-45.54583383
  0
LINE
  5
31C
100
AcDbEntity
  8
RACCORDO
100
AcDbLine
 62
253
  6
CONTINUOUS
 10
-107.13743125
 20
-46.9499445313
 11
-113.08743125
 21
-46.9499445312
  0
LINE
  5
31D
100
AcDbEntity
  8
RACCORDO
100
AcDbLine
 62
253
  6
CONTINUOUS
 10
-107.13743125
 20
-43.5566114786
 11
-106.53743125
 21
-43.5461384397
  0
LINE
  5
31E
100
AcDbEntity
  8
0
100
AcDbLine
 62
7
  6
CONTINUOUS
 10
-105.93743125
 20
-26.5999445313
 11
-106.53743125
 21
-26.6034352291
  0
LINE
  5
31F
100
AcDbEntity
  8
ASSI
100
AcDbLine
 62
7
  6
CONTINUOUS
 10
-105.93743125
 20
-27.3999445313
 11
-106.4367927681
 21
-27.4008160824
  0
LINE
  5
320
100
AcDbEntity
  8
0
100
AcDbLine
 62
7
  6
CONTINUOUS
 10
-106.4367927681
 20
-27.4008160824
 11
-106.53743125
 21
-27.4009917299
  0
LINE
  5
321
100
AcDbEntity
  8
ASSI
100
AcDbLine
 62
253
  6
CONTINUOUS
 10
-105.93743125
 20
-27.1775902448
 11
-106.2152024397
 21
-27.1777157209
  0
LINE
  5
322
100
AcDbEntity
  8
0
100
AcDbLine
 62
253
  6
CONTINUOUS
 10
-106.2152024397
 20
-27.1777157209
 11
-106.53743125
 21
-27.1778612797
  0
LINE
  5
323
100
AcDbEntity
  8
0
100
AcDbLine
 62
7
  6
CONTINUOUS
 10
-115.73743125
 20
-26.065118929
 11
-115.93743125
 21
-26.065118929
  0
LINE
  5
324
100
AcDbEntity
  8
RACCORDO
100
AcDbLine
 62
253
  6
CONTINUOUS
 10
-115.4426669719
 20
-25.8089403522
 11
-115.73743125
 21
-25.8089403522
  0
LINE
  5
325
100
AcDbEntity
  8
0
100
AcDbLine
 62
253
  6
CONTINUOUS
 10
-115.73743125
 20
-25.4967858193
 11
-115.93743125
 21
-25.4967858193
  0
LINE
  5
326
100
AcDbEntity
  8
0
100
AcDbLine
 62
7
  6
CONTINUOUS
 10
-106.13743125
 20
-25.4499445313
 11
-106.53743125
 21
-25.4499445313
  0
LINE
  5
327
100
AcDbEntity
  8
RACCORDO
100
AcDbLine
 62
7
  6
CONTINUOUS
 10
-115.4426669719
 20
-26.5088337388
 11
-113.08743125
 21
-26.5499445313
  0
LINE
  5
328
100
AcDbEntity
  8
RACCORDO
100
AcDbLine
 62
253
  6
CONTINUOUS
 10
-115.4426669719
 20
-25.8089403522
 11
-113.08743125
 21
-25.8500511446
  0
LINE
  5
329
100
AcDbEntity
  8
0
100
AcDbLine
 62
7
  6
CONTINUOUS
 10
-106.1269640588
 20
-26.041570948
 11
-106.53743125
 21
-26.023436456
  0
LINE
  5
32A
100
AcDbEntity
  8
0
100
AcDbLine
 62
7
  6
CONTINUOUS
 10
-106.48743125
 20
-25.2999445313
 11
-106.28743125
 21
-25.2999445313
  0
LINE
  5
32B
100
AcDbEntity
  8
0
100
AcDbLine
 62
7
  6
CONTINUOUS
 10
-115.73743125
 20
-25.0849399633
 11
-115.93743125
 21
-25.0849399633
  0
LINE
  5
32C
100
AcDbEntity
  8
0
100
AcDbLine
 62
7
  6
CONTINUOUS
 10
-115.73743125
 20
-25.0725318373
 11
-115.93743125
 21
-25.0725318373
  0
LINE
  5
32D
100
AcDbEntity
  8
0
100
AcDbLine
 62
253
  6
CONTINUOUS
 10
-115.73743125
 20
-24.0119362482
 11
-115.93743125
 21
-24.0119362482
  0
LINE
  5
32E
100
AcDbEntity
  8
0
100
AcDbLine
 62
7
  6
CONTINUOUS
 10
-115.73743125
 20
-23.9406581564
 11
-115.93743125
 21
-23.9406581564
  0
LINE
  5
32F
100
AcDbEntity
  8
0
100
AcDbLine
 62
7
  6
CONTINUOUS
 10
-106.28743125
 20
24.8000554687
 11
-106.13743125
 21
24.9500554687
  0
LINE
  5
330
100
AcDbEntity
  8
0
100
AcDbLine
 62
7
  6
CONTINUOUS
 10
-106.28743125
 20
-25.2999445313
 11
-106.13743125
 21
-25.4499445313
  0
LWPOLYLINE
  5
331
100
AcDbEntity
  8
RACCORDO
100
AcDbPolyline
 62
253
  6
CONTINUOUS
 90
6
 70
0
 10
-115.4426669719
 20
-26.5088337388
 10
-115.4429953849
 20
-26.5073295051
 10
-115.4433032348
 20
-26.5028350833
 10
-115.4435874538
 20
-26.4953698044
 10
-115.4438439444
 20
-26.4849657417
 10
-115.444071435
 20
-26.4716674902
  0
LINE
  5
332
100
AcDbEntity
  8
RACCORDO
100
AcDbLine
 62
253
  6
CONTINUOUS
 10
-115.444071435
 20
-26.4716674902
 11
-115.4444425807
 21
-26.4366282772
  0
LINE
  5
333
100
AcDbEntity
  8
RACCORDO
100
AcDbLine
 62
253
  6
CONTINUOUS
 10
-115.4444425807
 20
-26.4366282772
 11
-115.4447716501
 21
-26.3641749022
  0
LINE
  5
334
100
AcDbEntity
  8
RACCORDO
100
AcDbLine
 62
253
  6
CONTINUOUS
 10
-115.4426669719
 20
25.3090512897
 11
-115.4446924111
 21
25.697874577
  0
LINE
  5
335
100
AcDbEntity
  8
0
100
AcDbLine
 62
7
  6
CONTINUOUS
 10
-115.93743125
 20
-26.065118929
 11
-115.93743125
 21
-23.9406653031
  0
LINE
  5
336
100
AcDbEntity
  8
RACCORDO
100
AcDbLine
 62
7
  6
CONTINUOUS
 10
-115.73743125
 20
-26.2088794303
 11
-115.73743125
 21
25.7089903678
  0
LINE
  5
337
100
AcDbEntity
  8
RACCORDO
100
AcDbLine
 62
253
  6
CONTINUOUS
 10
-115.4426669719
 20
-25.8089403522
 11
-115.4426669719
 21
25.3090512897
  0
LINE
  5
338
100
AcDbEntity
  8
RACCORDO
100
AcDbLine
 62
253
  6
CONTINUOUS
 10
-115.4446924111
 20
25.697874577
 11
-115.4447716686
 21
25.8642864065
  0
LINE
  5
339
100
AcDbEntity
  8
RACCORDO
100
AcDbLine
 62
253
  6
CONTINUOUS
 10
-115.4447716501
 20
-26.3641749022
 11
-115.444692435
 21
-26.1977628948
  0
LINE
  5
33A
100
AcDbEntity
  8
RACCORDO
100
AcDbLine
 62
253
  6
CONTINUOUS
 10
-115.4447716686
 20
25.8642864065
 11
-115.4444425942
 21
25.9367398308
  0
LINE
  5
33B
100
AcDbEntity
  8
RACCORDO
100
AcDbLine
 62
253
  6
CONTINUOUS
 10
-115.444692435
 20
-26.1977628948
 11
-115.4426669719
 21
-25.8089403522
  0
LWPOLYLINE
  5
33C
100
AcDbEntity
  8
RACCORDO
100
AcDbPolyline
 62
253
  6
CONTINUOUS
 90
7
 70
0
 10
-115.4444425942
 20
25.9367398308
 10
-115.4440714339
 20
25.9717789125
 10
-115.4438439382
 20
25.9850770213
 10
-115.443587445
 20
25.995480951
 10
-115.443303226
 20
26.0029461226
 10
-115.4429953791
 20
26.0074404702
 10
-115.4426669719
 20
26.0089446763
  0
LINE
  5
33D
100
AcDbEntity
  8
RACCORDO
100
AcDbLine
 62
7
  6
CONTINUOUS
 10
-113.08743125
 20
-47.4499445313
 11
-113.08743125
 21
46.9500554687
  0
LINE
  5
33E
100
AcDbEntity
  8
RACCORDO
100
AcDbLine
 62
253
  6
CONTINUOUS
 10
-112.58743125
 20
-47.9499445313
 11
-112.58743125
 21
47.4500554687
  0
LINE
  5
33F
100
AcDbEntity
  8
RACCORDO
100
AcDbLine
 62
253
  6
CONTINUOUS
 10
-107.63743125
 20
47.4500554687
 11
-107.63743125
 21
-47.9499445313
  0
LINE
  5
340
100
AcDbEntity
  8
RACCORDO
100
AcDbLine
 62
7
  6
CONTINUOUS
 10
-107.13743125
 20
46.9500554687
 11
-107.13743125
 21
-47.4499445313
  0
LINE
  5
341
100
AcDbEntity
  8
RACCORDO
100
AcDbLine
 62
7
  6
CONTINUOUS
 10
-106.53743125
 20
-45.54583383
 11
-106.53743125
 21
45.0459447675
  0
LINE
  5
342
100
AcDbEntity
  8
0
100
AcDbLine
 62
253
  6
CONTINUOUS
 10
-106.1269640588
 20
25.5416818855
 11
-106.1269640588
 21
24.9503295618
  0
LINE
  5
343
100
AcDbEntity
  8
0
100
AcDbLine
 62
253
  6
CONTINUOUS
 10
-106.1269640588
 20
-25.4502186243
 11
-106.1269640588
 21
-26.041570948
  0
LINE
  5
344
100
AcDbEntity
  8
ASSI
100
AcDbLine
 62
7
  6
CONTINUOUS
 10
-105.93743125
 20
-27.399892458
 11
-105.93743125
 21
-26.8999445313
  0
LINE
  5
345
100
AcDbEntity
  8
0
100
AcDbLine
 62
7
  6
CONTINUOUS
 10
-105.93743125
 20
-25.6499445313
 11
-105.93743125
 21
-26.8999445313
  0
LINE
  5
346
100
AcDbEntity
  8
0
100
AcDbLine
 62
7
  6
CONTINUOUS
 10
-105.93743125
 20
25.1500554688
 11
-105.93743125
 21
26.4000554688
  0
LINE
  5
347
100
AcDbEntity
  8
ASSI
100
AcDbLine
 62
7
  6
CONTINUOUS
 10
-105.93743125
 20
26.4000554688
 11
-105.93743125
 21
26.9000033955
  0
LINE
  5
348
100
AcDbEntity
  8
0
100
AcDbLine
 62
7
  6
CONTINUOUS
 10
-106.53743125
 20
-25.3499445313
 11
-106.48743125
 21
-25.2999445313
  0
LINE
  5
349
100
AcDbEntity
  8
0
100
AcDbLine
 62
7
  6
CONTINUOUS
 10
-105.93743125
 20
-26.8999445313
 11
-106.4382464431
 21
-27.4007597243
  0
LINE
  5
34A
100
AcDbEntity
  8
0
100
AcDbLine
 62
7
  6
CONTINUOUS
 10
-106.53743125
 20
24.8500554687
 11
-106.48743125
 21
24.8000554687
  0
LINE
  5
34B
100
AcDbEntity
  8
0
100
AcDbLine
 62
7
  6
CONTINUOUS
 10
-106.4382464431
 20
26.9008706618
 11
-105.93743125
 21
26.4000554688
  0
LINE
  5
34C
100
AcDbEntity
  8
0
100
AcDbLine
 62
7
  6
CONTINUOUS
 10
-106.1269640588
 20
25.5416818855
 11
-106.53743125
 21
25.5235473935
  0
LINE
  5
34D
100
AcDbEntity
  8
RACCORDO
100
AcDbLine
 62
253
  6
CONTINUOUS
 10
-115.4426669719
 20
25.3090512897
 11
-113.08743125
 21
25.3501620821
  0
LINE
  5
34E
100
AcDbEntity
  8
0
100
AcDbLine
 62
7
  6
CONTINUOUS
 10
-106.48743125
 20
24.8000554687
 11
-106.28743125
 21
24.8000554687
  0
LINE
  5
34F
100
AcDbEntity
  8
0
100
AcDbLine
 62
7
  6
CONTINUOUS
 10
-106.13743125
 20
24.9500554687
 11
-106.53743125
 21
24.9500554687
  0
LINE
  5
350
100
AcDbEntity
  8
RACCORDO
100
AcDbLine
 62
253
  6
CONTINUOUS
 10
-115.4426669719
 20
25.3090512893
 11
-115.73743125
 21
25.3090512897
  0
LINE
  5
351
100
AcDbEntity
  8
RACCORDO
100
AcDbLine
 62
7
  6
CONTINUOUS
 10
-115.4426669719
 20
26.0089446763
 11
-113.08743125
 21
26.0500554687
  0
LINE
  5
352
100
AcDbEntity
  8
ASSI
100
AcDbLine
 62
253
  6
CONTINUOUS
 10
-105.93743125
 20
26.6777011823
 11
-106.2152024397
 21
26.6778266584
  0
LINE
  5
353
100
AcDbEntity
  8
0
100
AcDbLine
 62
253
  6
CONTINUOUS
 10
-106.2152024397
 20
26.6778266584
 11
-106.53743125
 21
26.6779722172
  0
LINE
  5
354
100
AcDbEntity
  8
ASSI
100
AcDbLine
 62
7
  6
CONTINUOUS
 10
-105.93743125
 20
26.9000554688
 11
-106.4382463403
 21
26.9009295569
  0
LINE
  5
355
100
AcDbEntity
  8
0
100
AcDbLine
 62
7
  6
CONTINUOUS
 10
-106.4367927681
 20
26.9009270199
 11
-106.53743125
 21
26.9011026674
  0
LINE
  5
356
100
AcDbEntity
  8
0
100
AcDbLine
 62
7
  6
CONTINUOUS
 10
-105.93743125
 20
26.1000554687
 11
-106.53743125
 21
26.1035461666
  0
LINE
  5
357
100
AcDbEntity
  8
RACCORDO
100
AcDbLine
 62
253
  6
CONTINUOUS
 10
-107.13743125
 20
46.4500554688
 11
-113.08743125
 21
46.4500554688
  0
LINE
  5
358
100
AcDbEntity
  8
RACCORDO
100
AcDbLine
 62
7
  6
CONTINUOUS
 10
-112.58743125
 20
47.4500554687
 11
-107.63743125
 21
47.4500554687
  0
LINE
  5
359
100
AcDbEntity
  8
RACCORDO
100
AcDbLine
 62
253
  6
CONTINUOUS
 10
-107.13743125
 20
43.0567224161
 11
-106.53743125
 21
43.0462493772
  0
LINE
  5
35A
100
AcDbEntity
  8
RACCORDO
100
AcDbLine
 62
7
  6
CONTINUOUS
 10
-107.13743125
 20
45.0564178064
 11
-106.53743125
 21
45.0459447675
  0
ARC
  5
35B
100
AcDbEntity
  8
RACCORDO
100
AcDbCircle
 62
7
  6
CONTINUOUS
 10
-80.5428625
 20
46.4500554688
 40
1.0
100
AcDbArc
 50
90.0
 51
180.0
  0
ARC
  5
35C
100
AcDbEntity
  8
RACCORDO
100
AcDbCircle
 62
7
  6
CONTINUOUS
 10
80.4571375
 20
46.4500554688
 40
1.0
100
AcDbArc
 50
0.0
 51
90.0
  0
ARC
  5
35D
100
AcDbEntity
  8
RACCORDO
100
AcDbCircle
 62
7
  6
CONTINUOUS
 10
80.4571375
 20
-46.9499445313
 40
1.0
100
AcDbArc
 50
270.0
 51
360.0
  0
ARC
  5
35E
100
AcDbEntity
  8
RACCORDO
100
AcDbCircle
 62
7
  6
CONTINUOUS
 10
-80.5428625
 20
-46.9499445312
 40
1.0
100
AcDbArc
 50
180.0
 51
270.0
  0
ARC
  5
35F
100
AcDbEntity
  8
RACCORDO
100
AcDbCircle
 62
253
  6
CONTINUOUS
 10
-80.5428625
 20
46.4500554688
 40
0.5
100
AcDbArc
 50
90.0
 51
180.0
  0
ARC
  5
360
100
AcDbEntity
  8
RACCORDO
100
AcDbCircle
 62
253
  6
CONTINUOUS
 10
80.4571375
 20
46.4500554688
 40
0.5
100
AcDbArc
 50
0.0
 51
90.0
  0
ARC
  5
361
100
AcDbEntity
  8
RACCORDO
100
AcDbCircle
 62
253
  6
CONTINUOUS
 10
80.4571375
 20
-46.9499445313
 40
0.5
100
AcDbArc
 50
270.0
 51
360.0
  0
ARC
  5
362
100
AcDbEntity
  8
RACCORDO
100
AcDbCircle
 62
253
  6
CONTINUOUS
 10
-80.5428625
 20
-46.9499445312
 40
0.5
100
AcDbArc
 50
180.0
 51
270.0
  0
ARC
  5
363
100
AcDbEntity
  8
RACCORDO
100
AcDbCircle
 62
7
  6
CONTINUOUS
 10
-107.63743125
 20
46.9500554688
 40
0.5
100
AcDbArc
 50
0.0
 51
90.0
  0
ARC
  5
364
100
AcDbEntity
  8
RACCORDO
100
AcDbCircle
 62
7
  6
CONTINUOUS
 10
-107.63743125
 20
-47.4499445313
 40
0.5
100
AcDbArc
 50
270.0
 51
360.0
  0
ARC
  5
365
100
AcDbEntity
  8
RACCORDO
100
AcDbCircle
 62
7
  6
CONTINUOUS
 10
-112.58743125
 20
46.9500554687
 40
0.5
100
AcDbArc
 50
90.0
 51
180.0
  0
ARC
  5
366
100
AcDbEntity
  8
RACCORDO
100
AcDbCircle
 62
7
  6
CONTINUOUS
 10
-112.58743125
 20
-47.4499445313
 40
0.5
100
AcDbArc
 50
180.0
 51
270.0
  0
ARC
  5
367
100
AcDbEntity
  8
RACCORDO
100
AcDbCircle
 62
7
  6
CONTINUOUS
 10
-115.43743125
 20
25.7089903678
 40
0.3
100
AcDbArc
 50
91.0
 51
180.0
  0
ARC
  5
368
100
AcDbEntity
  8
RACCORDO
100
AcDbCircle
 62
7
  6
CONTINUOUS
 10
-115.43743125
 20
-26.2088794303
 40
0.3
100
AcDbArc
 50
180.0
 51
269.0
  0
ARC
  5
369
100
AcDbEntity
  8
0
100
AcDbCircle
 62
7
  6
CONTINUOUS
 10
-106.13743125
 20
-25.6499445313
 40
0.2
100
AcDbArc
 50
0.0
 51
90.0
  0
ARC
  5
36A
100
AcDbEntity
  8
0
100
AcDbCircle
 62
7
  6
CONTINUOUS
 10
-106.13743125
 20
25.1500554687
 40
0.2
100
AcDbArc
 50
270.0
 51
360.0
  0
ELLIPSE
  5
36B
100
AcDbEntity
  8
RACCORDO
100
AcDbEllipse
 62
7
  6
CONTINUOUS
 10
-59.0427558704
 20
25.3499488391
 30
0.0
 11
0.4951255324
 21
-0.4951255324
 31
0.0
 40
0.9996954599
 41
2.3563467834
 42
3.9268385237
  0
ELLIPSE
  5
36C
100
AcDbEntity
  8
RACCORDO
100
AcDbEllipse
 62
7
  6
CONTINUOUS
 10
-59.0427558704
 20
-25.8498379016
 30
0.0
 11
0.4951255324
 21
0.4951255324
 31
0.0
 40
0.9996954599
 41
2.3563467834
 42
3.9268385237
  0
ELLIPSE
  5
36D
100
AcDbEntity
  8
RACCORDO
100
AcDbEllipse
 62
7
  6
CONTINUOUS
 10
58.9570308704
 20
-25.8498379016
 30
0.0
 11
0.4951255324
 21
-0.4951255324
 31
0.0
 40
0.9996954599
 41
-0.7852458701
 42
0.7852458701
  0
ELLIPSE
  5
36E
100
AcDbEntity
  8
RACCORDO
100
AcDbEllipse
 62
7
  6
CONTINUOUS
 10
58.9570308704
 20
25.3499488391
 30
0.0
 11
0.4951255324
 21
0.4951255324
 31
0.0
 40
0.9996954599
 41
-0.7852458701
 42
0.7852458701
  0
ELLIPSE
  5
36F
100
AcDbEntity
  8
RACCORDO
100
AcDbEllipse
 62
7
  6
CONTINUOUS
 10
56.0492370224
 20
22.0421549911
 30
0.0
 11
0.2121966568
 21
0.2121966568
 31
0.0
 40
0.9996954599
 41
-0.7852458701
 42
0.7852458701
  0
ELLIPSE
  5
370
100
AcDbEntity
  8
RACCORDO
100
AcDbEllipse
 62
7
  6
CONTINUOUS
 10
56.0492370224
 20
-22.5420440536
 30
0.0
 11
0.2121966568
 21
-0.2121966568
 31
0.0
 40
0.9996954599
 41
-0.7852458701
 42
0.7852458701
  0
ELLIPSE
  5
371
100
AcDbEntity
  8
RACCORDO
100
AcDbEllipse
 62
7
  6
CONTINUOUS
 10
-56.1349620224
 20
22.0421549911
 30
0.0
 11
0.2121966568
 21
-0.2121966568
 31
0.0
 40
0.9996954599
 41
2.3563467834
 42
3.9268385237
  0
ELLIPSE
  5
372
100
AcDbEntity
  8
RACCORDO
100
AcDbEllipse
 62
7
  6
CONTINUOUS
 10
-56.1349620224
 20
-22.5420440536
 30
0.0
 11
-0.2121966568
 21
-0.2121966568
 31
0.0
 40
0.9996954599
 41
-0.7852458701
 42
0.7852458701
  0
ELLIPSE
  5
373
100
AcDbEntity
  8
0
100
AcDbEllipse
 62
7
  6
CONTINUOUS
 10
-106.13743125
 20
25.7414939129
 30
0.0
 11
-0.1417119467
 21
0.1422961243
 31
0.0
 40
0.9918061237
 41
-3.8766878413
 42
-2.358251392
  0
ELLIPSE
  5
374
100
AcDbEntity
  8
0
100
AcDbEllipse
 62
7
  6
CONTINUOUS
 10
-106.13743125
 20
-26.2413829754
 30
0.0
 11
0.1417119467
 21
0.1422961243
 31
0.0
 40
0.9918061237
 41
-0.7833412616
 42
0.7350951877
  0
ENDSEC
  0
SECTION
  2
OBJECTS
  0
DICTIONARY
  5
C
100
AcDbDictionary
280
0
281
1
  3
ACAD_GROUP
350
D
  3
ACAD_MLINESTYLE
350
17
  3
ACAD_LAYOUT
350
1A
  3
ACAD_PLOTSETTINGS
350
19
  3
ACAD_PLOTSTYLENAME
350
E
  0
DICTIONARY
  5
D
102
{ACAD_REACTORS
330
C
102
}
100
AcDbDictionary
280
0
281
1
  0
ACDBDICTIONARYWDFLT
  5
E
102
{ACAD_REACTORS
330
C
102
}
100
AcDbDictionary
281
1
  3
Normal
350
F
100
AcDbDictionaryWithDefault
340
F
  0
DICTIONARY
  5
17
102
{ACAD_REACTORS
330
C
102
}
100
AcDbDictionary
280
0
281
1
  3
Standard
350
18
  0
DICTIONARY
  5
19
102
{ACAD_REACTORS
330
C
102
}
100
AcDbDictionary
281
1
  0
DICTIONARY
  5
1A
102
{ACAD_REACTORS
330
C
102
}
100
AcDbDictionary
281
1
  3
Model
350
375
  3
Layout1
350
376
  0
ACDBPLACEHOLDER
  5
F
102
{ACAD_REACTORS
330
E
102
}
  0
MLINESTYLE
  5
18
102
{ACAD_REACTORS
330
17
102
}
100
AcDbMlineStyle
  2
STANDARD
 70
0
  3

 62
256
 51
90.0
 52
90.0
 71
2
 49
0.5
 62
256
  6
BYLAYER
 49
-0.5
 62
256
  6
BYLAYER
  0
LAYOUT
  5
375
102
{ACAD_REACTORS
330
1A
102
}
100
AcDbPlotSettings
  1

  2
none_device
  4
ISO_A4_(297.00_x_210.00_MM)
  6

 40
0.0
 41
0.0
 42
0.0
 43
0.0
 44
297.0
 45
210.0
 46
0.0
 47
0.0
 48
0.0
 49
0.0
140
0.0
141
0.0
142
1.0
143
1.0
 70
1024
 72
1
 73
0
 74
0
  7

 75
0
147
1.0
148
0.0
149
0.0
100
AcDbLayout
  1
Model
 70
0
 71
0
 10
0.0
 20
0.0
 11
297.0
 21
210.0
 12
0.0
 22
0.0
 32
0.0
 14
0.0
 24
0.0
 34
0.0
 15
0.0
 25
0.0
 35
0.0
146
0.0
 13
0.0
 23
0.0
 33
0.0
 16
1.0
 26
0.0
 36
0.0
 17
0.0
 27
1.0
 37
0.0
 76
0
330
215
345
0
346
0
  0
LAYOUT
  5
376
102
{ACAD_REACTORS
330
1A
102
}
100
AcDbPlotSettings
  1

  2
none_device
  4
ISO_A4_(297.00_x_210.00_MM)
  6

 40
0.0
 41
0.0
 42
0.0
 43
0.0
 44
297.0
 45
210.0
 46
0.0
 47
0.0
 48
0.0
 49
0.0
140
0.0
141
0.0
142
1.0
143
1.0
 70
0
 72
1
 73
0
 74
0
  7

 75
0
147
1.0
148
0.0
149
0.0
100
AcDbLayout
  1
Layout1
 70
0
 71
1
 10
0.0
 20
0.0
 11
297.0
 21
210.0
 12
0.0
 22
0.0
 32
0.0
 14
0.0
 24
0.0
 34
0.0
 15
0.0
 25
0.0
 35
0.0
146
0.0
 13
0.0
 23
0.0
 33
0.0
 16
1.0
 26
0.0
 36
0.0
 17
0.0
 27
1.0
 37
0.0
 76
0
330
216
345
0
346
0
  0
ENDSEC
  0
EOF
