  0
SECTION
  2
HEADER
  9
$ACADVER
  1
AC1015
  9
$DWGCODEPAGE
  3
ANSI_1252
  9
$EXTMAX
 10
297.0
 20
210.0
 30
0.0
  9
$EXTMIN
 10
0.0
 20
0.0
 30
0.0
  9
$LIMMIN
 10
0.0
 20
0.0
  9
$LIMMAX
 10
297.0
 20
210.0
  9
$VIEWCTR
 10
148.5
 20
105.0
  9
$VIEWSIZE
 40
210.0
  9
$CLAYER
  8
0
  9
$LTSCALE
 40
16.335
  9
$CELTYPE
  6
BYLAYER
  9
$DIMSCALE
 40
1.0
  9
$DIMASZ
 40
3.0
  9
$DIMEXO
 40
0.5
  9
$DIMDLI
 40
11.286
  9
$DIMEXE
 40
1.5
  9
$DIMCEN
 40
2.673
  9
$DIMLFAC
 40
1.0
  9
$DIMBLK
  1
_FILLED
  9
$DIMTXT
 40
3.0
  9
$DIMTOL
 70
1
  9
$DIMLIM
 70
0
  9
$DIMTFAC
 40
1.0
  9
$DIMTP
 40
0.01
  9
$DIMTM
 40
0.01
  9
$DIMGAP
 40
0.625
  9
$DIMDSEP
 70
44
  9
$PDMODE
 70
3
  9
$PDSIZE
 40
3.0
  9
$HANDSEED
  5
38D
  9
$TILEMODE
 70
1
  9
$MEASUREMENT
 70
1
  9
$INSUNITS
 70
4
  0
ENDSEC
  0
SECTION
  2
CLASSES
  0
CLASS
  1
ACDBDICTIONARYWDFLT
  2
AcDbDictionaryWithDefault
  3
AutoCAD 2000
 90
0
280
0
281
0
  0
CLASS
  1
ACDBPLACEHOLDER
  2
AcDbPlaceHolder
  3
AutoCAD 2000
 90
0
280
0
281
0
  0
CLASS
  1
LAYOUT
  2
AcDbLayout
  3
AutoCAD 2000
 90
0
280
0
281
0
  0
ENDSEC
  0
SECTION
  2
TABLES
  0
TABLE
  2
VPORT
  5
8
100
AcDbSymbolTable
 70
2
  0
VPORT
  5
1F4
100
AcDbSymbolTableRecord
100
AcDbViewportTableRecord
  2
*ACTIVE
 70
0
 10
0.0
 20
0.0
 11
1.0
 21
1.0
 12
148.5
 22
105.0
 13
0.0
 23
0.0
 14
1.0
 24
1.0
 15
0.0
 25
0.0
 16
0.0
 26
0.0
 36
1.0
 17
0.0
 27
0.0
 37
0.0
 40
210.0
 41
1.4142857143
 42
50.0
 43
0.0
 44
0.0
 50
0.0
 51
0.0
 71
0
 72
100
 73
1
 74
1
 75
0
 76
0
 77
0
 78
0
  0
ENDTAB
  0
TABLE
  2
LTYPE
  5
5
100
AcDbSymbolTable
 70
6
  0
LTYPE
  5
14
100
AcDbSymbolTableRecord
100
AcDbLinetypeTableRecord
  2
BYBLOCK
 70
0
  3

 72
65
 73
0
 40
0.0
  0
LTYPE
  5
15
100
AcDbSymbolTableRecord
100
AcDbLinetypeTableRecord
  2
BYLAYER
 70
0
  3

 72
65
 73
0
 40
0.0
  0
LTYPE
  5
16
100
AcDbSymbolTableRecord
100
AcDbLinetypeTableRecord
  2
CONTINUOUS
 70
64
  3
Solid line
 72
65
 73
0
 40
0.0
  0
LTYPE
  5
1F5
100
AcDbSymbolTableRecord
100
AcDbLinetypeTableRecord
  2
CENTER
 70
64
  3
____ _ ____ _ ____ _ ____ _ ____ _ ____ _ ____
 72
65
 73
4
 40
0.6
 49
0.375
 74
0
 49
-0.075
 74
0
 49
0.075
 74
0
 49
-0.075
 74
0
  0
LTYPE
  5
1F6
100
AcDbSymbolTableRecord
100
AcDbLinetypeTableRecord
  2
HIDDEN
 70
64
  3
- - - - - - - - - - - - - - - - - - - -
 72
65
 73
2
 40
0.2
 49
0.1
 74
0
 49
-0.1
 74
0
  0
LTYPE
  5
1F7
100
AcDbSymbolTableRecord
100
AcDbLinetypeTableRecord
  2
PHANTOM
 70
64
  3
_____ _ _ _____ _ _ _____ _ _ _____
 72
65
 73
6
 40
0.8
 49
0.45
 74
0
 49
-0.05
 74
0
 49
0.1
 74
0
 49
-0.05
 74
0
 49
0.1
 74
0
 49
-0.05
 74
0
  0
LTYPE
  5
1F8
100
AcDbSymbolTableRecord
100
AcDbLinetypeTableRecord
  2
DOT
 70
64
  3
. . . . . . . . . . . . . . . . . . . .
 72
65
 73
2
 40
0.2
 49
0.1
 74
0
 49
-0.1
 74
0
  0
LTYPE
  5
1F9
100
AcDbSymbolTableRecord
100
AcDbLinetypeTableRecord
  2
DASHED
 70
64
  3
- - - - - - - - - - - - - - - - - - - -
 72
65
 73
2
 40
0.2
 49
0.1
 74
0
 49
-0.1
 74
0
  0
ENDTAB
  0
TABLE
  2
LAYER
  5
2
100
AcDbSymbolTable
 70
36
  0
LAYER
  5
10
100
AcDbSymbolTableRecord
100
AcDbLayerTableRecord
  2
0
 70
0
 62
7
  6
CONTINUOUS
370
-3
390
F
  0
LAYER
  5
1FA
100
AcDbSymbolTableRecord
100
AcDbLayerTableRecord
  2
DEFAULT_1
 70
0
 62
7
  6
CENTER
370
-3
390
F
  0
LAYER
  5
1FB
100
AcDbSymbolTableRecord
100
AcDbLayerTableRecord
  2
DEFAULT_2
 70
0
 62
7
  6
HIDDEN
370
-3
390
F
  0
LAYER
  5
1FC
100
AcDbSymbolTableRecord
100
AcDbLayerTableRecord
  2
DEFAULT_3
 70
0
 62
7
  6
PHANTOM
370
-3
390
F
  0
LAYER
  5
1FD
100
AcDbSymbolTableRecord
100
AcDbLayerTableRecord
  2
ASSI
 70
0
 62
7
  6
CONTINUOUS
370
-3
390
F
  0
LAYER
  5
1FE
100
AcDbSymbolTableRecord
100
AcDbLayerTableRecord
  2
COORDINATE
 70
0
 62
7
  6
CONTINUOUS
370
-3
390
F
  0
LAYER
  5
1FF
100
AcDbSymbolTableRecord
100
AcDbLayerTableRecord
  2
COORD_ORIGINE
 70
0
 62
7
  6
CONTINUOUS
370
-3
390
F
  0
LAYER
  5
200
100
AcDbSymbolTableRecord
100
AcDbLayerTableRecord
  2
COPY_PUBLISH
 70
0
 62
7
  6
CONTINUOUS
370
-3
390
F
  0
LAYER
  5
201
100
AcDbSymbolTableRecord
100
AcDbLayerTableRecord
  2
COSMETIC
 70
0
 62
7
  6
CONTINUOUS
370
-3
390
F
  0
LAYER
  5
202
100
AcDbSymbolTableRecord
100
AcDbLayerTableRecord
  2
COSMETICI
 70
0
 62
7
  6
CONTINUOUS
370
-3
390
F
  0
LAYER
  5
203
100
AcDbSymbolTableRecord
100
AcDbLayerTableRecord
  2
CURVE
 70
0
 62
7
  6
CONTINUOUS
370
-3
390
F
  0
LAYER
  5
204
100
AcDbSymbolTableRecord
100
AcDbLayerTableRecord
  2
DRAFT
 70
0
 62
7
  6
CONTINUOUS
370
-3
390
F
  0
LAYER
  5
205
100
AcDbSymbolTableRecord
100
AcDbLayerTableRecord
  2
IMPORT_IGES
 70
0
 62
7
  6
CONTINUOUS
370
-3
390
F
  0
LAYER
  5
206
100
AcDbSymbolTableRecord
100
AcDbLayerTableRecord
  2
INTFCLR_2
 70
0
 62
7
  6
CONTINUOUS
370
-3
390
F
  0
LAYER
  5
207
100
AcDbSymbolTableRecord
100
AcDbLayerTableRecord
  2
NOTE
 70
0
 62
7
  6
CONTINUOUS
370
-3
390
F
  0
LAYER
  5
208
100
AcDbSymbolTableRecord
100
AcDbLayerTableRecord
  2
PIANI
 70
0
 62
7
  6
CONTINUOUS
370
-3
390
F
  0
LAYER
  5
209
100
AcDbSymbolTableRecord
100
AcDbLayerTableRecord
  2
PIANI_ORIGINE
 70
0
 62
7
  6
CONTINUOUS
370
-3
390
F
  0
LAYER
  5
20A
100
AcDbSymbolTableRecord
100
AcDbLayerTableRecord
  2
PIANI_RIFERIMENTO
 70
0
 62
7
  6
CONTINUOUS
370
-3
390
F
  0
LAYER
  5
20B
100
AcDbSymbolTableRecord
100
AcDbLayerTableRecord
  2
PUNTI
 70
0
 62
7
  6
CONTINUOUS
370
-3
390
F
  0
LAYER
  5
20C
100
AcDbSymbolTableRecord
100
AcDbLayerTableRecord
  2
RACCORDO
 70
0
 62
7
  6
CONTINUOUS
370
-3
390
F
  0
LAYER
  5
20D
100
AcDbSymbolTableRecord
100
AcDbLayerTableRecord
  2
SIMBOLI
 70
0
 62
7
  6
CONTINUOUS
370
-3
390
F
  0
LAYER
  5
20E
100
AcDbSymbolTableRecord
100
AcDbLayerTableRecord
  2
SMUSSO
 70
0
 62
7
  6
CONTINUOUS
370
-3
390
F
  0
LAYER
  5
20F
100
AcDbSymbolTableRecord
100
AcDbLayerTableRecord
  2
SNAPLINE
 70
0
 62
7
  6
CONTINUOUS
370
-3
390
F
  0
LAYER
  5
210
100
AcDbSymbolTableRecord
100
AcDbLayerTableRecord
  2
SUPERFICI
 70
0
 62
7
  6
CONTINUOUS
370
-3
390
F
  0
LAYER
  5
211
100
AcDbSymbolTableRecord
100
AcDbLayerTableRecord
  2
TRASH
 70
0
 62
7
  6
CONTINUOUS
370
-3
390
F
  0
LAYER
  5
212
100
AcDbSymbolTableRecord
100
AcDbLayerTableRecord
  2
XSEC_DATUMS
 70
0
 62
7
  6
CONTINUOUS
370
-3
390
F
  0
ENDTAB
  0
TABLE
  2
STYLE
  5
3
100
AcDbSymbolTable
 70
1
  0
STYLE
  5
11
100
AcDbSymbolTableRecord
100
AcDbTextStyleTableRecord
  2
STANDARD
 70
0
 40
0.0
 41
0.8
 50
0.0
 71
0
 42
0.2
  3
txt
  4

  0
STYLE
  5
213
100
AcDbSymbolTableRecord
100
AcDbTextStyleTableRecord
  2
TEXTSTYLE_1
 70
0
 40
0.0
 41
0.8
 50
0.0
 71
0
 42
0.2
  3
gdt
  4

  0
ENDTAB
  0
TABLE
  2
VIEW
  5
6
100
AcDbSymbolTable
 70
0
  0
ENDTAB
  0
TABLE
  2
UCS
  5
7
100
AcDbSymbolTable
 70
0
  0
ENDTAB
  0
TABLE
  2
APPID
  5
9
100
AcDbSymbolTable
 70
1
  0
APPID
  5
214
100
AcDbSymbolTableRecord
100
AcDbRegAppTableRecord
  2
ACAD
 70
0
  0
ENDTAB
  0
TABLE
  2
BLOCK_RECORD
  5
1
100
AcDbSymbolTable
 70
0
  0
BLOCK_RECORD
  5
215
100
AcDbSymbolTableRecord
100
AcDbBlockTableRecord
  2
*Model_Space
  0
BLOCK_RECORD
  5
216
100
AcDbSymbolTableRecord
100
AcDbBlockTableRecord
  2
*Paper_Space
  0
BLOCK_RECORD
  5
217
100
AcDbSymbolTableRecord
100
AcDbBlockTableRecord
  2
_FILLED
  0
BLOCK_RECORD
  5
218
100
AcDbSymbolTableRecord
100
AcDbBlockTableRecord
  2
*D0
  0
BLOCK_RECORD
  5
219
100
AcDbSymbolTableRecord
100
AcDbBlockTableRecord
  2
*D1
  0
BLOCK_RECORD
  5
21A
100
AcDbSymbolTableRecord
100
AcDbBlockTableRecord
  2
*D2
  0
BLOCK_RECORD
  5
21B
100
AcDbSymbolTableRecord
100
AcDbBlockTableRecord
  2
*D3
  0
ENDTAB
  0
TABLE
  2
DIMSTYLE
  5
A
100
AcDbSymbolTable
 70
1
100
AcDbDimStyleTable
 71
0
  0
DIMSTYLE
105
21C
100
AcDbSymbolTableRecord
100
AcDbDimStyleTableRecord
  2
STANDARD
 70
0
  3

  4

 40
1.0
 41
3.0
 42
0.5
 43
0.38
 44
1.5
 45
0.0
 46
0.0
 47
0.01
 48
0.01
140
3.0
141
0.09
142
0.0
143
25.4
144
1.0
145
0.0
146
1.0
147
0.625
 71
1.0
 72
0.0
 73
0
 74
0
 75
0
 76
0
 77
1
 78
8
170
0
171
2
172
0
173
0
174
0
175
0
176
0
177
0
178
0
270
2
271
2
272
2
273
2
274
2
275
0
280
0
281
0
282
0
283
1
284
8
285
0
286
0
287
3
288
0
340
11
278
44
341
217
342
217
343
217
344
217
  0
DIMSTYLE
105
21D
100
AcDbSymbolTableRecord
100
AcDbDimStyleTableRecord
  2
DIMSTYLE_1
 70
0
  3

  4

 40
1.0
 41
3.0
 42
0.5
 43
0.38
 44
1.5
 45
0.0
 46
0.0
 47
0.0
 48
0.0
140
3.0
141
0.09
142
0.0
143
25.4
144
1.0
145
0.0
146
1.0
147
0.75
 71
0.0
 72
0.0
 73
0
 74
0
 75
0
 76
0
 77
1
 78
8
170
0
171
2
172
0
173
0
174
0
175
0
176
0
177
0
178
0
270
2
271
2
272
2
273
2
274
2
275
0
280
0
281
0
282
0
283
1
284
8
285
0
286
0
287
3
288
0
340
11
278
44
341
217
342
217
343
217
344
217
  0
ENDTAB
  0
ENDSEC
  0
SECTION
  2
BLOCKS
  0
BLOCK
  5
20
100
AcDbEntity
  8
0
100
AcDbBlockBegin
  2
*Model_Space
 70
0
 10
0.0
 20
0.0
 30
0.0
  3
*Model_Space
  1

  0
ENDBLK
  5
21
100
AcDbEntity
  8
0
100
AcDbBlockEnd
  0
BLOCK
  5
1C
100
AcDbEntity
  8
0
100
AcDbBlockBegin
  2
*Paper_Space
 70
0
 10
0.0
 20
0.0
 30
0.0
  3
*Paper_Space
  1

  0
ENDBLK
  5
1D
100
AcDbEntity
  8
0
100
AcDbBlockEnd
  0
BLOCK
  5
21E
100
AcDbEntity
  8
0
100
AcDbBlockBegin
  2
_FILLED
 70
64
 10
0.0
 20
0.0
  3
_FILLED
  1

  0
SOLID
  5
21F
100
AcDbEntity
  8
0
  6
BYBLOCK
 62
0
100
AcDbTrace
 10
0.0
 20
0.0
 11
-1.0
 21
0.3166666667
 12
-1.0
 22
-0.3166666667
 13
-1.0
 23
-0.3166666667
  0
ENDBLK
  5
220
100
AcDbEntity
  8
0
  6
BYBLOCK
 62
0
100
AcDbBlockEnd
  0
BLOCK
  5
221
100
AcDbEntity
  8
0
100
AcDbBlockBegin
 62
7
  6
CONTINUOUS
  2
*D0
 70
65
 10
0.0
 20
0.0
  3
*D0
  1

  0
MTEXT
  5
222
100
AcDbEntity
  8
0
100
AcDbMText
 62
7
  6
CONTINUOUS
  7
STANDARD
 71
2
 72
1
 10
85.0870535714
 20
0.1597576531
 30
0.0
 11
0.0
 21
1.0
 31
0.0
 44
0.9
  1
95,4
 40
3.0
 41
8.5714285714
  0
LINE
  5
223
100
AcDbEntity
  8
0
100
AcDbLine
 62
7
  6
CONTINUOUS
 10
80.3370535714
 20
47.8597576531
 11
90.3370535714
 21
47.8597576531
  0
LINE
  5
224
100
AcDbEntity
  8
0
100
AcDbLine
 62
7
  6
CONTINUOUS
 10
80.3370535714
 20
-47.5402423469
 11
90.3370535714
 21
-47.5402423469
  0
LINE
  5
225
100
AcDbEntity
  8
0
100
AcDbLine
 62
7
  6
CONTINUOUS
 10
88.8370535714
 20
47.8597576531
 11
88.8370535714
 21
0.1597576531
  0
LINE
  5
226
100
AcDbEntity
  8
0
100
AcDbLine
 62
7
  6
CONTINUOUS
 10
88.8370535714
 20
-47.5402423469
 11
88.8370535714
 21
0.1597576531
  0
INSERT
  5
227
100
AcDbEntity
  8
0
100
AcDbBlockReference
 62
7
  6
CONTINUOUS
  2
_FILLED
 10
88.8370535714
 20
47.8597576531
 41
3.0
 42
3.0
 43
3.0
 50
90.0
  0
INSERT
  5
228
100
AcDbEntity
  8
0
100
AcDbBlockReference
 62
7
  6
CONTINUOUS
  2
_FILLED
 10
88.8370535714
 20
-47.5402423469
 41
3.0
 42
3.0
 43
3.0
 50
270.0
  0
ENDBLK
  5
229
100
AcDbEntity
  8
0
  6
BYBLOCK
 62
0
100
AcDbBlockEnd
  0
BLOCK
  5
22A
100
AcDbEntity
  8
0
100
AcDbBlockBegin
 62
7
  6
CONTINUOUS
  2
*D1
 70
65
 10
0.0
 20
0.0
  3
*D1
  1

  0
MTEXT
  5
22B
100
AcDbEntity
  8
0
100
AcDbMText
 62
7
  6
CONTINUOUS
  7
STANDARD
 71
2
 72
1
 10
-0.6629464286
 20
59.6097576531
 30
0.0
 11
1.0
 21
0.0
 31
0.0
 44
0.9
  1
163
 40
3.0
 41
6.2142857143
  0
LINE
  5
22C
100
AcDbEntity
  8
0
100
AcDbLine
 62
7
  6
CONTINUOUS
 10
80.8370535714
 20
47.3597576531
 11
80.8370535714
 21
57.3597576531
  0
LINE
  5
22D
100
AcDbEntity
  8
0
100
AcDbLine
 62
7
  6
CONTINUOUS
 10
-82.1629464286
 20
47.3597576531
 11
-82.1629464286
 21
57.3597576531
  0
LINE
  5
22E
100
AcDbEntity
  8
0
100
AcDbLine
 62
7
  6
CONTINUOUS
 10
80.8370535714
 20
55.8597576531
 11
-0.6629464286
 21
55.8597576531
  0
LINE
  5
22F
100
AcDbEntity
  8
0
100
AcDbLine
 62
7
  6
CONTINUOUS
 10
-82.1629464286
 20
55.8597576531
 11
-0.6629464286
 21
55.8597576531
  0
INSERT
  5
230
100
AcDbEntity
  8
0
100
AcDbBlockReference
 62
7
  6
CONTINUOUS
  2
_FILLED
 10
80.8370535714
 20
55.8597576531
 41
3.0
 42
3.0
 43
3.0
  0
INSERT
  5
231
100
AcDbEntity
  8
0
100
AcDbBlockReference
 62
7
  6
CONTINUOUS
  2
_FILLED
 10
-82.1629464286
 20
55.8597576531
 41
3.0
 42
3.0
 43
3.0
 50
180.0
  0
ENDBLK
  5
232
100
AcDbEntity
  8
0
  6
BYBLOCK
 62
0
100
AcDbBlockEnd
  0
BLOCK
  5
233
100
AcDbEntity
  8
0
100
AcDbBlockBegin
 62
7
  6
CONTINUOUS
  2
*D2
 70
65
 10
0.0
 20
0.0
  3
*D2
  1

  0
MTEXT
  5
234
100
AcDbEntity
  8
0
100
AcDbMText
 62
7
  6
CONTINUOUS
  7
STANDARD
 71
1
 72
1
 10
-104.210964708
 20
59.6097576531
 30
0.0
 11
1.0
 21
0.0
 31
0.0
 44
0.9
  1
9,25
 40
3.0
 41
8.5714285714
  0
LINE
  5
235
100
AcDbEntity
  8
0
100
AcDbLine
 62
7
  6
CONTINUOUS
 10
-109.7722576531
 20
46.8097576531
 11
-109.7722576531
 21
57.3597576531
  0
LINE
  5
236
100
AcDbEntity
  8
0
100
AcDbLine
 62
7
  6
CONTINUOUS
 10
-119.0222576531
 20
26.218753474
 11
-119.0222576531
 21
57.3597576531
  0
LINE
  5
237
100
AcDbEntity
  8
0
100
AcDbLine
 62
7
  6
CONTINUOUS
 10
-109.7722576531
 20
55.8597576531
 11
-114.3972576531
 21
55.8597576531
  0
LINE
  5
238
100
AcDbEntity
  8
0
100
AcDbLine
 62
7
  6
CONTINUOUS
 10
-114.3972576531
 20
55.8597576531
 11
-95.6395361366
 21
55.8597576531
  0
LINE
  5
239
100
AcDbEntity
  8
0
100
AcDbLine
 62
7
  6
CONTINUOUS
 10
-119.0222576531
 20
55.8597576531
 11
-114.3972576531
 21
55.8597576531
  0
INSERT
  5
23A
100
AcDbEntity
  8
0
100
AcDbBlockReference
 62
7
  6
CONTINUOUS
  2
_FILLED
 10
-109.7722576531
 20
55.8597576531
 41
3.0
 42
3.0
 43
3.0
  0
INSERT
  5
23B
100
AcDbEntity
  8
0
100
AcDbBlockReference
 62
7
  6
CONTINUOUS
  2
_FILLED
 10
-119.0222576531
 20
55.8597576531
 41
3.0
 42
3.0
 43
3.0
 50
180.0
  0
ENDBLK
  5
23C
100
AcDbEntity
  8
0
  6
BYBLOCK
 62
0
100
AcDbBlockEnd
  0
BLOCK
  5
23D
100
AcDbEntity
  8
0
100
AcDbBlockBegin
 62
7
  6
CONTINUOUS
  2
*D3
 70
65
 10
0.0
 20
0.0
  3
*D3
  1

  0
MTEXT
  5
23E
100
AcDbEntity
  8
0
100
AcDbMText
 62
7
  6
CONTINUOUS
  7
STANDARD
 71
1
 72
1
 10
-103.5537638172
 20
69.6097576531
 30
0.0
 11
1.0
 21
0.0
 31
0.0
 44
0.9
  1
9,85
 40
3.0
 41
8.5714285714
  0
LINE
  5
23F
100
AcDbEntity
  8
0
100
AcDbLine
 62
7
  6
CONTINUOUS
 10
-119.0222576531
 20
26.218753474
 11
-119.0222576531
 21
67.3597576531
  0
LINE
  5
240
100
AcDbEntity
  8
0
100
AcDbLine
 62
7
  6
CONTINUOUS
 10
-109.1722576531
 20
27.8097576531
 11
-109.1722576531
 21
67.3597576531
  0
LINE
  5
241
100
AcDbEntity
  8
0
100
AcDbLine
 62
7
  6
CONTINUOUS
 10
-119.0222576531
 20
65.8597576531
 11
-114.0972576531
 21
65.8597576531
  0
LINE
  5
242
100
AcDbEntity
  8
0
100
AcDbLine
 62
7
  6
CONTINUOUS
 10
-109.1722576531
 20
65.8597576531
 11
-114.0972576531
 21
65.8597576531
  0
LINE
  5
243
100
AcDbEntity
  8
0
100
AcDbLine
 62
7
  6
CONTINUOUS
 10
-114.0972576531
 20
65.8597576531
 11
-94.9823352458
 21
65.8597576531
  0
INSERT
  5
244
100
AcDbEntity
  8
0
100
AcDbBlockReference
 62
7
  6
CONTINUOUS
  2
_FILLED
 10
-119.0222576531
 20
65.8597576531
 41
3.0
 42
3.0
 43
3.0
 50
180.0
  0
INSERT
  5
245
100
AcDbEntity
  8
0
100
AcDbBlockReference
 62
7
  6
CONTINUOUS
  2
_FILLED
 10
-109.1722576531
 20
65.8597576531
 41
3.0
 42
3.0
 43
3.0
  0
ENDBLK
  5
246
100
AcDbEntity
  8
0
  6
BYBLOCK
 62
0
100
AcDbBlockEnd
  0
ENDSEC
  0
SECTION
  2
ENTITIES
  0
DIMENSION
  5
247
100
AcDbEntity
  8
0
100
AcDbDimension
 62
7
  6
CONTINUOUS
  2
*D0
 10
88.8370535714
 20
-47.5402423469
 11
88.8370535714
 21
0.1597576531
 70
160
 71
2
 42
95.4
  3
DIMSTYLE_1
100
AcDbAlignedDimension
 13
79.8370535714
 23
47.8597576531
 14
79.8370535714
 24
-47.5402423469
 50
270.0
100
AcDbRotatedDimension
  0
DIMENSION
  5
248
100
AcDbEntity
  8
0
100
AcDbDimension
 62
7
  6
CONTINUOUS
  2
*D1
 10
-82.1629464286
 20
55.8597576531
 11
-0.6629464286
 21
55.8597576531
 70
160
 71
2
 42
163.0
  3
DIMSTYLE_1
100
AcDbAlignedDimension
 13
80.8370535714
 23
46.8597576531
 14
-82.1629464286
 24
46.8597576531
 50
180.0
100
AcDbRotatedDimension
  0
DIMENSION
  5
249
100
AcDbEntity
  8
0
100
AcDbDimension
 62
7
  6
CONTINUOUS
  2
*D2
 10
-119.0222576531
 20
55.8597576531
 11
-99.9252504223
 21
55.8597576531
 70
160
 71
1
 42
9.25
  3
DIMSTYLE_1
100
AcDbAlignedDimension
 13
-109.7722576531
 23
46.3097576531
 14
-119.0222576531
 24
25.718753474
 50
180.0
100
AcDbRotatedDimension
  0
DIMENSION
  5
24A
100
AcDbEntity
  8
0
100
AcDbDimension
 62
7
  6
CONTINUOUS
  2
*D3
 10
-109.1722576531
 20
65.8597576531
 11
-99.2680495315
 21
65.8597576531
 70
160
 71
1
 42
9.85
  3
DIMSTYLE_1
100
AcDbAlignedDimension
 13
-119.0222576531
 23
25.718753474
 14
-109.1722576531
 24
27.3097576531
100
AcDbRotatedDimension
  0
LINE
  5
24B
100
AcDbEntity
  8
SMUSSO
100
AcDbLine
 62
7
  6
CONTINUOUS
 10
-82.1629464286
 20
46.8597576531
 11
-82.1629464286
 21
-46.5402423469
  0
LINE
  5
24C
100
AcDbEntity
  8
SMUSSO
100
AcDbLine
 62
7
  6
CONTINUOUS
 10
-76.1629464286
 20
41.8597576531
 11
-76.1629464286
 21
-41.5402423469
  0
LWPOLYLINE
  5
24D
100
AcDbEntity
  8
RACCORDO
100
AcDbPolyline
 62
253
  6
CONTINUOUS
 90
22
 70
0
 10
-57.0622014112
 20
-22.144907439
 10
-57.0614496994
 20
-22.1602831307
 10
-57.0598182456
 20
-22.1762550893
 10
-57.0572056732
 20
-22.192766602
 10
-57.0535199967
 20
-22.2097017942
 10
-57.0486568148
 20
-22.2270276721
 10
-57.0424735179
 20
-22.2447858805
 10
-57.0348412791
 20
-22.2628782651
 10
-57.0256545423
 20
-22.28114368
 10
-57.0147774279
 20
-22.2994879231
 10
-57.0020204342
 20
-22.3178358635
 10
-56.9873610736
 20
-22.3358514789
 10
-56.9709883314
 20
-22.3530603522
 10
-56.952858591
 20
-22.369318618
 10
-56.9330549078
 20
-22.3843676725
 10
-56.9121372724
 20
-22.3977154245
 10
-56.8904615485
 20
-22.4091860374
 10
-56.8679927085
 20
-22.4188439275
 10
-56.8447882351
 20
-22.4266670817
 10
-56.8209666139
 20
-22.4326001512
 10
-56.7967173382
 20
-22.4365806214
 10
-56.7722026956
 20
-22.4385712831
  0
LWPOLYLINE
  5
24E
100
AcDbEntity
  8
RACCORDO
100
AcDbPolyline
 62
253
  6
CONTINUOUS
 90
25
 70
0
 10
-60.3218356361
 20
-25.3992381679
 10
-60.3203314024
 20
-25.4450138052
 10
-60.3158369807
 20
-25.4905925989
 10
-60.3083717017
 20
-25.5357794754
 10
-60.297967639
 20
-25.5803810416
 10
-60.2846693876
 20
-25.6242064172
 10
-60.2685338573
 20
-25.6670680471
 10
-60.2496301745
 20
-25.7087824855
 10
-60.2280393212
 20
-25.7491712255
 10
-60.2038536776
 20
-25.7880614552
 10
-60.1771767995
 20
-25.8252867185
 10
-60.1481229095
 20
-25.8606877213
 10
-60.1168162958
 20
-25.8941130299
 10
-60.0833909973
 20
-25.9254195341
 10
-60.0479900607
 20
-25.9544732847
 10
-60.0107647921
 20
-25.9811500929
 10
-59.9718743604
 20
-26.0053357856
 10
-59.931485317
 20
-26.026926709
 10
-59.8897706827
 20
-26.0458303745
 10
-59.8469090708
 20
-26.0619657907
 10
-59.8030838468
 20
-26.0752638995
 10
-59.7584825067
 20
-26.0856678292
 10
-59.7132959091
 20
-26.0931330007
 10
-59.6677174667
 20
-26.0976273484
 10
-59.6219422495
 20
-26.0991315545
  0
LWPOLYLINE
  5
24F
100
AcDbEntity
  8
RACCORDO
100
AcDbPolyline
 62
253
  6
CONTINUOUS
 90
22
 70
0
 10
-57.3895206599
 20
23.133572596
 10
-57.3899675341
 20
23.1603744984
 10
-57.388604864
 20
23.1865865912
 10
-57.3854877615
 20
23.2120929228
 10
-57.3806870612
 20
23.2367985851
 10
-57.3742651371
 20
23.260585362
 10
-57.3662746198
 20
23.2833119371
 10
-57.3567957571
 20
23.3048773548
 10
-57.3459169239
 20
23.3252116859
 10
-57.3337069801
 20
23.3442293751
 10
-57.3202656792
 20
23.3618449887
 10
-57.3056806158
 20
23.3780158983
 10
-57.2899951458
 20
23.3927214015
 10
-57.2733019766
 20
23.40590269
 10
-57.2556927327
 20
23.4175141071
 10
-57.2371964675
 20
23.427543675
 10
-57.217911391
 20
23.4359400255
 10
-57.1979250671
 20
23.4426642016
 10
-57.1772412192
 20
23.4477022749
 10
-57.1559236656
 20
23.4510112452
 10
-57.1341028447
 20
23.4525390188
 10
-57.1118826994
 20
23.4522493772
  0
LINE
  5
250
100
AcDbEntity
  8
RACCORDO
100
AcDbLine
 62
253
  6
CONTINUOUS
 10
-57.0697179016
 20
-22.1489675807
 11
-57.0696401752
 21
-22.1537669285
  0
LINE
  5
251
100
AcDbEntity
  8
RACCORDO
100
AcDbLine
 62
253
  6
CONTINUOUS
 10
-57.0622596615
 20
-22.1396012713
 11
-57.0622014112
 21
-22.144907439
  0
LINE
  5
252
100
AcDbEntity
  8
RACCORDO
100
AcDbLine
 62
253
  6
CONTINUOUS
 10
-57.0697643874
 20
-22.1442456949
 11
-57.0697179016
 21
-22.1489675807
  0
LINE
  5
253
100
AcDbEntity
  8
RACCORDO
100
AcDbLine
 62
253
  6
CONTINUOUS
 10
-57.0697796326
 20
-22.1396012713
 11
-57.0697643874
 21
-22.1442456949
  0
LINE
  5
254
100
AcDbEntity
  8
RACCORDO
100
AcDbLine
 62
7
  6
CONTINUOUS
 10
-60.328909052
 20
25.7258268898
 11
-60.328909052
 21
-25.4063115837
  0
LINE
  5
255
100
AcDbEntity
  8
RACCORDO
100
AcDbLine
 62
253
  6
CONTINUOUS
 10
-60.3218356361
 20
25.718753474
 11
-60.3218356361
 21
-25.3992381679
  0
LINE
  5
256
100
AcDbEntity
  8
RACCORDO
100
AcDbLine
 62
253
  6
CONTINUOUS
 10
-60.0218813276
 20
25.718753474
 11
-60.0218813276
 21
-25.3992381679
  0
LINE
  5
257
100
AcDbEntity
  8
RACCORDO
100
AcDbLine
 62
253
  6
CONTINUOUS
 10
-59.6219422491
 20
26.4186468606
 11
-59.6219422495
 21
26.1186925521
  0
LINE
  5
258
100
AcDbEntity
  8
RACCORDO
100
AcDbLine
 62
253
  6
CONTINUOUS
 10
-59.6219422495
 20
-26.0991315545
 11
-59.6219422495
 21
-25.7991772459
  0
LINE
  5
259
100
AcDbEntity
  8
RACCORDO
100
AcDbLine
 62
253
  6
CONTINUOUS
 10
-57.6849629774
 20
-22.8140570976
 11
-57.6849629774
 21
23.1335724037
  0
LINE
  5
25A
100
AcDbEntity
  8
RACCORDO
100
AcDbLine
 62
253
  6
CONTINUOUS
 10
-57.3895206515
 20
-22.814057272
 11
-57.3895206515
 21
23.1335725787
  0
LINE
  5
25B
100
AcDbEntity
  8
RACCORDO
100
AcDbLine
 62
253
  6
CONTINUOUS
 10
-57.1118914378
 20
23.7341574065
 11
-57.1118914378
 21
23.4522496202
  0
LINE
  5
25C
100
AcDbEntity
  8
RACCORDO
100
AcDbLine
 62
253
  6
CONTINUOUS
 10
-57.1118914378
 20
-23.4146421004
 11
-57.1118914378
 21
-23.1327343141
  0
LINE
  5
25D
100
AcDbEntity
  8
RACCORDO
100
AcDbLine
 62
253
  6
CONTINUOUS
 10
-57.0622596615
 20
22.4591165774
 11
-57.0622596615
 21
-22.1396012713
  0
LINE
  5
25E
100
AcDbEntity
  8
RACCORDO
100
AcDbLine
 62
7
  6
CONTINUOUS
 10
-57.0550916494
 20
-22.1324332592
 11
-57.0550916494
 21
22.4519485653
  0
LINE
  5
25F
100
AcDbEntity
  8
RACCORDO
100
AcDbLine
 62
253
  6
CONTINUOUS
 10
-56.7615318544
 20
-22.4387820813
 11
-56.7615318544
 21
-22.4688596185
  0
LINE
  5
260
100
AcDbEntity
  8
RACCORDO
100
AcDbLine
 62
253
  6
CONTINUOUS
 10
-56.7615318544
 20
22.7582973874
 11
-56.7615318537
 21
22.7883749246
  0
LINE
  5
261
100
AcDbEntity
  8
RACCORDO
100
AcDbLine
 62
253
  6
CONTINUOUS
 10
-57.0697729732
 20
22.4615297473
 11
-57.0697796326
 21
-22.1396012713
  0
LINE
  5
262
100
AcDbEntity
  8
RACCORDO
100
AcDbLine
 62
253
  6
CONTINUOUS
 10
-57.0697397542
 20
22.4662934147
 11
-57.0697729732
 21
22.4615297473
  0
LINE
  5
263
100
AcDbEntity
  8
RACCORDO
100
AcDbLine
 62
253
  6
CONTINUOUS
 10
-57.0622014112
 20
22.4644227452
 11
-57.0622596615
 21
22.4591165774
  0
LWPOLYLINE
  5
264
100
AcDbEntity
  8
RACCORDO
100
AcDbPolyline
 62
253
  6
CONTINUOUS
 90
22
 70
0
 10
-57.0696401752
 20
-22.1537669285
 10
-57.0698771342
 20
-22.1711276615
 10
-57.0692115279
 20
-22.1890244368
 10
-57.0675408103
 20
-22.2074075337
 10
-57.0647731452
 20
-22.2261817426
 10
-57.0608000638
 20
-22.2453077762
 10
-57.0554764625
 20
-22.2647961235
 10
-57.0486922191
 20
-22.2845741471
 10
-57.040332382
 20
-22.3044771522
 10
-57.030222541
 20
-22.324340027
 10
-57.0181821718
 20
-22.3441097833
 10
-57.0041919921
 20
-22.3634567632
 10
-56.988392367
 20
-22.381809254
 10
-56.9707325545
 20
-22.3990129436
 10
-56.9513112661
 20
-22.4148397435
 10
-56.930666886
 20
-22.4287485887
 10
-56.909142154
 20
-22.4405388898
 10
-56.8867120693
 20
-22.4502955645
 10
-56.8634434277
 20
-22.458008123
 10
-56.8394581723
 20
-22.4636250314
 10
-56.814942022
 20
-22.4670773377
 10
-56.7900565645
 20
-22.4683249361
  0
LWPOLYLINE
  5
265
100
AcDbEntity
  8
RACCORDO
100
AcDbPolyline
 62
253
  6
CONTINUOUS
 90
3
 70
0
 10
-57.0696401752
 20
22.4732822346
 10
-57.0696800016
 20
22.4709735188
 10
-57.0697397542
 20
22.4662934147
  0
LWPOLYLINE
  5
266
100
AcDbEntity
  8
RACCORDO
100
AcDbPolyline
 62
253
  6
CONTINUOUS
 90
25
 70
0
 10
-60.0218813276
 20
25.718753474
 10
-60.0210127296
 20
25.7449847674
 10
-60.0184672009
 20
25.7709148938
 10
-60.0142447415
 20
25.7965438533
 10
-60.0083134173
 20
25.8219881434
 10
-60.0007051624
 20
25.8471312665
 10
-59.9915157797
 20
25.8716237303
 10
-59.980725713
 20
25.8954476885
 10
-59.9683545185
 20
25.9186209874
 10
-59.9545566678
 20
25.9408476728
 10
-59.9393124597
 20
25.9621169367
 10
-59.9226415953
 20
25.9824395871
 10
-59.90475765
 20
26.0015520938
 10
-59.8856430131
 20
26.019439062
 10
-59.8653152951
 20
26.0361158865
 10
-59.8440409031
 20
26.0513652204
 10
-59.8218098586
 20
26.0651660766
 10
-59.79863214
 20
26.0775394423
 10
-59.7748040897
 20
26.0883309319
 10
-59.7503070535
 20
26.0975209043
 10
-59.7251596857
 20
26.1051290006
 10
-59.6997142909
 20
26.1110597597
 10
-59.674088304
 20
26.1152813611
 10
-59.6481642902
 20
26.1178256252
 10
-59.6219422495
 20
26.1186925521
  0
LWPOLYLINE
  5
267
100
AcDbEntity
  8
RACCORDO
100
AcDbPolyline
 62
253
  6
CONTINUOUS
 90
22
 70
0
 10
-57.6849629774
 20
23.1335724037
 10
-57.6830221262
 20
23.1820968899
 10
-57.6778684621
 20
23.229326621
 10
-57.6695019849
 20
23.2752615971
 10
-57.6577807758
 20
23.3201081023
 10
-57.6428467537
 20
23.3636598525
 10
-57.6251256758
 20
23.4052979949
 10
-57.6045928324
 20
23.4449656589
 10
-57.5812729333
 20
23.4827197151
 10
-57.5556658649
 20
23.5181119222
 10
-57.5277854142
 20
23.5510840021
 10
-57.4976177942
 20
23.5816942329
 10
-57.4656215305
 20
23.6096692074
 10
-57.4318066905
 20
23.6349915246
 10
-57.3961632067
 20
23.6576785855
 10
-57.3591194028
 20
23.6775091867
 10
-57.320685278
 20
23.6944802355
 10
-57.2808508331
 20
23.7085948245
 10
-57.2400143941
 20
23.7196410286
 10
-57.1983087361
 20
23.7275482062
 10
-57.1556010841
 20
23.7323869988
 10
-57.1118914378
 20
23.7341574065
  0
LWPOLYLINE
  5
268
100
AcDbEntity
  8
RACCORDO
100
AcDbPolyline
 62
253
  6
CONTINUOUS
 90
10
 70
0
 10
-57.0622078054
 20
-22.1449075555
 10
-57.0624217373
 20
-22.1458851914
 10
-57.0627892809
 20
-22.1468652256
 10
-57.0633103234
 20
-22.1478473531
 10
-57.0639847046
 20
-22.1488312683
 10
-57.0648122172
 20
-22.1498166653
 10
-57.065792607
 20
-22.1508032372
 10
-57.0669255725
 20
-22.1517906773
 10
-57.0682107656
 20
-22.1527786784
 10
-57.0696477912
 20
-22.153766933
  0
LWPOLYLINE
  5
269
100
AcDbEntity
  8
RACCORDO
100
AcDbPolyline
 62
253
  6
CONTINUOUS
 90
10
 70
0
 10
-57.0622014426
 20
22.4644227457
 10
-57.0624156225
 20
22.4654000706
 10
-57.0627833101
 20
22.4663798652
 10
-57.0633043924
 20
22.4673618287
 10
-57.0639787093
 20
22.4683456595
 10
-57.0648060537
 20
22.4693310555
 10
-57.0657861712
 20
22.4703177142
 10
-57.0669187609
 20
22.4713053325
 10
-57.0682034747
 20
22.4722936072
 10
-57.0696399179
 20
22.4732822346
  0
LINE
  5
26A
100
AcDbEntity
  8
SMUSSO
100
AcDbLine
 62
7
  6
CONTINUOUS
 10
-81.1629464286
 20
-47.5402423469
 11
79.8370535714
 21
-47.5402423469
  0
LINE
  5
26B
100
AcDbEntity
  8
RACCORDO
100
AcDbLine
 62
253
  6
CONTINUOUS
 10
-57.3895206515
 20
-22.814057272
 11
-57.0696401752
 21
-22.1537669285
  0
LINE
  5
26C
100
AcDbEntity
  8
RACCORDO
100
AcDbLine
 62
253
  6
CONTINUOUS
 10
-57.1118817908
 20
-23.1327343141
 11
-56.7900565033
 21
-22.4683248124
  0
LINE
  5
26D
100
AcDbEntity
  8
SMUSSO
100
AcDbLine
 62
7
  6
CONTINUOUS
 10
-76.1629464286
 20
-41.5402423469
 11
74.8370535714
 21
-41.5402423469
  0
LINE
  5
26E
100
AcDbEntity
  8
RACCORDO
100
AcDbLine
 62
253
  6
CONTINUOUS
 10
-57.0696401752
 20
22.4732822346
 11
-57.3895206515
 21
23.1335725787
  0
LINE
  5
26F
100
AcDbEntity
  8
RACCORDO
100
AcDbLine
 62
253
  6
CONTINUOUS
 10
-56.7900564944
 20
22.787840124
 11
-57.1118828171
 21
23.4522496202
  0
LWPOLYLINE
  5
270
100
AcDbEntity
  8
0
100
AcDbPolyline
 62
7
  6
CONTINUOUS
 90
10
 70
0
 10
2.9694381817
 20
-24.662829653
 10
2.9786447557
 20
-24.6608202134
 10
2.9878761299
 20
-24.6577253314
 10
2.9971323044
 20
-24.6535450071
 10
3.0063960425
 20
-24.6480914079
 10
3.015684581
 20
-24.6415523663
 10
3.0250496292
 20
-24.6344913802
 10
3.0344992783
 20
-24.6270157215
 10
3.0440254373
 20
-24.6190181182
 10
3.0634076952
 20
-24.6023030648
  0
LWPOLYLINE
  5
271
100
AcDbEntity
  8
RACCORDO
100
AcDbPolyline
 62
253
  6
CONTINUOUS
 90
22
 70
0
 10
55.4463098384
 20
-22.4385712831
 10
55.4702874004
 20
-22.4366459973
 10
55.4940010061
 20
-22.4328194987
 10
55.5172994984
 20
-22.4271294214
 10
55.5399928933
 20
-22.4196415109
 10
55.5619862492
 20
-22.4104067107
 10
55.5832662095
 20
-22.399426447
 10
55.6038349108
 20
-22.3866545072
 10
55.6233870931
 20
-22.3722310558
 10
55.641496649
 20
-22.3565007243
 10
55.6581036807
 20
-22.3396143091
 10
55.6731488264
 20
-22.3217327149
 10
55.6863612612
 20
-22.3033541061
 10
55.6977451554
 20
-22.2847767652
 10
55.7074439705
 20
-22.2660925878
 10
55.7155102476
 20
-22.2475340936
 10
55.7220373472
 20
-22.2293139339
 10
55.7271744104
 20
-22.2115010183
 10
55.7310627887
 20
-22.1940844517
 10
55.733812736
 20
-22.1771123938
 10
55.7355251166
 20
-22.1606994926
 10
55.7363085541
 20
-22.144907439
  0
LWPOLYLINE
  5
272
100
AcDbEntity
  8
RACCORDO
100
AcDbPolyline
 62
253
  6
CONTINUOUS
 90
22
 70
0
 10
55.464155505
 20
-22.4683251521
 10
55.4885018248
 20
-22.4671274797
 10
55.512484332
 20
-22.4638235209
 10
55.5359523497
 20
-22.4584536819
 10
55.5587193865
 20
-22.451090522
 10
55.580687023
 20
-22.4417806927
 10
55.6018330687
 20
-22.4305131057
 10
55.622153591
 20
-22.4172288908
 10
55.6413526186
 20
-22.4020856517
 10
55.6590163393
 20
-22.3854564891
 10
55.6750714548
 20
-22.3674629153
 10
55.6894672847
 20
-22.3482820632
 10
55.7019726747
 20
-22.3284976299
 10
55.7125849451
 20
-22.3083962737
 10
55.7214451599
 20
-22.2880564709
 10
55.7286491782
 20
-22.2677880941
 10
55.7343003563
 20
-22.2478059929
 10
55.738527613
 20
-22.2281532259
 10
55.741475623
 20
-22.2088564658
 10
55.7432595001
 20
-22.1899719487
 10
55.7439800284
 20
-22.1715907341
 10
55.743747318
 20
-22.1537669291
  0
LWPOLYLINE
  5
273
100
AcDbEntity
  8
RACCORDO
100
AcDbPolyline
 62
253
  6
CONTINUOUS
 90
25
 70
0
 10
58.2960493924
 20
-26.0991315545
 10
58.3418250297
 20
-26.0976273208
 10
58.3874038234
 20
-26.093132899
 10
58.4325906999
 20
-26.0856676201
 10
58.4771922661
 20
-26.0752635574
 10
58.5210176417
 20
-26.0619653059
 10
58.5638792716
 20
-26.0458297757
 10
58.60559371
 20
-26.0269260928
 10
58.64598245
 20
-26.0053352396
 10
58.6848726797
 20
-25.981149596
 10
58.722097943
 20
-25.9544727179
 10
58.7574989458
 20
-25.9254188278
 10
58.7909242544
 20
-25.8941122142
 10
58.8222307585
 20
-25.8606869157
 10
58.8512845092
 20
-25.825285979
 10
58.8779613174
 20
-25.7880607104
 10
58.9021470101
 20
-25.7491702787
 10
58.9237379335
 20
-25.7087812354
 10
58.942641599
 20
-25.667066601
 10
58.9587770151
 20
-25.6242049892
 10
58.972075124
 20
-25.5803797651
 10
58.9824790537
 20
-25.5357784251
 10
58.9899442252
 20
-25.4905918275
 10
58.9944385729
 20
-25.445013385
 10
58.995942779
 20
-25.3992381679
  0
LINE
  5
274
100
AcDbEntity
  8
RACCORDO
100
AcDbLine
 62
7
  6
CONTINUOUS
 10
-59.6290156654
 20
-26.1062049703
 11
58.3031228082
 21
-26.1062049703
  0
LINE
  5
275
100
AcDbEntity
  8
RACCORDO
100
AcDbLine
 62
253
  6
CONTINUOUS
 10
-59.6219422495
 20
-26.0991315545
 11
58.2960493924
 21
-26.0991315545
  0
LINE
  5
276
100
AcDbEntity
  8
RACCORDO
100
AcDbLine
 62
253
  6
CONTINUOUS
 10
-59.6219422495
 20
-25.7991772459
 11
58.2960493924
 21
-25.7991772459
  0
LINE
  5
277
100
AcDbEntity
  8
0
100
AcDbLine
 62
7
  6
CONTINUOUS
 10
-4.1096734286
 20
-25.6554163469
 11
-3.7234074286
 21
-25.6554163469
  0
LINE
  5
278
100
AcDbEntity
  8
0
100
AcDbLine
 62
7
  6
CONTINUOUS
 10
-2.8857804286
 20
-25.6554163469
 11
-2.4474644286
 21
-25.6554163469
  0
LINE
  5
279
100
AcDbEntity
  8
0
100
AcDbLine
 62
7
  6
CONTINUOUS
 10
-2.2115054286
 20
-25.6554163469
 11
-1.7921804286
 21
-25.6554163469
  0
LINE
  5
27A
100
AcDbEntity
  8
0
100
AcDbLine
 62
7
  6
CONTINUOUS
 10
-1.1833944286
 20
-25.6554163469
 11
-1.1219214286
 21
-25.6554163469
  0
LINE
  5
27B
100
AcDbEntity
  8
0
100
AcDbLine
 62
7
  6
CONTINUOUS
 10
-0.5107104286
 20
-25.6554163469
 11
-0.0819214286
 21
-25.6554163469
  0
LINE
  5
27C
100
AcDbEntity
  8
0
100
AcDbLine
 62
7
  6
CONTINUOUS
 10
-0.0130944286
 20
-25.6554163469
 11
0.4204655714
 21
-25.6554163469
  0
LINE
  5
27D
100
AcDbEntity
  8
0
100
AcDbLine
 62
7
  6
CONTINUOUS
 10
1.2518735714
 20
-25.6554163469
 11
1.7138395714
 21
-25.6554163469
  0
LINE
  5
27E
100
AcDbEntity
  8
0
100
AcDbLine
 62
7
  6
CONTINUOUS
 10
1.8425504475
 20
-25.6554167447
 11
2.279102331
 21
-25.6554167447
  0
LINE
  5
27F
100
AcDbEntity
  8
0
100
AcDbLine
 62
7
  6
CONTINUOUS
 10
2.9503221094
 20
-25.6554167447
 11
3.3719307042
 21
-25.6554167447
  0
LINE
  5
280
100
AcDbEntity
  8
RACCORDO
100
AcDbLine
 62
253
  6
CONTINUOUS
 10
-60.3218356361
 20
-25.3992381675
 11
-60.0218813276
 21
-25.3992381679
  0
LINE
  5
281
100
AcDbEntity
  8
RACCORDO
100
AcDbLine
 62
253
  6
CONTINUOUS
 10
58.995942779
 20
-25.3992381678
 11
58.6959884704
 21
-25.3992381679
  0
LINE
  5
282
100
AcDbEntity
  8
0
100
AcDbLine
 62
7
  6
CONTINUOUS
 10
0.5414135714
 20
-25.2362173469
 11
1.1383265714
 21
-25.2362173469
  0
LINE
  5
283
100
AcDbEntity
  8
0
100
AcDbLine
 62
7
  6
CONTINUOUS
 10
1.0507295714
 20
-24.9118423469
 11
0.6310735714
 21
-24.9118423469
  0
LINE
  5
284
100
AcDbEntity
  8
0
100
AcDbLine
 62
7
  6
CONTINUOUS
 10
2.279102331
 20
-24.833661834
 11
2.5141166457
 21
-24.833661834
  0
LINE
  5
285
100
AcDbEntity
  8
0
100
AcDbLine
 62
7
  6
CONTINUOUS
 10
2.5150614268
 20
-24.48976149
 11
2.2645684474
 21
-24.48976149
  0
LWPOLYLINE
  5
286
100
AcDbEntity
  8
RACCORDO
100
AcDbPolyline
 62
253
  6
CONTINUOUS
 90
25
 70
0
 10
-59.6219422495
 20
-25.7991772459
 10
-59.6481735429
 20
-25.7983086479
 10
-59.6741036693
 20
-25.7957631192
 10
-59.6997326288
 20
-25.7915406599
 10
-59.7251769189
 20
-25.7856093356
 10
-59.750320042
 20
-25.7780010807
 10
-59.7748125058
 20
-25.768811698
 10
-59.7986364641
 20
-25.7580216313
 10
-59.8218097629
 20
-25.7456504368
 10
-59.8440364483
 20
-25.7318525862
 10
-59.8653057122
 20
-25.716608378
 10
-59.8856283626
 20
-25.6999375137
 10
-59.9047408693
 20
-25.6820535684
 10
-59.9226278375
 20
-25.6629389315
 10
-59.939304662
 20
-25.6426112135
 10
-59.9545539959
 20
-25.6213368215
 10
-59.9683548521
 20
-25.599105777
 10
-59.9807282178
 20
-25.5759280584
 10
-59.9915197074
 20
-25.552100008
 10
-60.0007096798
 20
-25.5276029719
 10
-60.0083177761
 20
-25.502455604
 10
-60.0142485352
 20
-25.4770102092
 10
-60.0184701366
 20
-25.4513842224
 10
-60.0210144007
 20
-25.4254602086
 10
-60.0218813276
 20
-25.3992381679
  0
LWPOLYLINE
  5
287
100
AcDbEntity
  8
RACCORDO
100
AcDbPolyline
 62
253
  6
CONTINUOUS
 90
7
 70
0
 10
-56.7900565033
 20
-22.4683248124
 10
-56.7853103378
 20
-22.468484332
 10
-56.7805609953
 20
-22.4686156976
 10
-56.7758084757
 20
-22.468718909
 10
-56.771052779
 20
-22.4687939663
 10
-56.7662939053
 20
-22.4688408695
 10
-56.7615318544
 20
-22.4688596185
  0
LWPOLYLINE
  5
288
100
AcDbEntity
  8
RACCORDO
100
AcDbPolyline
 62
253
  6
CONTINUOUS
 90
7
 70
0
 10
-56.7722026956
 20
-22.4385712831
 10
-56.7704324523
 20
-22.4386362696
 10
-56.7686588341
 20
-22.4386893558
 10
-56.7668819029
 20
-22.4387305107
 10
-56.7651017209
 20
-22.4387597034
 10
-56.7633183504
 20
-22.4387769036
 10
-56.7615318544
 20
-22.4387820813
  0
LWPOLYLINE
  5
289
100
AcDbEntity
  8
RACCORDO
100
AcDbPolyline
 62
253
  6
CONTINUOUS
 90
22
 70
0
 10
-57.1118914378
 20
-23.4146421004
 10
-57.1555857373
 20
-23.4128727193
 10
-57.1982784589
 20
-23.4080373406
 10
-57.2399696026
 20
-23.4001359645
 10
-57.2807886409
 20
-23.3891004533
 10
-57.3206061013
 20
-23.3749989445
 10
-57.3590335665
 20
-23.358035851
 10
-57.3960895363
 20
-23.3382029562
 10
-57.4317555109
 20
-23.3155084767
 10
-57.4655875744
 20
-23.2901814741
 10
-57.4975884152
 20
-23.262208793
 10
-57.5277553447
 20
-23.2316035888
 10
-57.5556363814
 20
-23.1986343898
 10
-57.5812481163
 20
-23.1632408228
 10
-57.6045739583
 20
-23.1254832609
 10
-57.6251121525
 20
-23.0858113514
 10
-57.6428374556
 20
-23.0441683396
 10
-57.6577751109
 20
-23.0006109803
 10
-57.6694990933
 20
-22.9557591852
 10
-57.6778673943
 20
-22.9098195917
 10
-57.6830220223
 20
-22.8625855625
 10
-57.6849629774
 20
-22.8140570976
  0
LWPOLYLINE
  5
28A
100
AcDbEntity
  8
0
100
AcDbPolyline
 62
7
  6
CONTINUOUS
 90
13
 70
0
 10
2.5141166457
 20
-24.833661834
 10
2.5413946723
 20
-24.8351948499
 10
2.5673236594
 20
-24.8391632154
 10
2.5919036069
 20
-24.8455669304
 10
2.6150139213
 20
-24.8543371415
 10
2.6367751961
 20
-24.865542702
 10
2.6575492121
 20
-24.8793901725
 10
2.6775871897
 20
-24.8959368045
 10
2.6966379084
 20
-24.9151253464
 10
2.7143094872
 20
-24.9369906041
 10
2.7304712993
 20
-24.9615441798
 10
2.7452539715
 20
-24.9887744713
 10
2.7586575038
 20
-25.0186814787
  0
LINE
  5
28B
100
AcDbEntity
  8
RACCORDO
100
AcDbLine
 62
253
  6
CONTINUOUS
 10
-57.0622596615
 20
-22.1396012713
 11
-57.0550916494
 21
-22.1324332592
  0
LINE
  5
28C
100
AcDbEntity
  8
RACCORDO
100
AcDbLine
 62
253
  6
CONTINUOUS
 10
-60.3218356361
 20
-25.3992381679
 11
-60.328909052
 21
-25.4063115837
  0
LINE
  5
28D
100
AcDbEntity
  8
SMUSSO
100
AcDbLine
 62
7
  6
CONTINUOUS
 10
-81.8700532098
 20
-47.2473491281
 11
-76.1629464286
 21
-41.5402423469
  0
LINE
  5
28E
100
AcDbEntity
  8
RACCORDO
100
AcDbLine
 62
253
  6
CONTINUOUS
 10
-56.7615318544
 20
-22.4387820813
 11
-56.7551373408
 21
-22.4323875677
  0
LINE
  5
28F
100
AcDbEntity
  8
RACCORDO
100
AcDbLine
 62
253
  6
CONTINUOUS
 10
-59.6219422495
 20
-26.0991315545
 11
-59.6290156654
 21
-26.1062049703
  0
LWPOLYLINE
  5
290
100
AcDbEntity
  8
0
100
AcDbPolyline
 62
7
  6
CONTINUOUS
 90
10
 70
0
 10
2.2645684474
 20
-23.9133190087
 10
2.303340187
 20
-23.9068761643
 10
2.34193138
 20
-23.9016967033
 10
2.3803420264
 20
-23.8977806255
 10
2.4185375064
 20
-23.895122638
 10
2.4565524396
 20
-23.8937280338
 10
2.4944906859
 20
-23.8936126922
 10
2.5323868649
 20
-23.8947819062
 10
2.5702063568
 20
-23.8972303827
 10
2.6079491617
 20
-23.9009581218
  0
LWPOLYLINE
  5
291
100
AcDbEntity
  8
RACCORDO
100
AcDbPolyline
 62
253
  6
CONTINUOUS
 90
22
 70
0
 10
-57.1118816591
 20
-23.1327340421
 10
-57.1340954936
 20
-23.1330238506
 10
-57.1559096336
 20
-23.1314974321
 10
-57.177220248
 20
-23.1281911005
 10
-57.1978950896
 20
-23.1231577827
 10
-57.2178725032
 20
-23.1164400502
 10
-57.2371544503
 20
-23.1080488668
 10
-57.2556572742
 20
-23.0980195645
 10
-57.2732775906
 20
-23.0864045587
 10
-57.2899786941
 20
-23.0732202642
 10
-57.3056660086
 20
-23.0585157707
 10
-57.3202507704
 20
-23.0423478905
 10
-57.3336927448
 20
-23.0247343905
 10
-57.3459051774
 20
-23.005716271
 10
-57.3567869025
 20
-22.9853801573
 10
-57.3662683502
 20
-22.9638124596
 10
-57.3742609953
 20
-22.941083304
 10
-57.3806846596
 20
-22.9172935145
 10
-57.3854865987
 20
-22.8925849189
 10
-57.3886044664
 20
-22.867075951
 10
-57.3899675063
 20
-22.8408614103
 10
-57.3895206598
 20
-22.8140572892
  0
LWPOLYLINE
  5
292
100
AcDbEntity
  8
RACCORDO
100
AcDbPolyline
 62
253
  6
CONTINUOUS
 90
6
 70
0
 10
55.4403429006
 20
-22.4688449359
 10
55.4450663391
 20
-22.468800487
 10
55.4498093128
 20
-22.4687262719
 10
55.4545718216
 20
-22.4686222906
 10
55.4593538656
 20
-22.468488543
 10
55.4641554447
 20
-22.4683250292
  0
LWPOLYLINE
  5
293
100
AcDbEntity
  8
RACCORDO
100
AcDbPolyline
 62
253
  6
CONTINUOUS
 90
6
 70
0
 10
55.4374060837
 20
-22.438777117
 10
55.4391778101
 20
-22.4387602297
 10
55.4409541135
 20
-22.4387313111
 10
55.4427349299
 20
-22.4386902527
 10
55.4445201938
 20
-22.4386369462
 10
55.4463098384
 20
-22.4385712831
  0
LINE
  5
294
100
AcDbEntity
  8
0
100
AcDbLine
 62
7
  6
CONTINUOUS
 10
1.0695615714
 20
-23.5555933469
 11
0.6455445714
 21
-23.5555933469
  0
LINE
  5
295
100
AcDbEntity
  8
0
100
AcDbLine
 62
7
  6
CONTINUOUS
 10
-0.2782784286
 20
-23.5555933469
 11
-0.7119484286
 21
-23.5555933469
  0
LINE
  5
296
100
AcDbEntity
  8
0
100
AcDbLine
 62
7
  6
CONTINUOUS
 10
-1.5839504286
 20
-23.5555933469
 11
-2.0219034286
 21
-23.5555933469
  0
LINE
  5
297
100
AcDbEntity
  8
0
100
AcDbLine
 62
7
  6
CONTINUOUS
 10
-3.0484394286
 20
-23.5555933469
 11
-3.4864564286
 21
-23.5555933469
  0
LINE
  5
298
100
AcDbEntity
  8
0
100
AcDbLine
 62
7
  6
CONTINUOUS
 10
-4.2992124286
 20
-23.5555933469
 11
-4.7753584286
 21
-23.5555933469
  0
LINE
  5
299
100
AcDbEntity
  8
0
100
AcDbLine
 62
7
  6
CONTINUOUS
 10
-2.4474644286
 20
-23.5554673469
 11
-2.8857804286
 21
-23.5554673469
  0
LINE
  5
29A
100
AcDbEntity
  8
RACCORDO
100
AcDbLine
 62
253
  6
CONTINUOUS
 10
55.7859985807
 20
-23.4146421004
 11
-57.1118914378
 21
-23.4146421004
  0
LINE
  5
29B
100
AcDbEntity
  8
RACCORDO
100
AcDbLine
 62
253
  6
CONTINUOUS
 10
55.7860035698
 20
-23.1327343141
 11
-57.1118817908
 21
-23.1327343141
  0
LINE
  5
29C
100
AcDbEntity
  8
RACCORDO
100
AcDbLine
 62
253
  6
CONTINUOUS
 10
-57.6849629774
 20
-22.8140570976
 11
-57.3895206515
 21
-22.8140570976
  0
LINE
  5
29D
100
AcDbEntity
  8
RACCORDO
100
AcDbLine
 62
253
  6
CONTINUOUS
 10
56.3590701203
 20
-22.8140570976
 11
56.0636277944
 21
-22.8140570976
  0
LINE
  5
29E
100
AcDbEntity
  8
RACCORDO
100
AcDbLine
 62
253
  6
CONTINUOUS
 10
-56.7615318544
 20
-22.4688596185
 11
55.4403429006
 21
-22.4688449359
  0
LINE
  5
29F
100
AcDbEntity
  8
RACCORDO
100
AcDbLine
 62
253
  6
CONTINUOUS
 10
-56.7615318544
 20
-22.4387820813
 11
55.4374060837
 21
-22.438777117
  0
LINE
  5
2A0
100
AcDbEntity
  8
RACCORDO
100
AcDbLine
 62
7
  6
CONTINUOUS
 10
55.4292444837
 20
-22.4323875677
 11
-56.7551373408
 21
-22.4323875677
  0
LINE
  5
2A1
100
AcDbEntity
  8
RACCORDO
100
AcDbLine
 62
253
  6
CONTINUOUS
 10
55.7363668043
 20
-22.1396012713
 11
55.7438867754
 21
-22.1396012713
  0
LINE
  5
2A2
100
AcDbEntity
  8
RACCORDO
100
AcDbLine
 62
253
  6
CONTINUOUS
 10
-57.0622596615
 20
-22.1396012713
 11
-57.0697796326
 21
-22.1396012713
  0
LWPOLYLINE
  5
2A3
100
AcDbEntity
  8
0
100
AcDbPolyline
 62
7
  6
CONTINUOUS
 90
16
 70
0
 10
2.6079491617
 20
-23.9009581218
 10
2.6369102455
 20
-23.9059613441
 10
2.6643630218
 20
-23.9130800851
 10
2.6903074907
 20
-23.9223143449
 10
2.7149048324
 20
-23.9338029561
 10
2.7379938667
 20
-23.9474070861
 10
2.7590910521
 20
-23.9627102365
 10
2.77802098
 20
-23.9796108526
 10
2.7949590589
 20
-23.9982104891
 10
2.8099479736
 20
-24.0183973115
 10
2.8231311954
 20
-24.0404738808
 10
2.8343652528
 20
-24.064137636
 10
2.8432624163
 20
-24.0883690594
 10
2.8496934423
 20
-24.112828312
 10
2.8537875743
 20
-24.1378552329
 10
2.8555448123
 20
-24.1634498221
  0
LWPOLYLINE
  5
2A4
100
AcDbEntity
  8
0
100
AcDbPolyline
 62
7
  6
CONTINUOUS
 90
16
 70
0
 10
2.9242461493
 20
-23.6022340639
 10
2.8698799432
 20
-23.5847929704
 10
2.8127408387
 20
-23.5698588295
 10
2.752828836
 20
-23.5574316413
 10
2.6899960203
 20
-23.5476415882
 10
2.6243903063
 20
-23.5403584878
 10
2.5564554375
 20
-23.5351917922
 10
2.4863373797
 20
-23.532019251
 10
2.4138901671
 20
-23.5309631147
 10
2.3391196468
 20
-23.531999586
 10
2.2619969644
 20
-23.5351944141
 10
2.1825509743
 20
-23.5404818498
 10
2.1008740866
 20
-23.5476408492
 10
2.0169971045
 20
-23.5565977307
 10
1.9308892248
 20
-23.5674261759
 10
1.8425504475
 20
-23.5801261846
  0
LINE
  5
2A5
100
AcDbEntity
  8
RACCORDO
100
AcDbLine
 62
253
  6
CONTINUOUS
 10
-57.0550916494
 20
22.4519485653
 11
-57.0622596615
 21
22.4591165774
  0
LINE
  5
2A6
100
AcDbEntity
  8
RACCORDO
100
AcDbLine
 62
253
  6
CONTINUOUS
 10
-60.3218356361
 20
25.718753474
 11
-60.328909052
 21
25.7258268898
  0
LINE
  5
2A7
100
AcDbEntity
  8
SMUSSO
100
AcDbLine
 62
7
  6
CONTINUOUS
 10
-81.8700532098
 20
47.5668644342
 11
-76.1629464286
 21
41.8597576531
  0
LINE
  5
2A8
100
AcDbEntity
  8
RACCORDO
100
AcDbLine
 62
253
  6
CONTINUOUS
 10
-56.7551373408
 20
22.7519028738
 11
-56.7615318544
 21
22.7582973874
  0
LINE
  5
2A9
100
AcDbEntity
  8
RACCORDO
100
AcDbLine
 62
253
  6
CONTINUOUS
 10
-59.6219422495
 20
26.4186468606
 11
-59.6290156654
 21
26.4257202765
  0
LINE
  5
2AA
100
AcDbEntity
  8
0
100
AcDbLine
 62
7
  6
CONTINUOUS
 10
-1.6975914286
 20
-24.2842713469
 11
-1.1833944286
 21
-25.6554163469
  0
LINE
  5
2AB
100
AcDbEntity
  8
0
100
AcDbLine
 62
7
  6
CONTINUOUS
 10
-1.1502644286
 20
-24.7214213469
 11
-1.5839504286
 21
-23.5555933469
  0
LINE
  5
2AC
100
AcDbEntity
  8
0
100
AcDbLine
 62
7
  6
CONTINUOUS
 10
-4.7753584286
 20
-23.5555933469
 11
-4.1096734286
 21
-25.6554163469
  0
LINE
  5
2AD
100
AcDbEntity
  8
0
100
AcDbLine
 62
7
  6
CONTINUOUS
 10
-3.8989474286
 20
-25.0009663469
 11
-4.2992124286
 21
-23.5555933469
  0
LINE
  5
2AE
100
AcDbEntity
  8
0
100
AcDbLine
 62
7
  6
CONTINUOUS
 10
-0.0819214286
 20
-25.6554163469
 11
-0.2782784286
 21
-23.5555933469
  0
LINE
  5
2AF
100
AcDbEntity
  8
0
100
AcDbLine
 62
7
  6
CONTINUOUS
 10
-0.6007634286
 20
-24.2899873469
 11
-0.5107104286
 21
-25.6554163469
  0
LINE
  5
2B0
100
AcDbEntity
  8
0
100
AcDbLine
 62
7
  6
CONTINUOUS
 10
-2.8857804286
 20
-23.5554673469
 11
-2.8857804286
 21
-25.6554163469
  0
LINE
  5
2B1
100
AcDbEntity
  8
0
100
AcDbLine
 62
7
  6
CONTINUOUS
 10
-2.4474644286
 20
-25.6554163469
 11
-2.4474644286
 21
-23.5554673469
  0
LINE
  5
2B2
100
AcDbEntity
  8
0
100
AcDbLine
 62
7
  6
CONTINUOUS
 10
-1.7921804286
 20
-25.6554163469
 11
-1.6975914286
 21
-24.2842713469
  0
LINE
  5
2B3
100
AcDbEntity
  8
0
100
AcDbLine
 62
7
  6
CONTINUOUS
 10
-2.0219034286
 20
-23.5555933469
 11
-2.2115054286
 21
-25.6554163469
  0
LWPOLYLINE
  5
2B4
100
AcDbEntity
  8
RACCORDO
100
AcDbPolyline
 62
253
  6
CONTINUOUS
 90
10
 70
0
 10
55.4463098302
 20
22.7580863577
 10
55.4482272049
 20
22.7586924769
 10
55.4501663129
 20
22.7599809847
 10
55.4521245024
 20
22.7619501189
 10
55.4540990953
 20
22.7645971869
 10
55.4560873913
 20
22.7679185685
 10
55.4580866712
 20
22.7719097218
 10
55.4600942008
 20
22.7765651887
 10
55.4621072348
 20
22.7818786028
 10
55.4641230202
 20
22.7878426978
  0
LWPOLYLINE
  5
2B5
100
AcDbEntity
  8
RACCORDO
100
AcDbPolyline
 62
253
  6
CONTINUOUS
 90
10
 70
0
 10
55.4463098491
 20
-22.4385715825
 10
55.4482272051
 20
-22.4391776225
 10
55.4501662983
 20
-22.4404660211
 10
55.4521244769
 20
-22.4424350165
 10
55.4540990632
 20
-22.4450819161
 10
55.4560873567
 20
-22.4484031005
 10
55.4580866384
 20
-22.4523940279
 10
55.4600941744
 20
-22.4570492411
 10
55.4621072192
 20
-22.462362374
 10
55.4641230199
 20
-22.4683261613
  0
LWPOLYLINE
  5
2B6
100
AcDbEntity
  8
0
100
AcDbPolyline
 62
7
  6
CONTINUOUS
 90
6
 70
0
 10
2.7586575038
 20
-25.0186814787
 10
2.7808278003
 20
-25.0835354936
 10
2.8025411176
 20
-25.1499469779
 10
2.8237974559
 20
-25.2179159315
 10
2.8442789193
 20
-25.2875541977
 10
2.8848245961
 20
-25.4311676087
  0
LINE
  5
2B7
100
AcDbEntity
  8
0
100
AcDbLine
 62
7
  6
CONTINUOUS
 10
1.7138395714
 20
-25.6554163469
 11
1.0695615714
 21
-23.5555933469
  0
LINE
  5
2B8
100
AcDbEntity
  8
0
100
AcDbLine
 62
7
  6
CONTINUOUS
 10
2.8848245961
 20
-25.4311676087
 11
2.9503221094
 21
-25.6554167447
  0
LINE
  5
2B9
100
AcDbEntity
  8
0
100
AcDbLine
 62
7
  6
CONTINUOUS
 10
1.1383265714
 20
-25.2362173469
 11
1.2518735714
 21
-25.6554163469
  0
LINE
  5
2BA
100
AcDbEntity
  8
0
100
AcDbLine
 62
7
  6
CONTINUOUS
 10
3.2736223863
 20
-25.2802508416
 11
3.2220884115
 21
-25.087083635
  0
LINE
  5
2BB
100
AcDbEntity
  8
0
100
AcDbLine
 62
7
  6
CONTINUOUS
 10
3.3719307042
 20
-25.6554167447
 11
3.2736223863
 21
-25.2802508416
  0
LINE
  5
2BC
100
AcDbEntity
  8
0
100
AcDbLine
 62
7
  6
CONTINUOUS
 10
0.8493175714
 20
-24.1325713469
 11
1.0507295714
 21
-24.9118423469
  0
LWPOLYLINE
  5
2BD
100
AcDbEntity
  8
0
100
AcDbPolyline
 62
7
  6
CONTINUOUS
 90
16
 70
0
 10
3.2220884115
 20
-25.087083635
 10
3.2121051599
 20
-25.0474707929
 10
3.2010818439
 20
-25.0088541309
 10
3.1890184636
 20
-24.9712336489
 10
3.1759470815
 20
-24.9342423175
 10
3.161835635
 20
-24.8982471662
 10
3.1465879363
 20
-24.8643492835
 10
3.1300672401
 20
-24.8326936018
 10
3.1124102917
 20
-24.8031351887
 10
3.0939311393
 20
-24.7763403357
 10
3.0746226081
 20
-24.7525200579
 10
3.0544918729
 20
-24.7314633401
 10
3.0338745055
 20
-24.7132034287
 10
3.0128823631
 20
-24.6977514058
 10
2.9914035885
 20
-24.6850961892
 10
2.9694381817
 20
-24.675237779
  0
LINE
  5
2BE
100
AcDbEntity
  8
0
100
AcDbLine
 62
7
  6
CONTINUOUS
 10
1.8425504475
 20
-23.5801261846
 11
1.8425504475
 21
-25.6554167447
  0
LINE
  5
2BF
100
AcDbEntity
  8
0
100
AcDbLine
 62
7
  6
CONTINUOUS
 10
2.2645684474
 20
-24.48976149
 11
2.2645684474
 21
-23.9133190087
  0
LINE
  5
2C0
100
AcDbEntity
  8
0
100
AcDbLine
 62
7
  6
CONTINUOUS
 10
2.279102331
 20
-25.6554167447
 11
2.279102331
 21
-24.833661834
  0
LINE
  5
2C1
100
AcDbEntity
  8
0
100
AcDbLine
 62
7
  6
CONTINUOUS
 10
2.9694381817
 20
-24.675237779
 11
2.9694381817
 21
-24.662829653
  0
LWPOLYLINE
  5
2C2
100
AcDbEntity
  8
0
100
AcDbPolyline
 62
7
  6
CONTINUOUS
 90
19
 70
0
 10
2.8555448123
 20
-24.1634498221
 10
2.854007864
 20
-24.1982129587
 10
2.8500670014
 20
-24.231350739
 10
2.8437222242
 20
-24.2628631631
 10
2.8346790565
 20
-24.2930719578
 10
2.8232319743
 20
-24.3216553962
 10
2.8102644058
 20
-24.3476482979
 10
2.7961566209
 20
-24.3705574053
 10
2.7805283497
 20
-24.390875976
 10
2.7631222108
 20
-24.4091186024
 10
2.7440536497
 20
-24.425336577
 10
2.7232072209
 20
-24.4394786072
 10
2.6999792075
 20
-24.4519054083
 10
2.6739583329
 20
-24.4627893052
 10
2.6455558735
 20
-24.4719579729
 10
2.615401942
 20
-24.4792551512
 10
2.5837065758
 20
-24.4846287535
 10
2.5502597374
 20
-24.4881308664
 10
2.5150614268
 20
-24.48976149
  0
LINE
  5
2C3
100
AcDbEntity
  8
0
100
AcDbLine
 62
7
  6
CONTINUOUS
 10
-3.4864564286
 20
-23.5555933469
 11
-3.8989474286
 21
-25.0009663469
  0
LINE
  5
2C4
100
AcDbEntity
  8
0
100
AcDbLine
 62
7
  6
CONTINUOUS
 10
-3.7234074286
 20
-25.6554163469
 11
-3.0484394286
 21
-23.5555933469
  0
LWPOLYLINE
  5
2C5
100
AcDbEntity
  8
RACCORDO
100
AcDbPolyline
 62
253
  6
CONTINUOUS
 90
10
 70
0
 10
-56.7722026873
 20
-22.4385710516
 10
-56.7741200621
 20
-22.4391771708
 10
-56.7760591701
 20
-22.4404656786
 10
-56.7780173595
 20
-22.4424348128
 10
-56.7799919525
 20
-22.4450818807
 10
-56.7819802484
 20
-22.4484032624
 10
-56.7839795283
 20
-22.4523944156
 10
-56.785987058
 20
-22.4570498826
 10
-56.788000092
 20
-22.4623632966
 10
-56.7900158774
 20
-22.4683273916
  0
LWPOLYLINE
  5
2C6
100
AcDbEntity
  8
RACCORDO
100
AcDbPolyline
 62
253
  6
CONTINUOUS
 90
10
 70
0
 10
-56.7722026286
 20
22.7580846914
 10
-56.7741199901
 20
22.7586907283
 10
-56.7760590884
 20
22.759979141
 10
-56.7780172721
 20
22.7619481674
 10
-56.7799918641
 20
22.7645951149
 10
-56.7819801645
 20
22.7679163637
 10
-56.7839794549
 20
22.7719073721
 10
-56.7859870016
 20
22.7765626822
 10
-56.7880000599
 20
22.7818759278
 10
-56.7900158774
 20
22.787839843
  0
LINE
  5
2C7
100
AcDbEntity
  8
0
100
AcDbLine
 62
7
  6
CONTINUOUS
 10
0.6310735714
 20
-24.9118423469
 11
0.8493175714
 21
-24.1325713469
  0
LINE
  5
2C8
100
AcDbEntity
  8
0
100
AcDbLine
 62
7
  6
CONTINUOUS
 10
0.4204655714
 20
-25.6554163469
 11
0.5414135714
 21
-25.2362173469
  0
LINE
  5
2C9
100
AcDbEntity
  8
0
100
AcDbLine
 62
7
  6
CONTINUOUS
 10
0.6455445714
 20
-23.5555933469
 11
-0.0130944286
 21
-25.6554163469
  0
LINE
  5
2CA
100
AcDbEntity
  8
0
100
AcDbLine
 62
7
  6
CONTINUOUS
 10
-0.7119484286
 20
-23.5555933469
 11
-1.1502644286
 21
-24.7214213469
  0
LINE
  5
2CB
100
AcDbEntity
  8
0
100
AcDbLine
 62
7
  6
CONTINUOUS
 10
-1.1219214286
 20
-25.6554163469
 11
-0.6007634286
 21
-24.2899873469
  0
LINE
  5
2CC
100
AcDbEntity
  8
RACCORDO
100
AcDbLine
 62
253
  6
CONTINUOUS
 10
58.2960493924
 20
26.4186468606
 11
58.3031228082
 21
26.4257202765
  0
LINE
  5
2CD
100
AcDbEntity
  8
RACCORDO
100
AcDbLine
 62
253
  6
CONTINUOUS
 10
55.4356389973
 20
22.7582973874
 11
55.4292444837
 21
22.7519028738
  0
LINE
  5
2CE
100
AcDbEntity
  8
SMUSSO
100
AcDbLine
 62
7
  6
CONTINUOUS
 10
80.5441603526
 20
47.5668644342
 11
74.8370535714
 21
41.8597576531
  0
LINE
  5
2CF
100
AcDbEntity
  8
RACCORDO
100
AcDbLine
 62
253
  6
CONTINUOUS
 10
58.995942779
 20
25.718753474
 11
59.0030161948
 21
25.7258268898
  0
LINE
  5
2D0
100
AcDbEntity
  8
RACCORDO
100
AcDbLine
 62
253
  6
CONTINUOUS
 10
55.7363668043
 20
22.4591165774
 11
55.7291987922
 21
22.4519485653
  0
LWPOLYLINE
  5
2D1
100
AcDbEntity
  8
0
100
AcDbPolyline
 62
7
  6
CONTINUOUS
 90
45
 70
0
 10
3.0634076952
 20
-24.6023030648
 10
3.0732637941
 20
-24.5935856146
 10
3.0831969666
 20
-24.5844667612
 10
3.0932149595
 20
-24.5749673664
 10
3.103310026
 20
-24.5650665683
 10
3.1134320541
 20
-24.5545806409
 10
3.1235918657
 20
-24.5435167676
 10
3.1337786389
 20
-24.531867765
 10
3.1439097959
 20
-24.5194283564
 10
3.1539956416
 20
-24.5061637325
 10
3.1640258712
 20
-24.4921087026
 10
3.1738869914
 20
-24.477162418
 10
3.1835934214
 20
-24.4613114744
 10
3.193130742
 20
-24.4445692759
 10
3.202342203
 20
-24.426875187
 10
3.2112467409
 20
-24.4082188771
 10
3.2198254191
 20
-24.3886106768
 10
3.227864677
 20
-24.3680209415
 10
3.2353718926
 20
-24.3464633254
 10
3.2423396879
 20
-24.3239241745
 10
3.2485323681
 20
-24.3003328815
 10
3.2539594101
 20
-24.2756930368
 10
3.258611337
 20
-24.2500010501
 10
3.262224023
 20
-24.2231755441
 10
3.2648194317
 20
-24.1951858254
 10
3.2663755995
 20
-24.1660625873
 10
3.266562509
 20
-24.1358165329
 10
3.2654897559
 20
-24.104424208
 10
3.2630477447
 20
-24.0719090668
 10
3.2585776711
 20
-24.0383521737
 10
3.2522149189
 20
-24.0036742348
 10
3.2438241043
 20
-23.9679545442
 10
3.2323402727
 20
-23.9315120489
 10
3.217320942
 20
-23.8937199078
 10
3.1992085941
 20
-23.8552049621
 10
3.1782657199
 20
-23.8181666829
 10
3.1539086004
 20
-23.7827465273
 10
3.1267209546
 20
-23.7488030383
 10
3.0987164298
 20
-23.7181113156
 10
3.070318685
 20
-23.6913950669
 10
3.0411040613
 20
-23.6679305847
 10
3.0118152288
 20
-23.6473218455
 10
2.9826997444
 20
-23.6294368418
 10
2.9535100512
 20
-23.6144075813
 10
2.9242461493
 20
-23.6022340639
  0
LWPOLYLINE
  5
2D2
100
AcDbEntity
  8
RACCORDO
100
AcDbPolyline
 62
253
  6
CONTINUOUS
 90
22
 70
0
 10
-56.7900565531
 20
22.7878402425
 10
-56.8149420235
 20
22.7865926397
 10
-56.8394581869
 20
22.7831403285
 10
-56.8634434555
 20
22.7775234147
 10
-56.886712112
 20
22.7698108516
 10
-56.9091422109
 20
22.760054172
 10
-56.9306669514
 20
22.7482638636
 10
-56.9513113321
 20
22.7343550085
 10
-56.9707326161
 20
22.7185281982
 10
-56.9883924216
 20
22.7013244995
 10
-57.0041920338
 20
22.6829720005
 10
-57.0181821993
 20
22.6636250147
 10
-57.0302225659
 20
22.6438552578
 10
-57.040332438
 20
22.6239923867
 10
-57.0486923115
 20
22.6040893874
 10
-57.055476544
 20
22.5843113766
 10
-57.0608000497
 20
22.5648230648
 10
-57.0647730155
 20
22.5456970815
 10
-57.0675406327
 20
22.5269229057
 10
-57.0692113793
 20
22.5085398099
 10
-57.0698770489
 20
22.4906430127
 10
-57.0696401752
 20
22.4732822346
  0
LWPOLYLINE
  5
2D3
100
AcDbEntity
  8
RACCORDO
100
AcDbPolyline
 62
253
  6
CONTINUOUS
 90
22
 70
0
 10
55.7859888019
 20
23.4522493482
 10
55.8082026365
 20
23.4525391567
 10
55.8300167764
 20
23.4510127383
 10
55.8513273908
 20
23.4477064066
 10
55.8720022325
 20
23.4426730888
 10
55.8919796461
 20
23.4359553563
 10
55.9112615931
 20
23.4275641729
 10
55.9297644171
 20
23.4175348707
 10
55.9473847334
 20
23.4059198648
 10
55.964085837
 20
23.3927355704
 10
55.9797731515
 20
23.3780310768
 10
55.9943579133
 20
23.3618631967
 10
56.0077998876
 20
23.3442496966
 10
56.0200123202
 20
23.3252315772
 10
56.0308940454
 20
23.3048954634
 10
56.040375493
 20
23.2833277657
 10
56.0483681382
 20
23.2605986101
 10
56.0547918024
 20
23.2368088206
 10
56.0595937415
 20
23.212100225
 10
56.0627116093
 20
23.1865912571
 10
56.0640746491
 20
23.1603767164
 10
56.0636278027
 20
23.1335725953
  0
LWPOLYLINE
  5
2D4
100
AcDbEntity
  8
RACCORDO
100
AcDbPolyline
 62
253
  6
CONTINUOUS
 90
6
 70
0
 10
-56.7662828041
 20
22.7883554613
 10
-56.7710350165
 20
22.7883081299
 10
-56.7757884918
 20
22.7882329305
 10
-56.7805432299
 20
22.7881298631
 10
-56.7852992307
 20
22.7879989275
 10
-56.7900564944
 20
22.787840124
  0
LWPOLYLINE
  5
2D5
100
AcDbEntity
  8
RACCORDO
100
AcDbPolyline
 62
253
  6
CONTINUOUS
 90
6
 70
0
 10
-56.7633150139
 20
22.758292216
 10
-56.7650963828
 20
22.7582750511
 10
-56.7668758981
 20
22.7582458991
 10
-56.7686534971
 20
22.7582047667
 10
-56.7704291172
 20
22.7581516609
 10
-56.7722026956
 20
22.7580865892
  0
LINE
  5
2D6
100
AcDbEntity
  8
RACCORDO
100
AcDbLine
 62
253
  6
CONTINUOUS
 10
55.7363668043
 20
22.4591165774
 11
55.7438867754
 21
22.4591165774
  0
LINE
  5
2D7
100
AcDbEntity
  8
RACCORDO
100
AcDbLine
 62
253
  6
CONTINUOUS
 10
-57.0622596615
 20
22.4591165774
 11
-57.0697796326
 21
22.4591165774
  0
LINE
  5
2D8
100
AcDbEntity
  8
RACCORDO
100
AcDbLine
 62
7
  6
CONTINUOUS
 10
-56.7551373408
 20
22.7519028738
 11
55.4292444837
 21
22.7519028738
  0
LINE
  5
2D9
100
AcDbEntity
  8
RACCORDO
100
AcDbLine
 62
253
  6
CONTINUOUS
 10
55.4356389973
 20
22.7582973874
 11
-56.7633150139
 21
22.758292216
  0
LINE
  5
2DA
100
AcDbEntity
  8
RACCORDO
100
AcDbLine
 62
253
  6
CONTINUOUS
 10
55.4356389973
 20
22.7883749246
 11
-56.7662828041
 21
22.7883554613
  0
LINE
  5
2DB
100
AcDbEntity
  8
RACCORDO
100
AcDbLine
 62
253
  6
CONTINUOUS
 10
-57.6849629774
 20
23.1335724037
 11
-57.3895206515
 21
23.1335724037
  0
LINE
  5
2DC
100
AcDbEntity
  8
RACCORDO
100
AcDbLine
 62
253
  6
CONTINUOUS
 10
56.3590701203
 20
23.1335724037
 11
56.0636277944
 21
23.1335724037
  0
LINE
  5
2DD
100
AcDbEntity
  8
RACCORDO
100
AcDbLine
 62
253
  6
CONTINUOUS
 10
-57.1118828171
 20
23.4522496202
 11
55.7859889337
 21
23.4522496202
  0
LINE
  5
2DE
100
AcDbEntity
  8
RACCORDO
100
AcDbLine
 62
253
  6
CONTINUOUS
 10
-57.1118914378
 20
23.7341574065
 11
55.7859985807
 21
23.7341574065
  0
LINE
  5
2DF
100
AcDbEntity
  8
RACCORDO
100
AcDbLine
 62
253
  6
CONTINUOUS
 10
-60.3218356361
 20
25.718753474
 11
-60.0218813276
 21
25.718753474
  0
LINE
  5
2E0
100
AcDbEntity
  8
RACCORDO
100
AcDbLine
 62
253
  6
CONTINUOUS
 10
58.995942779
 20
25.7187534736
 11
58.6959884704
 21
25.718753474
  0
LINE
  5
2E1
100
AcDbEntity
  8
RACCORDO
100
AcDbLine
 62
253
  6
CONTINUOUS
 10
58.2960493924
 20
26.1186925521
 11
-59.6219422495
 21
26.1186925521
  0
LWPOLYLINE
  5
2E2
100
AcDbEntity
  8
RACCORDO
100
AcDbPolyline
 62
253
  6
CONTINUOUS
 90
7
 70
0
 10
55.4641636461
 20
22.7878401185
 10
55.4594174807
 20
22.7879996382
 10
55.4546681382
 20
22.7881310037
 10
55.4499156186
 20
22.7882342151
 10
55.4451599219
 20
22.7883092724
 10
55.4404010481
 20
22.7883561756
 10
55.4356389973
 20
22.7883749246
  0
LWPOLYLINE
  5
2E3
100
AcDbEntity
  8
RACCORDO
100
AcDbPolyline
 62
253
  6
CONTINUOUS
 90
7
 70
0
 10
55.4463098384
 20
22.7580865892
 10
55.4445395951
 20
22.7581515757
 10
55.442765977
 20
22.7582046619
 10
55.4409890458
 20
22.7582458168
 10
55.4392088637
 20
22.7582750095
 10
55.4374254933
 20
22.7582922098
 10
55.4356389973
 20
22.7582973874
  0
LWPOLYLINE
  5
2E4
100
AcDbEntity
  8
RACCORDO
100
AcDbPolyline
 62
253
  6
CONTINUOUS
 90
22
 70
0
 10
55.7859985807
 20
23.7341574065
 10
55.8296928802
 20
23.7323880254
 10
55.8723856018
 20
23.7275526468
 10
55.9140767455
 20
23.7196512706
 10
55.9548957838
 20
23.7086157594
 10
55.9947132441
 20
23.6945142506
 10
56.0331407094
 20
23.6775511571
 10
56.0701966792
 20
23.6577182623
 10
56.1058626538
 20
23.6350237828
 10
56.1396947172
 20
23.6096967802
 10
56.171695558
 20
23.5817240991
 10
56.2018624876
 20
23.551118895
 10
56.2297435243
 20
23.5181496959
 10
56.2553552592
 20
23.4827561289
 10
56.2786811011
 20
23.444998567
 10
56.2992192953
 20
23.4053266576
 10
56.3169445985
 20
23.3636836457
 10
56.3318822538
 20
23.3201262864
 10
56.3436062361
 20
23.2752744913
 10
56.3519745371
 20
23.2293348978
 10
56.3571291652
 20
23.1821008686
 10
56.3590701203
 20
23.1335724037
  0
LINE
  5
2E5
100
AcDbEntity
  8
RACCORDO
100
AcDbLine
 62
253
  6
CONTINUOUS
 10
58.2960493924
 20
-26.0991315545
 11
58.3031228082
 21
-26.1062049703
  0
LINE
  5
2E6
100
AcDbEntity
  8
RACCORDO
100
AcDbLine
 62
253
  6
CONTINUOUS
 10
55.4356389973
 20
-22.4387820813
 11
55.4292444837
 21
-22.4323875677
  0
LINE
  5
2E7
100
AcDbEntity
  8
SMUSSO
100
AcDbLine
 62
7
  6
CONTINUOUS
 10
80.5441603526
 20
-47.2473491281
 11
74.8370535714
 21
-41.5402423469
  0
LINE
  5
2E8
100
AcDbEntity
  8
RACCORDO
100
AcDbLine
 62
253
  6
CONTINUOUS
 10
58.995942779
 20
-25.3992381679
 11
59.0030161948
 21
-25.4063115837
  0
LINE
  5
2E9
100
AcDbEntity
  8
RACCORDO
100
AcDbLine
 62
253
  6
CONTINUOUS
 10
55.7363668043
 20
-22.1396012713
 11
55.7291987922
 21
-22.1324332592
  0
LWPOLYLINE
  5
2EA
100
AcDbEntity
  8
RACCORDO
100
AcDbPolyline
 62
253
  6
CONTINUOUS
 90
22
 70
0
 10
-56.7722026956
 20
22.7580865892
 10
-56.7967173465
 20
22.7560959263
 10
-56.8209666317
 20
22.7521154533
 10
-56.8447882633
 20
22.7461823792
 10
-56.8679927494
 20
22.7383592176
 10
-56.8904616024
 20
22.7287013175
 10
-56.9121373344
 20
22.7172306944
 10
-56.9330549714
 20
22.7038829343
 10
-56.9528586523
 20
22.6888338736
 10
-56.9709883893
 20
22.6725756023
 10
-56.9873611281
 20
22.6553667233
 10
-57.0020204844
 20
22.637351103
 10
-57.0147774717
 20
22.6190031608
 10
-57.0256545782
 20
22.6006589193
 10
-57.0348413066
 20
22.5823935097
 10
-57.0424735366
 20
22.564301136
 10
-57.0486568241
 20
22.5465429503
 10
-57.0535199987
 20
22.5292171013
 10
-57.0572056725
 20
22.5122819283
 10
-57.0598182451
 20
22.4957704195
 10
-57.0614496997
 20
22.4797984542
 10
-57.0622014112
 20
22.4644227452
  0
LWPOLYLINE
  5
2EB
100
AcDbEntity
  8
RACCORDO
100
AcDbPolyline
 62
253
  6
CONTINUOUS
 90
25
 70
0
 10
-59.6219422495
 20
26.4186468606
 10
-59.6677178868
 20
26.4171426269
 10
-59.7132966805
 20
26.4126482052
 10
-59.7584835571
 20
26.4051829262
 10
-59.8030851232
 20
26.3947788635
 10
-59.8469104988
 20
26.381480612
 10
-59.8897721288
 20
26.3653450818
 10
-59.9314865672
 20
26.346441399
 10
-59.9718753071
 20
26.3248505457
 10
-60.0107655368
 20
26.3006649021
 10
-60.0479908001
 20
26.273988024
 10
-60.0833918029
 20
26.2449341339
 10
-60.1168171115
 20
26.2136275203
 10
-60.1481236157
 20
26.1802022218
 10
-60.1771773664
 20
26.1448012851
 10
-60.2038541745
 20
26.1075760166
 10
-60.2280398672
 20
26.0686855848
 10
-60.2496307906
 20
26.0282965415
 10
-60.2685344561
 20
25.9865819072
 10
-60.2846698723
 20
25.9437202953
 10
-60.2979679811
 20
25.8998950712
 10
-60.3083719108
 20
25.8552937312
 10
-60.3158370824
 20
25.8101071336
 10
-60.3203314301
 20
25.7645286912
 10
-60.3218356361
 20
25.718753474
  0
LINE
  5
2EC
100
AcDbEntity
  8
RACCORDO
100
AcDbLine
 62
253
  6
CONTINUOUS
 10
58.2960493924
 20
26.4186468606
 11
-59.6219422495
 21
26.4186468606
  0
LINE
  5
2ED
100
AcDbEntity
  8
RACCORDO
100
AcDbLine
 62
7
  6
CONTINUOUS
 10
58.3031228082
 20
26.4257202765
 11
-59.6290156654
 21
26.4257202765
  0
LWPOLYLINE
  5
2EE
100
AcDbEntity
  8
RACCORDO
100
AcDbPolyline
 62
253
  6
CONTINUOUS
 90
25
 70
0
 10
58.2960493924
 20
26.1186925521
 10
58.3222806857
 20
26.117823954
 10
58.3482108122
 20
26.1152784254
 10
58.3738397717
 20
26.111055966
 10
58.3992840617
 20
26.1051246418
 10
58.4244271849
 20
26.0975163868
 10
58.4489196487
 20
26.0883270041
 10
58.4727436069
 20
26.0775369374
 10
58.4959169058
 20
26.065165743
 10
58.5181435911
 20
26.0513678923
 10
58.5394128551
 20
26.0361236842
 10
58.5597355055
 20
26.0194528198
 10
58.5788480121
 20
26.0015688745
 10
58.5967349804
 20
25.9824542376
 10
58.6134118049
 20
25.9621265196
 10
58.6286611388
 20
25.9408521276
 10
58.642461995
 20
25.9186210831
 10
58.6548353606
 20
25.8954433645
 10
58.6656268503
 20
25.8716153142
 10
58.6748168226
 20
25.847118278
 10
58.682424919
 20
25.8219709102
 10
58.6883556781
 20
25.7965255153
 10
58.6925772795
 20
25.7708995285
 10
58.6951215436
 20
25.7449755147
 10
58.6959884704
 20
25.718753474
  0
LINE
  5
2EF
100
AcDbEntity
  8
RACCORDO
100
AcDbLine
 62
253
  6
CONTINUOUS
 10
55.7859889337
 20
23.4522496202
 11
55.4641636461
 21
22.7878401185
  0
LINE
  5
2F0
100
AcDbEntity
  8
RACCORDO
100
AcDbLine
 62
253
  6
CONTINUOUS
 10
56.0636277944
 20
23.1335725781
 11
55.743747318
 21
22.4732822346
  0
LINE
  5
2F1
100
AcDbEntity
  8
SMUSSO
100
AcDbLine
 62
7
  6
CONTINUOUS
 10
74.8370535714
 20
41.8597576531
 11
-76.1629464286
 21
41.8597576531
  0
LINE
  5
2F2
100
AcDbEntity
  8
RACCORDO
100
AcDbLine
 62
253
  6
CONTINUOUS
 10
56.0636277944
 20
-22.8140687161
 11
55.743747318
 21
-22.153766929
  0
LINE
  5
2F3
100
AcDbEntity
  8
RACCORDO
100
AcDbLine
 62
253
  6
CONTINUOUS
 10
55.7860035698
 20
-23.1327343141
 11
55.4641554447
 21
-22.4683250292
  0
LWPOLYLINE
  5
2F4
100
AcDbEntity
  8
RACCORDO
100
AcDbPolyline
 62
253
  6
CONTINUOUS
 90
10
 70
0
 10
55.7363149482
 20
22.4644228616
 10
55.7365288801
 20
22.4654004975
 10
55.7368964238
 20
22.4663805317
 10
55.7374174662
 20
22.4673626592
 10
55.7380918474
 20
22.4683465745
 10
55.7389193601
 20
22.4693319714
 10
55.7398997499
 20
22.4703185434
 10
55.7410327154
 20
22.4713059834
 10
55.7423179085
 20
22.4722939845
 10
55.743754934
 20
22.4732822392
  0
LINE
  5
2F5
100
AcDbEntity
  8
SMUSSO
100
AcDbLine
 62
7
  6
CONTINUOUS
 10
79.8370535714
 20
47.8597576531
 11
-81.1629464286
 21
47.8597576531
  0
LWPOLYLINE
  5
2F6
100
AcDbEntity
  8
RACCORDO
100
AcDbPolyline
 62
253
  6
CONTINUOUS
 90
10
 70
0
 10
55.7363085653
 20
-22.1449074392
 10
55.7365227556
 20
-22.1458845571
 10
55.7368904535
 20
-22.146864196
 10
55.7374115459
 20
-22.1478460554
 10
55.7380858728
 20
-22.148829834
 10
55.738913227
 20
-22.1498152296
 10
55.7398933542
 20
-22.15080194
 10
55.7410259533
 20
-22.1517896621
 10
55.7423106764
 20
-22.1527780928
 10
55.7437471287
 20
-22.1537669285
  0
LWPOLYLINE
  5
2F7
100
AcDbEntity
  8
RACCORDO
100
AcDbPolyline
 62
253
  6
CONTINUOUS
 90
22
 70
0
 10
55.7363085541
 20
22.4644227452
 10
55.7355568423
 20
22.4797984368
 10
55.7339253884
 20
22.4957703955
 10
55.7313128161
 20
22.5122819081
 10
55.7276271396
 20
22.5292171003
 10
55.7227639576
 20
22.5465429782
 10
55.7165806607
 20
22.5643011866
 10
55.708948422
 20
22.5823935713
 10
55.6997616851
 20
22.6006589861
 10
55.6888845708
 20
22.6190032292
 10
55.6761275771
 20
22.6373511696
 10
55.6614682165
 20
22.655366785
 10
55.6450954743
 20
22.6725756583
 10
55.6269657339
 20
22.6888339241
 10
55.6071620506
 20
22.7038829786
 10
55.5862444152
 20
22.7172307306
 10
55.5645686914
 20
22.7287013435
 10
55.5420998513
 20
22.7383592336
 10
55.5188953779
 20
22.7461823879
 10
55.4950737568
 20
22.7521154573
 10
55.470824481
 20
22.7560959275
 10
55.4463098384
 20
22.7580865892
  0
LWPOLYLINE
  5
2F8
100
AcDbEntity
  8
RACCORDO
100
AcDbPolyline
 62
253
  6
CONTINUOUS
 90
22
 70
0
 10
56.0636283487
 20
-22.8140698607
 10
56.0640736925
 20
-22.8408857325
 10
56.0627084152
 20
-22.8671061256
 10
56.0595888061
 20
-22.8926150969
 10
56.0547878478
 20
-22.9173145078
 10
56.0483684249
 20
-22.9410900288
 10
56.0403797408
 20
-22.9638105559
 10
56.0308993891
 20
-22.9853783432
 10
56.0200160261
 20
-23.0057192061
 10
56.0077976577
 20
-23.0247457619
 10
55.9943415854
 20
-23.0423735988
 10
55.9797365108
 20
-23.0585574306
 10
55.9640316787
 20
-23.0732702746
 10
55.9473224021
 20
-23.0864517454
 10
55.9296992546
 20
-23.0980589139
 10
55.9111927716
 20
-23.1080812965
 10
55.8918988897
 20
-23.1164692737
 10
55.8719081524
 20
-23.1231832432
 10
55.8512341403
 20
-23.1282090346
 10
55.8299444219
 20
-23.1315061382
 10
55.8081663823
 20
-23.1330257499
 10
55.786003638
 20
-23.1327344549
  0
LINE
  5
2F9
100
AcDbEntity
  8
RACCORDO
100
AcDbLine
 62
253
  6
CONTINUOUS
 10
55.7438250445
 20
22.4684828868
 11
55.743747318
 21
22.4732822346
  0
LINE
  5
2FA
100
AcDbEntity
  8
RACCORDO
100
AcDbLine
 62
253
  6
CONTINUOUS
 10
55.7363668043
 20
22.4591165774
 11
55.7363085541
 21
22.4644227452
  0
LINE
  5
2FB
100
AcDbEntity
  8
RACCORDO
100
AcDbLine
 62
253
  6
CONTINUOUS
 10
55.7438715303
 20
22.4637610011
 11
55.7438250445
 21
22.4684828868
  0
LINE
  5
2FC
100
AcDbEntity
  8
RACCORDO
100
AcDbLine
 62
253
  6
CONTINUOUS
 10
55.7438867754
 20
22.4591165774
 11
55.7438715303
 21
22.4637610011
  0
LINE
  5
2FD
100
AcDbEntity
  8
RACCORDO
100
AcDbLine
 62
253
  6
CONTINUOUS
 10
55.4356389973
 20
-22.4387820813
 11
55.4356389975
 21
-22.4688596185
  0
LINE
  5
2FE
100
AcDbEntity
  8
RACCORDO
100
AcDbLine
 62
253
  6
CONTINUOUS
 10
55.4356389973
 20
22.7582973874
 11
55.4356389973
 21
22.7883749246
  0
LINE
  5
2FF
100
AcDbEntity
  8
RACCORDO
100
AcDbLine
 62
7
  6
CONTINUOUS
 10
55.7291987922
 20
22.4519485653
 11
55.7291987922
 21
-22.1324332592
  0
LINE
  5
300
100
AcDbEntity
  8
RACCORDO
100
AcDbLine
 62
253
  6
CONTINUOUS
 10
55.7363668043
 20
-22.1396012713
 11
55.7363668043
 21
22.4591165774
  0
LINE
  5
301
100
AcDbEntity
  8
RACCORDO
100
AcDbLine
 62
253
  6
CONTINUOUS
 10
55.7859985807
 20
23.7341574065
 11
55.7859985807
 21
23.4522496202
  0
LINE
  5
302
100
AcDbEntity
  8
RACCORDO
100
AcDbLine
 62
253
  6
CONTINUOUS
 10
55.7859985807
 20
-23.4146421004
 11
55.7859985807
 21
-23.1327343141
  0
LINE
  5
303
100
AcDbEntity
  8
RACCORDO
100
AcDbLine
 62
253
  6
CONTINUOUS
 10
56.0636277944
 20
23.1335725781
 11
56.0636277944
 21
-22.8140687161
  0
LINE
  5
304
100
AcDbEntity
  8
RACCORDO
100
AcDbLine
 62
253
  6
CONTINUOUS
 10
56.3590701203
 20
23.1335724037
 11
56.3590701203
 21
-22.8140570976
  0
LINE
  5
305
100
AcDbEntity
  8
RACCORDO
100
AcDbLine
 62
253
  6
CONTINUOUS
 10
55.7438811115
 20
-22.1420052812
 11
55.7438867754
 21
22.4591165774
  0
LINE
  5
306
100
AcDbEntity
  8
RACCORDO
100
AcDbLine
 62
253
  6
CONTINUOUS
 10
55.7438486888
 20
-22.1467616207
 11
55.7438811115
 21
-22.1420052812
  0
LINE
  5
307
100
AcDbEntity
  8
RACCORDO
100
AcDbLine
 62
253
  6
CONTINUOUS
 10
55.7363085541
 20
-22.144907439
 11
55.7363668043
 21
-22.1396012713
  0
LWPOLYLINE
  5
308
100
AcDbEntity
  8
RACCORDO
100
AcDbPolyline
 62
253
  6
CONTINUOUS
 90
22
 70
0
 10
55.743747318
 20
22.4732822346
 10
55.7439842771
 20
22.4906429676
 10
55.7433186708
 20
22.5085397429
 10
55.7416479531
 20
22.5269228399
 10
55.738880288
 20
22.5456970487
 10
55.7349072067
 20
22.5648230823
 10
55.7295836054
 20
22.5843114296
 10
55.7227993619
 20
22.6040894533
 10
55.7144395249
 20
22.6239924583
 10
55.7043296838
 20
22.6438553331
 10
55.6922893147
 20
22.6636250894
 10
55.678299135
 20
22.6829720694
 10
55.6624995098
 20
22.7013245601
 10
55.6448396974
 20
22.7185282497
 10
55.625418409
 20
22.7343550497
 10
55.6047740288
 20
22.7482638948
 10
55.5832492969
 20
22.7600541959
 10
55.5608192122
 20
22.7698108706
 10
55.5375505705
 20
22.7775234291
 10
55.5135653151
 20
22.7831403375
 10
55.4890491649
 20
22.7865926438
 10
55.4641637073
 20
22.7878402422
  0
LWPOLYLINE
  5
309
100
AcDbEntity
  8
RACCORDO
100
AcDbPolyline
 62
253
  6
CONTINUOUS
 90
3
 70
0
 10
55.743747318
 20
-22.153766929
 10
55.7437881399
 20
-22.151449053
 10
55.7438486888
 20
-22.1467616207
  0
LWPOLYLINE
  5
30A
100
AcDbEntity
  8
RACCORDO
100
AcDbPolyline
 62
253
  6
CONTINUOUS
 90
25
 70
0
 10
58.995942779
 20
25.718753474
 10
58.9944385453
 20
25.7645291113
 10
58.9899441235
 20
25.810107905
 10
58.9824788446
 20
25.8552947815
 10
58.9720747819
 20
25.8998963477
 10
58.9587765304
 20
25.9437217233
 10
58.9426410002
 20
25.9865833532
 10
58.9237373173
 20
26.0282977917
 10
58.9021464641
 20
26.0686865316
 10
58.8779608205
 20
26.1075767613
 10
58.8512839424
 20
26.1448020246
 10
58.8222300523
 20
26.1802030274
 10
58.7909234386
 20
26.213628336
 10
58.7574981401
 20
26.2449348402
 10
58.7220972035
 20
26.2739885909
 10
58.6848719349
 20
26.300665399
 10
58.6459815032
 20
26.3248510917
 10
58.6055924599
 20
26.3464420151
 10
58.5638778255
 20
26.3653456806
 10
58.5210162137
 20
26.3814810968
 10
58.4771909896
 20
26.3947792056
 10
58.4325896495
 20
26.4051831353
 10
58.387403052
 20
26.4126483069
 10
58.3418246095
 20
26.4171426545
 10
58.2960493924
 20
26.4186468606
  0
LINE
  5
30B
100
AcDbEntity
  8
RACCORDO
100
AcDbLine
 62
253
  6
CONTINUOUS
 10
58.2960493923
 20
26.4186468606
 11
58.2960493924
 21
26.1186925521
  0
LINE
  5
30C
100
AcDbEntity
  8
RACCORDO
100
AcDbLine
 62
253
  6
CONTINUOUS
 10
58.296049392
 20
-26.0991315545
 11
58.2960493924
 21
-25.7991772459
  0
LINE
  5
30D
100
AcDbEntity
  8
RACCORDO
100
AcDbLine
 62
253
  6
CONTINUOUS
 10
58.6959884704
 20
-25.3992381679
 11
58.6959884704
 21
25.718753474
  0
LINE
  5
30E
100
AcDbEntity
  8
RACCORDO
100
AcDbLine
 62
253
  6
CONTINUOUS
 10
58.995942779
 20
-25.3992381679
 11
58.995942779
 21
25.718753474
  0
LINE
  5
30F
100
AcDbEntity
  8
RACCORDO
100
AcDbLine
 62
7
  6
CONTINUOUS
 10
59.0030161948
 20
-25.4063115837
 11
59.0030161948
 21
25.7258268898
  0
LWPOLYLINE
  5
310
100
AcDbEntity
  8
RACCORDO
100
AcDbPolyline
 62
253
  6
CONTINUOUS
 90
25
 70
0
 10
58.6959884704
 20
-25.3992381679
 10
58.6951198724
 20
-25.4254694612
 10
58.6925743437
 20
-25.4513995877
 10
58.6883518844
 20
-25.4770285472
 10
58.6824205601
 20
-25.5024728372
 10
58.6748123052
 20
-25.5276159604
 10
58.6656229225
 20
-25.5521084242
 10
58.6548328558
 20
-25.5759323824
 10
58.6424616613
 20
-25.5991056813
 10
58.6286638106
 20
-25.6213323666
 10
58.6134196025
 20
-25.6426016306
 10
58.5967487382
 20
-25.662924281
 10
58.5788647929
 20
-25.6820367876
 10
58.5597501559
 20
-25.6999237559
 10
58.539422438
 20
-25.7166005804
 10
58.518148046
 20
-25.7318499143
 10
58.4959170015
 20
-25.7456507705
 10
58.4727392828
 20
-25.7580241361
 10
58.4489112325
 20
-25.7688156258
 10
58.4244141964
 20
-25.7780055981
 10
58.3992668285
 20
-25.7856136945
 10
58.3738214337
 20
-25.7915444536
 10
58.3481954469
 20
-25.795766055
 10
58.3222714331
 20
-25.7983103191
 10
58.2960493924
 20
-25.7991772459
  0
LWPOLYLINE
  5
311
100
AcDbEntity
  8
RACCORDO
100
AcDbPolyline
 62
253
  6
CONTINUOUS
 90
22
 70
0
 10
56.3590701203
 20
-22.8140570976
 10
56.3571194561
 20
-22.8626705158
 10
56.3519526412
 20
-22.9099698802
 10
56.3435696754
 20
-22.9559551909
 10
56.3318287571
 20
-23.0008263667
 10
56.3168716881
 20
-23.0443834887
 10
56.2991238729
 20
-23.0860268003
 10
56.2785605896
 20
-23.1257069948
 10
56.2552065601
 20
-23.163473379
 10
56.2295613557
 20
-23.1988741157
 10
56.2016341845
 20
-23.2318518996
 10
56.1714158383
 20
-23.262464036
 10
56.1393782641
 20
-23.2904306036
 10
56.1055342894
 20
-23.3157297415
 10
56.0698710867
 20
-23.3383833105
 10
56.0328221196
 20
-23.3581769715
 10
55.9943946763
 20
-23.3751063185
 10
55.9545814687
 20
-23.3891757574
 10
55.9137940954
 20
-23.4001841672
 10
55.8721697561
 20
-23.4080645074
 10
55.8295712512
 20
-23.4128838185
 10
55.7859985807
 20
-23.4146421004
  0
LINE
  5
312
100
AcDbEntity
  8
SMUSSO
100
AcDbLine
 62
7
  6
CONTINUOUS
 10
74.8370535714
 20
-41.5402423469
 11
74.8370535714
 21
41.8597576531
  0
LINE
  5
313
100
AcDbEntity
  8
SMUSSO
100
AcDbLine
 62
7
  6
CONTINUOUS
 10
80.8370535714
 20
-46.5402423469
 11
80.8370535714
 21
46.8597576531
  0
LINE
  5
314
100
AcDbEntity
  8
SMUSSO
100
AcDbLine
 62
7
  6
CONTINUOUS
 10
-116.3222576531
 20
-47.5402423469
 11
-114.8222576531
 21
-47.5402423469
  0
LINE
  5
315
100
AcDbEntity
  8
DRAFT
100
AcDbLine
 62
7
  6
CONTINUOUS
 10
-113.7746648659
 20
-47.4378351341
 11
-110.7722576531
 21
-47.4902423469
  0
LINE
  5
316
100
AcDbEntity
  8
SMUSSO
100
AcDbLine
 62
253
  6
CONTINUOUS
 10
-114.3222576531
 20
-46.5402423469
 11
-116.3222576531
 21
-46.5402423469
  0
LINE
  5
317
100
AcDbEntity
  8
DRAFT
100
AcDbLine
 62
253
  6
CONTINUOUS
 10
-109.7722576531
 20
-45.9902423469
 11
-114.2222576531
 21
-45.9902423469
  0
LINE
  5
318
100
AcDbEntity
  8
SMUSSO
100
AcDbLine
 62
7
  6
CONTINUOUS
 10
-114.2222576532
 20
47.309757653
 11
-113.7746648659
 21
47.7573504402
  0
LINE
  5
319
100
AcDbEntity
  8
DRAFT
100
AcDbLine
 62
7
  6
CONTINUOUS
 10
-114.2222576531
 20
47.3097576531
 11
-113.7746648659
 21
47.7573504402
  0
LINE
  5
31A
100
AcDbEntity
  8
DRAFT
100
AcDbLine
 62
7
  6
CONTINUOUS
 10
-114.2222576531
 20
-46.9902423469
 11
-113.7746648659
 21
-47.4378351341
  0
LINE
  5
31B
100
AcDbEntity
  8
0
100
AcDbLine
 62
7
  6
CONTINUOUS
 10
-109.1722576531
 20
-26.1902423469
 11
-109.7722576531
 21
-26.1937330448
  0
LINE
  5
31C
100
AcDbEntity
  8
ASSI
100
AcDbLine
 62
7
  6
CONTINUOUS
 10
-109.1722576531
 20
-26.9902423469
 11
-109.6716191712
 21
-26.9911138981
  0
LINE
  5
31D
100
AcDbEntity
  8
0
100
AcDbLine
 62
7
  6
CONTINUOUS
 10
-109.6716191712
 20
-26.9911138981
 11
-109.7722576531
 21
-26.9912895456
  0
LINE
  5
31E
100
AcDbEntity
  8
ASSI
100
AcDbLine
 62
253
  6
CONTINUOUS
 10
-109.1722576531
 20
-26.7678880605
 11
-109.4500288428
 21
-26.7680135366
  0
LINE
  5
31F
100
AcDbEntity
  8
0
100
AcDbLine
 62
253
  6
CONTINUOUS
 10
-109.4500288428
 20
-26.7680135366
 11
-109.7722576531
 21
-26.7681590954
  0
LINE
  5
320
100
AcDbEntity
  8
0
100
AcDbLine
 62
7
  6
CONTINUOUS
 10
-119.0222576531
 20
-25.6554167447
 11
-119.2222576531
 21
-25.6554167447
  0
LINE
  5
321
100
AcDbEntity
  8
RACCORDO
100
AcDbLine
 62
253
  6
CONTINUOUS
 10
-118.727493375
 20
-25.3992381678
 11
-119.0222576531
 21
-25.3992381679
  0
LINE
  5
322
100
AcDbEntity
  8
0
100
AcDbLine
 62
253
  6
CONTINUOUS
 10
-119.0222576531
 20
-25.087083635
 11
-119.2222576531
 21
-25.087083635
  0
LINE
  5
323
100
AcDbEntity
  8
0
100
AcDbLine
 62
7
  6
CONTINUOUS
 10
-109.3722576531
 20
-25.0402423469
 11
-109.7722576531
 21
-25.0402423469
  0
LINE
  5
324
100
AcDbEntity
  8
RACCORDO
100
AcDbLine
 62
7
  6
CONTINUOUS
 10
-118.727493375
 20
-26.0991315545
 11
-118.3222576531
 21
-26.1062049703
  0
LINE
  5
325
100
AcDbEntity
  8
RACCORDO
100
AcDbLine
 62
7
  6
CONTINUOUS
 10
-114.3222576531
 20
-25.5358785807
 11
-114.2222576531
 21
-25.5376240872
  0
LINE
  5
326
100
AcDbEntity
  8
RACCORDO
100
AcDbLine
 62
253
  6
CONTINUOUS
 10
-118.727493375
 20
-25.3992381679
 11
-118.3222576531
 21
-25.4063115837
  0
LINE
  5
327
100
AcDbEntity
  8
RACCORDO
100
AcDbLine
 62
7
  6
CONTINUOUS
 10
-114.2222576531
 20
-25.6873937652
 11
-114.3222576531
 21
-25.6854947107
  0
LINE
  5
328
100
AcDbEntity
  8
0
100
AcDbLine
 62
7
  6
CONTINUOUS
 10
-109.3617904618
 20
-25.6318687637
 11
-109.7722576531
 21
-25.6137342717
  0
LINE
  5
329
100
AcDbEntity
  8
0
100
AcDbLine
 62
7
  6
CONTINUOUS
 10
-109.7222576531
 20
-24.8902423469
 11
-109.5222576531
 21
-24.8902423469
  0
LINE
  5
32A
100
AcDbEntity
  8
0
100
AcDbLine
 62
7
  6
CONTINUOUS
 10
-119.0222576531
 20
-24.675237779
 11
-119.2222576531
 21
-24.675237779
  0
LINE
  5
32B
100
AcDbEntity
  8
0
100
AcDbLine
 62
7
  6
CONTINUOUS
 10
-119.0222576531
 20
-24.662829653
 11
-119.2222576531
 21
-24.662829653
  0
LINE
  5
32C
100
AcDbEntity
  8
0
100
AcDbLine
 62
253
  6
CONTINUOUS
 10
-119.0222576531
 20
-23.6022340639
 11
-119.2222576531
 21
-23.6022340639
  0
LINE
  5
32D
100
AcDbEntity
  8
0
100
AcDbLine
 62
7
  6
CONTINUOUS
 10
-119.0222576531
 20
-23.5309559721
 11
-119.2222576531
 21
-23.5309559721
  0
LINE
  5
32E
100
AcDbEntity
  8
RACCORDO
100
AcDbLine
 62
253
  6
CONTINUOUS
 10
-114.3222576531
 20
-24.236076577
 11
-114.2222576531
 21
-24.2378220835
  0
LINE
  5
32F
100
AcDbEntity
  8
RACCORDO
100
AcDbLine
 62
7
  6
CONTINUOUS
 10
-114.2222576531
 20
-20.9907797649
 11
-114.3222576531
 21
-20.9911380436
  0
LINE
  5
330
100
AcDbEntity
  8
RACCORDO
100
AcDbLine
 62
7
  6
CONTINUOUS
 10
-114.2222576531
 20
-21.3402423469
 11
-114.3222576531
 21
-21.3402423469
  0
LINE
  5
331
100
AcDbEntity
  8
RACCORDO
100
AcDbLine
 62
7
  6
CONTINUOUS
 10
-114.2222576531
 20
-21.689704929
 11
-114.3222576531
 21
-21.6893466503
  0
LINE
  5
332
100
AcDbEntity
  8
SMUSSO
100
AcDbLine
 62
7
  6
CONTINUOUS
 10
-116.3222576531
 20
47.8597576531
 11
-118.3222576531
 21
41.8597576531
  0
LINE
  5
333
100
AcDbEntity
  8
SMUSSO
100
AcDbLine
 62
7
  6
CONTINUOUS
 10
-116.3222576531
 20
-47.5402423469
 11
-118.3222576531
 21
-41.5402423469
  0
LINE
  5
334
100
AcDbEntity
  8
0
100
AcDbLine
 62
7
  6
CONTINUOUS
 10
-109.5222576531
 20
25.2097576531
 11
-109.3722576531
 21
25.3597576531
  0
LINE
  5
335
100
AcDbEntity
  8
RACCORDO
100
AcDbLine
 62
7
  6
CONTINUOUS
 10
-114.2222576531
 20
-15.3638066846
 11
-114.3222576531
 21
-15.3655521911
  0
LINE
  5
336
100
AcDbEntity
  8
RACCORDO
100
AcDbLine
 62
7
  6
CONTINUOUS
 10
-114.2222576531
 20
-14.3166780093
 11
-114.3222576531
 21
-14.3149325028
  0
LINE
  5
337
100
AcDbEntity
  8
0
100
AcDbLine
 62
7
  6
CONTINUOUS
 10
-109.5222576531
 20
-24.8902423469
 11
-109.3722576531
 21
-25.0402423469
  0
LWPOLYLINE
  5
338
100
AcDbEntity
  8
RACCORDO
100
AcDbPolyline
 62
253
  6
CONTINUOUS
 90
6
 70
0
 10
-118.727493375
 20
-26.0991315545
 10
-118.727821788
 20
-26.0976273208
 10
-118.7281296378
 20
-26.093132899
 10
-118.7284138569
 20
-26.0856676201
 10
-118.7286703475
 20
-26.0752635574
 10
-118.728897838
 20
-26.0619653059
  0
LINE
  5
339
100
AcDbEntity
  8
RACCORDO
100
AcDbLine
 62
7
  6
CONTINUOUS
 10
-114.2222576531
 20
-7.3638066846
 11
-114.3222576531
 21
-7.3655521911
  0
LINE
  5
33A
100
AcDbEntity
  8
RACCORDO
100
AcDbLine
 62
7
  6
CONTINUOUS
 10
-114.2222576531
 20
-6.3166780093
 11
-114.3222576531
 21
-6.3149325028
  0
LINE
  5
33B
100
AcDbEntity
  8
RACCORDO
100
AcDbLine
 62
253
  6
CONTINUOUS
 10
-118.728897838
 20
-26.0619653059
 11
-118.7292689838
 21
-26.0269260928
  0
LINE
  5
33C
100
AcDbEntity
  8
RACCORDO
100
AcDbLine
 62
253
  6
CONTINUOUS
 10
-118.7292689838
 20
-26.0269260928
 11
-118.7295980532
 21
-25.9544727179
  0
LINE
  5
33D
100
AcDbEntity
  8
RACCORDO
100
AcDbLine
 62
253
  6
CONTINUOUS
 10
-118.727493375
 20
25.718753474
 11
-118.7295188142
 21
26.1075767613
  0
LINE
  5
33E
100
AcDbEntity
  8
0
100
AcDbLine
 62
7
  6
CONTINUOUS
 10
-119.2222576531
 20
-25.6554167447
 11
-119.2222576531
 21
-23.5309631305
  0
LINE
  5
33F
100
AcDbEntity
  8
RACCORDO
100
AcDbLine
 62
7
  6
CONTINUOUS
 10
-119.0222576531
 20
-25.7991772459
 11
-119.0222576531
 21
26.1186925521
  0
LINE
  5
340
100
AcDbEntity
  8
RACCORDO
100
AcDbLine
 62
253
  6
CONTINUOUS
 10
-118.727493375
 20
-25.3992381679
 11
-118.727493375
 21
25.718753474
  0
LINE
  5
341
100
AcDbEntity
  8
SMUSSO
100
AcDbLine
 62
7
  6
CONTINUOUS
 10
-118.3222576531
 20
-41.5402423469
 11
-118.3222576531
 21
41.8597576531
  0
LINE
  5
342
100
AcDbEntity
  8
RACCORDO
100
AcDbLine
 62
253
  6
CONTINUOUS
 10
-118.7295188142
 20
26.1075767613
 11
-118.7295980717
 21
26.2739885909
  0
LINE
  5
343
100
AcDbEntity
  8
RACCORDO
100
AcDbLine
 62
253
  6
CONTINUOUS
 10
-118.7295980532
 20
-25.9544727179
 11
-118.7295188381
 21
-25.7880607104
  0
LINE
  5
344
100
AcDbEntity
  8
RACCORDO
100
AcDbLine
 62
253
  6
CONTINUOUS
 10
-118.7295980717
 20
26.2739885909
 11
-118.7292689973
 21
26.3464420151
  0
LINE
  5
345
100
AcDbEntity
  8
RACCORDO
100
AcDbLine
 62
253
  6
CONTINUOUS
 10
-118.7295188381
 20
-25.7880607104
 11
-118.727493375
 21
-25.3992381679
  0
LWPOLYLINE
  5
346
100
AcDbEntity
  8
RACCORDO
100
AcDbPolyline
 62
253
  6
CONTINUOUS
 90
7
 70
0
 10
-118.7292689973
 20
26.3464420151
 10
-118.728897837
 20
26.3814810968
 10
-118.7286703413
 20
26.3947792056
 10
-118.728413848
 20
26.4051831353
 10
-118.7281296291
 20
26.4126483069
 10
-118.7278217821
 20
26.4171426545
 10
-118.727493375
 20
26.4186468606
  0
LINE
  5
347
100
AcDbEntity
  8
SMUSSO
100
AcDbLine
 62
7
  6
CONTINUOUS
 10
-116.3222576531
 20
-46.5402423469
 11
-116.3222576531
 21
46.8597576531
  0
LINE
  5
348
100
AcDbEntity
  8
SMUSSO
100
AcDbLine
 62
7
  6
CONTINUOUS
 10
-114.8222576531
 20
47.8597576531
 11
-114.8222576531
 21
-47.5402423469
  0
LINE
  5
349
100
AcDbEntity
  8
SMUSSO
100
AcDbLine
 62
7
  6
CONTINUOUS
 10
-114.3222576531
 20
47.3597576531
 11
-114.3222576531
 21
-47.0402423469
  0
LINE
  5
34A
100
AcDbEntity
  8
SMUSSO
100
AcDbLine
 62
7
  6
CONTINUOUS
 10
-114.2222576531
 20
-46.9902423469
 11
-114.2222576531
 21
47.3097576531
  0
LINE
  5
34B
100
AcDbEntity
  8
DRAFT
100
AcDbLine
 62
7
  6
CONTINUOUS
 10
-113.7746648659
 20
-47.4378351341
 11
-113.7746648659
 21
47.7573504402
  0
LINE
  5
34C
100
AcDbEntity
  8
DRAFT
100
AcDbLine
 62
7
  6
CONTINUOUS
 10
-110.7722576531
 20
-47.4902423469
 11
-110.7722576531
 21
47.8097576531
  0
LINE
  5
34D
100
AcDbEntity
  8
SMUSSO
100
AcDbLine
 62
7
  6
CONTINUOUS
 10
-109.7722576531
 20
46.8097576531
 11
-109.7722576531
 21
-46.4902423469
  0
LINE
  5
34E
100
AcDbEntity
  8
0
100
AcDbLine
 62
253
  6
CONTINUOUS
 10
-109.3617904618
 20
25.9513840698
 11
-109.3617904618
 21
25.3600317461
  0
LINE
  5
34F
100
AcDbEntity
  8
0
100
AcDbLine
 62
253
  6
CONTINUOUS
 10
-109.3617904618
 20
-25.04051644
 11
-109.3617904618
 21
-25.6318687637
  0
LINE
  5
350
100
AcDbEntity
  8
ASSI
100
AcDbLine
 62
7
  6
CONTINUOUS
 10
-109.1722576531
 20
-26.9901902737
 11
-109.1722576531
 21
-26.4902423469
  0
LINE
  5
351
100
AcDbEntity
  8
0
100
AcDbLine
 62
7
  6
CONTINUOUS
 10
-109.1722576531
 20
-25.2402423469
 11
-109.1722576531
 21
-26.4902423469
  0
LINE
  5
352
100
AcDbEntity
  8
0
100
AcDbLine
 62
7
  6
CONTINUOUS
 10
-109.1722576531
 20
25.5597576531
 11
-109.1722576531
 21
26.8097576531
  0
LINE
  5
353
100
AcDbEntity
  8
ASSI
100
AcDbLine
 62
7
  6
CONTINUOUS
 10
-109.1722576531
 20
26.8097576531
 11
-109.1722576531
 21
27.3097055798
  0
LINE
  5
354
100
AcDbEntity
  8
RACCORDO
100
AcDbLine
 62
7
  6
CONTINUOUS
 10
-114.2222576531
 20
6.6361933154
 11
-114.3222576531
 21
6.6344478089
  0
LINE
  5
355
100
AcDbEntity
  8
RACCORDO
100
AcDbLine
 62
7
  6
CONTINUOUS
 10
-114.2222576531
 20
7.6833219907
 11
-114.3222576531
 21
7.6850674972
  0
LINE
  5
356
100
AcDbEntity
  8
RACCORDO
100
AcDbLine
 62
7
  6
CONTINUOUS
 10
-114.2222576531
 20
14.6361933154
 11
-114.3222576531
 21
14.6344478089
  0
LINE
  5
357
100
AcDbEntity
  8
RACCORDO
100
AcDbLine
 62
7
  6
CONTINUOUS
 10
-114.2222576531
 20
15.6833219907
 11
-114.3222576531
 21
15.6850674972
  0
LINE
  5
358
100
AcDbEntity
  8
0
100
AcDbLine
 62
7
  6
CONTINUOUS
 10
-109.7722576531
 20
-24.9402423469
 11
-109.7222576531
 21
-24.8902423469
  0
LINE
  5
359
100
AcDbEntity
  8
0
100
AcDbLine
 62
7
  6
CONTINUOUS
 10
-109.1722576531
 20
-26.4902423469
 11
-109.6730728462
 21
-26.99105754
  0
LINE
  5
35A
100
AcDbEntity
  8
RACCORDO
100
AcDbLine
 62
7
  6
CONTINUOUS
 10
-114.2222576531
 20
22.0092202351
 11
-114.3222576531
 21
22.0088619564
  0
LINE
  5
35B
100
AcDbEntity
  8
RACCORDO
100
AcDbLine
 62
7
  6
CONTINUOUS
 10
-114.2222576531
 20
21.6597576531
 11
-114.3222576531
 21
21.6597576531
  0
LINE
  5
35C
100
AcDbEntity
  8
RACCORDO
100
AcDbLine
 62
7
  6
CONTINUOUS
 10
-114.2222576531
 20
21.310295071
 11
-114.3222576531
 21
21.3106533497
  0
LINE
  5
35D
100
AcDbEntity
  8
0
100
AcDbLine
 62
7
  6
CONTINUOUS
 10
-109.7722576531
 20
25.2597576531
 11
-109.7222576531
 21
25.2097576531
  0
LINE
  5
35E
100
AcDbEntity
  8
0
100
AcDbLine
 62
7
  6
CONTINUOUS
 10
-109.6730728462
 20
27.3105728462
 11
-109.1722576531
 21
26.8097576531
  0
LINE
  5
35F
100
AcDbEntity
  8
0
100
AcDbLine
 62
7
  6
CONTINUOUS
 10
-109.3617904618
 20
25.9513840698
 11
-109.7722576531
 21
25.9332495778
  0
LINE
  5
360
100
AcDbEntity
  8
RACCORDO
100
AcDbLine
 62
7
  6
CONTINUOUS
 10
-114.2222576531
 20
26.0069090713
 11
-114.3222576531
 21
26.0050100168
  0
LINE
  5
361
100
AcDbEntity
  8
RACCORDO
100
AcDbLine
 62
253
  6
CONTINUOUS
 10
-114.3222576531
 20
24.5555918831
 11
-114.2222576531
 21
24.5573373896
  0
LINE
  5
362
100
AcDbEntity
  8
RACCORDO
100
AcDbLine
 62
253
  6
CONTINUOUS
 10
-118.727493375
 20
25.718753474
 11
-118.3222576531
 21
25.7258268898
  0
LINE
  5
363
100
AcDbEntity
  8
RACCORDO
100
AcDbLine
 62
7
  6
CONTINUOUS
 10
-114.3222576531
 20
25.8553938868
 11
-114.2222576531
 21
25.8571393933
  0
LINE
  5
364
100
AcDbEntity
  8
0
100
AcDbLine
 62
7
  6
CONTINUOUS
 10
-109.7222576531
 20
25.2097576531
 11
-109.5222576531
 21
25.2097576531
  0
LINE
  5
365
100
AcDbEntity
  8
0
100
AcDbLine
 62
7
  6
CONTINUOUS
 10
-109.3722576531
 20
25.3597576531
 11
-109.7722576531
 21
25.3597576531
  0
LINE
  5
366
100
AcDbEntity
  8
RACCORDO
100
AcDbLine
 62
253
  6
CONTINUOUS
 10
-118.727493375
 20
25.7187534736
 11
-119.0222576531
 21
25.718753474
  0
LINE
  5
367
100
AcDbEntity
  8
RACCORDO
100
AcDbLine
 62
7
  6
CONTINUOUS
 10
-118.727493375
 20
26.4186468606
 11
-118.3222576531
 21
26.4257202765
  0
LINE
  5
368
100
AcDbEntity
  8
ASSI
100
AcDbLine
 62
253
  6
CONTINUOUS
 10
-109.1722576531
 20
27.0874033666
 11
-109.4500288428
 21
27.0875288428
  0
LINE
  5
369
100
AcDbEntity
  8
0
100
AcDbLine
 62
253
  6
CONTINUOUS
 10
-109.4500288428
 20
27.0875288428
 11
-109.7722576531
 21
27.0876744015
  0
LINE
  5
36A
100
AcDbEntity
  8
ASSI
100
AcDbLine
 62
7
  6
CONTINUOUS
 10
-109.1722576531
 20
27.3097576531
 11
-109.6730727434
 21
27.3106317412
  0
LINE
  5
36B
100
AcDbEntity
  8
0
100
AcDbLine
 62
7
  6
CONTINUOUS
 10
-109.6716191712
 20
27.3106292042
 11
-109.7722576531
 21
27.3108048517
  0
LINE
  5
36C
100
AcDbEntity
  8
0
100
AcDbLine
 62
7
  6
CONTINUOUS
 10
-109.1722576531
 20
26.5097576531
 11
-109.7722576531
 21
26.5132483509
  0
LINE
  5
36D
100
AcDbEntity
  8
SMUSSO
100
AcDbLine
 62
7
  6
CONTINUOUS
 10
-114.3222576531
 20
-47.0402423469
 11
-114.8222576531
 21
-47.5402423469
  0
LINE
  5
36E
100
AcDbEntity
  8
SMUSSO
100
AcDbLine
 62
7
  6
CONTINUOUS
 10
-114.3222576531
 20
47.3597576531
 11
-114.8222576531
 21
47.8597576531
  0
LINE
  5
36F
100
AcDbEntity
  8
DRAFT
100
AcDbLine
 62
7
  6
CONTINUOUS
 10
-109.7722576531
 20
-46.4902423469
 11
-110.7722576531
 21
-47.4902423469
  0
LINE
  5
370
100
AcDbEntity
  8
SMUSSO
100
AcDbLine
 62
7
  6
CONTINUOUS
 10
-109.772257653
 20
46.809757653
 11
-110.7722576531
 21
47.8097576531
  0
LINE
  5
371
100
AcDbEntity
  8
DRAFT
100
AcDbLine
 62
7
  6
CONTINUOUS
 10
-109.7722576531
 20
46.8097576531
 11
-110.7722576531
 21
47.8097576531
  0
LINE
  5
372
100
AcDbEntity
  8
DRAFT
100
AcDbLine
 62
7
  6
CONTINUOUS
 10
-113.7746648659
 20
47.7573504402
 11
-110.7722576531
 21
47.8097576531
  0
LINE
  5
373
100
AcDbEntity
  8
DRAFT
100
AcDbLine
 62
253
  6
CONTINUOUS
 10
-109.7722576531
 20
46.3097576531
 11
-114.2222576531
 21
46.3097576531
  0
LINE
  5
374
100
AcDbEntity
  8
SMUSSO
100
AcDbLine
 62
253
  6
CONTINUOUS
 10
-114.3222576531
 20
46.8597576531
 11
-116.3222576531
 21
46.8597576531
  0
LINE
  5
375
100
AcDbEntity
  8
RACCORDO
100
AcDbLine
 62
7
  6
CONTINUOUS
 10
-116.3222576531
 20
47.8597576531
 11
-114.8222576531
 21
47.8597576531
  0
LINE
  5
376
100
AcDbEntity
  8
SMUSSO
100
AcDbLine
 62
7
  6
CONTINUOUS
 10
-116.3222576531
 20
47.8597576531
 11
-114.8222576531
 21
47.8597576531
  0
ARC
  5
377
100
AcDbEntity
  8
SMUSSO
100
AcDbCircle
 62
7
  6
CONTINUOUS
 10
-81.1629464286
 20
46.8597576531
 40
1.0
100
AcDbArc
 50
90.0
 51
180.0
  0
ARC
  5
378
100
AcDbEntity
  8
SMUSSO
100
AcDbCircle
 62
7
  6
CONTINUOUS
 10
-81.1629464286
 20
-46.5402423469
 40
1.0
100
AcDbArc
 50
180.0
 51
270.0
  0
ARC
  5
379
100
AcDbEntity
  8
SMUSSO
100
AcDbCircle
 62
7
  6
CONTINUOUS
 10
79.8370535714
 20
-46.5402423469
 40
1.0
100
AcDbArc
 50
270.0
 51
360.0
  0
ARC
  5
37A
100
AcDbEntity
  8
SMUSSO
100
AcDbCircle
 62
7
  6
CONTINUOUS
 10
79.8370535714
 20
46.8597576531
 40
1.0
100
AcDbArc
 50
0.0
 51
90.0
  0
ARC
  5
37B
100
AcDbEntity
  8
RACCORDO
100
AcDbCircle
 62
7
  6
CONTINUOUS
 10
-118.7222576531
 20
26.1186925521
 40
0.3
100
AcDbArc
 50
91.0
 51
180.0
  0
ARC
  5
37C
100
AcDbEntity
  8
RACCORDO
100
AcDbCircle
 62
7
  6
CONTINUOUS
 10
-118.7222576531
 20
-25.7991772459
 40
0.3
100
AcDbArc
 50
180.0
 51
269.0
  0
ARC
  5
37D
100
AcDbEntity
  8
0
100
AcDbCircle
 62
7
  6
CONTINUOUS
 10
-109.3722576531
 20
-25.2402423469
 40
0.2
100
AcDbArc
 50
0.0
 51
90.0
  0
ARC
  5
37E
100
AcDbEntity
  8
0
100
AcDbCircle
 62
7
  6
CONTINUOUS
 10
-109.3722576531
 20
25.5597576531
 40
0.2
100
AcDbArc
 50
270.0
 51
360.0
  0
ELLIPSE
  5
37F
100
AcDbEntity
  8
RACCORDO
100
AcDbEllipse
 62
7
  6
CONTINUOUS
 10
55.4291530938
 20
22.4518571754
 30
0.0
 11
0.2121966568
 21
0.2121966568
 31
0.0
 40
0.9996954599
 41
-0.7852458701
 42
0.7852458701
  0
ELLIPSE
  5
380
100
AcDbEntity
  8
RACCORDO
100
AcDbEllipse
 62
7
  6
CONTINUOUS
 10
55.4291530938
 20
-22.1323418693
 30
0.0
 11
0.2121966568
 21
-0.2121966568
 31
0.0
 40
0.9996954599
 41
-0.7852458701
 42
0.7852458701
  0
ELLIPSE
  5
381
100
AcDbEntity
  8
RACCORDO
100
AcDbEllipse
 62
7
  6
CONTINUOUS
 10
-56.7550459509
 20
22.4518571754
 30
0.0
 11
0.2121966568
 21
-0.2121966568
 31
0.0
 40
0.9996954599
 41
2.3563467834
 42
3.9268385237
  0
ELLIPSE
  5
382
100
AcDbEntity
  8
RACCORDO
100
AcDbEllipse
 62
7
  6
CONTINUOUS
 10
-56.7550459509
 20
-22.1323418693
 30
0.0
 11
-0.2121966568
 21
-0.2121966568
 31
0.0
 40
0.9996954599
 41
-0.7852458701
 42
0.7852458701
  0
ELLIPSE
  5
383
100
AcDbEntity
  8
RACCORDO
100
AcDbEllipse
 62
7
  6
CONTINUOUS
 10
58.3029095652
 20
25.7256136468
 30
0.0
 11
0.4951255324
 21
0.4951255324
 31
0.0
 40
0.9996954599
 41
-0.7852458701
 42
0.7852458701
  0
ELLIPSE
  5
384
100
AcDbEntity
  8
RACCORDO
100
AcDbEllipse
 62
7
  6
CONTINUOUS
 10
58.3029095652
 20
-25.4060983407
 30
0.0
 11
0.4951255324
 21
-0.4951255324
 31
0.0
 40
0.9996954599
 41
-0.7852458701
 42
0.7852458701
  0
ELLIPSE
  5
385
100
AcDbEntity
  8
RACCORDO
100
AcDbEllipse
 62
7
  6
CONTINUOUS
 10
-59.6288024223
 20
-25.4060983407
 30
0.0
 11
0.4951255324
 21
0.4951255324
 31
0.0
 40
0.9996954599
 41
2.3563467834
 42
3.9268385237
  0
ELLIPSE
  5
386
100
AcDbEntity
  8
RACCORDO
100
AcDbEllipse
 62
7
  6
CONTINUOUS
 10
-59.6288024223
 20
25.7256136468
 30
0.0
 11
0.4951255324
 21
-0.4951255324
 31
0.0
 40
0.9996954599
 41
2.3563467834
 42
3.9268385237
  0
ELLIPSE
  5
387
100
AcDbEntity
  8
SMUSSO
100
AcDbEllipse
 62
7
  6
CONTINUOUS
 10
-116.6555909864
 20
46.8597576531
 30
0.0
 11
0.0
 21
1.0
 31
0.0
 40
0.3333333333
 41
-1.5707963268
 42
-0.7853981634
  0
ELLIPSE
  5
388
100
AcDbEntity
  8
SMUSSO
100
AcDbEllipse
 62
7
  6
CONTINUOUS
 10
-116.6555909864
 20
-46.5402423469
 30
0.0
 11
-0.0
 21
1.0
 31
0.0
 40
0.3333333333
 41
-2.3561944902
 42
-1.5707963268
  0
ELLIPSE
  5
389
100
AcDbEntity
  8
0
100
AcDbEllipse
 62
7
  6
CONTINUOUS
 10
-109.3722576531
 20
26.1511960972
 30
0.0
 11
-0.1417119467
 21
0.1422961243
 31
0.0
 40
0.9918061237
 41
-3.8766878413
 42
-2.358251392
  0
ELLIPSE
  5
38A
100
AcDbEntity
  8
0
100
AcDbEllipse
 62
7
  6
CONTINUOUS
 10
-109.3722576531
 20
-25.831680791
 30
0.0
 11
0.1417119467
 21
0.1422961243
 31
0.0
 40
0.9918061237
 41
-0.7833412616
 42
0.7350951877
  0
ENDSEC
  0
SECTION
  2
OBJECTS
  0
DICTIONARY
  5
C
100
AcDbDictionary
280
0
281
1
  3
ACAD_GROUP
350
D
  3
ACAD_MLINESTYLE
350
17
  3
ACAD_LAYOUT
350
1A
  3
ACAD_PLOTSETTINGS
350
19
  3
ACAD_PLOTSTYLENAME
350
E
  0
DICTIONARY
  5
D
102
{ACAD_REACTORS
330
C
102
}
100
AcDbDictionary
280
0
281
1
  0
ACDBDICTIONARYWDFLT
  5
E
102
{ACAD_REACTORS
330
C
102
}
100
AcDbDictionary
281
1
  3
Normal
350
F
100
AcDbDictionaryWithDefault
340
F
  0
DICTIONARY
  5
17
102
{ACAD_REACTORS
330
C
102
}
100
AcDbDictionary
280
0
281
1
  3
Standard
350
18
  0
DICTIONARY
  5
19
102
{ACAD_REACTORS
330
C
102
}
100
AcDbDictionary
281
1
  0
DICTIONARY
  5
1A
102
{ACAD_REACTORS
330
C
102
}
100
AcDbDictionary
281
1
  3
Model
350
38B
  3
Layout1
350
38C
  0
ACDBPLACEHOLDER
  5
F
102
{ACAD_REACTORS
330
E
102
}
  0
MLINESTYLE
  5
18
102
{ACAD_REACTORS
330
17
102
}
100
AcDbMlineStyle
  2
STANDARD
 70
0
  3

 62
256
 51
90.0
 52
90.0
 71
2
 49
0.5
 62
256
  6
BYLAYER
 49
-0.5
 62
256
  6
BYLAYER
  0
LAYOUT
  5
38B
102
{ACAD_REACTORS
330
1A
102
}
100
AcDbPlotSettings
  1

  2
none_device
  4
ISO_A4_(297.00_x_210.00_MM)
  6

 40
0.0
 41
0.0
 42
0.0
 43
0.0
 44
297.0
 45
210.0
 46
0.0
 47
0.0
 48
0.0
 49
0.0
140
0.0
141
0.0
142
1.0
143
1.0
 70
1024
 72
1
 73
0
 74
0
  7

 75
0
147
1.0
148
0.0
149
0.0
100
AcDbLayout
  1
Model
 70
0
 71
0
 10
0.0
 20
0.0
 11
297.0
 21
210.0
 12
0.0
 22
0.0
 32
0.0
 14
0.0
 24
0.0
 34
0.0
 15
0.0
 25
0.0
 35
0.0
146
0.0
 13
0.0
 23
0.0
 33
0.0
 16
1.0
 26
0.0
 36
0.0
 17
0.0
 27
1.0
 37
0.0
 76
0
330
215
345
0
346
0
  0
LAYOUT
  5
38C
102
{ACAD_REACTORS
330
1A
102
}
100
AcDbPlotSettings
  1

  2
none_device
  4
ISO_A4_(297.00_x_210.00_MM)
  6

 40
0.0
 41
0.0
 42
0.0
 43
0.0
 44
297.0
 45
210.0
 46
0.0
 47
0.0
 48
0.0
 49
0.0
140
0.0
141
0.0
142
1.0
143
1.0
 70
0
 72
1
 73
0
 74
0
  7

 75
0
147
1.0
148
0.0
149
0.0
100
AcDbLayout
  1
Layout1
 70
0
 71
1
 10
0.0
 20
0.0
 11
297.0
 21
210.0
 12
0.0
 22
0.0
 32
0.0
 14
0.0
 24
0.0
 34
0.0
 15
0.0
 25
0.0
 35
0.0
146
0.0
 13
0.0
 23
0.0
 33
0.0
 16
1.0
 26
0.0
 36
0.0
 17
0.0
 27
1.0
 37
0.0
 76
0
330
216
345
0
346
0
  0
ENDSEC
  0
EOF
