  0
SECTION
  2
HEADER
  9
$ACADVER
  1
AC1015
  9
$DWGCODEPAGE
  3
ANSI_1252
  9
$EXTMAX
 10
297.0
 20
210.0
 30
0.0
  9
$EXTMIN
 10
0.0
 20
0.0
 30
0.0
  9
$LIMMIN
 10
0.0
 20
0.0
  9
$LIMMAX
 10
297.0
 20
210.0
  9
$VIEWCTR
 10
148.5
 20
105.0
  9
$VIEWSIZE
 40
210.0
  9
$CLAYER
  8
0
  9
$LTSCALE
 40
16.335
  9
$CELTYPE
  6
BYLAYER
  9
$DIMSCALE
 40
1.0
  9
$DIMASZ
 40
3.0
  9
$DIMEXO
 40
1.85625
  9
$DIMDLI
 40
11.286
  9
$DIMEXE
 40
5.346
  9
$DIMCEN
 40
2.673
  9
$DIMLFAC
 40
1.0
  9
$DIMBLK
  1
_FILLED
  9
$DIMTXT
 40
3.0
  9
$DIMTOL
 70
1
  9
$DIMLIM
 70
0
  9
$DIMTFAC
 40
1.0
  9
$DIMTP
 40
0.01
  9
$DIMTM
 40
0.01
  9
$PDMODE
 70
3
  9
$PDSIZE
 40
3.0
  9
$HANDSEED
  5
392
  9
$TILEMODE
 70
1
  9
$MEASUREMENT
 70
1
  9
$INSUNITS
 70
4
  0
ENDSEC
  0
SECTION
  2
CLASSES
  0
CLASS
  1
ACDBDICTIONARYWDFLT
  2
AcDbDictionaryWithDefault
  3
AutoCAD 2000
 90
0
280
0
281
0
  0
CLASS
  1
ACDBPLACEHOLDER
  2
AcDbPlaceHolder
  3
AutoCAD 2000
 90
0
280
0
281
0
  0
CLASS
  1
LAYOUT
  2
AcDbLayout
  3
AutoCAD 2000
 90
0
280
0
281
0
  0
ENDSEC
  0
SECTION
  2
TABLES
  0
TABLE
  2
VPORT
  5
8
100
AcDbSymbolTable
 70
2
  0
VPORT
  5
1F4
100
AcDbSymbolTableRecord
100
AcDbViewportTableRecord
  2
*ACTIVE
 70
0
 10
0.0
 20
0.0
 11
1.0
 21
1.0
 12
148.5
 22
105.0
 13
0.0
 23
0.0
 14
1.0
 24
1.0
 15
0.0
 25
0.0
 16
0.0
 26
0.0
 36
1.0
 17
0.0
 27
0.0
 37
0.0
 40
210.0
 41
1.4142857143
 42
50.0
 43
0.0
 44
0.0
 50
0.0
 51
0.0
 71
0
 72
100
 73
1
 74
1
 75
0
 76
0
 77
0
 78
0
  0
ENDTAB
  0
TABLE
  2
LTYPE
  5
5
100
AcDbSymbolTable
 70
6
  0
LTYPE
  5
14
100
AcDbSymbolTableRecord
100
AcDbLinetypeTableRecord
  2
BYBLOCK
 70
0
  3

 72
65
 73
0
 40
0.0
  0
LTYPE
  5
15
100
AcDbSymbolTableRecord
100
AcDbLinetypeTableRecord
  2
BYLAYER
 70
0
  3

 72
65
 73
0
 40
0.0
  0
LTYPE
  5
16
100
AcDbSymbolTableRecord
100
AcDbLinetypeTableRecord
  2
CONTINUOUS
 70
64
  3
Solid line
 72
65
 73
0
 40
0.0
  0
LTYPE
  5
1F5
100
AcDbSymbolTableRecord
100
AcDbLinetypeTableRecord
  2
CENTER
 70
64
  3
____ _ ____ _ ____ _ ____ _ ____ _ ____ _ ____
 72
65
 73
4
 40
0.6
 49
0.375
 74
0
 49
-0.075
 74
0
 49
0.075
 74
0
 49
-0.075
 74
0
  0
LTYPE
  5
1F6
100
AcDbSymbolTableRecord
100
AcDbLinetypeTableRecord
  2
HIDDEN
 70
64
  3
- - - - - - - - - - - - - - - - - - - -
 72
65
 73
2
 40
0.2
 49
0.1
 74
0
 49
-0.1
 74
0
  0
LTYPE
  5
1F7
100
AcDbSymbolTableRecord
100
AcDbLinetypeTableRecord
  2
PHANTOM
 70
64
  3
_____ _ _ _____ _ _ _____ _ _ _____
 72
65
 73
6
 40
0.8
 49
0.45
 74
0
 49
-0.05
 74
0
 49
0.1
 74
0
 49
-0.05
 74
0
 49
0.1
 74
0
 49
-0.05
 74
0
  0
LTYPE
  5
1F8
100
AcDbSymbolTableRecord
100
AcDbLinetypeTableRecord
  2
DOT
 70
64
  3
. . . . . . . . . . . . . . . . . . . .
 72
65
 73
2
 40
0.2
 49
0.1
 74
0
 49
-0.1
 74
0
  0
LTYPE
  5
1F9
100
AcDbSymbolTableRecord
100
AcDbLinetypeTableRecord
  2
DASHED
 70
64
  3
- - - - - - - - - - - - - - - - - - - -
 72
65
 73
2
 40
0.2
 49
0.1
 74
0
 49
-0.1
 74
0
  0
ENDTAB
  0
TABLE
  2
LAYER
  5
2
100
AcDbSymbolTable
 70
36
  0
LAYER
  5
10
100
AcDbSymbolTableRecord
100
AcDbLayerTableRecord
  2
0
 70
0
 62
7
  6
CONTINUOUS
370
-3
390
F
  0
LAYER
  5
1FA
100
AcDbSymbolTableRecord
100
AcDbLayerTableRecord
  2
DEFAULT_1
 70
0
 62
7
  6
CENTER
370
-3
390
F
  0
LAYER
  5
1FB
100
AcDbSymbolTableRecord
100
AcDbLayerTableRecord
  2
DEFAULT_2
 70
0
 62
7
  6
HIDDEN
370
-3
390
F
  0
LAYER
  5
1FC
100
AcDbSymbolTableRecord
100
AcDbLayerTableRecord
  2
DEFAULT_3
 70
0
 62
7
  6
PHANTOM
370
-3
390
F
  0
LAYER
  5
1FD
100
AcDbSymbolTableRecord
100
AcDbLayerTableRecord
  2
ASSI
 70
0
 62
7
  6
CONTINUOUS
370
-3
390
F
  0
LAYER
  5
1FE
100
AcDbSymbolTableRecord
100
AcDbLayerTableRecord
  2
COORDINATE
 70
0
 62
7
  6
CONTINUOUS
370
-3
390
F
  0
LAYER
  5
1FF
100
AcDbSymbolTableRecord
100
AcDbLayerTableRecord
  2
COORD_ORIGINE
 70
0
 62
7
  6
CONTINUOUS
370
-3
390
F
  0
LAYER
  5
200
100
AcDbSymbolTableRecord
100
AcDbLayerTableRecord
  2
COPY_PUBLISH
 70
0
 62
7
  6
CONTINUOUS
370
-3
390
F
  0
LAYER
  5
201
100
AcDbSymbolTableRecord
100
AcDbLayerTableRecord
  2
COSMETIC
 70
0
 62
7
  6
CONTINUOUS
370
-3
390
F
  0
LAYER
  5
202
100
AcDbSymbolTableRecord
100
AcDbLayerTableRecord
  2
CURVE
 70
0
 62
7
  6
CONTINUOUS
370
-3
390
F
  0
LAYER
  5
203
100
AcDbSymbolTableRecord
100
AcDbLayerTableRecord
  2
DRAFT
 70
0
 62
7
  6
CONTINUOUS
370
-3
390
F
  0
LAYER
  5
204
100
AcDbSymbolTableRecord
100
AcDbLayerTableRecord
  2
IMPORT_IGES
 70
0
 62
7
  6
CONTINUOUS
370
-3
390
F
  0
LAYER
  5
205
100
AcDbSymbolTableRecord
100
AcDbLayerTableRecord
  2
INTFCLR_2
 70
0
 62
7
  6
CONTINUOUS
370
-3
390
F
  0
LAYER
  5
206
100
AcDbSymbolTableRecord
100
AcDbLayerTableRecord
  2
PIANI
 70
0
 62
7
  6
CONTINUOUS
370
-3
390
F
  0
LAYER
  5
207
100
AcDbSymbolTableRecord
100
AcDbLayerTableRecord
  2
PIANI_ORIGINE
 70
0
 62
7
  6
CONTINUOUS
370
-3
390
F
  0
LAYER
  5
208
100
AcDbSymbolTableRecord
100
AcDbLayerTableRecord
  2
PIANI_RIFERIMENTO
 70
0
 62
7
  6
CONTINUOUS
370
-3
390
F
  0
LAYER
  5
209
100
AcDbSymbolTableRecord
100
AcDbLayerTableRecord
  2
PUNTI
 70
0
 62
7
  6
CONTINUOUS
370
-3
390
F
  0
LAYER
  5
20A
100
AcDbSymbolTableRecord
100
AcDbLayerTableRecord
  2
RACCORDO
 70
0
 62
7
  6
CONTINUOUS
370
-3
390
F
  0
LAYER
  5
20B
100
AcDbSymbolTableRecord
100
AcDbLayerTableRecord
  2
SMUSSO
 70
0
 62
7
  6
CONTINUOUS
370
-3
390
F
  0
LAYER
  5
20C
100
AcDbSymbolTableRecord
100
AcDbLayerTableRecord
  2
SNAPLINE
 70
0
 62
7
  6
CONTINUOUS
370
-3
390
F
  0
LAYER
  5
20D
100
AcDbSymbolTableRecord
100
AcDbLayerTableRecord
  2
SUPERFICI
 70
0
 62
7
  6
CONTINUOUS
370
-3
390
F
  0
LAYER
  5
20E
100
AcDbSymbolTableRecord
100
AcDbLayerTableRecord
  2
TRASH
 70
0
 62
7
  6
CONTINUOUS
370
-3
390
F
  0
LAYER
  5
20F
100
AcDbSymbolTableRecord
100
AcDbLayerTableRecord
  2
XSEC_DATUMS
 70
0
 62
7
  6
CONTINUOUS
370
-3
390
F
  0
ENDTAB
  0
TABLE
  2
STYLE
  5
3
100
AcDbSymbolTable
 70
1
  0
STYLE
  5
11
100
AcDbSymbolTableRecord
100
AcDbTextStyleTableRecord
  2
STANDARD
 70
0
 40
0.0
 41
0.8
 50
0.0
 71
0
 42
0.2
  3
txt
  4

  0
STYLE
  5
210
100
AcDbSymbolTableRecord
100
AcDbTextStyleTableRecord
  2
TEXTSTYLE_1
 70
0
 40
0.0
 41
0.8
 50
0.0
 71
0
 42
0.2
  3
gdt
  4

  0
ENDTAB
  0
TABLE
  2
VIEW
  5
6
100
AcDbSymbolTable
 70
0
  0
ENDTAB
  0
TABLE
  2
UCS
  5
7
100
AcDbSymbolTable
 70
0
  0
ENDTAB
  0
TABLE
  2
APPID
  5
9
100
AcDbSymbolTable
 70
1
  0
APPID
  5
211
100
AcDbSymbolTableRecord
100
AcDbRegAppTableRecord
  2
ACAD
 70
0
  0
ENDTAB
  0
TABLE
  2
BLOCK_RECORD
  5
1
100
AcDbSymbolTable
 70
0
  0
BLOCK_RECORD
  5
212
100
AcDbSymbolTableRecord
100
AcDbBlockTableRecord
  2
*Model_Space
  0
BLOCK_RECORD
  5
213
100
AcDbSymbolTableRecord
100
AcDbBlockTableRecord
  2
*Paper_Space
  0
BLOCK_RECORD
  5
214
100
AcDbSymbolTableRecord
100
AcDbBlockTableRecord
  2
_FILLED
  0
BLOCK_RECORD
  5
215
100
AcDbSymbolTableRecord
100
AcDbBlockTableRecord
  2
*D0
  0
BLOCK_RECORD
  5
216
100
AcDbSymbolTableRecord
100
AcDbBlockTableRecord
  2
*D1
  0
BLOCK_RECORD
  5
217
100
AcDbSymbolTableRecord
100
AcDbBlockTableRecord
  2
*D2
  0
BLOCK_RECORD
  5
218
100
AcDbSymbolTableRecord
100
AcDbBlockTableRecord
  2
*D3
  0
ENDTAB
  0
TABLE
  2
DIMSTYLE
  5
A
100
AcDbSymbolTable
 70
1
100
AcDbDimStyleTable
 71
0
  0
DIMSTYLE
105
219
100
AcDbSymbolTableRecord
100
AcDbDimStyleTableRecord
  2
STANDARD
 70
0
  3

  4

 40
1.0
 41
3.0
 42
0.0625
 43
0.38
 44
0.18
 45
0.0
 46
0.0
 47
0.01
 48
0.01
140
3.0
141
0.09
142
0.0
143
25.4
144
1.0
145
0.0
146
1.0
147
0.09
 71
1.0
 72
0.0
 73
0
 74
0
 75
0
 76
0
 77
1
 78
8
170
0
171
2
172
0
173
0
174
0
175
0
176
0
177
0
178
0
270
2
271
2
272
2
273
2
274
2
275
0
280
0
281
0
282
0
283
1
284
8
285
0
286
0
287
3
288
0
340
11
341
214
342
214
343
214
344
214
  0
DIMSTYLE
105
21A
100
AcDbSymbolTableRecord
100
AcDbDimStyleTableRecord
  2
DIMSTYLE_1
 70
0
  3

  4

 40
1.0
 41
3.0
 42
0.0625
 43
0.38
 44
0.18
 45
0.0
 46
0.0
 47
0.0
 48
0.0
140
3.0
141
0.09
142
0.0
143
25.4
144
1.0
145
0.0
146
1.0
147
0.09
 71
0.0
 72
0.0
 73
0
 74
0
 75
0
 76
0
 77
1
 78
8
170
0
171
2
172
0
173
0
174
0
175
0
176
0
177
0
178
0
270
2
271
2
272
2
273
2
274
2
275
0
280
0
281
0
282
0
283
1
284
8
285
0
286
0
287
3
288
0
340
11
341
214
342
214
343
214
344
214
  0
ENDTAB
  0
ENDSEC
  0
SECTION
  2
BLOCKS
  0
BLOCK
  5
20
100
AcDbEntity
  8
0
100
AcDbBlockBegin
  2
*Model_Space
 70
0
 10
0.0
 20
0.0
 30
0.0
  3
*Model_Space
  1

  0
ENDBLK
  5
21
100
AcDbEntity
  8
0
100
AcDbBlockEnd
  0
BLOCK
  5
1C
100
AcDbEntity
  8
0
100
AcDbBlockBegin
  2
*Paper_Space
 70
0
 10
0.0
 20
0.0
 30
0.0
  3
*Paper_Space
  1

  0
ENDBLK
  5
1D
100
AcDbEntity
  8
0
100
AcDbBlockEnd
  0
BLOCK
  5
21B
100
AcDbEntity
  8
0
100
AcDbBlockBegin
  2
_FILLED
 70
64
 10
0.0
 20
0.0
  3
_FILLED
  1

  0
SOLID
  5
21C
100
AcDbEntity
  8
0
  6
BYBLOCK
 62
0
100
AcDbTrace
 10
0.0
 20
0.0
 11
-1.0
 21
0.3166666667
 12
-1.0
 22
-0.3166666667
 13
-1.0
 23
-0.3166666667
  0
ENDBLK
  5
21D
100
AcDbEntity
  8
0
  6
BYBLOCK
 62
0
100
AcDbBlockEnd
  0
BLOCK
  5
21E
100
AcDbEntity
  8
0
100
AcDbBlockBegin
 62
7
  6
CONTINUOUS
  2
*D0
 70
65
 10
0.0
 20
0.0
  3
*D0
  1

  0
MTEXT
  5
21F
100
AcDbEntity
  8
0
100
AcDbMText
 62
7
  6
CONTINUOUS
  7
STANDARD
 71
2
 72
1
 10
0.0
 20
66.7499999997
 30
0.0
 11
1.0
 21
0.0
 31
0.0
 44
0.9
  1
118
 40
3.0
 41
5.7857142857
  0
LINE
  5
220
100
AcDbEntity
  8
0
100
AcDbLine
 62
7
  6
CONTINUOUS
 10
-59.0
 20
52.5
 11
-59.0
 21
64.4999999997
  0
LINE
  5
221
100
AcDbEntity
  8
0
100
AcDbLine
 62
7
  6
CONTINUOUS
 10
59.0
 20
52.5
 11
59.0
 21
64.4999999997
  0
LINE
  5
222
100
AcDbEntity
  8
0
100
AcDbLine
 62
7
  6
CONTINUOUS
 10
-59.0
 20
62.9999999997
 11
0.0
 21
62.9999999997
  0
LINE
  5
223
100
AcDbEntity
  8
0
100
AcDbLine
 62
7
  6
CONTINUOUS
 10
59.0
 20
62.9999999997
 11
0.0
 21
62.9999999997
  0
INSERT
  5
224
100
AcDbEntity
  8
0
100
AcDbBlockReference
 62
7
  6
CONTINUOUS
  2
_FILLED
 10
-59.0
 20
62.9999999997
 41
3.0
 42
3.0
 43
3.0
 50
180.0
  0
INSERT
  5
225
100
AcDbEntity
  8
0
100
AcDbBlockReference
 62
7
  6
CONTINUOUS
  2
_FILLED
 10
59.0
 20
62.9999999997
 41
3.0
 42
3.0
 43
3.0
 50
0.0
  0
ENDBLK
  5
226
100
AcDbEntity
  8
0
  6
BYBLOCK
 62
0
100
AcDbBlockEnd
  0
BLOCK
  5
227
100
AcDbEntity
  8
0
100
AcDbBlockBegin
 62
7
  6
CONTINUOUS
  2
*D1
 70
65
 10
0.0
 20
0.0
  3
*D1
  1

  0
MTEXT
  5
228
100
AcDbEntity
  8
0
100
AcDbMText
 62
7
  6
CONTINUOUS
  7
STANDARD
 71
2
 72
1
 10
65.2499999997
 20
0.0
 30
0.0
 11
0.0
 21
1.0
 31
0.0
 44
0.9
  1
106
 40
3.0
 41
6.4285714286
  0
LINE
  5
229
100
AcDbEntity
  8
0
100
AcDbLine
 62
7
  6
CONTINUOUS
 10
58.5
 20
53.0
 11
70.4999999997
 21
53.0
  0
LINE
  5
22A
100
AcDbEntity
  8
0
100
AcDbLine
 62
7
  6
CONTINUOUS
 10
58.5
 20
-53.0
 11
70.4999999997
 21
-53.0
  0
LINE
  5
22B
100
AcDbEntity
  8
0
100
AcDbLine
 62
7
  6
CONTINUOUS
 10
68.9999999997
 20
53.0
 11
68.9999999997
 21
0.0
  0
LINE
  5
22C
100
AcDbEntity
  8
0
100
AcDbLine
 62
7
  6
CONTINUOUS
 10
68.9999999997
 20
-53.0
 11
68.9999999997
 21
0.0
  0
INSERT
  5
22D
100
AcDbEntity
  8
0
100
AcDbBlockReference
 62
7
  6
CONTINUOUS
  2
_FILLED
 10
68.9999999997
 20
53.0
 41
3.0
 42
3.0
 43
3.0
 50
90.0
  0
INSERT
  5
22E
100
AcDbEntity
  8
0
100
AcDbBlockReference
 62
7
  6
CONTINUOUS
  2
_FILLED
 10
68.9999999997
 20
-53.0
 41
3.0
 42
3.0
 43
3.0
 50
270.0
  0
ENDBLK
  5
22F
100
AcDbEntity
  8
0
  6
BYBLOCK
 62
0
100
AcDbBlockEnd
  0
BLOCK
  5
230
100
AcDbEntity
  8
0
100
AcDbBlockBegin
 62
7
  6
CONTINUOUS
  2
*D2
 70
65
 10
0.0
 20
0.0
  3
*D2
  1

  0
MTEXT
  5
231
100
AcDbEntity
  8
0
100
AcDbMText
 62
7
  6
CONTINUOUS
  7
STANDARD
 71
3
 72
1
 10
-89.5116744221
 20
66.7499999997
 30
0.0
 11
1.0
 21
0.0
 31
0.0
 44
0.9
  1
8,2
 40
3.0
 41
6.4285714286
  0
LINE
  5
232
100
AcDbEntity
  8
0
100
AcDbLine
 62
7
  6
CONTINUOUS
 10
-88.5371726883
 20
26.0589958209
 11
-88.5371726883
 21
64.4999999997
  0
LINE
  5
233
100
AcDbEntity
  8
0
100
AcDbLine
 62
7
  6
CONTINUOUS
 10
-80.3371726883
 20
51.941405747
 11
-80.3371726883
 21
64.4999999997
  0
LINE
  5
234
100
AcDbEntity
  8
0
100
AcDbLine
 62
7
  6
CONTINUOUS
 10
-88.5371726883
 20
62.9999999997
 11
-84.4371726883
 21
62.9999999997
  0
LINE
  5
235
100
AcDbEntity
  8
0
100
AcDbLine
 62
7
  6
CONTINUOUS
 10
-84.4371726883
 20
62.9999999997
 11
-95.9402458507
 21
62.9999999997
  0
LINE
  5
236
100
AcDbEntity
  8
0
100
AcDbLine
 62
7
  6
CONTINUOUS
 10
-80.3371726883
 20
62.9999999997
 11
-84.4371726883
 21
62.9999999997
  0
INSERT
  5
237
100
AcDbEntity
  8
0
100
AcDbBlockReference
 62
7
  6
CONTINUOUS
  2
_FILLED
 10
-88.5371726883
 20
62.9999999997
 41
3.0
 42
3.0
 43
3.0
 50
180.0
  0
INSERT
  5
238
100
AcDbEntity
  8
0
100
AcDbBlockReference
 62
7
  6
CONTINUOUS
  2
_FILLED
 10
-80.3371726883
 20
62.9999999997
 41
3.0
 42
3.0
 43
3.0
  0
ENDBLK
  5
239
100
AcDbEntity
  8
0
  6
BYBLOCK
 62
0
100
AcDbBlockEnd
  0
BLOCK
  5
23A
100
AcDbEntity
  8
0
100
AcDbBlockBegin
 62
7
  6
CONTINUOUS
  2
*D3
 70
65
 10
0.0
 20
0.0
  3
*D3
  1

  0
MTEXT
  5
23B
100
AcDbEntity
  8
0
100
AcDbMText
 62
7
  6
CONTINUOUS
  7
STANDARD
 71
3
 72
1
 10
-89.6984025164
 20
74.7499999997
 30
0.0
 11
1.0
 21
0.0
 31
0.0
 44
0.9
  1
9,9
 40
3.0
 41
6.4285714286
  0
LINE
  5
23C
100
AcDbEntity
  8
0
100
AcDbLine
 62
7
  6
CONTINUOUS
 10
-88.5371726883
 20
26.0589958209
 11
-88.5371726883
 21
72.4999999997
  0
LINE
  5
23D
100
AcDbEntity
  8
0
100
AcDbLine
 62
7
  6
CONTINUOUS
 10
-78.6371726883
 20
26.4897929133
 11
-78.6371726883
 21
72.4999999997
  0
LINE
  5
23E
100
AcDbEntity
  8
0
100
AcDbLine
 62
7
  6
CONTINUOUS
 10
-88.5371726883
 20
70.9999999997
 11
-83.5871726883
 21
70.9999999997
  0
LINE
  5
23F
100
AcDbEntity
  8
0
100
AcDbLine
 62
7
  6
CONTINUOUS
 10
-83.5871726883
 20
70.9999999997
 11
-96.126973945
 21
70.9999999997
  0
LINE
  5
240
100
AcDbEntity
  8
0
100
AcDbLine
 62
7
  6
CONTINUOUS
 10
-78.6371726883
 20
70.9999999997
 11
-83.5871726883
 21
70.9999999997
  0
INSERT
  5
241
100
AcDbEntity
  8
0
100
AcDbBlockReference
 62
7
  6
CONTINUOUS
  2
_FILLED
 10
-88.5371726883
 20
70.9999999997
 41
3.0
 42
3.0
 43
3.0
 50
180.0
  0
INSERT
  5
242
100
AcDbEntity
  8
0
100
AcDbBlockReference
 62
7
  6
CONTINUOUS
  2
_FILLED
 10
-78.6371726883
 20
70.9999999997
 41
3.0
 42
3.0
 43
3.0
  0
ENDBLK
  5
243
100
AcDbEntity
  8
0
  6
BYBLOCK
 62
0
100
AcDbBlockEnd
  0
ENDSEC
  0
SECTION
  2
ENTITIES
  0
DIMENSION
  5
244
100
AcDbEntity
  8
0
100
AcDbDimension
 62
7
  6
CONTINUOUS
  2
*D0
 10
59.0
 20
62.9999999997
 11
-2.8928571429
 21
65.2499999997
 70
160
 71
2
 42
118.0
  3
DIMSTYLE_1
100
AcDbAlignedDimension
 13
-59.0
 23
52.5
 14
59.0
 24
52.5
100
AcDbRotatedDimension
  0
DIMENSION
  5
245
100
AcDbEntity
  8
0
100
AcDbDimension
 62
7
  6
CONTINUOUS
  2
*D1
 10
68.9999999997
 20
-53.0
 11
68.190236623
 21
-2.8735607044
 70
160
 71
2
 42
106.0
  3
DIMSTYLE_1
100
AcDbAlignedDimension
 13
58.5
 23
53.0
 14
58.5
 24
-53.0
 50
270.0
100
AcDbRotatedDimension
  0
DIMENSION
  5
246
100
AcDbEntity
  8
0
100
AcDbDimension
 62
7
  6
CONTINUOUS
  2
*D2
 10
-80.3371726883
 20
62.9999999997
 11
-99.154531565
 21
65.2499999997
 70
160
 71
3
 42
8.2
  3
DIMSTYLE_1
100
AcDbAlignedDimension
 13
-88.5371726883
 23
26.0589958209
 14
-80.3371726883
 24
51.941405747
100
AcDbRotatedDimension
  0
DIMENSION
  5
247
100
AcDbEntity
  8
0
100
AcDbDimension
 62
7
  6
CONTINUOUS
  2
*D3
 10
-78.6371726883
 20
70.9999999997
 11
-99.3412596593
 21
73.2499999997
 70
160
 71
3
 42
9.9
  3
DIMSTYLE_1
100
AcDbAlignedDimension
 13
-88.5371726883
 23
26.0589958209
 14
-78.6371726883
 24
26.4897929133
100
AcDbRotatedDimension
  0
LINE
  5
248
100
AcDbEntity
  8
SMUSSO
100
AcDbLine
 62
7
  6
CONTINUOUS
 10
-59.0
 20
52.0
 11
-59.0
 21
-52.0
  0
LINE
  5
249
100
AcDbEntity
  8
SMUSSO
100
AcDbLine
 62
7
  6
CONTINUOUS
 10
-58.0
 20
52.0
 11
-58.0
 21
-52.0
  0
LINE
  5
24A
100
AcDbEntity
  8
SMUSSO
100
AcDbLine
 62
253
  6
CONTINUOUS
 10
-58.0
 20
-52.0
 11
-58.0
 21
-53.0
  0
LINE
  5
24B
100
AcDbEntity
  8
SMUSSO
100
AcDbLine
 62
253
  6
CONTINUOUS
 10
-58.0
 20
52.0
 11
-58.0
 21
53.0
  0
LINE
  5
24C
100
AcDbEntity
  8
SMUSSO
100
AcDbLine
 62
7
  6
CONTINUOUS
 10
-58.0
 20
-53.0
 11
58.0
 21
-53.0
  0
LINE
  5
24D
100
AcDbEntity
  8
SMUSSO
100
AcDbLine
 62
7
  6
CONTINUOUS
 10
-58.0
 20
-52.0
 11
58.0
 21
-52.0
  0
LINE
  5
24E
100
AcDbEntity
  8
SMUSSO
100
AcDbLine
 62
253
  6
CONTINUOUS
 10
58.0
 20
-52.0
 11
59.0
 21
-52.0
  0
LINE
  5
24F
100
AcDbEntity
  8
SMUSSO
100
AcDbLine
 62
253
  6
CONTINUOUS
 10
-58.0
 20
-52.0
 11
-59.0
 21
-52.0
  0
LINE
  5
250
100
AcDbEntity
  8
RACCORDO
100
AcDbLine
 62
7
  6
CONTINUOUS
 10
-37.1659626234
 20
25.5660692368
 11
-37.1659626234
 21
-25.5660692368
  0
LINE
  5
251
100
AcDbEntity
  8
RACCORDO
100
AcDbLine
 62
253
  6
CONTINUOUS
 10
-37.1588892076
 20
25.5589958209
 11
-37.1588892076
 21
-25.5589958209
  0
LINE
  5
252
100
AcDbEntity
  8
RACCORDO
100
AcDbLine
 62
253
  6
CONTINUOUS
 10
-36.858934899
 20
25.5589958209
 11
-36.858934899
 21
-25.5622249555
  0
LINE
  5
253
100
AcDbEntity
  8
RACCORDO
100
AcDbLine
 62
253
  6
CONTINUOUS
 10
-36.458995819
 20
26.2588892076
 11
-36.4589958209
 21
25.958934899
  0
LINE
  5
254
100
AcDbEntity
  8
RACCORDO
100
AcDbLine
 62
253
  6
CONTINUOUS
 10
-36.4589958196
 20
-26.2588892076
 11
-36.4589958209
 21
-25.958934899
  0
LINE
  5
255
100
AcDbEntity
  8
RACCORDO
100
AcDbLine
 62
253
  6
CONTINUOUS
 10
-34.5220165488
 20
-22.9738147507
 11
-34.5220165488
 21
22.9738147507
  0
LINE
  5
256
100
AcDbEntity
  8
RACCORDO
100
AcDbLine
 62
253
  6
CONTINUOUS
 10
-34.2265742229
 20
-22.9738150771
 11
-34.2265742229
 21
22.9738150026
  0
LINE
  5
257
100
AcDbEntity
  8
RACCORDO
100
AcDbLine
 62
253
  6
CONTINUOUS
 10
-33.9489450092
 20
23.5743997534
 11
-33.9489450092
 21
23.2924919672
  0
LINE
  5
258
100
AcDbEntity
  8
RACCORDO
100
AcDbLine
 62
253
  6
CONTINUOUS
 10
-33.9489450092
 20
-23.5743997534
 11
-33.9489450093
 21
-23.2924919672
  0
LINE
  5
259
100
AcDbEntity
  8
RACCORDO
100
AcDbLine
 62
253
  6
CONTINUOUS
 10
-33.906833204
 20
22.2993589244
 11
-33.906833204
 21
-22.2993589244
  0
LINE
  5
25A
100
AcDbEntity
  8
RACCORDO
100
AcDbLine
 62
253
  6
CONTINUOUS
 10
-33.8993132329
 20
22.2993589244
 11
-33.8993132329
 21
-22.2993589244
  0
LINE
  5
25B
100
AcDbEntity
  8
RACCORDO
100
AcDbLine
 62
7
  6
CONTINUOUS
 10
-33.8921452208
 20
-22.2921909122
 11
-33.8921452208
 21
22.2921909122
  0
LINE
  5
25C
100
AcDbEntity
  8
RACCORDO
100
AcDbLine
 62
253
  6
CONTINUOUS
 10
-33.5985854258
 20
-22.5985397344
 11
-33.5985854258
 21
-22.6286172716
  0
LINE
  5
25D
100
AcDbEntity
  8
RACCORDO
100
AcDbLine
 62
253
  6
CONTINUOUS
 10
-33.5985854258
 20
22.5985397344
 11
-33.5985854264
 21
22.6286172716
  0
LINE
  5
25E
100
AcDbEntity
  8
RACCORDO
100
AcDbLine
 62
7
  6
CONTINUOUS
 10
-36.4660692368
 20
-26.2659626234
 11
36.4660692368
 21
-26.2659626234
  0
LINE
  5
25F
100
AcDbEntity
  8
RACCORDO
100
AcDbLine
 62
253
  6
CONTINUOUS
 10
-36.4589958209
 20
-26.2588892076
 11
36.4589958209
 21
-26.2588892076
  0
LINE
  5
260
100
AcDbEntity
  8
RACCORDO
100
AcDbLine
 62
253
  6
CONTINUOUS
 10
-36.4589958209
 20
-25.958934899
 11
36.4622249558
 21
-25.958934899
  0
LINE
  5
261
100
AcDbEntity
  8
0
100
AcDbLine
 62
7
  6
CONTINUOUS
 10
-3.446727
 20
-25.815174
 11
-3.060461
 21
-25.815174
  0
LINE
  5
262
100
AcDbEntity
  8
0
100
AcDbLine
 62
7
  6
CONTINUOUS
 10
-2.222834
 20
-25.815174
 11
-1.784518
 21
-25.815174
  0
LINE
  5
263
100
AcDbEntity
  8
0
100
AcDbLine
 62
7
  6
CONTINUOUS
 10
-1.548559
 20
-25.815174
 11
-1.129234
 21
-25.815174
  0
LINE
  5
264
100
AcDbEntity
  8
0
100
AcDbLine
 62
7
  6
CONTINUOUS
 10
-0.520448
 20
-25.815174
 11
-0.458975
 21
-25.815174
  0
LINE
  5
265
100
AcDbEntity
  8
0
100
AcDbLine
 62
7
  6
CONTINUOUS
 10
0.152236
 20
-25.815174
 11
0.581025
 21
-25.815174
  0
LINE
  5
266
100
AcDbEntity
  8
0
100
AcDbLine
 62
7
  6
CONTINUOUS
 10
0.649852
 20
-25.815174
 11
1.083412
 21
-25.815174
  0
LINE
  5
267
100
AcDbEntity
  8
0
100
AcDbLine
 62
7
  6
CONTINUOUS
 10
1.91482
 20
-25.815174
 11
2.376786
 21
-25.815174
  0
LINE
  5
268
100
AcDbEntity
  8
0
100
AcDbLine
 62
7
  6
CONTINUOUS
 10
2.505496876
 20
-25.8151743977
 11
2.9420487595
 21
-25.8151743977
  0
LINE
  5
269
100
AcDbEntity
  8
0
100
AcDbLine
 62
7
  6
CONTINUOUS
 10
3.613268538
 20
-25.8151743977
 11
4.0348771327
 21
-25.8151743977
  0
LINE
  5
26A
100
AcDbEntity
  8
RACCORDO
100
AcDbLine
 62
253
  6
CONTINUOUS
 10
-34.2265742229
 20
-22.9738150771
 11
-33.9066937466
 21
-22.3135245816
  0
LINE
  5
26B
100
AcDbEntity
  8
RACCORDO
100
AcDbLine
 62
253
  6
CONTINUOUS
 10
-37.1588892076
 20
-25.558995819
 11
-36.858934899
 21
-25.5589958209
  0
LINE
  5
26C
100
AcDbEntity
  8
RACCORDO
100
AcDbLine
 62
253
  6
CONTINUOUS
 10
37.1588892076
 20
-25.5589958196
 11
36.858934899
 21
-25.5589958209
  0
LINE
  5
26D
100
AcDbEntity
  8
0
100
AcDbLine
 62
7
  6
CONTINUOUS
 10
1.20436
 20
-25.395975
 11
1.801273
 21
-25.395975
  0
LINE
  5
26E
100
AcDbEntity
  8
0
100
AcDbLine
 62
7
  6
CONTINUOUS
 10
1.713676
 20
-25.0716
 11
1.29402
 21
-25.0716
  0
LINE
  5
26F
100
AcDbEntity
  8
0
100
AcDbLine
 62
7
  6
CONTINUOUS
 10
2.9420487595
 20
-24.993419487
 11
3.1770630743
 21
-24.993419487
  0
LINE
  5
270
100
AcDbEntity
  8
0
100
AcDbLine
 62
7
  6
CONTINUOUS
 10
3.1780078554
 20
-24.6495191431
 11
2.927514876
 21
-24.6495191431
  0
LINE
  5
271
100
AcDbEntity
  8
0
100
AcDbLine
 62
7
  6
CONTINUOUS
 10
1.732508
 20
-23.715351
 11
1.308491
 21
-23.715351
  0
LINE
  5
272
100
AcDbEntity
  8
0
100
AcDbLine
 62
7
  6
CONTINUOUS
 10
0.384668
 20
-23.715351
 11
-0.049002
 21
-23.715351
  0
LINE
  5
273
100
AcDbEntity
  8
0
100
AcDbLine
 62
7
  6
CONTINUOUS
 10
-0.921004
 20
-23.715351
 11
-1.358957
 21
-23.715351
  0
LINE
  5
274
100
AcDbEntity
  8
0
100
AcDbLine
 62
7
  6
CONTINUOUS
 10
-2.385493
 20
-23.715351
 11
-2.82351
 21
-23.715351
  0
LINE
  5
275
100
AcDbEntity
  8
0
100
AcDbLine
 62
7
  6
CONTINUOUS
 10
-3.636266
 20
-23.715351
 11
-4.112412
 21
-23.715351
  0
LINE
  5
276
100
AcDbEntity
  8
0
100
AcDbLine
 62
7
  6
CONTINUOUS
 10
-1.784518
 20
-23.715225
 11
-2.222834
 21
-23.715225
  0
LINE
  5
277
100
AcDbEntity
  8
RACCORDO
100
AcDbLine
 62
253
  6
CONTINUOUS
 10
33.9489450092
 20
-23.5743997534
 11
-33.9489450092
 21
-23.5743997534
  0
LINE
  5
278
100
AcDbEntity
  8
RACCORDO
100
AcDbLine
 62
253
  6
CONTINUOUS
 10
33.9489313298
 20
-23.2924919672
 11
-33.9489659206
 21
-23.2924919672
  0
LINE
  5
279
100
AcDbEntity
  8
RACCORDO
100
AcDbLine
 62
253
  6
CONTINUOUS
 10
-34.5220165488
 20
-22.9738147507
 11
-34.2265742229
 21
-22.9738147507
  0
LINE
  5
27A
100
AcDbEntity
  8
RACCORDO
100
AcDbLine
 62
253
  6
CONTINUOUS
 10
34.5220165488
 20
-22.9738147507
 11
34.2265742229
 21
-22.9738147509
  0
LINE
  5
27B
100
AcDbEntity
  8
RACCORDO
100
AcDbLine
 62
253
  6
CONTINUOUS
 10
-33.5985854258
 20
-22.6286172716
 11
33.5985854258
 21
-22.6286172716
  0
LINE
  5
27C
100
AcDbEntity
  8
RACCORDO
100
AcDbLine
 62
253
  6
CONTINUOUS
 10
-33.5985854258
 20
-22.5985397344
 11
33.5985854258
 21
-22.5985397344
  0
LINE
  5
27D
100
AcDbEntity
  8
RACCORDO
100
AcDbLine
 62
7
  6
CONTINUOUS
 10
33.5921909122
 20
-22.5921452208
 11
-33.5921909122
 21
-22.5921452208
  0
LINE
  5
27E
100
AcDbEntity
  8
RACCORDO
100
AcDbLine
 62
253
  6
CONTINUOUS
 10
33.8993132329
 20
-22.2993589244
 11
33.906833204
 21
-22.2993589244
  0
LINE
  5
27F
100
AcDbEntity
  8
RACCORDO
100
AcDbLine
 62
253
  6
CONTINUOUS
 10
-33.8993132329
 20
-22.2993589244
 11
-33.906833204
 21
-22.2993589244
  0
LINE
  5
280
100
AcDbEntity
  8
RACCORDO
100
AcDbLine
 62
253
  6
CONTINUOUS
 10
-33.9066937466
 20
22.3135245816
 11
-34.2265742229
 21
22.9738150026
  0
LINE
  5
281
100
AcDbEntity
  8
RACCORDO
100
AcDbLine
 62
253
  6
CONTINUOUS
 10
-33.9489659206
 20
-23.2924919672
 11
-33.6271590327
 21
-22.6280810671
  0
LINE
  5
282
100
AcDbEntity
  8
RACCORDO
100
AcDbLine
 62
253
  6
CONTINUOUS
 10
-33.6271591124
 20
22.6280810759
 11
-33.948967503
 21
23.2924919672
  0
LINE
  5
283
100
AcDbEntity
  8
0
100
AcDbLine
 62
7
  6
CONTINUOUS
 10
-4.112412
 20
-23.715351
 11
-3.446727
 21
-25.815174
  0
LINE
  5
284
100
AcDbEntity
  8
RACCORDO
100
AcDbLine
 62
253
  6
CONTINUOUS
 10
-33.8993132329
 20
-22.2993589244
 11
-33.8921452208
 21
-22.2921909122
  0
LINE
  5
285
100
AcDbEntity
  8
RACCORDO
100
AcDbLine
 62
253
  6
CONTINUOUS
 10
-37.1588892076
 20
-25.5589958209
 11
-37.1659626234
 21
-25.5660692368
  0
LINE
  5
286
100
AcDbEntity
  8
RACCORDO
100
AcDbLine
 62
253
  6
CONTINUOUS
 10
-33.5985854258
 20
-22.5985397344
 11
-33.5921909122
 21
-22.5921452208
  0
LINE
  5
287
100
AcDbEntity
  8
RACCORDO
100
AcDbLine
 62
253
  6
CONTINUOUS
 10
-36.4589958209
 20
-26.2588892076
 11
-36.4660692368
 21
-26.2659626234
  0
LINE
  5
288
100
AcDbEntity
  8
RACCORDO
100
AcDbLine
 62
253
  6
CONTINUOUS
 10
-33.8921452208
 20
22.2921909122
 11
-33.8993132329
 21
22.2993589244
  0
LINE
  5
289
100
AcDbEntity
  8
RACCORDO
100
AcDbLine
 62
253
  6
CONTINUOUS
 10
-37.1588892076
 20
25.5589958209
 11
-37.1659626234
 21
25.5660692368
  0
LINE
  5
28A
100
AcDbEntity
  8
RACCORDO
100
AcDbLine
 62
253
  6
CONTINUOUS
 10
-33.5921909122
 20
22.5921452208
 11
-33.5985854258
 21
22.5985397344
  0
LINE
  5
28B
100
AcDbEntity
  8
RACCORDO
100
AcDbLine
 62
253
  6
CONTINUOUS
 10
-36.4589958209
 20
26.2588892076
 11
-36.4660692368
 21
26.2659626234
  0
LINE
  5
28C
100
AcDbEntity
  8
0
100
AcDbLine
 62
7
  6
CONTINUOUS
 10
-1.034645
 20
-24.444029
 11
-0.520448
 21
-25.815174
  0
LINE
  5
28D
100
AcDbEntity
  8
0
100
AcDbLine
 62
7
  6
CONTINUOUS
 10
-0.487318
 20
-24.881179
 11
-0.921004
 21
-23.715351
  0
LINE
  5
28E
100
AcDbEntity
  8
0
100
AcDbLine
 62
7
  6
CONTINUOUS
 10
2.376786
 20
-25.815174
 11
1.732508
 21
-23.715351
  0
LINE
  5
28F
100
AcDbEntity
  8
0
100
AcDbLine
 62
7
  6
CONTINUOUS
 10
-3.236001
 20
-25.160724
 11
-3.636266
 21
-23.715351
  0
LINE
  5
290
100
AcDbEntity
  8
0
100
AcDbLine
 62
7
  6
CONTINUOUS
 10
1.801273
 20
-25.395975
 11
1.91482
 21
-25.815174
  0
LINE
  5
291
100
AcDbEntity
  8
0
100
AcDbLine
 62
7
  6
CONTINUOUS
 10
1.512264
 20
-24.292329
 11
1.713676
 21
-25.0716
  0
LINE
  5
292
100
AcDbEntity
  8
0
100
AcDbLine
 62
7
  6
CONTINUOUS
 10
0.581025
 20
-25.815174
 11
0.384668
 21
-23.715351
  0
LINE
  5
293
100
AcDbEntity
  8
0
100
AcDbLine
 62
7
  6
CONTINUOUS
 10
0.062183
 20
-24.449745
 11
0.152236
 21
-25.815174
  0
LINE
  5
294
100
AcDbEntity
  8
0
100
AcDbLine
 62
7
  6
CONTINUOUS
 10
-2.222834
 20
-23.715225
 11
-2.222834
 21
-25.815174
  0
LINE
  5
295
100
AcDbEntity
  8
0
100
AcDbLine
 62
7
  6
CONTINUOUS
 10
-1.784518
 20
-25.815174
 11
-1.784518
 21
-23.715225
  0
LINE
  5
296
100
AcDbEntity
  8
0
100
AcDbLine
 62
7
  6
CONTINUOUS
 10
-1.129234
 20
-25.815174
 11
-1.034645
 21
-24.444029
  0
LINE
  5
297
100
AcDbEntity
  8
0
100
AcDbLine
 62
7
  6
CONTINUOUS
 10
2.505496876
 20
-23.7398838377
 11
2.505496876
 21
-25.8151743977
  0
LINE
  5
298
100
AcDbEntity
  8
0
100
AcDbLine
 62
7
  6
CONTINUOUS
 10
2.927514876
 20
-24.6495191431
 11
2.927514876
 21
-24.0730766618
  0
LINE
  5
299
100
AcDbEntity
  8
0
100
AcDbLine
 62
7
  6
CONTINUOUS
 10
2.9420487595
 20
-25.8151743977
 11
2.9420487595
 21
-24.993419487
  0
LINE
  5
29A
100
AcDbEntity
  8
0
100
AcDbLine
 62
7
  6
CONTINUOUS
 10
3.6323846102
 20
-24.834995432
 11
3.6323846102
 21
-24.8225873061
  0
LINE
  5
29B
100
AcDbEntity
  8
0
100
AcDbLine
 62
7
  6
CONTINUOUS
 10
-1.358957
 20
-23.715351
 11
-1.548559
 21
-25.815174
  0
LINE
  5
29C
100
AcDbEntity
  8
0
100
AcDbLine
 62
7
  6
CONTINUOUS
 10
-2.82351
 20
-23.715351
 11
-3.236001
 21
-25.160724
  0
LINE
  5
29D
100
AcDbEntity
  8
0
100
AcDbLine
 62
7
  6
CONTINUOUS
 10
-3.060461
 20
-25.815174
 11
-2.385493
 21
-23.715351
  0
LINE
  5
29E
100
AcDbEntity
  8
0
100
AcDbLine
 62
7
  6
CONTINUOUS
 10
1.29402
 20
-25.0716
 11
1.512264
 21
-24.292329
  0
LINE
  5
29F
100
AcDbEntity
  8
0
100
AcDbLine
 62
7
  6
CONTINUOUS
 10
1.083412
 20
-25.815174
 11
1.20436
 21
-25.395975
  0
LINE
  5
2A0
100
AcDbEntity
  8
0
100
AcDbLine
 62
7
  6
CONTINUOUS
 10
1.308491
 20
-23.715351
 11
0.649852
 21
-25.815174
  0
LINE
  5
2A1
100
AcDbEntity
  8
0
100
AcDbLine
 62
7
  6
CONTINUOUS
 10
-0.049002
 20
-23.715351
 11
-0.487318
 21
-24.881179
  0
LINE
  5
2A2
100
AcDbEntity
  8
0
100
AcDbLine
 62
7
  6
CONTINUOUS
 10
-0.458975
 20
-25.815174
 11
0.062183
 21
-24.449745
  0
LINE
  5
2A3
100
AcDbEntity
  8
RACCORDO
100
AcDbLine
 62
253
  6
CONTINUOUS
 10
36.4589958209
 20
26.2588892076
 11
36.4660692368
 21
26.2659626234
  0
LINE
  5
2A4
100
AcDbEntity
  8
RACCORDO
100
AcDbLine
 62
253
  6
CONTINUOUS
 10
33.5985854258
 20
22.5985397344
 11
33.5921909122
 21
22.5921452208
  0
LINE
  5
2A5
100
AcDbEntity
  8
RACCORDO
100
AcDbLine
 62
253
  6
CONTINUOUS
 10
37.1588892076
 20
25.5589958209
 11
37.1659626234
 21
25.5660692368
  0
LINE
  5
2A6
100
AcDbEntity
  8
RACCORDO
100
AcDbLine
 62
253
  6
CONTINUOUS
 10
33.8993132329
 20
22.2993589244
 11
33.8921452208
 21
22.2921909122
  0
LINE
  5
2A7
100
AcDbEntity
  8
RACCORDO
100
AcDbLine
 62
253
  6
CONTINUOUS
 10
36.4589958209
 20
-26.2588892076
 11
36.4660692368
 21
-26.2659626234
  0
LINE
  5
2A8
100
AcDbEntity
  8
RACCORDO
100
AcDbLine
 62
253
  6
CONTINUOUS
 10
33.5985854258
 20
-22.5985397344
 11
33.5921909122
 21
-22.5921452208
  0
LINE
  5
2A9
100
AcDbEntity
  8
RACCORDO
100
AcDbLine
 62
253
  6
CONTINUOUS
 10
37.1588892076
 20
-25.5589958209
 11
37.1659626234
 21
-25.5660692368
  0
LINE
  5
2AA
100
AcDbEntity
  8
RACCORDO
100
AcDbLine
 62
253
  6
CONTINUOUS
 10
33.8993132329
 20
-22.2993589244
 11
33.8921452208
 21
-22.2921909122
  0
LINE
  5
2AB
100
AcDbEntity
  8
RACCORDO
100
AcDbLine
 62
253
  6
CONTINUOUS
 10
33.9489659206
 20
23.2924919672
 11
33.6270694484
 21
22.6280835891
  0
LINE
  5
2AC
100
AcDbEntity
  8
RACCORDO
100
AcDbLine
 62
253
  6
CONTINUOUS
 10
34.2265742229
 20
22.9738150771
 11
33.9066937466
 21
22.3135245816
  0
LINE
  5
2AD
100
AcDbEntity
  8
RACCORDO
100
AcDbLine
 62
253
  6
CONTINUOUS
 10
34.2265742229
 20
-22.9738461551
 11
33.9066937466
 21
-22.3135245844
  0
LINE
  5
2AE
100
AcDbEntity
  8
RACCORDO
100
AcDbLine
 62
253
  6
CONTINUOUS
 10
33.9489313298
 20
-23.2924919672
 11
33.627550762
 21
-22.6280701112
  0
LINE
  5
2AF
100
AcDbEntity
  8
RACCORDO
100
AcDbLine
 62
253
  6
CONTINUOUS
 10
33.8993132329
 20
22.2993589244
 11
33.906833204
 21
22.2993589244
  0
LINE
  5
2B0
100
AcDbEntity
  8
RACCORDO
100
AcDbLine
 62
253
  6
CONTINUOUS
 10
-33.8993132329
 20
22.2993589244
 11
-33.906833204
 21
22.2993589244
  0
LINE
  5
2B1
100
AcDbEntity
  8
RACCORDO
100
AcDbLine
 62
7
  6
CONTINUOUS
 10
-33.5921909122
 20
22.5921452208
 11
33.5921909122
 21
22.5921452208
  0
LINE
  5
2B2
100
AcDbEntity
  8
RACCORDO
100
AcDbLine
 62
253
  6
CONTINUOUS
 10
33.5985854258
 20
22.5985397344
 11
-33.5985854258
 21
22.5985397344
  0
LINE
  5
2B3
100
AcDbEntity
  8
RACCORDO
100
AcDbLine
 62
253
  6
CONTINUOUS
 10
33.5985854258
 20
22.6286172716
 11
-33.5985854258
 21
22.6286172716
  0
LINE
  5
2B4
100
AcDbEntity
  8
RACCORDO
100
AcDbLine
 62
253
  6
CONTINUOUS
 10
-34.5220165488
 20
22.9738147507
 11
-34.2265742229
 21
22.9738147507
  0
LINE
  5
2B5
100
AcDbEntity
  8
RACCORDO
100
AcDbLine
 62
253
  6
CONTINUOUS
 10
34.5220165488
 20
22.9738147507
 11
34.2265742229
 21
22.9738147507
  0
LINE
  5
2B6
100
AcDbEntity
  8
RACCORDO
100
AcDbLine
 62
253
  6
CONTINUOUS
 10
-33.948967503
 20
23.2924919672
 11
33.9489659206
 21
23.2924919672
  0
LINE
  5
2B7
100
AcDbEntity
  8
RACCORDO
100
AcDbLine
 62
253
  6
CONTINUOUS
 10
-33.9489450092
 20
23.5743997534
 11
33.9489450092
 21
23.5743997534
  0
LINE
  5
2B8
100
AcDbEntity
  8
RACCORDO
100
AcDbLine
 62
253
  6
CONTINUOUS
 10
-37.1588892076
 20
25.5589958196
 11
-36.858934899
 21
25.5589958209
  0
LINE
  5
2B9
100
AcDbEntity
  8
RACCORDO
100
AcDbLine
 62
253
  6
CONTINUOUS
 10
37.1588892076
 20
25.558995819
 11
36.858934899
 21
25.5589958209
  0
LINE
  5
2BA
100
AcDbEntity
  8
RACCORDO
100
AcDbLine
 62
253
  6
CONTINUOUS
 10
36.4589958209
 20
25.958934899
 11
-36.4622249593
 21
25.958934899
  0
LINE
  5
2BB
100
AcDbEntity
  8
RACCORDO
100
AcDbLine
 62
253
  6
CONTINUOUS
 10
36.4589958209
 20
26.2588892076
 11
-36.4589958209
 21
26.2588892076
  0
LINE
  5
2BC
100
AcDbEntity
  8
RACCORDO
100
AcDbLine
 62
7
  6
CONTINUOUS
 10
36.4660692368
 20
26.2659626234
 11
-36.4660692368
 21
26.2659626234
  0
LINE
  5
2BD
100
AcDbEntity
  8
RACCORDO
100
AcDbLine
 62
253
  6
CONTINUOUS
 10
33.5985854258
 20
-22.5985397344
 11
33.5985854263
 21
-22.6286172716
  0
LINE
  5
2BE
100
AcDbEntity
  8
RACCORDO
100
AcDbLine
 62
253
  6
CONTINUOUS
 10
33.5985854258
 20
22.5985397344
 11
33.5985854258
 21
22.6286172716
  0
LINE
  5
2BF
100
AcDbEntity
  8
RACCORDO
100
AcDbLine
 62
7
  6
CONTINUOUS
 10
33.8921452208
 20
22.2921909122
 11
33.8921452208
 21
-22.2921909122
  0
LINE
  5
2C0
100
AcDbEntity
  8
RACCORDO
100
AcDbLine
 62
253
  6
CONTINUOUS
 10
33.8993132329
 20
-22.2993589244
 11
33.8993132329
 21
22.2993589244
  0
LINE
  5
2C1
100
AcDbEntity
  8
RACCORDO
100
AcDbLine
 62
253
  6
CONTINUOUS
 10
33.906833204
 20
-22.2993589244
 11
33.906833204
 21
22.2993589244
  0
LINE
  5
2C2
100
AcDbEntity
  8
RACCORDO
100
AcDbLine
 62
253
  6
CONTINUOUS
 10
33.9489450092
 20
23.5743997534
 11
33.9489450093
 21
23.2924919672
  0
LINE
  5
2C3
100
AcDbEntity
  8
RACCORDO
100
AcDbLine
 62
253
  6
CONTINUOUS
 10
33.9489450092
 20
-23.5743997534
 11
33.9489450092
 21
-23.2924919672
  0
LINE
  5
2C4
100
AcDbEntity
  8
RACCORDO
100
AcDbLine
 62
253
  6
CONTINUOUS
 10
34.2265742229
 20
22.9738150771
 11
34.2265742229
 21
-22.9738461551
  0
LINE
  5
2C5
100
AcDbEntity
  8
RACCORDO
100
AcDbLine
 62
253
  6
CONTINUOUS
 10
34.5220165488
 20
22.9738147507
 11
34.5220165488
 21
-22.9738147507
  0
LINE
  5
2C6
100
AcDbEntity
  8
RACCORDO
100
AcDbLine
 62
253
  6
CONTINUOUS
 10
36.4589958196
 20
26.2588892076
 11
36.4589958209
 21
25.958934899
  0
LINE
  5
2C7
100
AcDbEntity
  8
RACCORDO
100
AcDbLine
 62
253
  6
CONTINUOUS
 10
36.458995819
 20
-26.2588892076
 11
36.4589958209
 21
-25.958934899
  0
LINE
  5
2C8
100
AcDbEntity
  8
RACCORDO
100
AcDbLine
 62
253
  6
CONTINUOUS
 10
36.858934899
 20
-25.5589958209
 11
36.858934899
 21
25.5589958209
  0
LINE
  5
2C9
100
AcDbEntity
  8
RACCORDO
100
AcDbLine
 62
253
  6
CONTINUOUS
 10
37.1588892076
 20
-25.5589958209
 11
37.1588892076
 21
25.5589958209
  0
LINE
  5
2CA
100
AcDbEntity
  8
RACCORDO
100
AcDbLine
 62
7
  6
CONTINUOUS
 10
37.1659626234
 20
-25.5660692368
 11
37.1659626234
 21
25.5660692368
  0
LINE
  5
2CB
100
AcDbEntity
  8
SMUSSO
100
AcDbLine
 62
7
  6
CONTINUOUS
 10
58.0
 20
52.0
 11
-58.0
 21
52.0
  0
LINE
  5
2CC
100
AcDbEntity
  8
SMUSSO
100
AcDbLine
 62
253
  6
CONTINUOUS
 10
58.0
 20
52.0
 11
59.0
 21
52.0
  0
LINE
  5
2CD
100
AcDbEntity
  8
SMUSSO
100
AcDbLine
 62
253
  6
CONTINUOUS
 10
-58.0
 20
52.0
 11
-59.0
 21
52.0
  0
LINE
  5
2CE
100
AcDbEntity
  8
SMUSSO
100
AcDbLine
 62
7
  6
CONTINUOUS
 10
58.0
 20
53.0
 11
-58.0
 21
53.0
  0
LINE
  5
2CF
100
AcDbEntity
  8
SMUSSO
100
AcDbLine
 62
253
  6
CONTINUOUS
 10
58.0
 20
-52.0
 11
58.0
 21
-53.0
  0
LINE
  5
2D0
100
AcDbEntity
  8
SMUSSO
100
AcDbLine
 62
7
  6
CONTINUOUS
 10
58.0
 20
-52.0
 11
58.0
 21
52.0
  0
LINE
  5
2D1
100
AcDbEntity
  8
SMUSSO
100
AcDbLine
 62
253
  6
CONTINUOUS
 10
58.0
 20
52.0
 11
58.0
 21
53.0
  0
LINE
  5
2D2
100
AcDbEntity
  8
SMUSSO
100
AcDbLine
 62
7
  6
CONTINUOUS
 10
59.0
 20
-52.0
 11
59.0
 21
52.0
  0
LINE
  5
2D3
100
AcDbEntity
  8
SMUSSO
100
AcDbLine
 62
7
  6
CONTINUOUS
 10
-86.8371726883
 20
-53.0
 11
-84.3371726883
 21
-53.0
  0
LINE
  5
2D4
100
AcDbEntity
  8
RACCORDO
100
AcDbLine
 62
7
  6
CONTINUOUS
 10
-83.2871917267
 20
-52.9242555739
 11
-81.3285213198
 21
-52.9413486316
  0
LINE
  5
2D5
100
AcDbEntity
  8
SMUSSO
100
AcDbLine
 62
7
  6
CONTINUOUS
 10
-83.2871917267
 20
-52.9242555739
 11
-81.3285213198
 21
-52.9413486316
  0
LINE
  5
2D6
100
AcDbEntity
  8
SMUSSO
100
AcDbLine
 62
253
  6
CONTINUOUS
 10
-83.8371726883
 20
-52.0
 11
-87.8371726883
 21
-52.0
  0
LINE
  5
2D7
100
AcDbEntity
  8
SMUSSO
100
AcDbLine
 62
7
  6
CONTINUOUS
 10
-80.3371726883
 20
-51.441405747
 11
-81.3285213198
 21
-51.441405747
  0
LINE
  5
2D8
100
AcDbEntity
  8
SMUSSO
100
AcDbLine
 62
7
  6
CONTINUOUS
 10
-83.7871726883
 20
-51.4243126893
 11
-83.2871917267
 21
-51.4243126893
  0
LINE
  5
2D9
100
AcDbEntity
  8
SMUSSO
100
AcDbLine
 62
253
  6
CONTINUOUS
 10
-83.2871917267
 20
-51.4243126893
 11
-81.3285213198
 21
-51.441405747
  0
LINE
  5
2DA
100
AcDbEntity
  8
SMUSSO
100
AcDbLine
 62
7
  6
CONTINUOUS
 10
-87.8371726883
 20
52.0
 11
-86.8371726883
 21
53.0
  0
LINE
  5
2DB
100
AcDbEntity
  8
SMUSSO
100
AcDbLine
 62
7
  6
CONTINUOUS
 10
-87.8371726883
 20
-52.0
 11
-86.8371726883
 21
-53.0
  0
LINE
  5
2DC
100
AcDbEntity
  8
SMUSSO
100
AcDbLine
 62
7
  6
CONTINUOUS
 10
-83.7871726883
 20
52.4198923061
 11
-83.2871917267
 21
52.9242555739
  0
LINE
  5
2DD
100
AcDbEntity
  8
SMUSSO
100
AcDbLine
 62
7
  6
CONTINUOUS
 10
-83.7871726883
 20
-52.4198923061
 11
-83.2871917267
 21
-52.9242555739
  0
LINE
  5
2DE
100
AcDbEntity
  8
ASSI
100
AcDbLine
 62
7
  6
CONTINUOUS
 10
-78.6371726883
 20
-26.35
 11
-80.3371726883
 21
-26.3598903107
  0
LINE
  5
2DF
100
AcDbEntity
  8
DRAFT
100
AcDbLine
 62
7
  6
CONTINUOUS
 10
-80.3371726883
 20
-27.1459857386
 11
-78.6371726883
 21
-27.1430186759
  0
LINE
  5
2E0
100
AcDbEntity
  8
DRAFT
100
AcDbLine
 62
253
  6
CONTINUOUS
 10
-80.3371726883
 20
-26.8937435176
 11
-78.6371726883
 21
-26.8929755853
  0
LINE
  5
2E1
100
AcDbEntity
  8
0
100
AcDbLine
 62
7
  6
CONTINUOUS
 10
-88.5371726883
 20
-25.8151743977
 11
-88.7371726883
 21
-25.8151743977
  0
LINE
  5
2E2
100
AcDbEntity
  8
RACCORDO
100
AcDbLine
 62
253
  6
CONTINUOUS
 10
-88.2424084102
 20
-25.5589958196
 11
-88.5371726883
 21
-25.5589958209
  0
LINE
  5
2E3
100
AcDbEntity
  8
0
100
AcDbLine
 62
253
  6
CONTINUOUS
 10
-88.5371726883
 20
-25.2468412881
 11
-88.7371726883
 21
-25.2468412881
  0
LINE
  5
2E4
100
AcDbEntity
  8
ASSI
100
AcDbLine
 62
7
  6
CONTINUOUS
 10
-78.8371726883
 20
-25.2
 11
-80.3371726883
 21
-25.2
  0
LINE
  5
2E5
100
AcDbEntity
  8
ASSI
100
AcDbLine
 62
7
  6
CONTINUOUS
 10
-80.1871726883
 20
-25.05
 11
-79.9871726883
 21
-25.05
  0
LINE
  5
2E6
100
AcDbEntity
  8
ASSI
100
AcDbLine
 62
7
  6
CONTINUOUS
 10
-79.6871726883
 20
-25.05
 11
-79.4871726883
 21
-25.05
  0
LINE
  5
2E7
100
AcDbEntity
  8
ASSI
100
AcDbLine
 62
7
  6
CONTINUOUS
 10
-79.1871726883
 20
-25.05
 11
-78.9871726883
 21
-25.05
  0
LINE
  5
2E8
100
AcDbEntity
  8
0
100
AcDbLine
 62
7
  6
CONTINUOUS
 10
-88.5371726883
 20
-24.834995432
 11
-88.7371726883
 21
-24.834995432
  0
LINE
  5
2E9
100
AcDbEntity
  8
0
100
AcDbLine
 62
7
  6
CONTINUOUS
 10
-88.5371726883
 20
-24.8225873061
 11
-88.7371726883
 21
-24.8225873061
  0
LINE
  5
2EA
100
AcDbEntity
  8
RACCORDO
100
AcDbLine
 62
7
  6
CONTINUOUS
 10
-88.2424084102
 20
-26.2588892076
 11
-87.8371726883
 21
-26.2659626234
  0
LINE
  5
2EB
100
AcDbEntity
  8
DRAFT
100
AcDbLine
 62
7
  6
CONTINUOUS
 10
-83.7871726883
 20
-25.8473817403
 11
-83.8371726883
 21
-25.846508987
  0
LINE
  5
2EC
100
AcDbEntity
  8
RACCORDO
100
AcDbLine
 62
7
  6
CONTINUOUS
 10
-83.8371726883
 20
-25.696508987
 11
-83.7871726883
 21
-25.6973817403
  0
LINE
  5
2ED
100
AcDbEntity
  8
RACCORDO
100
AcDbLine
 62
253
  6
CONTINUOUS
 10
-88.2424084102
 20
-25.5589958209
 11
-87.8371726883
 21
-25.5660692368
  0
LINE
  5
2EE
100
AcDbEntity
  8
RACCORDO
100
AcDbLine
 62
253
  6
CONTINUOUS
 10
-83.8371726883
 20
-24.3967069833
 11
-83.7871726883
 21
-24.3975797366
  0
LINE
  5
2EF
100
AcDbEntity
  8
ASSI
100
AcDbLine
 62
7
  6
CONTINUOUS
 10
-78.826705497
 20
-25.7916264167
 11
-80.3371726883
 21
-25.7248937867
  0
LINE
  5
2F0
100
AcDbEntity
  8
0
100
AcDbLine
 62
253
  6
CONTINUOUS
 10
-88.5371726883
 20
-23.7619917169
 11
-88.7371726883
 21
-23.7619917169
  0
LINE
  5
2F1
100
AcDbEntity
  8
0
100
AcDbLine
 62
7
  6
CONTINUOUS
 10
-88.5371726883
 20
-23.6907136252
 11
-88.7371726883
 21
-23.6907136252
  0
LINE
  5
2F2
100
AcDbEntity
  8
RACCORDO
100
AcDbLine
 62
7
  6
CONTINUOUS
 10
-83.7871726883
 20
-22.2594162181
 11
-83.8371726883
 21
-22.2592435549
  0
LINE
  5
2F3
100
AcDbEntity
  8
RACCORDO
100
AcDbLine
 62
7
  6
CONTINUOUS
 10
-83.7871726883
 20
-20.7405837819
 11
-83.8371726883
 21
-20.7407564451
  0
LINE
  5
2F4
100
AcDbEntity
  8
ASSI
100
AcDbLine
 62
7
  6
CONTINUOUS
 10
-79.9871726883
 20
25.05
 11
-79.8371726883
 21
25.2
  0
LINE
  5
2F5
100
AcDbEntity
  8
ASSI
100
AcDbLine
 62
7
  6
CONTINUOUS
 10
-79.4871726883
 20
25.05
 11
-79.3371726883
 21
25.2
  0
LINE
  5
2F6
100
AcDbEntity
  8
ASSI
100
AcDbLine
 62
7
  6
CONTINUOUS
 10
-78.9871726883
 20
25.05
 11
-78.8371726883
 21
25.2
  0
LINE
  5
2F7
100
AcDbEntity
  8
RACCORDO
100
AcDbLine
 62
7
  6
CONTINUOUS
 10
-83.7871726883
 20
-15.2200733247
 11
-83.8371726883
 21
-15.2209460779
  0
LINE
  5
2F8
100
AcDbEntity
  8
RACCORDO
100
AcDbLine
 62
7
  6
CONTINUOUS
 10
-83.7871726883
 20
-14.4799266753
 11
-83.8371726883
 21
-14.4790539221
  0
LINE
  5
2F9
100
AcDbEntity
  8
ASSI
100
AcDbLine
 62
7
  6
CONTINUOUS
 10
-79.9871726883
 20
-25.05
 11
-79.8371726883
 21
-25.2
  0
LINE
  5
2FA
100
AcDbEntity
  8
ASSI
100
AcDbLine
 62
7
  6
CONTINUOUS
 10
-79.4871726883
 20
-25.05
 11
-79.3371726883
 21
-25.2
  0
LINE
  5
2FB
100
AcDbEntity
  8
ASSI
100
AcDbLine
 62
7
  6
CONTINUOUS
 10
-78.9871726883
 20
-25.05
 11
-78.8371726883
 21
-25.2
  0
LINE
  5
2FC
100
AcDbEntity
  8
RACCORDO
100
AcDbLine
 62
7
  6
CONTINUOUS
 10
-83.7871726883
 20
-7.5200733247
 11
-83.8371726883
 21
-7.5209460779
  0
LINE
  5
2FD
100
AcDbEntity
  8
RACCORDO
100
AcDbLine
 62
7
  6
CONTINUOUS
 10
-83.7871726883
 20
-6.7799266753
 11
-83.8371726883
 21
-6.7790539221
  0
LINE
  5
2FE
100
AcDbEntity
  8
0
100
AcDbLine
 62
7
  6
CONTINUOUS
 10
-88.7371726883
 20
-25.8151743977
 11
-88.7371726883
 21
-23.6907215949
  0
LINE
  5
2FF
100
AcDbEntity
  8
RACCORDO
100
AcDbLine
 62
7
  6
CONTINUOUS
 10
-88.5371726883
 20
-25.958934899
 11
-88.5371726883
 21
25.958934899
  0
LINE
  5
300
100
AcDbEntity
  8
RACCORDO
100
AcDbLine
 62
253
  6
CONTINUOUS
 10
-88.2424084102
 20
-25.5589958209
 11
-88.2424084102
 21
25.5589958209
  0
LINE
  5
301
100
AcDbEntity
  8
SMUSSO
100
AcDbLine
 62
7
  6
CONTINUOUS
 10
-87.8371726883
 20
-52.0
 11
-87.8371726883
 21
52.0
  0
LINE
  5
302
100
AcDbEntity
  8
SMUSSO
100
AcDbLine
 62
7
  6
CONTINUOUS
 10
-86.8371726883
 20
-53.0
 11
-86.8371726883
 21
53.0
  0
LINE
  5
303
100
AcDbEntity
  8
RACCORDO
100
AcDbLine
 62
7
  6
CONTINUOUS
 10
-79.4319369663
 20
-3.417869805
 11
-80.3371726883
 21
-3.4336707533
  0
LINE
  5
304
100
AcDbEntity
  8
RACCORDO
100
AcDbLine
 62
253
  6
CONTINUOUS
 10
-79.4371726883
 20
-3.1179154964
 11
-80.3371726883
 21
-3.1336250549
  0
LINE
  5
305
100
AcDbEntity
  8
RACCORDO
100
AcDbLine
 62
253
  6
CONTINUOUS
 10
-79.1371726883
 20
-3.1179154964
 11
-79.4371726883
 21
-3.1179154964
  0
LINE
  5
306
100
AcDbEntity
  8
SMUSSO
100
AcDbLine
 62
7
  6
CONTINUOUS
 10
-84.3371726883
 20
53.0
 11
-84.3371726883
 21
-53.0
  0
LINE
  5
307
100
AcDbEntity
  8
SMUSSO
100
AcDbLine
 62
7
  6
CONTINUOUS
 10
-83.8371726883
 20
52.5
 11
-83.8371726883
 21
-52.5
  0
LINE
  5
308
100
AcDbEntity
  8
SMUSSO
100
AcDbLine
 62
7
  6
CONTINUOUS
 10
-83.7871726883
 20
-52.4198923061
 11
-83.7871726883
 21
52.4198923061
  0
LINE
  5
309
100
AcDbEntity
  8
SMUSSO
100
AcDbLine
 62
7
  6
CONTINUOUS
 10
-83.2871917267
 20
-51.4243126893
 11
-83.2871917267
 21
51.4243126893
  0
LINE
  5
30A
100
AcDbEntity
  8
SMUSSO
100
AcDbLine
 62
7
  6
CONTINUOUS
 10
-81.3285213198
 20
51.441405747
 11
-81.3285213198
 21
-51.441405747
  0
LINE
  5
30B
100
AcDbEntity
  8
SMUSSO
100
AcDbLine
 62
7
  6
CONTINUOUS
 10
-80.3371726883
 20
51.95
 11
-80.3371726883
 21
-51.95
  0
LINE
  5
30C
100
AcDbEntity
  8
RACCORDO
100
AcDbLine
 62
253
  6
CONTINUOUS
 10
-79.1371726883
 20
3.1179154964
 11
-79.4371726883
 21
3.1179154964
  0
LINE
  5
30D
100
AcDbEntity
  8
RACCORDO
100
AcDbLine
 62
253
  6
CONTINUOUS
 10
-79.4371726883
 20
3.1179154964
 11
-80.3371726883
 21
3.1336250549
  0
LINE
  5
30E
100
AcDbEntity
  8
RACCORDO
100
AcDbLine
 62
7
  6
CONTINUOUS
 10
-79.4319369663
 20
3.417869805
 11
-80.3371726883
 21
3.4336707533
  0
LINE
  5
30F
100
AcDbEntity
  8
RACCORDO
100
AcDbLine
 62
253
  6
CONTINUOUS
 10
-79.4371726883
 20
-3.1179154964
 11
-79.4319369663
 21
-3.417869805
  0
LINE
  5
310
100
AcDbEntity
  8
RACCORDO
100
AcDbLine
 62
253
  6
CONTINUOUS
 10
-79.4371726883
 20
3.1179154964
 11
-79.4371726883
 21
-3.1179154964
  0
LINE
  5
311
100
AcDbEntity
  8
RACCORDO
100
AcDbLine
 62
7
  6
CONTINUOUS
 10
-79.1371726883
 20
3.1179154964
 11
-79.1371726883
 21
-3.1179154964
  0
LINE
  5
312
100
AcDbEntity
  8
ASSI
100
AcDbLine
 62
253
  6
CONTINUOUS
 10
-78.826705497
 20
25.7916264167
 11
-78.826705497
 21
25.200274093
  0
LINE
  5
313
100
AcDbEntity
  8
ASSI
100
AcDbLine
 62
253
  6
CONTINUOUS
 10
-78.826705497
 20
-25.200274093
 11
-78.826705497
 21
-25.7916264167
  0
LINE
  5
314
100
AcDbEntity
  8
ASSI
100
AcDbLine
 62
7
  6
CONTINUOUS
 10
-78.6371726883
 20
-25.4
 11
-78.6371726883
 21
-26.35
  0
LINE
  5
315
100
AcDbEntity
  8
DRAFT
100
AcDbLine
 62
7
  6
CONTINUOUS
 10
-78.6371726883
 20
-26.35
 11
-78.6371726883
 21
-27.1430186759
  0
LINE
  5
316
100
AcDbEntity
  8
ASSI
100
AcDbLine
 62
7
  6
CONTINUOUS
 10
-78.6371726883
 20
25.4
 11
-78.6371726883
 21
26.35
  0
LINE
  5
317
100
AcDbEntity
  8
DRAFT
100
AcDbLine
 62
7
  6
CONTINUOUS
 10
-78.6371726883
 20
26.35
 11
-78.6371726883
 21
27.1430186759
  0
LINE
  5
318
100
AcDbEntity
  8
RACCORDO
100
AcDbLine
 62
253
  6
CONTINUOUS
 10
-79.4319369663
 20
3.417869805
 11
-79.4371726883
 21
3.1179154964
  0
LINE
  5
319
100
AcDbEntity
  8
RACCORDO
100
AcDbLine
 62
7
  6
CONTINUOUS
 10
-83.7871726883
 20
6.7799266753
 11
-83.8371726883
 21
6.7790539221
  0
LINE
  5
31A
100
AcDbEntity
  8
RACCORDO
100
AcDbLine
 62
7
  6
CONTINUOUS
 10
-83.7871726883
 20
7.5200733247
 11
-83.8371726883
 21
7.5209460779
  0
LINE
  5
31B
100
AcDbEntity
  8
RACCORDO
100
AcDbLine
 62
7
  6
CONTINUOUS
 10
-83.7871726883
 20
14.4799266753
 11
-83.8371726883
 21
14.4790539221
  0
LINE
  5
31C
100
AcDbEntity
  8
RACCORDO
100
AcDbLine
 62
7
  6
CONTINUOUS
 10
-83.7871726883
 20
15.2200733247
 11
-83.8371726883
 21
15.2209460779
  0
LINE
  5
31D
100
AcDbEntity
  8
ASSI
100
AcDbLine
 62
7
  6
CONTINUOUS
 10
-80.3371726883
 20
-25.2
 11
-80.1871726883
 21
-25.05
  0
LINE
  5
31E
100
AcDbEntity
  8
ASSI
100
AcDbLine
 62
7
  6
CONTINUOUS
 10
-79.8371726883
 20
-25.2
 11
-79.6871726883
 21
-25.05
  0
LINE
  5
31F
100
AcDbEntity
  8
ASSI
100
AcDbLine
 62
7
  6
CONTINUOUS
 10
-79.3371726883
 20
-25.2
 11
-79.1871726883
 21
-25.05
  0
LINE
  5
320
100
AcDbEntity
  8
RACCORDO
100
AcDbLine
 62
7
  6
CONTINUOUS
 10
-83.7871726883
 20
20.7405837819
 11
-83.8371726883
 21
20.7407564451
  0
LINE
  5
321
100
AcDbEntity
  8
ASSI
100
AcDbLine
 62
7
  6
CONTINUOUS
 10
-80.3371726883
 20
25.2
 11
-80.1871726883
 21
25.05
  0
LINE
  5
322
100
AcDbEntity
  8
ASSI
100
AcDbLine
 62
7
  6
CONTINUOUS
 10
-79.8371726883
 20
25.2
 11
-79.6871726883
 21
25.05
  0
LINE
  5
323
100
AcDbEntity
  8
ASSI
100
AcDbLine
 62
7
  6
CONTINUOUS
 10
-79.3371726883
 20
25.2
 11
-79.1871726883
 21
25.05
  0
LINE
  5
324
100
AcDbEntity
  8
RACCORDO
100
AcDbLine
 62
253
  6
CONTINUOUS
 10
-83.8371726883
 20
24.3967069833
 11
-83.7871726883
 21
24.3975797366
  0
LINE
  5
325
100
AcDbEntity
  8
RACCORDO
100
AcDbLine
 62
7
  6
CONTINUOUS
 10
-83.7871726883
 20
22.2594162181
 11
-83.8371726883
 21
22.2592435549
  0
LINE
  5
326
100
AcDbEntity
  8
ASSI
100
AcDbLine
 62
7
  6
CONTINUOUS
 10
-80.1871726883
 20
25.05
 11
-79.9871726883
 21
25.05
  0
LINE
  5
327
100
AcDbEntity
  8
ASSI
100
AcDbLine
 62
7
  6
CONTINUOUS
 10
-79.6871726883
 20
25.05
 11
-79.4871726883
 21
25.05
  0
LINE
  5
328
100
AcDbEntity
  8
ASSI
100
AcDbLine
 62
7
  6
CONTINUOUS
 10
-79.1871726883
 20
25.05
 11
-78.9871726883
 21
25.05
  0
LINE
  5
329
100
AcDbEntity
  8
ASSI
100
AcDbLine
 62
7
  6
CONTINUOUS
 10
-78.8371726883
 20
25.2
 11
-80.3371726883
 21
25.2
  0
LINE
  5
32A
100
AcDbEntity
  8
ASSI
100
AcDbLine
 62
7
  6
CONTINUOUS
 10
-78.826705497
 20
25.7916264167
 11
-80.3371726883
 21
25.7248937867
  0
LINE
  5
32B
100
AcDbEntity
  8
RACCORDO
100
AcDbLine
 62
253
  6
CONTINUOUS
 10
-88.2424084102
 20
25.5589958209
 11
-87.8371726883
 21
25.5660692368
  0
LINE
  5
32C
100
AcDbEntity
  8
RACCORDO
100
AcDbLine
 62
7
  6
CONTINUOUS
 10
-83.8371726883
 20
25.696508987
 11
-83.7871726883
 21
25.6973817403
  0
LINE
  5
32D
100
AcDbEntity
  8
DRAFT
100
AcDbLine
 62
7
  6
CONTINUOUS
 10
-83.7871726883
 20
25.8473817403
 11
-83.8371726883
 21
25.846508987
  0
LINE
  5
32E
100
AcDbEntity
  8
RACCORDO
100
AcDbLine
 62
7
  6
CONTINUOUS
 10
-88.2424084102
 20
26.2588892076
 11
-87.8371726883
 21
26.2659626234
  0
LINE
  5
32F
100
AcDbEntity
  8
RACCORDO
100
AcDbLine
 62
253
  6
CONTINUOUS
 10
-88.2424084102
 20
25.558995819
 11
-88.5371726883
 21
25.5589958209
  0
LINE
  5
330
100
AcDbEntity
  8
DRAFT
100
AcDbLine
 62
253
  6
CONTINUOUS
 10
-78.6371726883
 20
26.8929755853
 11
-80.3371726883
 21
26.8937435176
  0
LINE
  5
331
100
AcDbEntity
  8
DRAFT
100
AcDbLine
 62
7
  6
CONTINUOUS
 10
-80.3371726883
 20
27.1459857386
 11
-78.6371726883
 21
27.1430186759
  0
LINE
  5
332
100
AcDbEntity
  8
ASSI
100
AcDbLine
 62
7
  6
CONTINUOUS
 10
-78.6371726883
 20
26.35
 11
-80.3371726883
 21
26.3598903107
  0
LINE
  5
333
100
AcDbEntity
  8
SMUSSO
100
AcDbLine
 62
7
  6
CONTINUOUS
 10
-83.8371726883
 20
-52.5
 11
-84.3371726883
 21
-53.0
  0
LINE
  5
334
100
AcDbEntity
  8
SMUSSO
100
AcDbLine
 62
7
  6
CONTINUOUS
 10
-80.3371726883
 20
-51.95
 11
-81.3285213198
 21
-52.9413486316
  0
LINE
  5
335
100
AcDbEntity
  8
SMUSSO
100
AcDbLine
 62
7
  6
CONTINUOUS
 10
-83.8371726883
 20
52.5
 11
-84.3371726883
 21
53.0
  0
LINE
  5
336
100
AcDbEntity
  8
SMUSSO
100
AcDbLine
 62
7
  6
CONTINUOUS
 10
-80.3371726883
 20
51.95
 11
-81.3285213198
 21
52.9413486316
  0
LINE
  5
337
100
AcDbEntity
  8
SMUSSO
100
AcDbLine
 62
253
  6
CONTINUOUS
 10
-83.2871917267
 20
51.4243126893
 11
-81.3285213198
 21
51.441405747
  0
LINE
  5
338
100
AcDbEntity
  8
SMUSSO
100
AcDbLine
 62
7
  6
CONTINUOUS
 10
-83.2871917267
 20
52.9242555739
 11
-81.3285213198
 21
52.9413486316
  0
LINE
  5
339
100
AcDbEntity
  8
SMUSSO
100
AcDbLine
 62
7
  6
CONTINUOUS
 10
-83.7871726883
 20
51.4243126893
 11
-83.2871917267
 21
51.4243126893
  0
LINE
  5
33A
100
AcDbEntity
  8
SMUSSO
100
AcDbLine
 62
7
  6
CONTINUOUS
 10
-80.3371726883
 20
51.441405747
 11
-81.3285213198
 21
51.441405747
  0
LINE
  5
33B
100
AcDbEntity
  8
SMUSSO
100
AcDbLine
 62
253
  6
CONTINUOUS
 10
-83.8371726883
 20
52.0
 11
-87.8371726883
 21
52.0
  0
LINE
  5
33C
100
AcDbEntity
  8
SMUSSO
100
AcDbLine
 62
7
  6
CONTINUOUS
 10
-86.8371726883
 20
53.0
 11
-84.3371726883
 21
53.0
  0
ARC
  5
33D
100
AcDbEntity
  8
SMUSSO
100
AcDbCircle
 62
7
  6
CONTINUOUS
 10
-58.0
 20
52.0
 40
1.0
100
AcDbArc
 50
90.0
 51
180.0
  0
ARC
  5
33E
100
AcDbEntity
  8
SMUSSO
100
AcDbCircle
 62
7
  6
CONTINUOUS
 10
-58.0
 20
-52.0
 40
1.0
100
AcDbArc
 50
180.0
 51
270.0
  0
ARC
  5
33F
100
AcDbEntity
  8
SMUSSO
100
AcDbCircle
 62
7
  6
CONTINUOUS
 10
58.0
 20
-52.0
 40
1.0
100
AcDbArc
 50
270.0
 51
360.0
  0
ARC
  5
340
100
AcDbEntity
  8
SMUSSO
100
AcDbCircle
 62
7
  6
CONTINUOUS
 10
58.0
 20
52.0
 40
1.0
100
AcDbArc
 50
0.0
 51
90.0
  0
ARC
  5
341
100
AcDbEntity
  8
RACCORDO
100
AcDbCircle
 62
253
  6
CONTINUOUS
 10
-33.1447092684
 20
22.298939518
 40
0.762124051
100
AcDbArc
 50
178.9034415006
 51
179.9684694152
  0
ARC
  5
342
100
AcDbEntity
  8
RACCORDO
100
AcDbCircle
 62
253
  6
CONTINUOUS
 10
33.1448840291
 20
-22.2989412394
 40
0.7619492893
100
AcDbArc
 50
358.903319219
 51
359.9685916314
  0
ARC
  5
343
100
AcDbEntity
  8
RACCORDO
100
AcDbCircle
 62
253
  6
CONTINUOUS
 10
33.5986901731
 20
-21.8672115583
 40
0.7614057205
100
AcDbArc
 50
269.9921177662
 51
272.1722796549
  0
ARC
  5
344
100
AcDbEntity
  8
RACCORDO
100
AcDbCircle
 62
253
  6
CONTINUOUS
 10
-33.5988216821
 20
21.8795981278
 40
0.749019181
100
AcDbArc
 50
89.9819277148
 51
92.1681724085
  0
ARC
  5
345
100
AcDbEntity
  8
RACCORDO
100
AcDbCircle
 62
253
  6
CONTINUOUS
 10
-33.5988307877
 20
-21.8800998946
 40
0.7485174172
100
AcDbArc
 50
267.8310770718
 51
270.0187813911
  0
ARC
  5
346
100
AcDbEntity
  8
RACCORDO
100
AcDbCircle
 62
253
  6
CONTINUOUS
 10
33.5988520404
 20
21.8824470766
 40
0.7461702427
100
AcDbArc
 50
87.8327680684
 51
90.0204723908
  0
ARC
  5
347
100
AcDbEntity
  8
RACCORDO
100
AcDbCircle
 62
253
  6
CONTINUOUS
 10
-33.1820501502
 20
-22.2993071297
 40
0.7247830556
100
AcDbArc
 50
180.0040944871
 51
181.1239945969
  0
ARC
  5
348
100
AcDbEntity
  8
RACCORDO
100
AcDbCircle
 62
253
  6
CONTINUOUS
 10
33.1820501502
 20
22.2993071297
 40
0.7247830557
100
AcDbArc
 50
0.0040944872
 51
1.1239945969
  0
ARC
  5
349
100
AcDbEntity
  8
RACCORDO
100
AcDbCircle
 62
253
  6
CONTINUOUS
 10
36.458903789
 20
25.558903789
 40
0.6999862456
100
AcDbArc
 50
0.0075330706
 51
89.9924669294
  0
ARC
  5
34A
100
AcDbEntity
  8
RACCORDO
100
AcDbCircle
 62
253
  6
CONTINUOUS
 10
36.458903789
 20
-25.558903789
 40
0.6999862456
100
AcDbArc
 50
270.0075330706
 51
359.9924669294
  0
ARC
  5
34B
100
AcDbEntity
  8
RACCORDO
100
AcDbCircle
 62
253
  6
CONTINUOUS
 10
-36.458903789
 20
-25.558903789
 40
0.6999862456
100
AcDbArc
 50
180.0075330706
 51
269.9924669294
  0
ARC
  5
34C
100
AcDbEntity
  8
RACCORDO
100
AcDbCircle
 62
253
  6
CONTINUOUS
 10
-36.458903789
 20
25.558903789
 40
0.6999862456
100
AcDbArc
 50
90.0075330702
 51
179.9924669298
  0
ARC
  5
34D
100
AcDbEntity
  8
RACCORDO
100
AcDbCircle
 62
253
  6
CONTINUOUS
 10
36.4590169733
 20
25.5590165289
 40
0.399917083
100
AcDbArc
 50
359.9970331884
 51
90.0030304738
  0
ARC
  5
34E
100
AcDbEntity
  8
RACCORDO
100
AcDbCircle
 62
253
  6
CONTINUOUS
 10
33.5987522054
 20
-22.3367919857
 40
0.2617478018
100
AcDbArc
 50
269.9634924808
 51
272.2999240171
  0
ARC
  5
34F
100
AcDbEntity
  8
RACCORDO
100
AcDbCircle
 62
253
  6
CONTINUOUS
 10
33.5987555291
 20
22.3369602376
 40
0.2615795521
100
AcDbArc
 50
87.6993244745
 51
90.0372590274
  0
ARC
  5
350
100
AcDbEntity
  8
RACCORDO
100
AcDbCircle
 62
253
  6
CONTINUOUS
 10
-33.5987555291
 20
-22.3369602375
 40
0.2615795522
100
AcDbArc
 50
267.6993244746
 51
270.0372590273
  0
ARC
  5
351
100
AcDbEntity
  8
RACCORDO
100
AcDbCircle
 62
253
  6
CONTINUOUS
 10
-33.5987557209
 20
22.3369699455
 40
0.2615698443
100
AcDbArc
 50
89.9626975819
 51
92.3007189164
  0
ARC
  5
352
100
AcDbEntity
  8
RACCORDO
100
AcDbCircle
 62
253
  6
CONTINUOUS
 10
-33.6660713512
 20
22.2994518368
 40
0.2332419002
100
AcDbArc
 50
178.7192592685
 51
180.0228239042
  0
ARC
  5
353
100
AcDbEntity
  8
RACCORDO
100
AcDbCircle
 62
253
  6
CONTINUOUS
 10
33.6661139667
 20
-22.2994523046
 40
0.2331992849
100
AcDbArc
 50
358.7191401554
 51
0.0229430174
  0
ARC
  5
354
100
AcDbEntity
  8
RACCORDO
100
AcDbCircle
 62
253
  6
CONTINUOUS
 10
33.6681414153
 20
22.2994745616
 40
0.2311718466
100
AcDbArc
 50
359.9713393843
 51
1.2865774429
  0
ARC
  5
355
100
AcDbEntity
  8
RACCORDO
100
AcDbCircle
 62
253
  6
CONTINUOUS
 10
-33.6681414153
 20
-22.2994745616
 40
0.2311718466
100
AcDbArc
 50
179.9713393843
 51
181.2865774428
  0
ARC
  5
356
100
AcDbEntity
  8
RACCORDO
100
AcDbCircle
 62
7
  6
CONTINUOUS
 10
-88.2371726883
 20
25.958934899
 40
0.3
100
AcDbArc
 50
91.0
 51
180.0
  0
ARC
  5
357
100
AcDbEntity
  8
RACCORDO
100
AcDbCircle
 62
7
  6
CONTINUOUS
 10
-88.2371726883
 20
-25.958934899
 40
0.3
100
AcDbArc
 50
180.0
 51
269.0
  0
ARC
  5
358
100
AcDbEntity
  8
RACCORDO
100
AcDbCircle
 62
7
  6
CONTINUOUS
 10
-79.4371726883
 20
3.1179154964
 40
0.3
100
AcDbArc
 50
0.0
 51
89.0
  0
ARC
  5
359
100
AcDbEntity
  8
RACCORDO
100
AcDbCircle
 62
7
  6
CONTINUOUS
 10
-79.4371726883
 20
-3.1179154964
 40
0.3
100
AcDbArc
 50
271.0
 51
360.0
  0
ARC
  5
35A
100
AcDbEntity
  8
ASSI
100
AcDbCircle
 62
7
  6
CONTINUOUS
 10
-78.8371726883
 20
-25.4
 40
0.2
100
AcDbArc
 50
0.0
 51
90.0
  0
ARC
  5
35B
100
AcDbEntity
  8
ASSI
100
AcDbCircle
 62
7
  6
CONTINUOUS
 10
-78.8371726883
 20
25.4
 40
0.2
100
AcDbArc
 50
270.0
 51
360.0
  0
SPLINE
  5
35C
100
AcDbEntity
  8
0
100
AcDbSpline
 62
7
  6
CONTINUOUS
 70
0
 71
3
 72
9
 73
5
 74
3
 42
0.0000001
 43
0.0000001
 44
0.0000000001
 12
0.384402302
 22
-0.0446290201
 32
0.0
 13
0.0060518841
 23
-0.3869370154
 33
0.0
 40
0.0
 40
0.0
 40
0.0
 40
0.0
 40
0.5013510385
 40
1.0
 40
1.0
 40
1.0
 40
1.0
 10
3.2708955903
 20
-24.0607157749
 30
0.0
 10
3.3351357547
 20
-24.0681740434
 30
0.0
 10
3.4650689916
 20
-24.1247468423
 30
0.0
 10
3.5174853189
 20
-24.2588922282
 30
0.0
 10
3.5184912408
 20
-24.3232074751
 30
0.0
 11
3.2708955903
 21
-24.0607157749
 31
0.0
 11
3.445935984
 21
-24.1443977982
 31
0.0
 11
3.5184912408
 21
-24.3232074751
 31
0.0
  0
SPLINE
  5
35D
100
AcDbEntity
  8
0
100
AcDbSpline
 62
7
  6
CONTINUOUS
 70
0
 71
3
 72
9
 73
5
 74
3
 42
0.0000001
 43
0.0000001
 44
0.0000000001
 12
0.0080713833
 22
-0.5230864262
 32
0.0
 13
-0.5230182478
 23
-0.0116819936
 33
0.0
 40
0.0
 40
0.0
 40
0.0
 40
0.0
 40
0.5206208722
 40
1.0
 40
1.0
 40
1.0
 40
1.0
 10
3.5184912408
 20
-24.3232074751
 30
0.0
 10
3.519891951
 20
-24.4139840456
 30
0.0
 10
3.4557627102
 20
-24.6122845708
 30
0.0
 10
3.2615825326
 20
-24.6476524418
 30
0.0
 10
3.1780078554
 20
-24.6495191431
 30
0.0
 11
3.5184912408
 21
-24.3232074751
 31
0.0
 11
3.4178681102
 21
-24.5763005711
 31
0.0
 11
3.1780078554
 21
-24.6495191431
 31
0.0
  0
SPLINE
  5
35E
100
AcDbEntity
  8
0
100
AcDbSpline
 62
7
  6
CONTINUOUS
 70
0
 71
3
 72
9
 73
5
 74
3
 42
0.0000001
 43
0.0000001
 44
0.0000000001
 12
0.3394200167
 22
0.0579167448
 32
0.0
 13
0.3420295105
 23
-0.0397002646
 33
0.0
 40
0.0
 40
0.0
 40
0.0
 40
0.0
 40
0.2703953699
 40
1.0
 40
1.0
 40
1.0
 40
1.0
 10
2.927514876
 20
-24.0730766618
 30
0.0
 10
2.9581074096
 20
-24.0678565219
 30
0.0
 10
3.0716013975
 20
-24.0506878979
 30
0.0
 10
3.1877134854
 20
-24.0510606092
 30
0.0
 10
3.2708955903
 20
-24.0607157749
 30
0.0
 11
2.927514876
 21
-24.0730766618
 31
0.0
 11
3.0196753261
 21
-24.0598544002
 31
0.0
 11
3.2708955903
 21
-24.0607157749
 31
0.0
  0
SPLINE
  5
35F
100
AcDbEntity
  8
0
100
AcDbSpline
 62
7
  6
CONTINUOUS
 70
0
 71
3
 72
9
 73
5
 74
3
 42
0.0000001
 43
0.0000001
 44
0.0000000001
 12
0.3219543356
 22
0.0
 32
0.0
 13
0.1131217834
 23
-0.3014267015
 33
0.0
 40
0.0
 40
0.0
 40
0.0
 40
0.0
 40
0.3559141631
 40
1.0
 40
1.0
 40
1.0
 40
1.0
 10
3.1770630743
 20
-24.993419487
 30
0.0
 10
3.2152591102
 20
-24.993419487
 30
0.0
 10
3.3251388628
 20
-25.0165483985
 30
0.0
 10
3.3973172195
 20
-25.113724242
 30
0.0
 10
3.4216039324
 20
-25.1784391318
 30
0.0
 11
3.1770630743
 21
-24.993419487
 31
0.0
 11
3.2886988103
 21
-25.0192631885
 31
0.0
 11
3.4216039324
 21
-25.1784391318
 31
0.0
  0
SPLINE
  5
360
100
AcDbEntity
  8
0
100
AcDbSpline
 62
7
  6
CONTINUOUS
 70
0
 71
3
 72
9
 73
5
 74
3
 42
0.0000001
 43
0.0000001
 44
0.0000000001
 12
0.2338635552
 22
-0.622497147
 32
0.0
 13
0.1837405462
 23
-0.6390886262
 33
0.0
 40
0.0
 40
0.0
 40
0.0
 40
0.0
 40
0.5586214172
 40
1.0
 40
1.0
 40
1.0
 40
1.0
 10
3.4216039324
 20
-25.1784391318
 30
0.0
 10
3.4651509959
 20
-25.2943525446
 30
0.0
 10
3.522419256
 20
-25.5089914658
 30
0.0
 10
3.5862354907
 20
-25.7211477203
 30
0.0
 10
3.613268538
 20
-25.8151743977
 30
0.0
 11
3.4216039324
 21
-25.1784391318
 31
0.0
 11
3.5311768963
 21
-25.5333816056
 31
0.0
 11
3.613268538
 21
-25.8151743977
 31
0.0
  0
SPLINE
  5
361
100
AcDbEntity
  8
0
100
AcDbSpline
 62
7
  6
CONTINUOUS
 70
0
 71
3
 72
9
 73
5
 74
3
 42
0.0000001
 43
0.0000001
 44
0.0000000001
 12
-0.1540517408
 22
0.5672067283
 32
0.0
 13
-0.1544993035
 23
0.5670849819
 33
0.0
 40
0.0
 40
0.0
 40
0.0
 40
0.0
 40
0.1980141723
 40
1.0
 40
1.0
 40
1.0
 40
1.0
 10
4.0348771327
 20
-25.8151743977
 30
0.0
 10
4.0247089901
 20
-25.7777360741
 30
0.0
 10
3.974940488
 20
-25.5882421876
 30
0.0
 10
3.926336924
 20
-25.3984393276
 30
0.0
 10
3.88503484
 20
-25.2468412881
 30
0.0
 11
4.0348771327
 21
-25.8151743977
 31
0.0
 11
4.0050449294
 21
-25.7026790092
 31
0.0
 11
3.88503484
 21
-25.2468412881
 31
0.0
  0
SPLINE
  5
362
100
AcDbEntity
  8
0
100
AcDbSpline
 62
7
  6
CONTINUOUS
 70
0
 71
3
 72
9
 73
5
 74
3
 42
0.0000001
 43
0.0000001
 44
0.0000000001
 12
-0.1285164
 22
0.4717407948
 32
0.0
 13
-0.4541587339
 23
0.1810957951
 33
0.0
 40
0.0
 40
0.0
 40
0.0
 40
0.0
 40
0.2426586216
 40
1.0
 40
1.0
 40
1.0
 40
1.0
 10
3.88503484
 20
-25.2468412881
 30
0.0
 10
3.8746396359
 20
-25.2086839644
 30
0.0
 10
3.8349315603
 20
-25.0545953927
 30
0.0
 10
3.7470356774
 20
-24.8807125451
 30
0.0
 10
3.6323846102
 20
-24.834995432
 30
0.0
 11
3.88503484
 21
-25.2468412881
 31
0.0
 11
3.8525311695
 21
-25.1327365731
 31
0.0
 11
3.6323846102
 21
-24.834995432
 31
0.0
  0
SPLINE
  5
363
100
AcDbEntity
  8
0
100
AcDbSpline
 62
7
  6
CONTINUOUS
 70
0
 71
3
 72
17
 73
13
 74
11
 42
0.0000001
 43
0.0000001
 44
0.0000000001
 12
1.2974582446
 22
0.167413967
 32
0.0
 13
-1.2305868136
 23
0.4439385397
 33
0.0
 40
0.0
 40
0.0
 40
0.0
 40
0.0
 40
0.0559780952
 40
0.1687540387
 40
0.321006234
 40
0.4122750837
 40
0.516613223
 40
0.6013931059
 40
0.6776022439
 40
0.8103422694
 40
0.9200404832
 40
1.0
 40
1.0
 40
1.0
 40
1.0
 10
3.6323846102
 20
-24.8225873061
 30
0.0
 10
3.6565943573
 20
-24.8194634678
 30
0.0
 10
3.7181324038
 20
-24.7709973091
 30
0.0
 10
3.8201860891
 20
-24.6786072901
 30
0.0
 10
3.8953301556
 20
-24.5363871999
 30
0.0
 10
3.9288051152
 20
-24.3880194545
 30
0.0
 10
3.9319500205
 20
-24.2648773229
 30
0.0
 10
3.9153760191
 20
-24.1498635709
 30
0.0
 10
3.8752063301
 20
-24.0276524871
 30
0.0
 10
3.7997594339
 20
-23.9078829609
 30
0.0
 10
3.693234287
 20
-23.814220045
 30
0.0
 10
3.6199916202
 20
-23.7738240873
 30
0.0
 10
3.5871925779
 20
-23.7619917169
 30
0.0
 11
3.6323846102
 21
-24.8225873061
 31
0.0
 11
3.6965524739
 21
-24.7872982534
 31
0.0
 11
3.8025003321
 21
-24.6846256365
 31
0.0
 11
3.8972761531
 21
-24.5094410653
 31
0.0
 11
3.9239270396
 21
-24.3930541748
 31
0.0
 11
3.9279279049
 21
-24.2566161494
 31
0.0
 11
3.9115237729
 21
-24.1469257029
 31
0.0
 11
3.8801574073
 21
-24.052290492
 31
0.0
 11
3.7874979945
 21
-23.9054252441
 31
0.0
 11
3.6798697052
 21
-23.8104993407
 31
0.0
 11
3.5871925779
 21
-23.7619917169
 31
0.0
  0
SPLINE
  5
364
100
AcDbEntity
  8
0
100
AcDbSpline
 62
7
  6
CONTINUOUS
 70
0
 71
3
 72
9
 73
5
 74
3
 42
0.0000001
 43
0.0000001
 44
0.0000000001
 12
-1.0242753953
 22
0.3700472763
 32
0.0
 13
-1.0774730544
 23
-0.1585146335
 33
0.0
 40
0.0
 40
0.0
 40
0.0
 40
0.0
 40
0.2957417834
 40
1.0
 40
1.0
 40
1.0
 40
1.0
 10
3.5871925779
 20
-23.7619917169
 30
0.0
 10
3.4862189005
 20
-23.7255122365
 30
0.0
 10
3.1232796563
 20
-23.666048509
 30
0.0
 10
2.7584366266
 20
-23.7026720933
 30
0.0
 10
2.505496876
 20
-23.7398838377
 30
0.0
 11
3.5871925779
 21
-23.7619917169
 31
0.0
 11
3.2713797906
 21
-23.6987445228
 31
0.0
 11
2.505496876
 21
-23.7398838377
 31
0.0
  0
SPLINE
  5
365
100
AcDbEntity
  8
RACCORDO
100
AcDbSpline
 62
253
  6
CONTINUOUS
 70
0
 71
3
 72
11
 73
7
 74
5
 42
0.0000001
 43
0.0000001
 44
0.0000000001
 12
0.4755835743
 22
0.0253964276
 32
0.0
 13
-0.0235522325
 23
-0.4756784702
 33
0.0
 40
0.0
 40
0.0
 40
0.0
 40
0.0
 40
0.2521798355
 40
0.5045373251
 40
0.7538905763
 40
1.0
 40
1.0
 40
1.0
 40
1.0
 10
33.9489661606
 20
23.2924924617
 30
0.0
 10
33.9889436897
 20
23.2946272841
 30
0.0
 10
34.0715919341
 20
23.2806372752
 30
0.0
 10
34.1686838153
 20
23.2026387236
 30
0.0
 10
34.2210357091
 20
23.0926074343
 30
0.0
 10
34.2285063802
 20
23.012838093
 30
0.0
 10
34.2265742381
 20
22.9738151083
 30
0.0
 11
33.9489661606
 21
23.2924924617
 31
0.0
 11
34.0671484403
 21
23.2710963987
 31
0.0
 11
34.1616093015
 21
23.1967840886
 31
0.0
 11
34.2143697452
 21
23.0903903584
 31
0.0
 11
34.2265742381
 21
22.9738151083
 31
0.0
  0
SPLINE
  5
366
100
AcDbEntity
  8
RACCORDO
100
AcDbSpline
 62
253
  6
CONTINUOUS
 70
0
 71
3
 72
11
 73
7
 74
5
 42
0.0000001
 43
0.0000001
 44
0.0000000001
 12
0.0178578647
 22
0.4675377642
 32
0.0
 13
-0.4678698155
 23
0.0028809765
 33
0.0
 40
0.0
 40
0.0
 40
0.0
 40
0.0
 40
0.248264564
 40
0.4983296984
 40
0.7489791953
 40
1.0
 40
1.0
 40
1.0
 40
1.0
 10
33.9066937466
 20
22.3135245816
 30
0.0
 10
33.9081715716
 20
22.3522156013
 30
0.0
 10
33.8981345768
 20
22.4311222415
 30
0.0
 10
33.8410977594
 20
22.5364735922
 30
0.0
 10
33.7455059847
 20
22.6104812258
 30
0.0
 10
33.6662178009
 20
22.6278425275
 30
0.0
 10
33.6270694484
 20
22.6280835891
 30
0.0
 11
33.9066937466
 21
22.3135245816
 31
0.0
 11
33.8912431336
 21
22.4286501188
 31
0.0
 11
33.8347719523
 21
22.5311198213
 31
0.0
 11
33.7416851688
 21
22.6024496043
 31
0.0
 11
33.6270694484
 21
22.6280835891
 31
0.0
  0
SPLINE
  5
367
100
AcDbEntity
  8
RACCORDO
100
AcDbSpline
 62
253
  6
CONTINUOUS
 70
0
 71
3
 72
11
 73
7
 74
5
 42
0.0000001
 43
0.0000001
 44
0.0000000001
 12
-0.0102833244
 22
0.451555278
 32
0.0
 13
-0.4513129133
 23
0.0180158314
 33
0.0
 40
0.0
 40
0.0
 40
0.0
 40
0.0
 40
0.2443048421
 40
0.4935131566
 40
0.7479876799
 40
1.0
 40
1.0
 40
1.0
 40
1.0
 10
33.8992549827
 20
22.3046650921
 30
0.0
 10
33.8984175607
 20
22.3414374724
 30
0.0
 10
33.8825292886
 20
22.416105607
 30
0.0
 10
33.818949713
 20
22.5121635606
 30
0.0
 10
33.7235256939
 20
22.578939808
 30
0.0
 10
33.6471684051
 20
22.5968155323
 30
0.0
 10
33.609256267
 20
22.5983289361
 30
0.0
 11
33.8992549827
 21
22.3046650921
 31
0.0
 11
33.8763007875
 21
22.4125969594
 31
0.0
 11
33.81430841
 21
22.506548078
 31
0.0
 11
33.7200841682
 21
22.5723720144
 31
0.0
 11
33.609256267
 21
22.5983289361
 31
0.0
  0
SPLINE
  5
368
100
AcDbEntity
  8
RACCORDO
100
AcDbSpline
 62
253
  6
CONTINUOUS
 70
0
 71
3
 72
11
 73
7
 74
5
 42
0.0000001
 43
0.0000001
 44
0.0000000001
 12
-0.0000498599
 22
-0.6210287283
 32
0.0
 13
-0.6210287252
 23
-0.0000791702
 33
0.0
 40
0.0
 40
0.0
 40
0.0
 40
0.0
 40
0.2500058224
 40
0.5000008131
 40
0.7499857999
 40
1.0
 40
1.0
 40
1.0
 40
1.0
 10
36.858934899
 20
-25.5589958209
 30
0.0
 10
36.8589307439
 20
-25.6107494203
 30
0.0
 10
36.8383418135
 20
-25.7153585835
 30
0.0
 10
36.7502220972
 20
-25.8479314943
 30
0.0
 10
36.618422726
 20
-25.9368426496
 30
0.0
 10
36.5139802891
 20
-25.9589283011
 30
0.0
 10
36.4622249558
 20
-25.958934899
 30
0.0
 11
36.858934899
 21
-25.5589958209
 31
0.0
 11
36.8288012654
 21
-25.7113043225
 31
0.0
 11
36.742941087
 21
-25.8406560003
 31
0.0
 11
36.6142844315
 21
-25.9275430688
 31
0.0
 11
36.4622249558
 21
-25.958934899
 31
0.0
  0
SPLINE
  5
369
100
AcDbEntity
  8
RACCORDO
100
AcDbSpline
 62
253
  6
CONTINUOUS
 70
0
 71
3
 72
11
 73
7
 74
5
 42
0.0000001
 43
0.0000001
 44
0.0000000001
 12
0.0235520574
 22
-0.4756824404
 32
0.0
 13
-0.475577258
 23
0.0255881837
 33
0.0
 40
0.0
 40
0.0
 40
0.0
 40
0.0
 40
0.2461027747
 40
0.4954547095
 40
0.7478140161
 40
1.0
 40
1.0
 40
1.0
 40
1.0
 10
34.2265756771
 20
-22.9738491598
 30
0.0
 10
34.2285077526
 20
-23.012871416
 30
0.0
 10
34.221028741
 20
-23.0926385844
 30
0.0
 10
34.1686729873
 20
-23.2026724613
 30
0.0
 10
34.0715589642
 20
-23.2806399955
 30
0.0
 10
33.9889091462
 20
-23.2946426375
 30
0.0
 10
33.9489311733
 20
-23.2924916438
 30
0.0
 11
34.2265756771
 21
-22.9738491598
 31
0.0
 11
34.214364554
 21
-23.0904215107
 31
0.0
 11
34.1615960063
 21
-23.1968116232
 31
0.0
 11
34.067119526
 21
-23.2711070904
 31
0.0
 11
33.9489311733
 21
-23.2924916438
 31
0.0
  0
SPLINE
  5
36A
100
AcDbEntity
  8
RACCORDO
100
AcDbSpline
 62
253
  6
CONTINUOUS
 70
0
 71
3
 72
11
 73
7
 74
5
 42
0.0000001
 43
0.0000001
 44
0.0000000001
 12
0.4673919207
 22
0.0034394368
 32
0.0
 13
-0.0177914602
 23
0.4670658425
 33
0.0
 40
0.0
 40
0.0
 40
0.0
 40
0.0
 40
0.2509787779
 40
0.5016243959
 40
0.7517150146
 40
1.0
 40
1.0
 40
1.0
 40
1.0
 10
33.6275516018
 20
-22.6280714847
 30
0.0
 10
33.6666534195
 20
-22.6277837429
 30
0.0
 10
33.7458256331
 20
-22.6103090943
 30
0.0
 10
33.8412290157
 20
-22.5362862343
 30
0.0
 10
33.898155877
 20
-22.4310113263
 30
0.0
 10
33.9081661975
 20
-22.35217973
 30
0.0
 10
33.9066937467
 20
-22.3135245847
 30
0.0
 11
33.6275516018
 21
-22.6280714847
 31
0.0
 11
33.7419958379
 21
-22.6023065606
 31
0.0
 11
33.8349118673
 21
-22.5309524052
 31
0.0
 11
33.891275771
 21
-22.4285453713
 31
0.0
 11
33.9066937467
 21
-22.3135245847
 31
0.0
  0
SPLINE
  5
36B
100
AcDbEntity
  8
RACCORDO
100
AcDbSpline
 62
253
  6
CONTINUOUS
 70
0
 71
3
 72
11
 73
7
 74
5
 42
0.0000001
 43
0.0000001
 44
0.0000000001
 12
0.4513116549
 22
0.0180560521
 32
0.0
 13
0.0103014999
 23
0.4515552125
 33
0.0
 40
0.0
 40
0.0
 40
0.0
 40
0.0
 40
0.2519716565
 40
0.5064401807
 40
0.7556742176
 40
1.0
 40
1.0
 40
1.0
 40
1.0
 10
33.609256267
 20
-22.5983289361
 30
0.0
 10
33.6471621821
 20
-22.5968123984
 30
0.0
 10
33.7235131606
 20
-22.5789475449
 30
0.0
 10
33.8189372962
 20
-22.5121753287
 30
0.0
 10
33.8825274731
 20
-22.416116341
 30
0.0
 10
33.8984160087
 20
-22.341440619
 30
0.0
 10
33.8992549827
 20
-22.3046650921
 30
0.0
 11
33.609256267
 21
-22.5983289361
 31
0.0
 11
33.720067392
 21
-22.5723805421
 31
0.0
 11
33.814293223
 21
-22.5065634574
 31
0.0
 11
33.8762971639
 21
-22.4126059455
 31
0.0
 11
33.8992549827
 21
-22.3046650921
 31
0.0
  0
SPLINE
  5
36C
100
AcDbEntity
  8
RACCORDO
100
AcDbSpline
 62
253
  6
CONTINUOUS
 70
0
 71
3
 72
11
 73
7
 74
5
 42
0.0000001
 43
0.0000001
 44
0.0000000001
 12
-0.4513129119
 22
-0.0180158422
 32
0.0
 13
-0.0102822662
 23
-0.4515553012
 33
0.0
 40
0.0
 40
0.0
 40
0.0
 40
0.0
 40
0.252012311
 40
0.5064868392
 40
0.7556951895
 40
1.0
 40
1.0
 40
1.0
 40
1.0
 10
-33.609256267
 20
22.5983289361
 30
0.0
 10
-33.6471684036
 20
22.5968155315
 30
0.0
 10
-33.7235256874
 20
22.578939807
 30
0.0
 10
-33.8189497286
 20
22.5121635614
 30
0.0
 10
-33.8825292462
 20
22.4161056003
 30
0.0
 10
-33.898417647
 20
22.3414374695
 30
0.0
 10
-33.8992549827
 20
22.3046650921
 30
0.0
 11
-33.609256267
 21
22.5983289361
 31
0.0
 11
-33.7200841639
 21
22.5723720151
 31
0.0
 11
-33.8143084089
 21
22.5065480799
 31
0.0
 11
-33.8763007912
 21
22.4125969454
 31
0.0
 11
-33.8992549827
 21
22.3046650921
 31
0.0
  0
SPLINE
  5
36D
100
AcDbEntity
  8
RACCORDO
100
AcDbSpline
 62
253
  6
CONTINUOUS
 70
0
 71
3
 72
11
 73
7
 74
5
 42
0.0000001
 43
0.0000001
 44
0.0000000001
 12
-0.6210287285
 22
0.0000498599
 32
0.0
 13
-0.0000791702
 23
0.6210287255
 33
0.0
 40
0.0
 40
0.0
 40
0.0
 40
0.0
 40
0.2500058224
 40
0.5000008131
 40
0.7499857999
 40
1.0
 40
1.0
 40
1.0
 40
1.0
 10
-36.4589958209
 20
-25.958934899
 30
0.0
 10
-36.5107494203
 20
-25.9589307439
 30
0.0
 10
-36.6153585836
 20
-25.9383418135
 30
0.0
 10
-36.7479314944
 20
-25.8502220971
 30
0.0
 10
-36.8368426497
 20
-25.7184227258
 30
0.0
 10
-36.8589283011
 20
-25.6139802889
 30
0.0
 10
-36.858934899
 20
-25.5622249555
 30
0.0
 11
-36.4589958209
 21
-25.958934899
 31
0.0
 11
-36.6113043226
 21
-25.9288012654
 31
0.0
 11
-36.7406560004
 21
-25.8429410869
 31
0.0
 11
-36.8275430689
 21
-25.7142844313
 31
0.0
 11
-36.858934899
 21
-25.5622249555
 31
0.0
  0
SPLINE
  5
36E
100
AcDbEntity
  8
RACCORDO
100
AcDbSpline
 62
253
  6
CONTINUOUS
 70
0
 71
3
 72
11
 73
7
 74
5
 42
0.0000001
 43
0.0000001
 44
0.0000000001
 12
-0.0235522706
 22
0.4756769822
 32
0.0
 13
0.4755818013
 23
-0.0254017937
 33
0.0
 40
0.0
 40
0.0
 40
0.0
 40
0.0
 40
0.2461093201
 40
0.4954623483
 40
0.7478197494
 40
1.0
 40
1.0
 40
1.0
 40
1.0
 10
-34.2265742346
 20
22.9738150267
 30
0.0
 10
-34.228506379
 20
23.0128378729
 30
0.0
 10
-34.2210358134
 20
23.0926068879
 30
0.0
 10
-34.1686843698
 20
23.2026379616
 30
0.0
 10
-34.0715932291
 20
23.2806363516
 30
0.0
 10
-33.9889452068
 20
23.2946277756
 30
0.0
 10
-33.9489677609
 20
23.2924924987
 30
0.0
 11
-34.2265742346
 21
22.9738150267
 31
0.0
 11
-34.2143698923
 21
23.0903898756
 31
0.0
 11
-34.1616099264
 21
23.1967833111
 31
0.0
 11
-34.067149749
 21
23.2710958166
 31
0.0
 11
-33.9489677609
 21
23.2924924987
 31
0.0
  0
SPLINE
  5
36F
100
AcDbEntity
  8
RACCORDO
100
AcDbSpline
 62
253
  6
CONTINUOUS
 70
0
 71
3
 72
11
 73
7
 74
5
 42
0.0000001
 43
0.0000001
 44
0.0000000001
 12
-0.4677809643
 22
-0.002952128
 32
0.0
 13
0.0178568884
 23
-0.4674493311
 33
0.0
 40
0.0
 40
0.0
 40
0.0
 40
0.0
 40
0.2510201028
 40
0.5016697327
 40
0.7517352369
 40
1.0
 40
1.0
 40
1.0
 40
1.0
 10
-33.6271592462
 20
22.6280813396
 30
0.0
 10
-33.6663000547
 20
22.6278343251
 30
0.0
 10
-33.7455675027
 20
22.610445885
 30
0.0
 10
-33.8411247787
 20
22.5364369489
 30
0.0
 10
-33.8981387177
 20
22.431099564
 30
0.0
 10
-33.908171492
 20
22.3522083141
 30
0.0
 10
-33.9066937466
 20
22.3135245816
 30
0.0
 11
-33.6271592462
 21
22.6280813396
 31
0.0
 11
-33.741745966
 21
22.6024208867
 31
0.0
 11
-33.8348008266
 21
22.5310857768
 31
0.0
 11
-33.8912499959
 21
22.4286289889
 31
0.0
 11
-33.9066937466
 21
22.3135245816
 31
0.0
  0
SPLINE
  5
370
100
AcDbEntity
  8
RACCORDO
100
AcDbSpline
 62
253
  6
CONTINUOUS
 70
0
 71
3
 72
11
 73
7
 74
5
 42
0.0000001
 43
0.0000001
 44
0.0000000001
 12
-0.4755835743
 22
-0.0253964276
 32
0.0
 13
0.0235522325
 23
0.4756784702
 33
0.0
 40
0.0
 40
0.0
 40
0.0
 40
0.0
 40
0.2521798355
 40
0.5045373251
 40
0.7538905763
 40
1.0
 40
1.0
 40
1.0
 40
1.0
 10
-33.9489661606
 20
-23.2924924617
 30
0.0
 10
-33.9889436897
 20
-23.2946272841
 30
0.0
 10
-34.0715919341
 20
-23.2806372752
 30
0.0
 10
-34.1686838153
 20
-23.2026387236
 30
0.0
 10
-34.2210357091
 20
-23.0926074343
 30
0.0
 10
-34.2285063802
 20
-23.012838093
 30
0.0
 10
-34.2265742381
 20
-22.9738151083
 30
0.0
 11
-33.9489661606
 21
-23.2924924617
 31
0.0
 11
-34.0671484403
 21
-23.2710963987
 31
0.0
 11
-34.1616093015
 21
-23.1967840886
 31
0.0
 11
-34.2143697452
 21
-23.0903903584
 31
0.0
 11
-34.2265742381
 21
-22.9738151083
 31
0.0
  0
SPLINE
  5
371
100
AcDbEntity
  8
RACCORDO
100
AcDbSpline
 62
253
  6
CONTINUOUS
 70
0
 71
3
 72
11
 73
7
 74
5
 42
0.0000001
 43
0.0000001
 44
0.0000000001
 12
-0.0178544923
 22
-0.467449473
 32
0.0
 13
0.4677810192
 23
-0.0029514106
 33
0.0
 40
0.0
 40
0.0
 40
0.0
 40
0.0
 40
0.2482647383
 40
0.4983301807
 40
0.7489798611
 40
1.0
 40
1.0
 40
1.0
 40
1.0
 10
-33.9066937466
 20
-22.3135245816
 30
0.0
 10
-33.9081712936
 20
-22.3522083219
 30
0.0
 10
-33.8981386878
 20
-22.4310995262
 30
0.0
 10
-33.8411247808
 20
-22.5364370009
 30
0.0
 10
-33.7455674584
 20
-22.6104458704
 30
0.0
 10
-33.6662999905
 20
-22.627834387
 30
0.0
 10
-33.6271591717
 20
-22.6280813415
 30
0.0
 11
-33.9066937466
 21
-22.3135245816
 31
0.0
 11
-33.8912499283
 21
-22.4286289807
 31
0.0
 11
-33.8348008282
 21
-22.5310857881
 31
0.0
 11
-33.7417459247
 21
-22.6024209016
 31
0.0
 11
-33.6271591717
 21
-22.6280813415
 31
0.0
  0
SPLINE
  5
372
100
AcDbEntity
  8
RACCORDO
100
AcDbSpline
 62
253
  6
CONTINUOUS
 70
0
 71
3
 72
11
 73
7
 74
5
 42
0.0000001
 43
0.0000001
 44
0.0000000001
 12
0.0102833244
 22
-0.451555278
 32
0.0
 13
0.4513129133
 23
-0.0180158314
 33
0.0
 40
0.0
 40
0.0
 40
0.0
 40
0.0
 40
0.2443048421
 40
0.4935131566
 40
0.7479876799
 40
1.0
 40
1.0
 40
1.0
 40
1.0
 10
-33.8992549827
 20
-22.3046650921
 30
0.0
 10
-33.8984175607
 20
-22.3414374724
 30
0.0
 10
-33.8825292886
 20
-22.416105607
 30
0.0
 10
-33.818949713
 20
-22.5121635606
 30
0.0
 10
-33.7235256939
 20
-22.578939808
 30
0.0
 10
-33.6471684051
 20
-22.5968155323
 30
0.0
 10
-33.609256267
 20
-22.5983289361
 30
0.0
 11
-33.8992549827
 21
-22.3046650921
 31
0.0
 11
-33.8763007875
 21
-22.4125969594
 31
0.0
 11
-33.81430841
 21
-22.506548078
 31
0.0
 11
-33.7200841682
 21
-22.5723720144
 31
0.0
 11
-33.609256267
 21
-22.5983289361
 31
0.0
  0
SPLINE
  5
373
100
AcDbEntity
  8
RACCORDO
100
AcDbSpline
 62
253
  6
CONTINUOUS
 70
0
 71
3
 72
11
 73
7
 74
5
 42
0.0000001
 43
0.0000001
 44
0.0000000001
 12
0.0001521721
 22
-0.9183595229
 32
0.0
 13
-0.91835953
 23
-0.0001004308
 33
0.0
 40
0.0
 40
0.0
 40
0.0
 40
0.0
 40
0.2502628301
 40
0.5002653481
 40
0.750100989
 40
1.0
 40
1.0
 40
1.0
 40
1.0
 10
34.5220165488
 20
-22.9738147507
 30
0.0
 10
34.5220292432
 20
-23.0504251684
 30
0.0
 10
34.4951731368
 20
-23.2051193651
 30
0.0
 10
34.3726441761
 20
-23.4061172831
 30
0.0
 10
34.1804023552
 20
-23.5430525752
 30
0.0
 10
34.0254440553
 20
-23.5743913876
 30
0.0
 10
33.9489450092
 20
-23.5743997534
 30
0.0
 11
34.5220165488
 21
-22.9738147507
 31
0.0
 11
34.4814293312
 21
-23.2000338573
 31
0.0
 11
34.3609801241
 21
-23.3954937383
 31
0.0
 11
34.1737152555
 21
-23.5280610706
 31
0.0
 11
33.9489450092
 21
-23.5743997534
 31
0.0
  0
SPLINE
  5
374
100
AcDbEntity
  8
RACCORDO
100
AcDbSpline
 62
253
  6
CONTINUOUS
 70
0
 71
3
 72
11
 73
7
 74
5
 42
0.0000001
 43
0.0000001
 44
0.0000000001
 12
0.9183622087
 22
0.0001028505
 32
0.0
 13
-0.0000144938
 23
-0.9183622143
 33
0.0
 40
0.0
 40
0.0
 40
0.0
 40
0.0
 40
0.2498968479
 40
0.4997336887
 40
0.7497357337
 40
1.0
 40
1.0
 40
1.0
 40
1.0
 10
33.9489450092
 20
23.5743997534
 30
0.0
 10
34.0254436163
 20
23.5744083208
 30
0.0
 10
34.1804111098
 20
23.5430773562
 30
0.0
 10
34.3726354406
 20
23.4061171718
 30
0.0
 10
34.4951607769
 20
23.2051180819
 30
0.0
 10
34.5220177579
 20
23.0504258326
 30
0.0
 10
34.5220165488
 20
22.9738147507
 30
0.0
 11
33.9489450092
 21
23.5743997534
 31
0.0
 11
34.1737178441
 21
23.528080154
 31
0.0
 11
34.3609739163
 21
23.3954973314
 31
0.0
 11
34.4814176072
 21
23.2000337747
 31
0.0
 11
34.5220165488
 21
22.9738147507
 31
0.0
  0
SPLINE
  5
375
100
AcDbEntity
  8
RACCORDO
100
AcDbSpline
 62
253
  6
CONTINUOUS
 70
0
 71
3
 72
11
 73
7
 74
5
 42
0.0000001
 43
0.0000001
 44
0.0000000001
 12
-0.0000140595
 22
0.918362124
 32
0.0
 13
0.918362117
 23
-0.0001143741
 33
0.0
 40
0.0
 40
0.0
 40
0.0
 40
0.0
 40
0.2502641847
 40
0.5002660535
 40
0.7501027766
 40
1.0
 40
1.0
 40
1.0
 40
1.0
 10
-34.5220165488
 20
22.9738147507
 30
0.0
 10
-34.5220177217
 20
23.0504258001
 30
0.0
 10
-34.4951608501
 20
23.2051179351
 30
0.0
 10
-34.3726354852
 20
23.4061170123
 30
0.0
 10
-34.180411268
 20
23.5430766962
 30
0.0
 10
-34.0254437236
 20
23.5744092807
 30
0.0
 10
-33.9489450092
 20
23.5743997534
 30
0.0
 11
-34.5220165488
 21
22.9738147507
 31
0.0
 11
-34.4814176382
 21
23.2000336811
 31
0.0
 11
-34.3609740174
 21
23.3954970644
 31
0.0
 11
-34.1737181234
 21
23.5280799125
 31
0.0
 11
-33.9489450092
 21
23.5743997534
 31
0.0
  0
SPLINE
  5
376
100
AcDbEntity
  8
RACCORDO
100
AcDbSpline
 62
253
  6
CONTINUOUS
 70
0
 71
3
 72
11
 73
7
 74
5
 42
0.0000001
 43
0.0000001
 44
0.0000000001
 12
-0.9183622087
 22
-0.0001028505
 32
0.0
 13
0.0000144938
 23
0.9183622143
 33
0.0
 40
0.0
 40
0.0
 40
0.0
 40
0.0
 40
0.2498968479
 40
0.4997336887
 40
0.7497357337
 40
1.0
 40
1.0
 40
1.0
 40
1.0
 10
-33.9489450092
 20
-23.5743997534
 30
0.0
 10
-34.0254436163
 20
-23.5744083208
 30
0.0
 10
-34.1804111098
 20
-23.5430773562
 30
0.0
 10
-34.3726354406
 20
-23.4061171718
 30
0.0
 10
-34.4951607769
 20
-23.2051180819
 30
0.0
 10
-34.5220177579
 20
-23.0504258326
 30
0.0
 10
-34.5220165488
 20
-22.9738147507
 30
0.0
 11
-33.9489450092
 21
-23.5743997534
 31
0.0
 11
-34.1737178441
 21
-23.528080154
 31
0.0
 11
-34.3609739163
 21
-23.3954973314
 31
0.0
 11
-34.4814176072
 21
-23.2000337747
 31
0.0
 11
-34.5220165488
 21
-22.9738147507
 31
0.0
  0
SPLINE
  5
377
100
AcDbEntity
  8
RACCORDO
100
AcDbSpline
 62
253
  6
CONTINUOUS
 70
0
 71
3
 72
11
 73
7
 74
5
 42
0.0000001
 43
0.0000001
 44
0.0000000001
 12
0.0000498599
 22
0.6210287248
 32
0.0
 13
0.6210287218
 23
0.0000791702
 33
0.0
 40
0.0
 40
0.0
 40
0.0
 40
0.0
 40
0.2500058224
 40
0.5000008131
 40
0.7499857999
 40
1.0
 40
1.0
 40
1.0
 40
1.0
 10
-36.858934899
 20
25.5589958209
 30
0.0
 10
-36.8589307439
 20
25.61074942
 30
0.0
 10
-36.8383418137
 20
25.7153585826
 30
0.0
 10
-36.7502220984
 20
25.847931493
 30
0.0
 10
-36.6184227285
 20
25.9368426482
 30
0.0
 10
-36.5139802924
 20
25.9589283011
 30
0.0
 10
-36.4622249593
 20
25.958934899
 30
0.0
 11
-36.858934899
 21
25.5589958209
 31
0.0
 11
-36.8288012657
 21
25.7113043217
 31
0.0
 11
-36.7429410883
 21
25.8406559991
 31
0.0
 11
-36.6142844339
 21
25.9275430678
 31
0.0
 11
-36.4622249593
 21
25.958934899
 31
0.0
  0
SPLINE
  5
378
100
AcDbEntity
  8
RACCORDO
100
AcDbSpline
 62
253
  6
CONTINUOUS
 70
0
 71
3
 72
9
 73
5
 74
3
 42
0.0000001
 43
0.0000001
 44
0.0000000001
 12
0.035078268
 22
0.0048738177
 32
0.0
 13
0.0108181878
 23
0.0337224821
 33
0.0
 40
0.0
 40
0.0
 40
0.0
 40
0.0
 40
0.3370825776
 40
1.0
 40
1.0
 40
1.0
 40
1.0
 10
33.6092562475
 20
22.5983283903
 30
0.0
 10
33.6131976718
 20
22.5988760167
 30
0.0
 10
33.6211062083
 20
22.610216143
 30
0.0
 10
33.6246789259
 20
22.6206348711
 30
0.0
 10
33.6270694476
 20
22.6280866114
 30
0.0
 11
33.6092562475
 21
22.5983283903
 31
0.0
 11
33.6180366755
 21
22.6064164411
 31
0.0
 11
33.6270694476
 21
22.6280866114
 31
0.0
  0
SPLINE
  5
379
100
AcDbEntity
  8
RACCORDO
100
AcDbSpline
 62
253
  6
CONTINUOUS
 70
0
 71
3
 72
9
 73
5
 74
3
 42
0.0000001
 43
0.0000001
 44
0.0000000001
 12
0.0016389886
 22
0.0116712396
 32
0.0
 13
0.0098670481
 23
0.0064455782
 33
0.0
 40
0.0
 40
0.0
 40
0.0
 40
0.0
 40
0.1960616563
 40
1.0
 40
1.0
 40
1.0
 40
1.0
 10
33.8992619396
 20
22.3046652188
 30
0.0
 10
33.8993690538
 20
22.3054279797
 30
0.0
 10
33.9006697371
 20
22.3092199259
 30
0.0
 10
33.9040582127
 20
22.3117973046
 30
0.0
 10
33.9067023788
 20
22.313524587
 30
0.0
 11
33.8992619396
 21
22.3046652188
 31
0.0
 11
33.8999593372
 21
22.306868202
 31
0.0
 11
33.9067023788
 21
22.313524587
 31
0.0
  0
SPLINE
  5
37A
100
AcDbEntity
  8
RACCORDO
100
AcDbSpline
 62
253
  6
CONTINUOUS
 70
0
 71
3
 72
9
 73
5
 74
3
 42
0.0000001
 43
0.0000001
 44
0.0000000001
 12
0.0016460621
 22
-0.011672719
 32
0.0
 13
0.0098687524
 23
-0.0064474504
 33
0.0
 40
0.0
 40
0.0
 40
0.0
 40
0.0
 40
0.196010183
 40
1.0
 40
1.0
 40
1.0
 40
1.0
 10
33.8992541965
 20
-22.3046650783
 30
0.0
 10
33.8993617448
 20
-22.3054277356
 30
0.0
 10
33.9006649155
 20
-22.3092196292
 30
0.0
 10
33.9040539958
 20
-22.3117966892
 30
0.0
 10
33.9066987879
 20
-22.313524584
 30
0.0
 11
33.8992541965
 21
-22.3046650783
 31
0.0
 11
33.8999527549
 21
-22.3068675612
 31
0.0
 11
33.9066987879
 21
-22.313524584
 31
0.0
  0
SPLINE
  5
37B
100
AcDbEntity
  8
RACCORDO
100
AcDbSpline
 62
253
  6
CONTINUOUS
 70
0
 71
3
 72
9
 73
5
 74
3
 42
0.0000001
 43
0.0000001
 44
0.0000000001
 12
0.03507642
 22
-0.0048687466
 32
0.0
 13
0.0108152592
 23
-0.0337207666
 33
0.0
 40
0.0
 40
0.0
 40
0.0
 40
0.0
 40
0.3371099719
 40
1.0
 40
1.0
 40
1.0
 40
1.0
 10
33.6092562729
 20
-22.5983291016
 30
0.0
 10
33.6131978099
 20
-22.5988762026
 30
0.0
 10
33.6211082517
 20
-22.6102137829
 30
0.0
 10
33.6246796726
 20
-22.6206326595
 30
0.0
 10
33.6270694484
 20
-22.6280837128
 30
0.0
 11
33.6092562729
 21
-22.5983291016
 31
0.0
 11
33.6180380876
 21
-22.606415821
 31
0.0
 11
33.6270694484
 21
-22.6280837128
 31
0.0
  0
SPLINE
  5
37C
100
AcDbEntity
  8
RACCORDO
100
AcDbSpline
 62
253
  6
CONTINUOUS
 70
0
 71
3
 72
9
 73
5
 74
3
 42
0.0000001
 43
0.0000001
 44
0.0000000001
 12
-0.035078268
 22
-0.0048738177
 32
0.0
 13
-0.0108181878
 23
-0.0337224821
 33
0.0
 40
0.0
 40
0.0
 40
0.0
 40
0.0
 40
0.3370825776
 40
1.0
 40
1.0
 40
1.0
 40
1.0
 10
-33.6092562475
 20
-22.5983283903
 30
0.0
 10
-33.6131976718
 20
-22.5988760167
 30
0.0
 10
-33.6211062083
 20
-22.610216143
 30
0.0
 10
-33.6246789259
 20
-22.6206348711
 30
0.0
 10
-33.6270694476
 20
-22.6280866114
 30
0.0
 11
-33.6092562475
 21
-22.5983283903
 31
0.0
 11
-33.6180366755
 21
-22.6064164411
 31
0.0
 11
-33.6270694476
 21
-22.6280866114
 31
0.0
  0
SPLINE
  5
37D
100
AcDbEntity
  8
RACCORDO
100
AcDbSpline
 62
253
  6
CONTINUOUS
 70
0
 71
3
 72
9
 73
5
 74
3
 42
0.0000001
 43
0.0000001
 44
0.0000000001
 12
-0.0016389886
 22
-0.0116712396
 32
0.0
 13
-0.0098670481
 23
-0.0064455782
 33
0.0
 40
0.0
 40
0.0
 40
0.0
 40
0.0
 40
0.1960616563
 40
1.0
 40
1.0
 40
1.0
 40
1.0
 10
-33.8992619396
 20
-22.3046652188
 30
0.0
 10
-33.8993690538
 20
-22.3054279797
 30
0.0
 10
-33.9006697371
 20
-22.3092199259
 30
0.0
 10
-33.9040582127
 20
-22.3117973046
 30
0.0
 10
-33.9067023788
 20
-22.313524587
 30
0.0
 11
-33.8992619396
 21
-22.3046652188
 31
0.0
 11
-33.8999593372
 21
-22.306868202
 31
0.0
 11
-33.9067023788
 21
-22.313524587
 31
0.0
  0
SPLINE
  5
37E
100
AcDbEntity
  8
RACCORDO
100
AcDbSpline
 62
253
  6
CONTINUOUS
 70
0
 71
3
 72
9
 73
5
 74
3
 42
0.0000001
 43
0.0000001
 44
0.0000000001
 12
-0.0016459537
 22
0.0116726802
 32
0.0
 13
-0.009868763
 23
0.0064473361
 33
0.0
 40
0.0
 40
0.0
 40
0.0
 40
0.0
 40
0.1960148091
 40
1.0
 40
1.0
 40
1.0
 40
1.0
 10
-33.8992542094
 20
22.3046650786
 30
0.0
 10
-33.8993617531
 20
22.3054277513
 30
0.0
 10
-33.9006648546
 20
22.3092196489
 30
0.0
 10
-33.9040539202
 20
22.3117967298
 30
0.0
 10
-33.9066987
 20
22.313524584
 30
0.0
 11
-33.8992542094
 21
22.3046650786
 31
0.0
 11
-33.899952754
 21
22.306867612
 31
0.0
 11
-33.9066987
 21
22.313524584
 31
0.0
  0
SPLINE
  5
37F
100
AcDbEntity
  8
RACCORDO
100
AcDbSpline
 62
253
  6
CONTINUOUS
 70
0
 71
3
 72
9
 73
5
 74
3
 42
0.0000001
 43
0.0000001
 44
0.0000000001
 12
-0.0350771145
 22
0.0048685378
 32
0.0
 13
-0.0108153076
 23
0.0337214434
 33
0.0
 40
0.0
 40
0.0
 40
0.0
 40
0.0
 40
0.3371071651
 40
1.0
 40
1.0
 40
1.0
 40
1.0
 10
-33.6092561788
 20
22.598326435
 30
0.0
 10
-33.613197761
 20
22.598873508
 30
0.0
 10
-33.6211082469
 20
22.610211478
 30
0.0
 10
-33.6246796524
 20
22.6206305134
 30
0.0
 10
-33.627069449
 20
22.6280817478
 30
0.0
 11
-33.6092561788
 21
22.598326435
 31
0.0
 11
-33.6180380255
 21
22.606413301
 31
0.0
 11
-33.627069449
 21
22.6280817478
 31
0.0
  0
SPLINE
  5
380
100
AcDbEntity
  8
RACCORDO
100
AcDbSpline
 62
253
  6
CONTINUOUS
 70
0
 71
3
 72
23
 73
19
 74
17
 42
0.0000001
 43
0.0000001
 44
0.0000000001
 12
-0.0052250696
 22
0.6999442616
 32
0.0
 13
0.6997738237
 23
0.0163054114
 33
0.0
 40
0.0
 40
0.0
 40
0.0
 40
0.0
 40
0.1950458747
 40
0.3826397505
 40
0.555484779
 40
0.6343043597
 40
0.7070050217
 40
0.7729042947
 40
0.831352309
 40
0.8818043226
 40
0.9237617168
 40
0.9568261729
 40
0.969925046
 40
0.9806839856
 40
0.989079053
 40
0.9950984995
 40
0.9987336937
 40
1.0
 40
1.0
 40
1.0
 40
1.0
 10
-88.2424084102
 20
25.5589958209
 30
0.0
 10
-88.2427481196
 20
25.6045029012
 30
0.0
 10
-88.2433518025
 20
25.6937788834
 30
0.0
 10
-88.2440332716
 20
25.8233835513
 30
0.0
 10
-88.2443997322
 20
25.9258712881
 30
0.0
 10
-88.2445492068
 20
26.0015524999
 30
0.0
 10
-88.244587459
 20
26.0522810088
 30
0.0
 10
-88.2445562616
 20
26.098256769
 30
0.0
 10
-88.2444549317
 20
26.139040201
 30
0.0
 10
-88.2442885047
 20
26.1742406637
 30
0.0
 10
-88.2440519352
 20
26.2035082318
 30
0.0
 10
-88.2438028399
 20
26.2240841303
 30
0.0
 10
-88.2435365021
 20
26.2373368749
 30
0.0
 10
-88.2433756901
 20
26.2449149664
 30
0.0
 10
-88.2431034225
 20
26.2506422511
 30
0.0
 10
-88.2430608921
 20
26.2551738869
 30
0.0
 10
-88.2425697791
 20
26.2571383499
 30
0.0
 10
-88.2427037862
 20
26.258882325
 30
0.0
 10
-88.2424084102
 20
26.2588892076
 30
0.0
 11
-88.2424084102
 21
25.5589958209
 31
0.0
 11
-88.2433286742
 21
25.6955177639
 31
0.0
 11
-88.2440130409
 21
25.8268248959
 31
0.0
 11
-88.2444338423
 21
25.9478094208
 31
0.0
 11
-88.2445403459
 21
26.0029801684
 31
0.0
 11
-88.2445759089
 21
26.0538679849
 31
0.0
 11
-88.244540366
 21
26.0999950744
 31
0.0
 11
-88.2444338739
 21
26.1409064279
 31
0.0
 11
-88.2442575877
 21
26.1762205692
 31
0.0
 11
-88.2440130794
 21
26.205588207
 31
0.0
 11
-88.2437025371
 21
26.2287300446
 31
0.0
 11
-88.2435233457
 21
26.2378970299
 31
0.0
 11
-88.2433286729
 21
26.2454253812
 31
0.0
 11
-88.2431190892
 21
26.2512978855
 31
0.0
 11
-88.2428953461
 21
26.255505335
 31
0.0
 11
-88.2426582008
 21
26.2580387642
 31
0.0
 11
-88.2424084102
 21
26.2588892076
 31
0.0
  0
SPLINE
  5
381
100
AcDbEntity
  8
RACCORDO
100
AcDbSpline
 62
253
  6
CONTINUOUS
 70
0
 71
3
 72
23
 73
19
 74
17
 42
0.0000001
 43
0.0000001
 44
0.0000000001
 12
-0.699723268
 22
0.0183467323
 32
0.0
 13
0.0052239514
 23
0.6999442583
 33
0.0
 40
0.0
 40
0.0
 40
0.0
 40
0.0
 40
0.0012669938
 40
0.0049023045
 40
0.010921506
 40
0.0193161922
 40
0.0300748356
 40
0.0431735956
 40
0.0762381591
 40
0.1181957108
 40
0.1686477238
 40
0.2270956894
 40
0.2929949544
 40
0.3656956318
 40
0.4445152214
 40
0.6173602503
 40
0.8049541264
 40
1.0
 40
1.0
 40
1.0
 40
1.0
 10
-88.2424084102
 20
-26.2588892076
 30
0.0
 10
-88.2427039252
 20
-26.2588814592
 30
0.0
 10
-88.2425696913
 20
-26.2571391275
 30
0.0
 10
-88.2430609775
 20
-26.2551726444
 30
0.0
 10
-88.2431034235
 20
-26.2506422304
 30
0.0
 10
-88.2433756986
 20
-26.2449146733
 30
0.0
 10
-88.2435364781
 20
-26.2373369527
 30
0.0
 10
-88.2438028063
 20
-26.2240841909
 30
0.0
 10
-88.2440518943
 20
-26.2035083139
 30
0.0
 10
-88.2442884689
 20
-26.1742406603
 30
0.0
 10
-88.244454899
 20
-26.1390401816
 30
0.0
 10
-88.2445562409
 20
-26.0982567608
 30
0.0
 10
-88.2445874601
 20
-26.0522810119
 30
0.0
 10
-88.2445492295
 20
-26.0015524998
 30
0.0
 10
-88.2443997681
 20
-25.9258712835
 30
0.0
 10
-88.2440333169
 20
-25.8233835461
 30
0.0
 10
-88.2433518164
 20
-25.6937788806
 30
0.0
 10
-88.2427480469
 20
-25.6045029007
 30
0.0
 10
-88.2424084102
 20
-25.5589958209
 30
0.0
 11
-88.2424084102
 21
-26.2588892076
 31
0.0
 11
-88.2426582362
 21
-26.2580382732
 31
0.0
 11
-88.242895386
 21
-26.2555047625
 31
0.0
 11
-88.2431191139
 21
-26.2512974839
 31
0.0
 11
-88.2433286742
 21
-26.2454252459
 31
0.0
 11
-88.2435233266
 21
-26.2378971016
 31
0.0
 11
-88.2437025057
 21
-26.2287301954
 31
0.0
 11
-88.2440130409
 21
-26.2055882828
 31
0.0
 11
-88.2442575515
 21
-26.1762205354
 31
0.0
 11
-88.2444338423
 21
-26.140906395
 31
0.0
 11
-88.2445403459
 21
-26.0999950764
 31
0.0
 11
-88.2445759089
 21
-26.0538679933
 31
0.0
 11
-88.244540366
 21
-26.0029801668
 31
0.0
 11
-88.2444338739
 21
-25.9478094139
 31
0.0
 11
-88.2440130794
 21
-25.8268248907
 31
0.0
 11
-88.2433286729
 21
-25.6955177609
 31
0.0
 11
-88.2424084102
 21
-25.5589958209
 31
0.0
  0
SPLINE
  5
382
100
AcDbEntity
  8
SMUSSO
100
AcDbSpline
 62
7
  6
CONTINUOUS
 70
0
 71
3
 72
27
 73
23
 74
21
 42
0.0000001
 43
0.0000001
 44
0.0000000001
 12
-0.0043448214
 22
1.4999653299
 32
0.0
 13
1.4999145081
 23
0.0130895556
 33
0.0
 40
0.0
 40
0.0
 40
0.0
 40
0.0
 40
0.1950910916
 40
0.3826703672
 40
0.5555551692
 40
0.6343767932
 40
0.7070865928
 40
0.772990575
 40
0.831447028
 40
0.881898773
 40
0.9238565051
 40
0.9415224192
 40
0.9569174314
 40
0.9700086364
 40
0.9807654041
 40
0.9891577125
 40
0.9924605739
 40
0.9951661644
 40
0.9972733105
 40
0.9987809735
 40
0.9996886076
 40
1.0
 40
1.0
 40
1.0
 40
1.0
 10
-83.2871917267
 20
51.4243126893
 30
0.0
 10
-83.2874742721
 20
51.5218559804
 30
0.0
 10
-83.2879542043
 20
51.7131869497
 30
0.0
 10
-83.2885694709
 20
51.9909586147
 30
0.0
 10
-83.2888617117
 20
52.2105971445
 30
0.0
 10
-83.2889914505
 20
52.3728021402
 30
0.0
 10
-83.2890247603
 20
52.4815177851
 30
0.0
 10
-83.2889981665
 20
52.5800510468
 30
0.0
 10
-83.2889115913
 20
52.667455433
 30
0.0
 10
-83.2887714619
 20
52.7428869017
 30
0.0
 10
-83.2886049168
 20
52.7979232001
 30
0.0
 10
-83.2884296893
 20
52.8354316402
 30
0.0
 10
-83.2882879761
 20
52.8585063259
 30
0.0
 10
-83.2881351012
 20
52.8781283872
 30
0.0
 10
-83.2879702036
 20
52.8942431644
 30
0.0
 10
-83.2878302531
 20
52.9054777817
 30
0.0
 10
-83.2876968479
 20
52.9126620198
 30
0.0
 10
-83.2876265952
 20
52.9167501868
 30
0.0
 10
-83.2874902259
 20
52.9198279196
 30
0.0
 10
-83.2875032969
 20
52.9222713719
 30
0.0
 10
-83.2872305693
 20
52.9233072997
 30
0.0
 10
-83.287347414
 20
52.9242542152
 30
0.0
 10
-83.2871917267
 20
52.9242555739
 30
0.0
 11
-83.2871917267
 21
51.4243126893
 31
0.0
 11
-83.287949036
 21
51.7169428105
 31
0.0
 11
-83.2885425786
 21
51.9983057748
 31
0.0
 11
-83.2888927794
 21
52.2576278353
 31
0.0
 11
-83.2889837791
 21
52.3758579996
 31
0.0
 11
-83.2890148133
 21
52.4849206312
 31
0.0
 11
-83.2889845778
 21
52.5837747297
 31
0.0
 11
-83.2888940226
 21
52.6714577036
 31
0.0
 11
-83.2887474815
 21
52.7471337475
 31
0.0
 11
-83.2885438697
 21
52.8100688256
 31
0.0
 11
-83.2884174489
 21
52.836566894
 31
0.0
 11
-83.2882740378
 21
52.85965853
 31
0.0
 11
-83.2881172467
 21
52.87929434
 31
0.0
 11
-83.2879513505
 21
52.8954283335
 31
0.0
 11
-83.287780279
 21
52.9080153954
 31
0.0
 11
-83.2876924175
 21
52.9129688147
 31
0.0
 11
-83.287601764
 21
52.917026111
 31
0.0
 11
-83.2875073433
 21
52.9201853598
 31
0.0
 11
-83.2874081804
 21
52.9224446362
 31
0.0
 11
-83.2873032999
 21
52.9238020158
 31
0.0
 11
-83.2871917267
 21
52.9242555739
 31
0.0
  0
SPLINE
  5
383
100
AcDbEntity
  8
SMUSSO
100
AcDbSpline
 62
7
  6
CONTINUOUS
 70
0
 71
3
 72
27
 73
23
 74
21
 42
0.0000001
 43
0.0000001
 44
0.0000000001
 12
-1.4999127574
 22
0.0130895403
 32
0.0
 13
0.0047015561
 23
1.4999625033
 33
0.0
 40
0.0
 40
0.0
 40
0.0
 40
0.0
 40
0.0003102818
 40
0.0012177061
 40
0.0027253283
 40
0.004832494
 40
0.0075381273
 40
0.0108410372
 40
0.0192334204
 40
0.0299902246
 40
0.0430814468
 40
0.0584764714
 40
0.0761424018
 40
0.1181001792
 40
0.1685519836
 40
0.2270085072
 40
0.2929125706
 40
0.3656224582
 40
0.4444441748
 40
0.6173291784
 40
0.8049086701
 40
1.0
 40
1.0
 40
1.0
 40
1.0
 10
-83.2871917267
 20
-52.9242555739
 30
0.0
 10
-83.2873468586
 20
-52.9242542201
 30
0.0
 10
-83.2872149797
 20
-52.9233047912
 30
0.0
 10
-83.2874960983
 20
-52.922272665
 30
0.0
 10
-83.2874761151
 20
-52.9198273717
 30
0.0
 10
-83.2876162155
 20
-52.916750525
 30
0.0
 10
-83.2876874917
 20
-52.9126620199
 30
0.0
 10
-83.2878252589
 20
-52.9054779334
 30
0.0
 10
-83.2879686518
 20
-52.8942431898
 30
0.0
 10
-83.2881349805
 20
-52.8781284236
 30
0.0
 10
-83.2882877668
 20
-52.858506335
 30
0.0
 10
-83.2884287445
 20
-52.8354316542
 30
0.0
 10
-83.2886033973
 20
-52.7979232163
 30
0.0
 10
-83.2887699888
 20
-52.7428869236
 30
0.0
 10
-83.2889103387
 20
-52.6674554549
 30
0.0
 10
-83.2889973275
 20
-52.5800510659
 30
0.0
 10
-83.2890248026
 20
-52.4815177995
 30
0.0
 10
-83.2889923827
 20
-52.3728021502
 30
0.0
 10
-83.2888629639
 20
-52.2105971529
 30
0.0
 10
-83.2885726479
 20
-51.9909586176
 30
0.0
 10
-83.2879476113
 20
-51.7131869806
 30
0.0
 10
-83.287497471
 20
-51.5218559158
 30
0.0
 10
-83.2871917267
 20
-51.4243126893
 30
0.0
 11
-83.2871917267
 21
-52.9242555739
 31
0.0
 11
-83.2872963687
 21
-52.9238020767
 31
0.0
 11
-83.2873975115
 21
-52.9224447307
 31
0.0
 11
-83.2874954808
 21
-52.920185466
 31
0.0
 11
-83.2875906022
 21
-52.9170262127
 31
0.0
 11
-83.2876832014
 21
-52.9129689008
 31
0.0
 11
-83.287773604
 21
-52.9080154603
 31
0.0
 11
-83.287949036
 21
-52.8954283608
 31
0.0
 11
-83.2881167962
 21
-52.8792943508
 31
0.0
 11
-83.2882737515
 21
-52.8596585391
 31
0.0
 11
-83.2884165996
 21
-52.8365669079
 31
0.0
 11
-83.2885425786
 21
-52.8100688441
 31
0.0
 11
-83.2887460247
 21
-52.7471337709
 31
0.0
 11
-83.2888927794
 21
-52.6714577267
 31
0.0
 11
-83.2889837791
 21
-52.5837747497
 31
0.0
 11
-83.2890148133
 21
-52.484920645
 31
0.0
 11
-83.2889845778
 21
-52.3758580084
 31
0.0
 11
-83.2888940226
 21
-52.257627843
 31
0.0
 11
-83.2885438697
 21
-51.9983057826
 31
0.0
 11
-83.2879513505
 21
-51.7169428205
 31
0.0
 11
-83.2871917267
 21
-51.4243126893
 31
0.0
  0
SPLINE
  5
384
100
AcDbEntity
  8
SMUSSO
100
AcDbSpline
 62
7
  6
CONTINUOUS
 70
0
 71
3
 72
26
 73
22
 74
20
 42
0.0000001
 43
0.0000001
 44
0.0000000001
 12
-1.4999899447
 22
-0.013090214
 32
0.0
 13
0.0087077855
 23
-1.5000217872
 33
0.0
 40
0.0
 40
0.0
 40
0.0
 40
0.0
 40
0.0003321194
 40
0.0012476784
 40
0.0027603735
 40
0.0048712088
 40
0.0108847267
 40
0.0192802254
 40
0.0300389509
 40
0.0431313493
 40
0.0585270577
 40
0.0761933234
 40
0.1181508204
 40
0.1686011008
 40
0.2270550096
 40
0.292955567
 40
0.3656612192
 40
0.4444781054
 40
0.6173521425
 40
0.804920083
 40
1.0
 40
1.0
 40
1.0
 40
1.0
 10
-81.3285213198
 20
52.9413486316
 30
0.0
 10
-81.3286873784
 20
52.9413471824
 30
0.0
 10
-81.3287528752
 20
52.9404419158
 30
0.0
 10
-81.3290033208
 20
52.9393452104
 30
0.0
 10
-81.3291486748
 20
52.9369309664
 30
0.0
 10
-81.329462189
 20
52.9322126412
 30
0.0
 10
-81.3297607239
 20
52.9238897129
 30
0.0
 10
-81.3301060267
 20
52.9113427214
 30
0.0
 10
-81.3304086041
 20
52.89520892
 30
0.0
 10
-81.33069208
 20
52.8755914749
 30
0.0
 10
-81.330949733
 20
52.8525134186
 30
0.0
 10
-81.3312858173
 20
52.8150046507
 30
0.0
 10
-81.3316266636
 20
52.7599664605
 30
0.0
 10
-81.3319068242
 20
52.684533885
 30
0.0
 10
-81.3320713019
 20
52.5971288322
 30
0.0
 10
-81.3321229604
 20
52.4985956897
 30
0.0
 10
-81.3320604233
 20
52.389880726
 30
0.0
 10
-81.3318184093
 20
52.2276775088
 30
0.0
 10
-81.3311931111
 20
52.008041997
 30
0.0
 10
-81.3301131307
 20
51.7302743719
 30
0.0
 10
-81.3290875579
 20
51.5389471222
 30
0.0
 10
-81.3285213198
 20
51.441405747
 30
0.0
 11
-81.3285213198
 21
52.9413486316
 31
0.0
 11
-81.3287256277
 21
52.940894257
 31
0.0
 11
-81.3289288776
 21
52.9395359983
 31
0.0
 11
-81.3291298425
 21
52.9372758013
 31
0.0
 11
-81.3293272955
 21
52.9341156115
 31
0.0
 11
-81.3297067581
 21
52.9251030365
 31
0.0
 11
-81.3300576443
 21
52.9125142826
 31
0.0
 11
-81.3303762226
 21
52.8963788328
 31
0.0
 11
-81.3306655728
 21
52.8767417506
 31
0.0
 11
-81.330929154
 21
52.8536489677
 31
0.0
 11
-81.331169752
 21
52.82714983
 31
0.0
 11
-81.3315767532
 21
52.7642129258
 31
0.0
 11
-81.3318705494
 21
52.6885357012
 31
0.0
 11
-81.3320456446
 21
52.6008522619
 31
0.0
 11
-81.3321039507
 21
52.5019983416
 31
0.0
 11
-81.3320461885
 21
52.392936457
 31
0.0
 11
-81.3318718587
 21
52.2747075469
 31
0.0
 11
-81.3311708676
 21
52.015389303
 31
0.0
 11
-81.3300600539
 21
51.7340307577
 31
0.0
 11
-81.3285213198
 21
51.441405747
 31
0.0
  0
SPLINE
  5
385
100
AcDbEntity
  8
SMUSSO
100
AcDbSpline
 62
7
  6
CONTINUOUS
 70
0
 71
3
 72
26
 73
22
 74
20
 42
0.0000001
 43
0.0000001
 44
0.0000000001
 12
-0.0083403941
 22
-1.5000271289
 32
0.0
 13
1.4999931984
 23
-0.0130902423
 33
0.0
 40
0.0
 40
0.0
 40
0.0
 40
0.0
 40
0.1950794998
 40
0.382647028
 40
0.5555206919
 40
0.6343374033
 40
0.7070428948
 40
0.7729433058
 40
0.8313970822
 40
0.8818472505
 40
0.9238046621
 40
0.9414708961
 40
0.9568665779
 40
0.9699589428
 40
0.9807176056
 40
0.9891129756
 40
0.9951263256
 40
0.9972371234
 40
0.9987498969
 40
0.9996658616
 40
1.0
 40
1.0
 40
1.0
 40
1.0
 10
-81.3285213198
 20
-51.441405747
 30
0.0
 10
-81.3290636665
 20
-51.538947261
 30
0.0
 10
-81.3301197138
 20
-51.7302743349
 30
0.0
 10
-81.3311903646
 20
-52.0080420201
 30
0.0
 10
-81.3318167358
 20
-52.2276775172
 30
0.0
 10
-81.3320599095
 20
-52.389880731
 30
0.0
 10
-81.3321229484
 20
-52.4985956893
 30
0.0
 10
-81.3320717257
 20
-52.5971288261
 30
0.0
 10
-81.3319081534
 20
-52.6845338737
 30
0.0
 10
-81.3316284794
 20
-52.7599664531
 30
0.0
 10
-81.3312872099
 20
-52.8150046388
 30
0.0
 10
-81.3309503706
 20
-52.8525134224
 30
0.0
 10
-81.3306919556
 20
-52.8755914444
 30
0.0
 10
-81.3304087195
 20
-52.89520896
 30
0.0
 10
-81.3301072839
 20
-52.9113424611
 30
0.0
 10
-81.3297673295
 20
-52.9238900396
 30
0.0
 10
-81.3294718368
 20
-52.9322116819
 30
0.0
 10
-81.3291627091
 20
-52.9369318604
 30
0.0
 10
-81.3290118823
 20
-52.9393433273
 30
0.0
 10
-81.3287671446
 20
-52.940446069
 30
0.0
 10
-81.3286883883
 20
-52.9413471736
 30
0.0
 10
-81.3285213198
 20
-52.9413486316
 30
0.0
 11
-81.3285213198
 21
-51.441405747
 31
0.0
 11
-81.3300576443
 21
-51.7340307793
 31
0.0
 11
-81.331169752
 21
-52.0153893112
 31
0.0
 11
-81.3318705494
 21
-52.2747075585
 31
0.0
 11
-81.3320456446
 21
-52.3929364616
 31
0.0
 11
-81.3321039507
 21
-52.5019983414
 31
0.0
 11
-81.3320461885
 21
-52.600852257
 31
0.0
 11
-81.3318718587
 21
-52.6885356895
 31
0.0
 11
-81.3315784016
 21
-52.7642129114
 31
0.0
 11
-81.3311708676
 21
-52.8271498203
 31
0.0
 11
-81.330929708
 21
-52.8536489629
 31
0.0
 11
-81.3306655984
 21
-52.8767417501
 31
0.0
 11
-81.3303765622
 21
-52.8963788291
 31
0.0
 11
-81.3300600539
 21
-52.9125142607
 31
0.0
 11
-81.3297137296
 21
-52.9251029752
 31
0.0
 11
-81.3293388709
 21
-52.9341155103
 31
0.0
 11
-81.3291421148
 21
-52.9372756941
 31
0.0
 11
-81.3289398943
 21
-52.9395359021
 31
0.0
 11
-81.3287327743
 21
-52.9408941946
 31
0.0
 11
-81.3285213198
 21
-52.9413486316
 31
0.0
  0
ELLIPSE
  5
386
100
AcDbEntity
  8
RACCORDO
100
AcDbEllipse
 62
7
  6
CONTINUOUS
 10
33.5920995224
 20
22.2920995224
 30
0.0
 11
0.2121966568
 21
0.2121966568
 31
0.0
 40
0.9996954599
 41
-0.7852458701
 42
0.7852458701
  0
ELLIPSE
  5
387
100
AcDbEntity
  8
RACCORDO
100
AcDbEllipse
 62
7
  6
CONTINUOUS
 10
33.5920995224
 20
-22.2920995224
 30
0.0
 11
0.2121966568
 21
-0.2121966568
 31
0.0
 40
0.9996954599
 41
-0.7852458701
 42
0.7852458701
  0
ELLIPSE
  5
388
100
AcDbEntity
  8
RACCORDO
100
AcDbEllipse
 62
7
  6
CONTINUOUS
 10
-33.5920995224
 20
22.2920995224
 30
0.0
 11
0.2121966568
 21
-0.2121966568
 31
0.0
 40
0.9996954599
 41
2.3563467834
 42
3.9268385237
  0
ELLIPSE
  5
389
100
AcDbEntity
  8
RACCORDO
100
AcDbEllipse
 62
7
  6
CONTINUOUS
 10
-33.5920995224
 20
-22.2920995224
 30
0.0
 11
-0.2121966568
 21
-0.2121966568
 31
0.0
 40
0.9996954599
 41
-0.7852458701
 42
0.7852458701
  0
ELLIPSE
  5
38A
100
AcDbEntity
  8
RACCORDO
100
AcDbEllipse
 62
7
  6
CONTINUOUS
 10
36.4658559938
 20
25.5658559938
 30
0.0
 11
0.4951255324
 21
0.4951255324
 31
0.0
 40
0.9996954599
 41
-0.7852458701
 42
0.7852458702
  0
ELLIPSE
  5
38B
100
AcDbEntity
  8
RACCORDO
100
AcDbEllipse
 62
7
  6
CONTINUOUS
 10
36.4658559938
 20
-25.5658559938
 30
0.0
 11
0.4951255324
 21
-0.4951255324
 31
0.0
 40
0.9996954599
 41
-0.7852458701
 42
0.7852458701
  0
ELLIPSE
  5
38C
100
AcDbEntity
  8
RACCORDO
100
AcDbEllipse
 62
7
  6
CONTINUOUS
 10
-36.4658559938
 20
-25.5658559938
 30
0.0
 11
0.4951255324
 21
0.4951255324
 31
0.0
 40
0.9996954599
 41
-3.9268385237
 42
-2.3563467834
  0
ELLIPSE
  5
38D
100
AcDbEntity
  8
RACCORDO
100
AcDbEllipse
 62
7
  6
CONTINUOUS
 10
-36.4658559938
 20
25.5658559938
 30
0.0
 11
-0.4951255324
 21
0.4951255324
 31
0.0
 40
0.9996954599
 41
-0.7852458702
 42
0.7852458701
  0
ELLIPSE
  5
38E
100
AcDbEntity
  8
ASSI
100
AcDbEllipse
 62
7
  6
CONTINUOUS
 10
-78.8371726883
 20
-25.9914384441
 30
0.0
 11
0.1417119467
 21
0.1422961243
 31
0.0
 40
0.9918061237
 41
-0.7833412615
 42
0.7350951877
  0
ELLIPSE
  5
38F
100
AcDbEntity
  8
ASSI
100
AcDbEllipse
 62
7
  6
CONTINUOUS
 10
-78.8371726883
 20
25.9914384441
 30
0.0
 11
-0.1417119467
 21
0.1422961243
 31
0.0
 40
0.9918061237
 41
-3.8766878413
 42
-2.358251392
  0
ENDSEC
  0
SECTION
  2
OBJECTS
  0
DICTIONARY
  5
C
100
AcDbDictionary
280
0
281
1
  3
ACAD_GROUP
350
D
  3
ACAD_MLINESTYLE
350
17
  3
ACAD_LAYOUT
350
1A
  3
ACAD_PLOTSETTINGS
350
19
  3
ACAD_PLOTSTYLENAME
350
E
  0
DICTIONARY
  5
D
102
{ACAD_REACTORS
330
C
102
}
100
AcDbDictionary
280
0
281
1
  0
ACDBDICTIONARYWDFLT
  5
E
102
{ACAD_REACTORS
330
C
102
}
100
AcDbDictionary
281
1
  3
Normal
350
F
100
AcDbDictionaryWithDefault
340
F
  0
DICTIONARY
  5
17
102
{ACAD_REACTORS
330
C
102
}
100
AcDbDictionary
280
0
281
1
  3
Standard
350
18
  0
DICTIONARY
  5
19
102
{ACAD_REACTORS
330
C
102
}
100
AcDbDictionary
281
1
  0
DICTIONARY
  5
1A
102
{ACAD_REACTORS
330
C
102
}
100
AcDbDictionary
281
1
  3
Model
350
390
  3
Layout1
350
391
  0
ACDBPLACEHOLDER
  5
F
102
{ACAD_REACTORS
330
E
102
}
  0
MLINESTYLE
  5
18
102
{ACAD_REACTORS
330
17
102
}
100
AcDbMlineStyle
  2
STANDARD
 70
0
  3

 62
256
 51
90.0
 52
90.0
 71
2
 49
0.5
 62
256
  6
BYLAYER
 49
-0.5
 62
256
  6
BYLAYER
  0
LAYOUT
  5
390
102
{ACAD_REACTORS
330
1A
102
}
100
AcDbPlotSettings
  1

  2
none_device
  4
ISO_A4_(297.00_x_210.00_MM)
  6

 40
0.0
 41
0.0
 42
0.0
 43
0.0
 44
297.0
 45
210.0
 46
0.0
 47
0.0
 48
0.0
 49
0.0
140
0.0
141
0.0
142
1.0
143
1.0
 70
1024
 72
1
 73
0
 74
0
  7

 75
0
147
1.0
148
0.0
149
0.0
100
AcDbLayout
  1
Model
 70
0
 71
0
 10
0.0
 20
0.0
 11
297.0
 21
210.0
 12
0.0
 22
0.0
 32
0.0
 14
0.0
 24
0.0
 34
0.0
 15
0.0
 25
0.0
 35
0.0
146
0.0
 13
0.0
 23
0.0
 33
0.0
 16
1.0
 26
0.0
 36
0.0
 17
0.0
 27
1.0
 37
0.0
 76
0
330
212
345
0
346
0
  0
LAYOUT
  5
391
102
{ACAD_REACTORS
330
1A
102
}
100
AcDbPlotSettings
  1

  2
none_device
  4
ISO_A4_(297.00_x_210.00_MM)
  6

 40
0.0
 41
0.0
 42
0.0
 43
0.0
 44
297.0
 45
210.0
 46
0.0
 47
0.0
 48
0.0
 49
0.0
140
0.0
141
0.0
142
1.0
143
1.0
 70
0
 72
1
 73
0
 74
0
  7

 75
0
147
1.0
148
0.0
149
0.0
100
AcDbLayout
  1
Layout1
 70
0
 71
1
 10
0.0
 20
0.0
 11
297.0
 21
210.0
 12
0.0
 22
0.0
 32
0.0
 14
0.0
 24
0.0
 34
0.0
 15
0.0
 25
0.0
 35
0.0
146
0.0
 13
0.0
 23
0.0
 33
0.0
 16
1.0
 26
0.0
 36
0.0
 17
0.0
 27
1.0
 37
0.0
 76
0
330
213
345
0
346
0
  0
ENDSEC
  0
EOF
