  0
SECTION
  2
HEADER
  9
$ACADVER
  1
AC1015
  9
$DWGCODEPAGE
  3
ANSI_1252
  9
$EXTMAX
 10
297.0
 20
210.0
 30
0.0
  9
$EXTMIN
 10
0.0
 20
0.0
 30
0.0
  9
$LIMMIN
 10
0.0
 20
0.0
  9
$LIMMAX
 10
297.0
 20
210.0
  9
$VIEWCTR
 10
148.5
 20
105.0
  9
$VIEWSIZE
 40
210.0
  9
$CLAYER
  8
0
  9
$LTSCALE
 40
16.335
  9
$CELTYPE
  6
BYLAYER
  9
$DIMSCALE
 40
1.0
  9
$DIMASZ
 40
3.0
  9
$DIMEXO
 40
1.85625
  9
$DIMDLI
 40
11.286
  9
$DIMEXE
 40
5.346
  9
$DIMCEN
 40
2.673
  9
$DIMLFAC
 40
1.0
  9
$DIMBLK
  1
_FILLED
  9
$DIMTXT
 40
3.0
  9
$DIMTOL
 70
1
  9
$DIMLIM
 70
0
  9
$DIMTFAC
 40
1.0
  9
$DIMTP
 40
0.01
  9
$DIMTM
 40
0.01
  9
$PDMODE
 70
3
  9
$PDSIZE
 40
3.0
  9
$HANDSEED
  5
377
  9
$TILEMODE
 70
1
  9
$MEASUREMENT
 70
1
  9
$INSUNITS
 70
4
  0
ENDSEC
  0
SECTION
  2
CLASSES
  0
CLASS
  1
ACDBDICTIONARYWDFLT
  2
AcDbDictionaryWithDefault
  3
AutoCAD 2000
 90
0
280
0
281
0
  0
CLASS
  1
ACDBPLACEHOLDER
  2
AcDbPlaceHolder
  3
AutoCAD 2000
 90
0
280
0
281
0
  0
CLASS
  1
LAYOUT
  2
AcDbLayout
  3
AutoCAD 2000
 90
0
280
0
281
0
  0
ENDSEC
  0
SECTION
  2
TABLES
  0
TABLE
  2
VPORT
  5
8
100
AcDbSymbolTable
 70
2
  0
VPORT
  5
1F4
100
AcDbSymbolTableRecord
100
AcDbViewportTableRecord
  2
*ACTIVE
 70
0
 10
0.0
 20
0.0
 11
1.0
 21
1.0
 12
148.5
 22
105.0
 13
0.0
 23
0.0
 14
1.0
 24
1.0
 15
0.0
 25
0.0
 16
0.0
 26
0.0
 36
1.0
 17
0.0
 27
0.0
 37
0.0
 40
210.0
 41
1.4142857143
 42
50.0
 43
0.0
 44
0.0
 50
0.0
 51
0.0
 71
0
 72
100
 73
1
 74
1
 75
0
 76
0
 77
0
 78
0
  0
ENDTAB
  0
TABLE
  2
LTYPE
  5
5
100
AcDbSymbolTable
 70
6
  0
LTYPE
  5
14
100
AcDbSymbolTableRecord
100
AcDbLinetypeTableRecord
  2
BYBLOCK
 70
0
  3

 72
65
 73
0
 40
0.0
  0
LTYPE
  5
15
100
AcDbSymbolTableRecord
100
AcDbLinetypeTableRecord
  2
BYLAYER
 70
0
  3

 72
65
 73
0
 40
0.0
  0
LTYPE
  5
16
100
AcDbSymbolTableRecord
100
AcDbLinetypeTableRecord
  2
CONTINUOUS
 70
64
  3
Solid line
 72
65
 73
0
 40
0.0
  0
LTYPE
  5
1F5
100
AcDbSymbolTableRecord
100
AcDbLinetypeTableRecord
  2
CENTER
 70
64
  3
____ _ ____ _ ____ _ ____ _ ____ _ ____ _ ____
 72
65
 73
4
 40
0.6
 49
0.375
 74
0
 49
-0.075
 74
0
 49
0.075
 74
0
 49
-0.075
 74
0
  0
LTYPE
  5
1F6
100
AcDbSymbolTableRecord
100
AcDbLinetypeTableRecord
  2
HIDDEN
 70
64
  3
- - - - - - - - - - - - - - - - - - - -
 72
65
 73
2
 40
0.2
 49
0.1
 74
0
 49
-0.1
 74
0
  0
LTYPE
  5
1F7
100
AcDbSymbolTableRecord
100
AcDbLinetypeTableRecord
  2
PHANTOM
 70
64
  3
_____ _ _ _____ _ _ _____ _ _ _____
 72
65
 73
6
 40
0.8
 49
0.45
 74
0
 49
-0.05
 74
0
 49
0.1
 74
0
 49
-0.05
 74
0
 49
0.1
 74
0
 49
-0.05
 74
0
  0
LTYPE
  5
1F8
100
AcDbSymbolTableRecord
100
AcDbLinetypeTableRecord
  2
DOT
 70
64
  3
. . . . . . . . . . . . . . . . . . . .
 72
65
 73
2
 40
0.2
 49
0.1
 74
0
 49
-0.1
 74
0
  0
LTYPE
  5
1F9
100
AcDbSymbolTableRecord
100
AcDbLinetypeTableRecord
  2
DASHED
 70
64
  3
- - - - - - - - - - - - - - - - - - - -
 72
65
 73
2
 40
0.2
 49
0.1
 74
0
 49
-0.1
 74
0
  0
ENDTAB
  0
TABLE
  2
LAYER
  5
2
100
AcDbSymbolTable
 70
36
  0
LAYER
  5
10
100
AcDbSymbolTableRecord
100
AcDbLayerTableRecord
  2
0
 70
0
 62
7
  6
CONTINUOUS
370
-3
390
F
  0
LAYER
  5
1FA
100
AcDbSymbolTableRecord
100
AcDbLayerTableRecord
  2
DEFAULT_1
 70
0
 62
7
  6
CENTER
370
-3
390
F
  0
LAYER
  5
1FB
100
AcDbSymbolTableRecord
100
AcDbLayerTableRecord
  2
DEFAULT_2
 70
0
 62
7
  6
HIDDEN
370
-3
390
F
  0
LAYER
  5
1FC
100
AcDbSymbolTableRecord
100
AcDbLayerTableRecord
  2
DEFAULT_3
 70
0
 62
7
  6
PHANTOM
370
-3
390
F
  0
LAYER
  5
1FD
100
AcDbSymbolTableRecord
100
AcDbLayerTableRecord
  2
ASSI
 70
0
 62
7
  6
CONTINUOUS
370
-3
390
F
  0
LAYER
  5
1FE
100
AcDbSymbolTableRecord
100
AcDbLayerTableRecord
  2
COORDINATE
 70
0
 62
7
  6
CONTINUOUS
370
-3
390
F
  0
LAYER
  5
1FF
100
AcDbSymbolTableRecord
100
AcDbLayerTableRecord
  2
COORD_ORIGINE
 70
0
 62
7
  6
CONTINUOUS
370
-3
390
F
  0
LAYER
  5
200
100
AcDbSymbolTableRecord
100
AcDbLayerTableRecord
  2
COPY_PUBLISH
 70
0
 62
7
  6
CONTINUOUS
370
-3
390
F
  0
LAYER
  5
201
100
AcDbSymbolTableRecord
100
AcDbLayerTableRecord
  2
COSMETIC
 70
0
 62
7
  6
CONTINUOUS
370
-3
390
F
  0
LAYER
  5
202
100
AcDbSymbolTableRecord
100
AcDbLayerTableRecord
  2
COSMETICI
 70
0
 62
7
  6
CONTINUOUS
370
-3
390
F
  0
LAYER
  5
203
100
AcDbSymbolTableRecord
100
AcDbLayerTableRecord
  2
CURVE
 70
0
 62
7
  6
CONTINUOUS
370
-3
390
F
  0
LAYER
  5
204
100
AcDbSymbolTableRecord
100
AcDbLayerTableRecord
  2
DRAFT
 70
0
 62
7
  6
CONTINUOUS
370
-3
390
F
  0
LAYER
  5
205
100
AcDbSymbolTableRecord
100
AcDbLayerTableRecord
  2
IMPORT_IGES
 70
0
 62
7
  6
CONTINUOUS
370
-3
390
F
  0
LAYER
  5
206
100
AcDbSymbolTableRecord
100
AcDbLayerTableRecord
  2
INTFCLR_2
 70
0
 62
7
  6
CONTINUOUS
370
-3
390
F
  0
LAYER
  5
207
100
AcDbSymbolTableRecord
100
AcDbLayerTableRecord
  2
NOTE
 70
0
 62
7
  6
CONTINUOUS
370
-3
390
F
  0
LAYER
  5
208
100
AcDbSymbolTableRecord
100
AcDbLayerTableRecord
  2
PIANI
 70
0
 62
7
  6
CONTINUOUS
370
-3
390
F
  0
LAYER
  5
209
100
AcDbSymbolTableRecord
100
AcDbLayerTableRecord
  2
PIANI_ORIGINE
 70
0
 62
7
  6
CONTINUOUS
370
-3
390
F
  0
LAYER
  5
20A
100
AcDbSymbolTableRecord
100
AcDbLayerTableRecord
  2
PIANI_RIFERIMENTO
 70
0
 62
7
  6
CONTINUOUS
370
-3
390
F
  0
LAYER
  5
20B
100
AcDbSymbolTableRecord
100
AcDbLayerTableRecord
  2
PUNTI
 70
0
 62
7
  6
CONTINUOUS
370
-3
390
F
  0
LAYER
  5
20C
100
AcDbSymbolTableRecord
100
AcDbLayerTableRecord
  2
RACCORDO
 70
0
 62
7
  6
CONTINUOUS
370
-3
390
F
  0
LAYER
  5
20D
100
AcDbSymbolTableRecord
100
AcDbLayerTableRecord
  2
SIMBOLI
 70
0
 62
7
  6
CONTINUOUS
370
-3
390
F
  0
LAYER
  5
20E
100
AcDbSymbolTableRecord
100
AcDbLayerTableRecord
  2
SMUSSO
 70
0
 62
7
  6
CONTINUOUS
370
-3
390
F
  0
LAYER
  5
20F
100
AcDbSymbolTableRecord
100
AcDbLayerTableRecord
  2
SNAPLINE
 70
0
 62
7
  6
CONTINUOUS
370
-3
390
F
  0
LAYER
  5
210
100
AcDbSymbolTableRecord
100
AcDbLayerTableRecord
  2
SUPERFICI
 70
0
 62
7
  6
CONTINUOUS
370
-3
390
F
  0
LAYER
  5
211
100
AcDbSymbolTableRecord
100
AcDbLayerTableRecord
  2
TRASH
 70
0
 62
7
  6
CONTINUOUS
370
-3
390
F
  0
LAYER
  5
212
100
AcDbSymbolTableRecord
100
AcDbLayerTableRecord
  2
XSEC_DATUMS
 70
0
 62
7
  6
CONTINUOUS
370
-3
390
F
  0
ENDTAB
  0
TABLE
  2
STYLE
  5
3
100
AcDbSymbolTable
 70
1
  0
STYLE
  5
11
100
AcDbSymbolTableRecord
100
AcDbTextStyleTableRecord
  2
STANDARD
 70
0
 40
0.0
 41
0.8
 50
0.0
 71
0
 42
0.2
  3
txt
  4

  0
STYLE
  5
213
100
AcDbSymbolTableRecord
100
AcDbTextStyleTableRecord
  2
TEXTSTYLE_1
 70
0
 40
0.0
 41
0.8
 50
0.0
 71
0
 42
0.2
  3
gdt
  4

  0
ENDTAB
  0
TABLE
  2
VIEW
  5
6
100
AcDbSymbolTable
 70
0
  0
ENDTAB
  0
TABLE
  2
UCS
  5
7
100
AcDbSymbolTable
 70
0
  0
ENDTAB
  0
TABLE
  2
APPID
  5
9
100
AcDbSymbolTable
 70
1
  0
APPID
  5
214
100
AcDbSymbolTableRecord
100
AcDbRegAppTableRecord
  2
ACAD
 70
0
  0
ENDTAB
  0
TABLE
  2
BLOCK_RECORD
  5
1
100
AcDbSymbolTable
 70
0
  0
BLOCK_RECORD
  5
215
100
AcDbSymbolTableRecord
100
AcDbBlockTableRecord
  2
*Model_Space
  0
BLOCK_RECORD
  5
216
100
AcDbSymbolTableRecord
100
AcDbBlockTableRecord
  2
*Paper_Space
  0
BLOCK_RECORD
  5
217
100
AcDbSymbolTableRecord
100
AcDbBlockTableRecord
  2
_FILLED
  0
BLOCK_RECORD
  5
218
100
AcDbSymbolTableRecord
100
AcDbBlockTableRecord
  2
*D0
  0
BLOCK_RECORD
  5
219
100
AcDbSymbolTableRecord
100
AcDbBlockTableRecord
  2
*D1
  0
BLOCK_RECORD
  5
21A
100
AcDbSymbolTableRecord
100
AcDbBlockTableRecord
  2
*D2
  0
BLOCK_RECORD
  5
21B
100
AcDbSymbolTableRecord
100
AcDbBlockTableRecord
  2
*D3
  0
ENDTAB
  0
TABLE
  2
DIMSTYLE
  5
A
100
AcDbSymbolTable
 70
1
100
AcDbDimStyleTable
 71
0
  0
DIMSTYLE
105
21C
100
AcDbSymbolTableRecord
100
AcDbDimStyleTableRecord
  2
STANDARD
 70
0
  3

  4

 40
1.0
 41
3.0
 42
0.0625
 43
0.38
 44
0.18
 45
0.0
 46
0.0
 47
0.01
 48
0.01
140
3.0
141
0.09
142
0.0
143
25.4
144
1.0
145
0.0
146
1.0
147
0.09
 71
1.0
 72
0.0
 73
0
 74
0
 75
0
 76
0
 77
1
 78
8
170
0
171
2
172
0
173
0
174
0
175
0
176
0
177
0
178
0
270
2
271
2
272
2
273
2
274
2
275
0
280
0
281
0
282
0
283
1
284
8
285
0
286
0
287
3
288
0
340
11
341
217
342
217
343
217
344
217
  0
DIMSTYLE
105
21D
100
AcDbSymbolTableRecord
100
AcDbDimStyleTableRecord
  2
DIMSTYLE_1
 70
0
  3

  4

 40
1.0
 41
3.0
 42
0.0625
 43
0.38
 44
0.18
 45
0.0
 46
0.0
 47
0.0
 48
0.0
140
3.0
141
0.09
142
0.0
143
25.4
144
1.0
145
0.0
146
1.0
147
0.09
 71
0.0
 72
0.0
 73
0
 74
0
 75
0
 76
0
 77
1
 78
8
170
0
171
2
172
0
173
0
174
0
175
0
176
0
177
0
178
0
270
2
271
2
272
2
273
2
274
2
275
0
280
0
281
0
282
0
283
1
284
8
285
0
286
0
287
3
288
0
340
11
341
217
342
217
343
217
344
217
  0
ENDTAB
  0
ENDSEC
  0
SECTION
  2
BLOCKS
  0
BLOCK
  5
20
100
AcDbEntity
  8
0
100
AcDbBlockBegin
  2
*Model_Space
 70
0
 10
0.0
 20
0.0
 30
0.0
  3
*Model_Space
  1

  0
ENDBLK
  5
21
100
AcDbEntity
  8
0
100
AcDbBlockEnd
  0
BLOCK
  5
1C
100
AcDbEntity
  8
0
100
AcDbBlockBegin
  2
*Paper_Space
 70
0
 10
0.0
 20
0.0
 30
0.0
  3
*Paper_Space
  1

  0
ENDBLK
  5
1D
100
AcDbEntity
  8
0
100
AcDbBlockEnd
  0
BLOCK
  5
21E
100
AcDbEntity
  8
0
100
AcDbBlockBegin
  2
_FILLED
 70
64
 10
0.0
 20
0.0
  3
_FILLED
  1

  0
SOLID
  5
21F
100
AcDbEntity
  8
0
  6
BYBLOCK
 62
0
100
AcDbTrace
 10
0.0
 20
0.0
 11
-1.0
 21
0.3166666667
 12
-1.0
 22
-0.3166666667
 13
-1.0
 23
-0.3166666667
  0
ENDBLK
  5
220
100
AcDbEntity
  8
0
  6
BYBLOCK
 62
0
100
AcDbBlockEnd
  0
BLOCK
  5
221
100
AcDbEntity
  8
0
100
AcDbBlockBegin
 62
7
  6
CONTINUOUS
  2
*D0
 70
65
 10
0.0
 20
0.0
  3
*D0
  1

  0
MTEXT
  5
222
100
AcDbEntity
  8
0
100
AcDbMText
 62
7
  6
CONTINUOUS
  7
STANDARD
 71
2
 72
1
 10
65.25
 20
0.0
 30
0.0
 11
0.0
 21
1.0
 31
0.0
 44
0.9
  1
106
 40
3.0
 41
6.4285714286
  0
LINE
  5
223
100
AcDbEntity
  8
0
100
AcDbLine
 62
7
  6
CONTINUOUS
 10
58.5
 20
53.0
 11
70.5
 21
53.0
  0
LINE
  5
224
100
AcDbEntity
  8
0
100
AcDbLine
 62
7
  6
CONTINUOUS
 10
58.5000000002
 20
-53.0
 11
70.5
 21
-53.0
  0
LINE
  5
225
100
AcDbEntity
  8
0
100
AcDbLine
 62
7
  6
CONTINUOUS
 10
69.0
 20
53.0
 11
69.0
 21
0.0
  0
LINE
  5
226
100
AcDbEntity
  8
0
100
AcDbLine
 62
7
  6
CONTINUOUS
 10
69.0
 20
-53.0
 11
69.0
 21
0.0
  0
INSERT
  5
227
100
AcDbEntity
  8
0
100
AcDbBlockReference
 62
7
  6
CONTINUOUS
  2
_FILLED
 10
69.0
 20
53.0
 41
3.0
 42
3.0
 43
3.0
 50
90.0
  0
INSERT
  5
228
100
AcDbEntity
  8
0
100
AcDbBlockReference
 62
7
  6
CONTINUOUS
  2
_FILLED
 10
69.0
 20
-53.0
 41
3.0
 42
3.0
 43
3.0
 50
270.0
  0
ENDBLK
  5
229
100
AcDbEntity
  8
0
  6
BYBLOCK
 62
0
100
AcDbBlockEnd
  0
BLOCK
  5
22A
100
AcDbEntity
  8
0
100
AcDbBlockBegin
 62
7
  6
CONTINUOUS
  2
*D1
 70
65
 10
0.0
 20
0.0
  3
*D1
  1

  0
MTEXT
  5
22B
100
AcDbEntity
  8
0
100
AcDbMText
 62
7
  6
CONTINUOUS
  7
STANDARD
 71
2
 72
1
 10
-0.0
 20
66.75
 30
0.0
 11
1.0
 21
0.0
 31
0.0
 44
0.9
  1
118
 40
3.0
 41
5.7857142857
  0
LINE
  5
22C
100
AcDbEntity
  8
0
100
AcDbLine
 62
7
  6
CONTINUOUS
 10
59.0
 20
52.5000000002
 11
59.0
 21
64.5
  0
LINE
  5
22D
100
AcDbEntity
  8
0
100
AcDbLine
 62
7
  6
CONTINUOUS
 10
-59.0
 20
52.5
 11
-59.0
 21
64.5
  0
LINE
  5
22E
100
AcDbEntity
  8
0
100
AcDbLine
 62
7
  6
CONTINUOUS
 10
59.0
 20
63.0
 11
0.0
 21
63.0
  0
LINE
  5
22F
100
AcDbEntity
  8
0
100
AcDbLine
 62
7
  6
CONTINUOUS
 10
-59.0
 20
63.0
 11
0.0
 21
63.0
  0
INSERT
  5
230
100
AcDbEntity
  8
0
100
AcDbBlockReference
 62
7
  6
CONTINUOUS
  2
_FILLED
 10
59.0
 20
63.0
 41
3.0
 42
3.0
 43
3.0
 50
0.0
  0
INSERT
  5
231
100
AcDbEntity
  8
0
100
AcDbBlockReference
 62
7
  6
CONTINUOUS
  2
_FILLED
 10
-59.0
 20
63.0
 41
3.0
 42
3.0
 43
3.0
 50
180.0
  0
ENDBLK
  5
232
100
AcDbEntity
  8
0
  6
BYBLOCK
 62
0
100
AcDbBlockEnd
  0
BLOCK
  5
233
100
AcDbEntity
  8
0
100
AcDbBlockBegin
 62
7
  6
CONTINUOUS
  2
*D2
 70
65
 10
0.0
 20
0.0
  3
*D2
  1

  0
MTEXT
  5
234
100
AcDbEntity
  8
0
100
AcDbMText
 62
7
  6
CONTINUOUS
  7
STANDARD
 71
3
 72
1
 10
-89.9105347195
 20
66.75
 30
0.0
 11
1.0
 21
0.0
 31
0.0
 44
0.9
  1
8,2
 40
3.0
 41
6.4285714286
  0
LINE
  5
235
100
AcDbEntity
  8
0
100
AcDbLine
 62
7
  6
CONTINUOUS
 10
-89.5749727022
 20
26.0589958209
 11
-89.5749727022
 21
64.5
  0
LINE
  5
236
100
AcDbEntity
  8
0
100
AcDbLine
 62
7
  6
CONTINUOUS
 10
-81.3749727022
 20
49.1101579604
 11
-81.3749727022
 21
64.5
  0
LINE
  5
237
100
AcDbEntity
  8
0
100
AcDbLine
 62
7
  6
CONTINUOUS
 10
-89.5749727022
 20
63.0
 11
-85.4749727022
 21
63.0
  0
LINE
  5
238
100
AcDbEntity
  8
0
100
AcDbLine
 62
7
  6
CONTINUOUS
 10
-85.4749727022
 20
63.0
 11
-96.339106148
 21
63.0
  0
LINE
  5
239
100
AcDbEntity
  8
0
100
AcDbLine
 62
7
  6
CONTINUOUS
 10
-81.3749727022
 20
63.0
 11
-85.4749727022
 21
63.0
  0
INSERT
  5
23A
100
AcDbEntity
  8
0
100
AcDbBlockReference
 62
7
  6
CONTINUOUS
  2
_FILLED
 10
-89.5749727022
 20
63.0
 41
3.0
 42
3.0
 43
3.0
 50
180.0
  0
INSERT
  5
23B
100
AcDbEntity
  8
0
100
AcDbBlockReference
 62
7
  6
CONTINUOUS
  2
_FILLED
 10
-81.3749727022
 20
63.0
 41
3.0
 42
3.0
 43
3.0
  0
ENDBLK
  5
23C
100
AcDbEntity
  8
0
  6
BYBLOCK
 62
0
100
AcDbBlockEnd
  0
BLOCK
  5
23D
100
AcDbEntity
  8
0
100
AcDbBlockBegin
 62
7
  6
CONTINUOUS
  2
*D3
 70
65
 10
0.0
 20
0.0
  3
*D3
  1

  0
MTEXT
  5
23E
100
AcDbEntity
  8
0
100
AcDbMText
 62
7
  6
CONTINUOUS
  7
STANDARD
 71
3
 72
1
 10
-90.1688278041
 20
74.75
 30
0.0
 11
1.0
 21
0.0
 31
0.0
 44
0.9
  1
9,9
 40
3.0
 41
6.4285714286
  0
LINE
  5
23F
100
AcDbEntity
  8
0
100
AcDbLine
 62
7
  6
CONTINUOUS
 10
-89.5749727022
 20
26.0589958209
 11
-89.5749727022
 21
72.5
  0
LINE
  5
240
100
AcDbEntity
  8
0
100
AcDbLine
 62
7
  6
CONTINUOUS
 10
-79.6749727022
 20
26.85
 11
-79.6749727022
 21
72.5
  0
LINE
  5
241
100
AcDbEntity
  8
0
100
AcDbLine
 62
7
  6
CONTINUOUS
 10
-89.5749727022
 20
71.0
 11
-84.6249727022
 21
71.0
  0
LINE
  5
242
100
AcDbEntity
  8
0
100
AcDbLine
 62
7
  6
CONTINUOUS
 10
-84.6249727022
 20
71.0
 11
-96.5973992326
 21
71.0
  0
LINE
  5
243
100
AcDbEntity
  8
0
100
AcDbLine
 62
7
  6
CONTINUOUS
 10
-79.6749727022
 20
71.0
 11
-84.6249727022
 21
71.0
  0
INSERT
  5
244
100
AcDbEntity
  8
0
100
AcDbBlockReference
 62
7
  6
CONTINUOUS
  2
_FILLED
 10
-89.5749727022
 20
71.0
 41
3.0
 42
3.0
 43
3.0
 50
180.0
  0
INSERT
  5
245
100
AcDbEntity
  8
0
100
AcDbBlockReference
 62
7
  6
CONTINUOUS
  2
_FILLED
 10
-79.6749727022
 20
71.0
 41
3.0
 42
3.0
 43
3.0
  0
ENDBLK
  5
246
100
AcDbEntity
  8
0
  6
BYBLOCK
 62
0
100
AcDbBlockEnd
  0
ENDSEC
  0
SECTION
  2
ENTITIES
  0
DIMENSION
  5
247
100
AcDbEntity
  8
0
100
AcDbDimension
 62
7
  6
CONTINUOUS
  2
*D0
 10
69.0
 20
-53.0
 11
68.1902366233
 21
-2.8735607044
 70
160
 71
2
 42
106.0
  3
DIMSTYLE_1
100
AcDbAlignedDimension
 13
58.5
 23
53.0
 14
58.5000000002
 24
-53.0
 50
270.0
100
AcDbRotatedDimension
  0
DIMENSION
  5
248
100
AcDbEntity
  8
0
100
AcDbDimension
 62
7
  6
CONTINUOUS
  2
*D1
 10
-59.0
 20
63.0
 11
-2.8928571429
 21
65.25
 70
160
 71
2
 42
118.0
  3
DIMSTYLE_1
100
AcDbAlignedDimension
 13
59.0
 23
52.5000000002
 14
-59.0
 24
52.5
 50
180.0
100
AcDbRotatedDimension
  0
DIMENSION
  5
249
100
AcDbEntity
  8
0
100
AcDbDimension
 62
7
  6
CONTINUOUS
  2
*D2
 10
-81.3749727022
 20
63.0
 11
-99.5533918623
 21
65.25
 70
160
 71
3
 42
8.2
  3
DIMSTYLE_1
100
AcDbAlignedDimension
 13
-89.5749727022
 23
26.0589958209
 14
-81.3749727022
 24
49.1101579604
100
AcDbRotatedDimension
  0
DIMENSION
  5
24A
100
AcDbEntity
  8
0
100
AcDbDimension
 62
7
  6
CONTINUOUS
  2
*D3
 10
-79.6749727022
 20
71.0
 11
-99.8116849469
 21
73.25
 70
160
 71
3
 42
9.9
  3
DIMSTYLE_1
100
AcDbAlignedDimension
 13
-89.5749727022
 23
26.0589958209
 14
-79.6749727022
 24
26.85
100
AcDbRotatedDimension
  0
LINE
  5
24B
100
AcDbEntity
  8
RACCORDO
100
AcDbLine
 62
7
  6
CONTINUOUS
 10
-59.0
 20
52.0
 11
-59.0
 21
-52.0
  0
LINE
  5
24C
100
AcDbEntity
  8
RACCORDO
100
AcDbLine
 62
253
  6
CONTINUOUS
 10
-58.5
 20
52.0
 11
-58.5
 21
-52.0
  0
LINE
  5
24D
100
AcDbEntity
  8
RACCORDO
100
AcDbLine
 62
253
  6
CONTINUOUS
 10
-58.0
 20
-52.5
 11
-58.0
 21
-53.0
  0
LINE
  5
24E
100
AcDbEntity
  8
RACCORDO
100
AcDbLine
 62
253
  6
CONTINUOUS
 10
-58.0
 20
52.5
 11
-58.0000000002
 21
53.0
  0
LINE
  5
24F
100
AcDbEntity
  8
RACCORDO
100
AcDbLine
 62
7
  6
CONTINUOUS
 10
-58.0
 20
-53.0
 11
58.0
 21
-53.0
  0
LINE
  5
250
100
AcDbEntity
  8
RACCORDO
100
AcDbLine
 62
253
  6
CONTINUOUS
 10
-58.0
 20
-52.5
 11
58.0
 21
-52.5
  0
LINE
  5
251
100
AcDbEntity
  8
RACCORDO
100
AcDbLine
 62
253
  6
CONTINUOUS
 10
58.5
 20
-52.0
 11
59.0
 21
-52.0
  0
LINE
  5
252
100
AcDbEntity
  8
RACCORDO
100
AcDbLine
 62
253
  6
CONTINUOUS
 10
-58.5
 20
-52.0
 11
-59.0
 21
-52.0000000002
  0
LINE
  5
253
100
AcDbEntity
  8
RACCORDO
100
AcDbLine
 62
7
  6
CONTINUOUS
 10
-37.2
 20
25.6001066134
 11
-37.2
 21
-25.6001066134
  0
LINE
  5
254
100
AcDbEntity
  8
RACCORDO
100
AcDbLine
 62
253
  6
CONTINUOUS
 10
-37.1588892076
 20
25.5589958209
 11
-37.1588892076
 21
-25.5589958209
  0
LINE
  5
255
100
AcDbEntity
  8
RACCORDO
100
AcDbLine
 62
253
  6
CONTINUOUS
 10
-36.858934899
 20
25.5589958209
 11
-36.858934899
 21
-25.5622249555
  0
LINE
  5
256
100
AcDbEntity
  8
RACCORDO
100
AcDbLine
 62
253
  6
CONTINUOUS
 10
-36.458995819
 20
26.2588892076
 11
-36.4589958209
 21
25.958934899
  0
LINE
  5
257
100
AcDbEntity
  8
RACCORDO
100
AcDbLine
 62
253
  6
CONTINUOUS
 10
-36.4589958196
 20
-26.2588892076
 11
-36.4589958209
 21
-25.958934899
  0
LINE
  5
258
100
AcDbEntity
  8
RACCORDO
100
AcDbLine
 62
253
  6
CONTINUOUS
 10
-34.5220165488
 20
-22.9738147507
 11
-34.5220165488
 21
22.9738147507
  0
LINE
  5
259
100
AcDbEntity
  8
RACCORDO
100
AcDbLine
 62
253
  6
CONTINUOUS
 10
-34.2265742229
 20
-22.9738150771
 11
-34.2265742229
 21
22.9738150026
  0
LINE
  5
25A
100
AcDbEntity
  8
RACCORDO
100
AcDbLine
 62
253
  6
CONTINUOUS
 10
-33.9489450092
 20
23.5743997534
 11
-33.9489450092
 21
23.2924919672
  0
LINE
  5
25B
100
AcDbEntity
  8
RACCORDO
100
AcDbLine
 62
253
  6
CONTINUOUS
 10
-33.9489450092
 20
-23.5743997534
 11
-33.9489450093
 21
-23.2924919672
  0
LINE
  5
25C
100
AcDbEntity
  8
RACCORDO
100
AcDbLine
 62
253
  6
CONTINUOUS
 10
-33.906833204
 20
22.2993589244
 11
-33.906833204
 21
-22.2993589244
  0
LINE
  5
25D
100
AcDbEntity
  8
RACCORDO
100
AcDbLine
 62
253
  6
CONTINUOUS
 10
-33.8993132329
 20
22.2993589244
 11
-33.8993132329
 21
-22.2993589244
  0
LINE
  5
25E
100
AcDbEntity
  8
RACCORDO
100
AcDbLine
 62
7
  6
CONTINUOUS
 10
-33.8921452208
 20
-22.2921909122
 11
-33.8921452208
 21
22.2921909122
  0
LINE
  5
25F
100
AcDbEntity
  8
RACCORDO
100
AcDbLine
 62
253
  6
CONTINUOUS
 10
-33.5985854258
 20
-22.5985397344
 11
-33.5985854258
 21
-22.6286172716
  0
LINE
  5
260
100
AcDbEntity
  8
RACCORDO
100
AcDbLine
 62
253
  6
CONTINUOUS
 10
-33.5985854258
 20
22.5985397344
 11
-33.5985854264
 21
22.6286172716
  0
LINE
  5
261
100
AcDbEntity
  8
RACCORDO
100
AcDbLine
 62
7
  6
CONTINUOUS
 10
-36.5001066134
 20
-26.3
 11
36.5001066134
 21
-26.3
  0
LINE
  5
262
100
AcDbEntity
  8
RACCORDO
100
AcDbLine
 62
253
  6
CONTINUOUS
 10
-36.4589958209
 20
-26.2588892076
 11
36.4589958209
 21
-26.2588892076
  0
LINE
  5
263
100
AcDbEntity
  8
RACCORDO
100
AcDbLine
 62
253
  6
CONTINUOUS
 10
-36.4589958209
 20
-25.958934899
 11
36.4622249493
 21
-25.958934899
  0
LINE
  5
264
100
AcDbEntity
  8
0
100
AcDbLine
 62
7
  6
CONTINUOUS
 10
-3.446727
 20
-25.815174
 11
-3.060461
 21
-25.815174
  0
LINE
  5
265
100
AcDbEntity
  8
0
100
AcDbLine
 62
7
  6
CONTINUOUS
 10
-2.222834
 20
-25.815174
 11
-1.784518
 21
-25.815174
  0
LINE
  5
266
100
AcDbEntity
  8
0
100
AcDbLine
 62
7
  6
CONTINUOUS
 10
-1.548559
 20
-25.815174
 11
-1.129234
 21
-25.815174
  0
LINE
  5
267
100
AcDbEntity
  8
0
100
AcDbLine
 62
7
  6
CONTINUOUS
 10
-0.520448
 20
-25.815174
 11
-0.458975
 21
-25.815174
  0
LINE
  5
268
100
AcDbEntity
  8
0
100
AcDbLine
 62
7
  6
CONTINUOUS
 10
0.152236
 20
-25.815174
 11
0.581025
 21
-25.815174
  0
LINE
  5
269
100
AcDbEntity
  8
0
100
AcDbLine
 62
7
  6
CONTINUOUS
 10
0.649852
 20
-25.815174
 11
1.083412
 21
-25.815174
  0
LINE
  5
26A
100
AcDbEntity
  8
0
100
AcDbLine
 62
7
  6
CONTINUOUS
 10
1.91482
 20
-25.815174
 11
2.376786
 21
-25.815174
  0
LINE
  5
26B
100
AcDbEntity
  8
0
100
AcDbLine
 62
7
  6
CONTINUOUS
 10
2.505496876
 20
-25.8151743977
 11
2.9420487595
 21
-25.8151743977
  0
LINE
  5
26C
100
AcDbEntity
  8
0
100
AcDbLine
 62
7
  6
CONTINUOUS
 10
3.613268538
 20
-25.8151743977
 11
4.0348771327
 21
-25.8151743977
  0
LINE
  5
26D
100
AcDbEntity
  8
RACCORDO
100
AcDbLine
 62
253
  6
CONTINUOUS
 10
-34.2265742229
 20
-22.9738150771
 11
-33.9066937466
 21
-22.3135245816
  0
LINE
  5
26E
100
AcDbEntity
  8
RACCORDO
100
AcDbLine
 62
253
  6
CONTINUOUS
 10
-37.1588892076
 20
-25.558995819
 11
-36.858934899
 21
-25.5589958209
  0
LINE
  5
26F
100
AcDbEntity
  8
RACCORDO
100
AcDbLine
 62
253
  6
CONTINUOUS
 10
37.1588892076
 20
-25.5589958196
 11
36.858934899
 21
-25.5589958209
  0
LINE
  5
270
100
AcDbEntity
  8
0
100
AcDbLine
 62
7
  6
CONTINUOUS
 10
1.20436
 20
-25.395975
 11
1.801273
 21
-25.395975
  0
LINE
  5
271
100
AcDbEntity
  8
0
100
AcDbLine
 62
7
  6
CONTINUOUS
 10
1.713676
 20
-25.0716
 11
1.29402
 21
-25.0716
  0
LINE
  5
272
100
AcDbEntity
  8
0
100
AcDbLine
 62
7
  6
CONTINUOUS
 10
2.9420487595
 20
-24.993419487
 11
3.1770630743
 21
-24.993419487
  0
LINE
  5
273
100
AcDbEntity
  8
0
100
AcDbLine
 62
7
  6
CONTINUOUS
 10
3.1780078554
 20
-24.6495191431
 11
2.927514876
 21
-24.6495191431
  0
LINE
  5
274
100
AcDbEntity
  8
0
100
AcDbLine
 62
7
  6
CONTINUOUS
 10
1.732508
 20
-23.715351
 11
1.308491
 21
-23.715351
  0
LINE
  5
275
100
AcDbEntity
  8
0
100
AcDbLine
 62
7
  6
CONTINUOUS
 10
0.384668
 20
-23.715351
 11
-0.049002
 21
-23.715351
  0
LINE
  5
276
100
AcDbEntity
  8
0
100
AcDbLine
 62
7
  6
CONTINUOUS
 10
-0.921004
 20
-23.715351
 11
-1.358957
 21
-23.715351
  0
LINE
  5
277
100
AcDbEntity
  8
0
100
AcDbLine
 62
7
  6
CONTINUOUS
 10
-2.385493
 20
-23.715351
 11
-2.82351
 21
-23.715351
  0
LINE
  5
278
100
AcDbEntity
  8
0
100
AcDbLine
 62
7
  6
CONTINUOUS
 10
-3.636266
 20
-23.715351
 11
-4.112412
 21
-23.715351
  0
LINE
  5
279
100
AcDbEntity
  8
0
100
AcDbLine
 62
7
  6
CONTINUOUS
 10
-1.784518
 20
-23.715225
 11
-2.222834
 21
-23.715225
  0
LINE
  5
27A
100
AcDbEntity
  8
RACCORDO
100
AcDbLine
 62
253
  6
CONTINUOUS
 10
33.9489450092
 20
-23.5743997534
 11
-33.9489450092
 21
-23.5743997534
  0
LINE
  5
27B
100
AcDbEntity
  8
RACCORDO
100
AcDbLine
 62
253
  6
CONTINUOUS
 10
33.9489313298
 20
-23.2924919672
 11
-33.9489659197
 21
-23.2924919672
  0
LINE
  5
27C
100
AcDbEntity
  8
RACCORDO
100
AcDbLine
 62
253
  6
CONTINUOUS
 10
-34.5220165488
 20
-22.9738147507
 11
-34.2265742229
 21
-22.9738147507
  0
LINE
  5
27D
100
AcDbEntity
  8
RACCORDO
100
AcDbLine
 62
253
  6
CONTINUOUS
 10
34.5220165488
 20
-22.9738147507
 11
34.2265742229
 21
-22.9738147509
  0
LINE
  5
27E
100
AcDbEntity
  8
RACCORDO
100
AcDbLine
 62
253
  6
CONTINUOUS
 10
-33.5985854258
 20
-22.6286172716
 11
33.5985854258
 21
-22.6286172716
  0
LINE
  5
27F
100
AcDbEntity
  8
RACCORDO
100
AcDbLine
 62
253
  6
CONTINUOUS
 10
-33.5985854258
 20
-22.5985397344
 11
33.5985854258
 21
-22.5985397344
  0
LINE
  5
280
100
AcDbEntity
  8
RACCORDO
100
AcDbLine
 62
7
  6
CONTINUOUS
 10
33.5921909122
 20
-22.5921452208
 11
-33.5921909122
 21
-22.5921452208
  0
LINE
  5
281
100
AcDbEntity
  8
RACCORDO
100
AcDbLine
 62
253
  6
CONTINUOUS
 10
33.8993132329
 20
-22.2993589244
 11
33.906833204
 21
-22.2993589244
  0
LINE
  5
282
100
AcDbEntity
  8
RACCORDO
100
AcDbLine
 62
253
  6
CONTINUOUS
 10
-33.8993132329
 20
-22.2993589244
 11
-33.906833204
 21
-22.2993589244
  0
LINE
  5
283
100
AcDbEntity
  8
RACCORDO
100
AcDbLine
 62
253
  6
CONTINUOUS
 10
-33.9066937466
 20
22.3135245816
 11
-34.2265742229
 21
22.9738150026
  0
LINE
  5
284
100
AcDbEntity
  8
RACCORDO
100
AcDbLine
 62
253
  6
CONTINUOUS
 10
-33.9489659197
 20
-23.2924919672
 11
-33.6271590091
 21
-22.6280810677
  0
LINE
  5
285
100
AcDbEntity
  8
RACCORDO
100
AcDbLine
 62
253
  6
CONTINUOUS
 10
-33.6271590885
 20
22.6280810766
 11
-33.948967503
 21
23.2924919672
  0
LINE
  5
286
100
AcDbEntity
  8
0
100
AcDbLine
 62
7
  6
CONTINUOUS
 10
-4.112412
 20
-23.715351
 11
-3.446727
 21
-25.815174
  0
LINE
  5
287
100
AcDbEntity
  8
RACCORDO
100
AcDbLine
 62
253
  6
CONTINUOUS
 10
-33.8993132329
 20
-22.2993589244
 11
-33.8921452208
 21
-22.2921909122
  0
LINE
  5
288
100
AcDbEntity
  8
RACCORDO
100
AcDbLine
 62
253
  6
CONTINUOUS
 10
-37.1588892076
 20
-25.5589958209
 11
-37.2
 21
-25.6001066134
  0
LINE
  5
289
100
AcDbEntity
  8
RACCORDO
100
AcDbLine
 62
253
  6
CONTINUOUS
 10
-33.5985854258
 20
-22.5985397344
 11
-33.5921909122
 21
-22.5921452208
  0
LINE
  5
28A
100
AcDbEntity
  8
RACCORDO
100
AcDbLine
 62
253
  6
CONTINUOUS
 10
-36.4589958209
 20
-26.2588892076
 11
-36.5001066134
 21
-26.3
  0
LINE
  5
28B
100
AcDbEntity
  8
RACCORDO
100
AcDbLine
 62
253
  6
CONTINUOUS
 10
-33.8921452208
 20
22.2921909122
 11
-33.8993132329
 21
22.2993589244
  0
LINE
  5
28C
100
AcDbEntity
  8
RACCORDO
100
AcDbLine
 62
253
  6
CONTINUOUS
 10
-37.1588892076
 20
25.5589958209
 11
-37.2
 21
25.6001066134
  0
LINE
  5
28D
100
AcDbEntity
  8
RACCORDO
100
AcDbLine
 62
253
  6
CONTINUOUS
 10
-33.5921909122
 20
22.5921452208
 11
-33.5985854258
 21
22.5985397344
  0
LINE
  5
28E
100
AcDbEntity
  8
RACCORDO
100
AcDbLine
 62
253
  6
CONTINUOUS
 10
-36.4589958209
 20
26.2588892076
 11
-36.5001066134
 21
26.3
  0
LINE
  5
28F
100
AcDbEntity
  8
0
100
AcDbLine
 62
7
  6
CONTINUOUS
 10
-1.034645
 20
-24.444029
 11
-0.520448
 21
-25.815174
  0
LINE
  5
290
100
AcDbEntity
  8
0
100
AcDbLine
 62
7
  6
CONTINUOUS
 10
-0.487318
 20
-24.881179
 11
-0.921004
 21
-23.715351
  0
LINE
  5
291
100
AcDbEntity
  8
0
100
AcDbLine
 62
7
  6
CONTINUOUS
 10
2.376786
 20
-25.815174
 11
1.732508
 21
-23.715351
  0
LINE
  5
292
100
AcDbEntity
  8
0
100
AcDbLine
 62
7
  6
CONTINUOUS
 10
-3.236001
 20
-25.160724
 11
-3.636266
 21
-23.715351
  0
LINE
  5
293
100
AcDbEntity
  8
0
100
AcDbLine
 62
7
  6
CONTINUOUS
 10
1.801273
 20
-25.395975
 11
1.91482
 21
-25.815174
  0
LINE
  5
294
100
AcDbEntity
  8
0
100
AcDbLine
 62
7
  6
CONTINUOUS
 10
1.512264
 20
-24.292329
 11
1.713676
 21
-25.0716
  0
LINE
  5
295
100
AcDbEntity
  8
0
100
AcDbLine
 62
7
  6
CONTINUOUS
 10
0.581025
 20
-25.815174
 11
0.384668
 21
-23.715351
  0
LINE
  5
296
100
AcDbEntity
  8
0
100
AcDbLine
 62
7
  6
CONTINUOUS
 10
0.062183
 20
-24.449745
 11
0.152236
 21
-25.815174
  0
LINE
  5
297
100
AcDbEntity
  8
0
100
AcDbLine
 62
7
  6
CONTINUOUS
 10
-2.222834
 20
-23.715225
 11
-2.222834
 21
-25.815174
  0
LINE
  5
298
100
AcDbEntity
  8
0
100
AcDbLine
 62
7
  6
CONTINUOUS
 10
-1.784518
 20
-25.815174
 11
-1.784518
 21
-23.715225
  0
LINE
  5
299
100
AcDbEntity
  8
0
100
AcDbLine
 62
7
  6
CONTINUOUS
 10
-1.129234
 20
-25.815174
 11
-1.034645
 21
-24.444029
  0
LINE
  5
29A
100
AcDbEntity
  8
0
100
AcDbLine
 62
7
  6
CONTINUOUS
 10
2.505496876
 20
-23.7398838377
 11
2.505496876
 21
-25.8151743977
  0
LINE
  5
29B
100
AcDbEntity
  8
0
100
AcDbLine
 62
7
  6
CONTINUOUS
 10
2.927514876
 20
-24.6495191431
 11
2.927514876
 21
-24.0730766618
  0
LINE
  5
29C
100
AcDbEntity
  8
0
100
AcDbLine
 62
7
  6
CONTINUOUS
 10
2.9420487595
 20
-25.8151743977
 11
2.9420487595
 21
-24.993419487
  0
LINE
  5
29D
100
AcDbEntity
  8
0
100
AcDbLine
 62
7
  6
CONTINUOUS
 10
3.6323846102
 20
-24.834995432
 11
3.6323846102
 21
-24.8225873061
  0
LINE
  5
29E
100
AcDbEntity
  8
0
100
AcDbLine
 62
7
  6
CONTINUOUS
 10
-1.358957
 20
-23.715351
 11
-1.548559
 21
-25.815174
  0
LINE
  5
29F
100
AcDbEntity
  8
0
100
AcDbLine
 62
7
  6
CONTINUOUS
 10
-2.82351
 20
-23.715351
 11
-3.236001
 21
-25.160724
  0
LINE
  5
2A0
100
AcDbEntity
  8
0
100
AcDbLine
 62
7
  6
CONTINUOUS
 10
-3.060461
 20
-25.815174
 11
-2.385493
 21
-23.715351
  0
LINE
  5
2A1
100
AcDbEntity
  8
0
100
AcDbLine
 62
7
  6
CONTINUOUS
 10
1.29402
 20
-25.0716
 11
1.512264
 21
-24.292329
  0
LINE
  5
2A2
100
AcDbEntity
  8
0
100
AcDbLine
 62
7
  6
CONTINUOUS
 10
1.083412
 20
-25.815174
 11
1.20436
 21
-25.395975
  0
LINE
  5
2A3
100
AcDbEntity
  8
0
100
AcDbLine
 62
7
  6
CONTINUOUS
 10
1.308491
 20
-23.715351
 11
0.649852
 21
-25.815174
  0
LINE
  5
2A4
100
AcDbEntity
  8
0
100
AcDbLine
 62
7
  6
CONTINUOUS
 10
-0.049002
 20
-23.715351
 11
-0.487318
 21
-24.881179
  0
LINE
  5
2A5
100
AcDbEntity
  8
0
100
AcDbLine
 62
7
  6
CONTINUOUS
 10
-0.458975
 20
-25.815174
 11
0.062183
 21
-24.449745
  0
LINE
  5
2A6
100
AcDbEntity
  8
RACCORDO
100
AcDbLine
 62
253
  6
CONTINUOUS
 10
36.4589958209
 20
26.2588892076
 11
36.5001066134
 21
26.3
  0
LINE
  5
2A7
100
AcDbEntity
  8
RACCORDO
100
AcDbLine
 62
253
  6
CONTINUOUS
 10
33.5985854258
 20
22.5985397344
 11
33.5921909122
 21
22.5921452208
  0
LINE
  5
2A8
100
AcDbEntity
  8
RACCORDO
100
AcDbLine
 62
253
  6
CONTINUOUS
 10
37.1588892076
 20
25.5589958209
 11
37.2
 21
25.6001066134
  0
LINE
  5
2A9
100
AcDbEntity
  8
RACCORDO
100
AcDbLine
 62
253
  6
CONTINUOUS
 10
33.8993132329
 20
22.2993589244
 11
33.8921452208
 21
22.2921909122
  0
LINE
  5
2AA
100
AcDbEntity
  8
RACCORDO
100
AcDbLine
 62
253
  6
CONTINUOUS
 10
36.4589958209
 20
-26.2588892076
 11
36.5001066134
 21
-26.3
  0
LINE
  5
2AB
100
AcDbEntity
  8
RACCORDO
100
AcDbLine
 62
253
  6
CONTINUOUS
 10
33.5985854258
 20
-22.5985397344
 11
33.5921909122
 21
-22.5921452208
  0
LINE
  5
2AC
100
AcDbEntity
  8
RACCORDO
100
AcDbLine
 62
253
  6
CONTINUOUS
 10
37.1588892076
 20
-25.5589958209
 11
37.2
 21
-25.6001066134
  0
LINE
  5
2AD
100
AcDbEntity
  8
RACCORDO
100
AcDbLine
 62
253
  6
CONTINUOUS
 10
33.8993132329
 20
-22.2993589244
 11
33.8921452208
 21
-22.2921909122
  0
LINE
  5
2AE
100
AcDbEntity
  8
RACCORDO
100
AcDbLine
 62
253
  6
CONTINUOUS
 10
33.9489659197
 20
23.2924919672
 11
33.6271590091
 21
22.6280810677
  0
LINE
  5
2AF
100
AcDbEntity
  8
RACCORDO
100
AcDbLine
 62
253
  6
CONTINUOUS
 10
34.2265742229
 20
22.9738150771
 11
33.9066937466
 21
22.3135245816
  0
LINE
  5
2B0
100
AcDbEntity
  8
RACCORDO
100
AcDbLine
 62
253
  6
CONTINUOUS
 10
34.2265742229
 20
-22.9738147507
 11
33.9066937466
 21
-22.3135245816
  0
LINE
  5
2B1
100
AcDbEntity
  8
RACCORDO
100
AcDbLine
 62
253
  6
CONTINUOUS
 10
33.9489313298
 20
-23.2924919672
 11
33.6275512852
 21
-22.6280700966
  0
LINE
  5
2B2
100
AcDbEntity
  8
RACCORDO
100
AcDbLine
 62
253
  6
CONTINUOUS
 10
-33.8993132329
 20
22.2993589244
 11
-33.906833204
 21
22.2993589244
  0
LINE
  5
2B3
100
AcDbEntity
  8
RACCORDO
100
AcDbLine
 62
253
  6
CONTINUOUS
 10
33.8993132329
 20
22.2993589244
 11
33.906833204
 21
22.2993589244
  0
LINE
  5
2B4
100
AcDbEntity
  8
RACCORDO
100
AcDbLine
 62
7
  6
CONTINUOUS
 10
-33.5921909122
 20
22.5921452208
 11
33.5921909122
 21
22.5921452208
  0
LINE
  5
2B5
100
AcDbEntity
  8
RACCORDO
100
AcDbLine
 62
253
  6
CONTINUOUS
 10
33.5985854258
 20
22.5985397344
 11
-33.5985854258
 21
22.5985397344
  0
LINE
  5
2B6
100
AcDbEntity
  8
RACCORDO
100
AcDbLine
 62
253
  6
CONTINUOUS
 10
33.5985854258
 20
22.6286172716
 11
-33.5985854258
 21
22.6286172716
  0
LINE
  5
2B7
100
AcDbEntity
  8
RACCORDO
100
AcDbLine
 62
253
  6
CONTINUOUS
 10
-34.5220165488
 20
22.9738147507
 11
-34.2265742229
 21
22.9738147507
  0
LINE
  5
2B8
100
AcDbEntity
  8
RACCORDO
100
AcDbLine
 62
253
  6
CONTINUOUS
 10
34.5220165488
 20
22.9738147507
 11
34.2265742229
 21
22.9738147507
  0
LINE
  5
2B9
100
AcDbEntity
  8
RACCORDO
100
AcDbLine
 62
253
  6
CONTINUOUS
 10
-33.948967503
 20
23.2924919672
 11
33.9489659197
 21
23.2924919672
  0
LINE
  5
2BA
100
AcDbEntity
  8
RACCORDO
100
AcDbLine
 62
253
  6
CONTINUOUS
 10
-33.9489450092
 20
23.5743997534
 11
33.9489450092
 21
23.5743997534
  0
LINE
  5
2BB
100
AcDbEntity
  8
RACCORDO
100
AcDbLine
 62
253
  6
CONTINUOUS
 10
-37.1588892076
 20
25.5589958196
 11
-36.858934899
 21
25.5589958209
  0
LINE
  5
2BC
100
AcDbEntity
  8
RACCORDO
100
AcDbLine
 62
253
  6
CONTINUOUS
 10
37.1588892076
 20
25.558995819
 11
36.858934899
 21
25.5589958209
  0
LINE
  5
2BD
100
AcDbEntity
  8
RACCORDO
100
AcDbLine
 62
253
  6
CONTINUOUS
 10
36.4589958209
 20
25.958934899
 11
-36.4622249493
 21
25.958934899
  0
LINE
  5
2BE
100
AcDbEntity
  8
RACCORDO
100
AcDbLine
 62
253
  6
CONTINUOUS
 10
36.4589958209
 20
26.2588892076
 11
-36.4589958209
 21
26.2588892076
  0
LINE
  5
2BF
100
AcDbEntity
  8
RACCORDO
100
AcDbLine
 62
7
  6
CONTINUOUS
 10
36.5001066134
 20
26.3
 11
-36.5001066134
 21
26.3
  0
LINE
  5
2C0
100
AcDbEntity
  8
RACCORDO
100
AcDbLine
 62
253
  6
CONTINUOUS
 10
33.5985854258
 20
-22.5985397344
 11
33.5985854263
 21
-22.6286172716
  0
LINE
  5
2C1
100
AcDbEntity
  8
RACCORDO
100
AcDbLine
 62
253
  6
CONTINUOUS
 10
33.5985854258
 20
22.5985397344
 11
33.5985854258
 21
22.6286172716
  0
LINE
  5
2C2
100
AcDbEntity
  8
RACCORDO
100
AcDbLine
 62
7
  6
CONTINUOUS
 10
33.8921452208
 20
22.2921909122
 11
33.8921452208
 21
-22.2921909122
  0
LINE
  5
2C3
100
AcDbEntity
  8
RACCORDO
100
AcDbLine
 62
253
  6
CONTINUOUS
 10
33.8993132329
 20
-22.2993589244
 11
33.8993132329
 21
22.2993589244
  0
LINE
  5
2C4
100
AcDbEntity
  8
RACCORDO
100
AcDbLine
 62
253
  6
CONTINUOUS
 10
33.906833204
 20
-22.2993589244
 11
33.906833204
 21
22.2993589244
  0
LINE
  5
2C5
100
AcDbEntity
  8
RACCORDO
100
AcDbLine
 62
253
  6
CONTINUOUS
 10
33.9489450092
 20
23.5743997534
 11
33.9489450093
 21
23.2924919672
  0
LINE
  5
2C6
100
AcDbEntity
  8
RACCORDO
100
AcDbLine
 62
253
  6
CONTINUOUS
 10
33.9489450092
 20
-23.5743997534
 11
33.9489450092
 21
-23.2924919672
  0
LINE
  5
2C7
100
AcDbEntity
  8
RACCORDO
100
AcDbLine
 62
253
  6
CONTINUOUS
 10
34.2265742229
 20
22.9738150771
 11
34.2265742229
 21
-22.9738147507
  0
LINE
  5
2C8
100
AcDbEntity
  8
RACCORDO
100
AcDbLine
 62
253
  6
CONTINUOUS
 10
34.5220165488
 20
22.9738147507
 11
34.5220165488
 21
-22.9738147507
  0
LINE
  5
2C9
100
AcDbEntity
  8
RACCORDO
100
AcDbLine
 62
253
  6
CONTINUOUS
 10
36.4589958196
 20
26.2588892076
 11
36.4589958209
 21
25.958934899
  0
LINE
  5
2CA
100
AcDbEntity
  8
RACCORDO
100
AcDbLine
 62
253
  6
CONTINUOUS
 10
36.458995819
 20
-26.2588892076
 11
36.4589958209
 21
-25.958934899
  0
LINE
  5
2CB
100
AcDbEntity
  8
RACCORDO
100
AcDbLine
 62
253
  6
CONTINUOUS
 10
36.858934899
 20
-25.5589958209
 11
36.858934899
 21
25.5589958209
  0
LINE
  5
2CC
100
AcDbEntity
  8
RACCORDO
100
AcDbLine
 62
253
  6
CONTINUOUS
 10
37.1588892076
 20
-25.5589958209
 11
37.1588892076
 21
25.5589958209
  0
LINE
  5
2CD
100
AcDbEntity
  8
RACCORDO
100
AcDbLine
 62
7
  6
CONTINUOUS
 10
37.2
 20
-25.6001066134
 11
37.2
 21
25.6001066134
  0
LINE
  5
2CE
100
AcDbEntity
  8
RACCORDO
100
AcDbLine
 62
253
  6
CONTINUOUS
 10
58.5
 20
52.0
 11
59.0
 21
52.0000000002
  0
LINE
  5
2CF
100
AcDbEntity
  8
RACCORDO
100
AcDbLine
 62
253
  6
CONTINUOUS
 10
-58.5
 20
52.0
 11
-59.0
 21
52.0
  0
LINE
  5
2D0
100
AcDbEntity
  8
RACCORDO
100
AcDbLine
 62
253
  6
CONTINUOUS
 10
58.0
 20
52.5
 11
-58.0
 21
52.5
  0
LINE
  5
2D1
100
AcDbEntity
  8
RACCORDO
100
AcDbLine
 62
7
  6
CONTINUOUS
 10
58.0
 20
53.0
 11
-58.0
 21
53.0
  0
LINE
  5
2D2
100
AcDbEntity
  8
RACCORDO
100
AcDbLine
 62
253
  6
CONTINUOUS
 10
58.0
 20
-52.5
 11
58.0000000002
 21
-53.0
  0
LINE
  5
2D3
100
AcDbEntity
  8
RACCORDO
100
AcDbLine
 62
253
  6
CONTINUOUS
 10
58.0
 20
52.5
 11
58.0
 21
53.0
  0
LINE
  5
2D4
100
AcDbEntity
  8
RACCORDO
100
AcDbLine
 62
253
  6
CONTINUOUS
 10
58.5
 20
-52.0
 11
58.5
 21
52.0
  0
LINE
  5
2D5
100
AcDbEntity
  8
RACCORDO
100
AcDbLine
 62
7
  6
CONTINUOUS
 10
59.0
 20
-52.0
 11
59.0
 21
52.0
  0
LINE
  5
2D6
100
AcDbEntity
  8
RACCORDO
100
AcDbLine
 62
7
  6
CONTINUOUS
 10
-86.4249727022
 20
-53.0
 11
-82.8749727022
 21
-53.0
  0
LINE
  5
2D7
100
AcDbEntity
  8
RACCORDO
100
AcDbLine
 62
7
  6
CONTINUOUS
 10
-82.3749727022
 20
-50.6273084156
 11
-81.3749727022
 21
-50.6098533507
  0
LINE
  5
2D8
100
AcDbEntity
  8
RACCORDO
100
AcDbLine
 62
253
  6
CONTINUOUS
 10
-82.3749727022
 20
-52.0
 11
-86.9249727022
 21
-52.0
  0
LINE
  5
2D9
100
AcDbEntity
  8
RACCORDO
100
AcDbLine
 62
253
  6
CONTINUOUS
 10
-82.3749727022
 20
-48.6276130253
 11
-81.3749727022
 21
-48.6101579604
  0
LINE
  5
2DA
100
AcDbEntity
  8
ASSI
100
AcDbLine
 62
7
  6
CONTINUOUS
 10
-79.6749727022
 20
-26.35
 11
-81.3749727022
 21
-26.3598903107
  0
LINE
  5
2DB
100
AcDbEntity
  8
DRAFT
100
AcDbLine
 62
7
  6
CONTINUOUS
 10
-81.3749727022
 20
-27.1459857386
 11
-79.6749727022
 21
-27.1430186759
  0
LINE
  5
2DC
100
AcDbEntity
  8
DRAFT
100
AcDbLine
 62
253
  6
CONTINUOUS
 10
-81.3749727022
 20
-26.8937435176
 11
-79.6749727022
 21
-26.8929755853
  0
LINE
  5
2DD
100
AcDbEntity
  8
0
100
AcDbLine
 62
7
  6
CONTINUOUS
 10
-89.5749727022
 20
-25.8151743977
 11
-89.7749727022
 21
-25.8151743977
  0
LINE
  5
2DE
100
AcDbEntity
  8
RACCORDO
100
AcDbLine
 62
253
  6
CONTINUOUS
 10
-89.2802084241
 20
-25.5589958196
 11
-89.5749727022
 21
-25.5589958209
  0
LINE
  5
2DF
100
AcDbEntity
  8
0
100
AcDbLine
 62
253
  6
CONTINUOUS
 10
-89.5749727022
 20
-25.2468412881
 11
-89.7749727022
 21
-25.2468412881
  0
LINE
  5
2E0
100
AcDbEntity
  8
ASSI
100
AcDbLine
 62
7
  6
CONTINUOUS
 10
-79.8749727022
 20
-25.2
 11
-81.3749727022
 21
-25.2
  0
LINE
  5
2E1
100
AcDbEntity
  8
ASSI
100
AcDbLine
 62
7
  6
CONTINUOUS
 10
-81.2249727022
 20
-25.05
 11
-81.0249727022
 21
-25.05
  0
LINE
  5
2E2
100
AcDbEntity
  8
ASSI
100
AcDbLine
 62
7
  6
CONTINUOUS
 10
-80.7249727022
 20
-25.05
 11
-80.5249727022
 21
-25.05
  0
LINE
  5
2E3
100
AcDbEntity
  8
ASSI
100
AcDbLine
 62
7
  6
CONTINUOUS
 10
-80.2249727022
 20
-25.05
 11
-80.0249727022
 21
-25.05
  0
LINE
  5
2E4
100
AcDbEntity
  8
0
100
AcDbLine
 62
7
  6
CONTINUOUS
 10
-89.5749727022
 20
-24.834995432
 11
-89.7749727022
 21
-24.834995432
  0
LINE
  5
2E5
100
AcDbEntity
  8
0
100
AcDbLine
 62
7
  6
CONTINUOUS
 10
-89.5749727022
 20
-24.8225873061
 11
-89.7749727022
 21
-24.8225873061
  0
LINE
  5
2E6
100
AcDbEntity
  8
RACCORDO
100
AcDbLine
 62
7
  6
CONTINUOUS
 10
-89.2802084241
 20
-26.2588892076
 11
-86.9249727022
 21
-26.3
  0
LINE
  5
2E7
100
AcDbEntity
  8
RACCORDO
100
AcDbLine
 62
253
  6
CONTINUOUS
 10
-89.2802084241
 20
-25.5589958209
 11
-86.9249727022
 21
-25.6001066134
  0
LINE
  5
2E8
100
AcDbEntity
  8
ASSI
100
AcDbLine
 62
7
  6
CONTINUOUS
 10
-79.864505511
 20
-25.7916264167
 11
-81.3749727022
 21
-25.7248937867
  0
LINE
  5
2E9
100
AcDbEntity
  8
0
100
AcDbLine
 62
253
  6
CONTINUOUS
 10
-89.5749727022
 20
-23.7619917169
 11
-89.7749727022
 21
-23.7619917169
  0
LINE
  5
2EA
100
AcDbEntity
  8
0
100
AcDbLine
 62
7
  6
CONTINUOUS
 10
-89.5749727022
 20
-23.6907136252
 11
-89.7749727022
 21
-23.6907136252
  0
LINE
  5
2EB
100
AcDbEntity
  8
ASSI
100
AcDbLine
 62
7
  6
CONTINUOUS
 10
-81.0249727022
 20
25.05
 11
-80.8749727022
 21
25.2
  0
LINE
  5
2EC
100
AcDbEntity
  8
ASSI
100
AcDbLine
 62
7
  6
CONTINUOUS
 10
-80.5249727022
 20
25.05
 11
-80.3749727022
 21
25.2
  0
LINE
  5
2ED
100
AcDbEntity
  8
ASSI
100
AcDbLine
 62
7
  6
CONTINUOUS
 10
-80.0249727022
 20
25.05
 11
-79.8749727022
 21
25.2
  0
LINE
  5
2EE
100
AcDbEntity
  8
ASSI
100
AcDbLine
 62
7
  6
CONTINUOUS
 10
-81.0249727022
 20
-25.05
 11
-80.8749727022
 21
-25.2
  0
LINE
  5
2EF
100
AcDbEntity
  8
ASSI
100
AcDbLine
 62
7
  6
CONTINUOUS
 10
-80.5249727022
 20
-25.05
 11
-80.3749727022
 21
-25.2
  0
LINE
  5
2F0
100
AcDbEntity
  8
ASSI
100
AcDbLine
 62
7
  6
CONTINUOUS
 10
-80.0249727022
 20
-25.05
 11
-79.8749727022
 21
-25.2
  0
LINE
  5
2F1
100
AcDbEntity
  8
0
100
AcDbLine
 62
7
  6
CONTINUOUS
 10
-89.7749727022
 20
-25.8151743977
 11
-89.7749727022
 21
-23.6907216345
  0
LINE
  5
2F2
100
AcDbEntity
  8
RACCORDO
100
AcDbLine
 62
7
  6
CONTINUOUS
 10
-89.5749727022
 20
-25.958934899
 11
-89.5749727022
 21
25.958934899
  0
LINE
  5
2F3
100
AcDbEntity
  8
RACCORDO
100
AcDbLine
 62
253
  6
CONTINUOUS
 10
-89.2802084241
 20
-25.5589958209
 11
-89.2802084241
 21
25.5589958209
  0
LINE
  5
2F4
100
AcDbEntity
  8
RACCORDO
100
AcDbLine
 62
7
  6
CONTINUOUS
 10
-80.4697369803
 20
-3.417869805
 11
-81.3749727022
 21
-3.4336707533
  0
LINE
  5
2F5
100
AcDbEntity
  8
RACCORDO
100
AcDbLine
 62
253
  6
CONTINUOUS
 10
-80.4749727022
 20
-3.1179154964
 11
-81.3749727022
 21
-3.1336250549
  0
LINE
  5
2F6
100
AcDbEntity
  8
RACCORDO
100
AcDbLine
 62
253
  6
CONTINUOUS
 10
-80.1749727022
 20
-3.1179154964
 11
-80.4749727022
 21
-3.1179154964
  0
LINE
  5
2F7
100
AcDbEntity
  8
RACCORDO
100
AcDbLine
 62
7
  6
CONTINUOUS
 10
-86.9249727022
 20
-52.5
 11
-86.9249727022
 21
52.5
  0
LINE
  5
2F8
100
AcDbEntity
  8
RACCORDO
100
AcDbLine
 62
253
  6
CONTINUOUS
 10
-86.4249727022
 20
-53.0
 11
-86.4249727022
 21
53.0
  0
LINE
  5
2F9
100
AcDbEntity
  8
RACCORDO
100
AcDbLine
 62
253
  6
CONTINUOUS
 10
-82.8749727022
 20
53.0
 11
-82.8749727022
 21
-53.0
  0
LINE
  5
2FA
100
AcDbEntity
  8
RACCORDO
100
AcDbLine
 62
7
  6
CONTINUOUS
 10
-82.3749727022
 20
52.5
 11
-82.3749727022
 21
-52.5
  0
LINE
  5
2FB
100
AcDbEntity
  8
RACCORDO
100
AcDbLine
 62
7
  6
CONTINUOUS
 10
-81.3749727022
 20
-50.6098533507
 11
-81.3749727022
 21
50.6098533507
  0
LINE
  5
2FC
100
AcDbEntity
  8
RACCORDO
100
AcDbLine
 62
253
  6
CONTINUOUS
 10
-80.1749727022
 20
3.1179154964
 11
-80.4749727022
 21
3.1179154964
  0
LINE
  5
2FD
100
AcDbEntity
  8
RACCORDO
100
AcDbLine
 62
253
  6
CONTINUOUS
 10
-80.4749727022
 20
3.1179154964
 11
-81.3749727022
 21
3.1336250549
  0
LINE
  5
2FE
100
AcDbEntity
  8
RACCORDO
100
AcDbLine
 62
7
  6
CONTINUOUS
 10
-80.4697369803
 20
3.417869805
 11
-81.3749727022
 21
3.4336707533
  0
LINE
  5
2FF
100
AcDbEntity
  8
RACCORDO
100
AcDbLine
 62
253
  6
CONTINUOUS
 10
-80.4749727022
 20
-3.1179154964
 11
-80.4697369803
 21
-3.417869805
  0
LINE
  5
300
100
AcDbEntity
  8
RACCORDO
100
AcDbLine
 62
253
  6
CONTINUOUS
 10
-80.4749727022
 20
3.1179154964
 11
-80.4749727022
 21
-3.1179154964
  0
LINE
  5
301
100
AcDbEntity
  8
RACCORDO
100
AcDbLine
 62
7
  6
CONTINUOUS
 10
-80.1749727022
 20
3.1179154964
 11
-80.1749727022
 21
-3.1179154964
  0
LINE
  5
302
100
AcDbEntity
  8
ASSI
100
AcDbLine
 62
253
  6
CONTINUOUS
 10
-79.864505511
 20
25.7916264167
 11
-79.864505511
 21
25.200274093
  0
LINE
  5
303
100
AcDbEntity
  8
ASSI
100
AcDbLine
 62
253
  6
CONTINUOUS
 10
-79.864505511
 20
-25.200274093
 11
-79.864505511
 21
-25.7916264167
  0
LINE
  5
304
100
AcDbEntity
  8
ASSI
100
AcDbLine
 62
7
  6
CONTINUOUS
 10
-79.6749727022
 20
-25.4
 11
-79.6749727022
 21
-26.35
  0
LINE
  5
305
100
AcDbEntity
  8
DRAFT
100
AcDbLine
 62
7
  6
CONTINUOUS
 10
-79.6749727022
 20
-26.35
 11
-79.6749727022
 21
-27.1430186759
  0
LINE
  5
306
100
AcDbEntity
  8
ASSI
100
AcDbLine
 62
7
  6
CONTINUOUS
 10
-79.6749727022
 20
25.4
 11
-79.6749727022
 21
26.35
  0
LINE
  5
307
100
AcDbEntity
  8
DRAFT
100
AcDbLine
 62
7
  6
CONTINUOUS
 10
-79.6749727022
 20
26.35
 11
-79.6749727022
 21
27.1430186759
  0
LINE
  5
308
100
AcDbEntity
  8
RACCORDO
100
AcDbLine
 62
253
  6
CONTINUOUS
 10
-80.4697369803
 20
3.417869805
 11
-80.4749727022
 21
3.1179154964
  0
LINE
  5
309
100
AcDbEntity
  8
ASSI
100
AcDbLine
 62
7
  6
CONTINUOUS
 10
-81.3749727022
 20
-25.2
 11
-81.2249727022
 21
-25.05
  0
LINE
  5
30A
100
AcDbEntity
  8
ASSI
100
AcDbLine
 62
7
  6
CONTINUOUS
 10
-80.8749727022
 20
-25.2
 11
-80.7249727022
 21
-25.05
  0
LINE
  5
30B
100
AcDbEntity
  8
ASSI
100
AcDbLine
 62
7
  6
CONTINUOUS
 10
-80.3749727022
 20
-25.2
 11
-80.2249727022
 21
-25.05
  0
LINE
  5
30C
100
AcDbEntity
  8
ASSI
100
AcDbLine
 62
7
  6
CONTINUOUS
 10
-81.3749727022
 20
25.2
 11
-81.2249727022
 21
25.05
  0
LINE
  5
30D
100
AcDbEntity
  8
ASSI
100
AcDbLine
 62
7
  6
CONTINUOUS
 10
-80.8749727022
 20
25.2
 11
-80.7249727022
 21
25.05
  0
LINE
  5
30E
100
AcDbEntity
  8
ASSI
100
AcDbLine
 62
7
  6
CONTINUOUS
 10
-80.3749727022
 20
25.2
 11
-80.2249727022
 21
25.05
  0
LINE
  5
30F
100
AcDbEntity
  8
ASSI
100
AcDbLine
 62
7
  6
CONTINUOUS
 10
-81.2249727022
 20
25.05
 11
-81.0249727022
 21
25.05
  0
LINE
  5
310
100
AcDbEntity
  8
ASSI
100
AcDbLine
 62
7
  6
CONTINUOUS
 10
-80.7249727022
 20
25.05
 11
-80.5249727022
 21
25.05
  0
LINE
  5
311
100
AcDbEntity
  8
ASSI
100
AcDbLine
 62
7
  6
CONTINUOUS
 10
-80.2249727022
 20
25.05
 11
-80.0249727022
 21
25.05
  0
LINE
  5
312
100
AcDbEntity
  8
ASSI
100
AcDbLine
 62
7
  6
CONTINUOUS
 10
-79.8749727022
 20
25.2
 11
-81.3749727022
 21
25.2
  0
LINE
  5
313
100
AcDbEntity
  8
ASSI
100
AcDbLine
 62
7
  6
CONTINUOUS
 10
-79.864505511
 20
25.7916264167
 11
-81.3749727022
 21
25.7248937867
  0
LINE
  5
314
100
AcDbEntity
  8
RACCORDO
100
AcDbLine
 62
253
  6
CONTINUOUS
 10
-89.2802084241
 20
25.5589958209
 11
-86.9249727022
 21
25.6001066134
  0
LINE
  5
315
100
AcDbEntity
  8
RACCORDO
100
AcDbLine
 62
7
  6
CONTINUOUS
 10
-89.2802084241
 20
26.2588892076
 11
-86.9249727022
 21
26.3
  0
LINE
  5
316
100
AcDbEntity
  8
RACCORDO
100
AcDbLine
 62
253
  6
CONTINUOUS
 10
-89.2802084241
 20
25.558995819
 11
-89.5749727022
 21
25.5589958209
  0
LINE
  5
317
100
AcDbEntity
  8
DRAFT
100
AcDbLine
 62
253
  6
CONTINUOUS
 10
-79.6749727022
 20
26.8929755853
 11
-81.3749727022
 21
26.8937435176
  0
LINE
  5
318
100
AcDbEntity
  8
DRAFT
100
AcDbLine
 62
7
  6
CONTINUOUS
 10
-81.3749727022
 20
27.1459857386
 11
-79.6749727022
 21
27.1430186759
  0
LINE
  5
319
100
AcDbEntity
  8
ASSI
100
AcDbLine
 62
7
  6
CONTINUOUS
 10
-79.6749727022
 20
26.35
 11
-81.3749727022
 21
26.3598903107
  0
LINE
  5
31A
100
AcDbEntity
  8
RACCORDO
100
AcDbLine
 62
253
  6
CONTINUOUS
 10
-82.3749727022
 20
52.0
 11
-86.9249727022
 21
52.0
  0
LINE
  5
31B
100
AcDbEntity
  8
RACCORDO
100
AcDbLine
 62
7
  6
CONTINUOUS
 10
-86.4249727022
 20
53.0
 11
-82.8749727022
 21
53.0
  0
LINE
  5
31C
100
AcDbEntity
  8
RACCORDO
100
AcDbLine
 62
253
  6
CONTINUOUS
 10
-82.3749727022
 20
48.6276130253
 11
-81.3749727022
 21
48.6101579604
  0
LINE
  5
31D
100
AcDbEntity
  8
RACCORDO
100
AcDbLine
 62
7
  6
CONTINUOUS
 10
-82.3749727022
 20
50.6273084156
 11
-81.3749727022
 21
50.6098533507
  0
ARC
  5
31E
100
AcDbEntity
  8
RACCORDO
100
AcDbCircle
 62
7
  6
CONTINUOUS
 10
-58.0
 20
52.0
 40
1.0
100
AcDbArc
 50
90.0
 51
180.0
  0
ARC
  5
31F
100
AcDbEntity
  8
RACCORDO
100
AcDbCircle
 62
7
  6
CONTINUOUS
 10
58.0
 20
52.0
 40
1.0
100
AcDbArc
 50
0.0
 51
90.0
  0
ARC
  5
320
100
AcDbEntity
  8
RACCORDO
100
AcDbCircle
 62
7
  6
CONTINUOUS
 10
58.0
 20
-52.0
 40
1.0
100
AcDbArc
 50
270.0
 51
360.0
  0
ARC
  5
321
100
AcDbEntity
  8
RACCORDO
100
AcDbCircle
 62
7
  6
CONTINUOUS
 10
-58.0
 20
-52.0
 40
1.0
100
AcDbArc
 50
180.0
 51
270.0
  0
ARC
  5
322
100
AcDbEntity
  8
RACCORDO
100
AcDbCircle
 62
253
  6
CONTINUOUS
 10
-33.1446952281
 20
22.2989393798
 40
0.7621380914
100
AcDbArc
 50
178.9034513111
 51
179.9684596048
  0
ARC
  5
323
100
AcDbEntity
  8
RACCORDO
100
AcDbCircle
 62
253
  6
CONTINUOUS
 10
33.1448649402
 20
-22.2989410505
 40
0.7619683784
100
AcDbArc
 50
358.903332704
 51
359.9685782123
  0
ARC
  5
324
100
AcDbEntity
  8
RACCORDO
100
AcDbCircle
 62
253
  6
CONTINUOUS
 10
33.5986899791
 20
-21.8671940039
 40
0.7614232748
100
AcDbArc
 50
269.9921325451
 51
272.1722835556
  0
ARC
  5
325
100
AcDbEntity
  8
RACCORDO
100
AcDbCircle
 62
253
  6
CONTINUOUS
 10
-33.5988216299
 20
21.8795956644
 40
0.7490216444
100
AcDbArc
 50
89.9819317721
 51
92.1681674496
  0
ARC
  5
326
100
AcDbEntity
  8
RACCORDO
100
AcDbCircle
 62
253
  6
CONTINUOUS
 10
-33.5988307526
 20
-21.8800983443
 40
0.7485189675
100
AcDbArc
 50
267.8310806828
 51
270.018778666
  0
ARC
  5
327
100
AcDbEntity
  8
RACCORDO
100
AcDbCircle
 62
253
  6
CONTINUOUS
 10
33.5988307526
 20
21.8800983443
 40
0.7485189675
100
AcDbArc
 50
87.8310806827
 51
90.018778666
  0
ARC
  5
328
100
AcDbEntity
  8
RACCORDO
100
AcDbCircle
 62
253
  6
CONTINUOUS
 10
-33.1820590201
 20
-22.299307217
 40
0.7247741858
100
AcDbArc
 50
180.0040876343
 51
181.1240014499
  0
ARC
  5
329
100
AcDbEntity
  8
RACCORDO
100
AcDbCircle
 62
253
  6
CONTINUOUS
 10
33.1820590201
 20
22.299307217
 40
0.7247741857
100
AcDbArc
 50
0.0040876342
 51
1.1240014499
  0
ARC
  5
32A
100
AcDbEntity
  8
RACCORDO
100
AcDbCircle
 62
253
  6
CONTINUOUS
 10
36.458903789
 20
25.558903789
 40
0.6999862456
100
AcDbArc
 50
0.0075330706
 51
89.9924669294
  0
ARC
  5
32B
100
AcDbEntity
  8
RACCORDO
100
AcDbCircle
 62
253
  6
CONTINUOUS
 10
36.458903789
 20
-25.558903789
 40
0.6999862456
100
AcDbArc
 50
270.0075330701
 51
359.9924669299
  0
ARC
  5
32C
100
AcDbEntity
  8
RACCORDO
100
AcDbCircle
 62
253
  6
CONTINUOUS
 10
-36.458903789
 20
-25.558903789
 40
0.6999862456
100
AcDbArc
 50
180.0075330706
 51
269.9924669294
  0
ARC
  5
32D
100
AcDbEntity
  8
RACCORDO
100
AcDbCircle
 62
253
  6
CONTINUOUS
 10
-36.458903789
 20
25.558903789
 40
0.6999862456
100
AcDbArc
 50
90.0075330706
 51
179.9924669294
  0
ARC
  5
32E
100
AcDbEntity
  8
RACCORDO
100
AcDbCircle
 62
253
  6
CONTINUOUS
 10
-58.0
 20
52.0
 40
0.5
100
AcDbArc
 50
90.0
 51
180.0
  0
ARC
  5
32F
100
AcDbEntity
  8
RACCORDO
100
AcDbCircle
 62
253
  6
CONTINUOUS
 10
58.0
 20
52.0
 40
0.5
100
AcDbArc
 50
0.0
 51
90.0
  0
ARC
  5
330
100
AcDbEntity
  8
RACCORDO
100
AcDbCircle
 62
253
  6
CONTINUOUS
 10
58.0
 20
-52.0
 40
0.5
100
AcDbArc
 50
270.0
 51
360.0
  0
ARC
  5
331
100
AcDbEntity
  8
RACCORDO
100
AcDbCircle
 62
253
  6
CONTINUOUS
 10
-58.0
 20
-52.0
 40
0.5
100
AcDbArc
 50
180.0
 51
270.0
  0
ARC
  5
332
100
AcDbEntity
  8
RACCORDO
100
AcDbCircle
 62
253
  6
CONTINUOUS
 10
36.4590169733
 20
25.5590165289
 40
0.399917083
100
AcDbArc
 50
359.9970331884
 51
90.0030304738
  0
ARC
  5
333
100
AcDbEntity
  8
RACCORDO
100
AcDbCircle
 62
253
  6
CONTINUOUS
 10
33.5987521998
 20
-22.3367917041
 40
0.2617480834
100
AcDbArc
 50
269.9634937377
 51
272.2999227603
  0
ARC
  5
334
100
AcDbEntity
  8
RACCORDO
100
AcDbCircle
 62
253
  6
CONTINUOUS
 10
33.5987555257
 20
22.3369600663
 40
0.2615797234
100
AcDbArc
 50
87.6993252401
 51
90.0372582618
  0
ARC
  5
335
100
AcDbEntity
  8
RACCORDO
100
AcDbCircle
 62
253
  6
CONTINUOUS
 10
-33.5987555257
 20
-22.3369600662
 40
0.2615797235
100
AcDbArc
 50
267.6993252402
 51
270.0372582616
  0
ARC
  5
336
100
AcDbEntity
  8
RACCORDO
100
AcDbCircle
 62
253
  6
CONTINUOUS
 10
-33.598755716
 20
22.3369696987
 40
0.2615700911
100
AcDbArc
 50
89.9626986849
 51
92.3007178131
  0
ARC
  5
337
100
AcDbEntity
  8
RACCORDO
100
AcDbCircle
 62
253
  6
CONTINUOUS
 10
-33.6660723461
 20
22.2994518477
 40
0.2332409053
100
AcDbArc
 50
178.7192564882
 51
180.0228266845
  0
ARC
  5
338
100
AcDbEntity
  8
RACCORDO
100
AcDbCircle
 62
253
  6
CONTINUOUS
 10
33.6661128744
 20
-22.2994522926
 40
0.2332003772
100
AcDbArc
 50
358.7191432089
 51
0.0229399639
  0
ARC
  5
339
100
AcDbEntity
  8
RACCORDO
100
AcDbCircle
 62
253
  6
CONTINUOUS
 10
33.6681409325
 20
22.2994745563
 40
0.2311723294
100
AcDbArc
 50
359.9713407578
 51
1.2865760693
  0
ARC
  5
33A
100
AcDbEntity
  8
RACCORDO
100
AcDbCircle
 62
253
  6
CONTINUOUS
 10
-33.6681409325
 20
-22.2994745563
 40
0.2311723294
100
AcDbArc
 50
179.9713407578
 51
181.2865760694
  0
ARC
  5
33B
100
AcDbEntity
  8
RACCORDO
100
AcDbCircle
 62
7
  6
CONTINUOUS
 10
-82.8749727022
 20
52.5
 40
0.5
100
AcDbArc
 50
0.0
 51
90.0
  0
ARC
  5
33C
100
AcDbEntity
  8
RACCORDO
100
AcDbCircle
 62
7
  6
CONTINUOUS
 10
-82.8749727022
 20
-52.5
 40
0.5
100
AcDbArc
 50
270.0
 51
360.0
  0
ARC
  5
33D
100
AcDbEntity
  8
RACCORDO
100
AcDbCircle
 62
7
  6
CONTINUOUS
 10
-86.4249727022
 20
-52.5
 40
0.5
100
AcDbArc
 50
180.0
 51
270.0
  0
ARC
  5
33E
100
AcDbEntity
  8
RACCORDO
100
AcDbCircle
 62
7
  6
CONTINUOUS
 10
-86.4249727022
 20
52.5
 40
0.5
100
AcDbArc
 50
90.0
 51
180.0
  0
ARC
  5
33F
100
AcDbEntity
  8
RACCORDO
100
AcDbCircle
 62
7
  6
CONTINUOUS
 10
-89.2749727022
 20
25.958934899
 40
0.3
100
AcDbArc
 50
91.0
 51
180.0
  0
ARC
  5
340
100
AcDbEntity
  8
RACCORDO
100
AcDbCircle
 62
7
  6
CONTINUOUS
 10
-89.2749727022
 20
-25.958934899
 40
0.3
100
AcDbArc
 50
180.0
 51
269.0
  0
ARC
  5
341
100
AcDbEntity
  8
RACCORDO
100
AcDbCircle
 62
7
  6
CONTINUOUS
 10
-80.4749727022
 20
-3.1179154964
 40
0.3
100
AcDbArc
 50
271.0
 51
360.0
  0
ARC
  5
342
100
AcDbEntity
  8
RACCORDO
100
AcDbCircle
 62
7
  6
CONTINUOUS
 10
-80.4749727022
 20
3.1179154964
 40
0.3
100
AcDbArc
 50
0.0
 51
89.0
  0
ARC
  5
343
100
AcDbEntity
  8
ASSI
100
AcDbCircle
 62
7
  6
CONTINUOUS
 10
-79.8749727022
 20
-25.4
 40
0.2
100
AcDbArc
 50
0.0
 51
90.0
  0
ARC
  5
344
100
AcDbEntity
  8
ASSI
100
AcDbCircle
 62
7
  6
CONTINUOUS
 10
-79.8749727022
 20
25.4
 40
0.2
100
AcDbArc
 50
270.0
 51
360.0
  0
SPLINE
  5
345
100
AcDbEntity
  8
0
100
AcDbSpline
 62
7
  6
CONTINUOUS
 70
0
 71
3
 72
9
 73
5
 74
3
 42
0.0000001
 43
0.0000001
 44
0.0000000001
 12
0.384402302
 22
-0.0446290201
 32
0.0
 13
0.0060518841
 23
-0.3869370154
 33
0.0
 40
0.0
 40
0.0
 40
0.0
 40
0.0
 40
0.5013510385
 40
1.0
 40
1.0
 40
1.0
 40
1.0
 10
3.2708955903
 20
-24.0607157749
 30
0.0
 10
3.3351357547
 20
-24.0681740434
 30
0.0
 10
3.4650689916
 20
-24.1247468423
 30
0.0
 10
3.5174853189
 20
-24.2588922282
 30
0.0
 10
3.5184912408
 20
-24.3232074751
 30
0.0
 11
3.2708955903
 21
-24.0607157749
 31
0.0
 11
3.445935984
 21
-24.1443977982
 31
0.0
 11
3.5184912408
 21
-24.3232074751
 31
0.0
  0
SPLINE
  5
346
100
AcDbEntity
  8
0
100
AcDbSpline
 62
7
  6
CONTINUOUS
 70
0
 71
3
 72
9
 73
5
 74
3
 42
0.0000001
 43
0.0000001
 44
0.0000000001
 12
0.0080713833
 22
-0.5230864262
 32
0.0
 13
-0.5230182478
 23
-0.0116819936
 33
0.0
 40
0.0
 40
0.0
 40
0.0
 40
0.0
 40
0.5206208722
 40
1.0
 40
1.0
 40
1.0
 40
1.0
 10
3.5184912408
 20
-24.3232074751
 30
0.0
 10
3.519891951
 20
-24.4139840456
 30
0.0
 10
3.4557627102
 20
-24.6122845708
 30
0.0
 10
3.2615825326
 20
-24.6476524418
 30
0.0
 10
3.1780078554
 20
-24.6495191431
 30
0.0
 11
3.5184912408
 21
-24.3232074751
 31
0.0
 11
3.4178681102
 21
-24.5763005711
 31
0.0
 11
3.1780078554
 21
-24.6495191431
 31
0.0
  0
SPLINE
  5
347
100
AcDbEntity
  8
0
100
AcDbSpline
 62
7
  6
CONTINUOUS
 70
0
 71
3
 72
9
 73
5
 74
3
 42
0.0000001
 43
0.0000001
 44
0.0000000001
 12
0.3394200167
 22
0.0579167448
 32
0.0
 13
0.3420295105
 23
-0.0397002646
 33
0.0
 40
0.0
 40
0.0
 40
0.0
 40
0.0
 40
0.2703953699
 40
1.0
 40
1.0
 40
1.0
 40
1.0
 10
2.927514876
 20
-24.0730766618
 30
0.0
 10
2.9581074096
 20
-24.0678565219
 30
0.0
 10
3.0716013975
 20
-24.0506878979
 30
0.0
 10
3.1877134854
 20
-24.0510606092
 30
0.0
 10
3.2708955903
 20
-24.0607157749
 30
0.0
 11
2.927514876
 21
-24.0730766618
 31
0.0
 11
3.0196753261
 21
-24.0598544002
 31
0.0
 11
3.2708955903
 21
-24.0607157749
 31
0.0
  0
SPLINE
  5
348
100
AcDbEntity
  8
0
100
AcDbSpline
 62
7
  6
CONTINUOUS
 70
0
 71
3
 72
9
 73
5
 74
3
 42
0.0000001
 43
0.0000001
 44
0.0000000001
 12
0.3219543356
 22
0.0
 32
0.0
 13
0.1131217834
 23
-0.3014267015
 33
0.0
 40
0.0
 40
0.0
 40
0.0
 40
0.0
 40
0.3559141631
 40
1.0
 40
1.0
 40
1.0
 40
1.0
 10
3.1770630743
 20
-24.993419487
 30
0.0
 10
3.2152591102
 20
-24.993419487
 30
0.0
 10
3.3251388628
 20
-25.0165483985
 30
0.0
 10
3.3973172195
 20
-25.113724242
 30
0.0
 10
3.4216039324
 20
-25.1784391318
 30
0.0
 11
3.1770630743
 21
-24.993419487
 31
0.0
 11
3.2886988103
 21
-25.0192631885
 31
0.0
 11
3.4216039324
 21
-25.1784391318
 31
0.0
  0
SPLINE
  5
349
100
AcDbEntity
  8
0
100
AcDbSpline
 62
7
  6
CONTINUOUS
 70
0
 71
3
 72
9
 73
5
 74
3
 42
0.0000001
 43
0.0000001
 44
0.0000000001
 12
0.2338635552
 22
-0.622497147
 32
0.0
 13
0.1837405462
 23
-0.6390886262
 33
0.0
 40
0.0
 40
0.0
 40
0.0
 40
0.0
 40
0.5586214172
 40
1.0
 40
1.0
 40
1.0
 40
1.0
 10
3.4216039324
 20
-25.1784391318
 30
0.0
 10
3.4651509959
 20
-25.2943525446
 30
0.0
 10
3.522419256
 20
-25.5089914658
 30
0.0
 10
3.5862354907
 20
-25.7211477203
 30
0.0
 10
3.613268538
 20
-25.8151743977
 30
0.0
 11
3.4216039324
 21
-25.1784391318
 31
0.0
 11
3.5311768963
 21
-25.5333816056
 31
0.0
 11
3.613268538
 21
-25.8151743977
 31
0.0
  0
SPLINE
  5
34A
100
AcDbEntity
  8
0
100
AcDbSpline
 62
7
  6
CONTINUOUS
 70
0
 71
3
 72
9
 73
5
 74
3
 42
0.0000001
 43
0.0000001
 44
0.0000000001
 12
-0.1540517408
 22
0.5672067283
 32
0.0
 13
-0.1544993035
 23
0.5670849819
 33
0.0
 40
0.0
 40
0.0
 40
0.0
 40
0.0
 40
0.1980141723
 40
1.0
 40
1.0
 40
1.0
 40
1.0
 10
4.0348771327
 20
-25.8151743977
 30
0.0
 10
4.0247089901
 20
-25.7777360741
 30
0.0
 10
3.974940488
 20
-25.5882421876
 30
0.0
 10
3.926336924
 20
-25.3984393276
 30
0.0
 10
3.88503484
 20
-25.2468412881
 30
0.0
 11
4.0348771327
 21
-25.8151743977
 31
0.0
 11
4.0050449294
 21
-25.7026790092
 31
0.0
 11
3.88503484
 21
-25.2468412881
 31
0.0
  0
SPLINE
  5
34B
100
AcDbEntity
  8
0
100
AcDbSpline
 62
7
  6
CONTINUOUS
 70
0
 71
3
 72
9
 73
5
 74
3
 42
0.0000001
 43
0.0000001
 44
0.0000000001
 12
-0.1285164
 22
0.4717407948
 32
0.0
 13
-0.4541587339
 23
0.1810957951
 33
0.0
 40
0.0
 40
0.0
 40
0.0
 40
0.0
 40
0.2426586216
 40
1.0
 40
1.0
 40
1.0
 40
1.0
 10
3.88503484
 20
-25.2468412881
 30
0.0
 10
3.8746396359
 20
-25.2086839644
 30
0.0
 10
3.8349315603
 20
-25.0545953927
 30
0.0
 10
3.7470356774
 20
-24.8807125451
 30
0.0
 10
3.6323846102
 20
-24.834995432
 30
0.0
 11
3.88503484
 21
-25.2468412881
 31
0.0
 11
3.8525311695
 21
-25.1327365731
 31
0.0
 11
3.6323846102
 21
-24.834995432
 31
0.0
  0
SPLINE
  5
34C
100
AcDbEntity
  8
0
100
AcDbSpline
 62
7
  6
CONTINUOUS
 70
0
 71
3
 72
17
 73
13
 74
11
 42
0.0000001
 43
0.0000001
 44
0.0000000001
 12
1.2974582446
 22
0.167413967
 32
0.0
 13
-1.2305868136
 23
0.4439385397
 33
0.0
 40
0.0
 40
0.0
 40
0.0
 40
0.0
 40
0.0559780952
 40
0.1687540387
 40
0.321006234
 40
0.4122750837
 40
0.516613223
 40
0.6013931059
 40
0.6776022439
 40
0.8103422694
 40
0.9200404832
 40
1.0
 40
1.0
 40
1.0
 40
1.0
 10
3.6323846102
 20
-24.8225873061
 30
0.0
 10
3.6565943573
 20
-24.8194634678
 30
0.0
 10
3.7181324038
 20
-24.7709973091
 30
0.0
 10
3.8201860891
 20
-24.6786072901
 30
0.0
 10
3.8953301556
 20
-24.5363871999
 30
0.0
 10
3.9288051152
 20
-24.3880194545
 30
0.0
 10
3.9319500205
 20
-24.2648773229
 30
0.0
 10
3.9153760191
 20
-24.1498635709
 30
0.0
 10
3.8752063301
 20
-24.0276524871
 30
0.0
 10
3.7997594339
 20
-23.9078829609
 30
0.0
 10
3.693234287
 20
-23.814220045
 30
0.0
 10
3.6199916202
 20
-23.7738240873
 30
0.0
 10
3.5871925779
 20
-23.7619917169
 30
0.0
 11
3.6323846102
 21
-24.8225873061
 31
0.0
 11
3.6965524739
 21
-24.7872982534
 31
0.0
 11
3.8025003321
 21
-24.6846256365
 31
0.0
 11
3.8972761531
 21
-24.5094410653
 31
0.0
 11
3.9239270396
 21
-24.3930541748
 31
0.0
 11
3.9279279049
 21
-24.2566161494
 31
0.0
 11
3.9115237729
 21
-24.1469257029
 31
0.0
 11
3.8801574073
 21
-24.052290492
 31
0.0
 11
3.7874979945
 21
-23.9054252441
 31
0.0
 11
3.6798697052
 21
-23.8104993407
 31
0.0
 11
3.5871925779
 21
-23.7619917169
 31
0.0
  0
SPLINE
  5
34D
100
AcDbEntity
  8
0
100
AcDbSpline
 62
7
  6
CONTINUOUS
 70
0
 71
3
 72
9
 73
5
 74
3
 42
0.0000001
 43
0.0000001
 44
0.0000000001
 12
-1.0242753953
 22
0.3700472763
 32
0.0
 13
-1.0774730544
 23
-0.1585146335
 33
0.0
 40
0.0
 40
0.0
 40
0.0
 40
0.0
 40
0.2957417834
 40
1.0
 40
1.0
 40
1.0
 40
1.0
 10
3.5871925779
 20
-23.7619917169
 30
0.0
 10
3.4862189005
 20
-23.7255122365
 30
0.0
 10
3.1232796563
 20
-23.666048509
 30
0.0
 10
2.7584366266
 20
-23.7026720933
 30
0.0
 10
2.505496876
 20
-23.7398838377
 30
0.0
 11
3.5871925779
 21
-23.7619917169
 31
0.0
 11
3.2713797906
 21
-23.6987445228
 31
0.0
 11
2.505496876
 21
-23.7398838377
 31
0.0
  0
SPLINE
  5
34E
100
AcDbEntity
  8
RACCORDO
100
AcDbSpline
 62
253
  6
CONTINUOUS
 70
0
 71
3
 72
11
 73
7
 74
5
 42
0.0000001
 43
0.0000001
 44
0.0000000001
 12
0.4755835753
 22
0.0253964245
 32
0.0
 13
-0.0235522325
 23
-0.4756784711
 33
0.0
 40
0.0
 40
0.0
 40
0.0
 40
0.0
 40
0.2521798348
 40
0.5045373246
 40
0.7538905761
 40
1.0
 40
1.0
 40
1.0
 40
1.0
 10
33.9489661596
 20
23.2924924617
 30
0.0
 10
33.9889436888
 20
23.2946272838
 30
0.0
 10
34.0715919332
 20
23.2806372758
 30
0.0
 10
34.1686838149
 20
23.2026387241
 30
0.0
 10
34.221035709
 20
23.0926074347
 30
0.0
 10
34.2285063802
 20
23.0128380931
 30
0.0
 10
34.2265742381
 20
22.9738151083
 30
0.0
 11
33.9489661596
 21
23.2924924617
 31
0.0
 11
34.0671484393
 21
23.2710963992
 31
0.0
 11
34.1616093011
 21
23.1967840892
 31
0.0
 11
34.2143697451
 21
23.0903903587
 31
0.0
 11
34.2265742381
 21
22.9738151083
 31
0.0
  0
SPLINE
  5
34F
100
AcDbEntity
  8
RACCORDO
100
AcDbSpline
 62
253
  6
CONTINUOUS
 70
0
 71
3
 72
11
 73
7
 74
5
 42
0.0000001
 43
0.0000001
 44
0.0000000001
 12
0.017854534
 22
0.4674494962
 32
0.0
 13
-0.4677810435
 23
0.0029514705
 33
0.0
 40
0.0
 40
0.0
 40
0.0
 40
0.0
 40
0.2482647542
 40
0.4983302585
 40
0.7489799507
 40
1.0
 40
1.0
 40
1.0
 40
1.0
 10
33.9066937466
 20
22.3135245816
 30
0.0
 10
33.9081712971
 20
22.3522083263
 30
0.0
 10
33.8981386859
 20
22.4310995493
 30
0.0
 10
33.8411247512
 20
22.5364370305
 30
0.0
 10
33.7455674188
 20
22.6104459014
 30
0.0
 10
33.666299955
 20
22.6278343827
 30
0.0
 10
33.6271591481
 20
22.6280813422
 30
0.0
 11
33.9066937466
 21
22.3135245816
 31
0.0
 11
33.8912499251
 21
22.428628994
 31
0.0
 11
33.834800794
 21
22.5310858245
 31
0.0
 11
33.7417458712
 21
22.6024209319
 31
0.0
 11
33.6271591481
 21
22.6280813422
 31
0.0
  0
SPLINE
  5
350
100
AcDbEntity
  8
RACCORDO
100
AcDbSpline
 62
253
  6
CONTINUOUS
 70
0
 71
3
 72
11
 73
7
 74
5
 42
0.0000001
 43
0.0000001
 44
0.0000000001
 12
-0.0102833303
 22
0.4515552788
 32
0.0
 13
-0.4513129134
 23
0.0180158506
 33
0.0
 40
0.0
 40
0.0
 40
0.0
 40
0.0
 40
0.2443048601
 40
0.4935132397
 40
0.7479877722
 40
1.0
 40
1.0
 40
1.0
 40
1.0
 10
33.8992549827
 20
22.3046650921
 30
0.0
 10
33.8984175601
 20
22.3414374752
 30
0.0
 10
33.8825292851
 20
22.4161056228
 30
0.0
 10
33.8189496923
 20
22.5121635835
 30
0.0
 10
33.7235256685
 20
22.5789398219
 30
0.0
 10
33.6471683912
 20
22.5968155313
 30
0.0
 10
33.609256267
 20
22.5983289361
 30
0.0
 11
33.8992549827
 21
22.3046650921
 31
0.0
 11
33.8763007842
 21
22.4125969672
 31
0.0
 11
33.8143083832
 21
22.5065481058
 31
0.0
 11
33.7200841302
 21
22.5723720338
 31
0.0
 11
33.609256267
 21
22.5983289361
 31
0.0
  0
SPLINE
  5
351
100
AcDbEntity
  8
RACCORDO
100
AcDbSpline
 62
253
  6
CONTINUOUS
 70
0
 71
3
 72
11
 73
7
 74
5
 42
0.0000001
 43
0.0000001
 44
0.0000000001
 12
0.0235736239
 22
-0.4757152814
 32
0.0
 13
-0.4756110769
 23
0.0255900033
 33
0.0
 40
0.0
 40
0.0
 40
0.0
 40
0.0
 40
0.2461033812
 40
0.4954548676
 40
0.747813943
 40
1.0
 40
1.0
 40
1.0
 40
1.0
 10
34.2265742229
 20
-22.9738147507
 30
0.0
 10
34.2285080725
 20
-23.0128397971
 30
0.0
 10
34.2210373129
 20
-23.0926132163
 30
0.0
 10
34.1686847633
 20
-23.2026588614
 30
0.0
 10
34.0715681053
 20
-23.2806376776
 30
0.0
 10
33.9889120007
 20
-23.2946427911
 30
0.0
 10
33.9489311733
 20
-23.2924916438
 30
0.0
 11
34.2265742229
 21
-22.9738147507
 31
0.0
 11
34.2143715112
 21
-23.0903966533
 31
0.0
 11
34.1616068249
 21
-23.196797869
 31
0.0
 11
34.0671275874
 21
-23.2711034782
 31
0.0
 11
33.9489311733
 21
-23.2924916438
 31
0.0
  0
SPLINE
  5
352
100
AcDbEntity
  8
RACCORDO
100
AcDbSpline
 62
253
  6
CONTINUOUS
 70
0
 71
3
 72
11
 73
7
 74
5
 42
0.0000001
 43
0.0000001
 44
0.0000000001
 12
0.4673914056
 22
0.0034398583
 32
0.0
 13
-0.0177914902
 23
0.467065329
 33
0.0
 40
0.0
 40
0.0
 40
0.0
 40
0.0
 40
0.2509787062
 40
0.5016242985
 40
0.7517149927
 40
1.0
 40
1.0
 40
1.0
 40
1.0
 10
33.6275521261
 20
-22.6280714716
 30
0.0
 10
33.6666538896
 20
-22.6277836946
 30
0.0
 10
33.7458259688
 20
-22.6103089006
 30
0.0
 10
33.8412291531
 20
-22.5362860412
 30
0.0
 10
33.8981559005
 20
-22.4310112111
 30
0.0
 10
33.9081662
 20
-22.3521796878
 30
0.0
 10
33.9066937466
 20
-22.3135245816
 30
0.0
 11
33.6275521261
 21
-22.6280714716
 31
0.0
 11
33.7419961648
 21
-22.6023064084
 31
0.0
 11
33.8349120062
 21
-22.5309522386
 31
0.0
 11
33.8912758096
 21
-22.4285452554
 31
0.0
 11
33.9066937466
 21
-22.3135245816
 31
0.0
  0
SPLINE
  5
353
100
AcDbEntity
  8
RACCORDO
100
AcDbSpline
 62
253
  6
CONTINUOUS
 70
0
 71
3
 72
11
 73
7
 74
5
 42
0.0000001
 43
0.0000001
 44
0.0000000001
 12
0.4513116539
 22
0.0180560828
 32
0.0
 13
0.0103015062
 23
0.4515552126
 33
0.0
 40
0.0
 40
0.0
 40
0.0
 40
0.0
 40
0.2519715896
 40
0.5064400828
 40
0.7556741941
 40
1.0
 40
1.0
 40
1.0
 40
1.0
 10
33.609256267
 20
-22.5983289361
 30
0.0
 10
33.6471621719
 20
-22.5968123962
 30
0.0
 10
33.7235131371
 20
-22.5789475577
 30
0.0
 10
33.8189372737
 20
-22.512175349
 30
0.0
 10
33.8825274694
 20
-22.4161163601
 30
0.0
 10
33.8984160081
 20
-22.3414406225
 30
0.0
 10
33.8992549827
 20
-22.3046650921
 30
0.0
 11
33.609256267
 21
-22.5983289361
 31
0.0
 11
33.7200673643
 21
-22.5723805564
 31
0.0
 11
33.8142931905
 21
-22.5065634891
 31
0.0
 11
33.8762971597
 21
-22.4126059555
 31
0.0
 11
33.8992549827
 21
-22.3046650921
 31
0.0
  0
SPLINE
  5
354
100
AcDbEntity
  8
RACCORDO
100
AcDbSpline
 62
253
  6
CONTINUOUS
 70
0
 71
3
 72
11
 73
7
 74
5
 42
0.0000001
 43
0.0000001
 44
0.0000000001
 12
0.0001521721
 22
-0.9183595229
 32
0.0
 13
-0.91835953
 23
-0.0001004308
 33
0.0
 40
0.0
 40
0.0
 40
0.0
 40
0.0
 40
0.2502628301
 40
0.5002653481
 40
0.750100989
 40
1.0
 40
1.0
 40
1.0
 40
1.0
 10
34.5220165488
 20
-22.9738147507
 30
0.0
 10
34.5220292432
 20
-23.0504251684
 30
0.0
 10
34.4951731368
 20
-23.2051193651
 30
0.0
 10
34.3726441761
 20
-23.4061172831
 30
0.0
 10
34.1804023552
 20
-23.5430525752
 30
0.0
 10
34.0254440553
 20
-23.5743913876
 30
0.0
 10
33.9489450092
 20
-23.5743997534
 30
0.0
 11
34.5220165488
 21
-22.9738147507
 31
0.0
 11
34.4814293312
 21
-23.2000338573
 31
0.0
 11
34.3609801241
 21
-23.3954937383
 31
0.0
 11
34.1737152555
 21
-23.5280610706
 31
0.0
 11
33.9489450092
 21
-23.5743997534
 31
0.0
  0
SPLINE
  5
355
100
AcDbEntity
  8
RACCORDO
100
AcDbSpline
 62
253
  6
CONTINUOUS
 70
0
 71
3
 72
11
 73
7
 74
5
 42
0.0000001
 43
0.0000001
 44
0.0000000001
 12
-0.451312912
 22
-0.0180158616
 32
0.0
 13
-0.0102822718
 23
-0.451555302
 33
0.0
 40
0.0
 40
0.0
 40
0.0
 40
0.0
 40
0.2520122187
 40
0.5064867562
 40
0.7556951715
 40
1.0
 40
1.0
 40
1.0
 40
1.0
 10
-33.609256267
 20
22.5983289361
 30
0.0
 10
-33.6471683898
 20
22.5968155304
 30
0.0
 10
-33.723525662
 20
22.578939821
 30
0.0
 10
-33.818949708
 20
22.5121635842
 30
0.0
 10
-33.8825292426
 20
22.4161056161
 30
0.0
 10
-33.8984176465
 20
22.3414374723
 30
0.0
 10
-33.8992549827
 20
22.3046650921
 30
0.0
 11
-33.609256267
 21
22.5983289361
 31
0.0
 11
-33.7200841259
 21
22.5723720346
 31
0.0
 11
-33.8143083821
 21
22.5065481077
 31
0.0
 11
-33.8763007879
 21
22.4125969532
 31
0.0
 11
-33.8992549827
 21
22.3046650921
 31
0.0
  0
SPLINE
  5
356
100
AcDbEntity
  8
RACCORDO
100
AcDbSpline
 62
253
  6
CONTINUOUS
 70
0
 71
3
 72
11
 73
7
 74
5
 42
0.0000001
 43
0.0000001
 44
0.0000000001
 12
-0.0235522706
 22
0.4756769822
 32
0.0
 13
0.4755818013
 23
-0.0254017937
 33
0.0
 40
0.0
 40
0.0
 40
0.0
 40
0.0
 40
0.2461093201
 40
0.4954623483
 40
0.7478197494
 40
1.0
 40
1.0
 40
1.0
 40
1.0
 10
-34.2265742346
 20
22.9738150267
 30
0.0
 10
-34.228506379
 20
23.0128378729
 30
0.0
 10
-34.2210358134
 20
23.0926068879
 30
0.0
 10
-34.1686843698
 20
23.2026379616
 30
0.0
 10
-34.0715932291
 20
23.2806363516
 30
0.0
 10
-33.9889452068
 20
23.2946277756
 30
0.0
 10
-33.9489677609
 20
23.2924924987
 30
0.0
 11
-34.2265742346
 21
22.9738150267
 31
0.0
 11
-34.2143698923
 21
23.0903898756
 31
0.0
 11
-34.1616099264
 21
23.1967833111
 31
0.0
 11
-34.067149749
 21
23.2710958166
 31
0.0
 11
-33.9489677609
 21
23.2924924987
 31
0.0
  0
SPLINE
  5
357
100
AcDbEntity
  8
RACCORDO
100
AcDbSpline
 62
253
  6
CONTINUOUS
 70
0
 71
3
 72
11
 73
7
 74
5
 42
0.0000001
 43
0.0000001
 44
0.0000000001
 12
-0.467780989
 22
-0.0029521877
 32
0.0
 13
0.0178569297
 23
-0.4674493546
 33
0.0
 40
0.0
 40
0.0
 40
0.0
 40
0.0
 40
0.2510200132
 40
0.5016696548
 40
0.751735221
 40
1.0
 40
1.0
 40
1.0
 40
1.0
 10
-33.6271592223
 20
22.6280813403
 30
0.0
 10
-33.666300019
 20
22.6278343209
 30
0.0
 10
-33.7455674629
 20
22.6104459161
 30
0.0
 10
-33.841124749
 20
22.5364369787
 30
0.0
 10
-33.8981387158
 20
22.4310995872
 30
0.0
 10
-33.9081714955
 20
22.3522083185
 30
0.0
 10
-33.9066937466
 20
22.3135245816
 30
0.0
 11
-33.6271592223
 21
22.6280813403
 31
0.0
 11
-33.7417459124
 21
22.6024209172
 31
0.0
 11
-33.8348007923
 21
22.5310858133
 31
0.0
 11
-33.8912499927
 21
22.4286290022
 31
0.0
 11
-33.9066937466
 21
22.3135245816
 31
0.0
  0
SPLINE
  5
358
100
AcDbEntity
  8
RACCORDO
100
AcDbSpline
 62
253
  6
CONTINUOUS
 70
0
 71
3
 72
11
 73
7
 74
5
 42
0.0000001
 43
0.0000001
 44
0.0000000001
 12
-0.4755835753
 22
-0.0253964245
 32
0.0
 13
0.0235522325
 23
0.4756784711
 33
0.0
 40
0.0
 40
0.0
 40
0.0
 40
0.0
 40
0.2521798348
 40
0.5045373246
 40
0.7538905761
 40
1.0
 40
1.0
 40
1.0
 40
1.0
 10
-33.9489661596
 20
-23.2924924617
 30
0.0
 10
-33.9889436888
 20
-23.2946272838
 30
0.0
 10
-34.0715919332
 20
-23.2806372758
 30
0.0
 10
-34.1686838149
 20
-23.2026387241
 30
0.0
 10
-34.221035709
 20
-23.0926074347
 30
0.0
 10
-34.2285063802
 20
-23.0128380931
 30
0.0
 10
-34.2265742381
 20
-22.9738151083
 30
0.0
 11
-33.9489661596
 21
-23.2924924617
 31
0.0
 11
-34.0671484393
 21
-23.2710963992
 31
0.0
 11
-34.1616093011
 21
-23.1967840892
 31
0.0
 11
-34.2143697451
 21
-23.0903903587
 31
0.0
 11
-34.2265742381
 21
-22.9738151083
 31
0.0
  0
SPLINE
  5
359
100
AcDbEntity
  8
RACCORDO
100
AcDbSpline
 62
253
  6
CONTINUOUS
 70
0
 71
3
 72
11
 73
7
 74
5
 42
0.0000001
 43
0.0000001
 44
0.0000000001
 12
-0.017854534
 22
-0.4674494962
 32
0.0
 13
0.4677810435
 23
-0.0029514705
 33
0.0
 40
0.0
 40
0.0
 40
0.0
 40
0.0
 40
0.2482647542
 40
0.4983302585
 40
0.7489799507
 40
1.0
 40
1.0
 40
1.0
 40
1.0
 10
-33.9066937466
 20
-22.3135245816
 30
0.0
 10
-33.9081712971
 20
-22.3522083263
 30
0.0
 10
-33.8981386859
 20
-22.4310995493
 30
0.0
 10
-33.8411247512
 20
-22.5364370305
 30
0.0
 10
-33.7455674188
 20
-22.6104459014
 30
0.0
 10
-33.666299955
 20
-22.6278343827
 30
0.0
 10
-33.6271591481
 20
-22.6280813422
 30
0.0
 11
-33.9066937466
 21
-22.3135245816
 31
0.0
 11
-33.8912499251
 21
-22.428628994
 31
0.0
 11
-33.834800794
 21
-22.5310858245
 31
0.0
 11
-33.7417458712
 21
-22.6024209319
 31
0.0
 11
-33.6271591481
 21
-22.6280813422
 31
0.0
  0
SPLINE
  5
35A
100
AcDbEntity
  8
RACCORDO
100
AcDbSpline
 62
253
  6
CONTINUOUS
 70
0
 71
3
 72
11
 73
7
 74
5
 42
0.0000001
 43
0.0000001
 44
0.0000000001
 12
0.0102833303
 22
-0.4515552788
 32
0.0
 13
0.4513129134
 23
-0.0180158506
 33
0.0
 40
0.0
 40
0.0
 40
0.0
 40
0.0
 40
0.2443048601
 40
0.4935132397
 40
0.7479877722
 40
1.0
 40
1.0
 40
1.0
 40
1.0
 10
-33.8992549827
 20
-22.3046650921
 30
0.0
 10
-33.8984175601
 20
-22.3414374752
 30
0.0
 10
-33.8825292851
 20
-22.4161056228
 30
0.0
 10
-33.8189496923
 20
-22.5121635835
 30
0.0
 10
-33.7235256685
 20
-22.5789398219
 30
0.0
 10
-33.6471683912
 20
-22.5968155313
 30
0.0
 10
-33.609256267
 20
-22.5983289361
 30
0.0
 11
-33.8992549827
 21
-22.3046650921
 31
0.0
 11
-33.8763007842
 21
-22.4125969672
 31
0.0
 11
-33.8143083832
 21
-22.5065481058
 31
0.0
 11
-33.7200841302
 21
-22.5723720338
 31
0.0
 11
-33.609256267
 21
-22.5983289361
 31
0.0
  0
SPLINE
  5
35B
100
AcDbEntity
  8
RACCORDO
100
AcDbSpline
 62
253
  6
CONTINUOUS
 70
0
 71
3
 72
11
 73
7
 74
5
 42
0.0000001
 43
0.0000001
 44
0.0000000001
 12
0.9183622087
 22
0.0001028438
 32
0.0
 13
-0.0000144938
 23
-0.9183622144
 33
0.0
 40
0.0
 40
0.0
 40
0.0
 40
0.0
 40
0.2498968472
 40
0.4997336883
 40
0.7497357335
 40
1.0
 40
1.0
 40
1.0
 40
1.0
 10
33.9489450092
 20
23.5743997534
 30
0.0
 10
34.0254436161
 20
23.5744083202
 30
0.0
 10
34.1804111095
 20
23.5430773566
 30
0.0
 10
34.3726354404
 20
23.4061171721
 30
0.0
 10
34.4951607769
 20
23.2051180821
 30
0.0
 10
34.5220177579
 20
23.0504258327
 30
0.0
 10
34.5220165488
 20
22.9738147507
 30
0.0
 11
33.9489450092
 21
23.5743997534
 31
0.0
 11
34.1737178436
 21
23.5280801543
 31
0.0
 11
34.3609739161
 21
23.3954973317
 31
0.0
 11
34.4814176071
 21
23.2000337748
 31
0.0
 11
34.5220165488
 21
22.9738147507
 31
0.0
  0
SPLINE
  5
35C
100
AcDbEntity
  8
RACCORDO
100
AcDbSpline
 62
253
  6
CONTINUOUS
 70
0
 71
3
 72
11
 73
7
 74
5
 42
0.0000001
 43
0.0000001
 44
0.0000000001
 12
-0.0000140595
 22
0.918362124
 32
0.0
 13
0.918362117
 23
-0.0001143741
 33
0.0
 40
0.0
 40
0.0
 40
0.0
 40
0.0
 40
0.2502641847
 40
0.5002660535
 40
0.7501027766
 40
1.0
 40
1.0
 40
1.0
 40
1.0
 10
-34.5220165488
 20
22.9738147507
 30
0.0
 10
-34.5220177217
 20
23.0504258001
 30
0.0
 10
-34.4951608501
 20
23.2051179351
 30
0.0
 10
-34.3726354852
 20
23.4061170123
 30
0.0
 10
-34.180411268
 20
23.5430766962
 30
0.0
 10
-34.0254437236
 20
23.5744092807
 30
0.0
 10
-33.9489450092
 20
23.5743997534
 30
0.0
 11
-34.5220165488
 21
22.9738147507
 31
0.0
 11
-34.4814176382
 21
23.2000336811
 31
0.0
 11
-34.3609740174
 21
23.3954970644
 31
0.0
 11
-34.1737181234
 21
23.5280799125
 31
0.0
 11
-33.9489450092
 21
23.5743997534
 31
0.0
  0
SPLINE
  5
35D
100
AcDbEntity
  8
RACCORDO
100
AcDbSpline
 62
253
  6
CONTINUOUS
 70
0
 71
3
 72
11
 73
7
 74
5
 42
0.0000001
 43
0.0000001
 44
0.0000000001
 12
-0.9183622087
 22
-0.0001028438
 32
0.0
 13
0.0000144938
 23
0.9183622144
 33
0.0
 40
0.0
 40
0.0
 40
0.0
 40
0.0
 40
0.2498968472
 40
0.4997336883
 40
0.7497357335
 40
1.0
 40
1.0
 40
1.0
 40
1.0
 10
-33.9489450092
 20
-23.5743997534
 30
0.0
 10
-34.0254436161
 20
-23.5744083202
 30
0.0
 10
-34.1804111095
 20
-23.5430773566
 30
0.0
 10
-34.3726354404
 20
-23.4061171721
 30
0.0
 10
-34.4951607769
 20
-23.2051180821
 30
0.0
 10
-34.5220177579
 20
-23.0504258327
 30
0.0
 10
-34.5220165488
 20
-22.9738147507
 30
0.0
 11
-33.9489450092
 21
-23.5743997534
 31
0.0
 11
-34.1737178436
 21
-23.5280801543
 31
0.0
 11
-34.3609739161
 21
-23.3954973317
 31
0.0
 11
-34.4814176071
 21
-23.2000337748
 31
0.0
 11
-34.5220165488
 21
-22.9738147507
 31
0.0
  0
SPLINE
  5
35E
100
AcDbEntity
  8
RACCORDO
100
AcDbSpline
 62
253
  6
CONTINUOUS
 70
0
 71
3
 72
11
 73
7
 74
5
 42
0.0000001
 43
0.0000001
 44
0.0000000001
 12
0.0000498599
 22
0.6210287346
 32
0.0
 13
0.6210287316
 23
0.0000791702
 33
0.0
 40
0.0
 40
0.0
 40
0.0
 40
0.0
 40
0.2500058224
 40
0.5000008131
 40
0.7499857999
 40
1.0
 40
1.0
 40
1.0
 40
1.0
 10
-36.858934899
 20
25.5589958209
 30
0.0
 10
-36.8589307439
 20
25.6107494208
 30
0.0
 10
-36.838341813
 20
25.7153585852
 30
0.0
 10
-36.750222095
 20
25.8479314967
 30
0.0
 10
-36.6184227216
 20
25.9368426522
 30
0.0
 10
-36.5139802832
 20
25.9589283011
 30
0.0
 10
-36.4622249493
 20
25.958934899
 30
0.0
 11
-36.858934899
 21
25.5589958209
 31
0.0
 11
-36.8288012648
 21
25.711304324
 31
0.0
 11
-36.7429410848
 21
25.8406560026
 31
0.0
 11
-36.614284427
 21
25.9275430707
 31
0.0
 11
-36.4622249493
 21
25.958934899
 31
0.0
  0
SPLINE
  5
35F
100
AcDbEntity
  8
RACCORDO
100
AcDbSpline
 62
253
  6
CONTINUOUS
 70
0
 71
3
 72
9
 73
5
 74
3
 42
0.0000001
 43
0.0000001
 44
0.0000000001
 12
0.0016460656
 22
-0.0116727219
 32
0.0
 13
0.0098687562
 23
-0.0064474506
 33
0.0
 40
0.0
 40
0.0
 40
0.0
 40
0.0
 40
0.1960101094
 40
1.0
 40
1.0
 40
1.0
 40
1.0
 10
33.8992541958
 20
-22.3046650783
 30
0.0
 10
33.8993617443
 20
-22.3054277355
 30
0.0
 10
33.900664917
 20
-22.3092196296
 30
0.0
 10
33.904053999
 20
-22.3117966889
 30
0.0
 10
33.9066987924
 20
-22.313524584
 30
0.0
 11
33.8992541958
 21
-22.3046650783
 31
0.0
 11
33.8999527549
 21
-22.3068675608
 31
0.0
 11
33.9066987924
 21
-22.313524584
 31
0.0
  0
SPLINE
  5
360
100
AcDbEntity
  8
RACCORDO
100
AcDbSpline
 62
253
  6
CONTINUOUS
 70
0
 71
3
 72
9
 73
5
 74
3
 42
0.0000001
 43
0.0000001
 44
0.0000000001
 12
0.0350764199
 22
-0.0048687466
 32
0.0
 13
0.0108152591
 23
-0.0337207665
 33
0.0
 40
0.0
 40
0.0
 40
0.0
 40
0.0
 40
0.3371099723
 40
1.0
 40
1.0
 40
1.0
 40
1.0
 10
33.6092562729
 20
-22.5983291021
 30
0.0
 10
33.6131978099
 20
-22.5988762031
 30
0.0
 10
33.6211082517
 20
-22.6102137833
 30
0.0
 10
33.6246796726
 20
-22.6206326599
 30
0.0
 10
33.6270694484
 20
-22.6280837132
 30
0.0
 11
33.6092562729
 21
-22.5983291021
 31
0.0
 11
33.6180380876
 21
-22.6064158215
 31
0.0
 11
33.6270694484
 21
-22.6280837132
 31
0.0
  0
SPLINE
  5
361
100
AcDbEntity
  8
RACCORDO
100
AcDbSpline
 62
253
  6
CONTINUOUS
 70
0
 71
3
 72
9
 73
5
 74
3
 42
0.0000001
 43
0.0000001
 44
0.0000000001
 12
-0.035078268
 22
-0.0048738171
 32
0.0
 13
-0.0108181872
 23
-0.0337224822
 33
0.0
 40
0.0
 40
0.0
 40
0.0
 40
0.0
 40
0.3370825829
 40
1.0
 40
1.0
 40
1.0
 40
1.0
 10
-33.6092562475
 20
-22.5983283904
 30
0.0
 10
-33.6131976719
 20
-22.5988760166
 30
0.0
 10
-33.6211062087
 20
-22.6102161427
 30
0.0
 10
-33.624678926
 20
-22.6206348709
 30
0.0
 10
-33.6270694476
 20
-22.6280866112
 30
0.0
 11
-33.6092562475
 21
-22.5983283904
 31
0.0
 11
-33.6180366759
 21
-22.6064164411
 31
0.0
 11
-33.6270694476
 21
-22.6280866112
 31
0.0
  0
SPLINE
  5
362
100
AcDbEntity
  8
RACCORDO
100
AcDbSpline
 62
253
  6
CONTINUOUS
 70
0
 71
3
 72
9
 73
5
 74
3
 42
0.0000001
 43
0.0000001
 44
0.0000000001
 12
-0.0016389882
 22
-0.0116712387
 32
0.0
 13
-0.0098670469
 23
-0.0064455784
 33
0.0
 40
0.0
 40
0.0
 40
0.0
 40
0.0
 40
0.1960616722
 40
1.0
 40
1.0
 40
1.0
 40
1.0
 10
-33.8992619379
 20
-22.3046652188
 30
0.0
 10
-33.8993690521
 20
-22.3054279797
 30
0.0
 10
-33.900669735
 20
-22.3092199256
 30
0.0
 10
-33.90405821
 20
-22.3117973045
 30
0.0
 10
-33.9067023757
 20
-22.313524587
 30
0.0
 11
-33.8992619379
 21
-22.3046652188
 31
0.0
 11
-33.8999593353
 21
-22.306868202
 31
0.0
 11
-33.9067023757
 21
-22.313524587
 31
0.0
  0
SPLINE
  5
363
100
AcDbEntity
  8
RACCORDO
100
AcDbSpline
 62
253
  6
CONTINUOUS
 70
0
 71
3
 72
9
 73
5
 74
3
 42
0.0000001
 43
0.0000001
 44
0.0000000001
 12
-0.0016459659
 22
0.011672686
 32
0.0
 13
-0.0098687659
 23
0.0064473453
 33
0.0
 40
0.0
 40
0.0
 40
0.0
 40
0.0
 40
0.1960143792
 40
1.0
 40
1.0
 40
1.0
 40
1.0
 10
-33.8992542075
 20
22.3046650785
 30
0.0
 10
-33.8993617519
 20
22.30542775
 30
0.0
 10
-33.9006648608
 20
22.3092196477
 30
0.0
 10
-33.9040539292
 20
22.3117967264
 30
0.0
 10
-33.9066987112
 20
22.313524584
 30
0.0
 11
-33.8992542075
 21
22.3046650785
 31
0.0
 11
-33.899952754
 21
22.3068676076
 31
0.0
 11
-33.9066987112
 21
22.313524584
 31
0.0
  0
SPLINE
  5
364
100
AcDbEntity
  8
RACCORDO
100
AcDbSpline
 62
253
  6
CONTINUOUS
 70
0
 71
3
 72
9
 73
5
 74
3
 42
0.0000001
 43
0.0000001
 44
0.0000000001
 12
-0.035077114
 22
0.004868538
 32
0.0
 13
-0.0108153076
 23
0.0337214429
 33
0.0
 40
0.0
 40
0.0
 40
0.0
 40
0.0
 40
0.3371071671
 40
1.0
 40
1.0
 40
1.0
 40
1.0
 10
-33.6092561788
 20
22.5983264369
 30
0.0
 10
-33.613197761
 20
22.5988735099
 30
0.0
 10
-33.6211082469
 20
22.6102114796
 30
0.0
 10
-33.6246796524
 20
22.6206305149
 30
0.0
 10
-33.627069449
 20
22.6280817492
 30
0.0
 11
-33.6092561788
 21
22.5983264369
 31
0.0
 11
-33.6180380255
 21
22.6064133028
 31
0.0
 11
-33.627069449
 21
22.6280817492
 31
0.0
  0
SPLINE
  5
365
100
AcDbEntity
  8
RACCORDO
100
AcDbSpline
 62
253
  6
CONTINUOUS
 70
0
 71
3
 72
9
 73
5
 74
3
 42
0.0000001
 43
0.0000001
 44
0.0000000001
 12
0.035078268
 22
0.0048738171
 32
0.0
 13
0.0108181872
 23
0.0337224822
 33
0.0
 40
0.0
 40
0.0
 40
0.0
 40
0.0
 40
0.3370825829
 40
1.0
 40
1.0
 40
1.0
 40
1.0
 10
33.6092562475
 20
22.5983283904
 30
0.0
 10
33.6131976719
 20
22.5988760166
 30
0.0
 10
33.6211062087
 20
22.6102161427
 30
0.0
 10
33.624678926
 20
22.6206348709
 30
0.0
 10
33.6270694476
 20
22.6280866112
 30
0.0
 11
33.6092562475
 21
22.5983283904
 31
0.0
 11
33.6180366759
 21
22.6064164411
 31
0.0
 11
33.6270694476
 21
22.6280866112
 31
0.0
  0
SPLINE
  5
366
100
AcDbEntity
  8
RACCORDO
100
AcDbSpline
 62
253
  6
CONTINUOUS
 70
0
 71
3
 72
9
 73
5
 74
3
 42
0.0000001
 43
0.0000001
 44
0.0000000001
 12
0.0016389882
 22
0.0116712387
 32
0.0
 13
0.0098670469
 23
0.0064455784
 33
0.0
 40
0.0
 40
0.0
 40
0.0
 40
0.0
 40
0.1960616722
 40
1.0
 40
1.0
 40
1.0
 40
1.0
 10
33.8992619379
 20
22.3046652188
 30
0.0
 10
33.8993690521
 20
22.3054279797
 30
0.0
 10
33.900669735
 20
22.3092199256
 30
0.0
 10
33.90405821
 20
22.3117973045
 30
0.0
 10
33.9067023757
 20
22.313524587
 30
0.0
 11
33.8992619379
 21
22.3046652188
 31
0.0
 11
33.8999593353
 21
22.306868202
 31
0.0
 11
33.9067023757
 21
22.313524587
 31
0.0
  0
SPLINE
  5
367
100
AcDbEntity
  8
RACCORDO
100
AcDbSpline
 62
253
  6
CONTINUOUS
 70
0
 71
3
 72
11
 73
7
 74
5
 42
0.0000001
 43
0.0000001
 44
0.0000000001
 12
-0.0000498599
 22
-0.6210287346
 32
0.0
 13
-0.6210287316
 23
-0.0000791702
 33
0.0
 40
0.0
 40
0.0
 40
0.0
 40
0.0
 40
0.2500058224
 40
0.5000008131
 40
0.7499857999
 40
1.0
 40
1.0
 40
1.0
 40
1.0
 10
36.858934899
 20
-25.5589958209
 30
0.0
 10
36.8589307439
 20
-25.6107494208
 30
0.0
 10
36.838341813
 20
-25.7153585852
 30
0.0
 10
36.750222095
 20
-25.8479314967
 30
0.0
 10
36.6184227216
 20
-25.9368426522
 30
0.0
 10
36.5139802832
 20
-25.9589283011
 30
0.0
 10
36.4622249493
 20
-25.958934899
 30
0.0
 11
36.858934899
 21
-25.5589958209
 31
0.0
 11
36.8288012648
 21
-25.711304324
 31
0.0
 11
36.7429410848
 21
-25.8406560026
 31
0.0
 11
36.614284427
 21
-25.9275430707
 31
0.0
 11
36.4622249493
 21
-25.958934899
 31
0.0
  0
SPLINE
  5
368
100
AcDbEntity
  8
RACCORDO
100
AcDbSpline
 62
253
  6
CONTINUOUS
 70
0
 71
3
 72
11
 73
7
 74
5
 42
0.0000001
 43
0.0000001
 44
0.0000000001
 12
-0.6210287286
 22
0.0000498599
 32
0.0
 13
-0.0000791702
 23
0.6210287255
 33
0.0
 40
0.0
 40
0.0
 40
0.0
 40
0.0
 40
0.2500058224
 40
0.5000008131
 40
0.7499857999
 40
1.0
 40
1.0
 40
1.0
 40
1.0
 10
-36.4589958209
 20
-25.958934899
 30
0.0
 10
-36.5107494203
 20
-25.9589307439
 30
0.0
 10
-36.6153585836
 20
-25.9383418135
 30
0.0
 10
-36.7479314944
 20
-25.8502220971
 30
0.0
 10
-36.8368426497
 20
-25.7184227258
 30
0.0
 10
-36.8589283011
 20
-25.6139802888
 30
0.0
 10
-36.858934899
 20
-25.5622249555
 30
0.0
 11
-36.4589958209
 21
-25.958934899
 31
0.0
 11
-36.6113043226
 21
-25.9288012654
 31
0.0
 11
-36.7406560004
 21
-25.8429410869
 31
0.0
 11
-36.8275430689
 21
-25.7142844313
 31
0.0
 11
-36.858934899
 21
-25.5622249555
 31
0.0
  0
SPLINE
  5
369
100
AcDbEntity
  8
RACCORDO
100
AcDbSpline
 62
253
  6
CONTINUOUS
 70
0
 71
3
 72
23
 73
19
 74
17
 42
0.0000001
 43
0.0000001
 44
0.0000000001
 12
-0.0052250696
 22
0.6999442616
 32
0.0
 13
0.6997738236
 23
0.0163054114
 33
0.0
 40
0.0
 40
0.0
 40
0.0
 40
0.0
 40
0.1950458747
 40
0.3826397505
 40
0.555484779
 40
0.6343043597
 40
0.7070050217
 40
0.7729042947
 40
0.831352309
 40
0.8818043226
 40
0.9237617168
 40
0.9568261729
 40
0.969925046
 40
0.9806839856
 40
0.989079053
 40
0.9950984995
 40
0.9987336937
 40
1.0
 40
1.0
 40
1.0
 40
1.0
 10
-89.2802084241
 20
25.5589958209
 30
0.0
 10
-89.2805481336
 20
25.6045029012
 30
0.0
 10
-89.2811518165
 20
25.6937788834
 30
0.0
 10
-89.2818332856
 20
25.8233835513
 30
0.0
 10
-89.2821997461
 20
25.9258712881
 30
0.0
 10
-89.2823492207
 20
26.0015524999
 30
0.0
 10
-89.2823874729
 20
26.0522810088
 30
0.0
 10
-89.2823562755
 20
26.098256769
 30
0.0
 10
-89.2822549456
 20
26.139040201
 30
0.0
 10
-89.2820885186
 20
26.1742406637
 30
0.0
 10
-89.2818519491
 20
26.2035082318
 30
0.0
 10
-89.2816028539
 20
26.2240841303
 30
0.0
 10
-89.281336516
 20
26.2373368749
 30
0.0
 10
-89.281175704
 20
26.2449149664
 30
0.0
 10
-89.2809034365
 20
26.2506422511
 30
0.0
 10
-89.280860906
 20
26.2551738869
 30
0.0
 10
-89.280369793
 20
26.2571383499
 30
0.0
 10
-89.2805038001
 20
26.258882325
 30
0.0
 10
-89.2802084241
 20
26.2588892076
 30
0.0
 11
-89.2802084241
 21
25.5589958209
 31
0.0
 11
-89.2811286882
 21
25.6955177639
 31
0.0
 11
-89.2818130548
 21
25.8268248959
 31
0.0
 11
-89.2822338562
 21
25.9478094208
 31
0.0
 11
-89.2823403598
 21
26.0029801684
 31
0.0
 11
-89.2823759228
 21
26.0538679849
 31
0.0
 11
-89.2823403799
 21
26.0999950744
 31
0.0
 11
-89.2822338879
 21
26.1409064279
 31
0.0
 11
-89.2820576017
 21
26.1762205692
 31
0.0
 11
-89.2818130933
 21
26.205588207
 31
0.0
 11
-89.2815025511
 21
26.2287300446
 31
0.0
 11
-89.2813233597
 21
26.2378970299
 31
0.0
 11
-89.2811286868
 21
26.2454253812
 31
0.0
 11
-89.2809191031
 21
26.2512978855
 31
0.0
 11
-89.28069536
 21
26.255505335
 31
0.0
 11
-89.2804582147
 21
26.2580387642
 31
0.0
 11
-89.2802084241
 21
26.2588892076
 31
0.0
  0
SPLINE
  5
36A
100
AcDbEntity
  8
RACCORDO
100
AcDbSpline
 62
253
  6
CONTINUOUS
 70
0
 71
3
 72
23
 73
19
 74
17
 42
0.0000001
 43
0.0000001
 44
0.0000000001
 12
-0.699723268
 22
0.0183467323
 32
0.0
 13
0.0052239514
 23
0.6999442583
 33
0.0
 40
0.0
 40
0.0
 40
0.0
 40
0.0
 40
0.0012669938
 40
0.0049023045
 40
0.010921506
 40
0.0193161922
 40
0.0300748356
 40
0.0431735956
 40
0.0762381591
 40
0.1181957108
 40
0.1686477238
 40
0.2270956894
 40
0.2929949544
 40
0.3656956318
 40
0.4445152214
 40
0.6173602503
 40
0.8049541264
 40
1.0
 40
1.0
 40
1.0
 40
1.0
 10
-89.2802084241
 20
-26.2588892076
 30
0.0
 10
-89.2805039391
 20
-26.2588814592
 30
0.0
 10
-89.2803697052
 20
-26.2571391275
 30
0.0
 10
-89.2808609914
 20
-26.2551726444
 30
0.0
 10
-89.2809034374
 20
-26.2506422304
 30
0.0
 10
-89.2811757125
 20
-26.2449146733
 30
0.0
 10
-89.2813364921
 20
-26.2373369527
 30
0.0
 10
-89.2816028203
 20
-26.2240841909
 30
0.0
 10
-89.2818519082
 20
-26.2035083139
 30
0.0
 10
-89.2820884828
 20
-26.1742406603
 30
0.0
 10
-89.282254913
 20
-26.1390401816
 30
0.0
 10
-89.2823562548
 20
-26.0982567608
 30
0.0
 10
-89.282387474
 20
-26.0522810119
 30
0.0
 10
-89.2823492435
 20
-26.0015524998
 30
0.0
 10
-89.2821997821
 20
-25.9258712835
 30
0.0
 10
-89.2818333308
 20
-25.8233835461
 30
0.0
 10
-89.2811518303
 20
-25.6937788806
 30
0.0
 10
-89.2805480609
 20
-25.6045029007
 30
0.0
 10
-89.2802084241
 20
-25.5589958209
 30
0.0
 11
-89.2802084241
 21
-26.2588892076
 31
0.0
 11
-89.2804582502
 21
-26.2580382732
 31
0.0
 11
-89.2806954
 21
-26.2555047625
 31
0.0
 11
-89.2809191279
 21
-26.2512974839
 31
0.0
 11
-89.2811286882
 21
-26.2454252459
 31
0.0
 11
-89.2813233405
 21
-26.2378971016
 31
0.0
 11
-89.2815025196
 21
-26.2287301954
 31
0.0
 11
-89.2818130548
 21
-26.2055882828
 31
0.0
 11
-89.2820575655
 21
-26.1762205354
 31
0.0
 11
-89.2822338562
 21
-26.140906395
 31
0.0
 11
-89.2823403598
 21
-26.0999950764
 31
0.0
 11
-89.2823759228
 21
-26.0538679933
 31
0.0
 11
-89.2823403799
 21
-26.0029801668
 31
0.0
 11
-89.2822338879
 21
-25.9478094139
 31
0.0
 11
-89.2818130933
 21
-25.8268248907
 31
0.0
 11
-89.2811286868
 21
-25.6955177609
 31
0.0
 11
-89.2802084241
 21
-25.5589958209
 31
0.0
  0
ELLIPSE
  5
36B
100
AcDbEntity
  8
RACCORDO
100
AcDbEllipse
 62
7
  6
CONTINUOUS
 10
-36.4998933704
 20
25.5998933704
 30
0.0
 11
0.4951255324
 21
-0.4951255324
 31
0.0
 40
0.9996954599
 41
2.3563467834
 42
3.9268385237
  0
ELLIPSE
  5
36C
100
AcDbEntity
  8
RACCORDO
100
AcDbEllipse
 62
7
  6
CONTINUOUS
 10
-36.4998933704
 20
-25.5998933704
 30
0.0
 11
0.4951255324
 21
0.4951255324
 31
0.0
 40
0.9996954599
 41
-3.9268385237
 42
-2.3563467834
  0
ELLIPSE
  5
36D
100
AcDbEntity
  8
RACCORDO
100
AcDbEllipse
 62
7
  6
CONTINUOUS
 10
36.4998933704
 20
-25.5998933704
 30
0.0
 11
-0.4951255324
 21
0.4951255324
 31
0.0
 40
0.9996954599
 41
-3.9268385237
 42
-2.3563467834
  0
ELLIPSE
  5
36E
100
AcDbEntity
  8
RACCORDO
100
AcDbEllipse
 62
7
  6
CONTINUOUS
 10
36.4998933704
 20
25.5998933704
 30
0.0
 11
0.4951255324
 21
0.4951255324
 31
0.0
 40
0.9996954599
 41
-0.7852458702
 42
0.7852458701
  0
ELLIPSE
  5
36F
100
AcDbEntity
  8
RACCORDO
100
AcDbEllipse
 62
7
  6
CONTINUOUS
 10
33.5920995224
 20
22.2920995224
 30
0.0
 11
0.2121966568
 21
0.2121966568
 31
0.0
 40
0.9996954599
 41
-0.7852458701
 42
0.7852458701
  0
ELLIPSE
  5
370
100
AcDbEntity
  8
RACCORDO
100
AcDbEllipse
 62
7
  6
CONTINUOUS
 10
33.5920995224
 20
-22.2920995224
 30
0.0
 11
0.2121966568
 21
-0.2121966568
 31
0.0
 40
0.9996954599
 41
-0.7852458701
 42
0.7852458701
  0
ELLIPSE
  5
371
100
AcDbEntity
  8
RACCORDO
100
AcDbEllipse
 62
7
  6
CONTINUOUS
 10
-33.5920995224
 20
22.2920995224
 30
0.0
 11
0.2121966568
 21
-0.2121966568
 31
0.0
 40
0.9996954599
 41
2.3563467834
 42
3.9268385237
  0
ELLIPSE
  5
372
100
AcDbEntity
  8
RACCORDO
100
AcDbEllipse
 62
7
  6
CONTINUOUS
 10
-33.5920995224
 20
-22.2920995224
 30
0.0
 11
-0.2121966568
 21
-0.2121966568
 31
0.0
 40
0.9996954599
 41
-0.7852458701
 42
0.7852458701
  0
ELLIPSE
  5
373
100
AcDbEntity
  8
ASSI
100
AcDbEllipse
 62
7
  6
CONTINUOUS
 10
-79.8749727022
 20
-25.9914384441
 30
0.0
 11
0.1417119467
 21
0.1422961243
 31
0.0
 40
0.9918061237
 41
-0.7833412615
 42
0.7350951877
  0
ELLIPSE
  5
374
100
AcDbEntity
  8
ASSI
100
AcDbEllipse
 62
7
  6
CONTINUOUS
 10
-79.8749727022
 20
25.9914384441
 30
0.0
 11
-0.1417119467
 21
0.1422961243
 31
0.0
 40
0.9918061237
 41
-3.8766878413
 42
-2.358251392
  0
ENDSEC
  0
SECTION
  2
OBJECTS
  0
DICTIONARY
  5
C
100
AcDbDictionary
280
0
281
1
  3
ACAD_GROUP
350
D
  3
ACAD_MLINESTYLE
350
17
  3
ACAD_LAYOUT
350
1A
  3
ACAD_PLOTSETTINGS
350
19
  3
ACAD_PLOTSTYLENAME
350
E
  0
DICTIONARY
  5
D
102
{ACAD_REACTORS
330
C
102
}
100
AcDbDictionary
280
0
281
1
  0
ACDBDICTIONARYWDFLT
  5
E
102
{ACAD_REACTORS
330
C
102
}
100
AcDbDictionary
281
1
  3
Normal
350
F
100
AcDbDictionaryWithDefault
340
F
  0
DICTIONARY
  5
17
102
{ACAD_REACTORS
330
C
102
}
100
AcDbDictionary
280
0
281
1
  3
Standard
350
18
  0
DICTIONARY
  5
19
102
{ACAD_REACTORS
330
C
102
}
100
AcDbDictionary
281
1
  0
DICTIONARY
  5
1A
102
{ACAD_REACTORS
330
C
102
}
100
AcDbDictionary
281
1
  3
Model
350
375
  3
Layout1
350
376
  0
ACDBPLACEHOLDER
  5
F
102
{ACAD_REACTORS
330
E
102
}
  0
MLINESTYLE
  5
18
102
{ACAD_REACTORS
330
17
102
}
100
AcDbMlineStyle
  2
STANDARD
 70
0
  3

 62
256
 51
90.0
 52
90.0
 71
2
 49
0.5
 62
256
  6
BYLAYER
 49
-0.5
 62
256
  6
BYLAYER
  0
LAYOUT
  5
375
102
{ACAD_REACTORS
330
1A
102
}
100
AcDbPlotSettings
  1

  2
none_device
  4
ISO_A4_(297.00_x_210.00_MM)
  6

 40
0.0
 41
0.0
 42
0.0
 43
0.0
 44
297.0
 45
210.0
 46
0.0
 47
0.0
 48
0.0
 49
0.0
140
0.0
141
0.0
142
1.0
143
1.0
 70
1024
 72
1
 73
0
 74
0
  7

 75
0
147
1.0
148
0.0
149
0.0
100
AcDbLayout
  1
Model
 70
0
 71
0
 10
0.0
 20
0.0
 11
297.0
 21
210.0
 12
0.0
 22
0.0
 32
0.0
 14
0.0
 24
0.0
 34
0.0
 15
0.0
 25
0.0
 35
0.0
146
0.0
 13
0.0
 23
0.0
 33
0.0
 16
1.0
 26
0.0
 36
0.0
 17
0.0
 27
1.0
 37
0.0
 76
0
330
215
345
0
346
0
  0
LAYOUT
  5
376
102
{ACAD_REACTORS
330
1A
102
}
100
AcDbPlotSettings
  1

  2
none_device
  4
ISO_A4_(297.00_x_210.00_MM)
  6

 40
0.0
 41
0.0
 42
0.0
 43
0.0
 44
297.0
 45
210.0
 46
0.0
 47
0.0
 48
0.0
 49
0.0
140
0.0
141
0.0
142
1.0
143
1.0
 70
0
 72
1
 73
0
 74
0
  7

 75
0
147
1.0
148
0.0
149
0.0
100
AcDbLayout
  1
Layout1
 70
0
 71
1
 10
0.0
 20
0.0
 11
297.0
 21
210.0
 12
0.0
 22
0.0
 32
0.0
 14
0.0
 24
0.0
 34
0.0
 15
0.0
 25
0.0
 35
0.0
146
0.0
 13
0.0
 23
0.0
 33
0.0
 16
1.0
 26
0.0
 36
0.0
 17
0.0
 27
1.0
 37
0.0
 76
0
330
216
345
0
346
0
  0
ENDSEC
  0
EOF
