  0
SECTION
  2
HEADER
  9
$ACADVER
  1
AC1015
  9
$DWGCODEPAGE
  3
ANSI_1252
  9
$EXTMAX
 10
297.0
 20
210.0
 30
0.0
  9
$EXTMIN
 10
0.0
 20
0.0
 30
0.0
  9
$LIMMIN
 10
0.0
 20
0.0
  9
$LIMMAX
 10
297.0
 20
210.0
  9
$VIEWCTR
 10
148.5
 20
105.0
  9
$VIEWSIZE
 40
210.0
  9
$CLAYER
  8
0
  9
$LTSCALE
 40
16.335
  9
$CELTYPE
  6
BYLAYER
  9
$DIMSCALE
 40
1.0
  9
$DIMASZ
 40
3.0
  9
$DIMEXO
 40
1.85625
  9
$DIMDLI
 40
11.286
  9
$DIMEXE
 40
5.346
  9
$DIMCEN
 40
2.673
  9
$DIMLFAC
 40
1.0
  9
$DIMBLK
  1
_FILLED
  9
$DIMTXT
 40
3.0
  9
$DIMTOL
 70
1
  9
$DIMLIM
 70
0
  9
$DIMTFAC
 40
1.0
  9
$DIMTP
 40
0.01
  9
$DIMTM
 40
0.01
  9
$PDMODE
 70
3
  9
$PDSIZE
 40
3.0
  9
$HANDSEED
  5
38B
  9
$TILEMODE
 70
1
  9
$MEASUREMENT
 70
1
  9
$INSUNITS
 70
4
  0
ENDSEC
  0
SECTION
  2
CLASSES
  0
CLASS
  1
ACDBDICTIONARYWDFLT
  2
AcDbDictionaryWithDefault
  3
AutoCAD 2000
 90
0
280
0
281
0
  0
CLASS
  1
ACDBPLACEHOLDER
  2
AcDbPlaceHolder
  3
AutoCAD 2000
 90
0
280
0
281
0
  0
CLASS
  1
LAYOUT
  2
AcDbLayout
  3
AutoCAD 2000
 90
0
280
0
281
0
  0
ENDSEC
  0
SECTION
  2
TABLES
  0
TABLE
  2
VPORT
  5
8
100
AcDbSymbolTable
 70
2
  0
VPORT
  5
1F4
100
AcDbSymbolTableRecord
100
AcDbViewportTableRecord
  2
*ACTIVE
 70
0
 10
0.0
 20
0.0
 11
1.0
 21
1.0
 12
148.5
 22
105.0
 13
0.0
 23
0.0
 14
1.0
 24
1.0
 15
0.0
 25
0.0
 16
0.0
 26
0.0
 36
1.0
 17
0.0
 27
0.0
 37
0.0
 40
210.0
 41
1.4142857143
 42
50.0
 43
0.0
 44
0.0
 50
0.0
 51
0.0
 71
0
 72
100
 73
1
 74
1
 75
0
 76
0
 77
0
 78
0
  0
ENDTAB
  0
TABLE
  2
LTYPE
  5
5
100
AcDbSymbolTable
 70
6
  0
LTYPE
  5
14
100
AcDbSymbolTableRecord
100
AcDbLinetypeTableRecord
  2
BYBLOCK
 70
0
  3

 72
65
 73
0
 40
0.0
  0
LTYPE
  5
15
100
AcDbSymbolTableRecord
100
AcDbLinetypeTableRecord
  2
BYLAYER
 70
0
  3

 72
65
 73
0
 40
0.0
  0
LTYPE
  5
16
100
AcDbSymbolTableRecord
100
AcDbLinetypeTableRecord
  2
CONTINUOUS
 70
64
  3
Solid line
 72
65
 73
0
 40
0.0
  0
LTYPE
  5
1F5
100
AcDbSymbolTableRecord
100
AcDbLinetypeTableRecord
  2
CENTER
 70
64
  3
____ _ ____ _ ____ _ ____ _ ____ _ ____ _ ____
 72
65
 73
4
 40
0.6
 49
0.375
 74
0
 49
-0.075
 74
0
 49
0.075
 74
0
 49
-0.075
 74
0
  0
LTYPE
  5
1F6
100
AcDbSymbolTableRecord
100
AcDbLinetypeTableRecord
  2
HIDDEN
 70
64
  3
- - - - - - - - - - - - - - - - - - - -
 72
65
 73
2
 40
0.2
 49
0.1
 74
0
 49
-0.1
 74
0
  0
LTYPE
  5
1F7
100
AcDbSymbolTableRecord
100
AcDbLinetypeTableRecord
  2
PHANTOM
 70
64
  3
_____ _ _ _____ _ _ _____ _ _ _____
 72
65
 73
6
 40
0.8
 49
0.45
 74
0
 49
-0.05
 74
0
 49
0.1
 74
0
 49
-0.05
 74
0
 49
0.1
 74
0
 49
-0.05
 74
0
  0
LTYPE
  5
1F8
100
AcDbSymbolTableRecord
100
AcDbLinetypeTableRecord
  2
DOT
 70
64
  3
. . . . . . . . . . . . . . . . . . . .
 72
65
 73
2
 40
0.2
 49
0.1
 74
0
 49
-0.1
 74
0
  0
LTYPE
  5
1F9
100
AcDbSymbolTableRecord
100
AcDbLinetypeTableRecord
  2
DASHED
 70
64
  3
- - - - - - - - - - - - - - - - - - - -
 72
65
 73
2
 40
0.2
 49
0.1
 74
0
 49
-0.1
 74
0
  0
ENDTAB
  0
TABLE
  2
LAYER
  5
2
100
AcDbSymbolTable
 70
36
  0
LAYER
  5
10
100
AcDbSymbolTableRecord
100
AcDbLayerTableRecord
  2
0
 70
0
 62
7
  6
CONTINUOUS
370
-3
390
F
  0
LAYER
  5
1FA
100
AcDbSymbolTableRecord
100
AcDbLayerTableRecord
  2
DEFAULT_1
 70
0
 62
7
  6
CENTER
370
-3
390
F
  0
LAYER
  5
1FB
100
AcDbSymbolTableRecord
100
AcDbLayerTableRecord
  2
DEFAULT_2
 70
0
 62
7
  6
HIDDEN
370
-3
390
F
  0
LAYER
  5
1FC
100
AcDbSymbolTableRecord
100
AcDbLayerTableRecord
  2
DEFAULT_3
 70
0
 62
7
  6
PHANTOM
370
-3
390
F
  0
LAYER
  5
1FD
100
AcDbSymbolTableRecord
100
AcDbLayerTableRecord
  2
ASSI
 70
0
 62
7
  6
CONTINUOUS
370
-3
390
F
  0
LAYER
  5
1FE
100
AcDbSymbolTableRecord
100
AcDbLayerTableRecord
  2
COORDINATE
 70
0
 62
7
  6
CONTINUOUS
370
-3
390
F
  0
LAYER
  5
1FF
100
AcDbSymbolTableRecord
100
AcDbLayerTableRecord
  2
COORD_ORIGINE
 70
0
 62
7
  6
CONTINUOUS
370
-3
390
F
  0
LAYER
  5
200
100
AcDbSymbolTableRecord
100
AcDbLayerTableRecord
  2
COPY_PUBLISH
 70
0
 62
7
  6
CONTINUOUS
370
-3
390
F
  0
LAYER
  5
201
100
AcDbSymbolTableRecord
100
AcDbLayerTableRecord
  2
COSMETIC
 70
0
 62
7
  6
CONTINUOUS
370
-3
390
F
  0
LAYER
  5
202
100
AcDbSymbolTableRecord
100
AcDbLayerTableRecord
  2
CURVE
 70
0
 62
7
  6
CONTINUOUS
370
-3
390
F
  0
LAYER
  5
203
100
AcDbSymbolTableRecord
100
AcDbLayerTableRecord
  2
DRAFT
 70
0
 62
7
  6
CONTINUOUS
370
-3
390
F
  0
LAYER
  5
204
100
AcDbSymbolTableRecord
100
AcDbLayerTableRecord
  2
IMPORT_IGES
 70
0
 62
7
  6
CONTINUOUS
370
-3
390
F
  0
LAYER
  5
205
100
AcDbSymbolTableRecord
100
AcDbLayerTableRecord
  2
INTFCLR_2
 70
0
 62
7
  6
CONTINUOUS
370
-3
390
F
  0
LAYER
  5
206
100
AcDbSymbolTableRecord
100
AcDbLayerTableRecord
  2
PIANI
 70
0
 62
7
  6
CONTINUOUS
370
-3
390
F
  0
LAYER
  5
207
100
AcDbSymbolTableRecord
100
AcDbLayerTableRecord
  2
PIANI_ORIGINE
 70
0
 62
7
  6
CONTINUOUS
370
-3
390
F
  0
LAYER
  5
208
100
AcDbSymbolTableRecord
100
AcDbLayerTableRecord
  2
PIANI_RIFERIMENTO
 70
0
 62
7
  6
CONTINUOUS
370
-3
390
F
  0
LAYER
  5
209
100
AcDbSymbolTableRecord
100
AcDbLayerTableRecord
  2
PUNTI
 70
0
 62
7
  6
CONTINUOUS
370
-3
390
F
  0
LAYER
  5
20A
100
AcDbSymbolTableRecord
100
AcDbLayerTableRecord
  2
RACCORDO
 70
0
 62
7
  6
CONTINUOUS
370
-3
390
F
  0
LAYER
  5
20B
100
AcDbSymbolTableRecord
100
AcDbLayerTableRecord
  2
SMUSSO
 70
0
 62
7
  6
CONTINUOUS
370
-3
390
F
  0
LAYER
  5
20C
100
AcDbSymbolTableRecord
100
AcDbLayerTableRecord
  2
SNAPLINE
 70
0
 62
7
  6
CONTINUOUS
370
-3
390
F
  0
LAYER
  5
20D
100
AcDbSymbolTableRecord
100
AcDbLayerTableRecord
  2
SUPERFICI
 70
0
 62
7
  6
CONTINUOUS
370
-3
390
F
  0
LAYER
  5
20E
100
AcDbSymbolTableRecord
100
AcDbLayerTableRecord
  2
TRASH
 70
0
 62
7
  6
CONTINUOUS
370
-3
390
F
  0
LAYER
  5
20F
100
AcDbSymbolTableRecord
100
AcDbLayerTableRecord
  2
XSEC_DATUMS
 70
0
 62
7
  6
CONTINUOUS
370
-3
390
F
  0
ENDTAB
  0
TABLE
  2
STYLE
  5
3
100
AcDbSymbolTable
 70
1
  0
STYLE
  5
11
100
AcDbSymbolTableRecord
100
AcDbTextStyleTableRecord
  2
STANDARD
 70
0
 40
0.0
 41
0.8
 50
0.0
 71
0
 42
0.2
  3
txt
  4

  0
STYLE
  5
210
100
AcDbSymbolTableRecord
100
AcDbTextStyleTableRecord
  2
TEXTSTYLE_1
 70
0
 40
0.0
 41
0.8
 50
0.0
 71
0
 42
0.2
  3
gdt
  4

  0
ENDTAB
  0
TABLE
  2
VIEW
  5
6
100
AcDbSymbolTable
 70
0
  0
ENDTAB
  0
TABLE
  2
UCS
  5
7
100
AcDbSymbolTable
 70
0
  0
ENDTAB
  0
TABLE
  2
APPID
  5
9
100
AcDbSymbolTable
 70
1
  0
APPID
  5
211
100
AcDbSymbolTableRecord
100
AcDbRegAppTableRecord
  2
ACAD
 70
0
  0
ENDTAB
  0
TABLE
  2
BLOCK_RECORD
  5
1
100
AcDbSymbolTable
 70
0
  0
BLOCK_RECORD
  5
212
100
AcDbSymbolTableRecord
100
AcDbBlockTableRecord
  2
*Model_Space
  0
BLOCK_RECORD
  5
213
100
AcDbSymbolTableRecord
100
AcDbBlockTableRecord
  2
*Paper_Space
  0
BLOCK_RECORD
  5
214
100
AcDbSymbolTableRecord
100
AcDbBlockTableRecord
  2
_FILLED
  0
BLOCK_RECORD
  5
215
100
AcDbSymbolTableRecord
100
AcDbBlockTableRecord
  2
*D0
  0
BLOCK_RECORD
  5
216
100
AcDbSymbolTableRecord
100
AcDbBlockTableRecord
  2
*D1
  0
BLOCK_RECORD
  5
217
100
AcDbSymbolTableRecord
100
AcDbBlockTableRecord
  2
*D2
  0
BLOCK_RECORD
  5
218
100
AcDbSymbolTableRecord
100
AcDbBlockTableRecord
  2
*D3
  0
ENDTAB
  0
TABLE
  2
DIMSTYLE
  5
A
100
AcDbSymbolTable
 70
1
100
AcDbDimStyleTable
 71
0
  0
DIMSTYLE
105
219
100
AcDbSymbolTableRecord
100
AcDbDimStyleTableRecord
  2
STANDARD
 70
0
  3

  4

 40
1.0
 41
3.0
 42
0.0625
 43
0.38
 44
0.18
 45
0.0
 46
0.0
 47
0.01
 48
0.01
140
3.0
141
0.09
142
0.0
143
25.4
144
1.0
145
0.0
146
1.0
147
0.09
 71
1.0
 72
0.0
 73
0
 74
0
 75
0
 76
0
 77
1
 78
8
170
0
171
2
172
0
173
0
174
0
175
0
176
0
177
0
178
0
270
2
271
2
272
2
273
2
274
2
275
0
280
0
281
0
282
0
283
1
284
8
285
0
286
0
287
3
288
0
340
11
341
214
342
214
343
214
344
214
  0
DIMSTYLE
105
21A
100
AcDbSymbolTableRecord
100
AcDbDimStyleTableRecord
  2
DIMSTYLE_1
 70
0
  3

  4

 40
1.0
 41
3.0
 42
0.0625
 43
0.38
 44
0.18
 45
0.0
 46
0.0
 47
0.0
 48
0.0
140
3.0
141
0.09
142
0.0
143
25.4
144
1.0
145
0.0
146
1.0
147
0.09
 71
0.0
 72
0.0
 73
0
 74
0
 75
0
 76
0
 77
1
 78
8
170
0
171
2
172
0
173
0
174
0
175
0
176
0
177
0
178
0
270
2
271
2
272
2
273
2
274
2
275
0
280
0
281
0
282
0
283
1
284
8
285
0
286
0
287
3
288
0
340
11
341
214
342
214
343
214
344
214
  0
ENDTAB
  0
ENDSEC
  0
SECTION
  2
BLOCKS
  0
BLOCK
  5
20
100
AcDbEntity
  8
0
100
AcDbBlockBegin
  2
*Model_Space
 70
0
 10
0.0
 20
0.0
 30
0.0
  3
*Model_Space
  1

  0
ENDBLK
  5
21
100
AcDbEntity
  8
0
100
AcDbBlockEnd
  0
BLOCK
  5
1C
100
AcDbEntity
  8
0
100
AcDbBlockBegin
  2
*Paper_Space
 70
0
 10
0.0
 20
0.0
 30
0.0
  3
*Paper_Space
  1

  0
ENDBLK
  5
1D
100
AcDbEntity
  8
0
100
AcDbBlockEnd
  0
BLOCK
  5
21B
100
AcDbEntity
  8
0
100
AcDbBlockBegin
  2
_FILLED
 70
64
 10
0.0
 20
0.0
  3
_FILLED
  1

  0
SOLID
  5
21C
100
AcDbEntity
  8
0
  6
BYBLOCK
 62
0
100
AcDbTrace
 10
0.0
 20
0.0
 11
-1.0
 21
0.3166666667
 12
-1.0
 22
-0.3166666667
 13
-1.0
 23
-0.3166666667
  0
ENDBLK
  5
21D
100
AcDbEntity
  8
0
  6
BYBLOCK
 62
0
100
AcDbBlockEnd
  0
BLOCK
  5
21E
100
AcDbEntity
  8
0
100
AcDbBlockBegin
 62
7
  6
CONTINUOUS
  2
*D0
 70
65
 10
0.0
 20
0.0
  3
*D0
  1

  0
MTEXT
  5
21F
100
AcDbEntity
  8
0
100
AcDbMText
 62
7
  6
CONTINUOUS
  7
STANDARD
 71
2
 72
1
 10
0.0
 20
66.7499999999
 30
0.0
 11
1.0
 21
0.0
 31
0.0
 44
0.9
  1
208
 40
3.0
 41
7.0714285714
  0
LINE
  5
220
100
AcDbEntity
  8
0
100
AcDbLine
 62
7
  6
CONTINUOUS
 10
-104.0
 20
52.5
 11
-104.0
 21
64.4999999999
  0
LINE
  5
221
100
AcDbEntity
  8
0
100
AcDbLine
 62
7
  6
CONTINUOUS
 10
104.0
 20
52.5
 11
104.0
 21
64.4999999999
  0
LINE
  5
222
100
AcDbEntity
  8
0
100
AcDbLine
 62
7
  6
CONTINUOUS
 10
-104.0
 20
62.9999999999
 11
0.0
 21
62.9999999999
  0
LINE
  5
223
100
AcDbEntity
  8
0
100
AcDbLine
 62
7
  6
CONTINUOUS
 10
104.0
 20
62.9999999999
 11
0.0
 21
62.9999999999
  0
INSERT
  5
224
100
AcDbEntity
  8
0
100
AcDbBlockReference
 62
7
  6
CONTINUOUS
  2
_FILLED
 10
-104.0
 20
62.9999999999
 41
3.0
 42
3.0
 43
3.0
 50
180.0
  0
INSERT
  5
225
100
AcDbEntity
  8
0
100
AcDbBlockReference
 62
7
  6
CONTINUOUS
  2
_FILLED
 10
104.0
 20
62.9999999999
 41
3.0
 42
3.0
 43
3.0
 50
0.0
  0
ENDBLK
  5
226
100
AcDbEntity
  8
0
  6
BYBLOCK
 62
0
100
AcDbBlockEnd
  0
BLOCK
  5
227
100
AcDbEntity
  8
0
100
AcDbBlockBegin
 62
7
  6
CONTINUOUS
  2
*D1
 70
65
 10
0.0
 20
0.0
  3
*D1
  1

  0
MTEXT
  5
228
100
AcDbEntity
  8
0
100
AcDbMText
 62
7
  6
CONTINUOUS
  7
STANDARD
 71
2
 72
1
 10
110.2499999999
 20
0.0
 30
0.0
 11
0.0
 21
1.0
 31
0.0
 44
0.9
  1
106
 40
3.0
 41
6.4285714286
  0
LINE
  5
229
100
AcDbEntity
  8
0
100
AcDbLine
 62
7
  6
CONTINUOUS
 10
103.5
 20
53.0
 11
115.4999999999
 21
53.0
  0
LINE
  5
22A
100
AcDbEntity
  8
0
100
AcDbLine
 62
7
  6
CONTINUOUS
 10
103.5
 20
-53.0
 11
115.4999999999
 21
-53.0
  0
LINE
  5
22B
100
AcDbEntity
  8
0
100
AcDbLine
 62
7
  6
CONTINUOUS
 10
113.9999999999
 20
53.0
 11
113.9999999999
 21
0.0
  0
LINE
  5
22C
100
AcDbEntity
  8
0
100
AcDbLine
 62
7
  6
CONTINUOUS
 10
113.9999999999
 20
-53.0
 11
113.9999999999
 21
0.0
  0
INSERT
  5
22D
100
AcDbEntity
  8
0
100
AcDbBlockReference
 62
7
  6
CONTINUOUS
  2
_FILLED
 10
113.9999999999
 20
53.0
 41
3.0
 42
3.0
 43
3.0
 50
90.0
  0
INSERT
  5
22E
100
AcDbEntity
  8
0
100
AcDbBlockReference
 62
7
  6
CONTINUOUS
  2
_FILLED
 10
113.9999999999
 20
-53.0
 41
3.0
 42
3.0
 43
3.0
 50
270.0
  0
ENDBLK
  5
22F
100
AcDbEntity
  8
0
  6
BYBLOCK
 62
0
100
AcDbBlockEnd
  0
BLOCK
  5
230
100
AcDbEntity
  8
0
100
AcDbBlockBegin
 62
7
  6
CONTINUOUS
  2
*D2
 70
65
 10
0.0
 20
0.0
  3
*D2
  1

  0
MTEXT
  5
231
100
AcDbEntity
  8
0
100
AcDbMText
 62
7
  6
CONTINUOUS
  7
STANDARD
 71
3
 72
1
 10
-141.554899826
 20
66.7499999999
 30
0.0
 11
1.0
 21
0.0
 31
0.0
 44
0.9
  1
8,6
 40
3.0
 41
6.4285714286
  0
LINE
  5
232
100
AcDbEntity
  8
0
100
AcDbLine
 62
7
  6
CONTINUOUS
 10
-132.4933951078
 20
51.95
 11
-132.4933951078
 21
64.4999999999
  0
LINE
  5
233
100
AcDbEntity
  8
0
100
AcDbLine
 62
7
  6
CONTINUOUS
 10
-141.0933951078
 20
26.052013795
 11
-141.0933951078
 21
64.4999999999
  0
LINE
  5
234
100
AcDbEntity
  8
0
100
AcDbLine
 62
7
  6
CONTINUOUS
 10
-132.4933951078
 20
62.9999999999
 11
-136.7933951078
 21
62.9999999999
  0
LINE
  5
235
100
AcDbEntity
  8
0
100
AcDbLine
 62
7
  6
CONTINUOUS
 10
-141.0933951078
 20
62.9999999999
 11
-136.7933951078
 21
62.9999999999
  0
LINE
  5
236
100
AcDbEntity
  8
0
100
AcDbLine
 62
7
  6
CONTINUOUS
 10
-136.7933951078
 20
62.9999999999
 11
-147.9834712546
 21
62.9999999999
  0
INSERT
  5
237
100
AcDbEntity
  8
0
100
AcDbBlockReference
 62
7
  6
CONTINUOUS
  2
_FILLED
 10
-132.4933951078
 20
62.9999999999
 41
3.0
 42
3.0
 43
3.0
  0
INSERT
  5
238
100
AcDbEntity
  8
0
100
AcDbBlockReference
 62
7
  6
CONTINUOUS
  2
_FILLED
 10
-141.0933951078
 20
62.9999999999
 41
3.0
 42
3.0
 43
3.0
 50
180.0
  0
ENDBLK
  5
239
100
AcDbEntity
  8
0
  6
BYBLOCK
 62
0
100
AcDbBlockEnd
  0
BLOCK
  5
23A
100
AcDbEntity
  8
0
100
AcDbBlockBegin
 62
7
  6
CONTINUOUS
  2
*D3
 70
65
 10
0.0
 20
0.0
  3
*D3
  1

  0
MTEXT
  5
23B
100
AcDbEntity
  8
0
100
AcDbMText
 62
7
  6
CONTINUOUS
  7
STANDARD
 71
3
 72
1
 10
-141.4659813474
 20
74.7499999999
 30
0.0
 11
1.0
 21
0.0
 31
0.0
 44
0.9
  1
10,3
 40
3.0
 41
7.9285714286
  0
LINE
  5
23C
100
AcDbEntity
  8
0
100
AcDbLine
 62
7
  6
CONTINUOUS
 10
-141.0933951078
 20
26.052013795
 11
-141.0933951078
 21
72.4999999999
  0
LINE
  5
23D
100
AcDbEntity
  8
0
100
AcDbLine
 62
7
  6
CONTINUOUS
 10
-130.7933951078
 20
26.85
 11
-130.7933951078
 21
72.4999999999
  0
LINE
  5
23E
100
AcDbEntity
  8
0
100
AcDbLine
 62
7
  6
CONTINUOUS
 10
-141.0933951078
 20
70.9999999999
 11
-135.9433951078
 21
70.9999999999
  0
LINE
  5
23F
100
AcDbEntity
  8
0
100
AcDbLine
 62
7
  6
CONTINUOUS
 10
-135.9433951078
 20
70.9999999999
 11
-149.394552776
 21
70.9999999999
  0
LINE
  5
240
100
AcDbEntity
  8
0
100
AcDbLine
 62
7
  6
CONTINUOUS
 10
-130.7933951078
 20
70.9999999999
 11
-135.9433951078
 21
70.9999999999
  0
INSERT
  5
241
100
AcDbEntity
  8
0
100
AcDbBlockReference
 62
7
  6
CONTINUOUS
  2
_FILLED
 10
-141.0933951078
 20
70.9999999999
 41
3.0
 42
3.0
 43
3.0
 50
180.0
  0
INSERT
  5
242
100
AcDbEntity
  8
0
100
AcDbBlockReference
 62
7
  6
CONTINUOUS
  2
_FILLED
 10
-130.7933951078
 20
70.9999999999
 41
3.0
 42
3.0
 43
3.0
  0
ENDBLK
  5
243
100
AcDbEntity
  8
0
  6
BYBLOCK
 62
0
100
AcDbBlockEnd
  0
ENDSEC
  0
SECTION
  2
ENTITIES
  0
DIMENSION
  5
244
100
AcDbEntity
  8
0
100
AcDbDimension
 62
7
  6
CONTINUOUS
  2
*D0
 10
104.0
 20
62.9999999999
 11
-3.5357142857
 21
65.2499999999
 70
160
 71
2
 42
208.0
  3
DIMSTYLE_1
100
AcDbAlignedDimension
 13
-104.0
 23
52.5
 14
104.0
 24
52.5
100
AcDbRotatedDimension
  0
DIMENSION
  5
245
100
AcDbEntity
  8
0
100
AcDbDimension
 62
7
  6
CONTINUOUS
  2
*D1
 10
113.9999999999
 20
-53.0
 11
113.1902366232
 21
-2.8735607044
 70
160
 71
2
 42
106.0
  3
DIMSTYLE_1
100
AcDbAlignedDimension
 13
103.5
 23
53.0
 14
103.5
 24
-53.0
 50
270.0
100
AcDbRotatedDimension
  0
DIMENSION
  5
246
100
AcDbEntity
  8
0
100
AcDbDimension
 62
7
  6
CONTINUOUS
  2
*D2
 10
-141.0933951078
 20
62.9999999999
 11
-151.1977569688
 21
65.2499999999
 70
160
 71
3
 42
8.6
  3
DIMSTYLE_1
100
AcDbAlignedDimension
 13
-132.4933951078
 23
51.95
 14
-141.0933951078
 24
26.052013795
 50
180.0
100
AcDbRotatedDimension
  0
DIMENSION
  5
247
100
AcDbEntity
  8
0
100
AcDbDimension
 62
7
  6
CONTINUOUS
  2
*D3
 10
-130.7933951078
 20
70.9999999999
 11
-153.3588384903
 21
73.2499999999
 70
160
 71
3
 42
10.3
  3
DIMSTYLE_1
100
AcDbAlignedDimension
 13
-141.0933951078
 23
26.052013795
 14
-130.7933951078
 24
26.85
100
AcDbRotatedDimension
  0
LINE
  5
248
100
AcDbEntity
  8
SMUSSO
100
AcDbLine
 62
7
  6
CONTINUOUS
 10
-104.0
 20
52.0
 11
-104.0
 21
-52.0
  0
LINE
  5
249
100
AcDbEntity
  8
SMUSSO
100
AcDbLine
 62
7
  6
CONTINUOUS
 10
-103.0
 20
52.0
 11
-103.0
 21
-52.0
  0
LINE
  5
24A
100
AcDbEntity
  8
SMUSSO
100
AcDbLine
 62
253
  6
CONTINUOUS
 10
-103.0
 20
-52.0
 11
-103.0
 21
-53.0
  0
LINE
  5
24B
100
AcDbEntity
  8
SMUSSO
100
AcDbLine
 62
253
  6
CONTINUOUS
 10
-103.0
 20
52.0
 11
-103.0
 21
53.0
  0
LINE
  5
24C
100
AcDbEntity
  8
RACCORDO
100
AcDbLine
 62
7
  6
CONTINUOUS
 10
-82.1589805974
 20
-25.5590872108
 11
-82.1589805974
 21
25.5590872108
  0
LINE
  5
24D
100
AcDbEntity
  8
RACCORDO
100
AcDbLine
 62
253
  6
CONTINUOUS
 10
-82.1518977608
 20
25.5520043742
 11
-82.1519071816
 21
-25.552013795
  0
LINE
  5
24E
100
AcDbEntity
  8
RACCORDO
100
AcDbLine
 62
253
  6
CONTINUOUS
 10
-81.851952873
 20
25.5565206373
 11
-81.851952873
 21
-25.552013795
  0
LINE
  5
24F
100
AcDbEntity
  8
RACCORDO
100
AcDbLine
 62
253
  6
CONTINUOUS
 10
-81.4520137946
 20
26.2519071816
 11
-81.452013795
 21
25.951952873
  0
LINE
  5
250
100
AcDbEntity
  8
RACCORDO
100
AcDbLine
 62
253
  6
CONTINUOUS
 10
-81.4520137949
 20
-26.2518972751
 11
-81.452013795
 21
-25.9519528731
  0
LINE
  5
251
100
AcDbEntity
  8
RACCORDO
100
AcDbLine
 62
253
  6
CONTINUOUS
 10
-79.5220165488
 20
-22.9738147507
 11
-79.5220165488
 21
22.9738147507
  0
LINE
  5
252
100
AcDbEntity
  8
RACCORDO
100
AcDbLine
 62
253
  6
CONTINUOUS
 10
-79.2265742229
 20
-22.9738145413
 11
-79.2265742229
 21
22.9738145581
  0
LINE
  5
253
100
AcDbEntity
  8
RACCORDO
100
AcDbLine
 62
253
  6
CONTINUOUS
 10
-78.9489450092
 20
23.5743997534
 11
-78.9489450092
 21
23.2924919672
  0
LINE
  5
254
100
AcDbEntity
  8
RACCORDO
100
AcDbLine
 62
253
  6
CONTINUOUS
 10
-78.9489450092
 20
-23.5743997534
 11
-78.9489450092
 21
-23.2924919672
  0
LINE
  5
255
100
AcDbEntity
  8
RACCORDO
100
AcDbLine
 62
253
  6
CONTINUOUS
 10
-78.906833204
 20
22.2993589244
 11
-78.906833204
 21
-22.2993589244
  0
LINE
  5
256
100
AcDbEntity
  8
RACCORDO
100
AcDbLine
 62
253
  6
CONTINUOUS
 10
-78.8993132329
 20
22.2993589244
 11
-78.8993132329
 21
-22.2993589244
  0
LINE
  5
257
100
AcDbEntity
  8
RACCORDO
100
AcDbLine
 62
7
  6
CONTINUOUS
 10
-78.8912724675
 20
-22.291318159
 11
-78.8912724675
 21
22.291318159
  0
LINE
  5
258
100
AcDbEntity
  8
RACCORDO
100
AcDbLine
 62
253
  6
CONTINUOUS
 10
-78.5985854258
 20
-22.5985397344
 11
-78.5985854258
 21
-22.6286172716
  0
LINE
  5
259
100
AcDbEntity
  8
RACCORDO
100
AcDbLine
 62
253
  6
CONTINUOUS
 10
-78.5985854258
 20
22.5985397344
 11
-78.5985854252
 21
22.6286172715
  0
LINE
  5
25A
100
AcDbEntity
  8
RACCORDO
100
AcDbLine
 62
253
  6
CONTINUOUS
 10
-79.2265742229
 20
-22.9738145413
 11
-78.9066937466
 21
-22.3135245816
  0
LINE
  5
25B
100
AcDbEntity
  8
RACCORDO
100
AcDbLine
 62
253
  6
CONTINUOUS
 10
-78.9066937466
 20
22.3135245816
 11
-79.2265742229
 21
22.9738145581
  0
LINE
  5
25C
100
AcDbEntity
  8
RACCORDO
100
AcDbLine
 62
253
  6
CONTINUOUS
 10
-78.9489329569
 20
-23.2924919672
 11
-78.6270802277
 21
-22.6280832906
  0
LINE
  5
25D
100
AcDbEntity
  8
RACCORDO
100
AcDbLine
 62
253
  6
CONTINUOUS
 10
-78.6270802005
 20
22.6280832927
 11
-78.9489333272
 21
23.2924919672
  0
LINE
  5
25E
100
AcDbEntity
  8
SMUSSO
100
AcDbLine
 62
7
  6
CONTINUOUS
 10
-103.0
 20
-53.0
 11
103.0
 21
-53.0
  0
LINE
  5
25F
100
AcDbEntity
  8
SMUSSO
100
AcDbLine
 62
7
  6
CONTINUOUS
 10
-103.0
 20
-52.0
 11
103.0
 21
-52.0
  0
LINE
  5
260
100
AcDbEntity
  8
SMUSSO
100
AcDbLine
 62
253
  6
CONTINUOUS
 10
103.0
 20
-52.0
 11
104.0
 21
-52.0
  0
LINE
  5
261
100
AcDbEntity
  8
SMUSSO
100
AcDbLine
 62
253
  6
CONTINUOUS
 10
-103.0
 20
-52.0
 11
-104.0
 21
-52.0
  0
LINE
  5
262
100
AcDbEntity
  8
RACCORDO
100
AcDbLine
 62
253
  6
CONTINUOUS
 10
-78.8993132329
 20
-22.2993589244
 11
-78.8912724675
 21
-22.291318159
  0
LINE
  5
263
100
AcDbEntity
  8
RACCORDO
100
AcDbLine
 62
253
  6
CONTINUOUS
 10
-82.1519071816
 20
-25.552013795
 11
-82.1589805974
 21
-25.5590872108
  0
LINE
  5
264
100
AcDbEntity
  8
RACCORDO
100
AcDbLine
 62
253
  6
CONTINUOUS
 10
-78.5985854258
 20
-22.5985397344
 11
-78.591318159
 21
-22.5912724675
  0
LINE
  5
265
100
AcDbEntity
  8
RACCORDO
100
AcDbLine
 62
253
  6
CONTINUOUS
 10
-81.4520043741
 20
-26.2518977607
 11
-81.4590872108
 21
-26.2589805974
  0
LINE
  5
266
100
AcDbEntity
  8
RACCORDO
100
AcDbLine
 62
253
  6
CONTINUOUS
 10
-78.8912724675
 20
22.291318159
 11
-78.8993132329
 21
22.2993589244
  0
LINE
  5
267
100
AcDbEntity
  8
RACCORDO
100
AcDbLine
 62
253
  6
CONTINUOUS
 10
-82.1518977608
 20
25.5520043742
 11
-82.1589805974
 21
25.5590872108
  0
LINE
  5
268
100
AcDbEntity
  8
RACCORDO
100
AcDbLine
 62
253
  6
CONTINUOUS
 10
-78.591318159
 20
22.5912724675
 11
-78.5985854258
 21
22.5985397344
  0
LINE
  5
269
100
AcDbEntity
  8
RACCORDO
100
AcDbLine
 62
253
  6
CONTINUOUS
 10
-81.452013795
 20
26.2519071816
 11
-81.4590872108
 21
26.2589805974
  0
LINE
  5
26A
100
AcDbEntity
  8
RACCORDO
100
AcDbLine
 62
7
  6
CONTINUOUS
 10
81.4590872108
 20
-26.2589805974
 11
-81.4590872108
 21
-26.2589805974
  0
LINE
  5
26B
100
AcDbEntity
  8
RACCORDO
100
AcDbLine
 62
253
  6
CONTINUOUS
 10
-81.4520043741
 20
-26.2518977607
 11
81.452013795
 21
-26.2519071816
  0
LINE
  5
26C
100
AcDbEntity
  8
RACCORDO
100
AcDbLine
 62
253
  6
CONTINUOUS
 10
-81.4520137941
 20
-25.9519528731
 11
81.452013795
 21
-25.951952873
  0
LINE
  5
26D
100
AcDbEntity
  8
0
100
AcDbLine
 62
7
  6
CONTINUOUS
 10
-3.446727
 20
-25.815174
 11
-3.060461
 21
-25.815174
  0
LINE
  5
26E
100
AcDbEntity
  8
0
100
AcDbLine
 62
7
  6
CONTINUOUS
 10
-2.222834
 20
-25.815174
 11
-1.784518
 21
-25.815174
  0
LINE
  5
26F
100
AcDbEntity
  8
0
100
AcDbLine
 62
7
  6
CONTINUOUS
 10
-1.548559
 20
-25.815174
 11
-1.129234
 21
-25.815174
  0
LINE
  5
270
100
AcDbEntity
  8
0
100
AcDbLine
 62
7
  6
CONTINUOUS
 10
-0.520448
 20
-25.815174
 11
-0.458975
 21
-25.815174
  0
LINE
  5
271
100
AcDbEntity
  8
0
100
AcDbLine
 62
7
  6
CONTINUOUS
 10
0.152236
 20
-25.815174
 11
0.581025
 21
-25.815174
  0
LINE
  5
272
100
AcDbEntity
  8
0
100
AcDbLine
 62
7
  6
CONTINUOUS
 10
0.649852
 20
-25.815174
 11
1.083412
 21
-25.815174
  0
LINE
  5
273
100
AcDbEntity
  8
0
100
AcDbLine
 62
7
  6
CONTINUOUS
 10
1.91482
 20
-25.815174
 11
2.376786
 21
-25.815174
  0
LINE
  5
274
100
AcDbEntity
  8
0
100
AcDbLine
 62
7
  6
CONTINUOUS
 10
2.505496876
 20
-25.8151743977
 11
2.9420487595
 21
-25.8151743977
  0
LINE
  5
275
100
AcDbEntity
  8
0
100
AcDbLine
 62
7
  6
CONTINUOUS
 10
3.613268538
 20
-25.8151743977
 11
4.0348771327
 21
-25.8151743977
  0
LINE
  5
276
100
AcDbEntity
  8
RACCORDO
100
AcDbLine
 62
253
  6
CONTINUOUS
 10
-82.1519071816
 20
-25.5520137946
 11
-81.851952873
 21
-25.552013795
  0
LINE
  5
277
100
AcDbEntity
  8
RACCORDO
100
AcDbLine
 62
253
  6
CONTINUOUS
 10
82.1518972752
 20
-25.5520137949
 11
81.8519528731
 21
-25.552013795
  0
LINE
  5
278
100
AcDbEntity
  8
0
100
AcDbLine
 62
7
  6
CONTINUOUS
 10
1.20436
 20
-25.395975
 11
1.801273
 21
-25.395975
  0
LINE
  5
279
100
AcDbEntity
  8
0
100
AcDbLine
 62
7
  6
CONTINUOUS
 10
1.713676
 20
-25.0716
 11
1.29402
 21
-25.0716
  0
LINE
  5
27A
100
AcDbEntity
  8
0
100
AcDbLine
 62
7
  6
CONTINUOUS
 10
2.9420487595
 20
-24.993419487
 11
3.1770630743
 21
-24.993419487
  0
LINE
  5
27B
100
AcDbEntity
  8
0
100
AcDbLine
 62
7
  6
CONTINUOUS
 10
3.1780078554
 20
-24.6495191431
 11
2.927514876
 21
-24.6495191431
  0
LINE
  5
27C
100
AcDbEntity
  8
0
100
AcDbLine
 62
7
  6
CONTINUOUS
 10
1.732508
 20
-23.715351
 11
1.308491
 21
-23.715351
  0
LINE
  5
27D
100
AcDbEntity
  8
0
100
AcDbLine
 62
7
  6
CONTINUOUS
 10
0.384668
 20
-23.715351
 11
-0.049002
 21
-23.715351
  0
LINE
  5
27E
100
AcDbEntity
  8
0
100
AcDbLine
 62
7
  6
CONTINUOUS
 10
-0.921004
 20
-23.715351
 11
-1.358957
 21
-23.715351
  0
LINE
  5
27F
100
AcDbEntity
  8
0
100
AcDbLine
 62
7
  6
CONTINUOUS
 10
-2.385493
 20
-23.715351
 11
-2.82351
 21
-23.715351
  0
LINE
  5
280
100
AcDbEntity
  8
0
100
AcDbLine
 62
7
  6
CONTINUOUS
 10
-3.636266
 20
-23.715351
 11
-4.112412
 21
-23.715351
  0
LINE
  5
281
100
AcDbEntity
  8
0
100
AcDbLine
 62
7
  6
CONTINUOUS
 10
-1.784518
 20
-23.715225
 11
-2.222834
 21
-23.715225
  0
LINE
  5
282
100
AcDbEntity
  8
RACCORDO
100
AcDbLine
 62
253
  6
CONTINUOUS
 10
78.9489450092
 20
-23.5743997534
 11
-78.9489450092
 21
-23.5743997534
  0
LINE
  5
283
100
AcDbEntity
  8
RACCORDO
100
AcDbLine
 62
253
  6
CONTINUOUS
 10
78.9489545429
 20
-23.2924919672
 11
-78.9489329569
 21
-23.2924919672
  0
LINE
  5
284
100
AcDbEntity
  8
RACCORDO
100
AcDbLine
 62
253
  6
CONTINUOUS
 10
-79.5220165488
 20
-22.9738147507
 11
-79.2265742229
 21
-22.9738147507
  0
LINE
  5
285
100
AcDbEntity
  8
RACCORDO
100
AcDbLine
 62
253
  6
CONTINUOUS
 10
79.5220165488
 20
-22.9738147507
 11
79.2265742229
 21
-22.9738147507
  0
LINE
  5
286
100
AcDbEntity
  8
RACCORDO
100
AcDbLine
 62
253
  6
CONTINUOUS
 10
-78.5985854258
 20
-22.6286172716
 11
78.5985854258
 21
-22.6286172716
  0
LINE
  5
287
100
AcDbEntity
  8
RACCORDO
100
AcDbLine
 62
253
  6
CONTINUOUS
 10
-78.5985854258
 20
-22.5985397344
 11
78.5985854258
 21
-22.5985397344
  0
LINE
  5
288
100
AcDbEntity
  8
RACCORDO
100
AcDbLine
 62
7
  6
CONTINUOUS
 10
78.591318159
 20
-22.5912724675
 11
-78.591318159
 21
-22.5912724675
  0
LINE
  5
289
100
AcDbEntity
  8
RACCORDO
100
AcDbLine
 62
253
  6
CONTINUOUS
 10
78.8993132329
 20
-22.2993589244
 11
78.906833204
 21
-22.2993589244
  0
LINE
  5
28A
100
AcDbEntity
  8
RACCORDO
100
AcDbLine
 62
253
  6
CONTINUOUS
 10
-78.8993132329
 20
-22.2993589244
 11
-78.906833204
 21
-22.2993589244
  0
LINE
  5
28B
100
AcDbEntity
  8
0
100
AcDbLine
 62
7
  6
CONTINUOUS
 10
-1.034645
 20
-24.444029
 11
-0.520448
 21
-25.815174
  0
LINE
  5
28C
100
AcDbEntity
  8
0
100
AcDbLine
 62
7
  6
CONTINUOUS
 10
-0.487318
 20
-24.881179
 11
-0.921004
 21
-23.715351
  0
LINE
  5
28D
100
AcDbEntity
  8
0
100
AcDbLine
 62
7
  6
CONTINUOUS
 10
-4.112412
 20
-23.715351
 11
-3.446727
 21
-25.815174
  0
LINE
  5
28E
100
AcDbEntity
  8
0
100
AcDbLine
 62
7
  6
CONTINUOUS
 10
-3.236001
 20
-25.160724
 11
-3.636266
 21
-23.715351
  0
LINE
  5
28F
100
AcDbEntity
  8
0
100
AcDbLine
 62
7
  6
CONTINUOUS
 10
0.581025
 20
-25.815174
 11
0.384668
 21
-23.715351
  0
LINE
  5
290
100
AcDbEntity
  8
0
100
AcDbLine
 62
7
  6
CONTINUOUS
 10
0.062183
 20
-24.449745
 11
0.152236
 21
-25.815174
  0
LINE
  5
291
100
AcDbEntity
  8
0
100
AcDbLine
 62
7
  6
CONTINUOUS
 10
-2.222834
 20
-23.715225
 11
-2.222834
 21
-25.815174
  0
LINE
  5
292
100
AcDbEntity
  8
0
100
AcDbLine
 62
7
  6
CONTINUOUS
 10
-1.784518
 20
-25.815174
 11
-1.784518
 21
-23.715225
  0
LINE
  5
293
100
AcDbEntity
  8
0
100
AcDbLine
 62
7
  6
CONTINUOUS
 10
-1.129234
 20
-25.815174
 11
-1.034645
 21
-24.444029
  0
LINE
  5
294
100
AcDbEntity
  8
0
100
AcDbLine
 62
7
  6
CONTINUOUS
 10
-1.358957
 20
-23.715351
 11
-1.548559
 21
-25.815174
  0
LINE
  5
295
100
AcDbEntity
  8
0
100
AcDbLine
 62
7
  6
CONTINUOUS
 10
2.376786
 20
-25.815174
 11
1.732508
 21
-23.715351
  0
LINE
  5
296
100
AcDbEntity
  8
0
100
AcDbLine
 62
7
  6
CONTINUOUS
 10
1.801273
 20
-25.395975
 11
1.91482
 21
-25.815174
  0
LINE
  5
297
100
AcDbEntity
  8
0
100
AcDbLine
 62
7
  6
CONTINUOUS
 10
1.512264
 20
-24.292329
 11
1.713676
 21
-25.0716
  0
LINE
  5
298
100
AcDbEntity
  8
0
100
AcDbLine
 62
7
  6
CONTINUOUS
 10
2.505496876
 20
-23.7398838377
 11
2.505496876
 21
-25.8151743977
  0
LINE
  5
299
100
AcDbEntity
  8
0
100
AcDbLine
 62
7
  6
CONTINUOUS
 10
2.927514876
 20
-24.6495191431
 11
2.927514876
 21
-24.0730766618
  0
LINE
  5
29A
100
AcDbEntity
  8
0
100
AcDbLine
 62
7
  6
CONTINUOUS
 10
2.9420487595
 20
-25.8151743977
 11
2.9420487595
 21
-24.993419487
  0
LINE
  5
29B
100
AcDbEntity
  8
0
100
AcDbLine
 62
7
  6
CONTINUOUS
 10
3.6323846102
 20
-24.834995432
 11
3.6323846102
 21
-24.8225873061
  0
LINE
  5
29C
100
AcDbEntity
  8
0
100
AcDbLine
 62
7
  6
CONTINUOUS
 10
1.29402
 20
-25.0716
 11
1.512264
 21
-24.292329
  0
LINE
  5
29D
100
AcDbEntity
  8
0
100
AcDbLine
 62
7
  6
CONTINUOUS
 10
-2.82351
 20
-23.715351
 11
-3.236001
 21
-25.160724
  0
LINE
  5
29E
100
AcDbEntity
  8
0
100
AcDbLine
 62
7
  6
CONTINUOUS
 10
1.083412
 20
-25.815174
 11
1.20436
 21
-25.395975
  0
LINE
  5
29F
100
AcDbEntity
  8
0
100
AcDbLine
 62
7
  6
CONTINUOUS
 10
1.308491
 20
-23.715351
 11
0.649852
 21
-25.815174
  0
LINE
  5
2A0
100
AcDbEntity
  8
0
100
AcDbLine
 62
7
  6
CONTINUOUS
 10
-3.060461
 20
-25.815174
 11
-2.385493
 21
-23.715351
  0
LINE
  5
2A1
100
AcDbEntity
  8
0
100
AcDbLine
 62
7
  6
CONTINUOUS
 10
-0.049002
 20
-23.715351
 11
-0.487318
 21
-24.881179
  0
LINE
  5
2A2
100
AcDbEntity
  8
0
100
AcDbLine
 62
7
  6
CONTINUOUS
 10
-0.458975
 20
-25.815174
 11
0.062183
 21
-24.449745
  0
LINE
  5
2A3
100
AcDbEntity
  8
RACCORDO
100
AcDbLine
 62
253
  6
CONTINUOUS
 10
78.8993132329
 20
22.2993589244
 11
78.906833204
 21
22.2993589244
  0
LINE
  5
2A4
100
AcDbEntity
  8
RACCORDO
100
AcDbLine
 62
253
  6
CONTINUOUS
 10
-78.8993132329
 20
22.2993589244
 11
-78.906833204
 21
22.2993589244
  0
LINE
  5
2A5
100
AcDbEntity
  8
RACCORDO
100
AcDbLine
 62
7
  6
CONTINUOUS
 10
-78.591318159
 20
22.5912724675
 11
78.591318159
 21
22.5912724675
  0
LINE
  5
2A6
100
AcDbEntity
  8
RACCORDO
100
AcDbLine
 62
253
  6
CONTINUOUS
 10
78.5985854258
 20
22.5985397344
 11
-78.5985854258
 21
22.5985397344
  0
LINE
  5
2A7
100
AcDbEntity
  8
RACCORDO
100
AcDbLine
 62
253
  6
CONTINUOUS
 10
78.5985854258
 20
22.6286172716
 11
-78.5985854258
 21
22.6286172716
  0
LINE
  5
2A8
100
AcDbEntity
  8
RACCORDO
100
AcDbLine
 62
253
  6
CONTINUOUS
 10
-79.5220165488
 20
22.9738147507
 11
-79.2265742229
 21
22.9738147507
  0
LINE
  5
2A9
100
AcDbEntity
  8
RACCORDO
100
AcDbLine
 62
253
  6
CONTINUOUS
 10
79.5220165488
 20
22.9738147507
 11
79.2265742229
 21
22.9738147507
  0
LINE
  5
2AA
100
AcDbEntity
  8
RACCORDO
100
AcDbLine
 62
253
  6
CONTINUOUS
 10
-78.9489333272
 20
23.2924919672
 11
78.9489329569
 21
23.2924919672
  0
LINE
  5
2AB
100
AcDbEntity
  8
RACCORDO
100
AcDbLine
 62
253
  6
CONTINUOUS
 10
-78.9489450092
 20
23.5743997534
 11
78.9489450092
 21
23.5743997534
  0
LINE
  5
2AC
100
AcDbEntity
  8
RACCORDO
100
AcDbLine
 62
253
  6
CONTINUOUS
 10
-82.1518972752
 20
25.5520137949
 11
-81.851952873
 21
25.552013795
  0
LINE
  5
2AD
100
AcDbEntity
  8
RACCORDO
100
AcDbLine
 62
253
  6
CONTINUOUS
 10
82.1519071816
 20
25.5520137946
 11
81.851952873
 21
25.552013795
  0
LINE
  5
2AE
100
AcDbEntity
  8
RACCORDO
100
AcDbLine
 62
253
  6
CONTINUOUS
 10
81.4565206341
 20
25.9519528731
 11
-81.452013795
 21
25.951952873
  0
LINE
  5
2AF
100
AcDbEntity
  8
RACCORDO
100
AcDbLine
 62
253
  6
CONTINUOUS
 10
81.4520043741
 20
26.2518977607
 11
-81.452013795
 21
26.2519071816
  0
LINE
  5
2B0
100
AcDbEntity
  8
RACCORDO
100
AcDbLine
 62
7
  6
CONTINUOUS
 10
-81.4590872108
 20
26.2589805974
 11
81.4590872108
 21
26.2589805974
  0
LINE
  5
2B1
100
AcDbEntity
  8
RACCORDO
100
AcDbLine
 62
253
  6
CONTINUOUS
 10
81.4520043741
 20
26.2518977607
 11
81.4590872108
 21
26.2589805974
  0
LINE
  5
2B2
100
AcDbEntity
  8
RACCORDO
100
AcDbLine
 62
253
  6
CONTINUOUS
 10
78.5985854258
 20
22.5985397344
 11
78.591318159
 21
22.5912724675
  0
LINE
  5
2B3
100
AcDbEntity
  8
RACCORDO
100
AcDbLine
 62
253
  6
CONTINUOUS
 10
81.452013795
 20
-26.2519071816
 11
81.4590872108
 21
-26.2589805974
  0
LINE
  5
2B4
100
AcDbEntity
  8
RACCORDO
100
AcDbLine
 62
253
  6
CONTINUOUS
 10
78.5985854258
 20
-22.5985397344
 11
78.591318159
 21
-22.5912724675
  0
LINE
  5
2B5
100
AcDbEntity
  8
RACCORDO
100
AcDbLine
 62
253
  6
CONTINUOUS
 10
82.1519071816
 20
25.552013795
 11
82.1589805974
 21
25.5590872108
  0
LINE
  5
2B6
100
AcDbEntity
  8
RACCORDO
100
AcDbLine
 62
253
  6
CONTINUOUS
 10
78.8993132329
 20
22.2993589244
 11
78.8912724675
 21
22.291318159
  0
LINE
  5
2B7
100
AcDbEntity
  8
RACCORDO
100
AcDbLine
 62
253
  6
CONTINUOUS
 10
82.1518977608
 20
-25.5520043742
 11
82.1589805974
 21
-25.5590872108
  0
LINE
  5
2B8
100
AcDbEntity
  8
RACCORDO
100
AcDbLine
 62
253
  6
CONTINUOUS
 10
78.8993132329
 20
-22.2993589244
 11
78.8912724675
 21
-22.291318159
  0
LINE
  5
2B9
100
AcDbEntity
  8
SMUSSO
100
AcDbLine
 62
7
  6
CONTINUOUS
 10
103.0
 20
52.0
 11
-103.0
 21
52.0
  0
LINE
  5
2BA
100
AcDbEntity
  8
SMUSSO
100
AcDbLine
 62
253
  6
CONTINUOUS
 10
103.0
 20
52.0
 11
104.0
 21
52.0
  0
LINE
  5
2BB
100
AcDbEntity
  8
SMUSSO
100
AcDbLine
 62
253
  6
CONTINUOUS
 10
-103.0
 20
52.0
 11
-104.0
 21
52.0
  0
LINE
  5
2BC
100
AcDbEntity
  8
SMUSSO
100
AcDbLine
 62
7
  6
CONTINUOUS
 10
103.0
 20
53.0
 11
-103.0
 21
53.0
  0
LINE
  5
2BD
100
AcDbEntity
  8
RACCORDO
100
AcDbLine
 62
253
  6
CONTINUOUS
 10
78.9489329569
 20
23.2924919672
 11
78.6270802277
 21
22.6280832906
  0
LINE
  5
2BE
100
AcDbEntity
  8
RACCORDO
100
AcDbLine
 62
253
  6
CONTINUOUS
 10
79.2265742229
 20
22.9738145413
 11
78.9066937466
 21
22.3135245816
  0
LINE
  5
2BF
100
AcDbEntity
  8
RACCORDO
100
AcDbLine
 62
253
  6
CONTINUOUS
 10
78.9489545429
 20
-23.2924919672
 11
78.6270664239
 21
-22.6280836728
  0
LINE
  5
2C0
100
AcDbEntity
  8
RACCORDO
100
AcDbLine
 62
253
  6
CONTINUOUS
 10
79.2265742229
 20
-22.9738172346
 11
78.9066937466
 21
-22.3135245816
  0
LINE
  5
2C1
100
AcDbEntity
  8
RACCORDO
100
AcDbLine
 62
253
  6
CONTINUOUS
 10
78.5985854258
 20
-22.5985397344
 11
78.5985854255
 21
-22.6286172716
  0
LINE
  5
2C2
100
AcDbEntity
  8
RACCORDO
100
AcDbLine
 62
253
  6
CONTINUOUS
 10
78.5985854258
 20
22.5985397344
 11
78.5985854258
 21
22.6286172716
  0
LINE
  5
2C3
100
AcDbEntity
  8
RACCORDO
100
AcDbLine
 62
7
  6
CONTINUOUS
 10
78.8912724675
 20
22.291318159
 11
78.8912724675
 21
-22.291318159
  0
LINE
  5
2C4
100
AcDbEntity
  8
RACCORDO
100
AcDbLine
 62
253
  6
CONTINUOUS
 10
78.8993132329
 20
-22.2993589244
 11
78.8993132329
 21
22.2993589244
  0
LINE
  5
2C5
100
AcDbEntity
  8
RACCORDO
100
AcDbLine
 62
253
  6
CONTINUOUS
 10
78.906833204
 20
-22.2993589244
 11
78.906833204
 21
22.2993589244
  0
LINE
  5
2C6
100
AcDbEntity
  8
RACCORDO
100
AcDbLine
 62
253
  6
CONTINUOUS
 10
78.9489450092
 20
23.5743997534
 11
78.9489450092
 21
23.2924919672
  0
LINE
  5
2C7
100
AcDbEntity
  8
RACCORDO
100
AcDbLine
 62
253
  6
CONTINUOUS
 10
78.9489450092
 20
-23.5743997534
 11
78.9489450092
 21
-23.2924919672
  0
LINE
  5
2C8
100
AcDbEntity
  8
RACCORDO
100
AcDbLine
 62
253
  6
CONTINUOUS
 10
79.2265742229
 20
22.9738145413
 11
79.2265742229
 21
-22.9738172346
  0
LINE
  5
2C9
100
AcDbEntity
  8
RACCORDO
100
AcDbLine
 62
253
  6
CONTINUOUS
 10
79.5220165488
 20
22.9738147507
 11
79.5220165488
 21
-22.9738147507
  0
LINE
  5
2CA
100
AcDbEntity
  8
RACCORDO
100
AcDbLine
 62
253
  6
CONTINUOUS
 10
81.4520137949
 20
26.2518972751
 11
81.452013795
 21
25.9519528731
  0
LINE
  5
2CB
100
AcDbEntity
  8
RACCORDO
100
AcDbLine
 62
253
  6
CONTINUOUS
 10
81.4520137946
 20
-26.2519071816
 11
81.452013795
 21
-25.951952873
  0
LINE
  5
2CC
100
AcDbEntity
  8
RACCORDO
100
AcDbLine
 62
253
  6
CONTINUOUS
 10
81.8519528731
 20
-25.5520137941
 11
81.851952873
 21
25.552013795
  0
LINE
  5
2CD
100
AcDbEntity
  8
RACCORDO
100
AcDbLine
 62
253
  6
CONTINUOUS
 10
82.1518977608
 20
-25.5520043742
 11
82.1519071816
 21
25.552013795
  0
LINE
  5
2CE
100
AcDbEntity
  8
RACCORDO
100
AcDbLine
 62
7
  6
CONTINUOUS
 10
82.1589805974
 20
25.5590872108
 11
82.1589805974
 21
-25.5590872108
  0
LINE
  5
2CF
100
AcDbEntity
  8
SMUSSO
100
AcDbLine
 62
253
  6
CONTINUOUS
 10
103.0
 20
-52.0
 11
103.0
 21
-53.0
  0
LINE
  5
2D0
100
AcDbEntity
  8
SMUSSO
100
AcDbLine
 62
7
  6
CONTINUOUS
 10
103.0
 20
-52.0
 11
103.0
 21
52.0
  0
LINE
  5
2D1
100
AcDbEntity
  8
SMUSSO
100
AcDbLine
 62
253
  6
CONTINUOUS
 10
103.0
 20
52.0
 11
103.0
 21
53.0
  0
LINE
  5
2D2
100
AcDbEntity
  8
SMUSSO
100
AcDbLine
 62
7
  6
CONTINUOUS
 10
104.0
 20
-52.0
 11
104.0
 21
52.0
  0
LINE
  5
2D3
100
AcDbEntity
  8
SMUSSO
100
AcDbLine
 62
7
  6
CONTINUOUS
 10
-139.3933951078
 20
-53.0
 11
-136.8933951078
 21
-53.0
  0
LINE
  5
2D4
100
AcDbEntity
  8
DRAFT
100
AcDbLine
 62
7
  6
CONTINUOUS
 10
-135.8851432266
 20
-52.9082518813
 11
-133.4933951078
 21
-52.95
  0
LINE
  5
2D5
100
AcDbEntity
  8
SMUSSO
100
AcDbLine
 62
253
  6
CONTINUOUS
 10
-136.3933951078
 20
-52.0
 11
-140.3933951078
 21
-52.0
  0
LINE
  5
2D6
100
AcDbEntity
  8
DRAFT
100
AcDbLine
 62
253
  6
CONTINUOUS
 10
-132.4933951078
 20
-51.45
 11
-136.3433951078
 21
-51.45
  0
LINE
  5
2D7
100
AcDbEntity
  8
SMUSSO
100
AcDbLine
 62
7
  6
CONTINUOUS
 10
-140.3933951078
 20
52.0
 11
-139.3933951078
 21
53.0
  0
LINE
  5
2D8
100
AcDbEntity
  8
SMUSSO
100
AcDbLine
 62
7
  6
CONTINUOUS
 10
-140.3933951078
 20
-52.0
 11
-139.3933951078
 21
-53.0
  0
LINE
  5
2D9
100
AcDbEntity
  8
SMUSSO
100
AcDbLine
 62
7
  6
CONTINUOUS
 10
-136.343395108
 20
52.4499999999
 11
-135.8851432266
 21
52.9082518813
  0
LINE
  5
2DA
100
AcDbEntity
  8
DRAFT
100
AcDbLine
 62
7
  6
CONTINUOUS
 10
-136.3433951078
 20
52.45
 11
-135.8851432266
 21
52.9082518813
  0
LINE
  5
2DB
100
AcDbEntity
  8
DRAFT
100
AcDbLine
 62
7
  6
CONTINUOUS
 10
-136.3433951078
 20
-52.45
 11
-135.8851432266
 21
-52.9082518813
  0
LINE
  5
2DC
100
AcDbEntity
  8
ASSI
100
AcDbLine
 62
7
  6
CONTINUOUS
 10
-130.7933951078
 20
-26.35
 11
-132.4933951078
 21
-26.3598903107
  0
LINE
  5
2DD
100
AcDbEntity
  8
DRAFT
100
AcDbLine
 62
7
  6
CONTINUOUS
 10
-132.4933951078
 20
-27.1459857386
 11
-130.7933951078
 21
-27.1430186759
  0
LINE
  5
2DE
100
AcDbEntity
  8
DRAFT
100
AcDbLine
 62
253
  6
CONTINUOUS
 10
-132.4933951078
 20
-26.8937435176
 11
-130.7933951078
 21
-26.8929755853
  0
LINE
  5
2DF
100
AcDbEntity
  8
0
100
AcDbLine
 62
7
  6
CONTINUOUS
 10
-141.0933951078
 20
-25.8151743977
 11
-141.2933951078
 21
-25.8151743977
  0
LINE
  5
2E0
100
AcDbEntity
  8
RACCORDO
100
AcDbLine
 62
253
  6
CONTINUOUS
 10
-140.7991705386
 20
-25.5520137949
 11
-141.0933951078
 21
-25.552013795
  0
LINE
  5
2E1
100
AcDbEntity
  8
0
100
AcDbLine
 62
253
  6
CONTINUOUS
 10
-141.0933951078
 20
-25.2468412881
 11
-141.2933951078
 21
-25.2468412881
  0
LINE
  5
2E2
100
AcDbEntity
  8
ASSI
100
AcDbLine
 62
7
  6
CONTINUOUS
 10
-130.9933951078
 20
-25.2
 11
-132.4933951078
 21
-25.2
  0
LINE
  5
2E3
100
AcDbEntity
  8
ASSI
100
AcDbLine
 62
7
  6
CONTINUOUS
 10
-132.3433951078
 20
-25.05
 11
-132.1433951078
 21
-25.05
  0
LINE
  5
2E4
100
AcDbEntity
  8
ASSI
100
AcDbLine
 62
7
  6
CONTINUOUS
 10
-131.8433951078
 20
-25.05
 11
-131.6433951078
 21
-25.05
  0
LINE
  5
2E5
100
AcDbEntity
  8
ASSI
100
AcDbLine
 62
7
  6
CONTINUOUS
 10
-131.3433951078
 20
-25.05
 11
-131.1433951078
 21
-25.05
  0
LINE
  5
2E6
100
AcDbEntity
  8
0
100
AcDbLine
 62
7
  6
CONTINUOUS
 10
-141.0933951078
 20
-24.834995432
 11
-141.2933951078
 21
-24.834995432
  0
LINE
  5
2E7
100
AcDbEntity
  8
0
100
AcDbLine
 62
7
  6
CONTINUOUS
 10
-141.0933951078
 20
-24.8225873061
 11
-141.2933951078
 21
-24.8225873061
  0
LINE
  5
2E8
100
AcDbEntity
  8
RACCORDO
100
AcDbLine
 62
7
  6
CONTINUOUS
 10
-140.7986308298
 20
-26.2519071816
 11
-140.3933951078
 21
-26.2589805974
  0
LINE
  5
2E9
100
AcDbEntity
  8
DRAFT
100
AcDbLine
 62
7
  6
CONTINUOUS
 10
-136.3433951078
 20
-25.8473817403
 11
-136.3933951078
 21
-25.846508987
  0
LINE
  5
2EA
100
AcDbEntity
  8
RACCORDO
100
AcDbLine
 62
7
  6
CONTINUOUS
 10
-136.3933951078
 20
-25.696508987
 11
-136.3433951078
 21
-25.6973817403
  0
LINE
  5
2EB
100
AcDbEntity
  8
RACCORDO
100
AcDbLine
 62
253
  6
CONTINUOUS
 10
-140.7991705461
 20
-25.5520043742
 11
-140.3933951078
 21
-25.5590872108
  0
LINE
  5
2EC
100
AcDbEntity
  8
RACCORDO
100
AcDbLine
 62
253
  6
CONTINUOUS
 10
-136.3933951078
 20
-24.3967069833
 11
-136.3433951078
 21
-24.3975797366
  0
LINE
  5
2ED
100
AcDbEntity
  8
ASSI
100
AcDbLine
 62
7
  6
CONTINUOUS
 10
-130.9829279166
 20
-25.7916264167
 11
-132.4933951078
 21
-25.7248937867
  0
LINE
  5
2EE
100
AcDbEntity
  8
0
100
AcDbLine
 62
253
  6
CONTINUOUS
 10
-141.0933951078
 20
-23.7619917169
 11
-141.2933951078
 21
-23.7619917169
  0
LINE
  5
2EF
100
AcDbEntity
  8
0
100
AcDbLine
 62
7
  6
CONTINUOUS
 10
-141.0933951078
 20
-23.6907136252
 11
-141.2933951078
 21
-23.6907136252
  0
LINE
  5
2F0
100
AcDbEntity
  8
RACCORDO
100
AcDbLine
 62
7
  6
CONTINUOUS
 10
-136.3433951078
 20
-22.2594166901
 11
-136.3933951078
 21
-22.2592441843
  0
LINE
  5
2F1
100
AcDbEntity
  8
RACCORDO
100
AcDbLine
 62
7
  6
CONTINUOUS
 10
-136.3433951078
 20
-20.7405833099
 11
-136.3933951078
 21
-20.7407558157
  0
LINE
  5
2F2
100
AcDbEntity
  8
ASSI
100
AcDbLine
 62
7
  6
CONTINUOUS
 10
-132.1433951078
 20
25.05
 11
-131.9933951078
 21
25.2
  0
LINE
  5
2F3
100
AcDbEntity
  8
ASSI
100
AcDbLine
 62
7
  6
CONTINUOUS
 10
-131.6433951078
 20
25.05
 11
-131.4933951078
 21
25.2
  0
LINE
  5
2F4
100
AcDbEntity
  8
ASSI
100
AcDbLine
 62
7
  6
CONTINUOUS
 10
-131.1433951078
 20
25.05
 11
-130.9933951078
 21
25.2
  0
LINE
  5
2F5
100
AcDbEntity
  8
RACCORDO
100
AcDbLine
 62
7
  6
CONTINUOUS
 10
-136.3433951078
 20
-15.5270553506
 11
-136.3933951078
 21
-15.5279281039
  0
LINE
  5
2F6
100
AcDbEntity
  8
RACCORDO
100
AcDbLine
 62
7
  6
CONTINUOUS
 10
-136.3433951078
 20
-14.4729446494
 11
-136.3933951078
 21
-14.4720718961
  0
LINE
  5
2F7
100
AcDbEntity
  8
ASSI
100
AcDbLine
 62
7
  6
CONTINUOUS
 10
-132.1433951078
 20
-25.05
 11
-131.9933951078
 21
-25.2
  0
LINE
  5
2F8
100
AcDbEntity
  8
ASSI
100
AcDbLine
 62
7
  6
CONTINUOUS
 10
-131.6433951078
 20
-25.05
 11
-131.4933951078
 21
-25.2
  0
LINE
  5
2F9
100
AcDbEntity
  8
ASSI
100
AcDbLine
 62
7
  6
CONTINUOUS
 10
-131.1433951078
 20
-25.05
 11
-130.9933951078
 21
-25.2
  0
LINE
  5
2FA
100
AcDbEntity
  8
RACCORDO
100
AcDbLine
 62
7
  6
CONTINUOUS
 10
-136.3433951078
 20
-7.5270553506
 11
-136.3933951078
 21
-7.5279281039
  0
LINE
  5
2FB
100
AcDbEntity
  8
0
100
AcDbLine
 62
7
  6
CONTINUOUS
 10
-141.2933951078
 20
-25.8151743977
 11
-141.2933951078
 21
-23.6907157196
  0
LINE
  5
2FC
100
AcDbEntity
  8
RACCORDO
100
AcDbLine
 62
7
  6
CONTINUOUS
 10
-141.0933951078
 20
-25.951952873
 11
-141.0933951078
 21
25.9519528731
  0
LINE
  5
2FD
100
AcDbEntity
  8
RACCORDO
100
AcDbLine
 62
253
  6
CONTINUOUS
 10
-140.7991705461
 20
-25.5520043742
 11
-140.7986308298
 21
25.552013795
  0
LINE
  5
2FE
100
AcDbEntity
  8
SMUSSO
100
AcDbLine
 62
7
  6
CONTINUOUS
 10
-140.3933951078
 20
-52.0
 11
-140.3933951078
 21
52.0
  0
LINE
  5
2FF
100
AcDbEntity
  8
SMUSSO
100
AcDbLine
 62
7
  6
CONTINUOUS
 10
-139.3933951078
 20
-53.0
 11
-139.3933951078
 21
53.0
  0
LINE
  5
300
100
AcDbEntity
  8
RACCORDO
100
AcDbLine
 62
7
  6
CONTINUOUS
 10
-136.3433951078
 20
-6.4729446494
 11
-136.3933951078
 21
-6.4720718961
  0
LINE
  5
301
100
AcDbEntity
  8
SMUSSO
100
AcDbLine
 62
7
  6
CONTINUOUS
 10
-136.8933951078
 20
53.0
 11
-136.8933951078
 21
-53.0
  0
LINE
  5
302
100
AcDbEntity
  8
SMUSSO
100
AcDbLine
 62
7
  6
CONTINUOUS
 10
-136.3933951078
 20
52.5
 11
-136.3933951078
 21
-52.5
  0
LINE
  5
303
100
AcDbEntity
  8
SMUSSO
100
AcDbLine
 62
7
  6
CONTINUOUS
 10
-136.3433951078
 20
-52.45
 11
-136.3433951078
 21
52.45
  0
LINE
  5
304
100
AcDbEntity
  8
DRAFT
100
AcDbLine
 62
7
  6
CONTINUOUS
 10
-135.8851432266
 20
-52.9082518813
 11
-135.8851432266
 21
52.9082518813
  0
LINE
  5
305
100
AcDbEntity
  8
RACCORDO
100
AcDbLine
 62
7
  6
CONTINUOUS
 10
-131.5881593859
 20
-2.9440524024
 11
-132.4933951078
 21
-2.9598533507
  0
LINE
  5
306
100
AcDbEntity
  8
RACCORDO
100
AcDbLine
 62
253
  6
CONTINUOUS
 10
-131.5881593859
 20
-2.6440980938
 11
-132.4933951078
 21
-2.6598990421
  0
LINE
  5
307
100
AcDbEntity
  8
RACCORDO
100
AcDbLine
 62
253
  6
CONTINUOUS
 10
-131.2933951078
 20
-2.6440980938
 11
-131.5881593859
 21
-2.6440980938
  0
LINE
  5
308
100
AcDbEntity
  8
DRAFT
100
AcDbLine
 62
7
  6
CONTINUOUS
 10
-133.4933951078
 20
52.95
 11
-133.4933951078
 21
-52.95
  0
LINE
  5
309
100
AcDbEntity
  8
SMUSSO
100
AcDbLine
 62
7
  6
CONTINUOUS
 10
-132.4933951078
 20
51.95
 11
-132.4933951078
 21
-51.95
  0
LINE
  5
30A
100
AcDbEntity
  8
RACCORDO
100
AcDbLine
 62
253
  6
CONTINUOUS
 10
-131.2933951078
 20
2.6440980938
 11
-131.5881593859
 21
2.6440980938
  0
LINE
  5
30B
100
AcDbEntity
  8
RACCORDO
100
AcDbLine
 62
253
  6
CONTINUOUS
 10
-131.5881593859
 20
2.6440980938
 11
-132.4933951078
 21
2.6598990421
  0
LINE
  5
30C
100
AcDbEntity
  8
RACCORDO
100
AcDbLine
 62
7
  6
CONTINUOUS
 10
-131.5881593859
 20
2.9440524024
 11
-132.4933951078
 21
2.9598533507
  0
LINE
  5
30D
100
AcDbEntity
  8
RACCORDO
100
AcDbLine
 62
253
  6
CONTINUOUS
 10
-131.5881593859
 20
2.6440980938
 11
-131.5881593859
 21
-2.6440980938
  0
LINE
  5
30E
100
AcDbEntity
  8
RACCORDO
100
AcDbLine
 62
7
  6
CONTINUOUS
 10
-131.2933951078
 20
2.6440980938
 11
-131.2933951078
 21
-2.6440980938
  0
LINE
  5
30F
100
AcDbEntity
  8
ASSI
100
AcDbLine
 62
253
  6
CONTINUOUS
 10
-130.9829279166
 20
25.7916264167
 11
-130.9829279166
 21
25.200274093
  0
LINE
  5
310
100
AcDbEntity
  8
ASSI
100
AcDbLine
 62
253
  6
CONTINUOUS
 10
-130.9829279166
 20
-25.200274093
 11
-130.9829279166
 21
-25.7916264167
  0
LINE
  5
311
100
AcDbEntity
  8
ASSI
100
AcDbLine
 62
7
  6
CONTINUOUS
 10
-130.7933951078
 20
-25.4
 11
-130.7933951078
 21
-26.35
  0
LINE
  5
312
100
AcDbEntity
  8
DRAFT
100
AcDbLine
 62
7
  6
CONTINUOUS
 10
-130.7933951078
 20
-26.35
 11
-130.7933951078
 21
-27.1429565571
  0
LINE
  5
313
100
AcDbEntity
  8
ASSI
100
AcDbLine
 62
7
  6
CONTINUOUS
 10
-130.7933951078
 20
25.4
 11
-130.7933951078
 21
26.35
  0
LINE
  5
314
100
AcDbEntity
  8
DRAFT
100
AcDbLine
 62
7
  6
CONTINUOUS
 10
-130.7933951078
 20
26.35
 11
-130.7933951078
 21
27.1429565571
  0
LINE
  5
315
100
AcDbEntity
  8
RACCORDO
100
AcDbLine
 62
7
  6
CONTINUOUS
 10
-136.3433951078
 20
6.4729446494
 11
-136.3933951078
 21
6.4720718961
  0
LINE
  5
316
100
AcDbEntity
  8
RACCORDO
100
AcDbLine
 62
7
  6
CONTINUOUS
 10
-136.3433951078
 20
7.5270553506
 11
-136.3933951078
 21
7.5279281039
  0
LINE
  5
317
100
AcDbEntity
  8
RACCORDO
100
AcDbLine
 62
7
  6
CONTINUOUS
 10
-136.3433951078
 20
14.4729446494
 11
-136.3933951078
 21
14.4720718961
  0
LINE
  5
318
100
AcDbEntity
  8
RACCORDO
100
AcDbLine
 62
7
  6
CONTINUOUS
 10
-136.3433951078
 20
15.5270553506
 11
-136.3933951078
 21
15.5279281039
  0
LINE
  5
319
100
AcDbEntity
  8
ASSI
100
AcDbLine
 62
7
  6
CONTINUOUS
 10
-132.4933951078
 20
-25.2
 11
-132.3433951078
 21
-25.05
  0
LINE
  5
31A
100
AcDbEntity
  8
ASSI
100
AcDbLine
 62
7
  6
CONTINUOUS
 10
-131.9933951078
 20
-25.2
 11
-131.8433951078
 21
-25.05
  0
LINE
  5
31B
100
AcDbEntity
  8
ASSI
100
AcDbLine
 62
7
  6
CONTINUOUS
 10
-131.4933951078
 20
-25.2
 11
-131.3433951078
 21
-25.05
  0
LINE
  5
31C
100
AcDbEntity
  8
RACCORDO
100
AcDbLine
 62
7
  6
CONTINUOUS
 10
-136.3433951078
 20
20.7405833099
 11
-136.3933951078
 21
20.7407558157
  0
LINE
  5
31D
100
AcDbEntity
  8
ASSI
100
AcDbLine
 62
7
  6
CONTINUOUS
 10
-132.4933951078
 20
25.2
 11
-132.3433951078
 21
25.05
  0
LINE
  5
31E
100
AcDbEntity
  8
ASSI
100
AcDbLine
 62
7
  6
CONTINUOUS
 10
-131.9933951078
 20
25.2
 11
-131.8433951078
 21
25.05
  0
LINE
  5
31F
100
AcDbEntity
  8
ASSI
100
AcDbLine
 62
7
  6
CONTINUOUS
 10
-131.4933951078
 20
25.2
 11
-131.3433951078
 21
25.05
  0
LINE
  5
320
100
AcDbEntity
  8
RACCORDO
100
AcDbLine
 62
253
  6
CONTINUOUS
 10
-136.3933951078
 20
24.3967069833
 11
-136.3433951078
 21
24.3975797366
  0
LINE
  5
321
100
AcDbEntity
  8
RACCORDO
100
AcDbLine
 62
7
  6
CONTINUOUS
 10
-136.3433951078
 20
22.2594166901
 11
-136.3933951078
 21
22.2592441843
  0
LINE
  5
322
100
AcDbEntity
  8
ASSI
100
AcDbLine
 62
7
  6
CONTINUOUS
 10
-132.3433951078
 20
25.05
 11
-132.1433951078
 21
25.05
  0
LINE
  5
323
100
AcDbEntity
  8
ASSI
100
AcDbLine
 62
7
  6
CONTINUOUS
 10
-131.8433951078
 20
25.05
 11
-131.6433951078
 21
25.05
  0
LINE
  5
324
100
AcDbEntity
  8
ASSI
100
AcDbLine
 62
7
  6
CONTINUOUS
 10
-131.3433951078
 20
25.05
 11
-131.1433951078
 21
25.05
  0
LINE
  5
325
100
AcDbEntity
  8
ASSI
100
AcDbLine
 62
7
  6
CONTINUOUS
 10
-130.9933951078
 20
25.2
 11
-132.4933951078
 21
25.2
  0
LINE
  5
326
100
AcDbEntity
  8
ASSI
100
AcDbLine
 62
7
  6
CONTINUOUS
 10
-130.9829279166
 20
25.7916264167
 11
-132.4933951078
 21
25.7248937867
  0
LINE
  5
327
100
AcDbEntity
  8
RACCORDO
100
AcDbLine
 62
253
  6
CONTINUOUS
 10
-140.7986308298
 20
25.552013795
 11
-140.3933951078
 21
25.5590872108
  0
LINE
  5
328
100
AcDbEntity
  8
RACCORDO
100
AcDbLine
 62
7
  6
CONTINUOUS
 10
-136.3933951078
 20
25.696508987
 11
-136.3433951078
 21
25.6973817403
  0
LINE
  5
329
100
AcDbEntity
  8
DRAFT
100
AcDbLine
 62
7
  6
CONTINUOUS
 10
-136.3433951078
 20
25.8473817403
 11
-136.3933951078
 21
25.846508987
  0
LINE
  5
32A
100
AcDbEntity
  8
RACCORDO
100
AcDbLine
 62
7
  6
CONTINUOUS
 10
-140.7991705511
 20
26.2518977607
 11
-140.3933951078
 21
26.2589805974
  0
LINE
  5
32B
100
AcDbEntity
  8
RACCORDO
100
AcDbLine
 62
253
  6
CONTINUOUS
 10
-140.7986308298
 20
25.5520137946
 11
-141.0933951078
 21
25.552013795
  0
LINE
  5
32C
100
AcDbEntity
  8
DRAFT
100
AcDbLine
 62
253
  6
CONTINUOUS
 10
-130.7933951078
 20
26.8929755853
 11
-132.4933951078
 21
26.8937435176
  0
LINE
  5
32D
100
AcDbEntity
  8
DRAFT
100
AcDbLine
 62
7
  6
CONTINUOUS
 10
-132.4933951078
 20
27.1459857386
 11
-130.7933951078
 21
27.1430186759
  0
LINE
  5
32E
100
AcDbEntity
  8
ASSI
100
AcDbLine
 62
7
  6
CONTINUOUS
 10
-130.7933951078
 20
26.35
 11
-132.4933951078
 21
26.3598903107
  0
LINE
  5
32F
100
AcDbEntity
  8
SMUSSO
100
AcDbLine
 62
7
  6
CONTINUOUS
 10
-136.3933951078
 20
-52.5
 11
-136.8933951078
 21
-53.0
  0
LINE
  5
330
100
AcDbEntity
  8
DRAFT
100
AcDbLine
 62
7
  6
CONTINUOUS
 10
-132.4933951078
 20
-51.95
 11
-133.4933951078
 21
-52.95
  0
LINE
  5
331
100
AcDbEntity
  8
SMUSSO
100
AcDbLine
 62
7
  6
CONTINUOUS
 10
-136.3933951078
 20
52.5
 11
-136.8933951078
 21
53.0
  0
LINE
  5
332
100
AcDbEntity
  8
SMUSSO
100
AcDbLine
 62
7
  6
CONTINUOUS
 10
-132.4933951078
 20
51.9499999999
 11
-133.4933951078
 21
52.95
  0
LINE
  5
333
100
AcDbEntity
  8
DRAFT
100
AcDbLine
 62
7
  6
CONTINUOUS
 10
-132.4933951078
 20
51.95
 11
-133.4933951078
 21
52.95
  0
LINE
  5
334
100
AcDbEntity
  8
DRAFT
100
AcDbLine
 62
7
  6
CONTINUOUS
 10
-135.8851432266
 20
52.9082518813
 11
-133.4933951078
 21
52.95
  0
LINE
  5
335
100
AcDbEntity
  8
DRAFT
100
AcDbLine
 62
253
  6
CONTINUOUS
 10
-132.4933951078
 20
51.45
 11
-136.3433951078
 21
51.45
  0
LINE
  5
336
100
AcDbEntity
  8
SMUSSO
100
AcDbLine
 62
253
  6
CONTINUOUS
 10
-136.3933951078
 20
52.0
 11
-140.3933951078
 21
52.0
  0
LINE
  5
337
100
AcDbEntity
  8
SMUSSO
100
AcDbLine
 62
7
  6
CONTINUOUS
 10
-139.3933951078
 20
53.0
 11
-136.8933951078
 21
53.0
  0
ARC
  5
338
100
AcDbEntity
  8
SMUSSO
100
AcDbCircle
 62
7
  6
CONTINUOUS
 10
-103.0
 20
52.0
 40
1.0
100
AcDbArc
 50
90.0
 51
180.0
  0
ARC
  5
339
100
AcDbEntity
  8
SMUSSO
100
AcDbCircle
 62
7
  6
CONTINUOUS
 10
103.0
 20
52.0
 40
1.0
100
AcDbArc
 50
0.0
 51
90.0
  0
ARC
  5
33A
100
AcDbEntity
  8
SMUSSO
100
AcDbCircle
 62
7
  6
CONTINUOUS
 10
103.0
 20
-52.0
 40
1.0
100
AcDbArc
 50
270.0
 51
360.0
  0
ARC
  5
33B
100
AcDbEntity
  8
SMUSSO
100
AcDbCircle
 62
7
  6
CONTINUOUS
 10
-103.0
 20
-52.0
 40
1.0
100
AcDbArc
 50
180.0
 51
270.0
  0
ARC
  5
33C
100
AcDbEntity
  8
RACCORDO
100
AcDbCircle
 62
253
  6
CONTINUOUS
 10
-78.5983944398
 20
21.8578736845
 40
0.7707436108
100
AcDbArc
 50
90.014197582
 51
92.1329436728
  0
ARC
  5
33D
100
AcDbEntity
  8
RACCORDO
100
AcDbCircle
 62
253
  6
CONTINUOUS
 10
-78.5984145451
 20
-21.8589481149
 40
0.7696691756
100
AcDbArc
 50
267.8655731199
 51
269.9872792777
  0
ARC
  5
33E
100
AcDbEntity
  8
RACCORDO
100
AcDbCircle
 62
253
  6
CONTINUOUS
 10
78.5984145451
 20
21.8589481149
 40
0.7696691756
100
AcDbArc
 50
87.8655731199
 51
89.9872792778
  0
ARC
  5
33F
100
AcDbEntity
  8
RACCORDO
100
AcDbCircle
 62
253
  6
CONTINUOUS
 10
78.5984486196
 20
-21.8609573884
 40
0.7676598953
100
AcDbArc
 50
270.0102107977
 51
272.1364401616
  0
ARC
  5
340
100
AcDbEntity
  8
RACCORDO
100
AcDbCircle
 62
253
  6
CONTINUOUS
 10
-78.1598804522
 20
22.2990888745
 40
0.7469528006
100
AcDbArc
 50
178.8926253666
 51
179.9792855496
  0
ARC
  5
341
100
AcDbEntity
  8
RACCORDO
100
AcDbCircle
 62
253
  6
CONTINUOUS
 10
78.1689848897
 20
-22.2991785055
 40
0.7378483364
100
AcDbArc
 50
358.8859208959
 51
359.9859900188
  0
ARC
  5
342
100
AcDbEntity
  8
RACCORDO
100
AcDbCircle
 62
253
  6
CONTINUOUS
 10
-78.1836370551
 20
-22.2993227524
 40
0.7231961498
100
AcDbArc
 50
180.0028657525
 51
181.1252233311
  0
ARC
  5
343
100
AcDbEntity
  8
RACCORDO
100
AcDbCircle
 62
253
  6
CONTINUOUS
 10
78.1836370551
 20
22.2993227524
 40
0.7231961498
100
AcDbArc
 50
0.0028657525
 51
1.1252233311
  0
ARC
  5
344
100
AcDbEntity
  8
RACCORDO
100
AcDbCircle
 62
253
  6
CONTINUOUS
 10
81.4519287491
 20
25.5519287491
 40
0.6999784377
100
AcDbArc
 50
0.0069613172
 51
89.9930386828
  0
ARC
  5
345
100
AcDbEntity
  8
RACCORDO
100
AcDbCircle
 62
253
  6
CONTINUOUS
 10
81.4519287491
 20
-25.5519287491
 40
0.6999784377
100
AcDbArc
 50
270.0069613172
 51
359.9930386828
  0
ARC
  5
346
100
AcDbEntity
  8
RACCORDO
100
AcDbCircle
 62
253
  6
CONTINUOUS
 10
-81.4519287491
 20
-25.5519287491
 40
0.6999784377
100
AcDbArc
 50
180.0069613172
 51
269.9930386828
  0
ARC
  5
347
100
AcDbEntity
  8
RACCORDO
100
AcDbCircle
 62
253
  6
CONTINUOUS
 10
-81.4519287491
 20
25.5519287491
 40
0.6999784377
100
AcDbArc
 50
90.0069613172
 51
179.9930386828
  0
ARC
  5
348
100
AcDbEntity
  8
RACCORDO
100
AcDbCircle
 62
253
  6
CONTINUOUS
 10
81.4520332106
 20
-25.5520332105
 40
0.399919154
100
AcDbArc
 50
269.9972183578
 51
0.0027817581
  0
ARC
  5
349
100
AcDbEntity
  8
RACCORDO
100
AcDbCircle
 62
253
  6
CONTINUOUS
 10
-81.4520374856
 20
-25.5520374857
 40
0.3999138953
100
AcDbArc
 50
179.9966058371
 51
270.0033942783
  0
ARC
  5
34A
100
AcDbEntity
  8
RACCORDO
100
AcDbCircle
 62
253
  6
CONTINUOUS
 10
-78.5987118293
 20
22.3347481044
 40
0.2637916603
100
AcDbArc
 50
89.9725450595
 51
92.2908714385
  0
ARC
  5
34B
100
AcDbEntity
  8
RACCORDO
100
AcDbCircle
 62
253
  6
CONTINUOUS
 10
-78.5987147576
 20
-22.3348963369
 40
0.2636434292
100
AcDbArc
 50
267.708476744
 51
270.0281067581
  0
ARC
  5
34C
100
AcDbEntity
  8
RACCORDO
100
AcDbCircle
 62
253
  6
CONTINUOUS
 10
78.5987147576
 20
22.3348963369
 40
0.2636434292
100
AcDbArc
 50
87.708476744
 51
90.028106758
  0
ARC
  5
34D
100
AcDbEntity
  8
RACCORDO
100
AcDbCircle
 62
253
  6
CONTINUOUS
 10
78.5987154342
 20
-22.3349305906
 40
0.2636091759
100
AcDbArc
 50
269.971742515
 51
272.2916739832
  0
ARC
  5
34E
100
AcDbEntity
  8
RACCORDO
100
AcDbCircle
 62
253
  6
CONTINUOUS
 10
-78.6664764792
 20
22.2994562842
 40
0.2328367741
100
AcDbArc
 50
178.7181251458
 51
180.0239580267
  0
ARC
  5
34F
100
AcDbEntity
  8
RACCORDO
100
AcDbCircle
 62
253
  6
CONTINUOUS
 10
78.6668790721
 20
-22.2994607038
 40
0.2324341831
100
AcDbArc
 50
358.7169942038
 51
0.0250889694
  0
ARC
  5
350
100
AcDbEntity
  8
RACCORDO
100
AcDbCircle
 62
253
  6
CONTINUOUS
 10
-78.6683287136
 20
-22.2994766178
 40
0.2309845493
100
AcDbArc
 50
179.9708061208
 51
181.2871107066
  0
ARC
  5
351
100
AcDbEntity
  8
RACCORDO
100
AcDbCircle
 62
253
  6
CONTINUOUS
 10
78.6683287133
 20
22.2994766178
 40
0.2309845496
100
AcDbArc
 50
359.9708061216
 51
1.2871107058
  0
ARC
  5
352
100
AcDbEntity
  8
RACCORDO
100
AcDbCircle
 62
7
  6
CONTINUOUS
 10
-140.7933951078
 20
25.951952873
 40
0.3
100
AcDbArc
 50
91.0
 51
180.0
  0
ARC
  5
353
100
AcDbEntity
  8
RACCORDO
100
AcDbCircle
 62
7
  6
CONTINUOUS
 10
-140.7933951078
 20
-25.951952873
 40
0.3
100
AcDbArc
 50
180.0000000167
 51
268.8969048672
  0
ARC
  5
354
100
AcDbEntity
  8
RACCORDO
100
AcDbCircle
 62
7
  6
CONTINUOUS
 10
-131.5933951078
 20
2.6440980938
 40
0.3
100
AcDbArc
 50
0.0
 51
89.0
  0
ARC
  5
355
100
AcDbEntity
  8
RACCORDO
100
AcDbCircle
 62
7
  6
CONTINUOUS
 10
-131.5933951078
 20
-2.6440980938
 40
0.3
100
AcDbArc
 50
271.0
 51
360.0
  0
ARC
  5
356
100
AcDbEntity
  8
ASSI
100
AcDbCircle
 62
7
  6
CONTINUOUS
 10
-130.9933951078
 20
-25.4
 40
0.2
100
AcDbArc
 50
0.0
 51
90.0
  0
ARC
  5
357
100
AcDbEntity
  8
ASSI
100
AcDbCircle
 62
7
  6
CONTINUOUS
 10
-130.9933951078
 20
25.4
 40
0.2
100
AcDbArc
 50
270.0
 51
360.0
  0
SPLINE
  5
358
100
AcDbEntity
  8
0
100
AcDbSpline
 62
7
  6
CONTINUOUS
 70
0
 71
3
 72
9
 73
5
 74
3
 42
0.0000001
 43
0.0000001
 44
0.0000000001
 12
0.384402302
 22
-0.0446290201
 32
0.0
 13
0.0060518841
 23
-0.3869370154
 33
0.0
 40
0.0
 40
0.0
 40
0.0
 40
0.0
 40
0.5013510385
 40
1.0
 40
1.0
 40
1.0
 40
1.0
 10
3.2708955903
 20
-24.0607157749
 30
0.0
 10
3.3351357547
 20
-24.0681740434
 30
0.0
 10
3.4650689916
 20
-24.1247468423
 30
0.0
 10
3.5174853189
 20
-24.2588922282
 30
0.0
 10
3.5184912408
 20
-24.3232074751
 30
0.0
 11
3.2708955903
 21
-24.0607157749
 31
0.0
 11
3.445935984
 21
-24.1443977982
 31
0.0
 11
3.5184912408
 21
-24.3232074751
 31
0.0
  0
SPLINE
  5
359
100
AcDbEntity
  8
0
100
AcDbSpline
 62
7
  6
CONTINUOUS
 70
0
 71
3
 72
9
 73
5
 74
3
 42
0.0000001
 43
0.0000001
 44
0.0000000001
 12
0.0080713833
 22
-0.5230864262
 32
0.0
 13
-0.5230182478
 23
-0.0116819936
 33
0.0
 40
0.0
 40
0.0
 40
0.0
 40
0.0
 40
0.5206208722
 40
1.0
 40
1.0
 40
1.0
 40
1.0
 10
3.5184912408
 20
-24.3232074751
 30
0.0
 10
3.519891951
 20
-24.4139840456
 30
0.0
 10
3.4557627102
 20
-24.6122845708
 30
0.0
 10
3.2615825326
 20
-24.6476524418
 30
0.0
 10
3.1780078554
 20
-24.6495191431
 30
0.0
 11
3.5184912408
 21
-24.3232074751
 31
0.0
 11
3.4178681102
 21
-24.5763005711
 31
0.0
 11
3.1780078554
 21
-24.6495191431
 31
0.0
  0
SPLINE
  5
35A
100
AcDbEntity
  8
0
100
AcDbSpline
 62
7
  6
CONTINUOUS
 70
0
 71
3
 72
9
 73
5
 74
3
 42
0.0000001
 43
0.0000001
 44
0.0000000001
 12
0.3394200167
 22
0.0579167448
 32
0.0
 13
0.3420295105
 23
-0.0397002646
 33
0.0
 40
0.0
 40
0.0
 40
0.0
 40
0.0
 40
0.2703953699
 40
1.0
 40
1.0
 40
1.0
 40
1.0
 10
2.927514876
 20
-24.0730766618
 30
0.0
 10
2.9581074096
 20
-24.0678565219
 30
0.0
 10
3.0716013975
 20
-24.0506878979
 30
0.0
 10
3.1877134854
 20
-24.0510606092
 30
0.0
 10
3.2708955903
 20
-24.0607157749
 30
0.0
 11
2.927514876
 21
-24.0730766618
 31
0.0
 11
3.0196753261
 21
-24.0598544002
 31
0.0
 11
3.2708955903
 21
-24.0607157749
 31
0.0
  0
SPLINE
  5
35B
100
AcDbEntity
  8
0
100
AcDbSpline
 62
7
  6
CONTINUOUS
 70
0
 71
3
 72
9
 73
5
 74
3
 42
0.0000001
 43
0.0000001
 44
0.0000000001
 12
0.3219543356
 22
0.0
 32
0.0
 13
0.1131217834
 23
-0.3014267015
 33
0.0
 40
0.0
 40
0.0
 40
0.0
 40
0.0
 40
0.3559141631
 40
1.0
 40
1.0
 40
1.0
 40
1.0
 10
3.1770630743
 20
-24.993419487
 30
0.0
 10
3.2152591102
 20
-24.993419487
 30
0.0
 10
3.3251388628
 20
-25.0165483985
 30
0.0
 10
3.3973172195
 20
-25.113724242
 30
0.0
 10
3.4216039324
 20
-25.1784391318
 30
0.0
 11
3.1770630743
 21
-24.993419487
 31
0.0
 11
3.2886988103
 21
-25.0192631885
 31
0.0
 11
3.4216039324
 21
-25.1784391318
 31
0.0
  0
SPLINE
  5
35C
100
AcDbEntity
  8
0
100
AcDbSpline
 62
7
  6
CONTINUOUS
 70
0
 71
3
 72
9
 73
5
 74
3
 42
0.0000001
 43
0.0000001
 44
0.0000000001
 12
0.2338635552
 22
-0.622497147
 32
0.0
 13
0.1837405462
 23
-0.6390886262
 33
0.0
 40
0.0
 40
0.0
 40
0.0
 40
0.0
 40
0.5586214172
 40
1.0
 40
1.0
 40
1.0
 40
1.0
 10
3.4216039324
 20
-25.1784391318
 30
0.0
 10
3.4651509959
 20
-25.2943525446
 30
0.0
 10
3.522419256
 20
-25.5089914658
 30
0.0
 10
3.5862354907
 20
-25.7211477203
 30
0.0
 10
3.613268538
 20
-25.8151743977
 30
0.0
 11
3.4216039324
 21
-25.1784391318
 31
0.0
 11
3.5311768963
 21
-25.5333816056
 31
0.0
 11
3.613268538
 21
-25.8151743977
 31
0.0
  0
SPLINE
  5
35D
100
AcDbEntity
  8
0
100
AcDbSpline
 62
7
  6
CONTINUOUS
 70
0
 71
3
 72
9
 73
5
 74
3
 42
0.0000001
 43
0.0000001
 44
0.0000000001
 12
-0.1540517408
 22
0.5672067283
 32
0.0
 13
-0.1544993035
 23
0.5670849819
 33
0.0
 40
0.0
 40
0.0
 40
0.0
 40
0.0
 40
0.1980141723
 40
1.0
 40
1.0
 40
1.0
 40
1.0
 10
4.0348771327
 20
-25.8151743977
 30
0.0
 10
4.0247089901
 20
-25.7777360741
 30
0.0
 10
3.974940488
 20
-25.5882421876
 30
0.0
 10
3.926336924
 20
-25.3984393276
 30
0.0
 10
3.88503484
 20
-25.2468412881
 30
0.0
 11
4.0348771327
 21
-25.8151743977
 31
0.0
 11
4.0050449294
 21
-25.7026790092
 31
0.0
 11
3.88503484
 21
-25.2468412881
 31
0.0
  0
SPLINE
  5
35E
100
AcDbEntity
  8
0
100
AcDbSpline
 62
7
  6
CONTINUOUS
 70
0
 71
3
 72
9
 73
5
 74
3
 42
0.0000001
 43
0.0000001
 44
0.0000000001
 12
-0.1285164
 22
0.4717407948
 32
0.0
 13
-0.4541587339
 23
0.1810957951
 33
0.0
 40
0.0
 40
0.0
 40
0.0
 40
0.0
 40
0.2426586216
 40
1.0
 40
1.0
 40
1.0
 40
1.0
 10
3.88503484
 20
-25.2468412881
 30
0.0
 10
3.8746396359
 20
-25.2086839644
 30
0.0
 10
3.8349315603
 20
-25.0545953927
 30
0.0
 10
3.7470356774
 20
-24.8807125451
 30
0.0
 10
3.6323846102
 20
-24.834995432
 30
0.0
 11
3.88503484
 21
-25.2468412881
 31
0.0
 11
3.8525311695
 21
-25.1327365731
 31
0.0
 11
3.6323846102
 21
-24.834995432
 31
0.0
  0
SPLINE
  5
35F
100
AcDbEntity
  8
0
100
AcDbSpline
 62
7
  6
CONTINUOUS
 70
0
 71
3
 72
17
 73
13
 74
11
 42
0.0000001
 43
0.0000001
 44
0.0000000001
 12
1.2974582446
 22
0.167413967
 32
0.0
 13
-1.2305868136
 23
0.4439385397
 33
0.0
 40
0.0
 40
0.0
 40
0.0
 40
0.0
 40
0.0559780952
 40
0.1687540387
 40
0.321006234
 40
0.4122750837
 40
0.516613223
 40
0.6013931059
 40
0.6776022439
 40
0.8103422694
 40
0.9200404832
 40
1.0
 40
1.0
 40
1.0
 40
1.0
 10
3.6323846102
 20
-24.8225873061
 30
0.0
 10
3.6565943573
 20
-24.8194634678
 30
0.0
 10
3.7181324038
 20
-24.7709973091
 30
0.0
 10
3.8201860891
 20
-24.6786072901
 30
0.0
 10
3.8953301556
 20
-24.5363871999
 30
0.0
 10
3.9288051152
 20
-24.3880194545
 30
0.0
 10
3.9319500205
 20
-24.2648773229
 30
0.0
 10
3.9153760191
 20
-24.1498635709
 30
0.0
 10
3.8752063301
 20
-24.0276524871
 30
0.0
 10
3.7997594339
 20
-23.9078829609
 30
0.0
 10
3.693234287
 20
-23.814220045
 30
0.0
 10
3.6199916202
 20
-23.7738240873
 30
0.0
 10
3.5871925779
 20
-23.7619917169
 30
0.0
 11
3.6323846102
 21
-24.8225873061
 31
0.0
 11
3.6965524739
 21
-24.7872982534
 31
0.0
 11
3.8025003321
 21
-24.6846256365
 31
0.0
 11
3.8972761531
 21
-24.5094410653
 31
0.0
 11
3.9239270396
 21
-24.3930541748
 31
0.0
 11
3.9279279049
 21
-24.2566161494
 31
0.0
 11
3.9115237729
 21
-24.1469257029
 31
0.0
 11
3.8801574073
 21
-24.052290492
 31
0.0
 11
3.7874979945
 21
-23.9054252441
 31
0.0
 11
3.6798697052
 21
-23.8104993407
 31
0.0
 11
3.5871925779
 21
-23.7619917169
 31
0.0
  0
SPLINE
  5
360
100
AcDbEntity
  8
0
100
AcDbSpline
 62
7
  6
CONTINUOUS
 70
0
 71
3
 72
9
 73
5
 74
3
 42
0.0000001
 43
0.0000001
 44
0.0000000001
 12
-1.0242753953
 22
0.3700472763
 32
0.0
 13
-1.0774730544
 23
-0.1585146335
 33
0.0
 40
0.0
 40
0.0
 40
0.0
 40
0.0
 40
0.2957417834
 40
1.0
 40
1.0
 40
1.0
 40
1.0
 10
3.5871925779
 20
-23.7619917169
 30
0.0
 10
3.4862189005
 20
-23.7255122365
 30
0.0
 10
3.1232796563
 20
-23.666048509
 30
0.0
 10
2.7584366266
 20
-23.7026720933
 30
0.0
 10
2.505496876
 20
-23.7398838377
 30
0.0
 11
3.5871925779
 21
-23.7619917169
 31
0.0
 11
3.2713797906
 21
-23.6987445228
 31
0.0
 11
2.505496876
 21
-23.7398838377
 31
0.0
  0
SPLINE
  5
361
100
AcDbEntity
  8
RACCORDO
100
AcDbSpline
 62
253
  6
CONTINUOUS
 70
0
 71
3
 72
11
 73
7
 74
5
 42
0.0000001
 43
0.0000001
 44
0.0000000001
 12
0.4513092474
 22
0.0181133301
 32
0.0
 13
0.0102996616
 23
0.4515551422
 33
0.0
 40
0.0
 40
0.0
 40
0.0
 40
0.0
 40
0.2519473488
 40
0.5063858767
 40
0.7556540896
 40
1.0
 40
1.0
 40
1.0
 40
1.0
 10
78.609256267
 20
-22.5983289361
 30
0.0
 10
78.6471583231
 20
-22.5968077343
 30
0.0
 10
78.723502359
 20
-22.5789557832
 30
0.0
 10
78.8189240158
 20
-22.5121841718
 30
0.0
 10
78.8825250922
 20
-22.4161283459
 30
0.0
 10
78.8984160893
 20
-22.3414436429
 30
0.0
 10
78.8992549827
 20
-22.3046650921
 30
0.0
 11
78.609256267
 21
-22.5983289361
 31
0.0
 11
78.7200574074
 21
-22.5723861817
 31
0.0
 11
78.8142746411
 21
-22.5065804987
 31
0.0
 11
78.8762936391
 21
-22.4126144624
 31
0.0
 11
78.8992549827
 21
-22.3046650921
 31
0.0
  0
SPLINE
  5
362
100
AcDbEntity
  8
RACCORDO
100
AcDbSpline
 62
253
  6
CONTINUOUS
 70
0
 71
3
 72
11
 73
7
 74
5
 42
0.0000001
 43
0.0000001
 44
0.0000000001
 12
-0.4513108637
 22
-0.0180790931
 32
0.0
 13
-0.0102679371
 23
-0.4515561081
 33
0.0
 40
0.0
 40
0.0
 40
0.0
 40
0.0
 40
0.2519175311
 40
0.5063516262
 40
0.7556162035
 40
1.0
 40
1.0
 40
1.0
 40
1.0
 10
-78.609256267
 20
22.5983289361
 30
0.0
 10
-78.6471539732
 20
22.5968107893
 30
0.0
 10
-78.7234937758
 20
22.5789611067
 30
0.0
 10
-78.8189109923
 20
22.5121939535
 30
0.0
 10
-78.8825208386
 20
22.4161399267
 30
0.0
 10
-78.8984185435
 20
22.3414494241
 30
0.0
 10
-78.8992549827
 20
22.3046650921
 30
0.0
 11
-78.609256267
 21
22.5983289361
 31
0.0
 11
-78.7200453381
 21
22.5723934419
 31
0.0
 11
-78.8142626318
 21
22.5065912334
 31
0.0
 11
-78.8762869315
 21
22.4126305914
 31
0.0
 11
-78.8992549827
 21
22.3046650921
 31
0.0
  0
SPLINE
  5
363
100
AcDbEntity
  8
RACCORDO
100
AcDbSpline
 62
253
  6
CONTINUOUS
 70
0
 71
3
 72
11
 73
7
 74
5
 42
0.0000001
 43
0.0000001
 44
0.0000000001
 12
-0.023555266
 22
0.4757180815
 32
0.0
 13
0.4756164062
 23
-0.025526022
 33
0.0
 40
0.0
 40
0.0
 40
0.0
 40
0.0
 40
0.2461818312
 40
0.4955777379
 40
0.7479023509
 40
1.0
 40
1.0
 40
1.0
 40
1.0
 10
-79.2265742135
 20
22.9738145387
 30
0.0
 10
-79.2285071731
 20
23.0128522549
 30
0.0
 10
-79.2210340523
 20
23.0926489109
 30
0.0
 10
-79.1686441196
 20
23.2026892029
 30
0.0
 10
-79.0715420083
 20
23.2806723371
 30
0.0
 10
-78.9889004078
 20
23.294636615
 30
0.0
 10
-78.9489331486
 20
23.2924915983
 30
0.0
 11
-79.2265742135
 21
22.9738145387
 31
0.0
 11
-79.2143601499
 21
23.0904332901
 31
0.0
 11
-79.1615642296
 21
23.1968431557
 31
0.0
 11
-79.0670925222
 21
23.2711325575
 31
0.0
 11
-78.9489331486
 21
23.2924915983
 31
0.0
  0
SPLINE
  5
364
100
AcDbEntity
  8
RACCORDO
100
AcDbSpline
 62
253
  6
CONTINUOUS
 70
0
 71
3
 72
11
 73
7
 74
5
 42
0.0000001
 43
0.0000001
 44
0.0000000001
 12
-0.4678610877
 22
-0.0030591629
 32
0.0
 13
0.0177314164
 23
-0.4675349749
 33
0.0
 40
0.0
 40
0.0
 40
0.0
 40
0.0
 40
0.2509276351
 40
0.5015383421
 40
0.7516559877
 40
1.0
 40
1.0
 40
1.0
 40
1.0
 10
-78.6270802296
 20
22.6280833525
 30
0.0
 10
-78.6662133217
 20
22.6278274763
 30
0.0
 10
-78.7454823818
 20
22.6105056382
 30
0.0
 10
-78.8410618823
 20
22.5365021775
 30
0.0
 10
-78.8981398797
 20
22.4311569007
 30
0.0
 10
-78.908161577
 20
22.3522277521
 30
0.0
 10
-78.9066937466
 20
22.3135245816
 30
0.0
 11
-78.6270802296
 21
22.6280833525
 31
0.0
 11
-78.7416540354
 21
22.6024704192
 31
0.0
 11
-78.8347326896
 21
22.5311629972
 31
0.0
 11
-78.8912351436
 21
22.4286846485
 31
0.0
 11
-78.9066937466
 21
22.3135245816
 31
0.0
  0
SPLINE
  5
365
100
AcDbEntity
  8
RACCORDO
100
AcDbSpline
 62
253
  6
CONTINUOUS
 70
0
 71
3
 72
11
 73
7
 74
5
 42
0.0000001
 43
0.0000001
 44
0.0000000001
 12
-0.4756166298
 22
-0.0255284
 32
0.0
 13
0.0235552376
 23
0.4757184341
 33
0.0
 40
0.0
 40
0.0
 40
0.0
 40
0.0
 40
0.2520968474
 40
0.5044218619
 40
0.7538179999
 40
1.0
 40
1.0
 40
1.0
 40
1.0
 10
-78.9489327726
 20
-23.2924915865
 30
0.0
 10
-78.9888999235
 20
-23.2946367962
 30
0.0
 10
-79.0715415077
 20
-23.2806723755
 30
0.0
 10
-79.1686439115
 20
-23.202689574
 30
0.0
 10
-79.2210340209
 20
-23.092649062
 30
0.0
 10
-79.2285071712
 20
-23.0128522921
 30
0.0
 10
-79.2265742127
 20
-22.9738145202
 30
0.0
 11
-78.9489327726
 21
-23.2924915865
 31
0.0
 11
-79.0670918892
 21
-23.2711327735
 31
0.0
 11
-79.1615639978
 21
-23.1968434295
 31
0.0
 11
-79.2143601019
 21
-23.0904334344
 31
0.0
 11
-79.2265742127
 21
-22.9738145202
 31
0.0
  0
SPLINE
  5
366
100
AcDbEntity
  8
RACCORDO
100
AcDbSpline
 62
253
  6
CONTINUOUS
 70
0
 71
3
 72
11
 73
7
 74
5
 42
0.0000001
 43
0.0000001
 44
0.0000000001
 12
-0.0177340757
 22
-0.4675348276
 32
0.0
 13
0.4678610434
 23
-0.0030588342
 33
0.0
 40
0.0
 40
0.0
 40
0.0
 40
0.0
 40
0.2483440124
 40
0.4984616251
 40
0.7490723443
 40
1.0
 40
1.0
 40
1.0
 40
1.0
 10
-78.9066937466
 20
-22.3135245816
 30
0.0
 10
-78.9081617971
 20
-22.3522277399
 30
0.0
 10
-78.8981397079
 20
-22.4311568722
 30
0.0
 10
-78.841061931
 20
-22.5365021697
 30
0.0
 10
-78.7454823911
 20
-22.6105056063
 30
0.0
 10
-78.666213349
 20
-22.6278275032
 30
0.0
 10
-78.6270802574
 20
-22.6280833519
 30
0.0
 11
-78.9066937466
 21
-22.3135245816
 31
0.0
 11
-78.8912351056
 21
-22.4286846317
 31
0.0
 11
-78.8347326999
 21
-22.5311629764
 31
0.0
 11
-78.7416540581
 21
-22.6024704046
 31
0.0
 11
-78.6270802574
 21
-22.6280833519
 31
0.0
  0
SPLINE
  5
367
100
AcDbEntity
  8
RACCORDO
100
AcDbSpline
 62
253
  6
CONTINUOUS
 70
0
 71
3
 72
11
 73
7
 74
5
 42
0.0000001
 43
0.0000001
 44
0.0000000001
 12
0.0102690146
 22
-0.4515560847
 32
0.0
 13
0.4513108682
 23
-0.0180790086
 33
0.0
 40
0.0
 40
0.0
 40
0.0
 40
0.0
 40
0.2443838347
 40
0.4936483791
 40
0.7480824672
 40
1.0
 40
1.0
 40
1.0
 40
1.0
 10
-78.8992549827
 20
-22.3046650921
 30
0.0
 10
-78.8984184556
 20
-22.341449428
 30
0.0
 10
-78.8825208804
 20
-22.4161399352
 30
0.0
 10
-78.8189109759
 20
-22.5121939581
 30
0.0
 10
-78.7234937787
 20
-22.5789611035
 30
0.0
 10
-78.6471539738
 20
-22.5968107964
 30
0.0
 10
-78.609256267
 20
-22.5983289361
 30
0.0
 11
-78.8992549827
 21
-22.3046650921
 31
0.0
 11
-78.8762869265
 21
-22.4126306082
 31
0.0
 11
-78.8142626309
 21
-22.5065912354
 31
0.0
 11
-78.7200453391
 21
-22.5723934416
 31
0.0
 11
-78.609256267
 21
-22.5983289361
 31
0.0
  0
SPLINE
  5
368
100
AcDbEntity
  8
RACCORDO
100
AcDbSpline
 62
253
  6
CONTINUOUS
 70
0
 71
3
 72
12
 73
8
 74
6
 42
0.0000001
 43
0.0000001
 44
0.0000000001
 12
-0.0000009443
 22
0.6205214458
 32
0.0
 13
0.6205214454
 23
0.0000214267
 33
0.0
 40
0.0
 40
0.0
 40
0.0
 40
0.0
 40
0.1254466776
 40
0.2508924309
 40
0.5005955773
 40
0.7502986155
 40
1.0
 40
1.0
 40
1.0
 40
1.0
 10
-81.851952873
 20
25.5565206373
 30
0.0
 10
-81.8519529125
 20
25.5824680886
 30
0.0
 10
-81.8458084871
 20
25.6344522648
 30
0.0
 10
-81.8149801175
 20
25.7337706316
 30
0.0
 10
-81.7403595345
 20
25.8437873597
 30
0.0
 10
-81.6080850768
 20
25.9314108171
 30
0.0
 10
-81.5036621497
 20
25.9519510896
 30
0.0
 10
-81.452013795
 20
25.951952873
 30
0.0
 11
-81.851952873
 21
25.5565206373
 31
0.0
 11
-81.8434818525
 21
25.6339006984
 31
0.0
 11
-81.8202061433
 21
25.7081811407
 31
0.0
 11
-81.7332236497
 21
25.836408897
 31
0.0
 11
-81.6040247415
 21
25.9219421246
 31
0.0
 11
-81.452013795
 21
25.951952873
 31
0.0
  0
SPLINE
  5
369
100
AcDbEntity
  8
RACCORDO
100
AcDbSpline
 62
253
  6
CONTINUOUS
 70
0
 71
3
 72
12
 73
8
 74
6
 42
0.0000001
 43
0.0000001
 44
0.0000000001
 12
0.6205214489
 22
0.0000009443
 32
0.0
 13
0.0000214267
 23
-0.6205214485
 33
0.0
 40
0.0
 40
0.0
 40
0.0
 40
0.0
 40
0.1254466776
 40
0.2508924309
 40
0.5005955773
 40
0.7502986155
 40
1.0
 40
1.0
 40
1.0
 40
1.0
 10
81.4565206341
 20
25.9519528731
 30
0.0
 10
81.4824680855
 20
25.9519529126
 30
0.0
 10
81.5344522621
 20
25.9458084878
 30
0.0
 10
81.6337706296
 20
25.9149801185
 30
0.0
 10
81.7437873586
 20
25.8403595358
 30
0.0
 10
81.8314108169
 20
25.7080850776
 30
0.0
 10
81.8519510896
 20
25.6036621499
 30
0.0
 10
81.851952873
 20
25.552013795
 30
0.0
 11
81.4565206341
 21
25.9519528731
 31
0.0
 11
81.5339006957
 21
25.943481853
 31
0.0
 11
81.6081811385
 21
25.9202061443
 31
0.0
 11
81.7364088959
 21
25.8332236508
 31
0.0
 11
81.8219421243
 21
25.7040247423
 31
0.0
 11
81.851952873
 21
25.552013795
 31
0.0
  0
SPLINE
  5
36A
100
AcDbEntity
  8
RACCORDO
100
AcDbSpline
 62
253
  6
CONTINUOUS
 70
0
 71
3
 72
11
 73
7
 74
5
 42
0.0000001
 43
0.0000001
 44
0.0000000001
 12
0.000016694
 22
-0.9183674788
 32
0.0
 13
-0.9183674757
 23
0.0000776077
 33
0.0
 40
0.0
 40
0.0
 40
0.0
 40
0.0
 40
0.2502526928
 40
0.5002767844
 40
0.7501270947
 40
1.0
 40
1.0
 40
1.0
 40
1.0
 10
79.5220165488
 20
-22.9738147507
 30
0.0
 10
79.5220179414
 20
-23.0504227289
 30
0.0
 10
79.4951789503
 20
-23.2051222248
 30
0.0
 10
79.3726362896
 20
-23.406126769
 30
0.0
 10
79.1803998855
 20
-23.5430763347
 30
0.0
 10
79.0254367257
 20
-23.5744062174
 30
0.0
 10
78.9489450092
 20
-23.5743997534
 30
0.0
 11
79.5220165488
 21
-22.9738147507
 31
0.0
 11
79.4814322703
 21
-23.2000269458
 31
0.0
 11
79.3609728532
 21
-23.39550614
 31
0.0
 11
79.1736979527
 21
-23.5280860524
 31
0.0
 11
78.9489450092
 21
-23.5743997534
 31
0.0
  0
SPLINE
  5
36B
100
AcDbEntity
  8
RACCORDO
100
AcDbSpline
 62
253
  6
CONTINUOUS
 70
0
 71
3
 72
11
 73
7
 74
5
 42
0.0000001
 43
0.0000001
 44
0.0000000001
 12
0.9183699413
 22
-0.0001005708
 32
0.0
 13
0.0000009694
 23
-0.9183699468
 33
0.0
 40
0.0
 40
0.0
 40
0.0
 40
0.0
 40
0.2498731059
 40
0.4997218769
 40
0.7497470815
 40
1.0
 40
1.0
 40
1.0
 40
1.0
 10
78.9489450092
 20
23.5743997534
 30
0.0
 10
79.0254369924
 20
23.5743913768
 30
0.0
 10
79.1804050655
 20
23.5431006114
 30
0.0
 10
79.3726321356
 20
23.4061231111
 30
0.0
 10
79.4951739865
 20
23.2051236542
 30
0.0
 10
79.522016468
 20
23.0504230038
 30
0.0
 10
79.5220165488
 20
22.9738147507
 30
0.0
 11
78.9489450092
 21
23.5743997534
 31
0.0
 11
79.1737007657
 21
23.5280957363
 31
0.0
 11
79.3609695703
 21
23.3955085931
 31
0.0
 11
79.4814283496
 21
23.2000270804
 31
0.0
 11
79.5220165488
 21
22.9738147507
 31
0.0
  0
SPLINE
  5
36C
100
AcDbEntity
  8
RACCORDO
100
AcDbSpline
 62
253
  6
CONTINUOUS
 70
0
 71
3
 72
11
 73
7
 74
5
 42
0.0000001
 43
0.0000001
 44
0.0000000001
 12
0.0000009242
 22
0.9183699208
 32
0.0
 13
0.9183699156
 23
0.0000984293
 33
0.0
 40
0.0
 40
0.0
 40
0.0
 40
0.0
 40
0.25025278
 40
0.5002778051
 40
0.7501262539
 40
1.0
 40
1.0
 40
1.0
 40
1.0
 10
-79.5220165488
 20
22.9738147507
 30
0.0
 10
-79.5220164717
 20
23.0504229593
 30
0.0
 10
-79.4951740515
 20
23.2051235288
 30
0.0
 10
-79.3726322149
 20
23.4061227337
 30
0.0
 10
-79.1804054147
 20
23.5431005199
 30
0.0
 10
-79.0254371863
 20
23.5743915551
 30
0.0
 10
-78.9489450092
 20
23.5743997534
 30
0.0
 11
-79.5220165488
 21
22.9738147507
 31
0.0
 11
-79.4814283928
 21
23.2000269523
 31
0.0
 11
-79.3609696973
 21
23.3955083154
 31
0.0
 11
-79.1737013181
 21
23.5280955363
 31
0.0
 11
-78.9489450092
 21
23.5743997534
 31
0.0
  0
SPLINE
  5
36D
100
AcDbEntity
  8
RACCORDO
100
AcDbSpline
 62
253
  6
CONTINUOUS
 70
0
 71
3
 72
11
 73
7
 74
5
 42
0.0000001
 43
0.0000001
 44
0.0000000001
 12
-0.9183699413
 22
0.0001005708
 32
0.0
 13
-0.0000009694
 23
0.9183699468
 33
0.0
 40
0.0
 40
0.0
 40
0.0
 40
0.0
 40
0.2498731059
 40
0.4997218769
 40
0.7497470815
 40
1.0
 40
1.0
 40
1.0
 40
1.0
 10
-78.9489450092
 20
-23.5743997534
 30
0.0
 10
-79.0254369924
 20
-23.5743913768
 30
0.0
 10
-79.1804050655
 20
-23.5431006114
 30
0.0
 10
-79.3726321356
 20
-23.4061231111
 30
0.0
 10
-79.4951739865
 20
-23.2051236542
 30
0.0
 10
-79.522016468
 20
-23.0504230038
 30
0.0
 10
-79.5220165488
 20
-22.9738147507
 30
0.0
 11
-78.9489450092
 21
-23.5743997534
 31
0.0
 11
-79.1737007657
 21
-23.5280957363
 31
0.0
 11
-79.3609695703
 21
-23.3955085931
 31
0.0
 11
-79.4814283496
 21
-23.2000270804
 31
0.0
 11
-79.5220165488
 21
-22.9738147507
 31
0.0
  0
SPLINE
  5
36E
100
AcDbEntity
  8
RACCORDO
100
AcDbSpline
 62
253
  6
CONTINUOUS
 70
0
 71
3
 72
9
 73
5
 74
3
 42
0.0000001
 43
0.0000001
 44
0.0000000001
 12
0.0350775637
 22
0.0048698657
 32
0.0
 13
0.0108151207
 23
0.0337221624
 33
0.0
 40
0.0
 40
0.0
 40
0.0
 40
0.0
 40
0.3371088128
 40
1.0
 40
1.0
 40
1.0
 40
1.0
 10
78.6092562599
 20
22.5983287361
 30
0.0
 10
78.6131979118
 20
22.598875961
 30
0.0
 10
78.6211082874
 20
22.6102141997
 30
0.0
 10
78.6246796993
 20
22.620633474
 30
0.0
 10
78.6270694487
 20
22.6280848487
 30
0.0
 11
78.6092562599
 21
22.5983287361
 31
0.0
 11
78.6180381364
 21
22.6064159681
 31
0.0
 11
78.6270694487
 21
22.6280848487
 31
0.0
  0
SPLINE
  5
36F
100
AcDbEntity
  8
RACCORDO
100
AcDbSpline
 62
253
  6
CONTINUOUS
 70
0
 71
3
 72
9
 73
5
 74
3
 42
0.0000001
 43
0.0000001
 44
0.0000000001
 12
0.0016421052
 22
0.0116694773
 32
0.0
 13
0.0098641952
 23
0.0064475471
 33
0.0
 40
0.0
 40
0.0
 40
0.0
 40
0.0
 40
0.1960770467
 40
1.0
 40
1.0
 40
1.0
 40
1.0
 10
78.8992555054
 20
22.3046651015
 30
0.0
 10
78.8993628317
 20
22.3054278071
 30
0.0
 10
78.9006638934
 20
22.309219026
 30
0.0
 10
78.9040509037
 20
22.3117968047
 30
0.0
 10
78.9066942547
 20
22.3135245817
 30
0.0
 11
78.8992555054
 21
22.3046651015
 31
0.0
 11
78.8999532452
 21
22.3068678969
 31
0.0
 11
78.9066942547
 21
22.3135245817
 31
0.0
  0
SPLINE
  5
370
100
AcDbEntity
  8
RACCORDO
100
AcDbSpline
 62
253
  6
CONTINUOUS
 70
0
 71
3
 72
9
 73
5
 74
3
 42
0.0000001
 43
0.0000001
 44
0.0000000001
 12
0.0016426819
 22
-0.0116700489
 32
0.0
 13
0.0098654321
 23
-0.0064468361
 33
0.0
 40
0.0
 40
0.0
 40
0.0
 40
0.0
 40
0.1960909831
 40
1.0
 40
1.0
 40
1.0
 40
1.0
 10
78.8992548682
 20
-22.3046650901
 30
0.0
 10
78.8993622399
 20
-22.3054278872
 30
0.0
 10
78.9006634529
 20
-22.3092192891
 30
0.0
 10
78.9040508821
 20
-22.3117970254
 30
0.0
 10
78.9066945187
 20
-22.3135245819
 30
0.0
 11
78.8992548682
 21
-22.3046650901
 31
0.0
 11
78.8999527707
 21
-22.3068681392
 31
0.0
 11
78.9066945187
 21
-22.3135245819
 31
0.0
  0
SPLINE
  5
371
100
AcDbEntity
  8
RACCORDO
100
AcDbSpline
 62
253
  6
CONTINUOUS
 70
0
 71
3
 72
9
 73
5
 74
3
 42
0.0000001
 43
0.0000001
 44
0.0000000001
 12
0.0350764272
 22
-0.0048687167
 32
0.0
 13
0.0108152386
 23
-0.0337207764
 33
0.0
 40
0.0
 40
0.0
 40
0.0
 40
0.0
 40
0.3371098916
 40
1.0
 40
1.0
 40
1.0
 40
1.0
 10
78.6092562805
 20
-22.5983293155
 30
0.0
 10
78.6131978174
 20
-22.598876413
 30
0.0
 10
78.6211082614
 20
-22.6102139987
 30
0.0
 10
78.6246796769
 20
-22.6206328764
 30
0.0
 10
78.6270694485
 20
-22.6280839328
 30
0.0
 11
78.6092562805
 21
-22.5983293155
 31
0.0
 11
78.6180380947
 21
-22.6064160328
 31
0.0
 11
78.6270694485
 21
-22.6280839328
 31
0.0
  0
SPLINE
  5
372
100
AcDbEntity
  8
RACCORDO
100
AcDbSpline
 62
253
  6
CONTINUOUS
 70
0
 71
3
 72
9
 73
5
 74
3
 42
0.0000001
 43
0.0000001
 44
0.0000000001
 12
-0.0350775637
 22
-0.0048698657
 32
0.0
 13
-0.0108151207
 23
-0.0337221624
 33
0.0
 40
0.0
 40
0.0
 40
0.0
 40
0.0
 40
0.3371088128
 40
1.0
 40
1.0
 40
1.0
 40
1.0
 10
-78.6092562599
 20
-22.5983287361
 30
0.0
 10
-78.6131979118
 20
-22.598875961
 30
0.0
 10
-78.6211082874
 20
-22.6102141997
 30
0.0
 10
-78.6246796993
 20
-22.620633474
 30
0.0
 10
-78.6270694487
 20
-22.6280848487
 30
0.0
 11
-78.6092562599
 21
-22.5983287361
 31
0.0
 11
-78.6180381364
 21
-22.6064159681
 31
0.0
 11
-78.6270694487
 21
-22.6280848487
 31
0.0
  0
SPLINE
  5
373
100
AcDbEntity
  8
RACCORDO
100
AcDbSpline
 62
253
  6
CONTINUOUS
 70
0
 71
3
 72
9
 73
5
 74
3
 42
0.0000001
 43
0.0000001
 44
0.0000000001
 12
-0.0016421052
 22
-0.0116694773
 32
0.0
 13
-0.0098641952
 23
-0.0064475471
 33
0.0
 40
0.0
 40
0.0
 40
0.0
 40
0.0
 40
0.1960770467
 40
1.0
 40
1.0
 40
1.0
 40
1.0
 10
-78.8992555054
 20
-22.3046651015
 30
0.0
 10
-78.8993628317
 20
-22.3054278071
 30
0.0
 10
-78.9006638934
 20
-22.309219026
 30
0.0
 10
-78.9040509037
 20
-22.3117968047
 30
0.0
 10
-78.9066942547
 20
-22.3135245817
 30
0.0
 11
-78.8992555054
 21
-22.3046651015
 31
0.0
 11
-78.8999532452
 21
-22.3068678969
 31
0.0
 11
-78.9066942547
 21
-22.3135245817
 31
0.0
  0
SPLINE
  5
374
100
AcDbEntity
  8
RACCORDO
100
AcDbSpline
 62
253
  6
CONTINUOUS
 70
0
 71
3
 72
9
 73
5
 74
3
 42
0.0000001
 43
0.0000001
 44
0.0000000001
 12
-0.0016431582
 22
0.0116706489
 32
0.0
 13
-0.009866439
 23
0.0064465026
 33
0.0
 40
0.0
 40
0.0
 40
0.0
 40
0.0
 40
0.1960881169
 40
1.0
 40
1.0
 40
1.0
 40
1.0
 10
-78.899254737
 20
22.3046650878
 30
0.0
 10
-78.8993621383
 20
22.305427913
 30
0.0
 10
-78.9006636048
 20
22.309219476
 30
0.0
 10
-78.9040514477
 20
22.3117971091
 30
0.0
 10
-78.9066953636
 20
22.3135245824
 30
0.0
 11
-78.899254737
 21
22.3046650878
 31
0.0
 11
-78.8999527648
 21
22.3068681976
 31
0.0
 11
-78.9066953636
 21
22.3135245824
 31
0.0
  0
SPLINE
  5
375
100
AcDbEntity
  8
RACCORDO
100
AcDbSpline
 62
253
  6
CONTINUOUS
 70
0
 71
3
 72
9
 73
5
 74
3
 42
0.0000001
 43
0.0000001
 44
0.0000000001
 12
-0.0350764018
 22
0.0048687574
 32
0.0
 13
-0.0108152572
 23
0.0337207499
 33
0.0
 40
0.0
 40
0.0
 40
0.0
 40
0.0
 40
0.3371100526
 40
1.0
 40
1.0
 40
1.0
 40
1.0
 10
-78.6092562761
 20
22.5983291929
 30
0.0
 10
-78.613197812
 20
22.5988762953
 30
0.0
 10
-78.6211082519
 20
22.6102138657
 30
0.0
 10
-78.6246796734
 20
22.6206327386
 30
0.0
 10
-78.6270694485
 20
22.6280837873
 30
0.0
 11
-78.6092562761
 21
22.5983291929
 31
0.0
 11
-78.6180380897
 21
22.6064159095
 31
0.0
 11
-78.6270694485
 21
22.6280837873
 31
0.0
  0
SPLINE
  5
376
100
AcDbEntity
  8
RACCORDO
100
AcDbSpline
 62
253
  6
CONTINUOUS
 70
0
 71
3
 72
11
 73
7
 74
5
 42
0.0000001
 43
0.0000001
 44
0.0000000001
 12
0.4756166298
 22
0.0255284
 32
0.0
 13
-0.0235552376
 23
-0.4757184341
 33
0.0
 40
0.0
 40
0.0
 40
0.0
 40
0.0
 40
0.2520968474
 40
0.5044218619
 40
0.7538179999
 40
1.0
 40
1.0
 40
1.0
 40
1.0
 10
78.9489327726
 20
23.2924915865
 30
0.0
 10
78.9888999235
 20
23.2946367962
 30
0.0
 10
79.0715415077
 20
23.2806723755
 30
0.0
 10
79.1686439115
 20
23.202689574
 30
0.0
 10
79.2210340209
 20
23.092649062
 30
0.0
 10
79.2285071712
 20
23.0128522921
 30
0.0
 10
79.2265742127
 20
22.9738145202
 30
0.0
 11
78.9489327726
 21
23.2924915865
 31
0.0
 11
79.0670918892
 21
23.2711327735
 31
0.0
 11
79.1615639978
 21
23.1968434295
 31
0.0
 11
79.2143601019
 21
23.0904334344
 31
0.0
 11
79.2265742127
 21
22.9738145202
 31
0.0
  0
SPLINE
  5
377
100
AcDbEntity
  8
RACCORDO
100
AcDbSpline
 62
253
  6
CONTINUOUS
 70
0
 71
3
 72
11
 73
7
 74
5
 42
0.0000001
 43
0.0000001
 44
0.0000000001
 12
0.0177340757
 22
0.4675348276
 32
0.0
 13
-0.4678610434
 23
0.0030588342
 33
0.0
 40
0.0
 40
0.0
 40
0.0
 40
0.0
 40
0.2483440124
 40
0.4984616251
 40
0.7490723443
 40
1.0
 40
1.0
 40
1.0
 40
1.0
 10
78.9066937466
 20
22.3135245816
 30
0.0
 10
78.9081617971
 20
22.3522277399
 30
0.0
 10
78.8981397079
 20
22.4311568722
 30
0.0
 10
78.841061931
 20
22.5365021697
 30
0.0
 10
78.7454823911
 20
22.6105056063
 30
0.0
 10
78.666213349
 20
22.6278275032
 30
0.0
 10
78.6270802574
 20
22.6280833519
 30
0.0
 11
78.9066937466
 21
22.3135245816
 31
0.0
 11
78.8912351056
 21
22.4286846317
 31
0.0
 11
78.8347326999
 21
22.5311629764
 31
0.0
 11
78.7416540581
 21
22.6024704046
 31
0.0
 11
78.6270802574
 21
22.6280833519
 31
0.0
  0
SPLINE
  5
378
100
AcDbEntity
  8
RACCORDO
100
AcDbSpline
 62
253
  6
CONTINUOUS
 70
0
 71
3
 72
11
 73
7
 74
5
 42
0.0000001
 43
0.0000001
 44
0.0000000001
 12
-0.0102690146
 22
0.4515560847
 32
0.0
 13
-0.4513108682
 23
0.0180790086
 33
0.0
 40
0.0
 40
0.0
 40
0.0
 40
0.0
 40
0.2443838347
 40
0.4936483791
 40
0.7480824672
 40
1.0
 40
1.0
 40
1.0
 40
1.0
 10
78.8992549827
 20
22.3046650921
 30
0.0
 10
78.8984184556
 20
22.341449428
 30
0.0
 10
78.8825208804
 20
22.4161399352
 30
0.0
 10
78.8189109759
 20
22.5121939581
 30
0.0
 10
78.7234937787
 20
22.5789611035
 30
0.0
 10
78.6471539738
 20
22.5968107964
 30
0.0
 10
78.609256267
 20
22.5983289361
 30
0.0
 11
78.8992549827
 21
22.3046650921
 31
0.0
 11
78.8762869265
 21
22.4126306082
 31
0.0
 11
78.8142626309
 21
22.5065912354
 31
0.0
 11
78.7200453391
 21
22.5723934416
 31
0.0
 11
78.609256267
 21
22.5983289361
 31
0.0
  0
SPLINE
  5
379
100
AcDbEntity
  8
RACCORDO
100
AcDbSpline
 62
253
  6
CONTINUOUS
 70
0
 71
3
 72
11
 73
7
 74
5
 42
0.0000001
 43
0.0000001
 44
0.0000000001
 12
0.0235425698
 22
-0.4756957211
 32
0.0
 13
-0.4755909865
 23
0.0255711782
 33
0.0
 40
0.0
 40
0.0
 40
0.0
 40
0.0
 40
0.2461824024
 40
0.4955746006
 40
0.7479037169
 40
1.0
 40
1.0
 40
1.0
 40
1.0
 10
79.226574344
 20
-22.9738174845
 30
0.0
 10
79.2285062661
 20
-23.0128534563
 30
0.0
 10
79.221033575
 20
-23.0926445431
 30
0.0
 10
79.1686537831
 20
-23.2026852668
 30
0.0
 10
79.0715556043
 20
-23.2806588661
 30
0.0
 10
78.9889195958
 20
-23.2946410687
 30
0.0
 10
78.9489546892
 20
-23.292492269
 30
0.0
 11
79.226574344
 21
-22.9738174845
 31
0.0
 11
79.2143611113
 21
-23.0904309131
 31
0.0
 11
79.1615735942
 21
-23.1968365836
 31
0.0
 11
79.0671061148
 21
-23.2711254591
 31
0.0
 11
78.9489546892
 21
-23.292492269
 31
0.0
  0
SPLINE
  5
37A
100
AcDbEntity
  8
RACCORDO
100
AcDbSpline
 62
253
  6
CONTINUOUS
 70
0
 71
3
 72
11
 73
7
 74
5
 42
0.0000001
 43
0.0000001
 44
0.0000000001
 12
0.4678771796
 22
0.0030425017
 32
0.0
 13
-0.017808122
 23
0.467548054
 33
0.0
 40
0.0
 40
0.0
 40
0.0
 40
0.0
 40
0.2509530445
 40
0.5015669577
 40
0.751694588
 40
1.0
 40
1.0
 40
1.0
 40
1.0
 10
78.6270664184
 20
-22.6280836616
 30
0.0
 10
78.6662048193
 20
-22.6278291532
 30
0.0
 10
78.7454798278
 20
-22.6105046746
 30
0.0
 10
78.8410764497
 20
-22.5365032865
 30
0.0
 10
78.8981372304
 20
-22.4311486618
 30
0.0
 10
78.9081676976
 20
-22.352222819
 30
0.0
 10
78.9066937466
 20
-22.3135245816
 30
0.0
 11
78.6270664184
 21
-22.6280836616
 31
0.0
 11
78.7416561106
 21
-22.6024689149
 31
0.0
 11
78.8347418111
 21
-22.5311616377
 31
0.0
 11
78.8912401069
 21
-22.428671097
 31
0.0
 11
78.9066937466
 21
-22.3135245816
 31
0.0
  0
SPLINE
  5
37B
100
AcDbEntity
  8
RACCORDO
100
AcDbSpline
 62
253
  6
CONTINUOUS
 70
0
 71
3
 72
23
 73
19
 74
17
 42
0.0000001
 43
0.0000001
 44
0.0000000001
 12
-0.0052257321
 22
0.6999443681
 32
0.0
 13
0.699851616
 23
0.0125356414
 33
0.0
 40
0.0
 40
0.0
 40
0.0
 40
0.0
 40
0.1950643086
 40
0.3826304685
 40
0.5554924549
 40
0.6343031525
 40
0.707008751
 40
0.7729014345
 40
0.8313582967
 40
0.8818035836
 40
0.9237654335
 40
0.9568267
 40
0.9699234141
 40
0.9806855133
 40
0.9890831408
 40
0.9951023458
 40
0.998735732
 40
1.0
 40
1.0
 40
1.0
 40
1.0
 10
-140.7986308298
 20
25.552013795
 30
0.0
 10
-140.7989706144
 20
25.597525183
 30
0.0
 10
-140.7995744682
 20
25.6867990128
 30
0.0
 10
-140.8002554539
 20
25.8164054947
 30
0.0
 10
-140.8006221908
 20
25.918888664
 30
0.0
 10
-140.8007715633
 20
25.994572924
 30
0.0
 10
-140.800810044
 20
26.0452989821
 30
0.0
 10
-140.8007785852
 20
26.0912764298
 30
0.0
 10
-140.8006774324
 20
26.132058821
 30
0.0
 10
-140.800510718
 20
26.1672608378
 30
0.0
 10
-140.8002741977
 20
26.1965270926
 30
0.0
 10
-140.8000251382
 20
26.217102887
 30
0.0
 10
-140.7997588631
 20
26.2303549697
 30
0.0
 10
-140.7995982188
 20
26.2379342461
 30
0.0
 10
-140.7993262829
 20
26.2436619081
 30
0.0
 10
-140.7992832937
 20
26.2481956053
 30
0.0
 10
-140.7987931314
 20
26.2501560105
 30
0.0
 10
-140.7989257631
 20
26.2519018988
 30
0.0
 10
-140.7986308298
 20
26.2519071816
 30
0.0
 11
-140.7986308298
 21
25.552013795
 31
0.0
 11
-140.7995512725
 21
25.6885486618
 31
0.0
 11
-140.8002353171
 21
25.819836416
 31
0.0
 11
-140.8006562592
 21
25.9408328296
 31
0.0
 11
-140.8007627534
 21
25.9959973682
 31
0.0
 11
-140.8007984105
 21
26.0468886481
 31
0.0
 11
-140.8007627664
 21
26.0930111324
 31
0.0
 11
-140.8006562794
 21
26.1339286857
 31
0.0
 11
-140.8004798625
 21
26.1692381235
 31
0.0
 11
-140.8002353274
 21
26.1986088846
 31
0.0
 11
-140.7999248621
 21
26.2217484941
 31
0.0
 11
-140.7997457693
 21
26.2309139713
 31
0.0
 11
-140.7995512611
 21
26.2384445404
 31
0.0
 11
-140.7993417748
 21
26.2443188422
 31
0.0
 11
-140.7991180212
 21
26.2485261226
 31
0.0
 11
-140.7988807798
 21
26.2510582721
 31
0.0
 11
-140.7986308298
 21
26.2519071816
 31
0.0
  0
SPLINE
  5
37C
100
AcDbEntity
  8
RACCORDO
100
AcDbSpline
 62
253
  6
CONTINUOUS
 70
0
 71
3
 72
23
 73
19
 74
17
 42
0.0000001
 43
0.0000001
 44
0.0000000001
 12
-0.6998215042
 22
0.0141165512
 32
0.0
 13
0.0052251321
 23
0.699944364
 33
0.0
 40
0.0
 40
0.0
 40
0.0
 40
0.0
 40
0.0012647456
 40
0.0048981228
 40
0.0109170841
 40
0.0193144987
 40
0.0300766235
 40
0.0431735432
 40
0.0762352275
 40
0.1181972398
 40
0.1686425838
 40
0.227099564
 40
0.2929923806
 40
0.3656980255
 40
0.4445088585
 40
0.6173712155
 40
0.8049357875
 40
1.0
 40
1.0
 40
1.0
 40
1.0
 10
-140.7986308298
 20
-26.2519071816
 30
0.0
 10
-140.7989258618
 20
-26.2519012303
 30
0.0
 10
-140.7987930566
 20
-26.2501566708
 30
0.0
 10
-140.7992833578
 20
-26.2481947384
 30
0.0
 10
-140.7993262848
 20
-26.2436620045
 30
0.0
 10
-140.7995982398
 20
-26.237934069
 30
0.0
 10
-140.7997588642
 20
-26.2303549306
 30
0.0
 10
-140.800025135
 20
-26.2171026296
 30
0.0
 10
-140.8002741844
 20
-26.1965266954
 30
0.0
 10
-140.8005106987
 20
-26.1672602735
 30
0.0
 10
-140.8006774105
 20
-26.132058185
 30
0.0
 10
-140.800778572
 20
-26.0912757201
 30
0.0
 10
-140.8008100447
 20
-26.0452982043
 30
0.0
 10
-140.8007715777
 20
-25.9945720731
 30
0.0
 10
-140.8006222154
 20
-25.9188876852
 30
0.0
 10
-140.8002554672
 20
-25.8164047696
 30
0.0
 10
-140.7995744575
 20
-25.6867985959
 30
0.0
 10
-140.7989705752
 20
-25.5975251604
 30
0.0
 10
-140.7986308298
 20
-25.552013795
 30
0.0
 11
-140.7986308298
 21
-26.2519071816
 31
0.0
 11
-140.7988807996
 21
-26.2510579295
 31
0.0
 11
-140.7991180457
 21
-26.2485257867
 31
0.0
 11
-140.7993417945
 21
-26.244318677
 31
0.0
 11
-140.7995512725
 21
-26.2384445241
 31
0.0
 11
-140.7997457733
 21
-26.230913937
 31
0.0
 11
-140.7999248603
 21
-26.2217483159
 31
0.0
 11
-140.8002353171
 21
-26.198608414
 31
0.0
 11
-140.8004798445
 21
-26.1692375395
 31
0.0
 11
-140.8006562592
 21
-26.1339280622
 31
0.0
 11
-140.8007627534
 21
-26.0930104268
 31
0.0
 11
-140.8007984105
 21
-26.0468878499
 31
0.0
 11
-140.8007627664
 21
-25.9959965381
 31
0.0
 11
-140.8006562794
 21
-25.9408319054
 31
0.0
 11
-140.8002353274
 21
-25.8198352339
 31
0.0
 11
-140.7995512611
 21
-25.688548593
 31
0.0
 11
-140.7986308298
 21
-25.552013795
 31
0.0
  0
SPLINE
  5
37D
100
AcDbEntity
  8
RACCORDO
100
AcDbSpline
 62
253
  6
CONTINUOUS
 70
0
 71
3
 72
19
 73
15
 74
13
 42
0.0000001
 43
0.0000001
 44
0.0000000001
 12
0.0052356466
 22
-0.3000413803
 32
0.0
 13
-0.3000413524
 23
-0.0052372413
 33
0.0
 40
0.0
 40
0.0
 40
0.0
 40
0.0
 40
0.1949725583
 40
0.3824913871
 40
0.5552659731
 40
0.7067274794
 40
0.7726044053
 40
0.8310362444
 40
0.8814793893
 40
0.9234368696
 40
0.9565138189
 40
0.9804037051
 40
0.9948877272
 40
1.0
 40
1.0
 40
1.0
 40
1.0
 10
-131.5881593859
 20
-2.6440980938
 30
0.0
 10
-131.5878191168
 20
-2.663598039
 30
0.0
 10
-131.5872161815
 20
-2.7018535438
 30
0.0
 10
-131.5865346986
 20
-2.757392492
 30
0.0
 10
-131.5861084898
 20
-2.8085802538
 30
0.0
 10
-131.5859671958
 20
-2.8476053499
 30
0.0
 10
-131.5860126895
 20
-2.8751861239
 30
0.0
 10
-131.586109209
 20
-2.892676619
 30
0.0
 10
-131.5862908717
 20
-2.9077319186
 30
0.0
 10
-131.5864849095
 20
-2.9203704549
 30
0.0
 10
-131.5868759431
 20
-2.9300288729
 30
0.0
 10
-131.5869846888
 20
-2.9377033111
 30
0.0
 10
-131.5877529436
 20
-2.9410855237
 30
0.0
 10
-131.5876480882
 20
-2.9440434776
 30
0.0
 10
-131.5881593859
 20
-2.9440524024
 30
0.0
 11
-131.5881593859
 21
-2.6440980938
 31
0.0
 11
-131.5872391204
 21
-2.7025995973
 31
0.0
 11
-131.5865551018
 21
-2.7588674133
 31
0.0
 11
-131.5861340703
 21
-2.8107131209
 31
0.0
 11
-131.5859918408
 21
-2.856164536
 31
0.0
 11
-131.5860274407
 21
-2.8759333168
 31
0.0
 11
-131.5861340703
 21
-2.8934676312
 31
0.0
 11
-131.5863105096
 21
-2.9086039378
 31
0.0
 11
-131.5865551018
 21
-2.9211924586
 31
0.0
 11
-131.5868655714
 21
-2.9311135663
 31
0.0
 11
-131.5872391204
 21
-2.9382728733
 31
0.0
 11
-131.5876720994
 21
-2.9425977212
 31
0.0
 11
-131.5881593859
 21
-2.9440524024
 31
0.0
  0
SPLINE
  5
37E
100
AcDbEntity
  8
RACCORDO
100
AcDbSpline
 62
253
  6
CONTINUOUS
 70
0
 71
3
 72
19
 73
15
 74
13
 42
0.0000001
 43
0.0000001
 44
0.0000000001
 12
0.3000413524
 22
-0.0052372413
 32
0.0
 13
-0.0052356466
 23
-0.3000413803
 33
0.0
 40
0.0
 40
0.0
 40
0.0
 40
0.0
 40
0.0051122729
 40
0.0195962951
 40
0.0434861814
 40
0.0765631312
 40
0.1185206119
 40
0.1689637579
 40
0.2273955977
 40
0.2932725241
 40
0.4447340299
 40
0.6175086148
 40
0.8050274424
 40
1.0
 40
1.0
 40
1.0
 40
1.0
 10
-131.5881593859
 20
2.9440524024
 30
0.0
 10
-131.5876480882
 20
2.9440434776
 30
0.0
 10
-131.5877529437
 20
2.9410855237
 30
0.0
 10
-131.5869846888
 20
2.937703311
 30
0.0
 10
-131.5868759431
 20
2.9300288728
 30
0.0
 10
-131.5864849095
 20
2.9203704547
 30
0.0
 10
-131.5862908717
 20
2.9077319182
 30
0.0
 10
-131.586109209
 20
2.8926766183
 30
0.0
 10
-131.5860126895
 20
2.875186123
 30
0.0
 10
-131.5859671958
 20
2.8476053489
 30
0.0
 10
-131.5861084898
 20
2.808580253
 30
0.0
 10
-131.5865346986
 20
2.7573924915
 30
0.0
 10
-131.5872161815
 20
2.7018535436
 30
0.0
 10
-131.5878191168
 20
2.6635980389
 30
0.0
 10
-131.5881593859
 20
2.6440980938
 30
0.0
 11
-131.5881593859
 21
2.9440524024
 31
0.0
 11
-131.5876720994
 21
2.9425977212
 31
0.0
 11
-131.5872391204
 21
2.9382728732
 31
0.0
 11
-131.5868655714
 21
2.9311135662
 31
0.0
 11
-131.5865551018
 21
2.9211924584
 31
0.0
 11
-131.5863105096
 21
2.9086039374
 31
0.0
 11
-131.5861340703
 21
2.8934676305
 31
0.0
 11
-131.5860274407
 21
2.8759333159
 31
0.0
 11
-131.5859918408
 21
2.856164535
 31
0.0
 11
-131.5861340703
 21
2.81071312
 31
0.0
 11
-131.5865551018
 21
2.7588674128
 31
0.0
 11
-131.5872391204
 21
2.7025995971
 31
0.0
 11
-131.5881593859
 21
2.6440980938
 31
0.0
  0
ELLIPSE
  5
37F
100
AcDbEntity
  8
RACCORDO
100
AcDbEllipse
 62
7
  6
CONTINUOUS
 10
78.5912267691
 20
22.2912267691
 30
0.0
 11
-0.2121966568
 21
-0.2121966568
 31
0.0
 40
0.9996954599
 41
2.3563467834
 42
3.9268385237
  0
ELLIPSE
  5
380
100
AcDbEntity
  8
RACCORDO
100
AcDbEllipse
 62
7
  6
CONTINUOUS
 10
78.5912267691
 20
-22.2912267691
 30
0.0
 11
-0.2121966568
 21
0.2121966568
 31
0.0
 40
0.9996954599
 41
2.3563467834
 42
3.9268385237
  0
ELLIPSE
  5
381
100
AcDbEntity
  8
RACCORDO
100
AcDbEllipse
 62
7
  6
CONTINUOUS
 10
-78.5912267691
 20
22.2912267691
 30
0.0
 11
-0.2121966568
 21
0.2121966568
 31
0.0
 40
0.9996954599
 41
-0.7852458701
 42
0.7852458701
  0
ELLIPSE
  5
382
100
AcDbEntity
  8
RACCORDO
100
AcDbEllipse
 62
7
  6
CONTINUOUS
 10
-78.5912267691
 20
-22.2912267691
 30
0.0
 11
0.2121966568
 21
0.2121966568
 31
0.0
 40
0.9996954599
 41
2.3563467834
 42
3.9268385237
  0
ELLIPSE
  5
383
100
AcDbEntity
  8
RACCORDO
100
AcDbEllipse
 62
7
  6
CONTINUOUS
 10
81.4588739678
 20
25.5588739678
 30
0.0
 11
0.4951255324
 21
0.4951255324
 31
0.0
 40
0.9996954599
 41
-0.7852458702
 42
0.7852458701
  0
ELLIPSE
  5
384
100
AcDbEntity
  8
RACCORDO
100
AcDbEllipse
 62
7
  6
CONTINUOUS
 10
81.4588739678
 20
-25.5588739678
 30
0.0
 11
0.4951255324
 21
-0.4951255324
 31
0.0
 40
0.9996954599
 41
-0.7852458702
 42
0.7852458701
  0
ELLIPSE
  5
385
100
AcDbEntity
  8
RACCORDO
100
AcDbEllipse
 62
7
  6
CONTINUOUS
 10
-81.4588739678
 20
-25.5588739678
 30
0.0
 11
0.4951255324
 21
0.4951255324
 31
0.0
 40
0.9996954599
 41
2.3563467835
 42
3.9268385238
  0
ELLIPSE
  5
386
100
AcDbEntity
  8
RACCORDO
100
AcDbEllipse
 62
7
  6
CONTINUOUS
 10
-81.4588739678
 20
25.5588739678
 30
0.0
 11
0.4951255324
 21
-0.4951255324
 31
0.0
 40
0.9996954599
 41
2.3563467834
 42
3.9268385237
  0
ELLIPSE
  5
387
100
AcDbEntity
  8
ASSI
100
AcDbEllipse
 62
7
  6
CONTINUOUS
 10
-130.9933951078
 20
25.9914384441
 30
0.0
 11
-0.1417119467
 21
0.1422961243
 31
0.0
 40
0.9918061237
 41
-3.8766878413
 42
-2.358251392
  0
ELLIPSE
  5
388
100
AcDbEntity
  8
ASSI
100
AcDbEllipse
 62
7
  6
CONTINUOUS
 10
-130.9933951078
 20
-25.9914384441
 30
0.0
 11
0.1417119467
 21
0.1422961243
 31
0.0
 40
0.9918061237
 41
-0.7833412615
 42
0.7350951877
  0
ENDSEC
  0
SECTION
  2
OBJECTS
  0
DICTIONARY
  5
C
100
AcDbDictionary
280
0
281
1
  3
ACAD_GROUP
350
D
  3
ACAD_MLINESTYLE
350
17
  3
ACAD_LAYOUT
350
1A
  3
ACAD_PLOTSETTINGS
350
19
  3
ACAD_PLOTSTYLENAME
350
E
  0
DICTIONARY
  5
D
102
{ACAD_REACTORS
330
C
102
}
100
AcDbDictionary
280
0
281
1
  0
ACDBDICTIONARYWDFLT
  5
E
102
{ACAD_REACTORS
330
C
102
}
100
AcDbDictionary
281
1
  3
Normal
350
F
100
AcDbDictionaryWithDefault
340
F
  0
DICTIONARY
  5
17
102
{ACAD_REACTORS
330
C
102
}
100
AcDbDictionary
280
0
281
1
  3
Standard
350
18
  0
DICTIONARY
  5
19
102
{ACAD_REACTORS
330
C
102
}
100
AcDbDictionary
281
1
  0
DICTIONARY
  5
1A
102
{ACAD_REACTORS
330
C
102
}
100
AcDbDictionary
281
1
  3
Model
350
389
  3
Layout1
350
38A
  0
ACDBPLACEHOLDER
  5
F
102
{ACAD_REACTORS
330
E
102
}
  0
MLINESTYLE
  5
18
102
{ACAD_REACTORS
330
17
102
}
100
AcDbMlineStyle
  2
STANDARD
 70
0
  3

 62
256
 51
90.0
 52
90.0
 71
2
 49
0.5
 62
256
  6
BYLAYER
 49
-0.5
 62
256
  6
BYLAYER
  0
LAYOUT
  5
389
102
{ACAD_REACTORS
330
1A
102
}
100
AcDbPlotSettings
  1

  2
none_device
  4
ISO_A4_(297.00_x_210.00_MM)
  6

 40
0.0
 41
0.0
 42
0.0
 43
0.0
 44
297.0
 45
210.0
 46
0.0
 47
0.0
 48
0.0
 49
0.0
140
0.0
141
0.0
142
1.0
143
1.0
 70
1024
 72
1
 73
0
 74
0
  7

 75
0
147
1.0
148
0.0
149
0.0
100
AcDbLayout
  1
Model
 70
0
 71
0
 10
0.0
 20
0.0
 11
297.0
 21
210.0
 12
0.0
 22
0.0
 32
0.0
 14
0.0
 24
0.0
 34
0.0
 15
0.0
 25
0.0
 35
0.0
146
0.0
 13
0.0
 23
0.0
 33
0.0
 16
1.0
 26
0.0
 36
0.0
 17
0.0
 27
1.0
 37
0.0
 76
0
330
212
345
0
346
0
  0
LAYOUT
  5
38A
102
{ACAD_REACTORS
330
1A
102
}
100
AcDbPlotSettings
  1

  2
none_device
  4
ISO_A4_(297.00_x_210.00_MM)
  6

 40
0.0
 41
0.0
 42
0.0
 43
0.0
 44
297.0
 45
210.0
 46
0.0
 47
0.0
 48
0.0
 49
0.0
140
0.0
141
0.0
142
1.0
143
1.0
 70
0
 72
1
 73
0
 74
0
  7

 75
0
147
1.0
148
0.0
149
0.0
100
AcDbLayout
  1
Layout1
 70
0
 71
1
 10
0.0
 20
0.0
 11
297.0
 21
210.0
 12
0.0
 22
0.0
 32
0.0
 14
0.0
 24
0.0
 34
0.0
 15
0.0
 25
0.0
 35
0.0
146
0.0
 13
0.0
 23
0.0
 33
0.0
 16
1.0
 26
0.0
 36
0.0
 17
0.0
 27
1.0
 37
0.0
 76
0
330
213
345
0
346
0
  0
ENDSEC
  0
EOF
