  0
SECTION
  2
HEADER
  9
$ACADVER
  1
AC1015
  9
$DWGCODEPAGE
  3
ANSI_1252
  9
$EXTMAX
 10
297.0
 20
210.0
 30
0.0
  9
$EXTMIN
 10
0.0
 20
0.0
 30
0.0
  9
$LIMMIN
 10
0.0
 20
0.0
  9
$LIMMAX
 10
297.0
 20
210.0
  9
$VIEWCTR
 10
148.5
 20
105.0
  9
$VIEWSIZE
 40
210.0
  9
$CLAYER
  8
0
  9
$LTSCALE
 40
16.335
  9
$CELTYPE
  6
BYLAYER
  9
$DIMSCALE
 40
1.0
  9
$DIMASZ
 40
3.0
  9
$DIMEXO
 40
0.5
  9
$DIMDLI
 40
11.286
  9
$DIMEXE
 40
1.5
  9
$DIMCEN
 40
2.673
  9
$DIMLFAC
 40
1.0
  9
$DIMBLK
  1
_FILLED
  9
$DIMTXT
 40
3.0
  9
$DIMTOL
 70
1
  9
$DIMLIM
 70
0
  9
$DIMTFAC
 40
1.0
  9
$DIMTP
 40
0.01
  9
$DIMTM
 40
0.01
  9
$DIMGAP
 40
0.625
  9
$DIMDSEP
 70
44
  9
$PDMODE
 70
3
  9
$PDSIZE
 40
3.0
  9
$HANDSEED
  5
315
  9
$TILEMODE
 70
1
  9
$MEASUREMENT
 70
1
  9
$INSUNITS
 70
4
  0
ENDSEC
  0
SECTION
  2
CLASSES
  0
CLASS
  1
ACDBDICTIONARYWDFLT
  2
AcDbDictionaryWithDefault
  3
AutoCAD 2000
 90
0
280
0
281
0
  0
CLASS
  1
ACDBPLACEHOLDER
  2
AcDbPlaceHolder
  3
AutoCAD 2000
 90
0
280
0
281
0
  0
CLASS
  1
LAYOUT
  2
AcDbLayout
  3
AutoCAD 2000
 90
0
280
0
281
0
  0
ENDSEC
  0
SECTION
  2
TABLES
  0
TABLE
  2
VPORT
  5
8
100
AcDbSymbolTable
 70
2
  0
VPORT
  5
1F4
100
AcDbSymbolTableRecord
100
AcDbViewportTableRecord
  2
*ACTIVE
 70
0
 10
0.0
 20
0.0
 11
1.0
 21
1.0
 12
148.5
 22
105.0
 13
0.0
 23
0.0
 14
1.0
 24
1.0
 15
0.0
 25
0.0
 16
0.0
 26
0.0
 36
1.0
 17
0.0
 27
0.0
 37
0.0
 40
210.0
 41
1.4142857143
 42
50.0
 43
0.0
 44
0.0
 50
0.0
 51
0.0
 71
0
 72
100
 73
1
 74
1
 75
0
 76
0
 77
0
 78
0
  0
ENDTAB
  0
TABLE
  2
LTYPE
  5
5
100
AcDbSymbolTable
 70
6
  0
LTYPE
  5
14
100
AcDbSymbolTableRecord
100
AcDbLinetypeTableRecord
  2
BYBLOCK
 70
0
  3

 72
65
 73
0
 40
0.0
  0
LTYPE
  5
15
100
AcDbSymbolTableRecord
100
AcDbLinetypeTableRecord
  2
BYLAYER
 70
0
  3

 72
65
 73
0
 40
0.0
  0
LTYPE
  5
16
100
AcDbSymbolTableRecord
100
AcDbLinetypeTableRecord
  2
CONTINUOUS
 70
64
  3
Solid line
 72
65
 73
0
 40
0.0
  0
LTYPE
  5
1F5
100
AcDbSymbolTableRecord
100
AcDbLinetypeTableRecord
  2
CENTER
 70
64
  3
____ _ ____ _ ____ _ ____ _ ____ _ ____ _ ____
 72
65
 73
4
 40
0.6
 49
0.375
 74
0
 49
-0.075
 74
0
 49
0.075
 74
0
 49
-0.075
 74
0
  0
LTYPE
  5
1F6
100
AcDbSymbolTableRecord
100
AcDbLinetypeTableRecord
  2
HIDDEN
 70
64
  3
- - - - - - - - - - - - - - - - - - - -
 72
65
 73
2
 40
0.2
 49
0.1
 74
0
 49
-0.1
 74
0
  0
LTYPE
  5
1F7
100
AcDbSymbolTableRecord
100
AcDbLinetypeTableRecord
  2
PHANTOM
 70
64
  3
_____ _ _ _____ _ _ _____ _ _ _____
 72
65
 73
6
 40
0.8
 49
0.45
 74
0
 49
-0.05
 74
0
 49
0.1
 74
0
 49
-0.05
 74
0
 49
0.1
 74
0
 49
-0.05
 74
0
  0
LTYPE
  5
1F8
100
AcDbSymbolTableRecord
100
AcDbLinetypeTableRecord
  2
DOT
 70
64
  3
. . . . . . . . . . . . . . . . . . . .
 72
65
 73
2
 40
0.2
 49
0.1
 74
0
 49
-0.1
 74
0
  0
LTYPE
  5
1F9
100
AcDbSymbolTableRecord
100
AcDbLinetypeTableRecord
  2
DASHED
 70
64
  3
- - - - - - - - - - - - - - - - - - - -
 72
65
 73
2
 40
0.2
 49
0.1
 74
0
 49
-0.1
 74
0
  0
ENDTAB
  0
TABLE
  2
LAYER
  5
2
100
AcDbSymbolTable
 70
36
  0
LAYER
  5
10
100
AcDbSymbolTableRecord
100
AcDbLayerTableRecord
  2
0
 70
0
 62
7
  6
CONTINUOUS
370
-3
390
F
  0
LAYER
  5
1FA
100
AcDbSymbolTableRecord
100
AcDbLayerTableRecord
  2
DEFAULT_1
 70
0
 62
7
  6
CENTER
370
-3
390
F
  0
LAYER
  5
1FB
100
AcDbSymbolTableRecord
100
AcDbLayerTableRecord
  2
DEFAULT_2
 70
0
 62
7
  6
HIDDEN
370
-3
390
F
  0
LAYER
  5
1FC
100
AcDbSymbolTableRecord
100
AcDbLayerTableRecord
  2
DEFAULT_3
 70
0
 62
7
  6
PHANTOM
370
-3
390
F
  0
LAYER
  5
1FD
100
AcDbSymbolTableRecord
100
AcDbLayerTableRecord
  2
ASSI
 70
0
 62
7
  6
CONTINUOUS
370
-3
390
F
  0
LAYER
  5
1FE
100
AcDbSymbolTableRecord
100
AcDbLayerTableRecord
  2
COORDINATE
 70
0
 62
7
  6
CONTINUOUS
370
-3
390
F
  0
LAYER
  5
1FF
100
AcDbSymbolTableRecord
100
AcDbLayerTableRecord
  2
COORD_ORIGINE
 70
0
 62
7
  6
CONTINUOUS
370
-3
390
F
  0
LAYER
  5
200
100
AcDbSymbolTableRecord
100
AcDbLayerTableRecord
  2
COPY_PUBLISH
 70
0
 62
7
  6
CONTINUOUS
370
-3
390
F
  0
LAYER
  5
201
100
AcDbSymbolTableRecord
100
AcDbLayerTableRecord
  2
COSMETIC
 70
0
 62
7
  6
CONTINUOUS
370
-3
390
F
  0
LAYER
  5
202
100
AcDbSymbolTableRecord
100
AcDbLayerTableRecord
  2
COSMETICI
 70
0
 62
7
  6
CONTINUOUS
370
-3
390
F
  0
LAYER
  5
203
100
AcDbSymbolTableRecord
100
AcDbLayerTableRecord
  2
CURVE
 70
0
 62
7
  6
CONTINUOUS
370
-3
390
F
  0
LAYER
  5
204
100
AcDbSymbolTableRecord
100
AcDbLayerTableRecord
  2
CURVE_INIEZIONE
 70
0
 62
7
  6
CONTINUOUS
370
-3
390
F
  0
LAYER
  5
205
100
AcDbSymbolTableRecord
100
AcDbLayerTableRecord
  2
CURVE_PERNI
 70
0
 62
7
  6
CONTINUOUS
370
-3
390
F
  0
LAYER
  5
206
100
AcDbSymbolTableRecord
100
AcDbLayerTableRecord
  2
DRAFT
 70
0
 62
7
  6
CONTINUOUS
370
-3
390
F
  0
LAYER
  5
207
100
AcDbSymbolTableRecord
100
AcDbLayerTableRecord
  2
IMPORT_IGES
 70
0
 62
7
  6
CONTINUOUS
370
-3
390
F
  0
LAYER
  5
208
100
AcDbSymbolTableRecord
100
AcDbLayerTableRecord
  2
INTFCLR_2
 70
0
 62
7
  6
CONTINUOUS
370
-3
390
F
  0
LAYER
  5
209
100
AcDbSymbolTableRecord
100
AcDbLayerTableRecord
  2
INTF_1
 70
0
 62
7
  6
CONTINUOUS
370
-3
390
F
  0
LAYER
  5
20A
100
AcDbSymbolTableRecord
100
AcDbLayerTableRecord
  2
INTF_14
 70
0
 62
7
  6
CONTINUOUS
370
-3
390
F
  0
LAYER
  5
20B
100
AcDbSymbolTableRecord
100
AcDbLayerTableRecord
  2
NOTE
 70
0
 62
7
  6
CONTINUOUS
370
-3
390
F
  0
LAYER
  5
20C
100
AcDbSymbolTableRecord
100
AcDbLayerTableRecord
  2
PIANI
 70
0
 62
7
  6
CONTINUOUS
370
-3
390
F
  0
LAYER
  5
20D
100
AcDbSymbolTableRecord
100
AcDbLayerTableRecord
  2
PIANI_ORIGINE
 70
0
 62
7
  6
CONTINUOUS
370
-3
390
F
  0
LAYER
  5
20E
100
AcDbSymbolTableRecord
100
AcDbLayerTableRecord
  2
PIANI_RIFERIMENTO
 70
0
 62
7
  6
CONTINUOUS
370
-3
390
F
  0
LAYER
  5
20F
100
AcDbSymbolTableRecord
100
AcDbLayerTableRecord
  2
PIANO_CHIUSURA
 70
0
 62
7
  6
CONTINUOUS
370
-3
390
F
  0
LAYER
  5
210
100
AcDbSymbolTableRecord
100
AcDbLayerTableRecord
  2
PUNTI
 70
0
 62
7
  6
CONTINUOUS
370
-3
390
F
  0
LAYER
  5
211
100
AcDbSymbolTableRecord
100
AcDbLayerTableRecord
  2
PUNTO_INIEZIONE
 70
0
 62
7
  6
CONTINUOUS
370
-3
390
F
  0
LAYER
  5
212
100
AcDbSymbolTableRecord
100
AcDbLayerTableRecord
  2
RACCORDO
 70
0
 62
7
  6
CONTINUOUS
370
-3
390
F
  0
LAYER
  5
213
100
AcDbSymbolTableRecord
100
AcDbLayerTableRecord
  2
SIMBOLI
 70
0
 62
7
  6
CONTINUOUS
370
-3
390
F
  0
LAYER
  5
214
100
AcDbSymbolTableRecord
100
AcDbLayerTableRecord
  2
SMUSSO
 70
0
 62
7
  6
CONTINUOUS
370
-3
390
F
  0
LAYER
  5
215
100
AcDbSymbolTableRecord
100
AcDbLayerTableRecord
  2
SNAPLINE
 70
0
 62
7
  6
CONTINUOUS
370
-3
390
F
  0
LAYER
  5
216
100
AcDbSymbolTableRecord
100
AcDbLayerTableRecord
  2
SUPERFICI
 70
0
 62
7
  6
CONTINUOUS
370
-3
390
F
  0
LAYER
  5
217
100
AcDbSymbolTableRecord
100
AcDbLayerTableRecord
  2
TRASH
 70
0
 62
7
  6
CONTINUOUS
370
-3
390
F
  0
LAYER
  5
218
100
AcDbSymbolTableRecord
100
AcDbLayerTableRecord
  2
XSEC_DATUMS
 70
0
 62
7
  6
CONTINUOUS
370
-3
390
F
  0
ENDTAB
  0
TABLE
  2
STYLE
  5
3
100
AcDbSymbolTable
 70
1
  0
STYLE
  5
11
100
AcDbSymbolTableRecord
100
AcDbTextStyleTableRecord
  2
STANDARD
 70
0
 40
0.0
 41
0.8
 50
0.0
 71
0
 42
0.2
  3
txt
  4

  0
STYLE
  5
219
100
AcDbSymbolTableRecord
100
AcDbTextStyleTableRecord
  2
TEXTSTYLE_1
 70
0
 40
0.0
 41
0.8
 50
0.0
 71
0
 42
0.2
  3
gdt
  4

  0
ENDTAB
  0
TABLE
  2
VIEW
  5
6
100
AcDbSymbolTable
 70
0
  0
ENDTAB
  0
TABLE
  2
UCS
  5
7
100
AcDbSymbolTable
 70
0
  0
ENDTAB
  0
TABLE
  2
APPID
  5
9
100
AcDbSymbolTable
 70
1
  0
APPID
  5
21A
100
AcDbSymbolTableRecord
100
AcDbRegAppTableRecord
  2
ACAD
 70
0
  0
ENDTAB
  0
TABLE
  2
BLOCK_RECORD
  5
1
100
AcDbSymbolTable
 70
0
  0
BLOCK_RECORD
  5
21B
100
AcDbSymbolTableRecord
100
AcDbBlockTableRecord
  2
*Model_Space
  0
BLOCK_RECORD
  5
21C
100
AcDbSymbolTableRecord
100
AcDbBlockTableRecord
  2
*Paper_Space
  0
BLOCK_RECORD
  5
21D
100
AcDbSymbolTableRecord
100
AcDbBlockTableRecord
  2
_FILLED
  0
BLOCK_RECORD
  5
21E
100
AcDbSymbolTableRecord
100
AcDbBlockTableRecord
  2
*D0
  0
BLOCK_RECORD
  5
21F
100
AcDbSymbolTableRecord
100
AcDbBlockTableRecord
  2
*D1
  0
BLOCK_RECORD
  5
220
100
AcDbSymbolTableRecord
100
AcDbBlockTableRecord
  2
*D2
  0
ENDTAB
  0
TABLE
  2
DIMSTYLE
  5
A
100
AcDbSymbolTable
 70
1
100
AcDbDimStyleTable
 71
0
  0
DIMSTYLE
105
221
100
AcDbSymbolTableRecord
100
AcDbDimStyleTableRecord
  2
STANDARD
 70
0
  3

  4

 40
1.0
 41
3.0
 42
0.5
 43
0.38
 44
1.5
 45
0.0
 46
0.0
 47
0.01
 48
0.01
140
3.0
141
0.09
142
0.0
143
25.4
144
1.0
145
0.0
146
1.0
147
0.625
 71
1.0
 72
0.0
 73
0
 74
0
 75
0
 76
0
 77
1
 78
8
170
0
171
2
172
0
173
0
174
0
175
0
176
0
177
0
178
0
270
2
271
2
272
2
273
2
274
2
275
0
280
0
281
0
282
0
283
1
284
8
285
0
286
0
287
3
288
0
340
11
278
44
341
21D
342
21D
343
21D
344
21D
  0
DIMSTYLE
105
222
100
AcDbSymbolTableRecord
100
AcDbDimStyleTableRecord
  2
DIMSTYLE_1
 70
0
  3

  4

 40
1.0
 41
3.0
 42
0.5
 43
0.38
 44
1.5
 45
0.0
 46
0.0
 47
0.0
 48
0.0
140
3.0
141
0.09
142
0.0
143
25.4
144
1.0
145
0.0
146
1.0
147
0.75
 71
0.0
 72
0.0
 73
0
 74
0
 75
0
 76
0
 77
1
 78
8
170
0
171
2
172
0
173
0
174
0
175
0
176
0
177
0
178
0
270
2
271
2
272
2
273
2
274
2
275
0
280
0
281
0
282
0
283
1
284
8
285
0
286
0
287
3
288
0
340
11
278
44
341
21D
342
21D
343
21D
344
21D
  0
ENDTAB
  0
ENDSEC
  0
SECTION
  2
BLOCKS
  0
BLOCK
  5
20
100
AcDbEntity
  8
0
100
AcDbBlockBegin
  2
*Model_Space
 70
0
 10
0.0
 20
0.0
 30
0.0
  3
*Model_Space
  1

  0
ENDBLK
  5
21
100
AcDbEntity
  8
0
100
AcDbBlockEnd
  0
BLOCK
  5
1C
100
AcDbEntity
  8
0
100
AcDbBlockBegin
  2
*Paper_Space
 70
0
 10
0.0
 20
0.0
 30
0.0
  3
*Paper_Space
  1

  0
ENDBLK
  5
1D
100
AcDbEntity
  8
0
100
AcDbBlockEnd
  0
BLOCK
  5
223
100
AcDbEntity
  8
0
100
AcDbBlockBegin
  2
_FILLED
 70
64
 10
0.0
 20
0.0
  3
_FILLED
  1

  0
SOLID
  5
224
100
AcDbEntity
  8
0
  6
BYBLOCK
 62
0
100
AcDbTrace
 10
0.0
 20
0.0
 11
-1.0
 21
0.3166666667
 12
-1.0
 22
-0.3166666667
 13
-1.0
 23
-0.3166666667
  0
ENDBLK
  5
225
100
AcDbEntity
  8
0
  6
BYBLOCK
 62
0
100
AcDbBlockEnd
  0
BLOCK
  5
226
100
AcDbEntity
  8
0
100
AcDbBlockBegin
 62
7
  6
CONTINUOUS
  2
*D0
 70
65
 10
0.0
 20
0.0
  3
*D0
  1

  0
MTEXT
  5
227
100
AcDbEntity
  8
0
100
AcDbMText
 62
7
  6
CONTINUOUS
  7
STANDARD
 71
2
 72
1
 10
166.0817319261
 20
169.7346301011
 30
0.0
 11
1.0
 21
0.0
 31
0.0
 44
0.9
  1
95,4
 40
3.0
 41
8.5714285714
  0
LINE
  5
228
100
AcDbEntity
  8
0
100
AcDbLine
 62
7
  6
CONTINUOUS
 10
213.7817319261
 20
157.484630102
 11
213.7817319261
 21
167.4846301011
  0
LINE
  5
229
100
AcDbEntity
  8
0
100
AcDbLine
 62
7
  6
CONTINUOUS
 10
118.3817319261
 20
157.484630102
 11
118.3817319261
 21
167.4846301011
  0
LINE
  5
22A
100
AcDbEntity
  8
0
100
AcDbLine
 62
7
  6
CONTINUOUS
 10
213.7817319261
 20
165.9846301011
 11
166.0817319261
 21
165.9846301011
  0
LINE
  5
22B
100
AcDbEntity
  8
0
100
AcDbLine
 62
7
  6
CONTINUOUS
 10
118.3817319261
 20
165.9846301011
 11
166.0817319261
 21
165.9846301011
  0
INSERT
  5
22C
100
AcDbEntity
  8
0
100
AcDbBlockReference
 62
7
  6
CONTINUOUS
  2
_FILLED
 10
213.7817319261
 20
165.9846301011
 41
3.0
 42
3.0
 43
3.0
 50
0.0
  0
INSERT
  5
22D
100
AcDbEntity
  8
0
100
AcDbBlockReference
 62
7
  6
CONTINUOUS
  2
_FILLED
 10
118.3817319261
 20
165.9846301011
 41
3.0
 42
3.0
 43
3.0
 50
180.0
  0
ENDBLK
  5
22E
100
AcDbEntity
  8
0
  6
BYBLOCK
 62
0
100
AcDbBlockEnd
  0
BLOCK
  5
22F
100
AcDbEntity
  8
0
100
AcDbBlockBegin
 62
7
  6
CONTINUOUS
  2
*D1
 70
65
 10
0.0
 20
0.0
  3
*D1
  1

  0
MTEXT
  5
230
100
AcDbEntity
  8
0
100
AcDbMText
 62
7
  6
CONTINUOUS
  7
STANDARD
 71
2
 72
1
 10
218.0317319252
 20
110.284630102
 30
0.0
 11
0.0
 21
1.0
 31
0.0
 44
0.9
  1
95,4
 40
3.0
 41
8.5714285714
  0
LINE
  5
231
100
AcDbEntity
  8
0
100
AcDbLine
 62
7
  6
CONTINUOUS
 10
213.2817319261
 20
157.984630102
 11
223.2817319252
 21
157.984630102
  0
LINE
  5
232
100
AcDbEntity
  8
0
100
AcDbLine
 62
7
  6
CONTINUOUS
 10
213.2817319261
 20
62.584630102
 11
223.2817319252
 21
62.584630102
  0
LINE
  5
233
100
AcDbEntity
  8
0
100
AcDbLine
 62
7
  6
CONTINUOUS
 10
221.7817319252
 20
157.984630102
 11
221.7817319252
 21
110.284630102
  0
LINE
  5
234
100
AcDbEntity
  8
0
100
AcDbLine
 62
7
  6
CONTINUOUS
 10
221.7817319252
 20
62.584630102
 11
221.7817319252
 21
110.284630102
  0
INSERT
  5
235
100
AcDbEntity
  8
0
100
AcDbBlockReference
 62
7
  6
CONTINUOUS
  2
_FILLED
 10
221.7817319252
 20
157.984630102
 41
3.0
 42
3.0
 43
3.0
 50
90.0
  0
INSERT
  5
236
100
AcDbEntity
  8
0
100
AcDbBlockReference
 62
7
  6
CONTINUOUS
  2
_FILLED
 10
221.7817319252
 20
62.584630102
 41
3.0
 42
3.0
 43
3.0
 50
270.0
  0
ENDBLK
  5
237
100
AcDbEntity
  8
0
  6
BYBLOCK
 62
0
100
AcDbBlockEnd
  0
BLOCK
  5
238
100
AcDbEntity
  8
0
100
AcDbBlockBegin
 62
7
  6
CONTINUOUS
  2
*D2
 70
65
 10
0.0
 20
0.0
  3
*D2
  1

  0
MTEXT
  5
239
100
AcDbEntity
  8
0
100
AcDbMText
 62
7
  6
CONTINUOUS
  7
STANDARD
 71
2
 72
1
 10
99.665497449
 20
169.7346301011
 30
0.0
 11
1.0
 21
0.0
 31
0.0
 44
0.9
  1
17,4
 40
3.0
 41
8.1428571429
  0
LINE
  5
23A
100
AcDbEntity
  8
0
100
AcDbLine
 62
7
  6
CONTINUOUS
 10
90.965497449
 20
157.484630102
 11
90.965497449
 21
167.4846301011
  0
LINE
  5
23B
100
AcDbEntity
  8
0
100
AcDbLine
 62
7
  6
CONTINUOUS
 10
108.365497449
 20
110.784630102
 11
108.365497449
 21
167.4846301011
  0
LINE
  5
23C
100
AcDbEntity
  8
0
100
AcDbLine
 62
7
  6
CONTINUOUS
 10
90.965497449
 20
165.9846301011
 11
99.665497449
 21
165.9846301011
  0
LINE
  5
23D
100
AcDbEntity
  8
0
100
AcDbLine
 62
7
  6
CONTINUOUS
 10
108.365497449
 20
165.9846301011
 11
99.665497449
 21
165.9846301011
  0
INSERT
  5
23E
100
AcDbEntity
  8
0
100
AcDbBlockReference
 62
7
  6
CONTINUOUS
  2
_FILLED
 10
90.965497449
 20
165.9846301011
 41
3.0
 42
3.0
 43
3.0
 50
180.0
  0
INSERT
  5
23F
100
AcDbEntity
  8
0
100
AcDbBlockReference
 62
7
  6
CONTINUOUS
  2
_FILLED
 10
108.365497449
 20
165.9846301011
 41
3.0
 42
3.0
 43
3.0
  0
ENDBLK
  5
240
100
AcDbEntity
  8
0
  6
BYBLOCK
 62
0
100
AcDbBlockEnd
  0
ENDSEC
  0
SECTION
  2
ENTITIES
  0
DIMENSION
  5
241
100
AcDbEntity
  8
0
100
AcDbDimension
 62
7
  6
CONTINUOUS
  2
*D0
 10
118.3817319261
 20
165.9846301011
 11
166.0817319261
 21
165.9846301011
 70
160
 71
2
 42
95.4
  3
DIMSTYLE_1
100
AcDbAlignedDimension
 13
213.7817319261
 23
156.984630102
 14
118.3817319261
 24
156.984630102
 50
180.0
100
AcDbRotatedDimension
  0
DIMENSION
  5
242
100
AcDbEntity
  8
0
100
AcDbDimension
 62
7
  6
CONTINUOUS
  2
*D1
 10
221.7817319252
 20
62.584630102
 11
221.7817319252
 21
110.284630102
 70
160
 71
2
 42
95.4
  3
DIMSTYLE_1
100
AcDbAlignedDimension
 13
212.7817319261
 23
157.984630102
 14
212.7817319261
 24
62.584630102
 50
270.0
100
AcDbRotatedDimension
  0
DIMENSION
  5
243
100
AcDbEntity
  8
0
100
AcDbDimension
 62
7
  6
CONTINUOUS
  2
*D2
 10
108.365497449
 20
165.9846301011
 11
99.665497449
 21
165.9846301011
 70
160
 71
2
 42
17.4
  3
DIMSTYLE_1
100
AcDbAlignedDimension
 13
90.965497449
 23
156.984630102
 14
108.365497449
 24
110.284630102
100
AcDbRotatedDimension
  0
LWPOLYLINE
  5
244
100
AcDbEntity
  8
RACCORDO
100
AcDbPolyline
 62
7
  6
CONTINUOUS
 90
10
 70
0
 10
118.5400299269
 20
157.5237453184
 10
118.541154287
 20
157.5258755882
 10
118.5734849463
 20
157.5773826752
 10
118.6096829595
 20
157.6264696282
 10
118.6497434492
 20
157.6730420892
 10
118.6933355792
 20
157.7166332657
 10
118.7399088804
 20
157.7566926876
 10
118.7889967377
 20
157.7928896578
 10
118.8405045898
 20
157.8252192002
 10
118.8426360808
 20
157.826344147
  0
LWPOLYLINE
  5
245
100
AcDbEntity
  8
RACCORDO
100
AcDbPolyline
 62
7
  6
CONTINUOUS
 90
10
 70
0
 10
118.8426191596
 20
62.7429265794
 10
118.8404876514
 20
62.7440515888
 10
118.788980378
 20
62.7763822558
 10
118.7398932416
 20
62.8125803006
 10
118.6933206178
 20
62.8526408377
 10
118.6497292803
 20
62.8962330439
 10
118.6096697161
 20
62.9428064332
 10
118.5734726216
 20
62.9918943935
 10
118.5411429723
 20
63.043402364
 10
118.5400174283
 20
63.0455349851
  0
LINE
  5
246
100
AcDbEntity
  8
SMUSSO
100
AcDbLine
 62
7
  6
CONTINUOUS
 10
118.3817319261
 20
156.984630102
 11
118.3817319261
 21
63.584630102
  0
LINE
  5
247
100
AcDbEntity
  8
SMUSSO
100
AcDbLine
 62
7
  6
CONTINUOUS
 10
119.3817319261
 20
156.984630102
 11
119.3817319261
 21
63.584630102
  0
LINE
  5
248
100
AcDbEntity
  8
SMUSSO
100
AcDbLine
 62
253
  6
CONTINUOUS
 10
119.3817319261
 20
63.584630102
 11
119.3817319261
 21
62.584630102
  0
LINE
  5
249
100
AcDbEntity
  8
SMUSSO
100
AcDbLine
 62
253
  6
CONTINUOUS
 10
119.3817319261
 20
156.984630102
 11
119.3817319261
 21
157.984630102
  0
LINE
  5
24A
100
AcDbEntity
  8
SMUSSO
100
AcDbLine
 62
7
  6
CONTINUOUS
 10
119.3817319261
 20
62.584630102
 11
212.7817319261
 21
62.584630102
  0
LINE
  5
24B
100
AcDbEntity
  8
SMUSSO
100
AcDbLine
 62
253
  6
CONTINUOUS
 10
119.3817319261
 20
63.584630102
 11
118.3817319261
 21
63.584630102
  0
LINE
  5
24C
100
AcDbEntity
  8
SMUSSO
100
AcDbLine
 62
7
  6
CONTINUOUS
 10
119.3817319261
 20
63.584630102
 11
212.7817319261
 21
63.584630102
  0
LINE
  5
24D
100
AcDbEntity
  8
SMUSSO
100
AcDbLine
 62
253
  6
CONTINUOUS
 10
212.7817319261
 20
63.584630102
 11
213.7817319261
 21
63.584630102
  0
LINE
  5
24E
100
AcDbEntity
  8
SMUSSO
100
AcDbLine
 62
253
  6
CONTINUOUS
 10
212.7817319261
 20
63.584630102
 11
212.7817319261
 21
62.584630102
  0
LINE
  5
24F
100
AcDbEntity
  8
SMUSSO
100
AcDbLine
 62
7
  6
CONTINUOUS
 10
212.7817319261
 20
63.584630102
 11
212.7817319261
 21
156.984630102
  0
LINE
  5
250
100
AcDbEntity
  8
SMUSSO
100
AcDbLine
 62
253
  6
CONTINUOUS
 10
212.7817319261
 20
156.984630102
 11
212.7817319261
 21
157.984630102
  0
LINE
  5
251
100
AcDbEntity
  8
SMUSSO
100
AcDbLine
 62
7
  6
CONTINUOUS
 10
213.7817319261
 20
63.584630102
 11
213.7817319261
 21
156.984630102
  0
LINE
  5
252
100
AcDbEntity
  8
SMUSSO
100
AcDbLine
 62
7
  6
CONTINUOUS
 10
212.7817319261
 20
156.984630102
 11
119.3817319261
 21
156.984630102
  0
LINE
  5
253
100
AcDbEntity
  8
SMUSSO
100
AcDbLine
 62
253
  6
CONTINUOUS
 10
119.3817319261
 20
156.984630102
 11
118.3817319261
 21
156.984630102
  0
LINE
  5
254
100
AcDbEntity
  8
SMUSSO
100
AcDbLine
 62
253
  6
CONTINUOUS
 10
212.7817319261
 20
156.984630102
 11
213.7817319261
 21
156.984630102
  0
LINE
  5
255
100
AcDbEntity
  8
SMUSSO
100
AcDbLine
 62
7
  6
CONTINUOUS
 10
212.7817319261
 20
157.984630102
 11
119.3817319261
 21
157.984630102
  0
LWPOLYLINE
  5
256
100
AcDbEntity
  8
RACCORDO
100
AcDbPolyline
 62
7
  6
CONTINUOUS
 90
10
 70
0
 10
213.6234362913
 20
63.0455186905
 10
213.6223109228
 20
63.0433864974
 10
213.5899802515
 20
62.9918791209
 10
213.5537821892
 20
62.942791883
 10
213.513721626
 20
62.8962191691
 10
213.4701293777
 20
62.8526277427
 10
213.4235559396
 20
62.8125680998
 10
213.3744679223
 20
62.7763709365
 10
213.3229598863
 20
62.744041228
 10
213.3208266401
 20
62.7429153536
  0
LWPOLYLINE
  5
257
100
AcDbEntity
  8
RACCORDO
100
AcDbPolyline
 62
7
  6
CONTINUOUS
 90
10
 70
0
 10
213.3208473638
 20
157.8263319636
 10
213.3229775218
 20
157.8252076622
 10
213.3744845919
 20
157.7928770035
 10
213.4235715283
 20
157.7566789932
 10
213.4701439746
 20
157.7166185078
 10
213.5137351366
 20
157.6730263847
 10
213.5537945456
 20
157.6264530914
 10
213.5899915046
 20
157.5773652435
 10
213.6223210373
 20
157.525857402
 10
213.6234459301
 20
157.5237260131
  0
LINE
  5
258
100
AcDbEntity
  8
RACCORDO
100
AcDbLine
 62
253
  6
CONTINUOUS
 10
95.5654212966
 20
157.0944821235
 11
95.065497449
 21
156.9357559202
  0
LINE
  5
259
100
AcDbEntity
  8
SMUSSO
100
AcDbLine
 62
7
  6
CONTINUOUS
 10
91.965497449
 20
62.584630102
 11
94.465497449
 21
62.584630102
  0
LINE
  5
25A
100
AcDbEntity
  8
SMUSSO
100
AcDbLine
 62
253
  6
CONTINUOUS
 10
90.965497449
 20
63.584630102
 11
94.965497449
 21
63.584630102
  0
LINE
  5
25B
100
AcDbEntity
  8
RACCORDO
100
AcDbLine
 62
253
  6
CONTINUOUS
 10
95.5654212966
 20
63.4747780806
 11
97.8654807255
 21
63.4522911428
  0
LINE
  5
25C
100
AcDbEntity
  8
RACCORDO
100
AcDbLine
 62
7
  6
CONTINUOUS
 10
95.5654212966
 20
62.6747780806
 11
97.8654946469
 21
62.634630151
  0
LINE
  5
25D
100
AcDbEntity
  8
RACCORDO
100
AcDbLine
 62
253
  6
CONTINUOUS
 10
95.5654212966
 20
63.4747780806
 11
95.065497449
 21
63.6335042838
  0
LINE
  5
25E
100
AcDbEntity
  8
0
100
AcDbLine
 62
7
  6
CONTINUOUS
 10
94.965497449
 20
66.284630102
 11
95.065497449
 21
66.284630102
  0
LINE
  5
25F
100
AcDbEntity
  8
SMUSSO
100
AcDbLine
 62
7
  6
CONTINUOUS
 10
90.965497449
 20
156.984630102
 11
91.965497449
 21
157.984630102
  0
LINE
  5
260
100
AcDbEntity
  8
SMUSSO
100
AcDbLine
 62
7
  6
CONTINUOUS
 10
90.965497449
 20
63.584630102
 11
91.965497449
 21
62.584630102
  0
LINE
  5
261
100
AcDbEntity
  8
RACCORDO
100
AcDbLine
 62
7
  6
CONTINUOUS
 10
95.5654212966
 20
157.8944821235
 11
95.065497449
 21
157.3857559202
  0
LINE
  5
262
100
AcDbEntity
  8
RACCORDO
100
AcDbLine
 62
7
  6
CONTINUOUS
 10
95.5654212966
 20
62.6747780806
 11
95.065497449
 21
63.1835042838
  0
LINE
  5
263
100
AcDbEntity
  8
0
100
AcDbLine
 62
253
  6
CONTINUOUS
 10
102.410593701
 20
83.903503269
 11
102.388779921
 21
83.8973564214
  0
LINE
  5
264
100
AcDbEntity
  8
0
100
AcDbLine
 62
253
  6
CONTINUOUS
 10
102.4304246994
 20
83.9089270508
 11
102.410593701
 21
83.903503269
  0
LINE
  5
265
100
AcDbEntity
  8
0
100
AcDbLine
 62
253
  6
CONTINUOUS
 10
102.4483655763
 20
83.9136992008
 11
102.4304246994
 21
83.9089270508
  0
LINE
  5
266
100
AcDbEntity
  8
0
100
AcDbLine
 62
253
  6
CONTINUOUS
 10
102.464487967
 20
83.9178772806
 11
102.4483655763
 21
83.9136992008
  0
LINE
  5
267
100
AcDbEntity
  8
0
100
AcDbLine
 62
253
  6
CONTINUOUS
 10
102.479062554
 20
83.921562355
 11
102.464487967
 21
83.9178772806
  0
LINE
  5
268
100
AcDbEntity
  8
0
100
AcDbLine
 62
253
  6
CONTINUOUS
 10
102.4922742815
 20
83.9248301152
 11
102.479062554
 21
83.921562355
  0
LINE
  5
269
100
AcDbEntity
  8
0
100
AcDbLine
 62
253
  6
CONTINUOUS
 10
102.5044629733
 20
83.9277772411
 11
102.4922742815
 21
83.9248301152
  0
LINE
  5
26A
100
AcDbEntity
  8
0
100
AcDbLine
 62
253
  6
CONTINUOUS
 10
102.5158177279
 20
83.9304684395
 11
102.5044629733
 21
83.9277772411
  0
LINE
  5
26B
100
AcDbEntity
  8
0
100
AcDbLine
 62
253
  6
CONTINUOUS
 10
102.5314595382
 20
83.9340799389
 11
102.5158177279
 21
83.9304684395
  0
LINE
  5
26C
100
AcDbEntity
  8
0
100
AcDbLine
 62
253
  6
CONTINUOUS
 10
102.5453669294
 20
83.9371935231
 11
102.5314595382
 21
83.9340799389
  0
LINE
  5
26D
100
AcDbEntity
  8
0
100
AcDbLine
 62
253
  6
CONTINUOUS
 10
102.5570217693
 20
83.9397269331
 11
102.5453669294
 21
83.9371935231
  0
LWPOLYLINE
  5
26E
100
AcDbEntity
  8
0
100
AcDbPolyline
 62
253
  6
CONTINUOUS
 90
3
 70
0
 10
102.570689192
 20
83.9426062185
 10
102.5656977985
 20
83.941566025
 10
102.5570217693
 20
83.9397269331
  0
LINE
  5
26F
100
AcDbEntity
  8
0
100
AcDbLine
 62
253
  6
CONTINUOUS
 10
102.5717241209
 20
83.9428112895
 11
102.5714328261
 21
83.9427593743
  0
LWPOLYLINE
  5
270
100
AcDbEntity
  8
0
100
AcDbPolyline
 62
7
  6
CONTINUOUS
 90
6
 70
0
 10
101.4292741755
 20
83.3777728091
 10
101.4353228578
 20
83.3778956093
 10
101.4504254892
 20
83.3792819137
 10
101.4652996621
 20
83.3821954495
 10
101.4797933488
 20
83.3866048927
 10
101.4937578311
 20
83.3924635466
  0
LINE
  5
271
100
AcDbEntity
  8
0
100
AcDbLine
 62
253
  6
CONTINUOUS
 10
102.0584344254
 20
83.7915854817
 11
99.465497449
 21
83.7765002157
  0
LINE
  5
272
100
AcDbEntity
  8
0
100
AcDbLine
 62
7
  6
CONTINUOUS
 10
102.5717241209
 20
83.9428112895
 11
99.465497449
 21
83.9247397914
  0
LINE
  5
273
100
AcDbEntity
  8
0
100
AcDbLine
 62
253
  6
CONTINUOUS
 10
102.5717241209
 20
84.0306777681
 11
99.465497449
 21
84.01260627
  0
LINE
  5
274
100
AcDbEntity
  8
0
100
AcDbLine
 62
7
  6
CONTINUOUS
 10
101.0976463078
 20
83.2345116793
 11
99.465497449
 21
83.2316630393
  0
LINE
  5
275
100
AcDbEntity
  8
0
100
AcDbLine
 62
7
  6
CONTINUOUS
 10
99.465497449
 20
83.3776487779
 11
101.4291814416
 21
83.3776487779
  0
LINE
  5
276
100
AcDbEntity
  8
0
100
AcDbLine
 62
253
  6
CONTINUOUS
 10
99.465497449
 20
83.4940003456
 11
101.4395199059
 21
83.4940003456
  0
LWPOLYLINE
  5
277
100
AcDbEntity
  8
0
100
AcDbPolyline
 62
253
  6
CONTINUOUS
 90
7
 70
0
 10
101.5045194075
 20
83.3976379044
 10
101.5023858887
 20
83.3976415467
 10
101.4994746753
 20
83.3993174765
 10
101.495821781
 20
83.4026449611
 10
101.4914723948
 20
83.4075828373
 10
101.4864803214
 20
83.4140700199
 10
101.4809073166
 20
83.4220262579
  0
LINE
  5
278
100
AcDbEntity
  8
0
100
AcDbLine
 62
7
  6
CONTINUOUS
 10
99.465497449
 20
84.5597363153
 11
102.9759646402
 21
84.4046434344
  0
LWPOLYLINE
  5
279
100
AcDbEntity
  8
0
100
AcDbPolyline
 62
253
  6
CONTINUOUS
 90
14
 70
0
 10
101.429167624
 20
137.1916114248
 10
101.4291347867
 20
137.1916010089
 10
101.4289230263
 20
137.1909950364
 10
101.4289232342
 20
137.18939332
 10
101.4293110637
 20
137.1867139552
 10
101.4299108615
 20
137.1828787961
 10
101.4304761477
 20
137.1778167097
 10
101.4308161835
 20
137.1714588892
 10
101.4311217076
 20
137.1637665022
 10
101.4317184565
 20
137.1547454161
 10
101.4328093141
 20
137.1443903647
 10
101.4341913966
 20
137.1327305875
 10
101.4355817885
 20
137.1198840203
 10
101.4368861849
 20
137.1059603066
  0
LINE
  5
27A
100
AcDbEntity
  8
0
100
AcDbLine
 62
7
  6
CONTINUOUS
 10
101.1156218279
 20
85.084630102
 11
99.465497449
 21
85.084630102
  0
LINE
  5
27B
100
AcDbEntity
  8
0
100
AcDbLine
 62
7
  6
CONTINUOUS
 10
99.615497449
 20
85.234630102
 11
99.815497449
 21
85.234630102
  0
LINE
  5
27C
100
AcDbEntity
  8
0
100
AcDbLine
 62
7
  6
CONTINUOUS
 10
100.115497449
 20
85.234630102
 11
100.315497449
 21
85.234630102
  0
LINE
  5
27D
100
AcDbEntity
  8
0
100
AcDbLine
 62
7
  6
CONTINUOUS
 10
100.615497449
 20
85.234630102
 11
100.815497449
 21
85.234630102
  0
LINE
  5
27E
100
AcDbEntity
  8
0
100
AcDbLine
 62
7
  6
CONTINUOUS
 10
101.2151255469
 20
85.0796672923
 11
103.165497449
 21
84.884630102
  0
LWPOLYLINE
  5
27F
100
AcDbEntity
  8
0
100
AcDbPolyline
 62
253
  6
CONTINUOUS
 90
4
 70
0
 10
102.6639364779
 20
83.9692246185
 10
102.6499964662
 20
83.9733484473
 10
102.6353062959
 20
83.9800179863
 10
102.6199893508
 20
83.9891776706
  0
LWPOLYLINE
  5
280
100
AcDbEntity
  8
0
100
AcDbPolyline
 62
253
  6
CONTINUOUS
 90
4
 70
0
 10
102.6199983016
 20
136.5800884949
 10
102.604210062
 20
136.5685313175
 10
102.5880680274
 20
136.5546561461
 10
102.5717241209
 20
136.5385824359
  0
LWPOLYLINE
  5
281
100
AcDbEntity
  8
0
100
AcDbPolyline
 62
253
  6
CONTINUOUS
 90
4
 70
0
 10
102.6199893508
 20
83.9891776706
 10
102.6041839984
 20
84.0007496457
 10
102.5880446666
 20
84.0146255939
 10
102.5717241209
 20
84.0306777681
  0
LINE
  5
282
100
AcDbEntity
  8
0
100
AcDbLine
 62
7
  6
CONTINUOUS
 10
99.815497449
 20
135.334630102
 11
99.965497449
 21
135.484630102
  0
LINE
  5
283
100
AcDbEntity
  8
0
100
AcDbLine
 62
7
  6
CONTINUOUS
 10
100.315497449
 20
135.334630102
 11
100.465497449
 21
135.484630102
  0
LINE
  5
284
100
AcDbEntity
  8
0
100
AcDbLine
 62
7
  6
CONTINUOUS
 10
100.815497449
 20
135.334630102
 11
100.965497449
 21
135.484630102
  0
LINE
  5
285
100
AcDbEntity
  8
0
100
AcDbLine
 62
7
  6
CONTINUOUS
 10
99.815497449
 20
85.234630102
 11
99.965497449
 21
85.084630102
  0
LINE
  5
286
100
AcDbEntity
  8
0
100
AcDbLine
 62
7
  6
CONTINUOUS
 10
100.315497449
 20
85.234630102
 11
100.465497449
 21
85.084630102
  0
LINE
  5
287
100
AcDbEntity
  8
0
100
AcDbLine
 62
7
  6
CONTINUOUS
 10
100.815497449
 20
85.234630102
 11
100.965497449
 21
85.084630102
  0
LWPOLYLINE
  5
288
100
AcDbEntity
  8
0
100
AcDbPolyline
 62
253
  6
CONTINUOUS
 90
6
 70
0
 10
101.1963923017
 20
83.2903207034
 10
101.2048412366
 20
83.2798582605
 10
101.2122128439
 20
83.2719439056
 10
101.2183845622
 20
83.2666970691
 10
101.2233507034
 20
83.2641129628
 10
101.2270563271
 20
83.2642287082
  0
LWPOLYLINE
  5
289
100
AcDbEntity
  8
0
100
AcDbPolyline
 62
253
  6
CONTINUOUS
 90
3
 70
0
 10
101.480907317
 20
137.1472339586
 10
101.4748223233
 20
137.1379070908
 10
101.4683006154
 20
137.1273249706
  0
LWPOLYLINE
  5
28A
100
AcDbEntity
  8
0
100
AcDbPolyline
 62
253
  6
CONTINUOUS
 90
3
 70
0
 10
101.4809073166
 20
83.4220262579
 10
101.4748223221
 20
83.4313531268
 10
101.4683006135
 20
83.4419352469
  0
LWPOLYLINE
  5
28B
100
AcDbEntity
  8
0
100
AcDbPolyline
 62
253
  6
CONTINUOUS
 90
13
 70
0
 10
102.0584344254
 20
136.7776747223
 10
102.0658578556
 20
136.7918386269
 10
102.07318939
 20
136.8053470787
 10
102.0803383365
 20
136.8180329671
 10
102.0872162616
 20
136.8297393569
 10
102.0937380818
 20
136.8403214315
 10
102.0998231154
 20
136.8496482843
 10
102.1053960869
 20
136.8576045403
 10
102.1103880538
 20
136.8640917691
 10
102.1147372586
 20
136.8690297116
 10
102.1183898995
 20
136.8723572883
 10
102.1213007922
 20
136.8740333472
 10
102.1234339268
 20
136.8740371637
  0
LWPOLYLINE
  5
28C
100
AcDbEntity
  8
0
100
AcDbPolyline
 62
253
  6
CONTINUOUS
 90
12
 70
0
 10
101.1406438031
 20
137.1916114261
 10
101.1463225138
 20
137.2015170118
 10
101.1567887832
 20
137.2191878884
 10
101.1672111945
 20
137.2361241497
 10
101.1774308298
 20
137.2519931696
 10
101.1871989582
 20
137.2663353182
 10
101.19641119
 20
137.2789183073
 10
101.2048628492
 20
137.2893835149
 10
101.2122342904
 20
137.2973013621
 10
101.2184018843
 20
137.3025526614
 10
101.2233608989
 20
137.305141782
 10
101.2270457782
 20
137.305036548
  0
LWPOLYLINE
  5
28D
100
AcDbEntity
  8
0
100
AcDbPolyline
 62
253
  6
CONTINUOUS
 90
5
 70
0
 10
101.4683006154
 20
137.1273249706
 10
101.4614228709
 20
137.1156185059
 10
101.4542741721
 20
137.1029325136
 10
101.4469429531
 20
137.0894239277
 10
101.4395199059
 20
137.0752598584
  0
LWPOLYLINE
  5
28E
100
AcDbEntity
  8
0
100
AcDbPolyline
 62
253
  6
CONTINUOUS
 90
5
 70
0
 10
101.4683006135
 20
83.4419352469
 10
101.4614228688
 20
83.4536417102
 10
101.4542741702
 20
83.4663277
 10
101.446942952
 20
83.4798362818
 10
101.4395199059
 20
83.4940003456
  0
LWPOLYLINE
  5
28F
100
AcDbEntity
  8
0
100
AcDbPolyline
 62
253
  6
CONTINUOUS
 90
7
 70
0
 10
101.1406090735
 20
83.3776487779
 10
101.1463040533
 20
83.3677166379
 10
101.1567724804
 20
83.3500453673
 10
101.1671954229
 20
83.3331092278
 10
101.1774150345
 20
83.3172412082
 10
101.1871824452
 20
83.3029011116
 10
101.1963923017
 20
83.2903207034
  0
LWPOLYLINE
  5
290
100
AcDbEntity
  8
0
100
AcDbPolyline
 62
7
  6
CONTINUOUS
 90
7
 70
0
 10
103.1400311981
 20
84.3039299436
 10
103.1476019643
 20
84.290302706
 10
103.1539215367
 20
84.2776382358
 10
103.1589239918
 20
84.2659365331
 10
103.1625516387
 20
84.2551975977
 10
103.1647557832
 20
84.2454214297
 10
103.165497449
 20
84.2366080292
  0
LWPOLYLINE
  5
291
100
AcDbEntity
  8
0
100
AcDbPolyline
 62
253
  6
CONTINUOUS
 90
13
 70
0
 10
102.0584344254
 20
83.7915854817
 10
102.0658578146
 20
83.7774215438
 10
102.0731893163
 20
83.7639130639
 10
102.0803382381
 20
83.751227153
 10
102.0872161463
 20
83.7395207466
 10
102.0937379572
 20
83.7289386617
 10
102.0998229893
 20
83.7196118052
 10
102.1053959692
 20
83.7116555501
 10
102.1103879514
 20
83.7051683302
 10
102.1147371737
 20
83.7002304089
 10
102.118389835
 20
83.6969028613
 10
102.1213007553
 20
83.6952268322
 10
102.1234339274
 20
83.6952230407
  0
LINE
  5
292
100
AcDbEntity
  8
RACCORDO
100
AcDbLine
 62
7
  6
CONTINUOUS
 10
95.5654212966
 20
62.6747780806
 11
95.5650885171
 21
62.6836585496
  0
LINE
  5
293
100
AcDbEntity
  8
SMUSSO
100
AcDbLine
 62
7
  6
CONTINUOUS
 10
90.965497449
 20
63.584630102
 11
90.965497449
 21
156.984630102
  0
LINE
  5
294
100
AcDbEntity
  8
SMUSSO
100
AcDbLine
 62
7
  6
CONTINUOUS
 10
91.965497449
 20
62.584630102
 11
91.965497449
 21
157.984630102
  0
LWPOLYLINE
  5
295
100
AcDbEntity
  8
0
100
AcDbPolyline
 62
7
  6
CONTINUOUS
 90
3
 70
0
 10
103.1539221357
 20
136.2916231272
 10
103.147602426
 20
136.2789582224
 10
103.1400311981
 20
136.2653302604
  0
LWPOLYLINE
  5
296
100
AcDbEntity
  8
RACCORDO
100
AcDbPolyline
 62
7
  6
CONTINUOUS
 90
4
 70
0
 10
95.5650885171
 20
62.6836585496
 10
95.5647228898
 20
62.6947797091
 10
95.564301337
 20
62.710312242
 10
95.5638724048
 20
62.7301662797
  0
LINE
  5
297
100
AcDbEntity
  8
RACCORDO
100
AcDbLine
 62
7
  6
CONTINUOUS
 10
97.8671340912
 20
63.2707154801
 11
97.8711096909
 21
63.0433864974
  0
LINE
  5
298
100
AcDbEntity
  8
RACCORDO
100
AcDbLine
 62
7
  6
CONTINUOUS
 10
95.5638724048
 20
62.7301662797
 11
95.5631131822
 21
62.7820259656
  0
LINE
  5
299
100
AcDbEntity
  8
RACCORDO
100
AcDbLine
 62
7
  6
CONTINUOUS
 10
95.5631131822
 20
62.7820259656
 11
95.5626072019
 21
62.8490612056
  0
LINE
  5
29A
100
AcDbEntity
  8
RACCORDO
100
AcDbLine
 62
7
  6
CONTINUOUS
 10
95.5653415704
 20
157.1540414384
 11
95.5626072019
 21
157.5928715358
  0
LINE
  5
29B
100
AcDbEntity
  8
SMUSSO
100
AcDbLine
 62
7
  6
CONTINUOUS
 10
94.465497449
 20
157.984630102
 11
94.465497449
 21
62.584630102
  0
LINE
  5
29C
100
AcDbEntity
  8
SMUSSO
100
AcDbLine
 62
7
  6
CONTINUOUS
 10
94.965497449
 20
157.484630102
 11
94.965497449
 21
63.084630102
  0
LINE
  5
29D
100
AcDbEntity
  8
RACCORDO
100
AcDbLine
 62
7
  6
CONTINUOUS
 10
95.065497449
 20
63.1835042838
 11
95.065497449
 21
157.3857559202
  0
LINE
  5
29E
100
AcDbEntity
  8
RACCORDO
100
AcDbLine
 62
7
  6
CONTINUOUS
 10
95.5626072019
 20
62.8490612056
 11
95.562488395
 21
62.930844941
  0
LINE
  5
29F
100
AcDbEntity
  8
RACCORDO
100
AcDbLine
 62
7
  6
CONTINUOUS
 10
95.5626072019
 20
157.5928715358
 11
95.562488395
 21
157.6810182316
  0
LINE
  5
2A0
100
AcDbEntity
  8
RACCORDO
100
AcDbLine
 62
7
  6
CONTINUOUS
 10
95.5653415704
 20
63.4152187657
 11
95.5653415704
 21
157.1540414384
  0
LINE
  5
2A1
100
AcDbEntity
  8
RACCORDO
100
AcDbLine
 62
7
  6
CONTINUOUS
 10
95.562488395
 20
157.6810182316
 11
95.5628230716
 21
157.7556105274
  0
LINE
  5
2A2
100
AcDbEntity
  8
RACCORDO
100
AcDbLine
 62
7
  6
CONTINUOUS
 10
95.562488395
 20
62.930844941
 11
95.5634674614
 21
63.1274298519
  0
LINE
  5
2A3
100
AcDbEntity
  8
RACCORDO
100
AcDbLine
 62
7
  6
CONTINUOUS
 10
95.5634674614
 20
63.1274298519
 11
95.5653415704
 21
63.4152187657
  0
LWPOLYLINE
  5
2A4
100
AcDbEntity
  8
RACCORDO
100
AcDbPolyline
 62
7
  6
CONTINUOUS
 90
7
 70
0
 10
95.5628230716
 20
157.7556105274
 10
95.5634674614
 20
157.8151007928
 10
95.5638724048
 20
157.8390939244
 10
95.564301337
 20
157.8589479621
 10
95.5647228898
 20
157.874480495
 10
95.5650885171
 20
157.8856016544
 10
95.5654212966
 20
157.8944821235
  0
LINE
  5
2A5
100
AcDbEntity
  8
RACCORDO
100
AcDbLine
 62
7
  6
CONTINUOUS
 10
97.8702805828
 20
157.4719646775
 11
97.8672098696
 21
157.2985336911
  0
LWPOLYLINE
  5
2A6
100
AcDbEntity
  8
RACCORDO
100
AcDbPolyline
 62
7
  6
CONTINUOUS
 90
14
 70
0
 10
97.8711096909
 20
63.0433864974
 10
97.8723456946
 20
62.942791883
 10
97.8726261787
 20
62.8962191691
 10
97.8726313648
 20
62.8526277427
 10
97.8723612466
 20
62.8125680998
 10
97.8718516428
 20
62.7763709365
 10
97.8711460167
 20
62.744041228
 10
97.8702859639
 20
62.7155978908
 10
97.8692946252
 20
62.6911117103
 10
97.8682319079
 20
62.6708334666
 10
97.8672141226
 20
62.6550077646
 10
97.8663558768
 20
62.6437151978
 10
97.8657435073
 20
62.6369280556
 10
97.8654856329
 20
62.6346419182
  0
LINE
  5
2A7
100
AcDbEntity
  8
RACCORDO
100
AcDbLine
 62
7
  6
CONTINUOUS
 10
97.8656711903
 20
63.3913763362
 11
97.8671340912
 21
63.2707154801
  0
LINE
  5
2A8
100
AcDbEntity
  8
RACCORDO
100
AcDbLine
 62
7
  6
CONTINUOUS
 10
97.8654941726
 20
157.1169691927
 11
97.8656711903
 21
63.3913763362
  0
LINE
  5
2A9
100
AcDbEntity
  8
RACCORDO
100
AcDbLine
 62
7
  6
CONTINUOUS
 10
99.465497449
 20
156.3346011588
 11
99.465497449
 21
64.234630282
  0
LINE
  5
2AA
100
AcDbEntity
  8
RACCORDO
100
AcDbLine
 62
7
  6
CONTINUOUS
 10
97.8657406174
 20
157.1778804537
 11
97.8654836326
 21
157.1169692247
  0
LWPOLYLINE
  5
2AB
100
AcDbEntity
  8
RACCORDO
100
AcDbPolyline
 62
7
  6
CONTINUOUS
 90
3
 70
0
 10
97.8723540035
 20
157.6264530914
 10
97.8711400956
 20
157.525857402
 10
97.8702805828
 20
157.4719646775
  0
LINE
  5
2AC
100
AcDbEntity
  8
RACCORDO
100
AcDbLine
 62
7
  6
CONTINUOUS
 10
97.8672098696
 20
157.2985336911
 11
97.8657406174
 21
157.1778804537
  0
LINE
  5
2AD
100
AcDbEntity
  8
0
100
AcDbLine
 62
7
  6
CONTINUOUS
 10
99.465497449
 20
108.7100262546
 11
104.175967298
 21
108.8745194864
  0
LINE
  5
2AE
100
AcDbEntity
  8
0
100
AcDbLine
 62
7
  6
CONTINUOUS
 10
104.465497449
 20
109.784630102
 11
108.365497449
 21
109.784630102
  0
LWPOLYLINE
  5
2AF
100
AcDbEntity
  8
RACCORDO
100
AcDbPolyline
 62
7
  6
CONTINUOUS
 90
13
 70
0
 10
97.8654150456
 20
157.9345475768
 10
97.8656560546
 20
157.932290899
 10
97.8662594731
 20
157.9255258002
 10
97.8671162859
 20
157.9142475888
 10
97.8681422462
 20
157.8984256056
 10
97.8692199435
 20
157.8781429273
 10
97.8702257804
 20
157.8536523379
 10
97.8710976186
 20
157.8252076622
 10
97.8718147971
 20
157.7928770035
 10
97.8723358182
 20
157.7566789932
 10
97.8726172658
 20
157.7166185078
 10
97.87262333
 20
157.6730263847
 10
97.8723540035
 20
157.6264530914
  0
LWPOLYLINE
  5
2B0
100
AcDbEntity
  8
0
100
AcDbPolyline
 62
253
  6
CONTINUOUS
 90
3
 70
0
 10
102.5718231433
 20
136.6218901013
 10
102.5717804889
 20
136.6253068489
 10
102.5717241209
 20
136.6264489146
  0
LINE
  5
2B1
100
AcDbEntity
  8
0
100
AcDbLine
 62
253
  6
CONTINUOUS
 10
102.5718661202
 20
136.6083536819
 11
102.5718231433
 21
136.6218901013
  0
LINE
  5
2B2
100
AcDbEntity
  8
0
100
AcDbLine
 62
253
  6
CONTINUOUS
 10
101.0976456551
 20
137.1916114261
 11
101.0976463279
 21
137.334748513
  0
LINE
  5
2B3
100
AcDbEntity
  8
0
100
AcDbLine
 62
253
  6
CONTINUOUS
 10
101.0976463282
 20
83.2345116794
 11
101.0976461033
 21
83.3776487779
  0
LINE
  5
2B4
100
AcDbEntity
  8
0
100
AcDbLine
 62
253
  6
CONTINUOUS
 10
102.5718661202
 20
83.9609065222
 11
102.5717241209
 21
84.0306777681
  0
LINE
  5
2B5
100
AcDbEntity
  8
0
100
AcDbLine
 62
253
  6
CONTINUOUS
 10
102.9759646402
 20
136.1646167697
 11
102.9759646402
 21
135.6656768212
  0
LINE
  5
2B6
100
AcDbEntity
  8
0
100
AcDbLine
 62
253
  6
CONTINUOUS
 10
102.9759646402
 20
84.9035833829
 11
102.9759646402
 21
84.4046434344
  0
LINE
  5
2B7
100
AcDbEntity
  8
0
100
AcDbLine
 62
7
  6
CONTINUOUS
 10
103.165497449
 20
136.3729944424
 11
103.165497449
 21
135.684630102
  0
LINE
  5
2B8
100
AcDbEntity
  8
0
100
AcDbLine
 62
7
  6
CONTINUOUS
 10
103.165497449
 20
84.884630102
 11
103.165497449
 21
84.1962657617
  0
LINE
  5
2B9
100
AcDbEntity
  8
0
100
AcDbLine
 62
253
  6
CONTINUOUS
 10
102.5717241209
 20
136.5385824359
 11
102.5718661202
 21
136.6083536819
  0
LWPOLYLINE
  5
2BA
100
AcDbEntity
  8
0
100
AcDbPolyline
 62
7
  6
CONTINUOUS
 90
5
 70
0
 10
103.165497449
 20
136.3326521749
 10
103.1647558792
 20
136.3238394987
 10
103.1625519443
 20
136.3140637653
 10
103.1589245029
 20
136.3033249748
 10
103.1539221357
 20
136.2916231272
  0
LINE
  5
2BB
100
AcDbEntity
  8
0
100
AcDbLine
 62
7
  6
CONTINUOUS
 10
104.465497449
 20
110.784630102
 11
108.365497449
 21
110.784630102
  0
LINE
  5
2BC
100
AcDbEntity
  8
0
100
AcDbLine
 62
7
  6
CONTINUOUS
 10
99.465497449
 20
111.8592339495
 11
104.175967298
 21
111.6947407177
  0
LINE
  5
2BD
100
AcDbEntity
  8
0
100
AcDbLine
 62
253
  6
CONTINUOUS
 10
101.4368861849
 20
137.1059603066
 11
101.4395199059
 21
137.0752598584
  0
LINE
  5
2BE
100
AcDbEntity
  8
0
100
AcDbLine
 62
253
  6
CONTINUOUS
 10
104.175967298
 20
111.6947407177
 11
104.175967298
 21
108.8745194864
  0
LINE
  5
2BF
100
AcDbEntity
  8
0
100
AcDbLine
 62
7
  6
CONTINUOUS
 10
104.465497449
 20
111.3948731755
 11
104.465497449
 21
109.1743870546
  0
LWPOLYLINE
  5
2C0
100
AcDbEntity
  8
0
100
AcDbPolyline
 62
253
  6
CONTINUOUS
 90
4
 70
0
 10
102.5717241209
 20
83.9428112895
 10
102.5717804889
 20
83.9439533552
 10
102.5718231433
 20
83.9473701028
 10
102.5718661202
 20
83.9609065222
  0
LINE
  5
2C1
100
AcDbEntity
  8
0
100
AcDbLine
 62
253
  6
CONTINUOUS
 10
101.4395199059
 20
83.4940003456
 11
101.4309862408
 21
83.4018414762
  0
LWPOLYLINE
  5
2C2
100
AcDbEntity
  8
0
100
AcDbPolyline
 62
253
  6
CONTINUOUS
 90
9
 70
0
 10
101.4309862408
 20
83.4018414762
 10
101.4301429989
 20
83.3935243686
 10
101.4297051764
 20
83.3897475033
 10
101.4292835675
 20
83.3863318909
 10
101.4290162421
 20
83.3833544618
 10
101.4290234881
 20
83.3809027006
 10
101.4291850176
 20
83.3790725256
 10
101.4292780364
 20
83.3779598308
 10
101.429174443
 20
83.3776492039
  0
LINE
  5
2C3
100
AcDbEntity
  8
0
100
AcDbLine
 62
253
  6
CONTINUOUS
 10
108.365497449
 20
109.784630102
 11
108.365497449
 21
110.784630102
  0
LINE
  5
2C4
100
AcDbEntity
  8
0
100
AcDbLine
 62
7
  6
CONTINUOUS
 10
99.465497449
 20
85.084630102
 11
99.615497449
 21
85.234630102
  0
LINE
  5
2C5
100
AcDbEntity
  8
0
100
AcDbLine
 62
7
  6
CONTINUOUS
 10
99.965497449
 20
85.084630102
 11
100.115497449
 21
85.234630102
  0
LINE
  5
2C6
100
AcDbEntity
  8
0
100
AcDbLine
 62
7
  6
CONTINUOUS
 10
100.465497449
 20
85.084630102
 11
100.615497449
 21
85.234630102
  0
LINE
  5
2C7
100
AcDbEntity
  8
0
100
AcDbLine
 62
7
  6
CONTINUOUS
 10
99.465497449
 20
135.484630102
 11
99.615497449
 21
135.334630102
  0
LINE
  5
2C8
100
AcDbEntity
  8
0
100
AcDbLine
 62
7
  6
CONTINUOUS
 10
99.965497449
 20
135.484630102
 11
100.115497449
 21
135.334630102
  0
LINE
  5
2C9
100
AcDbEntity
  8
0
100
AcDbLine
 62
7
  6
CONTINUOUS
 10
100.465497449
 20
135.484630102
 11
100.615497449
 21
135.334630102
  0
LINE
  5
2CA
100
AcDbEntity
  8
0
100
AcDbLine
 62
253
  6
CONTINUOUS
 10
102.0584344254
 20
83.7915854817
 11
101.4395199059
 21
83.4940003456
  0
LINE
  5
2CB
100
AcDbEntity
  8
0
100
AcDbLine
 62
253
  6
CONTINUOUS
 10
102.5717241209
 20
84.0306777681
 11
103.1400311981
 21
84.3039299436
  0
LINE
  5
2CC
100
AcDbEntity
  8
0
100
AcDbLine
 62
7
  6
CONTINUOUS
 10
101.226151493
 20
83.2637936478
 11
103.165497449
 21
84.1962657617
  0
LWPOLYLINE
  5
2CD
100
AcDbEntity
  8
0
100
AcDbPolyline
 62
253
  6
CONTINUOUS
 90
4
 70
0
 10
102.6999778047
 20
83.9724356166
 10
102.6890500997
 20
83.9687614942
 10
102.6769977283
 20
83.9676889611
 10
102.6639364779
 20
83.9692246185
  0
LWPOLYLINE
  5
2CE
100
AcDbEntity
  8
0
100
AcDbPolyline
 62
253
  6
CONTINUOUS
 90
9
 70
0
 10
102.2281379558
 20
83.8468587835
 10
102.1406465988
 20
83.81721402
 10
102.1277468117
 20
83.8129327749
 10
102.1152283505
 20
83.8088404868
 10
102.1031141171
 20
83.8049528387
 10
102.0913797586
 20
83.8012779423
 10
102.0800171499
 20
83.7978220959
 10
102.0690343928
 20
83.7945898225
 10
102.0584314801
 20
83.7915854646
  0
LINE
  5
2CF
100
AcDbEntity
  8
0
100
AcDbLine
 62
253
  6
CONTINUOUS
 10
102.2608179027
 20
83.8577621156
 11
102.2281379558
 21
83.8468587835
  0
LWPOLYLINE
  5
2D0
100
AcDbEntity
  8
0
100
AcDbPolyline
 62
253
  6
CONTINUOUS
 90
6
 70
0
 10
102.3519553029
 20
83.8865601494
 10
102.3383037786
 20
83.8824280496
 10
102.3239775113
 20
83.8780167458
 10
102.3090576669
 20
83.8733473766
 10
102.2933861466
 20
83.8683639166
 10
102.2608179027
 20
83.8577621156
  0
LWPOLYLINE
  5
2D1
100
AcDbEntity
  8
0
100
AcDbPolyline
 62
253
  6
CONTINUOUS
 90
3
 70
0
 10
102.388779921
 20
83.8973564214
 10
102.3770897521
 20
83.8939853636
 10
102.3519553029
 20
83.8865601494
  0
LINE
  5
2D2
100
AcDbEntity
  8
0
100
AcDbLine
 62
7
  6
CONTINUOUS
 10
101.2151255469
 20
135.4895929118
 11
103.165497449
 21
135.684630102
  0
LINE
  5
2D3
100
AcDbEntity
  8
0
100
AcDbLine
 62
7
  6
CONTINUOUS
 10
99.465497449
 20
136.0095238888
 11
102.9759646402
 21
136.1646167697
  0
LINE
  5
2D4
100
AcDbEntity
  8
0
100
AcDbLine
 62
7
  6
CONTINUOUS
 10
99.615497449
 20
135.334630102
 11
99.815497449
 21
135.334630102
  0
LINE
  5
2D5
100
AcDbEntity
  8
0
100
AcDbLine
 62
7
  6
CONTINUOUS
 10
100.115497449
 20
135.334630102
 11
100.315497449
 21
135.334630102
  0
LINE
  5
2D6
100
AcDbEntity
  8
0
100
AcDbLine
 62
7
  6
CONTINUOUS
 10
100.615497449
 20
135.334630102
 11
100.815497449
 21
135.334630102
  0
LINE
  5
2D7
100
AcDbEntity
  8
0
100
AcDbLine
 62
7
  6
CONTINUOUS
 10
99.465497449
 20
135.484630102
 11
101.1156218279
 21
135.484630102
  0
LINE
  5
2D8
100
AcDbEntity
  8
0
100
AcDbLine
 62
253
  6
CONTINUOUS
 10
102.5717241209
 20
136.5385824359
 11
99.465497449
 21
136.5566539341
  0
LINE
  5
2D9
100
AcDbEntity
  8
0
100
AcDbLine
 62
253
  6
CONTINUOUS
 10
102.5454690961
 20
136.6320442313
 11
102.5570828636
 21
136.6295204824
  0
LINE
  5
2DA
100
AcDbEntity
  8
0
100
AcDbLine
 62
253
  6
CONTINUOUS
 10
102.5315877533
 20
136.6351508051
 11
102.5454690961
 21
136.6320442313
  0
LINE
  5
2DB
100
AcDbEntity
  8
0
100
AcDbLine
 62
253
  6
CONTINUOUS
 10
102.5159955589
 20
136.6387500612
 11
102.5315877533
 21
136.6351508051
  0
LINE
  5
2DC
100
AcDbEntity
  8
0
100
AcDbLine
 62
253
  6
CONTINUOUS
 10
102.5046806408
 20
136.6414307913
 11
102.5159955589
 21
136.6387500612
  0
LINE
  5
2DD
100
AcDbEntity
  8
0
100
AcDbLine
 62
253
  6
CONTINUOUS
 10
102.4925314822
 20
136.6443672484
 11
102.5046806408
 21
136.6414307913
  0
LINE
  5
2DE
100
AcDbEntity
  8
0
100
AcDbLine
 62
253
  6
CONTINUOUS
 10
102.4793765399
 20
136.6476195134
 11
102.4925314822
 21
136.6443672484
  0
LINE
  5
2DF
100
AcDbEntity
  8
0
100
AcDbLine
 62
253
  6
CONTINUOUS
 10
102.4648565792
 20
136.6512886604
 11
102.4793765399
 21
136.6476195134
  0
LINE
  5
2E0
100
AcDbEntity
  8
0
100
AcDbLine
 62
253
  6
CONTINUOUS
 10
102.4487894037
 20
136.6554499793
 11
102.4648565792
 21
136.6512886604
  0
LINE
  5
2E1
100
AcDbEntity
  8
0
100
AcDbLine
 62
253
  6
CONTINUOUS
 10
102.4309331553
 20
136.6601963512
 11
102.4487894037
 21
136.6554499793
  0
LINE
  5
2E2
100
AcDbEntity
  8
0
100
AcDbLine
 62
253
  6
CONTINUOUS
 10
102.4112004797
 20
136.6655888233
 11
102.4309331553
 21
136.6601963512
  0
LWPOLYLINE
  5
2E3
100
AcDbEntity
  8
0
100
AcDbPolyline
 62
253
  6
CONTINUOUS
 90
7
 70
0
 10
102.0584301689
 20
136.7776747471
 10
102.0690077022
 20
136.7746783937
 10
102.0799760997
 20
136.7714505743
 10
102.0913353685
 20
136.7679956718
 10
102.1030751551
 20
136.7643193226
 10
102.1152058365
 20
136.7604268196
 10
102.1277585212
 20
136.7563232282
  0
LINE
  5
2E4
100
AcDbEntity
  8
0
100
AcDbLine
 62
253
  6
CONTINUOUS
 10
102.3895012361
 20
136.6716977517
 11
102.4112004797
 21
136.6655888233
  0
LWPOLYLINE
  5
2E5
100
AcDbEntity
  8
0
100
AcDbPolyline
 62
253
  6
CONTINUOUS
 90
7
 70
0
 10
102.294449115
 20
136.7005554068
 10
102.3101650517
 20
136.6955637266
 10
102.3250681422
 20
136.6909055441
 10
102.3393347483
 20
136.6865178941
 10
102.3529162561
 20
136.6824119293
 10
102.3657451207
 20
136.678597674
 10
102.3895012361
 20
136.6716977517
  0
LINE
  5
2E6
100
AcDbEntity
  8
0
100
AcDbLine
 62
253
  6
CONTINUOUS
 10
102.2616856017
 20
136.7112117389
 11
102.294449115
 21
136.7005554068
  0
LINE
  5
2E7
100
AcDbEntity
  8
0
100
AcDbLine
 62
253
  6
CONTINUOUS
 10
102.2287132491
 20
136.7222070059
 11
102.2616856017
 21
136.7112117389
  0
LWPOLYLINE
  5
2E8
100
AcDbEntity
  8
0
100
AcDbPolyline
 62
253
  6
CONTINUOUS
 90
7
 70
0
 10
102.6999778047
 20
136.5968245875
 10
102.6889849568
 20
136.6005121164
 10
102.6768842428
 20
136.6015690394
 10
102.6638000982
 20
136.6000068682
 10
102.6498866867
 20
136.5958703004
 10
102.6352624804
 20
136.5892190971
 10
102.6199983016
 20
136.5800884949
  0
LINE
  5
2E9
100
AcDbEntity
  8
0
100
AcDbLine
 62
253
  6
CONTINUOUS
 10
102.1277585212
 20
136.7563232282
 11
102.1541006246
 21
136.7475248819
  0
LINE
  5
2EA
100
AcDbEntity
  8
0
100
AcDbLine
 62
253
  6
CONTINUOUS
 10
102.1541006246
 20
136.7475248819
 11
102.2287132491
 21
136.7222070059
  0
LWPOLYLINE
  5
2EB
100
AcDbEntity
  8
0
100
AcDbPolyline
 62
7
  6
CONTINUOUS
 90
3
 70
0
 10
101.4937578311
 20
137.1767966575
 10
101.4797933615
 20
137.1826553068
 10
101.4652996864
 20
137.1870647485
  0
LINE
  5
2EC
100
AcDbEntity
  8
0
100
AcDbLine
 62
253
  6
CONTINUOUS
 10
101.4395199059
 20
137.0752598584
 11
102.0584344254
 21
136.7776747223
  0
LINE
  5
2ED
100
AcDbEntity
  8
0
100
AcDbLine
 62
253
  6
CONTINUOUS
 10
103.1400311981
 20
136.2653302604
 11
102.5717241209
 21
136.5385824359
  0
LINE
  5
2EE
100
AcDbEntity
  8
0
100
AcDbLine
 62
7
  6
CONTINUOUS
 10
101.226151493
 20
137.3054665562
 11
103.165497449
 21
136.3729944424
  0
LWPOLYLINE
  5
2EF
100
AcDbEntity
  8
0
100
AcDbPolyline
 62
253
  6
CONTINUOUS
 90
7
 70
0
 10
101.5045194075
 20
137.1716222997
 10
101.5023858874
 20
137.1716186586
 10
101.4994746734
 20
137.1699427307
 10
101.4958217792
 20
137.1666152484
 10
101.4914723934
 20
137.1616773747
 10
101.4864803209
 20
137.1551901946
 10
101.480907317
 20
137.1472339586
  0
LINE
  5
2F0
100
AcDbEntity
  8
0
100
AcDbLine
 62
253
  6
CONTINUOUS
 10
99.465497449
 20
137.0752598584
 11
101.4395199059
 21
137.0752598584
  0
LINE
  5
2F1
100
AcDbEntity
  8
0
100
AcDbLine
 62
7
  6
CONTINUOUS
 10
99.465497449
 20
137.1916114261
 11
101.4291814416
 21
137.1916114261
  0
LINE
  5
2F2
100
AcDbEntity
  8
0
100
AcDbLine
 62
7
  6
CONTINUOUS
 10
101.0976463078
 20
137.3347485247
 11
99.465497449
 21
137.3375971648
  0
LINE
  5
2F3
100
AcDbEntity
  8
0
100
AcDbLine
 62
7
  6
CONTINUOUS
 10
102.5717241209
 20
136.6264489146
 11
99.465497449
 21
136.6445204127
  0
LINE
  5
2F4
100
AcDbEntity
  8
0
100
AcDbLine
 62
253
  6
CONTINUOUS
 10
102.0584344254
 20
136.7776747223
 11
99.465497449
 21
136.7927599884
  0
LINE
  5
2F5
100
AcDbEntity
  8
0
100
AcDbLine
 62
7
  6
CONTINUOUS
 10
101.4353228999
 20
137.1913645931
 11
101.4292741755
 21
137.1914873949
  0
LINE
  5
2F6
100
AcDbEntity
  8
0
100
AcDbLine
 62
253
  6
CONTINUOUS
 10
102.5714330879
 20
136.626500708
 11
102.5717241209
 21
136.6264489146
  0
LWPOLYLINE
  5
2F7
100
AcDbEntity
  8
0
100
AcDbPolyline
 62
7
  6
CONTINUOUS
 90
3
 70
0
 10
101.4652996864
 20
137.1870647485
 10
101.4504255235
 20
137.1899782855
 10
101.4353228999
 20
137.1913645931
  0
LWPOLYLINE
  5
2F8
100
AcDbEntity
  8
0
100
AcDbPolyline
 62
253
  6
CONTINUOUS
 90
3
 70
0
 10
102.5570828636
 20
136.6295204824
 10
102.5632248317
 20
136.6282164709
 10
102.5714330879
 20
136.626500708
  0
LINE
  5
2F9
100
AcDbEntity
  8
SMUSSO
100
AcDbLine
 62
7
  6
CONTINUOUS
 10
94.965497449
 20
63.084630102
 11
94.465497449
 21
62.584630102
  0
LINE
  5
2FA
100
AcDbEntity
  8
RACCORDO
100
AcDbLine
 62
7
  6
CONTINUOUS
 10
97.8654945963
 20
62.6346272493
 11
99.4654976289
 21
64.234630282
  0
LINE
  5
2FB
100
AcDbEntity
  8
SMUSSO
100
AcDbLine
 62
7
  6
CONTINUOUS
 10
94.9654974495
 20
157.4846301015
 11
94.46549745
 21
157.984630101
  0
LINE
  5
2FC
100
AcDbEntity
  8
RACCORDO
100
AcDbLine
 62
7
  6
CONTINUOUS
 10
99.4653816763
 20
156.3345143341
 11
97.8654212753
 21
157.9345413468
  0
LINE
  5
2FD
100
AcDbEntity
  8
RACCORDO
100
AcDbLine
 62
253
  6
CONTINUOUS
 10
97.8654804233
 20
63.452282125
 11
99.4655222013
 21
64.284394809
  0
LINE
  5
2FE
100
AcDbEntity
  8
RACCORDO
100
AcDbLine
 62
253
  6
CONTINUOUS
 10
97.8654941134
 20
157.11697096
 11
99.4654976593
 21
156.2846299926
  0
LINE
  5
2FF
100
AcDbEntity
  8
RACCORDO
100
AcDbLine
 62
7
  6
CONTINUOUS
 10
95.5654212966
 20
157.8944821235
 11
97.8654778942
 21
157.9346297607
  0
LINE
  5
300
100
AcDbEntity
  8
RACCORDO
100
AcDbLine
 62
253
  6
CONTINUOUS
 10
95.5654212966
 20
157.0944821235
 11
97.8654941726
 21
157.1169691927
  0
LINE
  5
301
100
AcDbEntity
  8
0
100
AcDbLine
 62
7
  6
CONTINUOUS
 10
94.965497449
 20
154.284630102
 11
95.065497449
 21
154.284630102
  0
LINE
  5
302
100
AcDbEntity
  8
SMUSSO
100
AcDbLine
 62
253
  6
CONTINUOUS
 10
90.965497449
 20
156.984630102
 11
94.965497449
 21
156.984630102
  0
LINE
  5
303
100
AcDbEntity
  8
SMUSSO
100
AcDbLine
 62
7
  6
CONTINUOUS
 10
91.965497449
 20
157.984630102
 11
94.465497449
 21
157.984630102
  0
ARC
  5
304
100
AcDbEntity
  8
SMUSSO
100
AcDbCircle
 62
7
  6
CONTINUOUS
 10
119.3817319261
 20
63.584630102
 40
1.0
100
AcDbArc
 50
180.0
 51
270.0
  0
ARC
  5
305
100
AcDbEntity
  8
SMUSSO
100
AcDbCircle
 62
7
  6
CONTINUOUS
 10
119.3817319261
 20
156.984630102
 40
1.0
100
AcDbArc
 50
90.0
 51
180.0
  0
ARC
  5
306
100
AcDbEntity
  8
SMUSSO
100
AcDbCircle
 62
7
  6
CONTINUOUS
 10
212.7817319261
 20
63.584630102
 40
1.0
100
AcDbArc
 50
270.0
 51
360.0
  0
ARC
  5
307
100
AcDbEntity
  8
SMUSSO
100
AcDbCircle
 62
7
  6
CONTINUOUS
 10
212.7817319261
 20
156.984630102
 40
1.0
100
AcDbArc
 50
0.0
 51
90.0
  0
ARC
  5
308
100
AcDbEntity
  8
0
100
AcDbCircle
 62
7
  6
CONTINUOUS
 10
101.1156218279
 20
84.084630102
 40
1.0
100
AcDbArc
 50
84.2894068625
 51
90.0
  0
ARC
  5
309
100
AcDbEntity
  8
0
100
AcDbCircle
 62
7
  6
CONTINUOUS
 10
101.1156218279
 20
136.484630102
 40
1.0
100
AcDbArc
 50
270.0
 51
275.7105931375
  0
ARC
  5
30A
100
AcDbEntity
  8
0
100
AcDbCircle
 62
7
  6
CONTINUOUS
 10
108.365497449
 20
110.284630102
 40
0.5
100
AcDbArc
 50
270.0
 51
90.0
  0
ARC
  5
30B
100
AcDbEntity
  8
0
100
AcDbCircle
 62
7
  6
CONTINUOUS
 10
101.0971223918
 20
83.53463059
 40
0.3
100
AcDbArc
 50
270.1010881063
 51
295.6652886673
  0
ARC
  5
30C
100
AcDbEntity
  8
0
100
AcDbCircle
 62
7
  6
CONTINUOUS
 10
101.0971223918
 20
137.0346296141
 40
0.3
100
AcDbArc
 50
64.3347113327
 51
89.8989118937
  0
ARC
  5
30D
100
AcDbEntity
  8
0
100
AcDbCircle
 62
7
  6
CONTINUOUS
 10
104.165497449
 20
111.3949234696
 40
0.3
100
AcDbArc
 50
0.0
 51
88.0
  0
ARC
  5
30E
100
AcDbEntity
  8
0
100
AcDbCircle
 62
7
  6
CONTINUOUS
 10
104.165497449
 20
109.1743367345
 40
0.3
100
AcDbArc
 50
272.0
 51
360.0
  0
ARC
  5
30F
100
AcDbEntity
  8
0
100
AcDbCircle
 62
7
  6
CONTINUOUS
 10
102.5699788015
 20
84.2428062126
 40
0.3
100
AcDbArc
 50
270.3333333333
 51
295.6790773803
  0
ARC
  5
310
100
AcDbEntity
  8
0
100
AcDbCircle
 62
7
  6
CONTINUOUS
 10
102.5699788015
 20
136.3264539915
 40
0.3
100
AcDbArc
 50
64.3209226182
 51
89.6666666667
  0
ELLIPSE
  5
311
100
AcDbEntity
  8
0
100
AcDbEllipse
 62
7
  6
CONTINUOUS
 10
102.965497449
 20
136.3644287971
 30
0.0
 11
-0.1417119467
 21
0.1422961243
 31
0.0
 40
0.9918061237
 41
-3.8766878413
 42
-2.8684065644
  0
ELLIPSE
  5
312
100
AcDbEntity
  8
0
100
AcDbEllipse
 62
7
  6
CONTINUOUS
 10
102.965497449
 20
84.204831407
 30
0.0
 11
0.1417119467
 21
0.1422961243
 31
0.0
 40
0.9918061237
 41
-0.2731860892
 42
0.7350951877
  0
ENDSEC
  0
SECTION
  2
OBJECTS
  0
DICTIONARY
  5
C
100
AcDbDictionary
280
0
281
1
  3
ACAD_GROUP
350
D
  3
ACAD_MLINESTYLE
350
17
  3
ACAD_LAYOUT
350
1A
  3
ACAD_PLOTSETTINGS
350
19
  3
ACAD_PLOTSTYLENAME
350
E
  0
DICTIONARY
  5
D
102
{ACAD_REACTORS
330
C
102
}
100
AcDbDictionary
280
0
281
1
  0
ACDBDICTIONARYWDFLT
  5
E
102
{ACAD_REACTORS
330
C
102
}
100
AcDbDictionary
281
1
  3
Normal
350
F
100
AcDbDictionaryWithDefault
340
F
  0
DICTIONARY
  5
17
102
{ACAD_REACTORS
330
C
102
}
100
AcDbDictionary
280
0
281
1
  3
Standard
350
18
  0
DICTIONARY
  5
19
102
{ACAD_REACTORS
330
C
102
}
100
AcDbDictionary
281
1
  0
DICTIONARY
  5
1A
102
{ACAD_REACTORS
330
C
102
}
100
AcDbDictionary
281
1
  3
Model
350
313
  3
Layout1
350
314
  0
ACDBPLACEHOLDER
  5
F
102
{ACAD_REACTORS
330
E
102
}
  0
MLINESTYLE
  5
18
102
{ACAD_REACTORS
330
17
102
}
100
AcDbMlineStyle
  2
STANDARD
 70
0
  3

 62
256
 51
90.0
 52
90.0
 71
2
 49
0.5
 62
256
  6
BYLAYER
 49
-0.5
 62
256
  6
BYLAYER
  0
LAYOUT
  5
313
102
{ACAD_REACTORS
330
1A
102
}
100
AcDbPlotSettings
  1

  2
none_device
  4
ISO_A4_(297.00_x_210.00_MM)
  6

 40
0.0
 41
0.0
 42
0.0
 43
0.0
 44
297.0
 45
210.0
 46
0.0
 47
0.0
 48
0.0
 49
0.0
140
0.0
141
0.0
142
1.0
143
1.0
 70
1024
 72
1
 73
0
 74
0
  7

 75
0
147
1.0
148
0.0
149
0.0
100
AcDbLayout
  1
Model
 70
0
 71
0
 10
0.0
 20
0.0
 11
297.0
 21
210.0
 12
0.0
 22
0.0
 32
0.0
 14
0.0
 24
0.0
 34
0.0
 15
0.0
 25
0.0
 35
0.0
146
0.0
 13
0.0
 23
0.0
 33
0.0
 16
1.0
 26
0.0
 36
0.0
 17
0.0
 27
1.0
 37
0.0
 76
0
330
21B
345
0
346
0
  0
LAYOUT
  5
314
102
{ACAD_REACTORS
330
1A
102
}
100
AcDbPlotSettings
  1

  2
none_device
  4
ISO_A4_(297.00_x_210.00_MM)
  6

 40
0.0
 41
0.0
 42
0.0
 43
0.0
 44
297.0
 45
210.0
 46
0.0
 47
0.0
 48
0.0
 49
0.0
140
0.0
141
0.0
142
1.0
143
1.0
 70
0
 72
1
 73
0
 74
0
  7

 75
0
147
1.0
148
0.0
149
0.0
100
AcDbLayout
  1
Layout1
 70
0
 71
1
 10
0.0
 20
0.0
 11
297.0
 21
210.0
 12
0.0
 22
0.0
 32
0.0
 14
0.0
 24
0.0
 34
0.0
 15
0.0
 25
0.0
 35
0.0
146
0.0
 13
0.0
 23
0.0
 33
0.0
 16
1.0
 26
0.0
 36
0.0
 17
0.0
 27
1.0
 37
0.0
 76
0
330
21C
345
0
346
0
  0
ENDSEC
  0
EOF
