  0
SECTION
  2
HEADER
  9
$ACADVER
  1
AC1021
  9
$DWGCODEPAGE
  3
ANSI_1252
  9
$EXTMAX
 10
297.0
 20
210.0
 30
0.0
  9
$EXTMIN
 10
0.0
 20
0.0
 30
0.0
  9
$LIMMIN
 10
0.0
 20
0.0
  9
$LIMMAX
 10
297.0
 20
210.0
  9
$VIEWCTR
 10
148.5
 20
105.0
  9
$VIEWSIZE
 40
210.0
  9
$CLAYER
  8
0
  9
$LTSCALE
 40
16.335
  9
$CELTYPE
  6
BYLAYER
  9
$DIMSCALE
 40
1.0
  9
$DIMASZ
 40
3.0
  9
$DIMEXO
 40
0.5
  9
$DIMDLI
 40
11.286
  9
$DIMEXE
 40
1.5
  9
$DIMCEN
 40
2.673
  9
$DIMLFAC
 40
1.0
  9
$DIMBLK
  1
_FILLED
  9
$DIMALT
 70
0
  9
$DIMALTF
 40
25.4
  9
$DIMTXT
 40
3.0
  9
$DIMTOL
 70
1
  9
$DIMLIM
 70
0
  9
$DIMTFAC
 40
1.0
  9
$DIMTP
 40
0.01
  9
$DIMTM
 40
0.01
  9
$DIMGAP
 40
0.625
  9
$DIMDSEP
 70
44
  9
$AUNITS
 70
0
  9
$PDMODE
 70
3
  9
$PDSIZE
 40
3.0
  9
$HANDSEED
  5
3A4
  9
$TILEMODE
 70
1
  9
$MEASUREMENT
 70
1
  9
$INSUNITS
 70
4
  0
ENDSEC
  0
SECTION
  2
CLASSES
  0
CLASS
  1
ACDBDICTIONARYWDFLT
  2
AcDbDictionaryWithDefault
  3
AutoCAD 2000
 90
0
 91
1
280
0
281
0
  0
CLASS
  1
ACDBPLACEHOLDER
  2
AcDbPlaceHolder
  3
AutoCAD 2000
 90
0
 91
1
280
0
281
0
  0
CLASS
  1
LAYOUT
  2
AcDbLayout
  3
AutoCAD 2000
 90
0
 91
0
280
0
281
0
  0
ENDSEC
  0
SECTION
  2
TABLES
  0
TABLE
  2
VPORT
  5
8
100
AcDbSymbolTable
 70
2
  0
VPORT
  5
1F4
100
AcDbSymbolTableRecord
100
AcDbViewportTableRecord
  2
*ACTIVE
 70
0
 10
0.0
 20
0.0
 11
1.0
 21
1.0
 12
148.5
 22
105.0
 13
0.0
 23
0.0
 14
1.0
 24
1.0
 15
0.0
 25
0.0
 16
0.0
 26
0.0
 36
1.0
 17
0.0
 27
0.0
 37
0.0
 40
210.0
 41
1.4142857143
 42
50.0
 43
0.0
 44
0.0
 50
0.0
 51
0.0
 71
0
 72
100
 73
1
 74
1
 75
0
 76
0
 77
0
 78
0
  0
ENDTAB
  0
TABLE
  2
LTYPE
  5
5
100
AcDbSymbolTable
 70
6
  0
LTYPE
  5
14
100
AcDbSymbolTableRecord
100
AcDbLinetypeTableRecord
  2
BYBLOCK
 70
0
  3

 72
65
 73
0
 40
0.0
  0
LTYPE
  5
15
100
AcDbSymbolTableRecord
100
AcDbLinetypeTableRecord
  2
BYLAYER
 70
0
  3

 72
65
 73
0
 40
0.0
  0
LTYPE
  5
16
100
AcDbSymbolTableRecord
100
AcDbLinetypeTableRecord
  2
CONTINUOUS
 70
64
  3
Solid line
 72
65
 73
0
 40
0.0
  0
LTYPE
  5
1F5
100
AcDbSymbolTableRecord
100
AcDbLinetypeTableRecord
  2
CENTER
 70
64
  3
____ _ ____ _ ____ _ ____ _ ____ _ ____ _ ____
 72
65
 73
4
 40
0.6
 49
0.375
 74
0
 49
-0.075
 74
0
 49
0.075
 74
0
 49
-0.075
 74
0
  0
LTYPE
  5
1F6
100
AcDbSymbolTableRecord
100
AcDbLinetypeTableRecord
  2
HIDDEN
 70
64
  3
- - - - - - - - - - - - - - - - - - - -
 72
65
 73
2
 40
0.2
 49
0.1
 74
0
 49
-0.1
 74
0
  0
LTYPE
  5
1F7
100
AcDbSymbolTableRecord
100
AcDbLinetypeTableRecord
  2
PHANTOM
 70
64
  3
_____ _ _ _____ _ _ _____ _ _ _____
 72
65
 73
6
 40
0.8
 49
0.45
 74
0
 49
-0.05
 74
0
 49
0.1
 74
0
 49
-0.05
 74
0
 49
0.1
 74
0
 49
-0.05
 74
0
  0
LTYPE
  5
1F8
100
AcDbSymbolTableRecord
100
AcDbLinetypeTableRecord
  2
DOT
 70
64
  3
. . . . . . . . . . . . . . . . . . . .
 72
65
 73
2
 40
0.2
 49
0.1
 74
0
 49
-0.1
 74
0
  0
LTYPE
  5
1F9
100
AcDbSymbolTableRecord
100
AcDbLinetypeTableRecord
  2
DASHED
 70
64
  3
- - - - - - - - - - - - - - - - - - - -
 72
65
 73
2
 40
0.2
 49
0.1
 74
0
 49
-0.1
 74
0
  0
ENDTAB
  0
TABLE
  2
LAYER
  5
2
100
AcDbSymbolTable
 70
36
  0
LAYER
  5
10
100
AcDbSymbolTableRecord
100
AcDbLayerTableRecord
  2
0
 70
0
 62
7
  6
CONTINUOUS
370
-3
390
F
  0
LAYER
  5
1FA
100
AcDbSymbolTableRecord
100
AcDbLayerTableRecord
  2
DEFAULT_1
 70
0
 62
7
  6
CENTER
370
-3
390
F
  0
LAYER
  5
1FB
100
AcDbSymbolTableRecord
100
AcDbLayerTableRecord
  2
DEFAULT_2
 70
0
 62
7
  6
HIDDEN
370
-3
390
F
  0
LAYER
  5
1FC
100
AcDbSymbolTableRecord
100
AcDbLayerTableRecord
  2
DEFAULT_3
 70
0
 62
7
  6
PHANTOM
370
-3
390
F
  0
LAYER
  5
1FD
100
AcDbSymbolTableRecord
100
AcDbLayerTableRecord
  2
102A_65000
 70
0
 62
7
  6
CONTINUOUS
370
-3
390
F
  0
LAYER
  5
1FE
100
AcDbSymbolTableRecord
100
AcDbLayerTableRecord
  2
102A_65000_1
 70
0
 62
7
  6
CONTINUOUS
370
-3
390
F
  0
LAYER
  5
1FF
100
AcDbSymbolTableRecord
100
AcDbLayerTableRecord
  2
133A_110000
 70
0
 62
7
  6
CONTINUOUS
370
-3
390
F
  0
LAYER
  5
200
100
AcDbSymbolTableRecord
100
AcDbLayerTableRecord
  2
133A_110000_1
 70
0
 62
7
  6
CONTINUOUS
370
-3
390
F
  0
LAYER
  5
201
100
AcDbSymbolTableRecord
100
AcDbLayerTableRecord
  2
133A_110000_2
 70
0
 62
7
  6
CONTINUOUS
370
-3
390
F
  0
LAYER
  5
202
100
AcDbSymbolTableRecord
100
AcDbLayerTableRecord
  2
133A_110000_3
 70
0
 62
7
  6
CONTINUOUS
370
-3
390
F
  0
LAYER
  5
203
100
AcDbSymbolTableRecord
100
AcDbLayerTableRecord
  2
1608-CC-RF-VIMAR_80000
 70
0
 62
7
  6
CONTINUOUS
370
-3
390
F
  0
LAYER
  5
204
100
AcDbSymbolTableRecord
100
AcDbLayerTableRecord
  2
1608-CC-RF-VIMAR_80000_1
 70
0
 62
7
  6
CONTINUOUS
370
-3
390
F
  0
LAYER
  5
205
100
AcDbSymbolTableRecord
100
AcDbLayerTableRecord
  2
1608-CC-RF-VIMAR_80000_2
 70
0
 62
7
  6
CONTINUOUS
370
-3
390
F
  0
LAYER
  5
206
100
AcDbSymbolTableRecord
100
AcDbLayerTableRecord
  2
1608-CC-RF-VIMAR_80000_3
 70
0
 62
7
  6
CONTINUOUS
370
-3
390
F
  0
LAYER
  5
207
100
AcDbSymbolTableRecord
100
AcDbLayerTableRecord
  2
1608-R-RF-VIMAR_45000
 70
0
 62
7
  6
CONTINUOUS
370
-3
390
F
  0
LAYER
  5
208
100
AcDbSymbolTableRecord
100
AcDbLayerTableRecord
  2
43900634A0
 70
0
 62
7
  6
CONTINUOUS
370
-3
390
F
  0
LAYER
  5
209
100
AcDbSymbolTableRecord
100
AcDbLayerTableRecord
  2
ASSI
 70
0
 62
7
  6
CONTINUOUS
370
-3
390
F
  0
LAYER
  5
20A
100
AcDbSymbolTableRecord
100
AcDbLayerTableRecord
  2
CC-0603-VIMAR_1000
 70
0
 62
7
  6
CONTINUOUS
370
-3
390
F
  0
LAYER
  5
20B
100
AcDbSymbolTableRecord
100
AcDbLayerTableRecord
  2
COLOR6
 70
0
 62
7
  6
CONTINUOUS
370
-3
390
F
  0
LAYER
  5
20C
100
AcDbSymbolTableRecord
100
AcDbLayerTableRecord
  2
COORDINATE
 70
0
 62
7
  6
CONTINUOUS
370
-3
390
F
  0
LAYER
  5
20D
100
AcDbSymbolTableRecord
100
AcDbLayerTableRecord
  2
COPY_PUBLISH
 70
0
 62
7
  6
CONTINUOUS
370
-3
390
F
  0
LAYER
  5
20E
100
AcDbSymbolTableRecord
100
AcDbLayerTableRecord
  2
COSMETIC
 70
0
 62
7
  6
CONTINUOUS
370
-3
390
F
  0
LAYER
  5
20F
100
AcDbSymbolTableRecord
100
AcDbLayerTableRecord
  2
COSMETICI
 70
0
 62
7
  6
CONTINUOUS
370
-3
390
F
  0
LAYER
  5
210
100
AcDbSymbolTableRecord
100
AcDbLayerTableRecord
  2
CURVE
 70
0
 62
7
  6
CONTINUOUS
370
-3
390
F
  0
LAYER
  5
211
100
AcDbSymbolTableRecord
100
AcDbLayerTableRecord
  2
CURVE_INIEZIONE
 70
0
 62
7
  6
CONTINUOUS
370
-3
390
F
  0
LAYER
  5
212
100
AcDbSymbolTableRecord
100
AcDbLayerTableRecord
  2
CURVE_PUNZONI
 70
0
 62
7
  6
CONTINUOUS
370
-3
390
F
  0
LAYER
  5
213
100
AcDbSymbolTableRecord
100
AcDbLayerTableRecord
  2
DRAFT
 70
0
 62
7
  6
CONTINUOUS
370
-3
390
F
  0
LAYER
  5
214
100
AcDbSymbolTableRecord
100
AcDbLayerTableRecord
  2
E4_MARK_10000
 70
0
 62
7
  6
CONTINUOUS
370
-3
390
F
  0
LAYER
  5
215
100
AcDbSymbolTableRecord
100
AcDbLayerTableRecord
  2
IMPORT_IGES
 70
0
 62
7
  6
CONTINUOUS
370
-3
390
F
  0
LAYER
  5
216
100
AcDbSymbolTableRecord
100
AcDbLayerTableRecord
  2
INTF_1
 70
0
 62
7
  6
CONTINUOUS
370
-3
390
F
  0
LAYER
  5
217
100
AcDbSymbolTableRecord
100
AcDbLayerTableRecord
  2
INTF_13
 70
0
 62
7
  6
CONTINUOUS
370
-3
390
F
  0
LAYER
  5
218
100
AcDbSymbolTableRecord
100
AcDbLayerTableRecord
  2
INTF_14
 70
0
 62
7
  6
CONTINUOUS
370
-3
390
F
  0
LAYER
  5
219
100
AcDbSymbolTableRecord
100
AcDbLayerTableRecord
  2
INTF_BLANK
 70
0
 62
7
  6
CONTINUOUS
370
-3
390
F
  0
LAYER
  5
21A
100
AcDbSymbolTableRecord
100
AcDbLayerTableRecord
  2
INTF_RED
 70
0
 62
7
  6
CONTINUOUS
370
-3
390
F
  0
LAYER
  5
21B
100
AcDbSymbolTableRecord
100
AcDbLayerTableRecord
  2
LOGO_RESIST-RESTYLING_10000
 70
0
 62
7
  6
CONTINUOUS
370
-3
390
F
  0
LAYER
  5
21C
100
AcDbSymbolTableRecord
100
AcDbLayerTableRecord
  2
NO-PB_MARK_10000
 70
0
 62
7
  6
CONTINUOUS
370
-3
390
F
  0
LAYER
  5
21D
100
AcDbSymbolTableRecord
100
AcDbLayerTableRecord
  2
NOTE
 70
0
 62
7
  6
CONTINUOUS
370
-3
390
F
  0
LAYER
  5
21E
100
AcDbSymbolTableRecord
100
AcDbLayerTableRecord
  2
PIANI
 70
0
 62
7
  6
CONTINUOUS
370
-3
390
F
  0
LAYER
  5
21F
100
AcDbSymbolTableRecord
100
AcDbLayerTableRecord
  2
PUNTI
 70
0
 62
7
  6
CONTINUOUS
370
-3
390
F
  0
LAYER
  5
220
100
AcDbSymbolTableRecord
100
AcDbLayerTableRecord
  2
RACCORDO
 70
0
 62
7
  6
CONTINUOUS
370
-3
390
F
  0
LAYER
  5
221
100
AcDbSymbolTableRecord
100
AcDbLayerTableRecord
  2
SIMBOLI
 70
0
 62
7
  6
CONTINUOUS
370
-3
390
F
  0
LAYER
  5
222
100
AcDbSymbolTableRecord
100
AcDbLayerTableRecord
  2
SMUSSO
 70
0
 62
7
  6
CONTINUOUS
370
-3
390
F
  0
LAYER
  5
223
100
AcDbSymbolTableRecord
100
AcDbLayerTableRecord
  2
SNAPLINE
 70
0
 62
7
  6
CONTINUOUS
370
-3
390
F
  0
LAYER
  5
224
100
AcDbSymbolTableRecord
100
AcDbLayerTableRecord
  2
SUPERFICI
 70
0
 62
7
  6
CONTINUOUS
370
-3
390
F
  0
LAYER
  5
225
100
AcDbSymbolTableRecord
100
AcDbLayerTableRecord
  2
TP15_SMD_0
 70
0
 62
7
  6
CONTINUOUS
370
-3
390
F
  0
LAYER
  5
226
100
AcDbSymbolTableRecord
100
AcDbLayerTableRecord
  2
TP20_SMD_0
 70
0
 62
7
  6
CONTINUOUS
370
-3
390
F
  0
LAYER
  5
227
100
AcDbSymbolTableRecord
100
AcDbLayerTableRecord
  2
TP20_SMD_0_1
 70
0
 62
7
  6
CONTINUOUS
370
-3
390
F
  0
LAYER
  5
228
100
AcDbSymbolTableRecord
100
AcDbLayerTableRecord
  2
TP20_SMD_0_2
 70
0
 62
7
  6
CONTINUOUS
370
-3
390
F
  0
LAYER
  5
229
100
AcDbSymbolTableRecord
100
AcDbLayerTableRecord
  2
TP20_SMD_0_3
 70
0
 62
7
  6
CONTINUOUS
370
-3
390
F
  0
LAYER
  5
22A
100
AcDbSymbolTableRecord
100
AcDbLayerTableRecord
  2
TP20_SMD_0_4
 70
0
 62
7
  6
CONTINUOUS
370
-3
390
F
  0
LAYER
  5
22B
100
AcDbSymbolTableRecord
100
AcDbLayerTableRecord
  2
TP20_SMD_0_5
 70
0
 62
7
  6
CONTINUOUS
370
-3
390
F
  0
LAYER
  5
22C
100
AcDbSymbolTableRecord
100
AcDbLayerTableRecord
  2
TRASH
 70
0
 62
7
  6
CONTINUOUS
370
-3
390
F
  0
LAYER
  5
22D
100
AcDbSymbolTableRecord
100
AcDbLayerTableRecord
  2
WHITE
 70
0
 62
7
  6
CONTINUOUS
370
-3
390
F
  0
LAYER
  5
22E
100
AcDbSymbolTableRecord
100
AcDbLayerTableRecord
  2
XSEC_DATUMS
 70
0
 62
7
  6
CONTINUOUS
370
-3
390
F
  0
LAYER
  5
22F
100
AcDbSymbolTableRecord
100
AcDbLayerTableRecord
  2
___SHELL
 70
0
 62
7
  6
CONTINUOUS
370
-3
390
F
  0
ENDTAB
  0
TABLE
  2
STYLE
  5
3
100
AcDbSymbolTable
 70
1
  0
STYLE
  5
11
100
AcDbSymbolTableRecord
100
AcDbTextStyleTableRecord
  2
STANDARD
 70
0
 40
0.0
 41
0.8
 50
0.0
 71
0
 42
0.2
  3
txt
  4

  0
STYLE
  5
230
100
AcDbSymbolTableRecord
100
AcDbTextStyleTableRecord
  2
TEXTSTYLE_1
 70
0
 40
0.0
 41
0.8
 50
0.0
 71
0
 42
0.2
  3
gdt
  4

  0
ENDTAB
  0
TABLE
  2
VIEW
  5
6
100
AcDbSymbolTable
 70
0
  0
ENDTAB
  0
TABLE
  2
UCS
  5
7
100
AcDbSymbolTable
 70
0
  0
ENDTAB
  0
TABLE
  2
APPID
  5
9
100
AcDbSymbolTable
 70
1
  0
APPID
  5
231
100
AcDbSymbolTableRecord
100
AcDbRegAppTableRecord
  2
ACAD
 70
0
  0
ENDTAB
  0
TABLE
  2
BLOCK_RECORD
  5
1
100
AcDbSymbolTable
 70
0
  0
BLOCK_RECORD
  5
232
100
AcDbSymbolTableRecord
100
AcDbBlockTableRecord
  2
*Model_Space
  0
BLOCK_RECORD
  5
233
100
AcDbSymbolTableRecord
100
AcDbBlockTableRecord
  2
*Paper_Space
  0
BLOCK_RECORD
  5
234
100
AcDbSymbolTableRecord
100
AcDbBlockTableRecord
  2
_FILLED
  0
BLOCK_RECORD
  5
235
100
AcDbSymbolTableRecord
100
AcDbBlockTableRecord
  2
*D0
  0
BLOCK_RECORD
  5
236
100
AcDbSymbolTableRecord
100
AcDbBlockTableRecord
  2
*D1
  0
BLOCK_RECORD
  5
237
100
AcDbSymbolTableRecord
100
AcDbBlockTableRecord
  2
*D2
  0
ENDTAB
  0
TABLE
  2
DIMSTYLE
  5
A
100
AcDbSymbolTable
 70
1
100
AcDbDimStyleTable
 71
0
  0
DIMSTYLE
105
238
100
AcDbSymbolTableRecord
100
AcDbDimStyleTableRecord
  2
STANDARD
 70
0
  3

  4

 40
1.0
 41
3.0
 42
0.5
 43
0.38
 44
1.5
 45
0.0
 46
0.0
 47
0.01
 48
0.01
140
3.0
141
0.09
142
0.0
143
25.4
144
1.0
145
0.0
146
1.0
147
0.625
 71
1.0
 72
0.0
 73
0
 74
0
 75
0
 76
0
 77
1
 78
8
170
0
171
1
172
0
173
0
174
0
175
0
176
0
177
0
178
0
270
2
271
2
272
2
273
2
274
2
275
0
280
0
281
0
282
0
283
1
284
8
285
0
286
0
287
3
288
0
340
11
278
44
341
234
342
234
343
234
344
234
  0
DIMSTYLE
105
239
100
AcDbSymbolTableRecord
100
AcDbDimStyleTableRecord
  2
DIMSTYLE_1
 70
0
  3

  4

 40
1.0
 41
3.0
 42
0.5
 43
0.38
 44
1.5
 45
0.0
 46
0.0
 47
0.0
 48
0.0
140
3.0
141
0.09
142
0.0
143
25.4
144
1.0
145
0.0
146
1.0
147
0.75
 71
0.0
 72
0.0
 73
0
 74
0
 75
0
 76
0
 77
1
 78
8
170
0
171
1
172
0
173
0
174
0
175
0
176
0
177
0
178
0
270
2
271
2
272
2
273
2
274
2
275
0
280
0
281
0
282
0
283
1
284
8
285
0
286
0
287
3
288
0
340
11
278
44
341
234
342
234
343
234
344
234
  0
DIMSTYLE
105
23A
100
AcDbSymbolTableRecord
100
AcDbDimStyleTableRecord
  2
DIMSTYLE_2
 70
0
  3

  4

 40
1.0
 41
3.0
 42
0.5
 43
0.38
 44
1.5
 45
0.0
 46
0.0
 47
0.0
 48
0.0
140
3.0
141
0.09
142
0.0
143
25.4
144
1.0
145
0.0
146
1.0
147
0.75
 71
0.0
 72
0.0
 73
0
 74
0
 75
0
 76
0
 77
1
 78
8
170
0
171
1
172
0
173
0
174
0
175
0
176
0
177
0
178
0
270
2
271
1
272
1
273
2
274
2
275
0
280
0
281
0
282
0
283
1
284
8
285
0
286
0
287
3
288
0
340
11
278
44
341
234
342
234
343
234
344
234
  0
ENDTAB
  0
ENDSEC
  0
SECTION
  2
BLOCKS
  0
BLOCK
  5
20
100
AcDbEntity
  8
0
100
AcDbBlockBegin
  2
*Model_Space
 70
0
 10
0.0
 20
0.0
 30
0.0
  3
*Model_Space
  1

  0
ENDBLK
  5
21
100
AcDbEntity
  8
0
100
AcDbBlockEnd
  0
BLOCK
  5
1C
100
AcDbEntity
  8
0
100
AcDbBlockBegin
  2
*Paper_Space
 70
0
 10
0.0
 20
0.0
 30
0.0
  3
*Paper_Space
  1

  0
ENDBLK
  5
1D
100
AcDbEntity
  8
0
100
AcDbBlockEnd
  0
BLOCK
  5
23B
100
AcDbEntity
  8
0
100
AcDbBlockBegin
  2
_FILLED
 70
64
 10
0.0
 20
0.0
  3
_FILLED
  1

  0
SOLID
  5
23C
100
AcDbEntity
  8
0
  6
BYBLOCK
 62
0
100
AcDbTrace
 10
0.0
 20
0.0
 11
-1.0
 21
0.3166666667
 12
-1.0
 22
-0.3166666667
 13
-1.0
 23
-0.3166666667
  0
ENDBLK
  5
23D
100
AcDbEntity
  8
0
  6
BYBLOCK
 62
0
100
AcDbBlockEnd
  0
BLOCK
  5
23E
100
AcDbEntity
  8
0
100
AcDbBlockBegin
 62
7
  6
CONTINUOUS
  2
*D0
 70
65
 10
0.0
 20
0.0
  3
*D0
  1

  0
MTEXT
  5
23F
100
AcDbEntity
  8
0
100
AcDbMText
 62
7
  6
CONTINUOUS
  7
STANDARD
 71
2
 72
1
 10
88.919511648
 20
-0.305009987
 30
0.0
 11
0.0
 21
1.0
 31
0.0
 44
0.9
  1
118
 40
3.0
 41
8.6785714286
  0
LINE
  5
240
100
AcDbEntity
  8
0
100
AcDbLine
 62
7
  6
CONTINUOUS
 10
84.1695116483
 20
58.694990013
 11
94.169511648
 21
58.694990013
  0
LINE
  5
241
100
AcDbEntity
  8
0
100
AcDbLine
 62
7
  6
CONTINUOUS
 10
84.1695116483
 20
-59.305009987
 11
94.169511648
 21
-59.305009987
  0
LINE
  5
242
100
AcDbEntity
  8
0
100
AcDbLine
 62
7
  6
CONTINUOUS
 10
92.669511648
 20
58.694990013
 11
92.669511648
 21
-0.305009987
  0
LINE
  5
243
100
AcDbEntity
  8
0
100
AcDbLine
 62
7
  6
CONTINUOUS
 10
92.669511648
 20
-59.305009987
 11
92.669511648
 21
-0.305009987
  0
INSERT
  5
244
100
AcDbEntity
  8
0
100
AcDbBlockReference
 62
7
  6
CONTINUOUS
  2
_FILLED
 10
92.669511648
 20
58.694990013
 41
3.0
 42
3.0
 43
3.0
 50
90.0
  0
INSERT
  5
245
100
AcDbEntity
  8
0
100
AcDbBlockReference
 62
7
  6
CONTINUOUS
  2
_FILLED
 10
92.669511648
 20
-59.305009987
 41
3.0
 42
3.0
 43
3.0
 50
270.0
  0
ENDBLK
  5
246
100
AcDbEntity
  8
0
  6
BYBLOCK
 62
0
100
AcDbBlockEnd
  0
BLOCK
  5
247
100
AcDbEntity
  8
0
100
AcDbBlockBegin
 62
7
  6
CONTINUOUS
  2
*D1
 70
65
 10
0.0
 20
0.0
  3
*D1
  1

  0
MTEXT
  5
248
100
AcDbEntity
  8
0
100
AcDbMText
 62
7
  6
CONTINUOUS
  7
STANDARD
 71
2
 72
1
 10
31.6695116483
 20
71.0550099867
 30
0.0
 11
1.0
 21
0.0
 31
0.0
 44
0.9
  1
106
 40
3.0
 41
9.6428571429
  0
LINE
  5
249
100
AcDbEntity
  8
0
100
AcDbLine
 62
7
  6
CONTINUOUS
 10
84.6695116483
 20
58.194990013
 11
84.6695116483
 21
68.8050099867
  0
LINE
  5
24A
100
AcDbEntity
  8
0
100
AcDbLine
 62
7
  6
CONTINUOUS
 10
-21.3304883517
 20
58.194990013
 11
-21.3304883517
 21
68.8050099867
  0
LINE
  5
24B
100
AcDbEntity
  8
0
100
AcDbLine
 62
7
  6
CONTINUOUS
 10
84.6695116483
 20
67.3050099867
 11
31.6695116483
 21
67.3050099867
  0
LINE
  5
24C
100
AcDbEntity
  8
0
100
AcDbLine
 62
7
  6
CONTINUOUS
 10
-21.3304883517
 20
67.3050099867
 11
31.6695116483
 21
67.3050099867
  0
INSERT
  5
24D
100
AcDbEntity
  8
0
100
AcDbBlockReference
 62
7
  6
CONTINUOUS
  2
_FILLED
 10
84.6695116483
 20
67.3050099867
 41
3.0
 42
3.0
 43
3.0
 50
0.0
  0
INSERT
  5
24E
100
AcDbEntity
  8
0
100
AcDbBlockReference
 62
7
  6
CONTINUOUS
  2
_FILLED
 10
-21.3304883517
 20
67.3050099867
 41
3.0
 42
3.0
 43
3.0
 50
180.0
  0
ENDBLK
  5
24F
100
AcDbEntity
  8
0
  6
BYBLOCK
 62
0
100
AcDbBlockEnd
  0
BLOCK
  5
250
100
AcDbEntity
  8
0
100
AcDbBlockBegin
 62
7
  6
CONTINUOUS
  2
*D2
 70
65
 10
0.0
 20
0.0
  3
*D2
  1

  0
MTEXT
  5
251
100
AcDbEntity
  8
0
100
AcDbMText
 62
7
  6
CONTINUOUS
  7
STANDARD
 71
2
 72
1
 10
-55.1791908558
 20
71.0550099867
 30
0.0
 11
1.0
 21
0.0
 31
0.0
 44
0.9
  1
17,9
 40
3.0
 41
12.2142857143
  0
LINE
  5
252
100
AcDbEntity
  8
0
100
AcDbLine
 62
7
  6
CONTINUOUS
 10
-64.1464558288
 20
58.194990013
 11
-64.1464558288
 21
68.8050099867
  0
LINE
  5
253
100
AcDbEntity
  8
0
100
AcDbLine
 62
7
  6
CONTINUOUS
 10
-46.2119258827
 20
11.444990013
 11
-46.2119258827
 21
68.8050099867
  0
LINE
  5
254
100
AcDbEntity
  8
0
100
AcDbLine
 62
7
  6
CONTINUOUS
 10
-64.1464558288
 20
67.3050099867
 11
-55.1791908558
 21
67.3050099867
  0
LINE
  5
255
100
AcDbEntity
  8
0
100
AcDbLine
 62
7
  6
CONTINUOUS
 10
-46.2119258827
 20
67.3050099867
 11
-55.1791908558
 21
67.3050099867
  0
INSERT
  5
256
100
AcDbEntity
  8
0
100
AcDbBlockReference
 62
7
  6
CONTINUOUS
  2
_FILLED
 10
-64.1464558288
 20
67.3050099867
 41
3.0
 42
3.0
 43
3.0
 50
180.0
  0
INSERT
  5
257
100
AcDbEntity
  8
0
100
AcDbBlockReference
 62
7
  6
CONTINUOUS
  2
_FILLED
 10
-46.2119258827
 20
67.3050099867
 41
3.0
 42
3.0
 43
3.0
  0
ENDBLK
  5
258
100
AcDbEntity
  8
0
  6
BYBLOCK
 62
0
100
AcDbBlockEnd
  0
ENDSEC
  0
SECTION
  2
ENTITIES
  0
DIMENSION
  5
259
100
AcDbEntity
  8
0
100
AcDbDimension
 62
7
  6
CONTINUOUS
  2
*D0
 10
92.669511648
 20
-59.305009987
 11
92.669511648
 21
-0.7335785612
 70
160
 71
2
 42
118.0
  3
DIMSTYLE_1
100
AcDbAlignedDimension
 13
83.6695116483
 23
58.694990013
 14
83.6695116483
 24
-59.305009987
 50
270.0
100
AcDbRotatedDimension
  0
DIMENSION
  5
25A
100
AcDbEntity
  8
0
100
AcDbDimension
 62
7
  6
CONTINUOUS
  2
*D1
 10
-21.3304883517
 20
67.3050099867
 11
31.2409401512
 21
67.3050099867
 70
160
 71
2
 42
106.0
  3
DIMSTYLE_1
100
AcDbAlignedDimension
 13
84.6695116483
 23
57.694990013
 14
-21.3304883517
 24
57.694990013
 50
180.0
100
AcDbRotatedDimension
  0
DIMENSION
  5
25B
100
AcDbEntity
  8
0
100
AcDbDimension
 62
7
  6
CONTINUOUS
  2
*D2
 10
-46.2119258827
 20
67.3050099867
 11
-55.6077619171
 21
67.3050099867
 70
160
 71
2
 42
17.9345299462
  3
DIMSTYLE_2
100
AcDbAlignedDimension
 13
-64.1464558288
 23
57.694990013
 14
-46.2119258827
 24
10.944990013
100
AcDbRotatedDimension
  0
LINE
  5
25C
100
AcDbEntity
  8
SMUSSO
100
AcDbLine
 62
7
  6
CONTINUOUS
 10
-20.3304883517
 20
-59.305009987
 11
83.6695116483
 21
-59.305009987
  0
LINE
  5
25D
100
AcDbEntity
  8
SMUSSO
100
AcDbLine
 62
7
  6
CONTINUOUS
 10
-20.3304883517
 20
-58.305009987
 11
83.6695116483
 21
-58.305009987
  0
LINE
  5
25E
100
AcDbEntity
  8
SMUSSO
100
AcDbLine
 62
250
  6
CONTINUOUS
 10
-20.3304883517
 20
-58.305009987
 11
-21.3304883517
 21
-58.305009987
  0
LINE
  5
25F
100
AcDbEntity
  8
SMUSSO
100
AcDbLine
 62
250
  6
CONTINUOUS
 10
83.6695116483
 20
-58.305009987
 11
84.6695116483
 21
-58.305009987
  0
LINE
  5
260
100
AcDbEntity
  8
SMUSSO
100
AcDbLine
 62
7
  6
CONTINUOUS
 10
-21.3304883517
 20
57.694990013
 11
-21.3304883517
 21
-58.305009987
  0
LINE
  5
261
100
AcDbEntity
  8
SMUSSO
100
AcDbLine
 62
7
  6
CONTINUOUS
 10
-20.3304883517
 20
57.694990013
 11
-20.3304883517
 21
-58.305009987
  0
LINE
  5
262
100
AcDbEntity
  8
SMUSSO
100
AcDbLine
 62
250
  6
CONTINUOUS
 10
-20.3304883517
 20
-58.305009987
 11
-20.3304883517
 21
-59.305009987
  0
LINE
  5
263
100
AcDbEntity
  8
SMUSSO
100
AcDbLine
 62
250
  6
CONTINUOUS
 10
-20.3304883517
 20
57.694990013
 11
-20.3304883517
 21
58.694990013
  0
LINE
  5
264
100
AcDbEntity
  8
SMUSSO
100
AcDbLine
 62
250
  6
CONTINUOUS
 10
83.6695116483
 20
-58.305009987
 11
83.6695116483
 21
-59.305009987
  0
LINE
  5
265
100
AcDbEntity
  8
SMUSSO
100
AcDbLine
 62
7
  6
CONTINUOUS
 10
83.6695116483
 20
-58.305009987
 11
83.6695116483
 21
57.694990013
  0
LINE
  5
266
100
AcDbEntity
  8
SMUSSO
100
AcDbLine
 62
250
  6
CONTINUOUS
 10
83.6695116483
 20
57.694990013
 11
83.6695116483
 21
58.694990013
  0
LINE
  5
267
100
AcDbEntity
  8
SMUSSO
100
AcDbLine
 62
7
  6
CONTINUOUS
 10
84.6695116483
 20
-58.305009987
 11
84.6695116483
 21
57.694990013
  0
LINE
  5
268
100
AcDbEntity
  8
SMUSSO
100
AcDbLine
 62
7
  6
CONTINUOUS
 10
83.6695116483
 20
57.694990013
 11
-20.3304883517
 21
57.694990013
  0
LINE
  5
269
100
AcDbEntity
  8
SMUSSO
100
AcDbLine
 62
250
  6
CONTINUOUS
 10
-20.3304883517
 20
57.694990013
 11
-21.3304883517
 21
57.694990013
  0
LINE
  5
26A
100
AcDbEntity
  8
SMUSSO
100
AcDbLine
 62
250
  6
CONTINUOUS
 10
83.6695116483
 20
57.694990013
 11
84.6695116483
 21
57.694990013
  0
LINE
  5
26B
100
AcDbEntity
  8
SMUSSO
100
AcDbLine
 62
7
  6
CONTINUOUS
 10
83.6695116483
 20
58.694990013
 11
-20.3304883517
 21
58.694990013
  0
LINE
  5
26C
100
AcDbEntity
  8
0
100
AcDbLine
 62
250
  6
CONTINUOUS
 10
-59.4965319813
 20
-58.2148620084
 11
-59.9964558288
 21
-58.2561358052
  0
LINE
  5
26D
100
AcDbEntity
  8
SMUSSO
100
AcDbLine
 62
7
  6
CONTINUOUS
 10
-63.1464558288
 20
-59.305009987
 11
-60.6464558288
 21
-59.305009987
  0
LINE
  5
26E
100
AcDbEntity
  8
SMUSSO
100
AcDbLine
 62
250
  6
CONTINUOUS
 10
-60.1464558288
 20
-58.305009987
 11
-64.1464558288
 21
-58.305009987
  0
LINE
  5
26F
100
AcDbEntity
  8
0
100
AcDbLine
 62
7
  6
CONTINUOUS
 10
-59.4965319813
 20
-59.2148620084
 11
-57.1692320289
 21
-59.2554851802
  0
LINE
  5
270
100
AcDbEntity
  8
0
100
AcDbLine
 62
250
  6
CONTINUOUS
 10
-59.4965319813
 20
-58.2150143133
 11
-57.1692320289
 21
-58.2556374851
  0
LINE
  5
271
100
AcDbEntity
  8
RACCORDO
100
AcDbLine
 62
7
  6
CONTINUOUS
 10
-60.0964558288
 20
-55.305009987
 11
-59.9964558288
 21
-55.305009987
  0
LINE
  5
272
100
AcDbEntity
  8
RACCORDO
100
AcDbLine
 62
250
  6
CONTINUOUS
 10
-60.0964558288
 20
-54.305009987
 11
-59.9964558288
 21
-54.305009987
  0
LINE
  5
273
100
AcDbEntity
  8
SMUSSO
100
AcDbLine
 62
7
  6
CONTINUOUS
 10
-64.1464558288
 20
-58.305009987
 11
-63.1464558288
 21
-59.305009987
  0
LINE
  5
274
100
AcDbEntity
  8
CURVE
100
AcDbLine
 62
7
  6
CONTINUOUS
 10
-59.4965319813
 20
58.6048420344
 11
-59.9964558288
 21
58.0961158312
  0
LINE
  5
275
100
AcDbEntity
  8
SMUSSO
100
AcDbLine
 62
7
  6
CONTINUOUS
 10
-64.1464558288
 20
57.694990013
 11
-63.1464558288
 21
58.694990013
  0
LINE
  5
276
100
AcDbEntity
  8
0
100
AcDbLine
 62
7
  6
CONTINUOUS
 10
-59.4965319813
 20
-59.2148620084
 11
-59.9964558288
 21
-58.7061358052
  0
LINE
  5
277
100
AcDbEntity
  8
RACCORDO
100
AcDbLine
 62
250
  6
CONTINUOUS
 10
-59.9964558288
 20
-40.9691116022
 11
-60.0964558288
 21
-40.9691116022
  0
LINE
  5
278
100
AcDbEntity
  8
RACCORDO
100
AcDbLine
 62
250
  6
CONTINUOUS
 10
-59.9964558288
 20
-40.1030861984
 11
-60.0964558288
 21
-40.1030861984
  0
LINE
  5
279
100
AcDbEntity
  8
ASSI
100
AcDbLine
 62
250
  6
CONTINUOUS
 10
-60.0964558288
 20
-37.505009987
 11
-59.9964558288
 21
-37.505009987
  0
LINE
  5
27A
100
AcDbEntity
  8
RACCORDO
100
AcDbLine
 62
250
  6
CONTINUOUS
 10
-60.0964558288
 20
-34.305009987
 11
-59.9964558288
 21
-34.305009987
  0
LINE
  5
27B
100
AcDbEntity
  8
RACCORDO
100
AcDbLine
 62
7
  6
CONTINUOUS
 10
-60.0964558288
 20
-33.305009987
 11
-59.9964558288
 21
-33.305009987
  0
LINE
  5
27C
100
AcDbEntity
  8
RACCORDO
100
AcDbLine
 62
250
  6
CONTINUOUS
 10
-59.9964558288
 20
-32.305009987
 11
-60.0964558288
 21
-32.305009987
  0
LINE
  5
27D
100
AcDbEntity
  8
RACCORDO
100
AcDbLine
 62
7
  6
CONTINUOUS
 10
-60.0964558288
 20
-31.305009987
 11
-59.9964558288
 21
-31.305009987
  0
LINE
  5
27E
100
AcDbEntity
  8
RACCORDO
100
AcDbLine
 62
250
  6
CONTINUOUS
 10
-60.0964558288
 20
-30.305009987
 11
-59.9964558288
 21
-30.305009987
  0
LINE
  5
27F
100
AcDbEntity
  8
RACCORDO
100
AcDbLine
 62
250
  6
CONTINUOUS
 10
-52.3074946676
 20
-24.3410089495
 11
-53.8314438671
 21
-24.555009987
  0
LINE
  5
280
100
AcDbEntity
  8
RACCORDO
100
AcDbLine
 62
250
  6
CONTINUOUS
 10
-53.9706510548
 20
-24.2651025818
 11
-52.870887561
 21
-24.1106679531
  0
LINE
  5
281
100
AcDbEntity
  8
0
100
AcDbLine
 62
7
  6
CONTINUOUS
 10
-55.5964558288
 20
-25.8941032118
 11
-52.0859886376
 21
-25.7101274221
  0
LINE
  5
282
100
AcDbEntity
  8
RACCORDO
100
AcDbLine
 62
250
  6
CONTINUOUS
 10
-52.4464065966
 20
-25.3393821022
 11
-55.5964558288
 21
-25.3469731665
  0
LINE
  5
283
100
AcDbEntity
  8
RACCORDO
100
AcDbLine
 62
250
  6
CONTINUOUS
 10
-53.9706832451
 20
-24.844912872
 11
-55.5964558288
 21
-24.8476536974
  0
LINE
  5
284
100
AcDbEntity
  8
RACCORDO
100
AcDbLine
 62
7
  6
CONTINUOUS
 10
-52.8711643852
 20
-24.9993131478
 11
-55.5964558288
 21
-24.999989066
  0
LINE
  5
285
100
AcDbEntity
  8
RACCORDO
100
AcDbLine
 62
250
  6
CONTINUOUS
 10
-52.3074946676
 20
-25.1272536578
 11
-55.5964558288
 21
-25.1348447221
  0
LINE
  5
286
100
AcDbEntity
  8
RACCORDO
100
AcDbLine
 62
7
  6
CONTINUOUS
 10
-52.870887561
 20
-24.1106679531
 11
-55.5964558288
 21
-24.1100160899
  0
LINE
  5
287
100
AcDbEntity
  8
RACCORDO
100
AcDbLine
 62
250
  6
CONTINUOUS
 10
-52.3074946676
 20
-24.1206665426
 11
-52.72119947
 21
-24.1202381732
  0
LINE
  5
288
100
AcDbEntity
  8
RACCORDO
100
AcDbLine
 62
250
  6
CONTINUOUS
 10
-52.4464065966
 20
-23.9706690816
 11
-55.5964558288
 21
-23.965758524
  0
LINE
  5
289
100
AcDbEntity
  8
RACCORDO
100
AcDbLine
 62
7
  6
CONTINUOUS
 10
-55.5964558288
 20
-23.6023598863
 11
-52.046771737
 21
-23.6078934277
  0
LINE
  5
28A
100
AcDbEntity
  8
RACCORDO
100
AcDbLine
 62
250
  6
CONTINUOUS
 10
-53.9706510548
 20
-24.2651025818
 11
-55.5964558288
 21
-24.2623635965
  0
LINE
  5
28B
100
AcDbEntity
  8
RACCORDO
100
AcDbLine
 62
250
  6
CONTINUOUS
 10
-52.8711643852
 20
-24.9993131478
 11
-53.9706832451
 21
-24.844912872
  0
LINE
  5
28C
100
AcDbEntity
  8
RACCORDO
100
AcDbLine
 62
250
  6
CONTINUOUS
 10
-53.8314438671
 20
-24.555009987
 11
-52.3074946676
 21
-24.7690110246
  0
LINE
  5
28D
100
AcDbEntity
  8
RACCORDO
100
AcDbLine
 62
250
  6
CONTINUOUS
 10
-52.4464065966
 20
24.7293621282
 11
-51.9243147439
 21
25.0022022014
  0
LINE
  5
28E
100
AcDbEntity
  8
RACCORDO
100
AcDbLine
 62
250
  6
CONTINUOUS
 10
-52.3074946676
 20
24.5172336837
 11
-51.8964558288
 21
24.7320385428
  0
LINE
  5
28F
100
AcDbEntity
  8
RACCORDO
100
AcDbLine
 62
250
  6
CONTINUOUS
 10
-52.3074946676
 20
-20.8410089495
 11
-53.8314438671
 21
-21.055009987
  0
LINE
  5
290
100
AcDbEntity
  8
RACCORDO
100
AcDbLine
 62
250
  6
CONTINUOUS
 10
-53.9706510548
 20
-20.7651025818
 11
-52.8711643852
 21
-20.6107068262
  0
LINE
  5
291
100
AcDbEntity
  8
RACCORDO
100
AcDbLine
 62
7
  6
CONTINUOUS
 10
-55.5964558288
 20
-22.0076600878
 11
-52.046771737
 21
-22.0021265463
  0
LINE
  5
292
100
AcDbEntity
  8
RACCORDO
100
AcDbLine
 62
250
  6
CONTINUOUS
 10
-52.4464065966
 20
-21.6393508925
 11
-55.5964558288
 21
-21.64426145
  0
LINE
  5
293
100
AcDbEntity
  8
RACCORDO
100
AcDbLine
 62
250
  6
CONTINUOUS
 10
-53.9706832451
 20
-21.344912872
 11
-55.5964558288
 21
-21.3476536974
  0
LINE
  5
294
100
AcDbEntity
  8
RACCORDO
100
AcDbLine
 62
7
  6
CONTINUOUS
 10
-55.5964558288
 20
-21.5000038841
 11
-52.870887561
 21
-21.4993520209
  0
LINE
  5
295
100
AcDbEntity
  8
RACCORDO
100
AcDbLine
 62
250
  6
CONTINUOUS
 10
-52.3074946676
 20
-21.489353431
 11
-52.72119947
 21
-21.4897818008
  0
LINE
  5
296
100
AcDbEntity
  8
RACCORDO
100
AcDbLine
 62
7
  6
CONTINUOUS
 10
-52.8711643852
 20
-20.6107068262
 11
-55.5964558288
 21
-20.6100309081
  0
LINE
  5
297
100
AcDbEntity
  8
RACCORDO
100
AcDbLine
 62
250
  6
CONTINUOUS
 10
-53.9706510548
 20
-20.7651025818
 11
-55.5964558288
 21
-20.7623635965
  0
LINE
  5
298
100
AcDbEntity
  8
RACCORDO
100
AcDbLine
 62
250
  6
CONTINUOUS
 10
-52.3074946676
 20
-20.4827663162
 11
-55.5964558288
 21
-20.475175252
  0
LINE
  5
299
100
AcDbEntity
  8
RACCORDO
100
AcDbLine
 62
250
  6
CONTINUOUS
 10
-52.4464065966
 20
-20.2706378718
 11
-55.5964558288
 21
-20.2630468076
  0
LINE
  5
29A
100
AcDbEntity
  8
0
100
AcDbLine
 62
7
  6
CONTINUOUS
 10
-55.5964558288
 20
-19.7159167622
 11
-52.0859886376
 21
-19.899892552
  0
LINE
  5
29B
100
AcDbEntity
  8
RACCORDO
100
AcDbLine
 62
250
  6
CONTINUOUS
 10
-52.870887561
 20
-21.4993520209
 11
-53.9706832451
 21
-21.344912872
  0
LINE
  5
29C
100
AcDbEntity
  8
RACCORDO
100
AcDbLine
 62
250
  6
CONTINUOUS
 10
-53.8314438671
 20
-21.055009987
 11
-52.3074946676
 21
-21.2690110246
  0
LINE
  5
29D
100
AcDbEntity
  8
RACCORDO
100
AcDbLine
 62
250
  6
CONTINUOUS
 10
-51.9243147439
 20
-25.6122221754
 11
-52.4464065966
 21
-25.3393821022
  0
LINE
  5
29E
100
AcDbEntity
  8
RACCORDO
100
AcDbLine
 62
250
  6
CONTINUOUS
 10
-51.8964558288
 20
-25.3420585169
 11
-52.3074946676
 21
-25.1272536578
  0
LINE
  5
29F
100
AcDbEntity
  8
RACCORDO
100
AcDbLine
 62
250
  6
CONTINUOUS
 10
-52.4464065966
 20
21.0293309184
 11
-52.046771737
 21
21.3921065723
  0
LINE
  5
2A0
100
AcDbEntity
  8
RACCORDO
100
AcDbLine
 62
250
  6
CONTINUOUS
 10
-52.3074946676
 20
20.8793334569
 11
-51.8964558288
 21
21.2524612757
  0
LINE
  5
2A1
100
AcDbEntity
  8
RACCORDO
100
AcDbLine
 62
7
  6
CONTINUOUS
 10
-55.5964558288
 20
-13.1296138345
 11
-50.8859859798
 21
-12.9651206027
  0
LINE
  5
2A2
100
AcDbEntity
  8
0
100
AcDbLine
 62
7
  6
CONTINUOUS
 10
-46.7119258827
 20
-12.055009987
 11
-50.5964558288
 21
-12.055009987
  0
LINE
  5
2A3
100
AcDbEntity
  8
RACCORDO
100
AcDbLine
 62
250
  6
CONTINUOUS
 10
-52.046771737
 20
-22.0021265463
 11
-52.4464065966
 21
-21.6393508925
  0
LINE
  5
2A4
100
AcDbEntity
  8
RACCORDO
100
AcDbLine
 62
250
  6
CONTINUOUS
 10
-51.8964558288
 20
-21.8624812497
 11
-52.3074946676
 21
-21.489353431
  0
LINE
  5
2A5
100
AcDbEntity
  8
SMUSSO
100
AcDbLine
 62
7
  6
CONTINUOUS
 10
-64.1464558288
 20
-58.305009987
 11
-64.1464558288
 21
57.694990013
  0
LINE
  5
2A6
100
AcDbEntity
  8
SMUSSO
100
AcDbLine
 62
7
  6
CONTINUOUS
 10
-63.1464558288
 20
-59.305009987
 11
-63.1464558288
 21
58.694990013
  0
LINE
  5
2A7
100
AcDbEntity
  8
0
100
AcDbLine
 62
7
  6
CONTINUOUS
 10
-46.7119258827
 20
-11.055009987
 11
-50.5964558288
 21
-11.055009987
  0
LINE
  5
2A8
100
AcDbEntity
  8
RACCORDO
100
AcDbLine
 62
7
  6
CONTINUOUS
 10
-55.5964558288
 20
-9.9804061396
 11
-50.8859859798
 21
-10.1448993714
  0
LINE
  5
2A9
100
AcDbEntity
  8
SMUSSO
100
AcDbLine
 62
7
  6
CONTINUOUS
 10
-60.6464558288
 20
58.694990013
 11
-60.6464558288
 21
-59.305009987
  0
LINE
  5
2AA
100
AcDbEntity
  8
SMUSSO
100
AcDbLine
 62
7
  6
CONTINUOUS
 10
-60.1464558288
 20
58.194990013
 11
-60.1464558288
 21
-58.805009987
  0
LINE
  5
2AB
100
AcDbEntity
  8
ASSI
100
AcDbLine
 62
7
  6
CONTINUOUS
 10
-60.0964558288
 20
37.394990013
 11
-60.0964558288
 21
33.994990013
  0
LINE
  5
2AC
100
AcDbEntity
  8
ASSI
100
AcDbLine
 62
7
  6
CONTINUOUS
 10
-60.0964558288
 20
10.394990013
 11
-60.0964558288
 21
-2.005009987
  0
LINE
  5
2AD
100
AcDbEntity
  8
RACCORDO
100
AcDbLine
 62
7
  6
CONTINUOUS
 10
-60.0964558288
 20
-2.005009987
 11
-60.0964558288
 21
-55.305009987
  0
LINE
  5
2AE
100
AcDbEntity
  8
RACCORDO
100
AcDbLine
 62
7
  6
CONTINUOUS
 10
-60.0964558288
 20
10.394990013
 11
-60.0964558288
 21
33.994990013
  0
LINE
  5
2AF
100
AcDbEntity
  8
RACCORDO
100
AcDbLine
 62
7
  6
CONTINUOUS
 10
-60.0964558288
 20
37.394990013
 11
-60.0964558288
 21
54.694990013
  0
LINE
  5
2B0
100
AcDbEntity
  8
0
100
AcDbLine
 62
7
  6
CONTINUOUS
 10
-59.9964558288
 20
-58.7061358052
 11
-59.9964558288
 21
57.6461158312
  0
LINE
  5
2B1
100
AcDbEntity
  8
CURVE
100
AcDbLine
 62
7
  6
CONTINUOUS
 10
-59.9964558288
 20
57.6461158312
 11
-59.9964558288
 21
58.0961158312
  0
LINE
  5
2B2
100
AcDbEntity
  8
IMPORT_IGES
100
AcDbLine
 62
7
  6
CONTINUOUS
 10
-59.6564558288
 20
-23.405009987
 11
-59.6564558288
 21
-21.705009987
  0
LINE
  5
2B3
100
AcDbEntity
  8
IMPORT_IGES
100
AcDbLine
 62
7
  6
CONTINUOUS
 10
-59.6464558288
 20
-23.405009987
 11
-59.6464558288
 21
-21.705009987
  0
LINE
  5
2B4
100
AcDbEntity
  8
0
100
AcDbLine
 62
7
  6
CONTINUOUS
 10
-59.4965319813
 20
-59.2148620084
 11
-59.4965319813
 21
57.6048420344
  0
LINE
  5
2B5
100
AcDbEntity
  8
CURVE
100
AcDbLine
 62
7
  6
CONTINUOUS
 10
-59.4965319813
 20
57.6048420344
 11
-59.4965319813
 21
58.6048420344
  0
LINE
  5
2B6
100
AcDbEntity
  8
IMPORT_IGES
100
AcDbLine
 62
250
  6
CONTINUOUS
 10
-59.2364558288
 20
-10.975009987
 11
-59.2364558288
 21
-11.975009987
  0
LINE
  5
2B7
100
AcDbEntity
  8
CURVE
100
AcDbLine
 62
7
  6
CONTINUOUS
 10
-59.4965599523
 20
58.6026942438
 11
-59.4965319813
 21
58.6048420344
  0
LINE
  5
2B8
100
AcDbEntity
  8
RACCORDO
100
AcDbLine
 62
250
  6
CONTINUOUS
 10
-59.9964558288
 20
-5.4691116022
 11
-60.0964558288
 21
-5.4691116022
  0
LINE
  5
2B9
100
AcDbEntity
  8
RACCORDO
100
AcDbLine
 62
250
  6
CONTINUOUS
 10
-59.9964558288
 20
-4.6030861984
 11
-60.0964558288
 21
-4.6030861984
  0
LINE
  5
2BA
100
AcDbEntity
  8
0
100
AcDbLine
 62
7
  6
CONTINUOUS
 10
-57.1690068487
 20
57.6231295852
 11
-57.1690068487
 21
-58.2331495593
  0
LINE
  5
2BB
100
AcDbEntity
  8
CURVE
100
AcDbLine
 62
7
  6
CONTINUOUS
 10
-55.5964558288
 20
57.0729181169
 11
-55.5964558288
 21
57.0229181169
  0
LINE
  5
2BC
100
AcDbEntity
  8
0
100
AcDbLine
 62
7
  6
CONTINUOUS
 10
-55.5964558288
 20
57.0229181169
 11
-55.5964558288
 21
-57.6829380909
  0
LINE
  5
2BD
100
AcDbEntity
  8
RACCORDO
100
AcDbLine
 62
250
  6
CONTINUOUS
 10
-52.4464065966
 20
2.2293621282
 11
-51.9243147439
 21
2.5022022014
  0
LINE
  5
2BE
100
AcDbEntity
  8
RACCORDO
100
AcDbLine
 62
250
  6
CONTINUOUS
 10
-52.3074946676
 20
2.0172336837
 11
-51.8964558288
 21
2.2320385428
  0
LINE
  5
2BF
100
AcDbEntity
  8
RACCORDO
100
AcDbLine
 62
250
  6
CONTINUOUS
 10
-52.3074946676
 20
-1.8410089495
 11
-53.8314438671
 21
-2.055009987
  0
LINE
  5
2C0
100
AcDbEntity
  8
RACCORDO
100
AcDbLine
 62
250
  6
CONTINUOUS
 10
-53.9706510548
 20
-1.7651025818
 11
-52.870887561
 21
-1.6106679531
  0
LINE
  5
2C1
100
AcDbEntity
  8
0
100
AcDbLine
 62
7
  6
CONTINUOUS
 10
-55.5964558288
 20
-3.3941032118
 11
-52.0859886376
 21
-3.2101274221
  0
LINE
  5
2C2
100
AcDbEntity
  8
RACCORDO
100
AcDbLine
 62
250
  6
CONTINUOUS
 10
-52.4464065966
 20
-2.8393821022
 11
-55.5964558288
 21
-2.8469731665
  0
LINE
  5
2C3
100
AcDbEntity
  8
RACCORDO
100
AcDbLine
 62
250
  6
CONTINUOUS
 10
-53.9706832451
 20
-2.344912872
 11
-55.5964558288
 21
-2.3476536974
  0
LINE
  5
2C4
100
AcDbEntity
  8
RACCORDO
100
AcDbLine
 62
7
  6
CONTINUOUS
 10
-55.5964558288
 20
0.4923399122
 11
-52.046771737
 21
0.4978734537
  0
LINE
  5
2C5
100
AcDbEntity
  8
RACCORDO
100
AcDbLine
 62
7
  6
CONTINUOUS
 10
-52.8711643852
 20
-2.4993131478
 11
-55.5964558288
 21
-2.499989066
  0
LINE
  5
2C6
100
AcDbEntity
  8
RACCORDO
100
AcDbLine
 62
250
  6
CONTINUOUS
 10
-52.3074946676
 20
-2.6272536578
 11
-55.5964558288
 21
-2.6348447221
  0
LINE
  5
2C7
100
AcDbEntity
  8
ASSI
100
AcDbLine
 62
250
  6
CONTINUOUS
 10
-60.0964558288
 20
-2.005009987
 11
-59.9964558288
 21
-2.005009987
  0
LINE
  5
2C8
100
AcDbEntity
  8
RACCORDO
100
AcDbLine
 62
7
  6
CONTINUOUS
 10
-52.870887561
 20
-1.6106679531
 11
-55.5964558288
 21
-1.6100160899
  0
LINE
  5
2C9
100
AcDbEntity
  8
RACCORDO
100
AcDbLine
 62
250
  6
CONTINUOUS
 10
-52.3074946676
 20
-1.6206665426
 11
-52.72119947
 21
-1.6202381732
  0
LINE
  5
2CA
100
AcDbEntity
  8
RACCORDO
100
AcDbLine
 62
250
  6
CONTINUOUS
 10
-52.4464065966
 20
-1.4706690816
 11
-55.5964558288
 21
-1.465758524
  0
LINE
  5
2CB
100
AcDbEntity
  8
RACCORDO
100
AcDbLine
 62
7
  6
CONTINUOUS
 10
-55.5964558288
 20
-1.1023598863
 11
-52.046771737
 21
-1.1078934277
  0
LINE
  5
2CC
100
AcDbEntity
  8
RACCORDO
100
AcDbLine
 62
250
  6
CONTINUOUS
 10
-53.9706510548
 20
-1.7651025818
 11
-55.5964558288
 21
-1.7623635965
  0
LINE
  5
2CD
100
AcDbEntity
  8
RACCORDO
100
AcDbLine
 62
250
  6
CONTINUOUS
 10
-52.8711643852
 20
-2.4993131478
 11
-53.9706832451
 21
-2.344912872
  0
LINE
  5
2CE
100
AcDbEntity
  8
RACCORDO
100
AcDbLine
 62
250
  6
CONTINUOUS
 10
-53.8314438671
 20
-2.055009987
 11
-52.3074946676
 21
-2.2690110246
  0
LINE
  5
2CF
100
AcDbEntity
  8
RACCORDO
100
AcDbLine
 62
250
  6
CONTINUOUS
 10
-51.9243147439
 20
-3.1122221754
 11
-52.4464065966
 21
-2.8393821022
  0
LINE
  5
2D0
100
AcDbEntity
  8
RACCORDO
100
AcDbLine
 62
250
  6
CONTINUOUS
 10
-51.8964558288
 20
-2.8420585169
 11
-52.3074946676
 21
-2.6272536578
  0
LINE
  5
2D1
100
AcDbEntity
  8
RACCORDO
100
AcDbLine
 62
250
  6
CONTINUOUS
 10
-53.9706832451
 20
-24.844912872
 11
-53.9706832597
 21
-24.265102528
  0
LINE
  5
2D2
100
AcDbEntity
  8
RACCORDO
100
AcDbLine
 62
250
  6
CONTINUOUS
 10
-53.9706832451
 20
-21.344912872
 11
-53.9706832597
 21
-20.765102528
  0
LINE
  5
2D3
100
AcDbEntity
  8
RACCORDO
100
AcDbLine
 62
250
  6
CONTINUOUS
 10
-53.9706832451
 20
-2.344912872
 11
-53.9706832597
 21
-1.765102528
  0
LINE
  5
2D4
100
AcDbEntity
  8
RACCORDO
100
AcDbLine
 62
250
  6
CONTINUOUS
 10
-53.9706832451
 20
1.155087128
 11
-53.9706832597
 21
1.734897472
  0
LINE
  5
2D5
100
AcDbEntity
  8
RACCORDO
100
AcDbLine
 62
250
  6
CONTINUOUS
 10
-53.9706832451
 20
20.155087128
 11
-53.9706832597
 21
20.734897472
  0
LINE
  5
2D6
100
AcDbEntity
  8
RACCORDO
100
AcDbLine
 62
250
  6
CONTINUOUS
 10
-53.9706832451
 20
23.655087128
 11
-53.9706832597
 21
24.234897472
  0
LINE
  5
2D7
100
AcDbEntity
  8
RACCORDO
100
AcDbLine
 62
250
  6
CONTINUOUS
 10
-52.4464065966
 20
23.6080644729
 11
-52.4464065966
 21
23.510646569
  0
LINE
  5
2D8
100
AcDbEntity
  8
RACCORDO
100
AcDbLine
 62
250
  6
CONTINUOUS
 10
-52.4464065966
 20
20.1080644729
 11
-52.4464065966
 21
19.8727463422
  0
LINE
  5
2D9
100
AcDbEntity
  8
RACCORDO
100
AcDbLine
 62
250
  6
CONTINUOUS
 10
-52.4464065966
 20
1.1080644729
 11
-52.4464065966
 21
1.010646569
  0
LINE
  5
2DA
100
AcDbEntity
  8
RACCORDO
100
AcDbLine
 62
250
  6
CONTINUOUS
 10
-52.4464065966
 20
-2.3919355271
 11
-52.4464065966
 21
-2.6272536578
  0
LINE
  5
2DB
100
AcDbEntity
  8
RACCORDO
100
AcDbLine
 62
250
  6
CONTINUOUS
 10
-52.4464065966
 20
-24.218084447
 11
-52.4464065966
 21
-24.1206665431
  0
LINE
  5
2DC
100
AcDbEntity
  8
RACCORDO
100
AcDbLine
 62
250
  6
CONTINUOUS
 10
-52.4464065966
 20
-20.718084447
 11
-52.4464065966
 21
-20.4827663163
  0
LINE
  5
2DD
100
AcDbEntity
  8
RACCORDO
100
AcDbLine
 62
250
  6
CONTINUOUS
 10
-52.4464065966
 20
-21.3919355271
 11
-52.4464065966
 21
-21.489353431
  0
LINE
  5
2DE
100
AcDbEntity
  8
RACCORDO
100
AcDbLine
 62
250
  6
CONTINUOUS
 10
-52.4464065966
 20
-24.8919355271
 11
-52.4464065966
 21
-25.1272536578
  0
LINE
  5
2DF
100
AcDbEntity
  8
RACCORDO
100
AcDbLine
 62
250
  6
CONTINUOUS
 10
-52.4464065966
 20
-1.718084447
 11
-52.4464065966
 21
-1.6206665431
  0
LINE
  5
2E0
100
AcDbEntity
  8
RACCORDO
100
AcDbLine
 62
250
  6
CONTINUOUS
 10
-52.4464065966
 20
1.781915553
 11
-52.4464065966
 21
2.0172336837
  0
LINE
  5
2E1
100
AcDbEntity
  8
RACCORDO
100
AcDbLine
 62
250
  6
CONTINUOUS
 10
-52.4464065966
 20
20.781915553
 11
-52.4464065966
 21
20.8793334569
  0
LINE
  5
2E2
100
AcDbEntity
  8
RACCORDO
100
AcDbLine
 62
250
  6
CONTINUOUS
 10
-52.4464065966
 20
24.281915553
 11
-52.4464065966
 21
24.5172336837
  0
LINE
  5
2E3
100
AcDbEntity
  8
RACCORDO
100
AcDbLine
 62
250
  6
CONTINUOUS
 10
-52.3074946676
 20
23.7309889754
 11
-52.3074946676
 21
23.510646569
  0
LINE
  5
2E4
100
AcDbEntity
  8
RACCORDO
100
AcDbLine
 62
250
  6
CONTINUOUS
 10
-52.3074946676
 20
20.2309889754
 11
-52.3074946676
 21
19.8727463422
  0
LINE
  5
2E5
100
AcDbEntity
  8
RACCORDO
100
AcDbLine
 62
250
  6
CONTINUOUS
 10
-52.3074946676
 20
1.2309889754
 11
-52.3074946676
 21
1.010646569
  0
LINE
  5
2E6
100
AcDbEntity
  8
RACCORDO
100
AcDbLine
 62
250
  6
CONTINUOUS
 10
-52.3074946676
 20
-2.2690110246
 11
-52.3074946676
 21
-2.6272536578
  0
LINE
  5
2E7
100
AcDbEntity
  8
RACCORDO
100
AcDbLine
 62
250
  6
CONTINUOUS
 10
-52.3074946676
 20
-24.3410089495
 11
-52.3074946676
 21
-24.1206665431
  0
LINE
  5
2E8
100
AcDbEntity
  8
RACCORDO
100
AcDbLine
 62
250
  6
CONTINUOUS
 10
-52.3074946676
 20
-20.8410089495
 11
-52.3074946676
 21
-20.4827663163
  0
LINE
  5
2E9
100
AcDbEntity
  8
RACCORDO
100
AcDbLine
 62
250
  6
CONTINUOUS
 10
-52.3074946676
 20
-21.2690110246
 11
-52.3074946676
 21
-21.489353431
  0
LINE
  5
2EA
100
AcDbEntity
  8
RACCORDO
100
AcDbLine
 62
250
  6
CONTINUOUS
 10
-52.3074946676
 20
-24.7690110246
 11
-52.3074946676
 21
-25.1272536578
  0
LINE
  5
2EB
100
AcDbEntity
  8
RACCORDO
100
AcDbLine
 62
250
  6
CONTINUOUS
 10
-52.3074946676
 20
-1.8410089495
 11
-52.3074946676
 21
-1.6206665431
  0
LINE
  5
2EC
100
AcDbEntity
  8
RACCORDO
100
AcDbLine
 62
250
  6
CONTINUOUS
 10
-52.3074946676
 20
1.6589910505
 11
-52.3074946676
 21
2.0172336837
  0
LINE
  5
2ED
100
AcDbEntity
  8
RACCORDO
100
AcDbLine
 62
250
  6
CONTINUOUS
 10
-52.3074946676
 20
20.6589910505
 11
-52.3074946676
 21
20.8793334569
  0
LINE
  5
2EE
100
AcDbEntity
  8
RACCORDO
100
AcDbLine
 62
250
  6
CONTINUOUS
 10
-52.3074946676
 20
24.1589910505
 11
-52.3074946676
 21
24.5172336837
  0
LINE
  5
2EF
100
AcDbEntity
  8
RACCORDO
100
AcDbLine
 62
7
  6
CONTINUOUS
 10
-51.8964558288
 20
24.9003815411
 11
-51.8964558288
 21
19.4895984849
  0
LINE
  5
2F0
100
AcDbEntity
  8
RACCORDO
100
AcDbLine
 62
7
  6
CONTINUOUS
 10
-51.8964558288
 20
2.4003815411
 11
-51.8964558288
 21
-3.0104015151
  0
LINE
  5
2F1
100
AcDbEntity
  8
RACCORDO
100
AcDbLine
 62
7
  6
CONTINUOUS
 10
-51.8964558288
 20
-20.0996184589
 11
-51.8964558288
 21
-25.5104015151
  0
LINE
  5
2F2
100
AcDbEntity
  8
RACCORDO
100
AcDbLine
 62
250
  6
CONTINUOUS
 10
-50.8859859798
 20
12.3551006286
 11
-50.8859859798
 21
9.5348793973
  0
LINE
  5
2F3
100
AcDbEntity
  8
RACCORDO
100
AcDbLine
 62
250
  6
CONTINUOUS
 10
-50.8859859798
 20
-10.1448993714
 11
-50.8859859798
 21
-12.9651206027
  0
LINE
  5
2F4
100
AcDbEntity
  8
RACCORDO
100
AcDbLine
 62
250
  6
CONTINUOUS
 10
-52.4464065966
 20
-1.4706690816
 11
-52.046771737
 21
-1.1078934277
  0
LINE
  5
2F5
100
AcDbEntity
  8
RACCORDO
100
AcDbLine
 62
250
  6
CONTINUOUS
 10
-52.3074946676
 20
-1.6206665431
 11
-51.8964558288
 21
-1.2475387243
  0
LINE
  5
2F6
100
AcDbEntity
  8
RACCORDO
100
AcDbLine
 62
250
  6
CONTINUOUS
 10
-52.3074946676
 20
1.6589910505
 11
-53.8314438671
 21
1.444990013
  0
LINE
  5
2F7
100
AcDbEntity
  8
RACCORDO
100
AcDbLine
 62
250
  6
CONTINUOUS
 10
-53.9706510548
 20
1.7348974182
 11
-52.8711643852
 21
1.8892931738
  0
LINE
  5
2F8
100
AcDbEntity
  8
RACCORDO
100
AcDbLine
 62
250
  6
CONTINUOUS
 10
-52.4464065966
 20
0.8606491075
 11
-55.5964558288
 21
0.85573855
  0
LINE
  5
2F9
100
AcDbEntity
  8
RACCORDO
100
AcDbLine
 62
250
  6
CONTINUOUS
 10
-53.9706832451
 20
1.155087128
 11
-55.5964558288
 21
1.1523463026
  0
LINE
  5
2FA
100
AcDbEntity
  8
RACCORDO
100
AcDbLine
 62
7
  6
CONTINUOUS
 10
-55.5964558288
 20
0.9999961159
 11
-52.870887561
 21
1.0006479791
  0
LINE
  5
2FB
100
AcDbEntity
  8
RACCORDO
100
AcDbLine
 62
250
  6
CONTINUOUS
 10
-52.3074946676
 20
1.010646569
 11
-52.72119947
 21
1.0102181992
  0
LINE
  5
2FC
100
AcDbEntity
  8
RACCORDO
100
AcDbLine
 62
7
  6
CONTINUOUS
 10
-52.8711643852
 20
1.8892931738
 11
-55.5964558288
 21
1.8899690919
  0
LINE
  5
2FD
100
AcDbEntity
  8
RACCORDO
100
AcDbLine
 62
250
  6
CONTINUOUS
 10
-53.9706510548
 20
1.7348974182
 11
-55.5964558288
 21
1.7376364035
  0
LINE
  5
2FE
100
AcDbEntity
  8
RACCORDO
100
AcDbLine
 62
250
  6
CONTINUOUS
 10
-52.3074946676
 20
2.0172336838
 11
-55.5964558288
 21
2.024824748
  0
LINE
  5
2FF
100
AcDbEntity
  8
RACCORDO
100
AcDbLine
 62
250
  6
CONTINUOUS
 10
-52.4464065966
 20
2.2293621282
 11
-55.5964558288
 21
2.2369531924
  0
LINE
  5
300
100
AcDbEntity
  8
0
100
AcDbLine
 62
7
  6
CONTINUOUS
 10
-55.5964558288
 20
2.7840832378
 11
-52.0859886376
 21
2.600107448
  0
LINE
  5
301
100
AcDbEntity
  8
RACCORDO
100
AcDbLine
 62
250
  6
CONTINUOUS
 10
-52.870887561
 20
1.0006479791
 11
-53.9706832451
 21
1.155087128
  0
LINE
  5
302
100
AcDbEntity
  8
RACCORDO
100
AcDbLine
 62
250
  6
CONTINUOUS
 10
-53.8314438671
 20
1.444990013
 11
-52.3074946676
 21
1.2309889754
  0
LINE
  5
303
100
AcDbEntity
  8
RACCORDO
100
AcDbLine
 62
250
  6
CONTINUOUS
 10
-52.046771737
 20
0.4978734537
 11
-52.4464065966
 21
0.8606491075
  0
LINE
  5
304
100
AcDbEntity
  8
RACCORDO
100
AcDbLine
 62
250
  6
CONTINUOUS
 10
-51.8964558288
 20
0.6375187503
 11
-52.3074946676
 21
1.010646569
  0
LINE
  5
305
100
AcDbEntity
  8
RACCORDO
100
AcDbLine
 62
7
  6
CONTINUOUS
 10
-50.5964558288
 20
12.0552328874
 11
-50.5964558288
 21
9.8347471203
  0
LINE
  5
306
100
AcDbEntity
  8
RACCORDO
100
AcDbLine
 62
7
  6
CONTINUOUS
 10
-50.5964558288
 20
-10.4447166195
 11
-50.5964558288
 21
-12.6653033546
  0
LINE
  5
307
100
AcDbEntity
  8
0
100
AcDbLine
 62
250
  6
CONTINUOUS
 10
-46.7119258827
 20
-12.055009987
 11
-46.7119258827
 21
-11.055009987
  0
LINE
  5
308
100
AcDbEntity
  8
0
100
AcDbLine
 62
250
  6
CONTINUOUS
 10
-46.7119258827
 20
10.444990013
 11
-46.7119258827
 21
11.444990013
  0
LINE
  5
309
100
AcDbEntity
  8
DRAFT
100
AcDbLine
 62
7
  6
CONTINUOUS
 10
-55.5964558288
 20
9.3703861655
 11
-50.8859859798
 21
9.5348793973
  0
LINE
  5
30A
100
AcDbEntity
  8
ASSI
100
AcDbLine
 62
250
  6
CONTINUOUS
 10
-60.0964558288
 20
10.394990013
 11
-59.9964558288
 21
10.394990013
  0
LINE
  5
30B
100
AcDbEntity
  8
0
100
AcDbLine
 62
7
  6
CONTINUOUS
 10
-46.7119258827
 20
10.444990013
 11
-50.5964558288
 21
10.444990013
  0
LINE
  5
30C
100
AcDbEntity
  8
0
100
AcDbLine
 62
7
  6
CONTINUOUS
 10
-46.7119258827
 20
11.444990013
 11
-50.5964558288
 21
11.444990013
  0
LINE
  5
30D
100
AcDbEntity
  8
DRAFT
100
AcDbLine
 62
7
  6
CONTINUOUS
 10
-55.5964558288
 20
12.5195938604
 11
-50.8859859798
 21
12.3551006286
  0
LINE
  5
30E
100
AcDbEntity
  8
RACCORDO
100
AcDbLine
 62
250
  6
CONTINUOUS
 10
-60.0964558288
 20
12.9930662243
 11
-59.9964558288
 21
12.9930662243
  0
LINE
  5
30F
100
AcDbEntity
  8
RACCORDO
100
AcDbLine
 62
250
  6
CONTINUOUS
 10
-60.0964558288
 20
13.8590916281
 11
-59.9964558288
 21
13.8590916281
  0
LINE
  5
310
100
AcDbEntity
  8
RACCORDO
100
AcDbLine
 62
250
  6
CONTINUOUS
 10
-52.4464065966
 20
-23.9706690816
 11
-52.046771737
 21
-23.6078934277
  0
LINE
  5
311
100
AcDbEntity
  8
RACCORDO
100
AcDbLine
 62
250
  6
CONTINUOUS
 10
-52.3074946676
 20
-24.1206665431
 11
-51.8964558288
 21
-23.7475387243
  0
LINE
  5
312
100
AcDbEntity
  8
RACCORDO
100
AcDbLine
 62
250
  6
CONTINUOUS
 10
-52.4464065966
 20
-20.2706378718
 11
-51.9243147439
 21
-19.9977977986
  0
LINE
  5
313
100
AcDbEntity
  8
RACCORDO
100
AcDbLine
 62
250
  6
CONTINUOUS
 10
-52.3074946676
 20
-20.4827663163
 11
-51.8964558288
 21
-20.2679614572
  0
LINE
  5
314
100
AcDbEntity
  8
RACCORDO
100
AcDbLine
 62
250
  6
CONTINUOUS
 10
-52.3074946676
 20
20.6589910505
 11
-53.8314438671
 21
20.444990013
  0
LINE
  5
315
100
AcDbEntity
  8
RACCORDO
100
AcDbLine
 62
250
  6
CONTINUOUS
 10
-53.9706510548
 20
20.7348974182
 11
-52.870887561
 21
20.8893320469
  0
LINE
  5
316
100
AcDbEntity
  8
0
100
AcDbLine
 62
7
  6
CONTINUOUS
 10
-55.5964558288
 20
19.1058967882
 11
-52.0859886376
 21
19.2898725779
  0
LINE
  5
317
100
AcDbEntity
  8
RACCORDO
100
AcDbLine
 62
250
  6
CONTINUOUS
 10
-52.4464065966
 20
19.6606178978
 11
-55.5964558288
 21
19.6530268335
  0
LINE
  5
318
100
AcDbEntity
  8
RACCORDO
100
AcDbLine
 62
250
  6
CONTINUOUS
 10
-53.9706832451
 20
20.155087128
 11
-55.5964558288
 21
20.1523463026
  0
LINE
  5
319
100
AcDbEntity
  8
RACCORDO
100
AcDbLine
 62
7
  6
CONTINUOUS
 10
-52.8711643852
 20
20.0006868522
 11
-55.5964558288
 21
20.000010934
  0
LINE
  5
31A
100
AcDbEntity
  8
RACCORDO
100
AcDbLine
 62
250
  6
CONTINUOUS
 10
-52.3074946676
 20
19.8727463422
 11
-55.5964558288
 21
19.8651552779
  0
LINE
  5
31B
100
AcDbEntity
  8
RACCORDO
100
AcDbLine
 62
250
  6
CONTINUOUS
 10
-52.8711643852
 20
20.0006868522
 11
-53.9706832451
 21
20.155087128
  0
LINE
  5
31C
100
AcDbEntity
  8
RACCORDO
100
AcDbLine
 62
250
  6
CONTINUOUS
 10
-53.8314438671
 20
20.444990013
 11
-52.3074946676
 21
20.2309889754
  0
LINE
  5
31D
100
AcDbEntity
  8
RACCORDO
100
AcDbLine
 62
250
  6
CONTINUOUS
 10
-51.9243147439
 20
19.3877778246
 11
-52.4464065966
 21
19.6606178978
  0
LINE
  5
31E
100
AcDbEntity
  8
RACCORDO
100
AcDbLine
 62
250
  6
CONTINUOUS
 10
-51.8964558288
 20
19.6579414831
 11
-52.3074946676
 21
19.8727463422
  0
LINE
  5
31F
100
AcDbEntity
  8
RACCORDO
100
AcDbLine
 62
250
  6
CONTINUOUS
 10
-52.046771737
 20
22.9978734537
 11
-52.4464065966
 21
23.3606491075
  0
LINE
  5
320
100
AcDbEntity
  8
RACCORDO
100
AcDbLine
 62
250
  6
CONTINUOUS
 10
-51.8964558288
 20
23.1375187503
 11
-52.3074946676
 21
23.510646569
  0
LINE
  5
321
100
AcDbEntity
  8
RACCORDO
100
AcDbLine
 62
250
  6
CONTINUOUS
 10
-52.3074946676
 20
24.1589910505
 11
-53.8314438671
 21
23.944990013
  0
LINE
  5
322
100
AcDbEntity
  8
RACCORDO
100
AcDbLine
 62
250
  6
CONTINUOUS
 10
-53.9706510548
 20
24.2348974182
 11
-52.8711643852
 21
24.3892931738
  0
LINE
  5
323
100
AcDbEntity
  8
RACCORDO
100
AcDbLine
 62
7
  6
CONTINUOUS
 10
-55.5964558288
 20
22.9923399122
 11
-52.046771737
 21
22.9978734537
  0
LINE
  5
324
100
AcDbEntity
  8
RACCORDO
100
AcDbLine
 62
250
  6
CONTINUOUS
 10
-52.4464065966
 20
23.3606491075
 11
-55.5964558288
 21
23.35573855
  0
LINE
  5
325
100
AcDbEntity
  8
RACCORDO
100
AcDbLine
 62
250
  6
CONTINUOUS
 10
-53.9706832451
 20
23.655087128
 11
-55.5964558288
 21
23.6523463026
  0
LINE
  5
326
100
AcDbEntity
  8
RACCORDO
100
AcDbLine
 62
7
  6
CONTINUOUS
 10
-55.5964558288
 20
23.4999961159
 11
-52.870887561
 21
23.5006479791
  0
LINE
  5
327
100
AcDbEntity
  8
RACCORDO
100
AcDbLine
 62
250
  6
CONTINUOUS
 10
-52.3074946676
 20
23.510646569
 11
-52.72119947
 21
23.5102181992
  0
LINE
  5
328
100
AcDbEntity
  8
RACCORDO
100
AcDbLine
 62
7
  6
CONTINUOUS
 10
-52.870887561
 20
20.8893320469
 11
-55.5964558288
 21
20.8899839101
  0
LINE
  5
329
100
AcDbEntity
  8
RACCORDO
100
AcDbLine
 62
7
  6
CONTINUOUS
 10
-52.8711643852
 20
24.3892931738
 11
-55.5964558288
 21
24.3899690919
  0
LINE
  5
32A
100
AcDbEntity
  8
RACCORDO
100
AcDbLine
 62
250
  6
CONTINUOUS
 10
-52.3074946676
 20
20.8793334574
 11
-52.72119947
 21
20.8797618268
  0
LINE
  5
32B
100
AcDbEntity
  8
RACCORDO
100
AcDbLine
 62
250
  6
CONTINUOUS
 10
-52.4464065966
 20
21.0293309184
 11
-55.5964558288
 21
21.034241476
  0
LINE
  5
32C
100
AcDbEntity
  8
RACCORDO
100
AcDbLine
 62
7
  6
CONTINUOUS
 10
-55.5964558288
 20
21.3976401137
 11
-52.046771737
 21
21.3921065723
  0
LINE
  5
32D
100
AcDbEntity
  8
RACCORDO
100
AcDbLine
 62
250
  6
CONTINUOUS
 10
-53.9706510548
 20
20.7348974182
 11
-55.5964558288
 21
20.7376364035
  0
LINE
  5
32E
100
AcDbEntity
  8
RACCORDO
100
AcDbLine
 62
250
  6
CONTINUOUS
 10
-53.9706510548
 20
24.2348974182
 11
-55.5964558288
 21
24.2376364035
  0
LINE
  5
32F
100
AcDbEntity
  8
RACCORDO
100
AcDbLine
 62
250
  6
CONTINUOUS
 10
-52.3074946676
 20
24.5172336838
 11
-55.5964558288
 21
24.524824748
  0
LINE
  5
330
100
AcDbEntity
  8
RACCORDO
100
AcDbLine
 62
250
  6
CONTINUOUS
 10
-52.870887561
 20
23.5006479791
 11
-53.9706832451
 21
23.655087128
  0
LINE
  5
331
100
AcDbEntity
  8
RACCORDO
100
AcDbLine
 62
250
  6
CONTINUOUS
 10
-53.8314438671
 20
23.944990013
 11
-52.3074946676
 21
23.7309889754
  0
LINE
  5
332
100
AcDbEntity
  8
RACCORDO
100
AcDbLine
 62
250
  6
CONTINUOUS
 10
-52.4464065966
 20
24.7293621282
 11
-55.5964558288
 21
24.7369531924
  0
LINE
  5
333
100
AcDbEntity
  8
0
100
AcDbLine
 62
7
  6
CONTINUOUS
 10
-55.5964558288
 20
25.2840832378
 11
-52.0859886376
 21
25.100107448
  0
LINE
  5
334
100
AcDbEntity
  8
RACCORDO
100
AcDbLine
 62
250
  6
CONTINUOUS
 10
-59.9964558288
 20
30.5308883978
 11
-60.0964558288
 21
30.5308883978
  0
LINE
  5
335
100
AcDbEntity
  8
RACCORDO
100
AcDbLine
 62
250
  6
CONTINUOUS
 10
-59.9964558288
 20
31.3969138016
 11
-60.0964558288
 21
31.3969138016
  0
LINE
  5
336
100
AcDbEntity
  8
ASSI
100
AcDbLine
 62
250
  6
CONTINUOUS
 10
-60.0964558288
 20
33.994990013
 11
-59.9964558288
 21
33.994990013
  0
LINE
  5
337
100
AcDbEntity
  8
SMUSSO
100
AcDbLine
 62
7
  6
CONTINUOUS
 10
-60.1464558288
 20
-58.805009987
 11
-60.6464558288
 21
-59.305009987
  0
LINE
  5
338
100
AcDbEntity
  8
0
100
AcDbLine
 62
7
  6
CONTINUOUS
 10
-57.1690068487
 20
-59.2554891108
 11
-55.5964558288
 21
-57.6829380909
  0
LINE
  5
339
100
AcDbEntity
  8
ASSI
100
AcDbLine
 62
250
  6
CONTINUOUS
 10
-60.0964558288
 20
37.394990013
 11
-59.9964558288
 21
37.394990013
  0
LINE
  5
33A
100
AcDbEntity
  8
RACCORDO
100
AcDbLine
 62
250
  6
CONTINUOUS
 10
-60.0964558288
 20
39.9930662243
 11
-59.9964558288
 21
39.9930662243
  0
LINE
  5
33B
100
AcDbEntity
  8
SMUSSO
100
AcDbLine
 62
7
  6
CONTINUOUS
 10
-60.1464558288
 20
58.194990013
 11
-60.6464558288
 21
58.694990013
  0
LINE
  5
33C
100
AcDbEntity
  8
CURVE
100
AcDbLine
 62
7
  6
CONTINUOUS
 10
-55.5964558288
 20
57.0729181169
 11
-57.1690068487
 21
58.6454691367
  0
LINE
  5
33D
100
AcDbEntity
  8
RACCORDO
100
AcDbLine
 62
250
  6
CONTINUOUS
 10
-60.0964558288
 20
40.8590916281
 11
-59.9964558288
 21
40.8590916281
  0
LINE
  5
33E
100
AcDbEntity
  8
0
100
AcDbLine
 62
250
  6
CONTINUOUS
 10
-57.1690068487
 20
-58.2331495593
 11
-55.5964558288
 21
-57.6329380909
  0
LINE
  5
33F
100
AcDbEntity
  8
CURVE
100
AcDbLine
 62
7
  6
CONTINUOUS
 10
-57.1690068487
 20
58.6454691367
 11
-59.4965319813
 21
58.6048420344
  0
LINE
  5
340
100
AcDbEntity
  8
CURVE
100
AcDbLine
 62
250
  6
CONTINUOUS
 10
-57.1690068487
 20
57.6231295852
 11
-59.4965319813
 21
57.6048420344
  0
LINE
  5
341
100
AcDbEntity
  8
RACCORDO
100
AcDbLine
 62
250
  6
CONTINUOUS
 10
-60.0964558288
 20
53.694990013
 11
-59.9964558288
 21
53.694990013
  0
LINE
  5
342
100
AcDbEntity
  8
RACCORDO
100
AcDbLine
 62
7
  6
CONTINUOUS
 10
-60.0964558288
 20
54.694990013
 11
-59.9964558288
 21
54.694990013
  0
LINE
  5
343
100
AcDbEntity
  8
SMUSSO
100
AcDbLine
 62
250
  6
CONTINUOUS
 10
-60.1464558288
 20
57.694990013
 11
-64.1464558288
 21
57.694990013
  0
LINE
  5
344
100
AcDbEntity
  8
SMUSSO
100
AcDbLine
 62
7
  6
CONTINUOUS
 10
-63.1464558288
 20
58.694990013
 11
-60.6464558288
 21
58.694990013
  0
LINE
  5
345
100
AcDbEntity
  8
CURVE
100
AcDbLine
 62
250
  6
CONTINUOUS
 10
-59.4965319813
 20
57.6048420344
 11
-59.9964558288
 21
57.6461158312
  0
LINE
  5
346
100
AcDbEntity
  8
CURVE
100
AcDbLine
 62
250
  6
CONTINUOUS
 10
-55.5964558288
 20
57.0229181169
 11
-57.1690068487
 21
57.6231295852
  0
ARC
  5
347
100
AcDbEntity
  8
SMUSSO
100
AcDbCircle
 62
7
  6
CONTINUOUS
 10
-20.3304883517
 20
-58.305009987
 40
1.0
100
AcDbArc
 50
180.0
 51
270.0
  0
ARC
  5
348
100
AcDbEntity
  8
SMUSSO
100
AcDbCircle
 62
7
  6
CONTINUOUS
 10
83.6695116483
 20
-58.305009987
 40
1.0
100
AcDbArc
 50
270.0
 51
360.0
  0
ARC
  5
349
100
AcDbEntity
  8
SMUSSO
100
AcDbCircle
 62
7
  6
CONTINUOUS
 10
83.6695116483
 20
57.694990013
 40
1.0
100
AcDbArc
 50
0.0
 51
90.0
  0
ARC
  5
34A
100
AcDbEntity
  8
SMUSSO
100
AcDbCircle
 62
7
  6
CONTINUOUS
 10
-20.3304883517
 20
57.694990013
 40
1.0
100
AcDbArc
 50
90.0
 51
180.0
  0
ARC
  5
34B
100
AcDbEntity
  8
RACCORDO
100
AcDbCircle
 62
250
  6
CONTINUOUS
 10
-99.5198712982
 20
-24.0456678123
 40
47.0735244465
100
AcDbArc
 50
359.9087148751
 51
0.0912851249
  0
ARC
  5
34C
100
AcDbEntity
  8
RACCORDO
100
AcDbCircle
 62
250
  6
CONTINUOUS
 10
-96.2688753599
 20
-21.5643521617
 40
43.8225329405
100
AcDbArc
 50
359.9019428465
 51
0.0980571535
  0
ARC
  5
34D
100
AcDbEntity
  8
RACCORDO
100
AcDbCircle
 62
250
  6
CONTINUOUS
 10
-94.276657091
 20
-20.376702094
 40
41.8303849617
100
AcDbArc
 50
359.8547219011
 51
0.1452780989
  0
ARC
  5
34E
100
AcDbEntity
  8
RACCORDO
100
AcDbCircle
 62
250
  6
CONTINUOUS
 10
-87.7031204362
 20
-25.23331788
 40
35.2568733779
100
AcDbArc
 50
359.8276352701
 51
0.1723647299
  0
ARC
  5
34F
100
AcDbEntity
  8
RACCORDO
100
AcDbCircle
 62
250
  6
CONTINUOUS
 10
-99.5198713068
 20
-1.5456678123
 40
47.0735244551
100
AcDbArc
 50
359.9087148751
 51
0.0912851249
  0
ARC
  5
350
100
AcDbEntity
  8
RACCORDO
100
AcDbCircle
 62
250
  6
CONTINUOUS
 10
-99.5198712981
 20
20.9543321877
 40
47.0735244465
100
AcDbArc
 50
359.9087148751
 51
0.0912851249
  0
ARC
  5
351
100
AcDbEntity
  8
RACCORDO
100
AcDbCircle
 62
250
  6
CONTINUOUS
 10
-96.2688753599
 20
23.4356478383
 40
43.8225329405
100
AcDbArc
 50
359.9019428465
 51
0.0980571535
  0
ARC
  5
352
100
AcDbEntity
  8
RACCORDO
100
AcDbCircle
 62
250
  6
CONTINUOUS
 10
-96.2688753519
 20
0.9356478383
 40
43.8225329324
100
AcDbArc
 50
359.9019428465
 51
0.0980571535
  0
ARC
  5
353
100
AcDbEntity
  8
RACCORDO
100
AcDbCircle
 62
250
  6
CONTINUOUS
 10
-94.2766570952
 20
24.623297906
 40
41.8303849659
100
AcDbArc
 50
359.8547219012
 51
0.1452780988
  0
ARC
  5
354
100
AcDbEntity
  8
RACCORDO
100
AcDbCircle
 62
250
  6
CONTINUOUS
 10
-94.2766570878
 20
2.123297906
 40
41.8303849584
100
AcDbArc
 50
359.8547219011
 51
0.1452780989
  0
ARC
  5
355
100
AcDbEntity
  8
RACCORDO
100
AcDbCircle
 62
250
  6
CONTINUOUS
 10
-87.7031204362
 20
19.76668212
 40
35.2568733779
100
AcDbArc
 50
359.8276352701
 51
0.1723647299
  0
ARC
  5
356
100
AcDbEntity
  8
RACCORDO
100
AcDbCircle
 62
250
  6
CONTINUOUS
 10
-87.7031204362
 20
-2.73331788
 40
35.2568733779
100
AcDbArc
 50
359.8276352701
 51
0.1723647299
  0
ARC
  5
357
100
AcDbEntity
  8
RACCORDO
100
AcDbCircle
 62
7
  6
CONTINUOUS
 10
-53.4032072794
 20
-20.1707428101
 40
1.5513797726
100
AcDbArc
 50
308.0785885698
 51
314.9332605011
  0
ARC
  5
358
100
AcDbEntity
  8
RACCORDO
100
AcDbCircle
 62
7
  6
CONTINUOUS
 10
-53.4032072794
 20
-23.67074281
 40
1.5513797726
100
AcDbArc
 50
308.0785885698
 51
314.9332605011
  0
ARC
  5
359
100
AcDbEntity
  8
RACCORDO
100
AcDbCircle
 62
7
  6
CONTINUOUS
 10
-53.3944996529
 20
-21.9294370331
 40
1.5382638042
100
AcDbArc
 50
45.037481049
 51
51.95066988
  0
ARC
  5
35A
100
AcDbEntity
  8
RACCORDO
100
AcDbCircle
 62
7
  6
CONTINUOUS
 10
-53.3944996529
 20
-25.4294370331
 40
1.5382638042
100
AcDbArc
 50
45.037481049
 51
51.95066988
  0
ARC
  5
35B
100
AcDbEntity
  8
0
100
AcDbCircle
 62
7
  6
CONTINUOUS
 10
-58.2956476072
 20
-58.2331131632
 40
1.1266407591
100
AcDbArc
 50
358.8544400216
 51
359.9981490653
  0
ARC
  5
35C
100
AcDbEntity
  8
RACCORDO
100
AcDbCircle
 62
7
  6
CONTINUOUS
 10
-52.0964558288
 20
-25.5104015151
 40
0.2
100
AcDbArc
 50
273.0
 51
360.0
  0
ARC
  5
35D
100
AcDbEntity
  8
RACCORDO
100
AcDbCircle
 62
7
  6
CONTINUOUS
 10
-52.0964558288
 20
-20.0996184589
 40
0.2
100
AcDbArc
 50
0.0
 51
87.0
  0
ARC
  5
35E
100
AcDbEntity
  8
RACCORDO
100
AcDbCircle
 62
7
  6
CONTINUOUS
 10
-53.4032072794
 20
24.82925719
 40
1.5513797726
100
AcDbArc
 50
308.0785885698
 51
314.9332605011
  0
ARC
  5
35F
100
AcDbEntity
  8
RACCORDO
100
AcDbCircle
 62
7
  6
CONTINUOUS
 10
-53.4032072794
 20
21.3292571899
 40
1.5513797726
100
AcDbArc
 50
308.0785885698
 51
314.9332605011
  0
ARC
  5
360
100
AcDbEntity
  8
RACCORDO
100
AcDbCircle
 62
7
  6
CONTINUOUS
 10
-53.4032072794
 20
2.32925719
 40
1.5513797726
100
AcDbArc
 50
308.0785885698
 51
314.9332605011
  0
ARC
  5
361
100
AcDbEntity
  8
RACCORDO
100
AcDbCircle
 62
7
  6
CONTINUOUS
 10
-53.4032072794
 20
-1.17074281
 40
1.5513797726
100
AcDbArc
 50
308.0785885698
 51
314.9332605011
  0
ARC
  5
362
100
AcDbEntity
  8
RACCORDO
100
AcDbCircle
 62
7
  6
CONTINUOUS
 10
-53.3944996529
 20
23.0705629669
 40
1.5382638042
100
AcDbArc
 50
45.037481049
 51
51.95066988
  0
ARC
  5
363
100
AcDbEntity
  8
RACCORDO
100
AcDbCircle
 62
7
  6
CONTINUOUS
 10
-53.3944996529
 20
19.5705629669
 40
1.5382638042
100
AcDbArc
 50
45.037481049
 51
51.95066988
  0
ARC
  5
364
100
AcDbEntity
  8
RACCORDO
100
AcDbCircle
 62
7
  6
CONTINUOUS
 10
-53.3944996529
 20
0.5705629669
 40
1.5382638042
100
AcDbArc
 50
45.037481049
 51
51.95066988
  0
ARC
  5
365
100
AcDbEntity
  8
RACCORDO
100
AcDbCircle
 62
7
  6
CONTINUOUS
 10
-53.3944996529
 20
-2.9294370331
 40
1.5382638042
100
AcDbArc
 50
45.037481049
 51
51.95066988
  0
ARC
  5
366
100
AcDbEntity
  8
0
100
AcDbCircle
 62
7
  6
CONTINUOUS
 10
-46.7119258827
 20
10.944990013
 40
0.5
100
AcDbArc
 50
270.0
 51
90.0
  0
ARC
  5
367
100
AcDbEntity
  8
0
100
AcDbCircle
 62
7
  6
CONTINUOUS
 10
-46.7119258827
 20
-11.555009987
 40
0.5
100
AcDbArc
 50
270.0
 51
90.0
  0
ARC
  5
368
100
AcDbEntity
  8
RACCORDO
100
AcDbCircle
 62
7
  6
CONTINUOUS
 10
-50.8964558288
 20
12.0552833805
 40
0.3
100
AcDbArc
 50
0.0
 51
88.0
  0
ARC
  5
369
100
AcDbEntity
  8
RACCORDO
100
AcDbCircle
 62
7
  6
CONTINUOUS
 10
-50.8964558288
 20
9.8346966454
 40
0.3
100
AcDbArc
 50
272.0
 51
360.0
  0
ARC
  5
36A
100
AcDbEntity
  8
RACCORDO
100
AcDbCircle
 62
7
  6
CONTINUOUS
 10
-50.8964558288
 20
-12.6653033546
 40
0.3
100
AcDbArc
 50
272.0
 51
360.0
  0
ARC
  5
36B
100
AcDbEntity
  8
RACCORDO
100
AcDbCircle
 62
7
  6
CONTINUOUS
 10
-50.8964558288
 20
-10.4447166195
 40
0.3
100
AcDbArc
 50
0.0
 51
87.9999999988
  0
ARC
  5
36C
100
AcDbEntity
  8
RACCORDO
100
AcDbCircle
 62
7
  6
CONTINUOUS
 10
-52.0964558288
 20
19.4895984849
 40
0.2
100
AcDbArc
 50
273.0
 51
360.0
  0
ARC
  5
36D
100
AcDbEntity
  8
RACCORDO
100
AcDbCircle
 62
7
  6
CONTINUOUS
 10
-52.0964558288
 20
24.9003815411
 40
0.2
100
AcDbArc
 50
0.0
 51
87.0
  0
ARC
  5
36E
100
AcDbEntity
  8
RACCORDO
100
AcDbCircle
 62
7
  6
CONTINUOUS
 10
-52.0964558288
 20
-3.0104015151
 40
0.2
100
AcDbArc
 50
273.0
 51
360.0
  0
ARC
  5
36F
100
AcDbEntity
  8
RACCORDO
100
AcDbCircle
 62
7
  6
CONTINUOUS
 10
-52.0964558288
 20
2.4003815411
 40
0.2
100
AcDbArc
 50
0.0
 51
87.0
  0
SPLINE
  5
370
100
AcDbEntity
  8
CURVE
100
AcDbSpline
 62
7
  6
CONTINUOUS
 70
0
 71
3
 72
12
 73
8
 74
0
 42
0.0000001
 43
0.0000001
 44
0.0000000001
 40
0.0
 40
0.0
 40
0.0
 40
0.0
 40
0.0761175337
 40
0.1685055595
 40
0.292858781
 40
0.6173048569
 40
1.0
 40
1.0
 40
1.0
 40
1.0
 10
-57.1690068487
 20
58.6454691367
 30
0.0
 10
-57.1676982791
 20
58.6195566252
 30
0.0
 10
-57.1656155879
 20
58.5621653617
 30
0.0
 10
-57.164099602
 20
58.4623612552
 30
0.0
 10
-57.1633304519
 20
58.2779191945
 30
0.0
 10
-57.1661769735
 20
57.9945451428
 30
0.0
 10
-57.1690068487
 20
57.7535559339
 30
0.0
 10
-57.1690068487
 20
57.6231295852
 30
0.0
  0
SPLINE
  5
371
100
AcDbEntity
  8
0
100
AcDbSpline
 62
7
  6
CONTINUOUS
 70
0
 71
3
 72
23
 73
19
 74
0
 42
0.0000001
 43
0.0000001
 44
0.0000000001
 40
0.0
 40
0.0
 40
0.0
 40
0.0
 40
0.1950057642
 40
0.3825244948
 40
0.5553441094
 40
0.6341369013
 40
0.7068251754
 40
0.7726985692
 40
0.8311340039
 40
0.8815560927
 40
0.9234952371
 40
0.956537626
 40
0.9696274341
 40
0.9803855123
 40
0.9887844524
 40
0.9948174751
 40
0.9985011931
 40
1.0
 40
1.0
 40
1.0
 40
1.0
 10
-57.1692320289
 20
-58.2556374851
 30
0.0
 10
-57.1705298135
 20
-58.3206416516
 30
0.0
 10
-57.1719041891
 20
-58.4481773967
 30
0.0
 10
-57.1721700891
 20
-58.6333354612
 30
0.0
 10
-57.171875322
 20
-58.7797465555
 30
0.0
 10
-57.1717062114
 20
-58.8878719403
 30
0.0
 10
-57.1716519492
 20
-58.9603402989
 30
0.0
 10
-57.1716975493
 20
-59.0260215823
 30
0.0
 10
-57.1718125636
 20
-59.0842780478
 30
0.0
 10
-57.1719702229
 20
-59.1345571904
 30
0.0
 10
-57.1720805932
 20
-59.1763621499
 30
0.0
 10
-57.1720697894
 20
-59.2057399143
 30
0.0
 10
-57.1718927216
 20
-59.224686369
 30
0.0
 10
-57.1716660467
 20
-59.2354797982
 30
0.0
 10
-57.1713724321
 20
-59.2437592483
 30
0.0
 10
-57.1708765219
 20
-59.2500454615
 30
0.0
 10
-57.1704444835
 20
-59.253277546
 30
0.0
 10
-57.1697316719
 20
-59.2554764589
 30
0.0
 10
-57.1692320289
 20
-59.2554851802
 30
0.0
  0
SPLINE
  5
372
100
AcDbEntity
  8
RACCORDO
100
AcDbSpline
 62
250
  6
CONTINUOUS
 70
0
 71
3
 72
9
 73
5
 74
0
 42
0.0000001
 43
0.0000001
 44
0.0000000001
 40
0.0
 40
0.0
 40
0.0
 40
0.0
 40
0.5210856379
 40
1.0
 40
1.0
 40
1.0
 40
1.0
 10
-52.3074946676
 20
-20.4827663163
 30
0.0
 10
-52.3242069792
 20
-20.4417756893
 30
0.0
 10
-52.3639256108
 20
-20.3661447718
 30
0.0
 10
-52.4169613375
 20
-20.298712329
 30
0.0
 10
-52.4464065966
 20
-20.2706378718
 30
0.0
  0
SPLINE
  5
373
100
AcDbEntity
  8
RACCORDO
100
AcDbSpline
 62
250
  6
CONTINUOUS
 70
0
 71
3
 72
9
 73
5
 74
0
 42
0.0000001
 43
0.0000001
 44
0.0000000001
 40
0.0
 40
0.0
 40
0.0
 40
0.0
 40
0.5020569823
 40
1.0
 40
1.0
 40
1.0
 40
1.0
 10
-52.3074946676
 20
-21.489353431
 30
0.0
 10
-52.3273093436
 20
-21.5173317414
 30
0.0
 10
-52.3706932357
 20
-21.5703348084
 30
0.0
 10
-52.4201966869
 20
-21.6176883972
 30
0.0
 10
-52.4464065966
 20
-21.6393508925
 30
0.0
  0
SPLINE
  5
374
100
AcDbEntity
  8
RACCORDO
100
AcDbSpline
 62
250
  6
CONTINUOUS
 70
0
 71
3
 72
9
 73
5
 74
0
 42
0.0000001
 43
0.0000001
 44
0.0000000001
 40
0.0
 40
0.0
 40
0.0
 40
0.0
 40
0.5020798941
 40
1.0
 40
1.0
 40
1.0
 40
1.0
 10
-52.3074946676
 20
-24.1206665431
 30
0.0
 10
-52.3273102469
 20
-24.0926869572
 30
0.0
 10
-52.370694424
 20
-24.0396840995
 30
0.0
 10
-52.4201978942
 20
-23.9923305792
 30
0.0
 10
-52.4464065966
 20
-23.9706690816
 30
0.0
  0
SPLINE
  5
375
100
AcDbEntity
  8
RACCORDO
100
AcDbSpline
 62
250
  6
CONTINUOUS
 70
0
 71
3
 72
9
 73
5
 74
0
 42
0.0000001
 43
0.0000001
 44
0.0000000001
 40
0.0
 40
0.0
 40
0.0
 40
0.0
 40
0.5210833229
 40
1.0
 40
1.0
 40
1.0
 40
1.0
 10
-52.3074946676
 20
-25.1272536578
 30
0.0
 10
-52.3242069049
 20
-25.1682441026
 30
0.0
 10
-52.3639255047
 20
-25.2438750275
 30
0.0
 10
-52.4169611951
 20
-25.3113075095
 30
0.0
 10
-52.4464065966
 20
-25.3393821022
 30
0.0
  0
SPLINE
  5
376
100
AcDbEntity
  8
RACCORDO
100
AcDbSpline
 62
250
  6
CONTINUOUS
 70
0
 71
3
 72
9
 73
5
 74
0
 42
0.0000001
 43
0.0000001
 44
0.0000000001
 40
0.0
 40
0.0
 40
0.0
 40
0.0
 40
0.5210833229
 40
1.0
 40
1.0
 40
1.0
 40
1.0
 10
-52.3074946676
 20
-2.6272536578
 30
0.0
 10
-52.3242069049
 20
-2.6682441026
 30
0.0
 10
-52.3639255047
 20
-2.7438750275
 30
0.0
 10
-52.4169611951
 20
-2.8113075095
 30
0.0
 10
-52.4464065966
 20
-2.8393821022
 30
0.0
  0
SPLINE
  5
377
100
AcDbEntity
  8
RACCORDO
100
AcDbSpline
 62
250
  6
CONTINUOUS
 70
0
 71
3
 72
9
 73
5
 74
0
 42
0.0000001
 43
0.0000001
 44
0.0000000001
 40
0.0
 40
0.0
 40
0.0
 40
0.0
 40
0.5020798941
 40
1.0
 40
1.0
 40
1.0
 40
1.0
 10
-52.3074946676
 20
-1.6206665431
 30
0.0
 10
-52.3273102469
 20
-1.5926869572
 30
0.0
 10
-52.370694424
 20
-1.5396840995
 30
0.0
 10
-52.4201978942
 20
-1.4923305792
 30
0.0
 10
-52.4464065966
 20
-1.4706690816
 30
0.0
  0
SPLINE
  5
378
100
AcDbEntity
  8
RACCORDO
100
AcDbSpline
 62
250
  6
CONTINUOUS
 70
0
 71
3
 72
9
 73
5
 74
0
 42
0.0000001
 43
0.0000001
 44
0.0000000001
 40
0.0
 40
0.0
 40
0.0
 40
0.0
 40
0.5020569823
 40
1.0
 40
1.0
 40
1.0
 40
1.0
 10
-52.3074946676
 20
1.010646569
 30
0.0
 10
-52.3273093436
 20
0.9826682586
 30
0.0
 10
-52.3706932357
 20
0.9296651916
 30
0.0
 10
-52.4201966869
 20
0.8823116028
 30
0.0
 10
-52.4464065966
 20
0.8606491075
 30
0.0
  0
SPLINE
  5
379
100
AcDbEntity
  8
RACCORDO
100
AcDbSpline
 62
250
  6
CONTINUOUS
 70
0
 71
3
 72
9
 73
5
 74
0
 42
0.0000001
 43
0.0000001
 44
0.0000000001
 40
0.0
 40
0.0
 40
0.0
 40
0.0
 40
0.5210856379
 40
1.0
 40
1.0
 40
1.0
 40
1.0
 10
-52.3074946676
 20
2.0172336837
 30
0.0
 10
-52.3242069792
 20
2.0582243107
 30
0.0
 10
-52.3639256108
 20
2.1338552282
 30
0.0
 10
-52.4169613375
 20
2.201287671
 30
0.0
 10
-52.4464065966
 20
2.2293621282
 30
0.0
  0
SPLINE
  5
37A
100
AcDbEntity
  8
RACCORDO
100
AcDbSpline
 62
250
  6
CONTINUOUS
 70
0
 71
3
 72
9
 73
5
 74
0
 42
0.0000001
 43
0.0000001
 44
0.0000000001
 40
0.0
 40
0.0
 40
0.0
 40
0.0
 40
0.5210856379
 40
1.0
 40
1.0
 40
1.0
 40
1.0
 10
-52.3074946676
 20
24.5172336837
 30
0.0
 10
-52.3242069792
 20
24.5582243107
 30
0.0
 10
-52.3639256108
 20
24.6338552282
 30
0.0
 10
-52.4169613375
 20
24.701287671
 30
0.0
 10
-52.4464065966
 20
24.7293621282
 30
0.0
  0
SPLINE
  5
37B
100
AcDbEntity
  8
RACCORDO
100
AcDbSpline
 62
250
  6
CONTINUOUS
 70
0
 71
3
 72
9
 73
5
 74
0
 42
0.0000001
 43
0.0000001
 44
0.0000000001
 40
0.0
 40
0.0
 40
0.0
 40
0.0
 40
0.5020569823
 40
1.0
 40
1.0
 40
1.0
 40
1.0
 10
-52.3074946676
 20
23.510646569
 30
0.0
 10
-52.3273093436
 20
23.4826682586
 30
0.0
 10
-52.3706932357
 20
23.4296651916
 30
0.0
 10
-52.4201966869
 20
23.3823116028
 30
0.0
 10
-52.4464065966
 20
23.3606491075
 30
0.0
  0
SPLINE
  5
37C
100
AcDbEntity
  8
RACCORDO
100
AcDbSpline
 62
250
  6
CONTINUOUS
 70
0
 71
3
 72
9
 73
5
 74
0
 42
0.0000001
 43
0.0000001
 44
0.0000000001
 40
0.0
 40
0.0
 40
0.0
 40
0.0
 40
0.5020798941
 40
1.0
 40
1.0
 40
1.0
 40
1.0
 10
-52.3074946676
 20
20.8793334569
 30
0.0
 10
-52.3273102469
 20
20.9073130428
 30
0.0
 10
-52.370694424
 20
20.9603159005
 30
0.0
 10
-52.4201978942
 20
21.0076694208
 30
0.0
 10
-52.4464065966
 20
21.0293309184
 30
0.0
  0
SPLINE
  5
37D
100
AcDbEntity
  8
RACCORDO
100
AcDbSpline
 62
250
  6
CONTINUOUS
 70
0
 71
3
 72
9
 73
5
 74
0
 42
0.0000001
 43
0.0000001
 44
0.0000000001
 40
0.0
 40
0.0
 40
0.0
 40
0.0
 40
0.5210833229
 40
1.0
 40
1.0
 40
1.0
 40
1.0
 10
-52.3074946676
 20
19.8727463422
 30
0.0
 10
-52.3242069049
 20
19.8317558974
 30
0.0
 10
-52.3639255047
 20
19.7561249725
 30
0.0
 10
-52.4169611951
 20
19.6886924905
 30
0.0
 10
-52.4464065966
 20
19.6606178978
 30
0.0
  0
SPLINE
  5
37E
100
AcDbEntity
  8
RACCORDO
100
AcDbSpline
 62
250
  6
CONTINUOUS
 70
0
 71
3
 72
11
 73
7
 74
0
 42
0.0000001
 43
0.0000001
 44
0.0000000001
 40
0.0
 40
0.0
 40
0.0
 40
0.0
 40
0.1839650685
 40
0.4206724042
 40
0.6998695783
 40
1.0
 40
1.0
 40
1.0
 40
1.0
 10
-53.9706832451
 20
-24.844912872
 30
0.0
 10
-53.952273461
 20
-24.8362103264
 30
0.0
 10
-53.9164866876
 20
-24.8038909015
 30
0.0
 10
-53.8766501021
 20
-24.7369675823
 30
0.0
 10
-53.8459000343
 20
-24.6514949542
 30
0.0
 10
-53.8341640927
 20
-24.5881597422
 30
0.0
 10
-53.8305495952
 20
-24.5551355654
 30
0.0
  0
SPLINE
  5
37F
100
AcDbEntity
  8
RACCORDO
100
AcDbSpline
 62
7
  6
CONTINUOUS
 70
0
 71
3
 72
8
 73
4
 74
0
 42
0.0000001
 43
0.0000001
 44
0.0000000001
 40
0.0
 40
0.0
 40
0.0
 40
0.0
 40
1.0
 40
1.0
 40
1.0
 40
1.0
 10
-52.72119947
 20
-24.1202381732
 30
0.0
 10
-52.7707609109
 20
-24.1136462092
 30
0.0
 10
-52.8208896584
 20
-24.110679802
 30
0.0
 10
-52.870887561
 20
-24.1106679531
 30
0.0
  0
SPLINE
  5
380
100
AcDbEntity
  8
RACCORDO
100
AcDbSpline
 62
250
  6
CONTINUOUS
 70
0
 71
3
 72
11
 73
7
 74
0
 42
0.0000001
 43
0.0000001
 44
0.0000000001
 40
0.0
 40
0.0
 40
0.0
 40
0.0
 40
0.1839130543
 40
0.4206364602
 40
0.699848212
 40
1.0
 40
1.0
 40
1.0
 40
1.0
 10
-53.9706832451
 20
-24.2651071021
 30
0.0
 10
-53.9522797078
 20
-24.2738066513
 30
0.0
 10
-53.9165223638
 20
-24.306150274
 30
0.0
 10
-53.8766720446
 20
-24.3730512125
 30
0.0
 10
-53.8459427317
 20
-24.458533876
 30
0.0
 10
-53.834171427
 20
-24.5218605783
 30
0.0
 10
-53.8305495952
 20
-24.5548844086
 30
0.0
  0
SPLINE
  5
381
100
AcDbEntity
  8
RACCORDO
100
AcDbSpline
 62
7
  6
CONTINUOUS
 70
0
 71
3
 72
8
 73
4
 74
0
 42
0.0000001
 43
0.0000001
 44
0.0000000001
 40
0.0
 40
0.0
 40
0.0
 40
0.0
 40
1.0
 40
1.0
 40
1.0
 40
1.0
 10
-52.870887561
 20
-21.4993520209
 30
0.0
 10
-52.8208896584
 20
-21.4993401721
 30
0.0
 10
-52.7707609109
 20
-21.4963737648
 30
0.0
 10
-52.72119947
 20
-21.4897818008
 30
0.0
  0
SPLINE
  5
382
100
AcDbEntity
  8
RACCORDO
100
AcDbSpline
 62
250
  6
CONTINUOUS
 70
0
 71
3
 72
11
 73
7
 74
0
 42
0.0000001
 43
0.0000001
 44
0.0000000001
 40
0.0
 40
0.0
 40
0.0
 40
0.0
 40
0.1839650685
 40
0.4206724042
 40
0.6998695783
 40
1.0
 40
1.0
 40
1.0
 40
1.0
 10
-53.9706832451
 20
-21.344912872
 30
0.0
 10
-53.952273461
 20
-21.3362103264
 30
0.0
 10
-53.9164866876
 20
-21.3038909015
 30
0.0
 10
-53.8766501021
 20
-21.2369675823
 30
0.0
 10
-53.8459000343
 20
-21.1514949542
 30
0.0
 10
-53.8341640927
 20
-21.0881597422
 30
0.0
 10
-53.8305495952
 20
-21.0551355654
 30
0.0
  0
SPLINE
  5
383
100
AcDbEntity
  8
RACCORDO
100
AcDbSpline
 62
250
  6
CONTINUOUS
 70
0
 71
3
 72
11
 73
7
 74
0
 42
0.0000001
 43
0.0000001
 44
0.0000000001
 40
0.0
 40
0.0
 40
0.0
 40
0.0
 40
0.1839130543
 40
0.4206364602
 40
0.699848212
 40
1.0
 40
1.0
 40
1.0
 40
1.0
 10
-53.9706832451
 20
-20.7651071021
 30
0.0
 10
-53.9522797078
 20
-20.7738066513
 30
0.0
 10
-53.9165223638
 20
-20.806150274
 30
0.0
 10
-53.8766720446
 20
-20.8730512125
 30
0.0
 10
-53.8459427317
 20
-20.958533876
 30
0.0
 10
-53.834171427
 20
-21.0218605783
 30
0.0
 10
-53.8305495952
 20
-21.0548844086
 30
0.0
  0
SPLINE
  5
384
100
AcDbEntity
  8
RACCORDO
100
AcDbSpline
 62
250
  6
CONTINUOUS
 70
0
 71
3
 72
11
 73
7
 74
0
 42
0.0000001
 43
0.0000001
 44
0.0000000001
 40
0.0
 40
0.0
 40
0.0
 40
0.0
 40
0.1839650685
 40
0.4206724042
 40
0.6998695783
 40
1.0
 40
1.0
 40
1.0
 40
1.0
 10
-53.9706832451
 20
-2.344912872
 30
0.0
 10
-53.952273461
 20
-2.3362103264
 30
0.0
 10
-53.9164866876
 20
-2.3038909015
 30
0.0
 10
-53.8766501021
 20
-2.2369675823
 30
0.0
 10
-53.8459000343
 20
-2.1514949542
 30
0.0
 10
-53.8341640927
 20
-2.0881597422
 30
0.0
 10
-53.8305495952
 20
-2.0551355654
 30
0.0
  0
SPLINE
  5
385
100
AcDbEntity
  8
RACCORDO
100
AcDbSpline
 62
7
  6
CONTINUOUS
 70
0
 71
3
 72
8
 73
4
 74
0
 42
0.0000001
 43
0.0000001
 44
0.0000000001
 40
0.0
 40
0.0
 40
0.0
 40
0.0
 40
1.0
 40
1.0
 40
1.0
 40
1.0
 10
-52.72119947
 20
-1.6202381732
 30
0.0
 10
-52.7707609109
 20
-1.6136462092
 30
0.0
 10
-52.8208896584
 20
-1.610679802
 30
0.0
 10
-52.870887561
 20
-1.6106679531
 30
0.0
  0
SPLINE
  5
386
100
AcDbEntity
  8
RACCORDO
100
AcDbSpline
 62
250
  6
CONTINUOUS
 70
0
 71
3
 72
11
 73
7
 74
0
 42
0.0000001
 43
0.0000001
 44
0.0000000001
 40
0.0
 40
0.0
 40
0.0
 40
0.0
 40
0.1839130543
 40
0.4206364602
 40
0.699848212
 40
1.0
 40
1.0
 40
1.0
 40
1.0
 10
-53.9706832451
 20
-1.7651071021
 30
0.0
 10
-53.9522797078
 20
-1.7738066513
 30
0.0
 10
-53.9165223638
 20
-1.806150274
 30
0.0
 10
-53.8766720446
 20
-1.8730512125
 30
0.0
 10
-53.8459427317
 20
-1.958533876
 30
0.0
 10
-53.834171427
 20
-2.0218605783
 30
0.0
 10
-53.8305495952
 20
-2.0548844086
 30
0.0
  0
SPLINE
  5
387
100
AcDbEntity
  8
RACCORDO
100
AcDbSpline
 62
7
  6
CONTINUOUS
 70
0
 71
3
 72
8
 73
4
 74
0
 42
0.0000001
 43
0.0000001
 44
0.0000000001
 40
0.0
 40
0.0
 40
0.0
 40
0.0
 40
1.0
 40
1.0
 40
1.0
 40
1.0
 10
-52.870887561
 20
1.0006479791
 30
0.0
 10
-52.8208896584
 20
1.0006598279
 30
0.0
 10
-52.7707609109
 20
1.0036262352
 30
0.0
 10
-52.72119947
 20
1.0102181992
 30
0.0
  0
SPLINE
  5
388
100
AcDbEntity
  8
RACCORDO
100
AcDbSpline
 62
250
  6
CONTINUOUS
 70
0
 71
3
 72
11
 73
7
 74
0
 42
0.0000001
 43
0.0000001
 44
0.0000000001
 40
0.0
 40
0.0
 40
0.0
 40
0.0
 40
0.1839650685
 40
0.4206724042
 40
0.6998695783
 40
1.0
 40
1.0
 40
1.0
 40
1.0
 10
-53.9706832451
 20
1.155087128
 30
0.0
 10
-53.952273461
 20
1.1637896736
 30
0.0
 10
-53.9164866876
 20
1.1961090985
 30
0.0
 10
-53.8766501021
 20
1.2630324177
 30
0.0
 10
-53.8459000343
 20
1.3485050458
 30
0.0
 10
-53.8341640927
 20
1.4118402578
 30
0.0
 10
-53.8305495952
 20
1.4448644346
 30
0.0
  0
SPLINE
  5
389
100
AcDbEntity
  8
RACCORDO
100
AcDbSpline
 62
250
  6
CONTINUOUS
 70
0
 71
3
 72
11
 73
7
 74
0
 42
0.0000001
 43
0.0000001
 44
0.0000000001
 40
0.0
 40
0.0
 40
0.0
 40
0.0
 40
0.1839130543
 40
0.4206364602
 40
0.699848212
 40
1.0
 40
1.0
 40
1.0
 40
1.0
 10
-53.9706832451
 20
1.7348928979
 30
0.0
 10
-53.9522797078
 20
1.7261933487
 30
0.0
 10
-53.9165223638
 20
1.693849726
 30
0.0
 10
-53.8766720446
 20
1.6269487875
 30
0.0
 10
-53.8459427317
 20
1.541466124
 30
0.0
 10
-53.834171427
 20
1.4781394217
 30
0.0
 10
-53.8305495952
 20
1.4451155914
 30
0.0
  0
SPLINE
  5
38A
100
AcDbEntity
  8
RACCORDO
100
AcDbSpline
 62
250
  6
CONTINUOUS
 70
0
 71
3
 72
11
 73
7
 74
0
 42
0.0000001
 43
0.0000001
 44
0.0000000001
 40
0.0
 40
0.0
 40
0.0
 40
0.0
 40
0.1839650685
 40
0.4206724042
 40
0.6998695783
 40
1.0
 40
1.0
 40
1.0
 40
1.0
 10
-53.9706832451
 20
20.155087128
 30
0.0
 10
-53.952273461
 20
20.1637896736
 30
0.0
 10
-53.9164866876
 20
20.1961090985
 30
0.0
 10
-53.8766501021
 20
20.2630324177
 30
0.0
 10
-53.8459000343
 20
20.3485050458
 30
0.0
 10
-53.8341640927
 20
20.4118402578
 30
0.0
 10
-53.8305495952
 20
20.4448644346
 30
0.0
  0
SPLINE
  5
38B
100
AcDbEntity
  8
RACCORDO
100
AcDbSpline
 62
7
  6
CONTINUOUS
 70
0
 71
3
 72
8
 73
4
 74
0
 42
0.0000001
 43
0.0000001
 44
0.0000000001
 40
0.0
 40
0.0
 40
0.0
 40
0.0
 40
1.0
 40
1.0
 40
1.0
 40
1.0
 10
-52.72119947
 20
20.8797618268
 30
0.0
 10
-52.7707609109
 20
20.8863537908
 30
0.0
 10
-52.8208896584
 20
20.889320198
 30
0.0
 10
-52.870887561
 20
20.8893320469
 30
0.0
  0
SPLINE
  5
38C
100
AcDbEntity
  8
RACCORDO
100
AcDbSpline
 62
250
  6
CONTINUOUS
 70
0
 71
3
 72
11
 73
7
 74
0
 42
0.0000001
 43
0.0000001
 44
0.0000000001
 40
0.0
 40
0.0
 40
0.0
 40
0.0
 40
0.1839130543
 40
0.4206364602
 40
0.699848212
 40
1.0
 40
1.0
 40
1.0
 40
1.0
 10
-53.9706832451
 20
20.7348928979
 30
0.0
 10
-53.9522797078
 20
20.7261933487
 30
0.0
 10
-53.9165223638
 20
20.693849726
 30
0.0
 10
-53.8766720446
 20
20.6269487875
 30
0.0
 10
-53.8459427317
 20
20.541466124
 30
0.0
 10
-53.834171427
 20
20.4781394217
 30
0.0
 10
-53.8305495952
 20
20.4451155914
 30
0.0
  0
SPLINE
  5
38D
100
AcDbEntity
  8
RACCORDO
100
AcDbSpline
 62
7
  6
CONTINUOUS
 70
0
 71
3
 72
8
 73
4
 74
0
 42
0.0000001
 43
0.0000001
 44
0.0000000001
 40
0.0
 40
0.0
 40
0.0
 40
0.0
 40
1.0
 40
1.0
 40
1.0
 40
1.0
 10
-52.870887561
 20
23.5006479791
 30
0.0
 10
-52.8208896584
 20
23.5006598279
 30
0.0
 10
-52.7707609109
 20
23.5036262352
 30
0.0
 10
-52.72119947
 20
23.5102181992
 30
0.0
  0
SPLINE
  5
38E
100
AcDbEntity
  8
RACCORDO
100
AcDbSpline
 62
250
  6
CONTINUOUS
 70
0
 71
3
 72
11
 73
7
 74
0
 42
0.0000001
 43
0.0000001
 44
0.0000000001
 40
0.0
 40
0.0
 40
0.0
 40
0.0
 40
0.1839650685
 40
0.4206724042
 40
0.6998695783
 40
1.0
 40
1.0
 40
1.0
 40
1.0
 10
-53.9706832451
 20
23.655087128
 30
0.0
 10
-53.952273461
 20
23.6637896736
 30
0.0
 10
-53.9164866876
 20
23.6961090985
 30
0.0
 10
-53.8766501021
 20
23.7630324177
 30
0.0
 10
-53.8459000343
 20
23.8485050458
 30
0.0
 10
-53.8341640927
 20
23.9118402578
 30
0.0
 10
-53.8305495952
 20
23.9448644346
 30
0.0
  0
SPLINE
  5
38F
100
AcDbEntity
  8
RACCORDO
100
AcDbSpline
 62
250
  6
CONTINUOUS
 70
0
 71
3
 72
11
 73
7
 74
0
 42
0.0000001
 43
0.0000001
 44
0.0000000001
 40
0.0
 40
0.0
 40
0.0
 40
0.0
 40
0.1839130543
 40
0.4206364602
 40
0.699848212
 40
1.0
 40
1.0
 40
1.0
 40
1.0
 10
-53.9706832451
 20
24.2348928979
 30
0.0
 10
-53.9522797078
 20
24.2261933487
 30
0.0
 10
-53.9165223638
 20
24.193849726
 30
0.0
 10
-53.8766720446
 20
24.1269487875
 30
0.0
 10
-53.8459427317
 20
24.041466124
 30
0.0
 10
-53.834171427
 20
23.9781394217
 30
0.0
 10
-53.8305495952
 20
23.9451155914
 30
0.0
  0
ELLIPSE
  5
390
100
AcDbEntity
  8
RACCORDO
100
AcDbEllipse
 62
7
  6
CONTINUOUS
 10
-52.5433996818
 20
-21.402890577
 30
0.0
 11
0.6148281169
 21
-0.5564245427
 31
0.0
 40
0.3617787886
 41
-0.3792139112
 42
0.316412641
  0
ELLIPSE
  5
391
100
AcDbEntity
  8
RACCORDO
100
AcDbEllipse
 62
7
  6
CONTINUOUS
 10
-52.5433996818
 20
-24.207129397
 30
0.0
 11
0.6148281169
 21
0.5564245427
 31
0.0
 40
0.3617787886
 41
-0.316412641
 42
0.3792139112
  0
ELLIPSE
  5
392
100
AcDbEntity
  8
RACCORDO
100
AcDbEllipse
 62
7
  6
CONTINUOUS
 10
-52.5433996818
 20
-1.707129397
 30
0.0
 11
0.6148281169
 21
0.5564245427
 31
0.0
 40
0.3617787886
 41
-0.316412641
 42
0.3792139112
  0
ELLIPSE
  5
393
100
AcDbEntity
  8
RACCORDO
100
AcDbEllipse
 62
7
  6
CONTINUOUS
 10
-52.5433996818
 20
1.097109423
 30
0.0
 11
0.6148281169
 21
-0.5564245427
 31
0.0
 40
0.3617787886
 41
-0.3792139112
 42
0.316412641
  0
ELLIPSE
  5
394
100
AcDbEntity
  8
RACCORDO
100
AcDbEllipse
 62
7
  6
CONTINUOUS
 10
-52.5433996818
 20
23.597109423
 30
0.0
 11
0.6148281169
 21
-0.5564245427
 31
0.0
 40
0.3617787886
 41
-0.3792139112
 42
0.316412641
  0
ELLIPSE
  5
395
100
AcDbEntity
  8
RACCORDO
100
AcDbEllipse
 62
7
  6
CONTINUOUS
 10
-52.5433996818
 20
20.792870603
 30
0.0
 11
0.6148281169
 21
0.5564245427
 31
0.0
 40
0.3617787886
 41
-0.316412641
 42
0.3792139112
  0
ELLIPSE
  5
396
100
AcDbEntity
  8
RACCORDO
100
AcDbEllipse
 62
7
  6
CONTINUOUS
 10
-53.019590158
 20
-24.6887666327
 30
0.0
 11
0.6456053626
 21
-0.0903841008
 31
0.0
 40
0.4601920703
 41
-1.2749708558
 42
-0.4178415716
  0
ELLIPSE
  5
397
100
AcDbEntity
  8
RACCORDO
100
AcDbEllipse
 62
7
  6
CONTINUOUS
 10
-53.019590158
 20
-24.4212533413
 30
0.0
 11
0.6456053626
 21
0.0903841008
 31
0.0
 40
0.4601920703
 41
0.4178415716
 42
1.027076511
  0
ELLIPSE
  5
398
100
AcDbEntity
  8
RACCORDO
100
AcDbEllipse
 62
7
  6
CONTINUOUS
 10
-53.019590158
 20
-21.1887666327
 30
0.0
 11
0.6456053626
 21
-0.0903841008
 31
0.0
 40
0.4601920703
 41
-1.027076511
 42
-0.4178415716
  0
ELLIPSE
  5
399
100
AcDbEntity
  8
RACCORDO
100
AcDbEllipse
 62
7
  6
CONTINUOUS
 10
-53.019590158
 20
-20.9212533413
 30
0.0
 11
0.6456053626
 21
0.0903841008
 31
0.0
 40
0.4601920703
 41
0.4178415716
 42
1.2749708558
  0
ELLIPSE
  5
39A
100
AcDbEntity
  8
RACCORDO
100
AcDbEllipse
 62
7
  6
CONTINUOUS
 10
-53.019590158
 20
-2.1887666327
 30
0.0
 11
0.6456053626
 21
-0.0903841008
 31
0.0
 40
0.4601920703
 41
-1.2749708558
 42
-0.4178415716
  0
ELLIPSE
  5
39B
100
AcDbEntity
  8
RACCORDO
100
AcDbEllipse
 62
7
  6
CONTINUOUS
 10
-53.019590158
 20
-1.9212533413
 30
0.0
 11
0.6456053626
 21
0.0903841008
 31
0.0
 40
0.4601920703
 41
0.4178415716
 42
1.027076511
  0
ELLIPSE
  5
39C
100
AcDbEntity
  8
RACCORDO
100
AcDbEllipse
 62
7
  6
CONTINUOUS
 10
-53.019590158
 20
1.3112333673
 30
0.0
 11
0.6456053626
 21
-0.0903841008
 31
0.0
 40
0.4601920703
 41
-1.027076511
 42
-0.4178415716
  0
ELLIPSE
  5
39D
100
AcDbEntity
  8
RACCORDO
100
AcDbEllipse
 62
7
  6
CONTINUOUS
 10
-53.019590158
 20
1.5787466587
 30
0.0
 11
0.6456053626
 21
0.0903841008
 31
0.0
 40
0.4601920703
 41
0.4178415716
 42
1.2749708558
  0
ELLIPSE
  5
39E
100
AcDbEntity
  8
RACCORDO
100
AcDbEllipse
 62
7
  6
CONTINUOUS
 10
-53.019590158
 20
20.3112333673
 30
0.0
 11
0.6456053626
 21
-0.0903841008
 31
0.0
 40
0.4601920703
 41
-1.2749708558
 42
-0.4178415716
  0
ELLIPSE
  5
39F
100
AcDbEntity
  8
RACCORDO
100
AcDbEllipse
 62
7
  6
CONTINUOUS
 10
-53.019590158
 20
20.5787466587
 30
0.0
 11
0.6456053626
 21
0.0903841008
 31
0.0
 40
0.4601920703
 41
0.4178415716
 42
1.027076511
  0
ELLIPSE
  5
3A0
100
AcDbEntity
  8
RACCORDO
100
AcDbEllipse
 62
7
  6
CONTINUOUS
 10
-53.019590158
 20
23.8112333673
 30
0.0
 11
0.6456053626
 21
-0.0903841008
 31
0.0
 40
0.4601920703
 41
-1.027076511
 42
-0.4178415716
  0
ELLIPSE
  5
3A1
100
AcDbEntity
  8
RACCORDO
100
AcDbEllipse
 62
7
  6
CONTINUOUS
 10
-53.019590158
 20
24.0787466587
 30
0.0
 11
0.6456053626
 21
0.0903841008
 31
0.0
 40
0.4601920703
 41
0.4178415716
 42
1.2749708558
  0
ENDSEC
  0
SECTION
  2
OBJECTS
  0
DICTIONARY
  5
C
100
AcDbDictionary
280
0
281
1
  3
ACAD_GROUP
350
D
  3
ACAD_MLINESTYLE
350
17
  3
ACAD_LAYOUT
350
1A
  3
ACAD_PLOTSETTINGS
350
19
  3
ACAD_PLOTSTYLENAME
350
E
  0
DICTIONARY
  5
D
102
{ACAD_REACTORS
330
C
102
}
100
AcDbDictionary
280
0
281
1
  0
ACDBDICTIONARYWDFLT
  5
E
102
{ACAD_REACTORS
330
C
102
}
100
AcDbDictionary
281
1
  3
Normal
350
F
100
AcDbDictionaryWithDefault
340
F
  0
DICTIONARY
  5
17
102
{ACAD_REACTORS
330
C
102
}
100
AcDbDictionary
280
0
281
1
  3
Standard
350
18
  0
DICTIONARY
  5
19
102
{ACAD_REACTORS
330
C
102
}
100
AcDbDictionary
281
1
  0
DICTIONARY
  5
1A
102
{ACAD_REACTORS
330
C
102
}
100
AcDbDictionary
281
1
  3
Model
350
3A2
  3
Layout1
350
3A3
  0
ACDBPLACEHOLDER
  5
F
102
{ACAD_REACTORS
330
E
102
}
  0
MLINESTYLE
  5
18
102
{ACAD_REACTORS
330
17
102
}
100
AcDbMlineStyle
  2
STANDARD
 70
0
  3

 62
256
 51
90.0
 52
90.0
 71
2
 49
0.5
 62
256
  6
BYLAYER
 49
-0.5
 62
256
  6
BYLAYER
  0
LAYOUT
  5
3A2
102
{ACAD_REACTORS
330
1A
102
}
100
AcDbPlotSettings
  1

  2
none_device
  4
ISO_A4_(297.00_x_210.00_MM)
  6

 40
0.0
 41
0.0
 42
0.0
 43
0.0
 44
297.0
 45
210.0
 46
0.0
 47
0.0
 48
0.0
 49
0.0
140
0.0
141
0.0
142
1.0
143
1.0
 70
1024
 72
1
 73
0
 74
0
  7

 75
0
147
1.0
148
0.0
149
0.0
100
AcDbLayout
  1
Model
 70
0
 71
0
 10
0.0
 20
0.0
 11
297.0
 21
210.0
 12
0.0
 22
0.0
 32
0.0
 14
0.0
 24
0.0
 34
0.0
 15
0.0
 25
0.0
 35
0.0
146
0.0
 13
0.0
 23
0.0
 33
0.0
 16
1.0
 26
0.0
 36
0.0
 17
0.0
 27
1.0
 37
0.0
 76
0
330
232
345
0
346
0
  0
LAYOUT
  5
3A3
102
{ACAD_REACTORS
330
1A
102
}
100
AcDbPlotSettings
  1

  2
none_device
  4
ISO_A4_(297.00_x_210.00_MM)
  6

 40
0.0
 41
0.0
 42
0.0
 43
0.0
 44
297.0
 45
210.0
 46
0.0
 47
0.0
 48
0.0
 49
0.0
140
0.0
141
0.0
142
1.0
143
1.0
 70
0
 72
1
 73
0
 74
0
  7

 75
0
147
1.0
148
0.0
149
0.0
100
AcDbLayout
  1
Layout1
 70
0
 71
1
 10
0.0
 20
0.0
 11
297.0
 21
210.0
 12
0.0
 22
0.0
 32
0.0
 14
0.0
 24
0.0
 34
0.0
 15
0.0
 25
0.0
 35
0.0
146
0.0
 13
0.0
 23
0.0
 33
0.0
 16
1.0
 26
0.0
 36
0.0
 17
0.0
 27
1.0
 37
0.0
 76
0
330
233
345
0
346
0
  0
ENDSEC
  0
EOF
