  0
SECTION
  2
HEADER
  9
$ACADVER
  1
AC1015
  9
$DWGCODEPAGE
  3
ANSI_1252
  9
$EXTMAX
 10
297.0
 20
210.0
 30
0.0
  9
$EXTMIN
 10
0.0
 20
0.0
 30
0.0
  9
$LIMMIN
 10
0.0
 20
0.0
  9
$LIMMAX
 10
297.0
 20
210.0
  9
$VIEWCTR
 10
148.5
 20
105.0
  9
$VIEWSIZE
 40
210.0
  9
$CLAYER
  8
0
  9
$LTSCALE
 40
16.335
  9
$CELTYPE
  6
BYLAYER
  9
$DIMSCALE
 40
1.0
  9
$DIMASZ
 40
3.0
  9
$DIMEXO
 40
1.85625
  9
$DIMDLI
 40
11.286
  9
$DIMEXE
 40
5.346
  9
$DIMCEN
 40
2.673
  9
$DIMLFAC
 40
1.0
  9
$DIMBLK
  1
_FILLED
  9
$DIMTXT
 40
3.0
  9
$DIMTOL
 70
1
  9
$DIMLIM
 70
0
  9
$DIMTFAC
 40
1.0
  9
$DIMTP
 40
0.01
  9
$DIMTM
 40
0.01
  9
$PDMODE
 70
3
  9
$PDSIZE
 40
3.0
  9
$HANDSEED
  5
305
  9
$TILEMODE
 70
1
  9
$MEASUREMENT
 70
1
  9
$INSUNITS
 70
4
  0
ENDSEC
  0
SECTION
  2
CLASSES
  0
CLASS
  1
ACDBDICTIONARYWDFLT
  2
AcDbDictionaryWithDefault
  3
AutoCAD 2000
 90
0
280
0
281
0
  0
CLASS
  1
ACDBPLACEHOLDER
  2
AcDbPlaceHolder
  3
AutoCAD 2000
 90
0
280
0
281
0
  0
CLASS
  1
LAYOUT
  2
AcDbLayout
  3
AutoCAD 2000
 90
0
280
0
281
0
  0
ENDSEC
  0
SECTION
  2
TABLES
  0
TABLE
  2
VPORT
  5
8
100
AcDbSymbolTable
 70
2
  0
VPORT
  5
1F4
100
AcDbSymbolTableRecord
100
AcDbViewportTableRecord
  2
*ACTIVE
 70
0
 10
0.0
 20
0.0
 11
1.0
 21
1.0
 12
148.5
 22
105.0
 13
0.0
 23
0.0
 14
1.0
 24
1.0
 15
0.0
 25
0.0
 16
0.0
 26
0.0
 36
1.0
 17
0.0
 27
0.0
 37
0.0
 40
210.0
 41
1.4142857143
 42
50.0
 43
0.0
 44
0.0
 50
0.0
 51
0.0
 71
0
 72
100
 73
1
 74
1
 75
0
 76
0
 77
0
 78
0
  0
ENDTAB
  0
TABLE
  2
LTYPE
  5
5
100
AcDbSymbolTable
 70
6
  0
LTYPE
  5
14
100
AcDbSymbolTableRecord
100
AcDbLinetypeTableRecord
  2
BYBLOCK
 70
0
  3

 72
65
 73
0
 40
0.0
  0
LTYPE
  5
15
100
AcDbSymbolTableRecord
100
AcDbLinetypeTableRecord
  2
BYLAYER
 70
0
  3

 72
65
 73
0
 40
0.0
  0
LTYPE
  5
16
100
AcDbSymbolTableRecord
100
AcDbLinetypeTableRecord
  2
CONTINUOUS
 70
64
  3
Solid line
 72
65
 73
0
 40
0.0
  0
LTYPE
  5
1F5
100
AcDbSymbolTableRecord
100
AcDbLinetypeTableRecord
  2
CENTER
 70
64
  3
____ _ ____ _ ____ _ ____ _ ____ _ ____ _ ____
 72
65
 73
4
 40
0.6
 49
0.375
 74
0
 49
-0.075
 74
0
 49
0.075
 74
0
 49
-0.075
 74
0
  0
LTYPE
  5
1F6
100
AcDbSymbolTableRecord
100
AcDbLinetypeTableRecord
  2
HIDDEN
 70
64
  3
- - - - - - - - - - - - - - - - - - - -
 72
65
 73
2
 40
0.2
 49
0.1
 74
0
 49
-0.1
 74
0
  0
LTYPE
  5
1F7
100
AcDbSymbolTableRecord
100
AcDbLinetypeTableRecord
  2
PHANTOM
 70
64
  3
_____ _ _ _____ _ _ _____ _ _ _____
 72
65
 73
6
 40
0.8
 49
0.45
 74
0
 49
-0.05
 74
0
 49
0.1
 74
0
 49
-0.05
 74
0
 49
0.1
 74
0
 49
-0.05
 74
0
  0
LTYPE
  5
1F8
100
AcDbSymbolTableRecord
100
AcDbLinetypeTableRecord
  2
DOT
 70
64
  3
. . . . . . . . . . . . . . . . . . . .
 72
65
 73
2
 40
0.2
 49
0.1
 74
0
 49
-0.1
 74
0
  0
LTYPE
  5
1F9
100
AcDbSymbolTableRecord
100
AcDbLinetypeTableRecord
  2
DASHED
 70
64
  3
- - - - - - - - - - - - - - - - - - - -
 72
65
 73
2
 40
0.2
 49
0.1
 74
0
 49
-0.1
 74
0
  0
ENDTAB
  0
TABLE
  2
LAYER
  5
2
100
AcDbSymbolTable
 70
36
  0
LAYER
  5
10
100
AcDbSymbolTableRecord
100
AcDbLayerTableRecord
  2
0
 70
0
 62
7
  6
CONTINUOUS
370
-3
390
F
  0
LAYER
  5
1FA
100
AcDbSymbolTableRecord
100
AcDbLayerTableRecord
  2
DEFAULT_1
 70
0
 62
7
  6
CENTER
370
-3
390
F
  0
LAYER
  5
1FB
100
AcDbSymbolTableRecord
100
AcDbLayerTableRecord
  2
DEFAULT_2
 70
0
 62
7
  6
HIDDEN
370
-3
390
F
  0
LAYER
  5
1FC
100
AcDbSymbolTableRecord
100
AcDbLayerTableRecord
  2
DEFAULT_3
 70
0
 62
7
  6
PHANTOM
370
-3
390
F
  0
LAYER
  5
1FD
100
AcDbSymbolTableRecord
100
AcDbLayerTableRecord
  2
ASSI
 70
0
 62
7
  6
CONTINUOUS
370
-3
390
F
  0
LAYER
  5
1FE
100
AcDbSymbolTableRecord
100
AcDbLayerTableRecord
  2
COORDINATE
 70
0
 62
7
  6
CONTINUOUS
370
-3
390
F
  0
LAYER
  5
1FF
100
AcDbSymbolTableRecord
100
AcDbLayerTableRecord
  2
COORD_ORIGINE
 70
0
 62
7
  6
CONTINUOUS
370
-3
390
F
  0
LAYER
  5
200
100
AcDbSymbolTableRecord
100
AcDbLayerTableRecord
  2
COPY_PUBLISH
 70
0
 62
7
  6
CONTINUOUS
370
-3
390
F
  0
LAYER
  5
201
100
AcDbSymbolTableRecord
100
AcDbLayerTableRecord
  2
COSMETIC
 70
0
 62
7
  6
CONTINUOUS
370
-3
390
F
  0
LAYER
  5
202
100
AcDbSymbolTableRecord
100
AcDbLayerTableRecord
  2
COSMETICI
 70
0
 62
7
  6
CONTINUOUS
370
-3
390
F
  0
LAYER
  5
203
100
AcDbSymbolTableRecord
100
AcDbLayerTableRecord
  2
CURVE
 70
0
 62
7
  6
CONTINUOUS
370
-3
390
F
  0
LAYER
  5
204
100
AcDbSymbolTableRecord
100
AcDbLayerTableRecord
  2
CURVE_TASSELLI
 70
0
 62
7
  6
CONTINUOUS
370
-3
390
F
  0
LAYER
  5
205
100
AcDbSymbolTableRecord
100
AcDbLayerTableRecord
  2
DRAFT
 70
0
 62
7
  6
CONTINUOUS
370
-3
390
F
  0
LAYER
  5
206
100
AcDbSymbolTableRecord
100
AcDbLayerTableRecord
  2
IGES
 70
0
 62
7
  6
CONTINUOUS
370
-3
390
F
  0
LAYER
  5
207
100
AcDbSymbolTableRecord
100
AcDbLayerTableRecord
  2
IMPORT_IGES
 70
0
 62
7
  6
CONTINUOUS
370
-3
390
F
  0
LAYER
  5
208
100
AcDbSymbolTableRecord
100
AcDbLayerTableRecord
  2
INTFCLR_2
 70
0
 62
7
  6
CONTINUOUS
370
-3
390
F
  0
LAYER
  5
209
100
AcDbSymbolTableRecord
100
AcDbLayerTableRecord
  2
NOTE
 70
0
 62
7
  6
CONTINUOUS
370
-3
390
F
  0
LAYER
  5
20A
100
AcDbSymbolTableRecord
100
AcDbLayerTableRecord
  2
PIANI
 70
0
 62
7
  6
CONTINUOUS
370
-3
390
F
  0
LAYER
  5
20B
100
AcDbSymbolTableRecord
100
AcDbLayerTableRecord
  2
PIANI_ORIGINE
 70
0
 62
7
  6
CONTINUOUS
370
-3
390
F
  0
LAYER
  5
20C
100
AcDbSymbolTableRecord
100
AcDbLayerTableRecord
  2
PUNTI
 70
0
 62
7
  6
CONTINUOUS
370
-3
390
F
  0
LAYER
  5
20D
100
AcDbSymbolTableRecord
100
AcDbLayerTableRecord
  2
RACCORDO
 70
0
 62
7
  6
CONTINUOUS
370
-3
390
F
  0
LAYER
  5
20E
100
AcDbSymbolTableRecord
100
AcDbLayerTableRecord
  2
SIMBOLI
 70
0
 62
7
  6
CONTINUOUS
370
-3
390
F
  0
LAYER
  5
20F
100
AcDbSymbolTableRecord
100
AcDbLayerTableRecord
  2
SMUSSO
 70
0
 62
7
  6
CONTINUOUS
370
-3
390
F
  0
LAYER
  5
210
100
AcDbSymbolTableRecord
100
AcDbLayerTableRecord
  2
SNAPLINE
 70
0
 62
7
  6
CONTINUOUS
370
-3
390
F
  0
LAYER
  5
211
100
AcDbSymbolTableRecord
100
AcDbLayerTableRecord
  2
SUPERFICI
 70
0
 62
7
  6
CONTINUOUS
370
-3
390
F
  0
LAYER
  5
212
100
AcDbSymbolTableRecord
100
AcDbLayerTableRecord
  2
TRASH
 70
0
 62
7
  6
CONTINUOUS
370
-3
390
F
  0
LAYER
  5
213
100
AcDbSymbolTableRecord
100
AcDbLayerTableRecord
  2
XSEC_DATUMS
 70
0
 62
7
  6
CONTINUOUS
370
-3
390
F
  0
ENDTAB
  0
TABLE
  2
STYLE
  5
3
100
AcDbSymbolTable
 70
1
  0
STYLE
  5
11
100
AcDbSymbolTableRecord
100
AcDbTextStyleTableRecord
  2
STANDARD
 70
0
 40
0.0
 41
0.8
 50
0.0
 71
0
 42
0.2
  3
txt
  4

  0
STYLE
  5
214
100
AcDbSymbolTableRecord
100
AcDbTextStyleTableRecord
  2
TEXTSTYLE_1
 70
0
 40
0.0
 41
0.8
 50
0.0
 71
0
 42
0.2
  3
gdt
  4

  0
ENDTAB
  0
TABLE
  2
VIEW
  5
6
100
AcDbSymbolTable
 70
0
  0
ENDTAB
  0
TABLE
  2
UCS
  5
7
100
AcDbSymbolTable
 70
0
  0
ENDTAB
  0
TABLE
  2
APPID
  5
9
100
AcDbSymbolTable
 70
1
  0
APPID
  5
215
100
AcDbSymbolTableRecord
100
AcDbRegAppTableRecord
  2
ACAD
 70
0
  0
ENDTAB
  0
TABLE
  2
BLOCK_RECORD
  5
1
100
AcDbSymbolTable
 70
0
  0
BLOCK_RECORD
  5
216
100
AcDbSymbolTableRecord
100
AcDbBlockTableRecord
  2
*Model_Space
  0
BLOCK_RECORD
  5
217
100
AcDbSymbolTableRecord
100
AcDbBlockTableRecord
  2
*Paper_Space
  0
BLOCK_RECORD
  5
218
100
AcDbSymbolTableRecord
100
AcDbBlockTableRecord
  2
_FILLED
  0
BLOCK_RECORD
  5
219
100
AcDbSymbolTableRecord
100
AcDbBlockTableRecord
  2
*D0
  0
BLOCK_RECORD
  5
21A
100
AcDbSymbolTableRecord
100
AcDbBlockTableRecord
  2
*D1
  0
BLOCK_RECORD
  5
21B
100
AcDbSymbolTableRecord
100
AcDbBlockTableRecord
  2
*D2
  0
ENDTAB
  0
TABLE
  2
DIMSTYLE
  5
A
100
AcDbSymbolTable
 70
1
100
AcDbDimStyleTable
 71
0
  0
DIMSTYLE
105
21C
100
AcDbSymbolTableRecord
100
AcDbDimStyleTableRecord
  2
STANDARD
 70
0
  3

  4

 40
1.0
 41
3.0
 42
0.0625
 43
0.38
 44
0.18
 45
0.0
 46
0.0
 47
0.01
 48
0.01
140
3.0
141
0.09
142
0.0
143
25.4
144
1.0
145
0.0
146
1.0
147
0.09
 71
1.0
 72
0.0
 73
0
 74
0
 75
0
 76
0
 77
1
 78
8
170
0
171
2
172
0
173
0
174
0
175
0
176
0
177
0
178
0
270
2
271
2
272
2
273
2
274
2
275
0
280
0
281
0
282
0
283
1
284
8
285
0
286
0
287
3
288
0
340
11
341
218
342
218
343
218
344
218
  0
DIMSTYLE
105
21D
100
AcDbSymbolTableRecord
100
AcDbDimStyleTableRecord
  2
DIMSTYLE_1
 70
0
  3

  4

 40
1.0
 41
3.0
 42
0.0625
 43
0.38
 44
0.18
 45
0.0
 46
0.0
 47
0.0
 48
0.0
140
3.0
141
0.09
142
0.0
143
25.4
144
1.0
145
0.0
146
1.0
147
0.09
 71
0.0
 72
0.0
 73
0
 74
0
 75
0
 76
0
 77
1
 78
8
170
0
171
2
172
0
173
0
174
0
175
0
176
0
177
0
178
0
270
2
271
2
272
2
273
2
274
2
275
0
280
0
281
0
282
0
283
1
284
8
285
0
286
0
287
3
288
0
340
11
341
218
342
218
343
218
344
218
  0
DIMSTYLE
105
21E
100
AcDbSymbolTableRecord
100
AcDbDimStyleTableRecord
  2
DIMSTYLE_2
 70
0
  3

  4

 40
1.0
 41
3.0
 42
0.0625
 43
0.38
 44
0.18
 45
0.0
 46
0.0
 47
0.0
 48
0.0
140
3.0
141
0.09
142
0.0
143
25.4
144
1.0
145
0.0
146
1.0
147
0.09
 71
0.0
 72
0.0
 73
0
 74
0
 75
0
 76
0
 77
1
 78
8
170
0
171
2
172
0
173
0
174
0
175
0
176
0
177
0
178
0
270
2
271
1
272
1
273
2
274
2
275
0
280
0
281
0
282
0
283
1
284
8
285
0
286
0
287
3
288
0
340
11
341
218
342
218
343
218
344
218
  0
ENDTAB
  0
ENDSEC
  0
SECTION
  2
BLOCKS
  0
BLOCK
  5
20
100
AcDbEntity
  8
0
100
AcDbBlockBegin
  2
*Model_Space
 70
0
 10
0.0
 20
0.0
 30
0.0
  3
*Model_Space
  1

  0
ENDBLK
  5
21
100
AcDbEntity
  8
0
100
AcDbBlockEnd
  0
BLOCK
  5
1C
100
AcDbEntity
  8
0
100
AcDbBlockBegin
  2
*Paper_Space
 70
0
 10
0.0
 20
0.0
 30
0.0
  3
*Paper_Space
  1

  0
ENDBLK
  5
1D
100
AcDbEntity
  8
0
100
AcDbBlockEnd
  0
BLOCK
  5
21F
100
AcDbEntity
  8
0
100
AcDbBlockBegin
  2
_FILLED
 70
64
 10
0.0
 20
0.0
  3
_FILLED
  1

  0
SOLID
  5
220
100
AcDbEntity
  8
0
  6
BYBLOCK
 62
0
100
AcDbTrace
 10
0.0
 20
0.0
 11
-1.0
 21
0.3166666667
 12
-1.0
 22
-0.3166666667
 13
-1.0
 23
-0.3166666667
  0
ENDBLK
  5
221
100
AcDbEntity
  8
0
  6
BYBLOCK
 62
0
100
AcDbBlockEnd
  0
BLOCK
  5
222
100
AcDbEntity
  8
0
100
AcDbBlockBegin
 62
7
  6
CONTINUOUS
  2
*D0
 70
65
 10
0.0
 20
0.0
  3
*D0
  1

  0
MTEXT
  5
223
100
AcDbEntity
  8
0
100
AcDbMText
 62
7
  6
CONTINUOUS
  7
STANDARD
 71
2
 72
1
 10
23.5600961538
 20
89.0925935551
 30
0.0
 11
1.0
 21
0.0
 31
0.0
 44
0.9
  1
154,7
 40
3.0
 41
10.2857142857
  0
LINE
  5
224
100
AcDbEntity
  8
0
100
AcDbLine
 62
7
  6
CONTINUOUS
 10
100.9100961538
 20
76.8425935551
 11
100.9100961538
 21
86.8425935551
  0
LINE
  5
225
100
AcDbEntity
  8
0
100
AcDbLine
 62
7
  6
CONTINUOUS
 10
-53.7899038462
 20
76.8425935551
 11
-53.7899038462
 21
86.8425935551
  0
LINE
  5
226
100
AcDbEntity
  8
0
100
AcDbLine
 62
7
  6
CONTINUOUS
 10
100.9100961538
 20
85.3425935551
 11
23.5600961538
 21
85.3425935551
  0
LINE
  5
227
100
AcDbEntity
  8
0
100
AcDbLine
 62
7
  6
CONTINUOUS
 10
-53.7899038462
 20
85.3425935551
 11
23.5600961538
 21
85.3425935551
  0
INSERT
  5
228
100
AcDbEntity
  8
0
100
AcDbBlockReference
 62
7
  6
CONTINUOUS
  2
_FILLED
 10
100.9100961538
 20
85.3425935551
 41
3.0
 42
3.0
 43
3.0
 50
0.0
  0
INSERT
  5
229
100
AcDbEntity
  8
0
100
AcDbBlockReference
 62
7
  6
CONTINUOUS
  2
_FILLED
 10
-53.7899038462
 20
85.3425935551
 41
3.0
 42
3.0
 43
3.0
 50
180.0
  0
ENDBLK
  5
22A
100
AcDbEntity
  8
0
  6
BYBLOCK
 62
0
100
AcDbBlockEnd
  0
BLOCK
  5
22B
100
AcDbEntity
  8
0
100
AcDbBlockBegin
 62
7
  6
CONTINUOUS
  2
*D1
 70
65
 10
0.0
 20
0.0
  3
*D1
  1

  0
MTEXT
  5
22C
100
AcDbEntity
  8
0
100
AcDbMText
 62
7
  6
CONTINUOUS
  7
STANDARD
 71
2
 72
1
 10
105.1600961538
 20
-0.0074064449
 30
0.0
 11
0.0
 21
1.0
 31
0.0
 44
0.9
  1
154,7
 40
3.0
 41
10.2857142857
  0
LINE
  5
22D
100
AcDbEntity
  8
0
100
AcDbLine
 62
7
  6
CONTINUOUS
 10
100.4100961538
 20
77.3425935551
 11
110.4100961538
 21
77.3425935551
  0
LINE
  5
22E
100
AcDbEntity
  8
0
100
AcDbLine
 62
7
  6
CONTINUOUS
 10
100.4100961538
 20
-77.3574064449
 11
110.4100961538
 21
-77.3574064449
  0
LINE
  5
22F
100
AcDbEntity
  8
0
100
AcDbLine
 62
7
  6
CONTINUOUS
 10
108.9100961538
 20
77.3425935551
 11
108.9100961538
 21
-0.0074064449
  0
LINE
  5
230
100
AcDbEntity
  8
0
100
AcDbLine
 62
7
  6
CONTINUOUS
 10
108.9100961538
 20
-77.3574064449
 11
108.9100961538
 21
-0.0074064449
  0
INSERT
  5
231
100
AcDbEntity
  8
0
100
AcDbBlockReference
 62
7
  6
CONTINUOUS
  2
_FILLED
 10
108.9100961538
 20
77.3425935551
 41
3.0
 42
3.0
 43
3.0
 50
90.0
  0
INSERT
  5
232
100
AcDbEntity
  8
0
100
AcDbBlockReference
 62
7
  6
CONTINUOUS
  2
_FILLED
 10
108.9100961538
 20
-77.3574064449
 41
3.0
 42
3.0
 43
3.0
 50
270.0
  0
ENDBLK
  5
233
100
AcDbEntity
  8
0
  6
BYBLOCK
 62
0
100
AcDbBlockEnd
  0
BLOCK
  5
234
100
AcDbEntity
  8
0
100
AcDbBlockBegin
 62
7
  6
CONTINUOUS
  2
*D2
 70
65
 10
0.0
 20
0.0
  3
*D2
  1

  0
MTEXT
  5
235
100
AcDbEntity
  8
0
100
AcDbMText
 62
7
  6
CONTINUOUS
  7
STANDARD
 71
2
 72
1
 10
-102.3735107554
 20
89.0925935551
 30
0.0
 11
1.0
 21
0.0
 31
0.0
 44
0.9
  1
10,5
 40
3.0
 41
7.9285714286
  0
LINE
  5
236
100
AcDbEntity
  8
0
100
AcDbLine
 62
7
  6
CONTINUOUS
 10
-97.1485107554
 20
73.469768425
 11
-97.1485107554
 21
86.8425935551
  0
LINE
  5
237
100
AcDbEntity
  8
0
100
AcDbLine
 62
7
  6
CONTINUOUS
 10
-107.5985107554
 20
61.5978452981
 11
-107.5985107554
 21
86.8425935551
  0
LINE
  5
238
100
AcDbEntity
  8
0
100
AcDbLine
 62
7
  6
CONTINUOUS
 10
-97.1485107554
 20
85.3425935551
 11
-93.1485107554
 21
85.3425935551
  0
LINE
  5
239
100
AcDbEntity
  8
0
100
AcDbLine
 62
7
  6
CONTINUOUS
 10
-93.1485107554
 20
85.3425935551
 11
-102.3735107554
 21
85.3425935551
  0
LINE
  5
23A
100
AcDbEntity
  8
0
100
AcDbLine
 62
7
  6
CONTINUOUS
 10
-107.5985107554
 20
85.3425935551
 11
-111.5985107554
 21
85.3425935551
  0
LINE
  5
23B
100
AcDbEntity
  8
0
100
AcDbLine
 62
7
  6
CONTINUOUS
 10
-111.5985107554
 20
85.3425935551
 11
-102.3735107554
 21
85.3425935551
  0
INSERT
  5
23C
100
AcDbEntity
  8
0
100
AcDbBlockReference
 62
7
  6
CONTINUOUS
  2
_FILLED
 10
-97.1485107554
 20
85.3425935551
 41
3.0
 42
3.0
 43
3.0
 50
180.0
  0
INSERT
  5
23D
100
AcDbEntity
  8
0
100
AcDbBlockReference
 62
7
  6
CONTINUOUS
  2
_FILLED
 10
-107.5985107554
 20
85.3425935551
 41
3.0
 42
3.0
 43
3.0
  0
ENDBLK
  5
23E
100
AcDbEntity
  8
0
  6
BYBLOCK
 62
0
100
AcDbBlockEnd
  0
ENDSEC
  0
SECTION
  2
ENTITIES
  0
DIMENSION
  5
23F
100
AcDbEntity
  8
0
100
AcDbDimension
 62
7
  6
CONTINUOUS
  2
*D0
 10
-53.7899038462
 20
85.3425935551
 11
18.417239011
 21
87.5925935551
 70
160
 71
2
 42
154.7
  3
DIMSTYLE_1
100
AcDbAlignedDimension
 13
100.9100961538
 23
76.8425935551
 14
-53.7899038462
 24
76.8425935551
 50
180.0
100
AcDbRotatedDimension
  0
DIMENSION
  5
240
100
AcDbEntity
  8
0
100
AcDbDimension
 62
7
  6
CONTINUOUS
  2
*D1
 10
108.9100961538
 20
-77.3574064449
 11
108.9644747511
 21
-4.605103572
 70
160
 71
2
 42
154.7
  3
DIMSTYLE_1
100
AcDbAlignedDimension
 13
100.4100961538
 23
77.3425935551
 14
100.4100961538
 24
-77.3574064449
 50
270.0
100
AcDbRotatedDimension
  0
DIMENSION
  5
241
100
AcDbEntity
  8
0
100
AcDbDimension
 62
7
  6
CONTINUOUS
  2
*D2
 10
-107.5985107554
 20
85.3425935551
 11
-106.3377964697
 21
87.5925935551
 70
160
 71
2
 42
10.45
  3
DIMSTYLE_2
100
AcDbAlignedDimension
 13
-97.1485107554
 23
73.469768425
 14
-107.5985107554
 24
61.5978452981
 50
180.0
100
AcDbRotatedDimension
  0
LINE
  5
242
100
AcDbEntity
  8
SMUSSO
100
AcDbLine
 62
7
  6
CONTINUOUS
 10
-52.7899038462
 20
77.3425935551
 11
-53.7899038462
 21
76.3425935551
  0
LINE
  5
243
100
AcDbEntity
  8
SMUSSO
100
AcDbLine
 62
7
  6
CONTINUOUS
 10
-53.7899038462
 20
-76.3574064449
 11
-52.7899038462
 21
-77.3574064449
  0
LINE
  5
244
100
AcDbEntity
  8
SMUSSO
100
AcDbLine
 62
7
  6
CONTINUOUS
 10
-52.3756902838
 20
76.3425935551
 11
-52.7899038462
 21
75.9283799927
  0
LINE
  5
245
100
AcDbEntity
  8
SMUSSO
100
AcDbLine
 62
7
  6
CONTINUOUS
 10
-52.7899038462
 20
-75.9431928825
 11
-52.3756902838
 21
-76.3574064449
  0
LINE
  5
246
100
AcDbEntity
  8
SMUSSO
100
AcDbLine
 62
7
  6
CONTINUOUS
 10
-53.7899038462
 20
76.3425935551
 11
-53.7899038462
 21
-76.3574064449
  0
LINE
  5
247
100
AcDbEntity
  8
SMUSSO
100
AcDbLine
 62
7
  6
CONTINUOUS
 10
-52.7899038462
 20
75.9283799927
 11
-52.7899038462
 21
-75.9431928825
  0
LINE
  5
248
100
AcDbEntity
  8
SMUSSO
100
AcDbLine
 62
7
  6
CONTINUOUS
 10
-52.7899038462
 20
-77.3574064449
 11
99.9100961538
 21
-77.3574064449
  0
LINE
  5
249
100
AcDbEntity
  8
SMUSSO
100
AcDbLine
 62
7
  6
CONTINUOUS
 10
-52.3756902838
 20
-76.3574064449
 11
99.4958825915
 21
-76.3574064449
  0
LINE
  5
24A
100
AcDbEntity
  8
RACCORDO
100
AcDbLine
 62
7
  6
CONTINUOUS
 10
-24.6432484076
 20
-61.8606443929
 11
71.7634407153
 21
-61.8606443929
  0
LINE
  5
24B
100
AcDbEntity
  8
RACCORDO
100
AcDbLine
 62
253
  6
CONTINUOUS
 10
-24.5951461683
 20
-61.8125421537
 11
71.7153478968
 21
-61.8125515745
  0
LINE
  5
24C
100
AcDbEntity
  8
RACCORDO
100
AcDbLine
 62
253
  6
CONTINUOUS
 10
-24.5951555883
 20
-61.5125972661
 11
71.7153478968
 21
-61.512597266
  0
LINE
  5
24D
100
AcDbEntity
  8
RACCORDO
100
AcDbLine
 62
253
  6
CONTINUOUS
 10
72.415231377
 20
-61.1126581878
 11
72.115286975
 21
-61.1126581879
  0
LINE
  5
24E
100
AcDbEntity
  8
RACCORDO
100
AcDbLine
 62
253
  6
CONTINUOUS
 10
-25.2950489758
 20
-61.1126581875
 11
-24.9950946672
 21
-61.1126581879
  0
LINE
  5
24F
100
AcDbEntity
  8
RACCORDO
100
AcDbLine
 62
253
  6
CONTINUOUS
 10
-21.9943940241
 20
-59.0914521186
 11
69.1145863318
 21
-59.0914521186
  0
LINE
  5
250
100
AcDbEntity
  8
RACCORDO
100
AcDbLine
 62
253
  6
CONTINUOUS
 10
-21.9943940241
 20
-58.8016743707
 11
69.1145863318
 21
-58.8016743707
  0
LINE
  5
251
100
AcDbEntity
  8
RACCORDO
100
AcDbLine
 62
253
  6
CONTINUOUS
 10
69.6941418275
 20
-58.5118966228
 11
69.4043640777
 21
-58.5118966228
  0
LINE
  5
252
100
AcDbEntity
  8
RACCORDO
100
AcDbLine
 62
253
  6
CONTINUOUS
 10
-22.2841717809
 20
-58.5118966228
 11
-22.5739495198
 21
-58.5118966228
  0
LINE
  5
253
100
AcDbEntity
  8
RACCORDO
100
AcDbLine
 62
253
  6
CONTINUOUS
 10
-21.2388780946
 20
-58.0732959363
 11
68.3590704023
 21
-58.0732959363
  0
LINE
  5
254
100
AcDbEntity
  8
RACCORDO
100
AcDbLine
 62
253
  6
CONTINUOUS
 10
-21.2388780946
 20
-58.0563350019
 11
68.3590704023
 21
-58.0563350019
  0
LINE
  5
255
100
AcDbEntity
  8
RACCORDO
100
AcDbLine
 62
7
  6
CONTINUOUS
 10
68.3505415596
 20
-58.0478061592
 11
-21.2303492519
 21
-58.0478061592
  0
LINE
  5
256
100
AcDbEntity
  8
RACCORDO
100
AcDbLine
 62
253
  6
CONTINUOUS
 10
-21.5388324031
 20
-57.7563806933
 11
-21.5557933375
 21
-57.756380693
  0
LINE
  5
257
100
AcDbEntity
  8
RACCORDO
100
AcDbLine
 62
253
  6
CONTINUOUS
 10
68.6590247108
 20
-57.7563806933
 11
68.6759856452
 21
-57.7563806933
  0
LINE
  5
258
100
AcDbEntity
  8
RACCORDO
100
AcDbLine
 62
7
  6
CONTINUOUS
 10
-25.3431417942
 20
61.1459381165
 11
-25.3431417942
 21
-61.1607510063
  0
LINE
  5
259
100
AcDbEntity
  8
RACCORDO
100
AcDbLine
 62
253
  6
CONTINUOUS
 10
-25.2950395549
 20
61.0978358772
 11
-25.2950489758
 21
-61.1126581879
  0
LINE
  5
25A
100
AcDbEntity
  8
RACCORDO
100
AcDbLine
 62
253
  6
CONTINUOUS
 10
-24.9950946673
 20
61.1023521531
 11
-24.9950946672
 21
-61.1126581879
  0
LINE
  5
25B
100
AcDbEntity
  8
RACCORDO
100
AcDbLine
 62
253
  6
CONTINUOUS
 10
-24.5951555888
 20
61.7977386847
 11
-24.5951555892
 21
61.4977843762
  0
LINE
  5
25C
100
AcDbEntity
  8
RACCORDO
100
AcDbLine
 62
253
  6
CONTINUOUS
 10
-24.5951555891
 20
-61.8125416681
 11
-24.5951555892
 21
-61.5125972661
  0
LINE
  5
25D
100
AcDbEntity
  8
RACCORDO
100
AcDbLine
 62
253
  6
CONTINUOUS
 10
-22.5739495198
 20
-58.5118966228
 11
-22.5739495198
 21
58.497083733
  0
LINE
  5
25E
100
AcDbEntity
  8
RACCORDO
100
AcDbLine
 62
253
  6
CONTINUOUS
 10
-22.284171772
 20
-58.5118966228
 11
-22.284171772
 21
58.497083733
  0
LINE
  5
25F
100
AcDbEntity
  8
RACCORDO
100
AcDbLine
 62
253
  6
CONTINUOUS
 10
-21.994394024
 20
-59.0914521186
 11
-21.9943940241
 21
-58.8016743688
  0
LINE
  5
260
100
AcDbEntity
  8
RACCORDO
100
AcDbLine
 62
253
  6
CONTINUOUS
 10
-21.9943940241
 20
58.7868614787
 11
-21.994394024
 21
59.0766392288
  0
LINE
  5
261
100
AcDbEntity
  8
RACCORDO
100
AcDbLine
 62
253
  6
CONTINUOUS
 10
-21.5557933376
 20
57.7415678035
 11
-21.5557933376
 21
-57.7563806933
  0
LINE
  5
262
100
AcDbEntity
  8
RACCORDO
100
AcDbLine
 62
253
  6
CONTINUOUS
 10
-21.5388324031
 20
57.7415678035
 11
-21.5388324031
 21
-57.7563806933
  0
LINE
  5
263
100
AcDbEntity
  8
RACCORDO
100
AcDbLine
 62
7
  6
CONTINUOUS
 10
-21.5303035604
 20
-57.7478518506
 11
-21.5303035604
 21
57.7330389608
  0
LINE
  5
264
100
AcDbEntity
  8
RACCORDO
100
AcDbLine
 62
253
  6
CONTINUOUS
 10
-21.2388780946
 20
-58.0563350019
 11
-21.2388780946
 21
-58.0732959363
  0
LINE
  5
265
100
AcDbEntity
  8
RACCORDO
100
AcDbLine
 62
253
  6
CONTINUOUS
 10
-21.2388780946
 20
58.0415221121
 11
-21.2388780946
 21
58.0584830465
  0
LINE
  5
266
100
AcDbEntity
  8
SMUSSO
100
AcDbLine
 62
7
  6
CONTINUOUS
 10
-52.7899038462
 20
-77.3574064449
 11
-52.3756902838
 21
-76.3574064449
  0
LINE
  5
267
100
AcDbEntity
  8
SMUSSO
100
AcDbLine
 62
7
  6
CONTINUOUS
 10
100.9100961538
 20
76.3425935551
 11
99.9100961538
 21
75.9283799927
  0
LINE
  5
268
100
AcDbEntity
  8
SMUSSO
100
AcDbLine
 62
7
  6
CONTINUOUS
 10
100.9100961538
 20
-76.3574064449
 11
99.9100961538
 21
-75.9431928825
  0
LINE
  5
269
100
AcDbEntity
  8
SMUSSO
100
AcDbLine
 62
7
  6
CONTINUOUS
 10
-52.7899038462
 20
77.3425935551
 11
-52.3756902838
 21
76.3425935551
  0
LINE
  5
26A
100
AcDbEntity
  8
RACCORDO
100
AcDbLine
 62
253
  6
CONTINUOUS
 10
71.715338476
 20
61.7977292639
 11
71.7634407153
 21
61.8458315031
  0
LINE
  5
26B
100
AcDbEntity
  8
RACCORDO
100
AcDbLine
 62
253
  6
CONTINUOUS
 10
68.3590704023
 20
58.0415221121
 11
68.3505415596
 21
58.0329932694
  0
LINE
  5
26C
100
AcDbEntity
  8
RACCORDO
100
AcDbLine
 62
253
  6
CONTINUOUS
 10
69.1145863318
 20
58.7868614809
 11
68.3857606425
 21
58.0580058893
  0
LINE
  5
26D
100
AcDbEntity
  8
RACCORDO
100
AcDbLine
 62
253
  6
CONTINUOUS
 10
69.4043640796
 20
58.497083733
 11
68.6755089922
 21
57.7682389682
  0
LINE
  5
26E
100
AcDbEntity
  8
RACCORDO
100
AcDbLine
 62
253
  6
CONTINUOUS
 10
68.6590247108
 20
57.7415678035
 11
68.6504958681
 21
57.7330389608
  0
LINE
  5
26F
100
AcDbEntity
  8
RACCORDO
100
AcDbLine
 62
253
  6
CONTINUOUS
 10
72.4152412835
 20
61.0978452981
 11
72.4633341019
 21
61.1459381165
  0
LINE
  5
270
100
AcDbEntity
  8
RACCORDO
100
AcDbLine
 62
253
  6
CONTINUOUS
 10
71.7153478968
 20
-61.8125515745
 11
71.7634407153
 21
-61.8606443929
  0
LINE
  5
271
100
AcDbEntity
  8
RACCORDO
100
AcDbLine
 62
253
  6
CONTINUOUS
 10
68.3590704023
 20
-58.0563350019
 11
68.3505415596
 21
-58.0478061592
  0
LINE
  5
272
100
AcDbEntity
  8
RACCORDO
100
AcDbLine
 62
253
  6
CONTINUOUS
 10
69.1145863318
 20
-58.8016743707
 11
68.3857415669
 21
-58.0728192833
  0
LINE
  5
273
100
AcDbEntity
  8
RACCORDO
100
AcDbLine
 62
253
  6
CONTINUOUS
 10
69.4043640796
 20
-58.5118966228
 11
68.6755084881
 21
-57.7830709336
  0
LINE
  5
274
100
AcDbEntity
  8
RACCORDO
100
AcDbLine
 62
253
  6
CONTINUOUS
 10
68.6590247108
 20
-57.7563806933
 11
68.6504958681
 21
-57.7478518506
  0
LINE
  5
275
100
AcDbEntity
  8
RACCORDO
100
AcDbLine
 62
253
  6
CONTINUOUS
 10
72.4152318626
 20
-61.112648767
 11
72.4633341019
 21
-61.1607510063
  0
LINE
  5
276
100
AcDbEntity
  8
RACCORDO
100
AcDbLine
 62
253
  6
CONTINUOUS
 10
-25.2950489758
 20
-61.1126581879
 11
-25.3431417942
 21
-61.1607510063
  0
LINE
  5
277
100
AcDbEntity
  8
RACCORDO
100
AcDbLine
 62
253
  6
CONTINUOUS
 10
-21.5388324031
 20
-57.7563806933
 11
-21.5303035604
 21
-57.7478518506
  0
LINE
  5
278
100
AcDbEntity
  8
RACCORDO
100
AcDbLine
 62
253
  6
CONTINUOUS
 10
-22.284171772
 20
-58.5118966228
 11
-21.5553166845
 21
-57.783051858
  0
LINE
  5
279
100
AcDbEntity
  8
RACCORDO
100
AcDbLine
 62
253
  6
CONTINUOUS
 10
-21.9943940241
 20
-58.8016743707
 11
-21.2655683348
 21
-58.0728187792
  0
LINE
  5
27A
100
AcDbEntity
  8
RACCORDO
100
AcDbLine
 62
253
  6
CONTINUOUS
 10
-21.2388780946
 20
-58.0563350019
 11
-21.2303492519
 21
-58.0478061592
  0
LINE
  5
27B
100
AcDbEntity
  8
RACCORDO
100
AcDbLine
 62
253
  6
CONTINUOUS
 10
-24.5951461683
 20
-61.8125421537
 11
-24.6432484076
 21
-61.8606443929
  0
LINE
  5
27C
100
AcDbEntity
  8
RACCORDO
100
AcDbLine
 62
253
  6
CONTINUOUS
 10
-25.2950395549
 20
61.0978358772
 11
-25.3431417942
 21
61.1459381165
  0
LINE
  5
27D
100
AcDbEntity
  8
RACCORDO
100
AcDbLine
 62
253
  6
CONTINUOUS
 10
-21.5303035604
 20
57.7330389608
 11
-21.5388324031
 21
57.7415678035
  0
LINE
  5
27E
100
AcDbEntity
  8
RACCORDO
100
AcDbLine
 62
253
  6
CONTINUOUS
 10
-21.5553166792
 20
57.7682390473
 11
-22.284171772
 21
58.497083733
  0
LINE
  5
27F
100
AcDbEntity
  8
RACCORDO
100
AcDbLine
 62
253
  6
CONTINUOUS
 10
-21.2655973342
 20
58.0580051181
 11
-21.9943940241
 21
58.7868614809
  0
LINE
  5
280
100
AcDbEntity
  8
RACCORDO
100
AcDbLine
 62
253
  6
CONTINUOUS
 10
-21.2303492519
 20
58.0329932694
 11
-21.2388780946
 21
58.0415221121
  0
LINE
  5
281
100
AcDbEntity
  8
RACCORDO
100
AcDbLine
 62
253
  6
CONTINUOUS
 10
-24.5951555892
 20
61.7977386847
 11
-24.6432484076
 21
61.8458315031
  0
LINE
  5
282
100
AcDbEntity
  8
SMUSSO
100
AcDbLine
 62
7
  6
CONTINUOUS
 10
99.9100961538
 20
77.3425935551
 11
99.4958825915
 21
76.3425935551
  0
LINE
  5
283
100
AcDbEntity
  8
SMUSSO
100
AcDbLine
 62
7
  6
CONTINUOUS
 10
-53.7899038462
 20
-76.3574064449
 11
-52.7899038462
 21
-75.9431928825
  0
LINE
  5
284
100
AcDbEntity
  8
SMUSSO
100
AcDbLine
 62
7
  6
CONTINUOUS
 10
-53.7899038462
 20
76.3425935551
 11
-52.7899038462
 21
75.9283799927
  0
LINE
  5
285
100
AcDbEntity
  8
SMUSSO
100
AcDbLine
 62
7
  6
CONTINUOUS
 10
99.9100961538
 20
-77.3574064449
 11
99.4958825915
 21
-76.3574064449
  0
LINE
  5
286
100
AcDbEntity
  8
RACCORDO
100
AcDbLine
 62
253
  6
CONTINUOUS
 10
68.3590704023
 20
-58.0563350019
 11
68.3590704019
 21
-58.0732959363
  0
LINE
  5
287
100
AcDbEntity
  8
RACCORDO
100
AcDbLine
 62
253
  6
CONTINUOUS
 10
68.3590704023
 20
58.0415221121
 11
68.3590704023
 21
58.0584830465
  0
LINE
  5
288
100
AcDbEntity
  8
RACCORDO
100
AcDbLine
 62
7
  6
CONTINUOUS
 10
68.6504958681
 20
57.7330389608
 11
68.6504958681
 21
-57.7478518506
  0
LINE
  5
289
100
AcDbEntity
  8
RACCORDO
100
AcDbLine
 62
253
  6
CONTINUOUS
 10
68.6590247108
 20
-57.7563806933
 11
68.6590247108
 21
57.7415678035
  0
LINE
  5
28A
100
AcDbEntity
  8
RACCORDO
100
AcDbLine
 62
253
  6
CONTINUOUS
 10
68.6759856452
 20
-57.7563806933
 11
68.6759856452
 21
57.7415678035
  0
LINE
  5
28B
100
AcDbEntity
  8
RACCORDO
100
AcDbLine
 62
253
  6
CONTINUOUS
 10
69.1145863317
 20
59.0766392288
 11
69.1145863318
 21
58.786861479
  0
LINE
  5
28C
100
AcDbEntity
  8
RACCORDO
100
AcDbLine
 62
253
  6
CONTINUOUS
 10
69.1145863318
 20
-58.8016743796
 11
69.1145863318
 21
-59.0914521186
  0
LINE
  5
28D
100
AcDbEntity
  8
RACCORDO
100
AcDbLine
 62
253
  6
CONTINUOUS
 10
69.4043640796
 20
58.497083733
 11
69.4043640796
 21
-58.5118966228
  0
LINE
  5
28E
100
AcDbEntity
  8
RACCORDO
100
AcDbLine
 62
253
  6
CONTINUOUS
 10
69.6941418275
 20
58.497083733
 11
69.6941418275
 21
-58.5118966228
  0
LINE
  5
28F
100
AcDbEntity
  8
RACCORDO
100
AcDbLine
 62
253
  6
CONTINUOUS
 10
71.7153478968
 20
61.7977287783
 11
71.7153478968
 21
61.4977843762
  0
LINE
  5
290
100
AcDbEntity
  8
RACCORDO
100
AcDbLine
 62
253
  6
CONTINUOUS
 10
71.7153478965
 20
-61.8125515745
 11
71.7153478968
 21
-61.512597266
  0
LINE
  5
291
100
AcDbEntity
  8
RACCORDO
100
AcDbLine
 62
253
  6
CONTINUOUS
 10
72.115286975
 20
-61.112658187
 11
72.1152869749
 21
61.0978452981
  0
LINE
  5
292
100
AcDbEntity
  8
RACCORDO
100
AcDbLine
 62
253
  6
CONTINUOUS
 10
72.4152318626
 20
-61.112648767
 11
72.4152412835
 21
61.0978452981
  0
LINE
  5
293
100
AcDbEntity
  8
RACCORDO
100
AcDbLine
 62
7
  6
CONTINUOUS
 10
72.4633341019
 20
-61.1607510063
 11
72.4633341019
 21
61.1459381165
  0
LINE
  5
294
100
AcDbEntity
  8
RACCORDO
100
AcDbLine
 62
253
  6
CONTINUOUS
 10
-21.5388324031
 20
57.7415678035
 11
-21.5557933376
 21
57.7415678035
  0
LINE
  5
295
100
AcDbEntity
  8
RACCORDO
100
AcDbLine
 62
253
  6
CONTINUOUS
 10
68.6590247108
 20
57.7415678035
 11
68.6759856452
 21
57.7415678031
  0
LINE
  5
296
100
AcDbEntity
  8
RACCORDO
100
AcDbLine
 62
7
  6
CONTINUOUS
 10
-21.2303492519
 20
58.0329932694
 11
68.3505415596
 21
58.0329932694
  0
LINE
  5
297
100
AcDbEntity
  8
RACCORDO
100
AcDbLine
 62
253
  6
CONTINUOUS
 10
68.3590704023
 20
58.0415221121
 11
-21.2388780946
 21
58.0415221121
  0
LINE
  5
298
100
AcDbEntity
  8
RACCORDO
100
AcDbLine
 62
253
  6
CONTINUOUS
 10
68.3590704023
 20
58.0584830465
 11
-21.2388780946
 21
58.0584830465
  0
LINE
  5
299
100
AcDbEntity
  8
RACCORDO
100
AcDbLine
 62
253
  6
CONTINUOUS
 10
-22.5739495198
 20
58.497083733
 11
-22.284171781
 21
58.497083733
  0
LINE
  5
29A
100
AcDbEntity
  8
RACCORDO
100
AcDbLine
 62
253
  6
CONTINUOUS
 10
69.4043640886
 20
58.497083733
 11
69.6941418275
 21
58.497083733
  0
LINE
  5
29B
100
AcDbEntity
  8
RACCORDO
100
AcDbLine
 62
253
  6
CONTINUOUS
 10
69.1145863318
 20
58.7868614809
 11
-21.9943940241
 21
58.7868614809
  0
LINE
  5
29C
100
AcDbEntity
  8
RACCORDO
100
AcDbLine
 62
253
  6
CONTINUOUS
 10
69.1145863318
 20
59.0766392288
 11
-21.9943940241
 21
59.0766392288
  0
LINE
  5
29D
100
AcDbEntity
  8
RACCORDO
100
AcDbLine
 62
253
  6
CONTINUOUS
 10
72.4152412835
 20
61.0978452977
 11
72.1152869749
 21
61.0978452981
  0
LINE
  5
29E
100
AcDbEntity
  8
RACCORDO
100
AcDbLine
 62
253
  6
CONTINUOUS
 10
-25.2950390693
 20
61.097845298
 11
-24.9950946673
 21
61.0978452981
  0
LINE
  5
29F
100
AcDbEntity
  8
RACCORDO
100
AcDbLine
 62
253
  6
CONTINUOUS
 10
71.7198547508
 20
61.4977843762
 11
-24.5951555892
 21
61.4977843762
  0
LINE
  5
2A0
100
AcDbEntity
  8
RACCORDO
100
AcDbLine
 62
253
  6
CONTINUOUS
 10
71.715338476
 20
61.7977292639
 11
-24.5951555892
 21
61.7977386847
  0
LINE
  5
2A1
100
AcDbEntity
  8
RACCORDO
100
AcDbLine
 62
7
  6
CONTINUOUS
 10
71.7634407153
 20
61.8458315031
 11
-24.6432484076
 21
61.8458315031
  0
LINE
  5
2A2
100
AcDbEntity
  8
SMUSSO
100
AcDbLine
 62
7
  6
CONTINUOUS
 10
99.9100961538
 20
-75.9431928825
 11
99.9100961538
 21
75.9283799927
  0
LINE
  5
2A3
100
AcDbEntity
  8
SMUSSO
100
AcDbLine
 62
7
  6
CONTINUOUS
 10
100.9100961538
 20
-76.3574064449
 11
100.9100961538
 21
76.3425935551
  0
LINE
  5
2A4
100
AcDbEntity
  8
SMUSSO
100
AcDbLine
 62
7
  6
CONTINUOUS
 10
99.4958825915
 20
76.3425935551
 11
-52.3756902838
 21
76.3425935551
  0
LINE
  5
2A5
100
AcDbEntity
  8
SMUSSO
100
AcDbLine
 62
7
  6
CONTINUOUS
 10
99.9100961538
 20
77.3425935551
 11
-52.7899038462
 21
77.3425935551
  0
LINE
  5
2A6
100
AcDbEntity
  8
SMUSSO
100
AcDbLine
 62
7
  6
CONTINUOUS
 10
99.4958825915
 20
-76.3574064449
 11
99.9100961538
 21
-75.9431928825
  0
LINE
  5
2A7
100
AcDbEntity
  8
SMUSSO
100
AcDbLine
 62
7
  6
CONTINUOUS
 10
99.9100961538
 20
-77.3574064449
 11
100.9100961538
 21
-76.3574064449
  0
LINE
  5
2A8
100
AcDbEntity
  8
SMUSSO
100
AcDbLine
 62
7
  6
CONTINUOUS
 10
99.9100961538
 20
75.9283799927
 11
99.4958825915
 21
76.3425935551
  0
LINE
  5
2A9
100
AcDbEntity
  8
SMUSSO
100
AcDbLine
 62
7
  6
CONTINUOUS
 10
100.9100961538
 20
76.3425935551
 11
99.9100961538
 21
77.3425935551
  0
LINE
  5
2AA
100
AcDbEntity
  8
SMUSSO
100
AcDbLine
 62
7
  6
CONTINUOUS
 10
-103.5485107554
 20
-77.3574064449
 11
-98.6485107554
 21
-77.3574064449
  0
LINE
  5
2AB
100
AcDbEntity
  8
RACCORDO
100
AcDbLine
 62
7
  6
CONTINUOUS
 10
-98.1485107554
 20
-75.0342481636
 11
-97.1485107554
 21
-74.9818403843
  0
LINE
  5
2AC
100
AcDbEntity
  8
RACCORDO
100
AcDbLine
 62
253
  6
CONTINUOUS
 10
-98.1485107554
 20
-73.0369890941
 11
-97.1485107554
 21
-72.9845813148
  0
LINE
  5
2AD
100
AcDbEntity
  8
SMUSSO
100
AcDbLine
 62
7
  6
CONTINUOUS
 10
-103.5485107554
 20
-76.3574064449
 11
-98.6485107554
 21
-76.3574064449
  0
LINE
  5
2AE
100
AcDbEntity
  8
SMUSSO
100
AcDbLine
 62
7
  6
CONTINUOUS
 10
-103.5485107554
 20
76.3425935551
 11
-104.5485107554
 21
75.9283799927
  0
LINE
  5
2AF
100
AcDbEntity
  8
SMUSSO
100
AcDbLine
 62
7
  6
CONTINUOUS
 10
-103.5485107554
 20
-76.3574064449
 11
-104.5485107554
 21
-75.9431928825
  0
LINE
  5
2B0
100
AcDbEntity
  8
RACCORDO
100
AcDbLine
 62
7
  6
CONTINUOUS
 10
-107.3037464773
 20
-61.8125515745
 11
-104.5485107554
 21
-61.8606443929
  0
LINE
  5
2B1
100
AcDbEntity
  8
RACCORDO
100
AcDbLine
 62
253
  6
CONTINUOUS
 10
-107.3042861909
 20
-61.1126581878
 11
-107.5985107554
 21
-61.1126581879
  0
LINE
  5
2B2
100
AcDbEntity
  8
RACCORDO
100
AcDbLine
 62
253
  6
CONTINUOUS
 10
-107.3042861984
 20
-61.112648767
 11
-104.5485107554
 21
-61.1607510063
  0
LINE
  5
2B3
100
AcDbEntity
  8
SMUSSO
100
AcDbLine
 62
7
  6
CONTINUOUS
 10
-103.5485107554
 20
77.3425935551
 11
-104.5485107554
 21
76.3425935551
  0
LINE
  5
2B4
100
AcDbEntity
  8
SMUSSO
100
AcDbLine
 62
7
  6
CONTINUOUS
 10
-103.5485107554
 20
-77.3574064449
 11
-104.5485107554
 21
-76.3574064449
  0
LINE
  5
2B5
100
AcDbEntity
  8
RACCORDO
100
AcDbLine
 62
7
  6
CONTINUOUS
 10
-107.5985107554
 20
-61.512597266
 11
-107.5985107554
 21
61.4977843762
  0
LINE
  5
2B6
100
AcDbEntity
  8
RACCORDO
100
AcDbLine
 62
253
  6
CONTINUOUS
 10
-107.3042861984
 20
-61.112648767
 11
-107.3037464773
 21
61.0978452981
  0
LINE
  5
2B7
100
AcDbEntity
  8
SMUSSO
100
AcDbLine
 62
7
  6
CONTINUOUS
 10
-104.5485107554
 20
-76.3574064449
 11
-104.5485107554
 21
76.3425935551
  0
LINE
  5
2B8
100
AcDbEntity
  8
SMUSSO
100
AcDbLine
 62
7
  6
CONTINUOUS
 10
-103.5485107554
 20
-77.3574064449
 11
-103.5485107554
 21
77.3425935551
  0
LINE
  5
2B9
100
AcDbEntity
  8
SMUSSO
100
AcDbLine
 62
7
  6
CONTINUOUS
 10
-98.6485107554
 20
77.3425935551
 11
-98.6485107554
 21
-77.3574064449
  0
LINE
  5
2BA
100
AcDbEntity
  8
SMUSSO
100
AcDbLine
 62
7
  6
CONTINUOUS
 10
-98.1485107554
 20
76.8425935551
 11
-98.1485107554
 21
-76.8574064449
  0
LINE
  5
2BB
100
AcDbEntity
  8
RACCORDO
100
AcDbLine
 62
7
  6
CONTINUOUS
 10
-97.1485107554
 20
-74.9818403843
 11
-97.1485107554
 21
74.9670274945
  0
LINE
  5
2BC
100
AcDbEntity
  8
SMUSSO
100
AcDbLine
 62
7
  6
CONTINUOUS
 10
-98.6485107554
 20
-77.3574064449
 11
-98.1485107554
 21
-76.8574064449
  0
LINE
  5
2BD
100
AcDbEntity
  8
SMUSSO
100
AcDbLine
 62
7
  6
CONTINUOUS
 10
-98.6485107554
 20
77.3425935551
 11
-98.1485107554
 21
76.8425935551
  0
LINE
  5
2BE
100
AcDbEntity
  8
RACCORDO
100
AcDbLine
 62
253
  6
CONTINUOUS
 10
-107.3037464773
 20
61.0978452981
 11
-104.5485107554
 21
61.1459381165
  0
LINE
  5
2BF
100
AcDbEntity
  8
RACCORDO
100
AcDbLine
 62
7
  6
CONTINUOUS
 10
-107.3037464773
 20
61.7977386847
 11
-104.5485107554
 21
61.8458315031
  0
LINE
  5
2C0
100
AcDbEntity
  8
RACCORDO
100
AcDbLine
 62
253
  6
CONTINUOUS
 10
-107.3037464773
 20
61.0978452977
 11
-107.5985107554
 21
61.0978452981
  0
LINE
  5
2C1
100
AcDbEntity
  8
SMUSSO
100
AcDbLine
 62
7
  6
CONTINUOUS
 10
-98.6485107554
 20
-76.3574064449
 11
-98.1485107554
 21
-76.1502996637
  0
LINE
  5
2C2
100
AcDbEntity
  8
SMUSSO
100
AcDbLine
 62
7
  6
CONTINUOUS
 10
-103.5485107554
 20
76.3425935551
 11
-98.6485107554
 21
76.3425935551
  0
LINE
  5
2C3
100
AcDbEntity
  8
SMUSSO
100
AcDbLine
 62
7
  6
CONTINUOUS
 10
-103.5485107554
 20
77.3425935551
 11
-98.6485107554
 21
77.3425935551
  0
LINE
  5
2C4
100
AcDbEntity
  8
RACCORDO
100
AcDbLine
 62
253
  6
CONTINUOUS
 10
-98.1485107554
 20
73.0221762043
 11
-97.1485107554
 21
72.969768425
  0
LINE
  5
2C5
100
AcDbEntity
  8
RACCORDO
100
AcDbLine
 62
7
  6
CONTINUOUS
 10
-98.1485107554
 20
75.0194352738
 11
-97.1485107554
 21
74.9670274945
  0
LINE
  5
2C6
100
AcDbEntity
  8
SMUSSO
100
AcDbLine
 62
7
  6
CONTINUOUS
 10
-98.6485107554
 20
76.3425935551
 11
-98.1485107554
 21
76.1354867739
  0
ARC
  5
2C7
100
AcDbEntity
  8
RACCORDO
100
AcDbCircle
 62
253
  6
CONTINUOUS
 10
-20.8013321439
 20
-57.7562372018
 40
0.7544612073
100
AcDbArc
 50
180.0108971281
 51
182.036804879
  0
ARC
  5
2C8
100
AcDbEntity
  8
RACCORDO
100
AcDbCircle
 62
253
  6
CONTINUOUS
 10
67.9215244516
 20
57.741424312
 40
0.7544612073
100
AcDbArc
 50
0.0108971282
 51
2.036804879
  0
ARC
  5
2C9
100
AcDbEntity
  8
RACCORDO
100
AcDbCircle
 62
253
  6
CONTINUOUS
 10
68.3589269107
 20
-57.3188347426
 40
0.7544612073
100
AcDbArc
 50
270.0108971281
 51
272.036804879
  0
ARC
  5
2CA
100
AcDbEntity
  8
RACCORDO
100
AcDbCircle
 62
253
  6
CONTINUOUS
 10
67.9222061117
 20
-57.7562543176
 40
0.7537795442
100
AcDbArc
 50
357.9612033455
 51
359.9903940152
  0
ARC
  5
2CB
100
AcDbEntity
  8
RACCORDO
100
AcDbCircle
 62
253
  6
CONTINUOUS
 10
-21.2387517189
 20
-57.3195164027
 40
0.7537795442
100
AcDbArc
 50
267.9612033455
 51
269.9903940152
  0
ARC
  5
2CC
100
AcDbEntity
  8
RACCORDO
100
AcDbCircle
 62
253
  6
CONTINUOUS
 10
68.3589440266
 20
57.3047035129
 40
0.7537795442
100
AcDbArc
 50
87.9612033456
 51
89.9903940151
  0
ARC
  5
2CD
100
AcDbEntity
  8
RACCORDO
100
AcDbCircle
 62
253
  6
CONTINUOUS
 10
-21.2387886869
 20
57.3063579116
 40
0.7521251402
100
AcDbArc
 50
90.0068109458
 51
92.0426757409
  0
ARC
  5
2CE
100
AcDbEntity
  8
RACCORDO
100
AcDbCircle
 62
253
  6
CONTINUOUS
 10
-20.8059900372
 20
57.7415074846
 40
0.7498033028
100
AcDbArc
 50
177.9568903609
 51
179.9953907686
  0
ARC
  5
2CF
100
AcDbEntity
  8
RACCORDO
100
AcDbCircle
 62
253
  6
CONTINUOUS
 10
71.7152628509
 20
61.0977602522
 40
0.6999784377
100
AcDbArc
 50
0.0069613172
 51
89.9930386828
  0
ARC
  5
2D0
100
AcDbEntity
  8
RACCORDO
100
AcDbCircle
 62
253
  6
CONTINUOUS
 10
71.7152628509
 20
-61.112573142
 40
0.6999784377
100
AcDbArc
 50
270.0069613172
 51
359.9930386828
  0
ARC
  5
2D1
100
AcDbEntity
  8
RACCORDO
100
AcDbCircle
 62
253
  6
CONTINUOUS
 10
-24.5950705432
 20
-61.112573142
 40
0.6999784377
100
AcDbArc
 50
180.0069613172
 51
269.9930386828
  0
ARC
  5
2D2
100
AcDbEntity
  8
RACCORDO
100
AcDbCircle
 62
253
  6
CONTINUOUS
 10
-24.5950705432
 20
61.0977602522
 40
0.6999784377
100
AcDbArc
 50
90.0069613172
 51
179.9930386828
  0
ARC
  5
2D3
100
AcDbEntity
  8
RACCORDO
100
AcDbCircle
 62
253
  6
CONTINUOUS
 10
71.7153673125
 20
-61.1126776034
 40
0.399919154
100
AcDbArc
 50
269.9972183582
 51
0.0027817578
  0
ARC
  5
2D4
100
AcDbEntity
  8
RACCORDO
100
AcDbCircle
 62
253
  6
CONTINUOUS
 10
-24.5951792798
 20
-61.1126818786
 40
0.3999138953
100
AcDbArc
 50
179.9966058371
 51
270.0033942783
  0
ARC
  5
2D5
100
AcDbEntity
  8
RACCORDO
100
AcDbCircle
 62
253
  6
CONTINUOUS
 10
68.407057539
 20
57.7416892581
 40
0.2519672011
100
AcDbArc
 50
359.9723819905
 51
2.2431442154
  0
ARC
  5
2D6
100
AcDbEntity
  8
RACCORDO
100
AcDbCircle
 62
253
  6
CONTINUOUS
 10
68.3591918568
 20
-57.8043678301
 40
0.251967201
100
AcDbArc
 50
269.9723819903
 51
272.2431442155
  0
ARC
  5
2D7
100
AcDbEntity
  8
RACCORDO
100
AcDbCircle
 62
253
  6
CONTINUOUS
 10
-21.2868652314
 20
-57.7565021479
 40
0.251967201
100
AcDbArc
 50
179.9723819903
 51
182.2431442156
  0
ARC
  5
2D8
100
AcDbEntity
  8
RACCORDO
100
AcDbCircle
 62
253
  6
CONTINUOUS
 10
68.3591918619
 20
57.7895552016
 40
0.2519669397
100
AcDbArc
 50
87.7568546069
 51
90.0276191875
  0
ARC
  5
2D9
100
AcDbEntity
  8
RACCORDO
100
AcDbCircle
 62
253
  6
CONTINUOUS
 10
68.4070578003
 20
-57.7565021529
 40
0.2519669398
100
AcDbArc
 50
357.7568546071
 51
0.0276191871
  0
ARC
  5
2DA
100
AcDbEntity
  8
RACCORDO
100
AcDbCircle
 62
253
  6
CONTINUOUS
 10
-21.2389995542
 20
-57.8043680914
 40
0.2519669397
100
AcDbArc
 50
267.7568546069
 51
270.0276191873
  0
ARC
  5
2DB
100
AcDbEntity
  8
RACCORDO
100
AcDbCircle
 62
253
  6
CONTINUOUS
 10
-21.2873260517
 20
57.7416981687
 40
0.2515063852
100
AcDbArc
 50
177.7547752397
 51
180.0296985546
  0
ARC
  5
2DC
100
AcDbEntity
  8
RACCORDO
100
AcDbCircle
 62
253
  6
CONTINUOUS
 10
-21.2390125216
 20
57.790225818
 40
0.25129633
100
AcDbArc
 50
89.9693505316
 51
92.246175674
  0
ARC
  5
2DD
100
AcDbEntity
  8
RACCORDO
100
AcDbCircle
 62
7
  6
CONTINUOUS
 10
-107.2985107554
 20
61.4977843762
 40
0.3
100
AcDbArc
 50
91.0
 51
180.0
  0
ARC
  5
2DE
100
AcDbEntity
  8
RACCORDO
100
AcDbCircle
 62
7
  6
CONTINUOUS
 10
-107.2985107554
 20
-61.512597266
 40
0.3
100
AcDbArc
 50
180.0000000167
 51
268.8969051352
  0
SPLINE
  5
2DF
100
AcDbEntity
  8
RACCORDO
100
AcDbSpline
 62
253
  6
CONTINUOUS
 70
0
 71
3
 72
11
 73
7
 74
5
 42
0.0000001
 43
0.0000001
 44
0.0000000001
 12
-0.9071733294
 22
-0.0000394998
 32
0.0
 13
-0.0000122996
 23
-0.9071733302
 33
0.0
 40
0.0
 40
0.0
 40
0.0
 40
0.0
 40
0.2500885221
 40
0.5000001758
 40
0.7499117876
 40
1.0
 40
1.0
 40
1.0
 40
1.0
 10
-21.9943940241
 20
59.0766392288
 30
0.0
 10
-22.0700185698
 20
59.076635936
 30
0.0
 10
-22.2229693242
 20
59.0482379312
 30
0.0
 10
-22.4175921871
 20
58.9202812085
 30
0.0
 10
-22.5455507389
 20
58.7256596424
 30
0.0
 10
-22.5739484945
 20
58.5727081852
 30
0.0
 10
-22.5739495198
 20
58.497083733
 30
0.0
 11
-21.9943940241
 21
59.0766392288
 31
0.0
 11
-22.217222609
 21
59.0339886819
 31
0.0
 11
-22.4064841072
 21
58.9091729997
 31
0.0
 11
-22.5313011589
 21
58.7199124502
 31
0.0
 11
-22.5739495198
 21
58.497083733
 31
0.0
  0
SPLINE
  5
2E0
100
AcDbEntity
  8
RACCORDO
100
AcDbSpline
 62
253
  6
CONTINUOUS
 70
0
 71
3
 72
11
 73
7
 74
5
 42
0.0000001
 43
0.0000001
 44
0.0000000001
 12
0.0000126196
 22
-0.9071733301
 32
0.0
 13
0.9071733294
 23
-0.0000392266
 33
0.0
 40
0.0
 40
0.0
 40
0.0
 40
0.0
 40
0.2500882116
 40
0.4999998238
 40
0.7499114764
 40
1.0
 40
1.0
 40
1.0
 40
1.0
 10
-22.5739495198
 20
-58.5118966228
 30
0.0
 10
-22.5739484678
 20
-58.5875210747
 30
0.0
 10
-22.5455507542
 20
-58.7404725317
 30
0.0
 10
-22.4175921837
 20
-58.9350940998
 30
0.0
 10
-22.2229693254
 20
-59.0630508083
 30
0.0
 10
-22.0700185703
 20
-59.0914488486
 30
0.0
 10
-21.9943940241
 20
-59.0914521186
 30
0.0
 11
-22.5739495198
 21
-58.5118966228
 31
0.0
 11
-22.5313011607
 21
-58.7347253396
 31
0.0
 11
-22.4064841075
 21
-58.9239858885
 31
0.0
 11
-22.2172226099
 21
-59.0488015699
 31
0.0
 11
-21.9943940241
 21
-59.0914521186
 31
0.0
  0
SPLINE
  5
2E1
100
AcDbEntity
  8
RACCORDO
100
AcDbSpline
 62
253
  6
CONTINUOUS
 70
0
 71
3
 72
11
 73
7
 74
5
 42
0.0000001
 43
0.0000001
 44
0.0000000001
 12
0.9071733301
 22
0.0000126196
 32
0.0
 13
0.0000392266
 23
0.9071733294
 33
0.0
 40
0.0
 40
0.0
 40
0.0
 40
0.0
 40
0.2500882116
 40
0.4999998238
 40
0.7499114764
 40
1.0
 40
1.0
 40
1.0
 40
1.0
 10
69.1145863318
 20
-59.0914521186
 30
0.0
 10
69.1902107837
 20
-59.0914510666
 30
0.0
 10
69.3431622407
 20
-59.0630533529
 30
0.0
 10
69.5377838087
 20
-58.9350947825
 30
0.0
 10
69.6657405172
 20
-58.7404719242
 30
0.0
 10
69.6941385575
 20
-58.587521169
 30
0.0
 10
69.6941418275
 20
-58.5118966228
 30
0.0
 11
69.1145863318
 21
-59.0914521186
 31
0.0
 11
69.3374150485
 21
-59.0488037595
 31
0.0
 11
69.5266755974
 21
-58.9239867063
 31
0.0
 11
69.6514912789
 21
-58.7347252087
 31
0.0
 11
69.6941418275
 21
-58.5118966228
 31
0.0
  0
SPLINE
  5
2E2
100
AcDbEntity
  8
RACCORDO
100
AcDbSpline
 62
253
  6
CONTINUOUS
 70
0
 71
3
 72
11
 73
7
 74
5
 42
0.0000001
 43
0.0000001
 44
0.0000000001
 12
-0.0000126196
 22
0.9071733301
 32
0.0
 13
-0.9071733294
 23
0.0000392266
 33
0.0
 40
0.0
 40
0.0
 40
0.0
 40
0.0
 40
0.2500882116
 40
0.4999998238
 40
0.7499114764
 40
1.0
 40
1.0
 40
1.0
 40
1.0
 10
69.6941418275
 20
58.497083733
 30
0.0
 10
69.6941407755
 20
58.5727081849
 30
0.0
 10
69.6657430619
 20
58.7256596419
 30
0.0
 10
69.5377844914
 20
58.92028121
 30
0.0
 10
69.3431616331
 20
59.0482379184
 30
0.0
 10
69.1902108779
 20
59.0766359587
 30
0.0
 10
69.1145863318
 20
59.0766392288
 30
0.0
 11
69.6941418275
 21
58.497083733
 31
0.0
 11
69.6514934684
 21
58.7199124498
 31
0.0
 11
69.5266764152
 21
58.9091729987
 31
0.0
 11
69.3374149176
 21
59.0339886801
 31
0.0
 11
69.1145863318
 21
59.0766392288
 31
0.0
  0
SPLINE
  5
2E3
100
AcDbEntity
  8
RACCORDO
100
AcDbSpline
 62
253
  6
CONTINUOUS
 70
0
 71
3
 72
12
 73
8
 74
6
 42
0.0000001
 43
0.0000001
 44
0.0000000001
 12
-0.0000009443
 22
0.6205214333
 32
0.0
 13
0.620521433
 23
0.0000214267
 33
0.0
 40
0.0
 40
0.0
 40
0.0
 40
0.0
 40
0.1254466776
 40
0.2508924308
 40
0.5005955773
 40
0.7502986155
 40
1.0
 40
1.0
 40
1.0
 40
1.0
 10
-24.9950946673
 20
61.1023521531
 30
0.0
 10
-24.9950947068
 20
61.1282996038
 30
0.0
 10
-24.9889502785
 20
61.1802837788
 30
0.0
 10
-24.9581219076
 20
61.2796021427
 30
0.0
 10
-24.8835013237
 20
61.3896188671
 30
0.0
 10
-24.7512268678
 20
61.4772423211
 30
0.0
 10
-24.6468039428
 20
61.4977825927
 30
0.0
 10
-24.5951555892
 20
61.4977843762
 30
0.0
 11
-24.9950946673
 21
61.1023521531
 31
0.0
 11
-24.9866236444
 21
61.1797322123
 31
0.0
 11
-24.9633479338
 21
61.2540126525
 31
0.0
 11
-24.8763654394
 21
61.3822404046
 31
0.0
 11
-24.7471665328
 21
61.4677736289
 31
0.0
 11
-24.5951555892
 21
61.4977843762
 31
0.0
  0
SPLINE
  5
2E4
100
AcDbEntity
  8
RACCORDO
100
AcDbSpline
 62
253
  6
CONTINUOUS
 70
0
 71
3
 72
12
 73
8
 74
6
 42
0.0000001
 43
0.0000001
 44
0.0000000001
 12
0.6205214343
 22
0.0000009443
 32
0.0
 13
0.0000214267
 23
-0.620521434
 33
0.0
 40
0.0
 40
0.0
 40
0.0
 40
0.0
 40
0.1254466776
 40
0.2508924308
 40
0.5005955773
 40
0.7502986155
 40
1.0
 40
1.0
 40
1.0
 40
1.0
 10
71.7198547508
 20
61.4977843762
 30
0.0
 10
71.7458022016
 20
61.4977844157
 30
0.0
 10
71.7977863767
 20
61.4916399876
 30
0.0
 10
71.8971047409
 20
61.4608116169
 30
0.0
 10
72.0071214655
 20
61.386191033
 30
0.0
 10
72.0947449198
 20
61.253916577
 30
0.0
 10
72.1152851915
 20
61.1494936518
 30
0.0
 10
72.1152869749
 20
61.0978452981
 30
0.0
 11
71.7198547508
 21
61.4977843762
 31
0.0
 11
71.7972348102
 21
61.4893133535
 31
0.0
 11
71.8715152506
 21
61.4660376431
 31
0.0
 11
71.999743003
 21
61.3790551487
 31
0.0
 11
72.0852762276
 21
61.249856242
 31
0.0
 11
72.1152869749
 21
61.0978452981
 31
0.0
  0
SPLINE
  5
2E5
100
AcDbEntity
  8
RACCORDO
100
AcDbSpline
 62
253
  6
CONTINUOUS
 70
0
 71
3
 72
9
 73
5
 74
3
 42
0.0000001
 43
0.0000001
 44
0.0000000001
 12
-0.002434248
 22
0.0240581005
 32
0.0
 13
-0.0213278318
 23
0.0113947949
 33
0.0
 40
0.0
 40
0.0
 40
0.0
 40
0.0
 40
0.3915199313
 40
1.0
 40
1.0
 40
1.0
 40
1.0
 10
-21.5386393654
 20
57.751551318
 30
0.0
 10
-21.5389570509
 20
57.75469106
 30
0.0
 10
-21.5440710109
 20
57.7618575751
 30
0.0
 10
-21.5509910159
 20
57.765917742
 30
0.0
 10
-21.5553168694
 20
57.7682289105
 30
0.0
 11
-21.5386393654
 21
57.751551318
 31
0.0
 11
-21.5432383302
 21
57.7598265615
 31
0.0
 11
-21.5553168694
 21
57.7682289105
 31
0.0
  0
SPLINE
  5
2E6
100
AcDbEntity
  8
RACCORDO
100
AcDbSpline
 62
253
  6
CONTINUOUS
 70
0
 71
3
 72
9
 73
5
 74
3
 42
0.0000001
 43
0.0000001
 44
0.0000000001
 12
-0.0240582391
 22
0.0024341814
 32
0.0
 13
-0.0113946227
 23
0.0213280727
 33
0.0
 40
0.0
 40
0.0
 40
0.0
 40
0.0
 40
0.3915214139
 40
1.0
 40
1.0
 40
1.0
 40
1.0
 10
-21.2488615941
 20
58.0413286226
 30
0.0
 10
-21.252001366
 20
58.0416463007
 30
0.0
 10
-21.2591679506
 20
58.0467602657
 30
0.0
 10
-21.2632280737
 20
58.0536803642
 30
0.0
 10
-21.2655392016
 20
58.058006256
 30
0.0
 11
-21.2488615941
 21
58.0413286226
 31
0.0
 11
-21.2571369222
 21
58.0459276147
 31
0.0
 11
-21.2655392016
 21
58.058006256
 31
0.0
  0
SPLINE
  5
2E7
100
AcDbEntity
  8
RACCORDO
100
AcDbSpline
 62
253
  6
CONTINUOUS
 70
0
 71
3
 72
9
 73
5
 74
3
 42
0.0000001
 43
0.0000001
 44
0.0000000001
 12
0.0240581958
 22
0.0024342294
 32
0.0
 13
0.0113946189
 23
0.0213280313
 33
0.0
 40
0.0
 40
0.0
 40
0.0
 40
0.0
 40
0.3915218903
 40
1.0
 40
1.0
 40
1.0
 40
1.0
 10
68.3690539165
 20
58.041329065
 30
0.0
 10
68.3721936866
 20
58.0416467497
 30
0.0
 10
68.3793602581
 20
58.0467606986
 30
0.0
 10
68.3834203839
 20
58.0536807834
 30
0.0
 10
68.3857315093
 20
58.0580066634
 30
0.0
 11
68.3690539165
 21
58.041329065
 31
0.0
 11
68.3773292407
 21
58.0459280571
 31
0.0
 11
68.3857315093
 21
58.0580066634
 31
0.0
  0
SPLINE
  5
2E8
100
AcDbEntity
  8
RACCORDO
100
AcDbSpline
 62
253
  6
CONTINUOUS
 70
0
 71
3
 72
9
 73
5
 74
3
 42
0.0000001
 43
0.0000001
 44
0.0000000001
 12
0.0024342817
 22
0.0240581444
 32
0.0
 13
0.0213279745
 23
0.0113946277
 33
0.0
 40
0.0
 40
0.0
 40
0.0
 40
0.0
 40
0.3915222167
 40
1.0
 40
1.0
 40
1.0
 40
1.0
 10
68.6588321478
 20
57.7515513338
 30
0.0
 10
68.6591498396
 20
57.7546910998
 30
0.0
 10
68.6642637737
 20
57.7618576534
 30
0.0
 10
68.6711838387
 20
57.7659177845
 30
0.0
 10
68.6755097049
 20
57.7682289105
 30
0.0
 11
68.6588321478
 21
57.7515513338
 31
0.0
 11
68.6634311384
 21
57.7598266473
 31
0.0
 11
68.6755097049
 21
57.7682289105
 31
0.0
  0
SPLINE
  5
2E9
100
AcDbEntity
  8
RACCORDO
100
AcDbSpline
 62
253
  6
CONTINUOUS
 70
0
 71
3
 72
9
 73
5
 74
3
 42
0.0000001
 43
0.0000001
 44
0.0000000001
 12
0.0024342294
 22
-0.0240581958
 32
0.0
 13
0.0213280313
 23
-0.0113946189
 33
0.0
 40
0.0
 40
0.0
 40
0.0
 40
0.0
 40
0.3915218903
 40
1.0
 40
1.0
 40
1.0
 40
1.0
 10
68.6588316638
 20
-57.7663642075
 30
0.0
 10
68.6591493485
 20
-57.7695039776
 30
0.0
 10
68.6642632974
 20
-57.7766705492
 30
0.0
 10
68.6711833821
 20
-57.7807306749
 30
0.0
 10
68.6755092622
 20
-57.7830418003
 30
0.0
 11
68.6588316638
 21
-57.7663642075
 31
0.0
 11
68.6634306558
 21
-57.7746395317
 31
0.0
 11
68.6755092622
 21
-57.7830418003
 31
0.0
  0
SPLINE
  5
2EA
100
AcDbEntity
  8
RACCORDO
100
AcDbSpline
 62
253
  6
CONTINUOUS
 70
0
 71
3
 72
9
 73
5
 74
3
 42
0.0000001
 43
0.0000001
 44
0.0000000001
 12
0.0240581444
 22
-0.0024342817
 32
0.0
 13
0.0113946277
 23
-0.0213279745
 33
0.0
 40
0.0
 40
0.0
 40
0.0
 40
0.0
 40
0.3915222167
 40
1.0
 40
1.0
 40
1.0
 40
1.0
 10
68.3690539326
 20
-58.0561424389
 30
0.0
 10
68.3721936986
 20
-58.0564601307
 30
0.0
 10
68.3793602522
 20
-58.0615740648
 30
0.0
 10
68.3834203833
 20
-58.0684941298
 30
0.0
 10
68.3857315092
 20
-58.072819996
 30
0.0
 11
68.3690539326
 21
-58.0561424389
 31
0.0
 11
68.3773292461
 21
-58.0607414295
 31
0.0
 11
68.3857315092
 21
-58.072819996
 31
0.0
  0
SPLINE
  5
2EB
100
AcDbEntity
  8
RACCORDO
100
AcDbSpline
 62
253
  6
CONTINUOUS
 70
0
 71
3
 72
9
 73
5
 74
3
 42
0.0000001
 43
0.0000001
 44
0.0000000001
 12
-0.0240581958
 22
-0.0024342294
 32
0.0
 13
-0.0113946189
 23
-0.0213280313
 33
0.0
 40
0.0
 40
0.0
 40
0.0
 40
0.0
 40
0.3915218903
 40
1.0
 40
1.0
 40
1.0
 40
1.0
 10
-21.2488616088
 20
-58.0561419548
 30
0.0
 10
-21.2520013789
 20
-58.0564596395
 30
0.0
 10
-21.2591679505
 20
-58.0615735884
 30
0.0
 10
-21.2632280762
 20
-58.0684936732
 30
0.0
 10
-21.2655392016
 20
-58.0728195532
 30
0.0
 11
-21.2488616088
 21
-58.0561419548
 31
0.0
 11
-21.257136933
 21
-58.0607409469
 31
0.0
 11
-21.2655392016
 21
-58.0728195532
 31
0.0
  0
SPLINE
  5
2EC
100
AcDbEntity
  8
RACCORDO
100
AcDbSpline
 62
253
  6
CONTINUOUS
 70
0
 71
3
 72
9
 73
5
 74
3
 42
0.0000001
 43
0.0000001
 44
0.0000000001
 12
-0.0024342817
 22
-0.0240581444
 32
0.0
 13
-0.0213279745
 23
-0.0113946277
 33
0.0
 40
0.0
 40
0.0
 40
0.0
 40
0.0
 40
0.3915222167
 40
1.0
 40
1.0
 40
1.0
 40
1.0
 10
-21.5386398401
 20
-57.7663642236
 30
0.0
 10
-21.5389575319
 20
-57.7695039896
 30
0.0
 10
-21.544071466
 20
-57.7766705432
 30
0.0
 10
-21.550991531
 20
-57.7807306743
 30
0.0
 10
-21.5553173972
 20
-57.7830418003
 30
0.0
 11
-21.5386398401
 21
-57.7663642236
 31
0.0
 11
-21.5432388307
 21
-57.7746395371
 31
0.0
 11
-21.5553173972
 21
-57.7830418003
 31
0.0
  0
SPLINE
  5
2ED
100
AcDbEntity
  8
RACCORDO
100
AcDbSpline
 62
253
  6
CONTINUOUS
 70
0
 71
3
 72
11
 73
7
 74
5
 42
0.0000001
 43
0.0000001
 44
0.0000000001
 12
0.0273503572
 22
-0.4633434684
 32
0.0
 13
-0.4633454892
 23
0.0273161024
 33
0.0
 40
0.0
 40
0.0
 40
0.0
 40
0.0
 40
0.2486357399
 40
0.5000006038
 40
0.7513659212
 40
1.0
 40
1.0
 40
1.0
 40
1.0
 10
69.4043634729
 20
-58.5118831378
 30
0.0
 10
69.4066302317
 20
-58.5502843865
 30
0.0
 10
69.3976153626
 20
-58.6293814979
 30
0.0
 10
69.3350784869
 20
-58.7323808475
 30
0.0
 10
69.2320820095
 20
-58.7949248718
 30
0.0
 10
69.1529852375
 20
-58.803938174
 30
0.0
 10
69.1145840779
 20
-58.8016742693
 30
0.0
 11
69.4043634729
 21
-58.5118831378
 31
0.0
 11
69.3896031361
 21
-58.6263395895
 31
0.0
 11
69.3283107367
 21
-58.725613774
 31
0.0
 11
69.2290393974
 21
-58.7869111821
 31
0.0
 11
69.1145840779
 21
-58.8016742693
 31
0.0
  0
SPLINE
  5
2EE
100
AcDbEntity
  8
RACCORDO
100
AcDbSpline
 62
253
  6
CONTINUOUS
 70
0
 71
3
 72
11
 73
7
 74
5
 42
0.0000001
 43
0.0000001
 44
0.0000000001
 12
0.4633434684
 22
0.0273503572
 32
0.0
 13
-0.0273161024
 23
-0.4633454892
 33
0.0
 40
0.0
 40
0.0
 40
0.0
 40
0.0
 40
0.2486357399
 40
0.5000006038
 40
0.7513659212
 40
1.0
 40
1.0
 40
1.0
 40
1.0
 10
69.1145728467
 20
58.7868608742
 30
0.0
 10
69.1529740954
 20
58.7891276329
 30
0.0
 10
69.2320712069
 20
58.7801127638
 30
0.0
 10
69.3350705565
 20
58.7175758881
 30
0.0
 10
69.3976145807
 20
58.6145794107
 30
0.0
 10
69.4066278829
 20
58.5354826387
 30
0.0
 10
69.4043639782
 20
58.4970814791
 30
0.0
 11
69.1145728467
 21
58.7868608742
 31
0.0
 11
69.2290292984
 21
58.7721005373
 31
0.0
 11
69.328303483
 21
58.710808138
 31
0.0
 11
69.389600891
 21
58.6115367987
 31
0.0
 11
69.4043639782
 21
58.4970814791
 31
0.0
  0
SPLINE
  5
2EF
100
AcDbEntity
  8
RACCORDO
100
AcDbSpline
 62
253
  6
CONTINUOUS
 70
0
 71
3
 72
11
 73
7
 74
5
 42
0.0000001
 43
0.0000001
 44
0.0000000001
 12
-0.4633434684
 22
-0.0273503572
 32
0.0
 13
0.0273161024
 23
0.4633454892
 33
0.0
 40
0.0
 40
0.0
 40
0.0
 40
0.0
 40
0.2486357399
 40
0.5000006038
 40
0.7513659212
 40
1.0
 40
1.0
 40
1.0
 40
1.0
 10
-21.994380539
 20
-58.801673764
 30
0.0
 10
-22.0327817877
 20
-58.8039405227
 30
0.0
 10
-22.1118788992
 20
-58.7949256536
 30
0.0
 10
-22.2148782488
 20
-58.7323887779
 30
0.0
 10
-22.277422273
 20
-58.6293923005
 30
0.0
 10
-22.2864355752
 20
-58.5502955285
 30
0.0
 10
-22.2841716705
 20
-58.5118943689
 30
0.0
 11
-21.994380539
 21
-58.801673764
 31
0.0
 11
-22.1088369907
 21
-58.7869134271
 31
0.0
 11
-22.2081111753
 21
-58.7256210278
 31
0.0
 11
-22.2694085833
 21
-58.6263496885
 31
0.0
 11
-22.2841716705
 21
-58.5118943689
 31
0.0
  0
SPLINE
  5
2F0
100
AcDbEntity
  8
RACCORDO
100
AcDbSpline
 62
253
  6
CONTINUOUS
 70
0
 71
3
 72
11
 73
7
 74
5
 42
0.0000001
 43
0.0000001
 44
0.0000000001
 12
-0.027316087
 22
0.4633454758
 32
0.0
 13
0.4633434515
 23
-0.0273504013
 33
0.0
 40
0.0
 40
0.0
 40
0.0
 40
0.0
 40
0.2486340814
 40
0.4999993991
 40
0.7513642621
 40
1.0
 40
1.0
 40
1.0
 40
1.0
 10
-22.2841716753
 20
58.497081584
 30
0.0
 10
-22.2864355787
 20
58.5354827429
 30
0.0
 10
-22.2774222342
 20
58.6145795119
 30
0.0
 10
-22.2148781763
 20
58.7175759603
 30
0.0
 10
-22.1118788048
 20
58.7801127971
 30
0.0
 10
-22.0327816956
 20
58.7891276325
 30
0.0
 10
-21.9943804486
 20
58.7868608701
 30
0.0
 11
-22.2841716753
 21
58.497081584
 31
0.0
 11
-22.2694085495
 21
58.6115368962
 31
0.0
 11
-22.2081111045
 21
58.7108082087
 31
0.0
 11
-22.1088369003
 21
58.7721005686
 31
0.0
 11
-21.9943804486
 21
58.7868608701
 31
0.0
  0
SPLINE
  5
2F1
100
AcDbEntity
  8
RACCORDO
100
AcDbSpline
 62
253
  6
CONTINUOUS
 70
0
 71
3
 72
11
 73
7
 74
5
 42
0.0000001
 43
0.0000001
 44
0.0000000001
 12
-0.4555180674
 22
0.0054800017
 32
0.0
 13
0.0054838821
 23
-0.4555180207
 33
0.0
 40
0.0
 40
0.0
 40
0.0
 40
0.0
 40
0.2500587494
 40
0.4999992321
 40
0.7499395713
 40
1.0
 40
1.0
 40
1.0
 40
1.0
 10
-21.2655989592
 20
58.0580067379
 30
0.0
 10
-21.3035677186
 20
58.058463512
 30
0.0
 10
-21.3805811258
 20
58.0452709271
 30
0.0
 10
-21.4789008699
 20
57.9815558348
 30
0.0
 10
-21.5425991184
 20
57.8832230675
 30
0.0
 10
-21.5557740645
 20
57.8062083426
 30
0.0
 10
-21.5553169639
 20
57.7682393321
 30
0.0
 11
-21.2655989592
 21
58.0580067379
 31
0.0
 11
-21.3777325538
 21
58.0379424673
 31
0.0
 11
-21.4731315229
 21
57.9757871539
 31
0.0
 11
-21.5352689495
 21
57.8803766115
 31
0.0
 11
-21.5553169639
 21
57.7682393321
 31
0.0
  0
SPLINE
  5
2F2
100
AcDbEntity
  8
RACCORDO
100
AcDbSpline
 62
253
  6
CONTINUOUS
 70
0
 71
3
 72
11
 73
7
 74
5
 42
0.0000001
 43
0.0000001
 44
0.0000000001
 12
-0.4473051946
 22
-0.0175270307
 32
0.0
 13
-0.0175584957
 23
-0.4473039606
 33
0.0
 40
0.0
 40
0.0
 40
0.0
 40
0.0
 40
0.2466224059
 40
0.4999986581
 40
0.7533733615
 40
1.0
 40
1.0
 40
1.0
 40
1.0
 10
-21.2488616088
 20
58.0413290656
 30
0.0
 10
-21.2856334365
 20
58.0398882128
 30
0.0
 10
-21.3603278323
 20
58.0228382185
 30
0.0
 10
-21.455369458
 20
57.9580606613
 30
0.0
 10
-21.5201501006
 20
57.8630187308
 30
0.0
 10
-21.5371958924
 20
57.7883236751
 30
0.0
 10
-21.5386393567
 20
57.7515513177
 30
0.0
 11
-21.2488616088
 21
58.0413290656
 31
0.0
 11
-21.3564925137
 21
58.0167571577
 31
0.0
 11
-21.4502808551
 21
57.9529713107
 31
0.0
 11
-21.5140671178
 21
57.8591840906
 31
0.0
 11
-21.5386393567
 21
57.7515513177
 31
0.0
  0
SPLINE
  5
2F3
100
AcDbEntity
  8
RACCORDO
100
AcDbSpline
 62
253
  6
CONTINUOUS
 70
0
 71
3
 72
11
 73
7
 74
5
 42
0.0000001
 43
0.0000001
 44
0.0000000001
 12
0.0054839322
 22
0.455547462
 32
0.0
 13
-0.455547242
 23
-0.0055021796
 33
0.0
 40
0.0
 40
0.0
 40
0.0
 40
0.0
 40
0.2500602726
 40
0.5000004489
 40
0.74994087
 40
1.0
 40
1.0
 40
1.0
 40
1.0
 10
68.6755092715
 20
57.7682392475
 30
0.0
 10
68.675966376
 20
57.8062106884
 30
0.0
 10
68.6627897266
 20
57.883230561
 30
0.0
 10
68.5990831308
 20
57.9815671613
 30
0.0
 10
68.5007524298
 20
58.0452810081
 30
0.0
 10
68.423732703
 20
58.058465323
 30
0.0
 10
68.3857614541
 20
58.0580066996
 30
0.0
 11
68.6755092715
 21
57.7682392475
 31
0.0
 11
68.6554585924
 21
57.8803834567
 31
0.0
 11
68.5933133712
 21
57.9757976153
 31
0.0
 11
68.4979041759
 21
58.0379506603
 31
0.0
 11
68.3857614541
 21
58.0580066996
 31
0.0
  0
SPLINE
  5
2F4
100
AcDbEntity
  8
RACCORDO
100
AcDbSpline
 62
253
  6
CONTINUOUS
 70
0
 71
3
 72
11
 73
7
 74
5
 42
0.0000001
 43
0.0000001
 44
0.0000000001
 12
-0.0175586516
 22
0.4473039548
 32
0.0
 13
-0.4473051996
 23
0.0175269134
 33
0.0
 40
0.0
 40
0.0
 40
0.0
 40
0.0
 40
0.2466266199
 40
0.5000013352
 40
0.7533775704
 40
1.0
 40
1.0
 40
1.0
 40
1.0
 10
68.6588316644
 20
57.7515513177
 30
0.0
 10
68.6573881874
 20
57.7883236719
 30
0.0
 10
68.6403424152
 20
57.8630187268
 30
0.0
 10
68.5755617688
 20
57.9580606569
 30
0.0
 10
68.4805201457
 20
58.0228382146
 30
0.0
 10
68.4058257482
 20
58.0398882223
 30
0.0
 10
68.3690539165
 20
58.0413290656
 30
0.0
 11
68.6588316644
 21
57.7515513177
 31
0.0
 11
68.6342594284
 21
57.8591840828
 31
0.0
 11
68.5704731647
 21
57.9529713089
 31
0.0
 11
68.4766848318
 21
58.0167571548
 31
0.0
 11
68.3690539165
 21
58.0413290656
 31
0.0
  0
SPLINE
  5
2F5
100
AcDbEntity
  8
RACCORDO
100
AcDbSpline
 62
253
  6
CONTINUOUS
 70
0
 71
3
 72
11
 73
7
 74
5
 42
0.0000001
 43
0.0000001
 44
0.0000000001
 12
0.455547462
 22
-0.0054839322
 32
0.0
 13
-0.0055021796
 23
0.455547242
 33
0.0
 40
0.0
 40
0.0
 40
0.0
 40
0.0
 40
0.2500602726
 40
0.5000004489
 40
0.74994087
 40
1.0
 40
1.0
 40
1.0
 40
1.0
 10
68.3857418463
 20
-58.0728195625
 30
0.0
 10
68.4237132871
 20
-58.073276667
 30
0.0
 10
68.5007331598
 20
-58.0601000177
 30
0.0
 10
68.5990697601
 20
-57.9963934219
 30
0.0
 10
68.6627836069
 20
-57.8980627208
 30
0.0
 10
68.6759679217
 20
-57.8210429941
 30
0.0
 10
68.6755092983
 20
-57.7830717451
 30
0.0
 11
68.3857418463
 21
-58.0728195625
 31
0.0
 11
68.4978860554
 21
-58.0527688834
 31
0.0
 11
68.593300214
 21
-57.9906236623
 31
0.0
 11
68.655453259
 21
-57.8952144669
 31
0.0
 11
68.6755092983
 21
-57.7830717451
 31
0.0
  0
SPLINE
  5
2F6
100
AcDbEntity
  8
RACCORDO
100
AcDbSpline
 62
253
  6
CONTINUOUS
 70
0
 71
3
 72
11
 73
7
 74
5
 42
0.0000001
 43
0.0000001
 44
0.0000000001
 12
0.4473039548
 22
0.0175586516
 32
0.0
 13
0.0175269134
 23
0.4473051996
 33
0.0
 40
0.0
 40
0.0
 40
0.0
 40
0.0
 40
0.2466266199
 40
0.5000013352
 40
0.7533775704
 40
1.0
 40
1.0
 40
1.0
 40
1.0
 10
68.3690539165
 20
-58.0561419554
 30
0.0
 10
68.4058262706
 20
-58.0546984785
 30
0.0
 10
68.4805213256
 20
-58.0376527062
 30
0.0
 10
68.5755632557
 20
-57.9728720599
 30
0.0
 10
68.6403408133
 20
-57.8778304368
 30
0.0
 10
68.657390821
 20
-57.8031360392
 30
0.0
 10
68.6588316644
 20
-57.7663642075
 30
0.0
 11
68.3690539165
 21
-58.0561419554
 31
0.0
 11
68.4766866816
 21
-58.0315697194
 31
0.0
 11
68.5704739076
 21
-57.9677834558
 31
0.0
 11
68.6342597536
 21
-57.8739951228
 31
0.0
 11
68.6588316644
 21
-57.7663642075
 31
0.0
  0
SPLINE
  5
2F7
100
AcDbEntity
  8
RACCORDO
100
AcDbSpline
 62
253
  6
CONTINUOUS
 70
0
 71
3
 72
11
 73
7
 74
5
 42
0.0000001
 43
0.0000001
 44
0.0000000001
 12
-0.0054839322
 22
-0.455547462
 32
0.0
 13
0.455547242
 23
0.0055021796
 33
0.0
 40
0.0
 40
0.0
 40
0.0
 40
0.0
 40
0.2500602726
 40
0.5000004489
 40
0.74994087
 40
1.0
 40
1.0
 40
1.0
 40
1.0
 10
-21.5553169638
 20
-57.7830521373
 30
0.0
 10
-21.5557740683
 20
-57.8210235782
 30
0.0
 10
-21.5425974189
 20
-57.8980434508
 30
0.0
 10
-21.4788908231
 20
-57.9963800511
 30
0.0
 10
-21.3805601221
 20
-58.0600938979
 30
0.0
 10
-21.3035403954
 20
-58.0732782128
 30
0.0
 10
-21.2655691464
 20
-58.0728195894
 30
0.0
 11
-21.5553169638
 21
-57.7830521373
 31
0.0
 11
-21.5352662847
 21
-57.8951963465
 31
0.0
 11
-21.4731210636
 21
-57.9906105051
 31
0.0
 11
-21.3777118682
 21
-58.0527635501
 31
0.0
 11
-21.2655691464
 21
-58.0728195894
 31
0.0
  0
SPLINE
  5
2F8
100
AcDbEntity
  8
RACCORDO
100
AcDbSpline
 62
253
  6
CONTINUOUS
 70
0
 71
3
 72
11
 73
7
 74
5
 42
0.0000001
 43
0.0000001
 44
0.0000000001
 12
0.0175586516
 22
-0.4473039548
 32
0.0
 13
0.4473051996
 23
-0.0175269134
 33
0.0
 40
0.0
 40
0.0
 40
0.0
 40
0.0
 40
0.2466266199
 40
0.5000013352
 40
0.7533775704
 40
1.0
 40
1.0
 40
1.0
 40
1.0
 10
-21.5386393567
 20
-57.7663642075
 30
0.0
 10
-21.5371958797
 20
-57.8031365617
 30
0.0
 10
-21.5201501075
 20
-57.8778316166
 30
0.0
 10
-21.4553694611
 20
-57.9728735467
 30
0.0
 10
-21.360327838
 20
-58.0376511044
 30
0.0
 10
-21.2856334405
 20
-58.0547011121
 30
0.0
 10
-21.2488616088
 20
-58.0561419554
 30
0.0
 11
-21.5386393567
 21
-57.7663642075
 31
0.0
 11
-21.5140671207
 21
-57.8739969726
 31
0.0
 11
-21.450280857
 21
-57.9677841987
 31
0.0
 11
-21.3564925241
 21
-58.0315700446
 31
0.0
 11
-21.2488616088
 21
-58.0561419554
 31
0.0
  0
SPLINE
  5
2F9
100
AcDbEntity
  8
RACCORDO
100
AcDbSpline
 62
253
  6
CONTINUOUS
 70
0
 71
3
 72
23
 73
19
 74
17
 42
0.0000001
 43
0.0000001
 44
0.0000000001
 12
-0.0052257321
 22
0.6999443681
 32
0.0
 13
0.6998516159
 23
0.0125356413
 33
0.0
 40
0.0
 40
0.0
 40
0.0
 40
0.0
 40
0.1950643086
 40
0.3826304685
 40
0.5554924549
 40
0.6343031525
 40
0.707008751
 40
0.7729014345
 40
0.8313582967
 40
0.8818035836
 40
0.9237654335
 40
0.9568267
 40
0.9699234141
 40
0.9806855133
 40
0.9890831408
 40
0.9951023458
 40
0.998735732
 40
1.0
 40
1.0
 40
1.0
 40
1.0
 10
-107.3037464773
 20
61.0978452981
 30
0.0
 10
-107.3040862619
 20
61.1433566862
 30
0.0
 10
-107.3046901158
 20
61.232630516
 30
0.0
 10
-107.3053711015
 20
61.3622369978
 30
0.0
 10
-107.3057378383
 20
61.4647201671
 30
0.0
 10
-107.3058872108
 20
61.5404044271
 30
0.0
 10
-107.3059256916
 20
61.5911304852
 30
0.0
 10
-107.3058942327
 20
61.6371079329
 30
0.0
 10
-107.3057930799
 20
61.6778903241
 30
0.0
 10
-107.3056263656
 20
61.7130923409
 30
0.0
 10
-107.3053898452
 20
61.7423585957
 30
0.0
 10
-107.3051407857
 20
61.7629343901
 30
0.0
 10
-107.3048745107
 20
61.7761864728
 30
0.0
 10
-107.3047138663
 20
61.7837657493
 30
0.0
 10
-107.3044419305
 20
61.7894934112
 30
0.0
 10
-107.3043989412
 20
61.7940271084
 30
0.0
 10
-107.303908779
 20
61.7959875137
 30
0.0
 10
-107.3040414107
 20
61.7977334019
 30
0.0
 10
-107.3037464773
 20
61.7977386847
 30
0.0
 11
-107.3037464773
 21
61.0978452981
 31
0.0
 11
-107.30466692
 21
61.2343801649
 31
0.0
 11
-107.3053509647
 21
61.3656679191
 31
0.0
 11
-107.3057719067
 21
61.4866643327
 31
0.0
 11
-107.305878401
 21
61.5418288713
 31
0.0
 11
-107.305914058
 21
61.5927201513
 31
0.0
 11
-107.3058784139
 21
61.6388426355
 31
0.0
 11
-107.3057719269
 21
61.6797601888
 31
0.0
 11
-107.3055955101
 21
61.7150696266
 31
0.0
 11
-107.305350975
 21
61.7444403877
 31
0.0
 11
-107.3050405096
 21
61.7675799973
 31
0.0
 11
-107.3048614168
 21
61.7767454744
 31
0.0
 11
-107.3046669087
 21
61.7842760435
 31
0.0
 11
-107.3044574223
 21
61.7901503453
 31
0.0
 11
-107.3042336688
 21
61.7943576257
 31
0.0
 11
-107.3039964274
 21
61.7968897753
 31
0.0
 11
-107.3037464773
 21
61.7977386847
 31
0.0
  0
SPLINE
  5
2FA
100
AcDbEntity
  8
RACCORDO
100
AcDbSpline
 62
253
  6
CONTINUOUS
 70
0
 71
3
 72
23
 73
19
 74
17
 42
0.0000001
 43
0.0000001
 44
0.0000000001
 12
-0.6998215041
 22
0.0141165512
 32
0.0
 13
0.0052251321
 23
0.699944364
 33
0.0
 40
0.0
 40
0.0
 40
0.0
 40
0.0
 40
0.0012647456
 40
0.0048981228
 40
0.0109170841
 40
0.0193144987
 40
0.0300766235
 40
0.0431735432
 40
0.0762352275
 40
0.1181972398
 40
0.1686425838
 40
0.227099564
 40
0.2929923806
 40
0.3656980255
 40
0.4445088585
 40
0.6173712155
 40
0.8049357875
 40
1.0
 40
1.0
 40
1.0
 40
1.0
 10
-107.3037464773
 20
-61.8125515745
 30
0.0
 10
-107.3040415094
 20
-61.8125456232
 30
0.0
 10
-107.3039087041
 20
-61.8108010637
 30
0.0
 10
-107.3043990053
 20
-61.8088391313
 30
0.0
 10
-107.3044419323
 20
-61.8043063975
 30
0.0
 10
-107.3047138874
 20
-61.7985784619
 30
0.0
 10
-107.3048745117
 20
-61.7909993236
 30
0.0
 10
-107.3051407826
 20
-61.7777470225
 30
0.0
 10
-107.305389832
 20
-61.7571710883
 30
0.0
 10
-107.3056263462
 20
-61.7279046664
 30
0.0
 10
-107.3057930581
 20
-61.6927025779
 30
0.0
 10
-107.3058942196
 20
-61.6519201131
 30
0.0
 10
-107.3059256923
 20
-61.6059425973
 30
0.0
 10
-107.3058872252
 20
-61.555216466
 30
0.0
 10
-107.305737863
 20
-61.4795320782
 30
0.0
 10
-107.3053711148
 20
-61.3770491625
 30
0.0
 10
-107.3046901051
 20
-61.2474429888
 30
0.0
 10
-107.3040862228
 20
-61.1581695533
 30
0.0
 10
-107.3037464773
 20
-61.1126581879
 30
0.0
 11
-107.3037464773
 21
-61.8125515745
 31
0.0
 11
-107.3039964472
 21
-61.8117023225
 31
0.0
 11
-107.3042336933
 21
-61.8091701797
 31
0.0
 11
-107.304457442
 21
-61.8049630699
 31
0.0
 11
-107.30466692
 21
-61.799088917
 31
0.0
 11
-107.3048614209
 21
-61.7915583299
 31
0.0
 11
-107.3050405079
 21
-61.7823927088
 31
0.0
 11
-107.3053509647
 21
-61.7592528069
 31
0.0
 11
-107.3055954921
 21
-61.7298819324
 31
0.0
 11
-107.3057719067
 21
-61.6945724551
 31
0.0
 11
-107.305878401
 21
-61.6536548198
 31
0.0
 11
-107.305914058
 21
-61.6075322429
 31
0.0
 11
-107.3058784139
 21
-61.556640931
 31
0.0
 11
-107.3057719269
 21
-61.5014762984
 31
0.0
 11
-107.305350975
 21
-61.3804796268
 31
0.0
 11
-107.3046669087
 21
-61.2491929859
 31
0.0
 11
-107.3037464773
 21
-61.1126581879
 31
0.0
  0
ELLIPSE
  5
2FB
100
AcDbEntity
  8
RACCORDO
100
AcDbEllipse
 62
7
  6
CONTINUOUS
 10
-21.230257862
 20
57.732947571
 30
0.0
 11
0.2121966568
 21
-0.2121966568
 31
0.0
 40
0.9996954599
 41
2.3563467834
 42
3.9268385237
  0
ELLIPSE
  5
2FC
100
AcDbEntity
  8
RACCORDO
100
AcDbEllipse
 62
7
  6
CONTINUOUS
 10
68.3504501697
 20
57.732947571
 30
0.0
 11
0.2121966568
 21
0.2121966568
 31
0.0
 40
0.9996954599
 41
-0.7852458701
 42
0.7852458701
  0
ELLIPSE
  5
2FD
100
AcDbEntity
  8
RACCORDO
100
AcDbEllipse
 62
7
  6
CONTINUOUS
 10
68.3504501697
 20
-57.7477604608
 30
0.0
 11
0.2121966568
 21
-0.2121966568
 31
0.0
 40
0.9996954599
 41
-0.7852458701
 42
0.7852458701
  0
ELLIPSE
  5
2FE
100
AcDbEntity
  8
RACCORDO
100
AcDbEllipse
 62
7
  6
CONTINUOUS
 10
-21.230257862
 20
-57.7477604608
 30
0.0
 11
-0.2121966568
 21
-0.2121966568
 31
0.0
 40
0.9996954599
 41
-0.7852458701
 42
0.7852458701
  0
ELLIPSE
  5
2FF
100
AcDbEntity
  8
RACCORDO
100
AcDbEllipse
 62
7
  6
CONTINUOUS
 10
71.7632274722
 20
61.1457248735
 30
0.0
 11
0.4951255324
 21
0.4951255324
 31
0.0
 40
0.9996954599
 41
-0.7852458702
 42
0.7852458701
  0
ELLIPSE
  5
300
100
AcDbEntity
  8
RACCORDO
100
AcDbEllipse
 62
7
  6
CONTINUOUS
 10
71.7632274722
 20
-61.1605377633
 30
0.0
 11
-0.4951255324
 21
0.4951255324
 31
0.0
 40
0.9996954599
 41
-3.9268385237
 42
-2.3563467834
  0
ELLIPSE
  5
301
100
AcDbEntity
  8
RACCORDO
100
AcDbEllipse
 62
7
  6
CONTINUOUS
 10
-24.6430351646
 20
-61.1605377633
 30
0.0
 11
0.4951255324
 21
0.4951255324
 31
0.0
 40
0.9996954599
 41
2.3563467834
 42
3.9268385237
  0
ELLIPSE
  5
302
100
AcDbEntity
  8
RACCORDO
100
AcDbEllipse
 62
7
  6
CONTINUOUS
 10
-24.6430351646
 20
61.1457248735
 30
0.0
 11
0.4951255324
 21
-0.4951255324
 31
0.0
 40
0.9996954599
 41
2.3563467834
 42
3.9268385237
  0
ENDSEC
  0
SECTION
  2
OBJECTS
  0
DICTIONARY
  5
C
100
AcDbDictionary
280
0
281
1
  3
ACAD_GROUP
350
D
  3
ACAD_MLINESTYLE
350
17
  3
ACAD_LAYOUT
350
1A
  3
ACAD_PLOTSETTINGS
350
19
  3
ACAD_PLOTSTYLENAME
350
E
  0
DICTIONARY
  5
D
102
{ACAD_REACTORS
330
C
102
}
100
AcDbDictionary
280
0
281
1
  0
ACDBDICTIONARYWDFLT
  5
E
102
{ACAD_REACTORS
330
C
102
}
100
AcDbDictionary
281
1
  3
Normal
350
F
100
AcDbDictionaryWithDefault
340
F
  0
DICTIONARY
  5
17
102
{ACAD_REACTORS
330
C
102
}
100
AcDbDictionary
280
0
281
1
  3
Standard
350
18
  0
DICTIONARY
  5
19
102
{ACAD_REACTORS
330
C
102
}
100
AcDbDictionary
281
1
  0
DICTIONARY
  5
1A
102
{ACAD_REACTORS
330
C
102
}
100
AcDbDictionary
281
1
  3
Model
350
303
  3
Layout1
350
304
  0
ACDBPLACEHOLDER
  5
F
102
{ACAD_REACTORS
330
E
102
}
  0
MLINESTYLE
  5
18
102
{ACAD_REACTORS
330
17
102
}
100
AcDbMlineStyle
  2
STANDARD
 70
0
  3

 62
256
 51
90.0
 52
90.0
 71
2
 49
0.5
 62
256
  6
BYLAYER
 49
-0.5
 62
256
  6
BYLAYER
  0
LAYOUT
  5
303
102
{ACAD_REACTORS
330
1A
102
}
100
AcDbPlotSettings
  1

  2
none_device
  4
ISO_A4_(297.00_x_210.00_MM)
  6

 40
0.0
 41
0.0
 42
0.0
 43
0.0
 44
297.0
 45
210.0
 46
0.0
 47
0.0
 48
0.0
 49
0.0
140
0.0
141
0.0
142
1.0
143
1.0
 70
1024
 72
1
 73
0
 74
0
  7

 75
0
147
1.0
148
0.0
149
0.0
100
AcDbLayout
  1
Model
 70
0
 71
0
 10
0.0
 20
0.0
 11
297.0
 21
210.0
 12
0.0
 22
0.0
 32
0.0
 14
0.0
 24
0.0
 34
0.0
 15
0.0
 25
0.0
 35
0.0
146
0.0
 13
0.0
 23
0.0
 33
0.0
 16
1.0
 26
0.0
 36
0.0
 17
0.0
 27
1.0
 37
0.0
 76
0
330
216
345
0
346
0
  0
LAYOUT
  5
304
102
{ACAD_REACTORS
330
1A
102
}
100
AcDbPlotSettings
  1

  2
none_device
  4
ISO_A4_(297.00_x_210.00_MM)
  6

 40
0.0
 41
0.0
 42
0.0
 43
0.0
 44
297.0
 45
210.0
 46
0.0
 47
0.0
 48
0.0
 49
0.0
140
0.0
141
0.0
142
1.0
143
1.0
 70
0
 72
1
 73
0
 74
0
  7

 75
0
147
1.0
148
0.0
149
0.0
100
AcDbLayout
  1
Layout1
 70
0
 71
1
 10
0.0
 20
0.0
 11
297.0
 21
210.0
 12
0.0
 22
0.0
 32
0.0
 14
0.0
 24
0.0
 34
0.0
 15
0.0
 25
0.0
 35
0.0
146
0.0
 13
0.0
 23
0.0
 33
0.0
 16
1.0
 26
0.0
 36
0.0
 17
0.0
 27
1.0
 37
0.0
 76
0
330
217
345
0
346
0
  0
ENDSEC
  0
EOF
