  0
SECTION
  2
HEADER
  9
$ACADVER
  1
AC1015
  9
$DWGCODEPAGE
  3
ANSI_1252
  9
$EXTMAX
 10
297.0
 20
210.0
 30
0.0
  9
$EXTMIN
 10
0.0
 20
0.0
 30
0.0
  9
$LIMMIN
 10
0.0
 20
0.0
  9
$LIMMAX
 10
297.0
 20
210.0
  9
$VIEWCTR
 10
148.5
 20
105.0
  9
$VIEWSIZE
 40
210.0
  9
$CLAYER
  8
0
  9
$LTSCALE
 40
16.335
  9
$CELTYPE
  6
BYLAYER
  9
$DIMSCALE
 40
1.0
  9
$DIMASZ
 40
3.0
  9
$DIMEXO
 40
1.85625
  9
$DIMDLI
 40
11.286
  9
$DIMEXE
 40
5.346
  9
$DIMCEN
 40
2.673
  9
$DIMLFAC
 40
1.0
  9
$DIMBLK
  1
_FILLED
  9
$DIMTXT
 40
3.0
  9
$DIMTOL
 70
1
  9
$DIMLIM
 70
0
  9
$DIMTFAC
 40
1.0
  9
$DIMTP
 40
0.01
  9
$DIMTM
 40
0.01
  9
$PDMODE
 70
3
  9
$PDSIZE
 40
3.0
  9
$HANDSEED
  5
367
  9
$TILEMODE
 70
1
  9
$MEASUREMENT
 70
1
  9
$INSUNITS
 70
4
  0
ENDSEC
  0
SECTION
  2
CLASSES
  0
CLASS
  1
ACDBDICTIONARYWDFLT
  2
AcDbDictionaryWithDefault
  3
AutoCAD 2000
 90
0
280
0
281
0
  0
CLASS
  1
ACDBPLACEHOLDER
  2
AcDbPlaceHolder
  3
AutoCAD 2000
 90
0
280
0
281
0
  0
CLASS
  1
LAYOUT
  2
AcDbLayout
  3
AutoCAD 2000
 90
0
280
0
281
0
  0
ENDSEC
  0
SECTION
  2
TABLES
  0
TABLE
  2
VPORT
  5
8
100
AcDbSymbolTable
 70
2
  0
VPORT
  5
1F4
100
AcDbSymbolTableRecord
100
AcDbViewportTableRecord
  2
*ACTIVE
 70
0
 10
0.0
 20
0.0
 11
1.0
 21
1.0
 12
148.5
 22
105.0
 13
0.0
 23
0.0
 14
1.0
 24
1.0
 15
0.0
 25
0.0
 16
0.0
 26
0.0
 36
1.0
 17
0.0
 27
0.0
 37
0.0
 40
210.0
 41
1.4142857143
 42
50.0
 43
0.0
 44
0.0
 50
0.0
 51
0.0
 71
0
 72
100
 73
1
 74
1
 75
0
 76
0
 77
0
 78
0
  0
ENDTAB
  0
TABLE
  2
LTYPE
  5
5
100
AcDbSymbolTable
 70
6
  0
LTYPE
  5
14
100
AcDbSymbolTableRecord
100
AcDbLinetypeTableRecord
  2
BYBLOCK
 70
0
  3

 72
65
 73
0
 40
0.0
  0
LTYPE
  5
15
100
AcDbSymbolTableRecord
100
AcDbLinetypeTableRecord
  2
BYLAYER
 70
0
  3

 72
65
 73
0
 40
0.0
  0
LTYPE
  5
16
100
AcDbSymbolTableRecord
100
AcDbLinetypeTableRecord
  2
CONTINUOUS
 70
64
  3
Solid line
 72
65
 73
0
 40
0.0
  0
LTYPE
  5
1F5
100
AcDbSymbolTableRecord
100
AcDbLinetypeTableRecord
  2
CENTER
 70
64
  3
____ _ ____ _ ____ _ ____ _ ____ _ ____ _ ____
 72
65
 73
4
 40
0.6
 49
0.375
 74
0
 49
-0.075
 74
0
 49
0.075
 74
0
 49
-0.075
 74
0
  0
LTYPE
  5
1F6
100
AcDbSymbolTableRecord
100
AcDbLinetypeTableRecord
  2
HIDDEN
 70
64
  3
- - - - - - - - - - - - - - - - - - - -
 72
65
 73
2
 40
0.2
 49
0.1
 74
0
 49
-0.1
 74
0
  0
LTYPE
  5
1F7
100
AcDbSymbolTableRecord
100
AcDbLinetypeTableRecord
  2
PHANTOM
 70
64
  3
_____ _ _ _____ _ _ _____ _ _ _____
 72
65
 73
6
 40
0.8
 49
0.45
 74
0
 49
-0.05
 74
0
 49
0.1
 74
0
 49
-0.05
 74
0
 49
0.1
 74
0
 49
-0.05
 74
0
  0
LTYPE
  5
1F8
100
AcDbSymbolTableRecord
100
AcDbLinetypeTableRecord
  2
DOT
 70
64
  3
. . . . . . . . . . . . . . . . . . . .
 72
65
 73
2
 40
0.2
 49
0.1
 74
0
 49
-0.1
 74
0
  0
LTYPE
  5
1F9
100
AcDbSymbolTableRecord
100
AcDbLinetypeTableRecord
  2
DASHED
 70
64
  3
- - - - - - - - - - - - - - - - - - - -
 72
65
 73
2
 40
0.2
 49
0.1
 74
0
 49
-0.1
 74
0
  0
ENDTAB
  0
TABLE
  2
LAYER
  5
2
100
AcDbSymbolTable
 70
36
  0
LAYER
  5
10
100
AcDbSymbolTableRecord
100
AcDbLayerTableRecord
  2
0
 70
0
 62
7
  6
CONTINUOUS
370
-3
390
F
  0
LAYER
  5
1FA
100
AcDbSymbolTableRecord
100
AcDbLayerTableRecord
  2
DEFAULT_1
 70
0
 62
7
  6
CENTER
370
-3
390
F
  0
LAYER
  5
1FB
100
AcDbSymbolTableRecord
100
AcDbLayerTableRecord
  2
DEFAULT_2
 70
0
 62
7
  6
HIDDEN
370
-3
390
F
  0
LAYER
  5
1FC
100
AcDbSymbolTableRecord
100
AcDbLayerTableRecord
  2
DEFAULT_3
 70
0
 62
7
  6
PHANTOM
370
-3
390
F
  0
LAYER
  5
1FD
100
AcDbSymbolTableRecord
100
AcDbLayerTableRecord
  2
ASSI
 70
0
 62
7
  6
CONTINUOUS
370
-3
390
F
  0
LAYER
  5
1FE
100
AcDbSymbolTableRecord
100
AcDbLayerTableRecord
  2
COORDINATE
 70
0
 62
7
  6
CONTINUOUS
370
-3
390
F
  0
LAYER
  5
1FF
100
AcDbSymbolTableRecord
100
AcDbLayerTableRecord
  2
COORD_ORIGINE
 70
0
 62
7
  6
CONTINUOUS
370
-3
390
F
  0
LAYER
  5
200
100
AcDbSymbolTableRecord
100
AcDbLayerTableRecord
  2
COPY_PUBLISH
 70
0
 62
7
  6
CONTINUOUS
370
-3
390
F
  0
LAYER
  5
201
100
AcDbSymbolTableRecord
100
AcDbLayerTableRecord
  2
COSMETIC
 70
0
 62
7
  6
CONTINUOUS
370
-3
390
F
  0
LAYER
  5
202
100
AcDbSymbolTableRecord
100
AcDbLayerTableRecord
  2
COSMETICI
 70
0
 62
7
  6
CONTINUOUS
370
-3
390
F
  0
LAYER
  5
203
100
AcDbSymbolTableRecord
100
AcDbLayerTableRecord
  2
CURVE
 70
0
 62
7
  6
CONTINUOUS
370
-3
390
F
  0
LAYER
  5
204
100
AcDbSymbolTableRecord
100
AcDbLayerTableRecord
  2
CURVE_TASSELLI
 70
0
 62
7
  6
CONTINUOUS
370
-3
390
F
  0
LAYER
  5
205
100
AcDbSymbolTableRecord
100
AcDbLayerTableRecord
  2
DRAFT
 70
0
 62
7
  6
CONTINUOUS
370
-3
390
F
  0
LAYER
  5
206
100
AcDbSymbolTableRecord
100
AcDbLayerTableRecord
  2
IGES
 70
0
 62
7
  6
CONTINUOUS
370
-3
390
F
  0
LAYER
  5
207
100
AcDbSymbolTableRecord
100
AcDbLayerTableRecord
  2
IMPORT_IGES
 70
0
 62
7
  6
CONTINUOUS
370
-3
390
F
  0
LAYER
  5
208
100
AcDbSymbolTableRecord
100
AcDbLayerTableRecord
  2
INTFCLR_2
 70
0
 62
7
  6
CONTINUOUS
370
-3
390
F
  0
LAYER
  5
209
100
AcDbSymbolTableRecord
100
AcDbLayerTableRecord
  2
NOTE
 70
0
 62
7
  6
CONTINUOUS
370
-3
390
F
  0
LAYER
  5
20A
100
AcDbSymbolTableRecord
100
AcDbLayerTableRecord
  2
PIANI
 70
0
 62
7
  6
CONTINUOUS
370
-3
390
F
  0
LAYER
  5
20B
100
AcDbSymbolTableRecord
100
AcDbLayerTableRecord
  2
PIANI_ORIGINE
 70
0
 62
7
  6
CONTINUOUS
370
-3
390
F
  0
LAYER
  5
20C
100
AcDbSymbolTableRecord
100
AcDbLayerTableRecord
  2
PUNTI
 70
0
 62
7
  6
CONTINUOUS
370
-3
390
F
  0
LAYER
  5
20D
100
AcDbSymbolTableRecord
100
AcDbLayerTableRecord
  2
RACCORDO
 70
0
 62
7
  6
CONTINUOUS
370
-3
390
F
  0
LAYER
  5
20E
100
AcDbSymbolTableRecord
100
AcDbLayerTableRecord
  2
SIMBOLI
 70
0
 62
7
  6
CONTINUOUS
370
-3
390
F
  0
LAYER
  5
20F
100
AcDbSymbolTableRecord
100
AcDbLayerTableRecord
  2
SMUSSO
 70
0
 62
7
  6
CONTINUOUS
370
-3
390
F
  0
LAYER
  5
210
100
AcDbSymbolTableRecord
100
AcDbLayerTableRecord
  2
SNAPLINE
 70
0
 62
7
  6
CONTINUOUS
370
-3
390
F
  0
LAYER
  5
211
100
AcDbSymbolTableRecord
100
AcDbLayerTableRecord
  2
SUPERFICI
 70
0
 62
7
  6
CONTINUOUS
370
-3
390
F
  0
LAYER
  5
212
100
AcDbSymbolTableRecord
100
AcDbLayerTableRecord
  2
TRASH
 70
0
 62
7
  6
CONTINUOUS
370
-3
390
F
  0
LAYER
  5
213
100
AcDbSymbolTableRecord
100
AcDbLayerTableRecord
  2
XSEC_DATUMS
 70
0
 62
7
  6
CONTINUOUS
370
-3
390
F
  0
ENDTAB
  0
TABLE
  2
STYLE
  5
3
100
AcDbSymbolTable
 70
1
  0
STYLE
  5
11
100
AcDbSymbolTableRecord
100
AcDbTextStyleTableRecord
  2
STANDARD
 70
0
 40
0.0
 41
0.8
 50
0.0
 71
0
 42
0.2
  3
txt
  4

  0
STYLE
  5
214
100
AcDbSymbolTableRecord
100
AcDbTextStyleTableRecord
  2
TEXTSTYLE_1
 70
0
 40
0.0
 41
0.8
 50
0.0
 71
0
 42
0.2
  3
gdt
  4

  0
ENDTAB
  0
TABLE
  2
VIEW
  5
6
100
AcDbSymbolTable
 70
0
  0
ENDTAB
  0
TABLE
  2
UCS
  5
7
100
AcDbSymbolTable
 70
0
  0
ENDTAB
  0
TABLE
  2
APPID
  5
9
100
AcDbSymbolTable
 70
1
  0
APPID
  5
215
100
AcDbSymbolTableRecord
100
AcDbRegAppTableRecord
  2
ACAD
 70
0
  0
ENDTAB
  0
TABLE
  2
BLOCK_RECORD
  5
1
100
AcDbSymbolTable
 70
0
  0
BLOCK_RECORD
  5
216
100
AcDbSymbolTableRecord
100
AcDbBlockTableRecord
  2
*Model_Space
  0
BLOCK_RECORD
  5
217
100
AcDbSymbolTableRecord
100
AcDbBlockTableRecord
  2
*Paper_Space
  0
BLOCK_RECORD
  5
218
100
AcDbSymbolTableRecord
100
AcDbBlockTableRecord
  2
_FILLED
  0
BLOCK_RECORD
  5
219
100
AcDbSymbolTableRecord
100
AcDbBlockTableRecord
  2
*D0
  0
BLOCK_RECORD
  5
21A
100
AcDbSymbolTableRecord
100
AcDbBlockTableRecord
  2
*D1
  0
BLOCK_RECORD
  5
21B
100
AcDbSymbolTableRecord
100
AcDbBlockTableRecord
  2
*D2
  0
ENDTAB
  0
TABLE
  2
DIMSTYLE
  5
A
100
AcDbSymbolTable
 70
1
100
AcDbDimStyleTable
 71
0
  0
DIMSTYLE
105
21C
100
AcDbSymbolTableRecord
100
AcDbDimStyleTableRecord
  2
STANDARD
 70
0
  3

  4

 40
1.0
 41
3.0
 42
0.0625
 43
0.38
 44
0.18
 45
0.0
 46
0.0
 47
0.01
 48
0.01
140
3.0
141
0.09
142
0.0
143
25.4
144
1.0
145
0.0
146
1.0
147
0.09
 71
1.0
 72
0.0
 73
0
 74
0
 75
0
 76
0
 77
1
 78
8
170
0
171
2
172
0
173
0
174
0
175
0
176
0
177
0
178
0
270
2
271
2
272
2
273
2
274
2
275
0
280
0
281
0
282
0
283
1
284
8
285
0
286
0
287
3
288
0
340
11
341
218
342
218
343
218
344
218
  0
DIMSTYLE
105
21D
100
AcDbSymbolTableRecord
100
AcDbDimStyleTableRecord
  2
DIMSTYLE_1
 70
0
  3

  4

 40
1.0
 41
3.0
 42
0.0625
 43
0.38
 44
0.18
 45
0.0
 46
0.0
 47
0.0
 48
0.0
140
3.0
141
0.09
142
0.0
143
25.4
144
1.0
145
0.0
146
1.0
147
0.09
 71
0.0
 72
0.0
 73
0
 74
0
 75
0
 76
0
 77
1
 78
8
170
0
171
2
172
0
173
0
174
0
175
0
176
0
177
0
178
0
270
2
271
2
272
2
273
2
274
2
275
0
280
0
281
0
282
0
283
1
284
8
285
0
286
0
287
3
288
0
340
11
341
218
342
218
343
218
344
218
  0
DIMSTYLE
105
21E
100
AcDbSymbolTableRecord
100
AcDbDimStyleTableRecord
  2
DIMSTYLE_2
 70
0
  3

  4

 40
1.0
 41
3.0
 42
0.0625
 43
0.38
 44
0.18
 45
0.0
 46
0.0
 47
0.0
 48
0.0
140
3.0
141
0.09
142
0.0
143
25.4
144
1.0
145
0.0
146
1.0
147
0.09
 71
0.0
 72
0.0
 73
0
 74
0
 75
0
 76
0
 77
1
 78
8
170
0
171
2
172
0
173
0
174
0
175
0
176
0
177
0
178
0
270
2
271
1
272
1
273
2
274
2
275
0
280
0
281
0
282
0
283
1
284
8
285
0
286
0
287
3
288
0
340
11
341
218
342
218
343
218
344
218
  0
ENDTAB
  0
ENDSEC
  0
SECTION
  2
BLOCKS
  0
BLOCK
  5
20
100
AcDbEntity
  8
0
100
AcDbBlockBegin
  2
*Model_Space
 70
0
 10
0.0
 20
0.0
 30
0.0
  3
*Model_Space
  1

  0
ENDBLK
  5
21
100
AcDbEntity
  8
0
100
AcDbBlockEnd
  0
BLOCK
  5
1C
100
AcDbEntity
  8
0
100
AcDbBlockBegin
  2
*Paper_Space
 70
0
 10
0.0
 20
0.0
 30
0.0
  3
*Paper_Space
  1

  0
ENDBLK
  5
1D
100
AcDbEntity
  8
0
100
AcDbBlockEnd
  0
BLOCK
  5
21F
100
AcDbEntity
  8
0
100
AcDbBlockBegin
  2
_FILLED
 70
64
 10
0.0
 20
0.0
  3
_FILLED
  1

  0
SOLID
  5
220
100
AcDbEntity
  8
0
  6
BYBLOCK
 62
0
100
AcDbTrace
 10
0.0
 20
0.0
 11
-1.0
 21
0.3166666667
 12
-1.0
 22
-0.3166666667
 13
-1.0
 23
-0.3166666667
  0
ENDBLK
  5
221
100
AcDbEntity
  8
0
  6
BYBLOCK
 62
0
100
AcDbBlockEnd
  0
BLOCK
  5
222
100
AcDbEntity
  8
0
100
AcDbBlockBegin
 62
7
  6
CONTINUOUS
  2
*D0
 70
65
 10
0.0
 20
0.0
  3
*D0
  1

  0
MTEXT
  5
223
100
AcDbEntity
  8
0
100
AcDbMText
 62
7
  6
CONTINUOUS
  7
STANDARD
 71
2
 72
1
 10
25.5113776637
 20
88.9325591213
 30
0.0
 11
1.0
 21
0.0
 31
0.0
 44
0.9
  1
155,2
 40
3.0
 41
10.0714285714
  0
LINE
  5
224
100
AcDbEntity
  8
0
100
AcDbLine
 62
7
  6
CONTINUOUS
 10
103.1113776637
 20
76.6825591216
 11
103.1113776637
 21
86.6825591213
  0
LINE
  5
225
100
AcDbEntity
  8
0
100
AcDbLine
 62
7
  6
CONTINUOUS
 10
-52.0886223363
 20
76.6825591216
 11
-52.0886223363
 21
86.6825591213
  0
LINE
  5
226
100
AcDbEntity
  8
0
100
AcDbLine
 62
7
  6
CONTINUOUS
 10
103.1113776637
 20
85.1825591213
 11
25.5113776637
 21
85.1825591213
  0
LINE
  5
227
100
AcDbEntity
  8
0
100
AcDbLine
 62
7
  6
CONTINUOUS
 10
-52.0886223363
 20
85.1825591213
 11
25.5113776637
 21
85.1825591213
  0
INSERT
  5
228
100
AcDbEntity
  8
0
100
AcDbBlockReference
 62
7
  6
CONTINUOUS
  2
_FILLED
 10
103.1113776637
 20
85.1825591213
 41
3.0
 42
3.0
 43
3.0
 50
0.0
  0
INSERT
  5
229
100
AcDbEntity
  8
0
100
AcDbBlockReference
 62
7
  6
CONTINUOUS
  2
_FILLED
 10
-52.0886223363
 20
85.1825591213
 41
3.0
 42
3.0
 43
3.0
 50
180.0
  0
ENDBLK
  5
22A
100
AcDbEntity
  8
0
  6
BYBLOCK
 62
0
100
AcDbBlockEnd
  0
BLOCK
  5
22B
100
AcDbEntity
  8
0
100
AcDbBlockBegin
 62
7
  6
CONTINUOUS
  2
*D1
 70
65
 10
0.0
 20
0.0
  3
*D1
  1

  0
MTEXT
  5
22C
100
AcDbEntity
  8
0
100
AcDbMText
 62
7
  6
CONTINUOUS
  7
STANDARD
 71
2
 72
1
 10
107.3613776634
 20
-0.4174408784
 30
0.0
 11
0.0
 21
1.0
 31
0.0
 44
0.9
  1
155,2
 40
3.0
 41
10.0714285714
  0
LINE
  5
22D
100
AcDbEntity
  8
0
100
AcDbLine
 62
7
  6
CONTINUOUS
 10
102.6113776637
 20
77.1825591216
 11
112.6113776634
 21
77.1825591216
  0
LINE
  5
22E
100
AcDbEntity
  8
0
100
AcDbLine
 62
7
  6
CONTINUOUS
 10
102.6113776637
 20
-78.0174408784
 11
112.6113776634
 21
-78.0174408784
  0
LINE
  5
22F
100
AcDbEntity
  8
0
100
AcDbLine
 62
7
  6
CONTINUOUS
 10
111.1113776634
 20
77.1825591216
 11
111.1113776634
 21
-0.4174408784
  0
LINE
  5
230
100
AcDbEntity
  8
0
100
AcDbLine
 62
7
  6
CONTINUOUS
 10
111.1113776634
 20
-78.0174408784
 11
111.1113776634
 21
-0.4174408784
  0
INSERT
  5
231
100
AcDbEntity
  8
0
100
AcDbBlockReference
 62
7
  6
CONTINUOUS
  2
_FILLED
 10
111.1113776634
 20
77.1825591216
 41
3.0
 42
3.0
 43
3.0
 50
90.0
  0
INSERT
  5
232
100
AcDbEntity
  8
0
100
AcDbBlockReference
 62
7
  6
CONTINUOUS
  2
_FILLED
 10
111.1113776634
 20
-78.0174408784
 41
3.0
 42
3.0
 43
3.0
 50
270.0
  0
ENDBLK
  5
233
100
AcDbEntity
  8
0
  6
BYBLOCK
 62
0
100
AcDbBlockEnd
  0
BLOCK
  5
234
100
AcDbEntity
  8
0
100
AcDbBlockBegin
 62
7
  6
CONTINUOUS
  2
*D2
 70
65
 10
0.0
 20
0.0
  3
*D2
  1

  0
MTEXT
  5
235
100
AcDbEntity
  8
0
100
AcDbMText
 62
7
  6
CONTINUOUS
  7
STANDARD
 71
2
 72
1
 10
-91.0469401817
 20
88.9325591213
 30
0.0
 11
1.0
 21
0.0
 31
0.0
 44
0.9
  1
10,5
 40
3.0
 41
7.9285714286
  0
LINE
  5
236
100
AcDbEntity
  8
0
100
AcDbLine
 62
7
  6
CONTINUOUS
 10
-85.8219401817
 20
75.8825591216
 11
-85.8219401817
 21
86.6825591213
  0
LINE
  5
237
100
AcDbEntity
  8
0
100
AcDbLine
 62
7
  6
CONTINUOUS
 10
-96.2719401817
 20
61.1878108646
 11
-96.2719401817
 21
86.6825591213
  0
LINE
  5
238
100
AcDbEntity
  8
0
100
AcDbLine
 62
7
  6
CONTINUOUS
 10
-85.8219401817
 20
85.1825591213
 11
-81.8219401817
 21
85.1825591213
  0
LINE
  5
239
100
AcDbEntity
  8
0
100
AcDbLine
 62
7
  6
CONTINUOUS
 10
-81.8219401817
 20
85.1825591213
 11
-91.0469401817
 21
85.1825591213
  0
LINE
  5
23A
100
AcDbEntity
  8
0
100
AcDbLine
 62
7
  6
CONTINUOUS
 10
-96.2719401817
 20
85.1825591213
 11
-100.2719401817
 21
85.1825591213
  0
LINE
  5
23B
100
AcDbEntity
  8
0
100
AcDbLine
 62
7
  6
CONTINUOUS
 10
-100.2719401817
 20
85.1825591213
 11
-91.0469401817
 21
85.1825591213
  0
INSERT
  5
23C
100
AcDbEntity
  8
0
100
AcDbBlockReference
 62
7
  6
CONTINUOUS
  2
_FILLED
 10
-85.8219401817
 20
85.1825591213
 41
3.0
 42
3.0
 43
3.0
 50
180.0
  0
INSERT
  5
23D
100
AcDbEntity
  8
0
100
AcDbBlockReference
 62
7
  6
CONTINUOUS
  2
_FILLED
 10
-96.2719401817
 20
85.1825591213
 41
3.0
 42
3.0
 43
3.0
  0
ENDBLK
  5
23E
100
AcDbEntity
  8
0
  6
BYBLOCK
 62
0
100
AcDbBlockEnd
  0
ENDSEC
  0
SECTION
  2
ENTITIES
  0
DIMENSION
  5
23F
100
AcDbEntity
  8
0
100
AcDbDimension
 62
7
  6
CONTINUOUS
  2
*D0
 10
-52.0886223363
 20
85.1825591213
 11
20.475663378
 21
87.4325591213
 70
160
 71
2
 42
155.2
  3
DIMSTYLE_1
100
AcDbAlignedDimension
 13
103.1113776637
 23
76.6825591216
 14
-52.0886223363
 24
76.6825591216
 50
180.0
100
AcDbRotatedDimension
  0
DIMENSION
  5
240
100
AcDbEntity
  8
0
100
AcDbDimension
 62
7
  6
CONTINUOUS
  2
*D1
 10
111.1113776634
 20
-78.0174408784
 11
111.1177483732
 21
-4.9193526487
 70
160
 71
2
 42
155.2
  3
DIMSTYLE_1
100
AcDbAlignedDimension
 13
102.6113776637
 23
77.1825591216
 14
102.6113776637
 24
-78.0174408784
 50
270.0
100
AcDbRotatedDimension
  0
DIMENSION
  5
241
100
AcDbEntity
  8
0
100
AcDbDimension
 62
7
  6
CONTINUOUS
  2
*D2
 10
-96.2719401817
 20
85.1825591213
 11
-95.011225896
 21
87.4325591213
 70
160
 71
2
 42
10.45
  3
DIMSTYLE_2
100
AcDbAlignedDimension
 13
-85.8219401817
 23
75.8825591216
 14
-96.2719401817
 24
61.1878108646
 50
180.0
100
AcDbRotatedDimension
  0
LINE
  5
242
100
AcDbEntity
  8
SMUSSO
100
AcDbLine
 62
7
  6
CONTINUOUS
 10
-52.0886223363
 20
76.1825591216
 11
-52.0886223363
 21
-77.0174408784
  0
LINE
  5
243
100
AcDbEntity
  8
SMUSSO
100
AcDbLine
 62
7
  6
CONTINUOUS
 10
-51.0886223363
 20
76.1825591216
 11
-51.0886223363
 21
-77.0174408784
  0
LINE
  5
244
100
AcDbEntity
  8
SMUSSO
100
AcDbLine
 62
253
  6
CONTINUOUS
 10
-51.0886223363
 20
-77.0174408784
 11
-51.0886223363
 21
-78.0174408784
  0
LINE
  5
245
100
AcDbEntity
  8
SMUSSO
100
AcDbLine
 62
253
  6
CONTINUOUS
 10
-51.0886223363
 20
76.1825591216
 11
-51.0886223363
 21
77.1825591216
  0
LINE
  5
246
100
AcDbEntity
  8
SMUSSO
100
AcDbLine
 62
7
  6
CONTINUOUS
 10
-51.0886223363
 20
-78.0174408784
 11
102.1113776637
 21
-78.0174408784
  0
LINE
  5
247
100
AcDbEntity
  8
SMUSSO
100
AcDbLine
 62
7
  6
CONTINUOUS
 10
-51.0886223363
 20
-77.0174408784
 11
102.1113776637
 21
-77.0174408784
  0
LINE
  5
248
100
AcDbEntity
  8
SMUSSO
100
AcDbLine
 62
253
  6
CONTINUOUS
 10
-51.0886223363
 20
-77.0174408784
 11
-52.0886223363
 21
-77.0174408784
  0
LINE
  5
249
100
AcDbEntity
  8
SMUSSO
100
AcDbLine
 62
253
  6
CONTINUOUS
 10
102.1113776637
 20
-77.0174408784
 11
103.1113776637
 21
-77.0174408784
  0
LINE
  5
24A
100
AcDbEntity
  8
RACCORDO
100
AcDbLine
 62
7
  6
CONTINUOUS
 10
-22.6657843003
 20
-62.244496229
 11
73.6885396278
 21
-62.244496229
  0
LINE
  5
24B
100
AcDbEntity
  8
RACCORDO
100
AcDbLine
 62
253
  6
CONTINUOUS
 10
-22.6438646584
 20
-62.2225765871
 11
73.6666294067
 21
-62.222586008
  0
LINE
  5
24C
100
AcDbEntity
  8
RACCORDO
100
AcDbLine
 62
253
  6
CONTINUOUS
 10
-22.6438740784
 20
-61.9226316995
 11
73.6666294067
 21
-61.9226316994
  0
LINE
  5
24D
100
AcDbEntity
  8
RACCORDO
100
AcDbLine
 62
253
  6
CONTINUOUS
 10
74.3665128869
 20
-61.5226926213
 11
74.0665684849
 21
-61.5226926214
  0
LINE
  5
24E
100
AcDbEntity
  8
RACCORDO
100
AcDbLine
 62
253
  6
CONTINUOUS
 10
-23.3437674659
 20
-61.522692621
 11
-23.0438131573
 21
-61.5226926214
  0
LINE
  5
24F
100
AcDbEntity
  8
RACCORDO
100
AcDbLine
 62
253
  6
CONTINUOUS
 10
-20.0431125142
 20
-59.5014865521
 11
71.0658678416
 21
-59.5014865521
  0
LINE
  5
250
100
AcDbEntity
  8
RACCORDO
100
AcDbLine
 62
253
  6
CONTINUOUS
 10
-20.0431125142
 20
-59.2117088042
 11
71.0658678416
 21
-59.2117088042
  0
LINE
  5
251
100
AcDbEntity
  8
RACCORDO
100
AcDbLine
 62
253
  6
CONTINUOUS
 10
71.6454233374
 20
-58.9219310563
 11
71.3556455876
 21
-58.9219310563
  0
LINE
  5
252
100
AcDbEntity
  8
RACCORDO
100
AcDbLine
 62
253
  6
CONTINUOUS
 10
-20.332890271
 20
-58.9219310563
 11
-20.62266801
 21
-58.9219310563
  0
LINE
  5
253
100
AcDbEntity
  8
RACCORDO
100
AcDbLine
 62
253
  6
CONTINUOUS
 10
-19.2875965847
 20
-58.4833303698
 11
70.3103519121
 21
-58.4833303698
  0
LINE
  5
254
100
AcDbEntity
  8
RACCORDO
100
AcDbLine
 62
253
  6
CONTINUOUS
 10
-19.2875965847
 20
-58.4663694353
 11
70.3103519121
 21
-58.4663694353
  0
LINE
  5
255
100
AcDbEntity
  8
RACCORDO
100
AcDbLine
 62
7
  6
CONTINUOUS
 10
70.3018230695
 20
-58.4578405927
 11
-19.279067742
 21
-58.4578405927
  0
LINE
  5
256
100
AcDbEntity
  8
RACCORDO
100
AcDbLine
 62
253
  6
CONTINUOUS
 10
-19.5875508932
 20
-58.1664151268
 11
-19.6045118277
 21
-58.1664151264
  0
LINE
  5
257
100
AcDbEntity
  8
RACCORDO
100
AcDbLine
 62
253
  6
CONTINUOUS
 10
70.6103062207
 20
-58.1664151268
 11
70.6272671551
 21
-58.1664151268
  0
LINE
  5
258
100
AcDbEntity
  8
RACCORDO
100
AcDbLine
 62
7
  6
CONTINUOUS
 10
-23.3656776869
 20
60.7097210857
 11
-23.3656776869
 21
-61.5446028424
  0
LINE
  5
259
100
AcDbEntity
  8
RACCORDO
100
AcDbLine
 62
253
  6
CONTINUOUS
 10
-23.343758045
 20
60.6878014438
 11
-23.3437674659
 21
-61.5226926214
  0
LINE
  5
25A
100
AcDbEntity
  8
RACCORDO
100
AcDbLine
 62
253
  6
CONTINUOUS
 10
-23.0438131573
 20
60.6923177463
 11
-23.0438131573
 21
-61.5226926214
  0
LINE
  5
25B
100
AcDbEntity
  8
RACCORDO
100
AcDbLine
 62
253
  6
CONTINUOUS
 10
-22.6438740789
 20
61.3877042512
 11
-22.6438740793
 21
61.0877499427
  0
LINE
  5
25C
100
AcDbEntity
  8
RACCORDO
100
AcDbLine
 62
253
  6
CONTINUOUS
 10
-22.6438740792
 20
-62.2225761016
 11
-22.6438740793
 21
-61.9226316995
  0
LINE
  5
25D
100
AcDbEntity
  8
RACCORDO
100
AcDbLine
 62
253
  6
CONTINUOUS
 10
-20.62266801
 20
-58.9219310563
 11
-20.62266801
 21
58.0870492995
  0
LINE
  5
25E
100
AcDbEntity
  8
RACCORDO
100
AcDbLine
 62
253
  6
CONTINUOUS
 10
-20.3328902621
 20
-58.9219310563
 11
-20.3328902621
 21
58.0870492995
  0
LINE
  5
25F
100
AcDbEntity
  8
RACCORDO
100
AcDbLine
 62
253
  6
CONTINUOUS
 10
-20.0431125142
 20
-59.5014865521
 11
-20.0431125142
 21
-59.2117088023
  0
LINE
  5
260
100
AcDbEntity
  8
RACCORDO
100
AcDbLine
 62
253
  6
CONTINUOUS
 10
-20.0431125142
 20
58.3768270453
 11
-20.0431125142
 21
58.6666047953
  0
LINE
  5
261
100
AcDbEntity
  8
RACCORDO
100
AcDbLine
 62
253
  6
CONTINUOUS
 10
-19.6045118277
 20
57.33153337
 11
-19.6045118277
 21
-58.1664151268
  0
LINE
  5
262
100
AcDbEntity
  8
RACCORDO
100
AcDbLine
 62
253
  6
CONTINUOUS
 10
-19.5875508932
 20
57.33153337
 11
-19.5875508932
 21
-58.1664151268
  0
LINE
  5
263
100
AcDbEntity
  8
RACCORDO
100
AcDbLine
 62
7
  6
CONTINUOUS
 10
-19.5790220506
 20
-58.1578862841
 11
-19.5790220506
 21
57.3230045274
  0
LINE
  5
264
100
AcDbEntity
  8
RACCORDO
100
AcDbLine
 62
253
  6
CONTINUOUS
 10
-19.2875965847
 20
-58.4663694353
 11
-19.2875965847
 21
-58.4833303698
  0
LINE
  5
265
100
AcDbEntity
  8
RACCORDO
100
AcDbLine
 62
253
  6
CONTINUOUS
 10
-19.2875965847
 20
57.6314876786
 11
-19.2875965847
 21
57.648448613
  0
LINE
  5
266
100
AcDbEntity
  8
RACCORDO
100
AcDbLine
 62
253
  6
CONTINUOUS
 10
73.6666199859
 20
61.3876948304
 11
73.6885396278
 21
61.4096144723
  0
LINE
  5
267
100
AcDbEntity
  8
RACCORDO
100
AcDbLine
 62
253
  6
CONTINUOUS
 10
70.3103519121
 20
57.6314876786
 11
70.3018230695
 21
57.6229588359
  0
LINE
  5
268
100
AcDbEntity
  8
RACCORDO
100
AcDbLine
 62
253
  6
CONTINUOUS
 10
71.0658678416
 20
58.3768270474
 11
70.3370421524
 21
57.6479714559
  0
LINE
  5
269
100
AcDbEntity
  8
RACCORDO
100
AcDbLine
 62
253
  6
CONTINUOUS
 10
71.3556455895
 20
58.0870492995
 11
70.6267905021
 21
57.3582045347
  0
LINE
  5
26A
100
AcDbEntity
  8
RACCORDO
100
AcDbLine
 62
253
  6
CONTINUOUS
 10
70.6103062207
 20
57.33153337
 11
70.601777378
 21
57.3230045274
  0
LINE
  5
26B
100
AcDbEntity
  8
RACCORDO
100
AcDbLine
 62
253
  6
CONTINUOUS
 10
74.3665227933
 20
60.6878108646
 11
74.3884330144
 21
60.7097210857
  0
LINE
  5
26C
100
AcDbEntity
  8
RACCORDO
100
AcDbLine
 62
253
  6
CONTINUOUS
 10
73.6666294067
 20
-62.222586008
 11
73.6885396278
 21
-62.244496229
  0
LINE
  5
26D
100
AcDbEntity
  8
RACCORDO
100
AcDbLine
 62
253
  6
CONTINUOUS
 10
70.3103519121
 20
-58.4663694353
 11
70.3018230695
 21
-58.4578405927
  0
LINE
  5
26E
100
AcDbEntity
  8
RACCORDO
100
AcDbLine
 62
253
  6
CONTINUOUS
 10
71.0658678416
 20
-59.2117088042
 11
70.3370230768
 21
-58.4828537168
  0
LINE
  5
26F
100
AcDbEntity
  8
RACCORDO
100
AcDbLine
 62
253
  6
CONTINUOUS
 10
71.3556455895
 20
-58.9219310563
 11
70.626789998
 21
-58.1931053671
  0
LINE
  5
270
100
AcDbEntity
  8
RACCORDO
100
AcDbLine
 62
253
  6
CONTINUOUS
 10
70.6103062207
 20
-58.1664151268
 11
70.601777378
 21
-58.1578862841
  0
LINE
  5
271
100
AcDbEntity
  8
RACCORDO
100
AcDbLine
 62
253
  6
CONTINUOUS
 10
74.3665133725
 20
-61.5226832005
 11
74.3884330144
 21
-61.5446028424
  0
LINE
  5
272
100
AcDbEntity
  8
RACCORDO
100
AcDbLine
 62
253
  6
CONTINUOUS
 10
-23.3437674659
 20
-61.5226926214
 11
-23.3656776869
 21
-61.5446028424
  0
LINE
  5
273
100
AcDbEntity
  8
RACCORDO
100
AcDbLine
 62
253
  6
CONTINUOUS
 10
-19.5875508932
 20
-58.1664151268
 11
-19.5790220506
 21
-58.1578862841
  0
LINE
  5
274
100
AcDbEntity
  8
RACCORDO
100
AcDbLine
 62
253
  6
CONTINUOUS
 10
-20.3328902621
 20
-58.9219310563
 11
-19.6040351747
 21
-58.1930862914
  0
LINE
  5
275
100
AcDbEntity
  8
RACCORDO
100
AcDbLine
 62
253
  6
CONTINUOUS
 10
-20.0431125142
 20
-59.2117088042
 11
-19.314286825
 21
-58.4828532126
  0
LINE
  5
276
100
AcDbEntity
  8
RACCORDO
100
AcDbLine
 62
253
  6
CONTINUOUS
 10
-19.2875965847
 20
-58.4663694353
 11
-19.279067742
 21
-58.4578405927
  0
LINE
  5
277
100
AcDbEntity
  8
RACCORDO
100
AcDbLine
 62
253
  6
CONTINUOUS
 10
-22.6438646584
 20
-62.2225765871
 11
-22.6657843003
 21
-62.244496229
  0
LINE
  5
278
100
AcDbEntity
  8
RACCORDO
100
AcDbLine
 62
253
  6
CONTINUOUS
 10
-23.343758045
 20
60.6878014438
 11
-23.3656776869
 21
60.7097210857
  0
LINE
  5
279
100
AcDbEntity
  8
RACCORDO
100
AcDbLine
 62
253
  6
CONTINUOUS
 10
-19.5790220506
 20
57.3230045274
 11
-19.5875508932
 21
57.33153337
  0
LINE
  5
27A
100
AcDbEntity
  8
RACCORDO
100
AcDbLine
 62
253
  6
CONTINUOUS
 10
-19.6040351693
 20
57.3582046138
 11
-20.3328902621
 21
58.0870492995
  0
LINE
  5
27B
100
AcDbEntity
  8
RACCORDO
100
AcDbLine
 62
253
  6
CONTINUOUS
 10
-19.3143158243
 20
57.6479706846
 11
-20.0431125142
 21
58.3768270474
  0
LINE
  5
27C
100
AcDbEntity
  8
RACCORDO
100
AcDbLine
 62
253
  6
CONTINUOUS
 10
-19.279067742
 20
57.6229588359
 11
-19.2875965847
 21
57.6314876786
  0
LINE
  5
27D
100
AcDbEntity
  8
RACCORDO
100
AcDbLine
 62
253
  6
CONTINUOUS
 10
-22.6438740793
 20
61.3877042512
 11
-22.6657843003
 21
61.4096144723
  0
LINE
  5
27E
100
AcDbEntity
  8
RACCORDO
100
AcDbLine
 62
253
  6
CONTINUOUS
 10
70.3103519121
 20
-58.4663694353
 11
70.3103519118
 21
-58.4833303698
  0
LINE
  5
27F
100
AcDbEntity
  8
RACCORDO
100
AcDbLine
 62
253
  6
CONTINUOUS
 10
70.3103519121
 20
57.6314876786
 11
70.3103519121
 21
57.648448613
  0
LINE
  5
280
100
AcDbEntity
  8
RACCORDO
100
AcDbLine
 62
7
  6
CONTINUOUS
 10
70.601777378
 20
57.3230045274
 11
70.601777378
 21
-58.1578862841
  0
LINE
  5
281
100
AcDbEntity
  8
RACCORDO
100
AcDbLine
 62
253
  6
CONTINUOUS
 10
70.6103062207
 20
-58.1664151268
 11
70.6103062207
 21
57.33153337
  0
LINE
  5
282
100
AcDbEntity
  8
RACCORDO
100
AcDbLine
 62
253
  6
CONTINUOUS
 10
70.6272671551
 20
-58.1664151268
 11
70.6272671551
 21
57.33153337
  0
LINE
  5
283
100
AcDbEntity
  8
RACCORDO
100
AcDbLine
 62
253
  6
CONTINUOUS
 10
71.0658678416
 20
58.6666047953
 11
71.0658678416
 21
58.3768270455
  0
LINE
  5
284
100
AcDbEntity
  8
RACCORDO
100
AcDbLine
 62
253
  6
CONTINUOUS
 10
71.0658678416
 20
-59.2117088131
 11
71.0658678416
 21
-59.5014865521
  0
LINE
  5
285
100
AcDbEntity
  8
RACCORDO
100
AcDbLine
 62
253
  6
CONTINUOUS
 10
71.3556455895
 20
58.0870492995
 11
71.3556455895
 21
-58.9219310563
  0
LINE
  5
286
100
AcDbEntity
  8
RACCORDO
100
AcDbLine
 62
253
  6
CONTINUOUS
 10
71.6454233374
 20
58.0870492995
 11
71.6454233374
 21
-58.9219310563
  0
LINE
  5
287
100
AcDbEntity
  8
RACCORDO
100
AcDbLine
 62
253
  6
CONTINUOUS
 10
73.6666294066
 20
61.3876943448
 11
73.6666294067
 21
61.0877499427
  0
LINE
  5
288
100
AcDbEntity
  8
RACCORDO
100
AcDbLine
 62
253
  6
CONTINUOUS
 10
73.6666294063
 20
-62.222586008
 11
73.6666294067
 21
-61.9226316994
  0
LINE
  5
289
100
AcDbEntity
  8
RACCORDO
100
AcDbLine
 62
253
  6
CONTINUOUS
 10
74.0665684849
 20
-61.5226926205
 11
74.0665684848
 21
60.6878108646
  0
LINE
  5
28A
100
AcDbEntity
  8
RACCORDO
100
AcDbLine
 62
253
  6
CONTINUOUS
 10
74.3665133725
 20
-61.5226832005
 11
74.3665227933
 21
60.6878108646
  0
LINE
  5
28B
100
AcDbEntity
  8
RACCORDO
100
AcDbLine
 62
7
  6
CONTINUOUS
 10
74.3884330144
 20
-61.5446028424
 11
74.3884330144
 21
60.7097210857
  0
LINE
  5
28C
100
AcDbEntity
  8
RACCORDO
100
AcDbLine
 62
253
  6
CONTINUOUS
 10
-19.5875508932
 20
57.33153337
 11
-19.6045118277
 21
57.33153337
  0
LINE
  5
28D
100
AcDbEntity
  8
RACCORDO
100
AcDbLine
 62
253
  6
CONTINUOUS
 10
70.6103062207
 20
57.33153337
 11
70.6272671551
 21
57.3315333697
  0
LINE
  5
28E
100
AcDbEntity
  8
RACCORDO
100
AcDbLine
 62
7
  6
CONTINUOUS
 10
-19.279067742
 20
57.6229588359
 11
70.3018230695
 21
57.6229588359
  0
LINE
  5
28F
100
AcDbEntity
  8
RACCORDO
100
AcDbLine
 62
253
  6
CONTINUOUS
 10
70.3103519121
 20
57.6314876786
 11
-19.2875965847
 21
57.6314876786
  0
LINE
  5
290
100
AcDbEntity
  8
RACCORDO
100
AcDbLine
 62
253
  6
CONTINUOUS
 10
70.3103519121
 20
57.648448613
 11
-19.2875965847
 21
57.648448613
  0
LINE
  5
291
100
AcDbEntity
  8
RACCORDO
100
AcDbLine
 62
253
  6
CONTINUOUS
 10
-20.62266801
 20
58.0870492995
 11
-20.3328902711
 21
58.0870492995
  0
LINE
  5
292
100
AcDbEntity
  8
RACCORDO
100
AcDbLine
 62
253
  6
CONTINUOUS
 10
71.3556455984
 20
58.0870492995
 11
71.6454233374
 21
58.0870492995
  0
LINE
  5
293
100
AcDbEntity
  8
RACCORDO
100
AcDbLine
 62
253
  6
CONTINUOUS
 10
71.0658678416
 20
58.3768270474
 11
-20.0431125142
 21
58.3768270474
  0
LINE
  5
294
100
AcDbEntity
  8
RACCORDO
100
AcDbLine
 62
253
  6
CONTINUOUS
 10
71.0658678416
 20
58.6666047953
 11
-20.0431125142
 21
58.6666047953
  0
LINE
  5
295
100
AcDbEntity
  8
RACCORDO
100
AcDbLine
 62
253
  6
CONTINUOUS
 10
74.3665227933
 20
60.6878108642
 11
74.0665684848
 21
60.6878108646
  0
LINE
  5
296
100
AcDbEntity
  8
RACCORDO
100
AcDbLine
 62
253
  6
CONTINUOUS
 10
-23.3437575594
 20
60.6878108645
 11
-23.0438131573
 21
60.6878108646
  0
LINE
  5
297
100
AcDbEntity
  8
RACCORDO
100
AcDbLine
 62
253
  6
CONTINUOUS
 10
73.6711362957
 20
61.0877499427
 11
-22.6438740793
 21
61.0877499427
  0
LINE
  5
298
100
AcDbEntity
  8
RACCORDO
100
AcDbLine
 62
253
  6
CONTINUOUS
 10
73.6666199859
 20
61.3876948304
 11
-22.6438740793
 21
61.3877042512
  0
LINE
  5
299
100
AcDbEntity
  8
RACCORDO
100
AcDbLine
 62
7
  6
CONTINUOUS
 10
73.6885396278
 20
61.4096144723
 11
-22.6657843003
 21
61.4096144723
  0
LINE
  5
29A
100
AcDbEntity
  8
SMUSSO
100
AcDbLine
 62
253
  6
CONTINUOUS
 10
102.1113776637
 20
-77.0174408784
 11
102.1113776637
 21
-78.0174408784
  0
LINE
  5
29B
100
AcDbEntity
  8
SMUSSO
100
AcDbLine
 62
7
  6
CONTINUOUS
 10
102.1113776637
 20
-77.0174408784
 11
102.1113776637
 21
76.1825591216
  0
LINE
  5
29C
100
AcDbEntity
  8
SMUSSO
100
AcDbLine
 62
253
  6
CONTINUOUS
 10
102.1113776637
 20
76.1825591216
 11
102.1113776637
 21
77.1825591216
  0
LINE
  5
29D
100
AcDbEntity
  8
SMUSSO
100
AcDbLine
 62
7
  6
CONTINUOUS
 10
103.1113776637
 20
-77.0174408784
 11
103.1113776637
 21
76.1825591216
  0
LINE
  5
29E
100
AcDbEntity
  8
SMUSSO
100
AcDbLine
 62
7
  6
CONTINUOUS
 10
102.1113776637
 20
76.1825591216
 11
-51.0886223363
 21
76.1825591216
  0
LINE
  5
29F
100
AcDbEntity
  8
SMUSSO
100
AcDbLine
 62
253
  6
CONTINUOUS
 10
-51.0886223363
 20
76.1825591216
 11
-52.0886223363
 21
76.1825591216
  0
LINE
  5
2A0
100
AcDbEntity
  8
SMUSSO
100
AcDbLine
 62
253
  6
CONTINUOUS
 10
102.1113776637
 20
76.1825591216
 11
103.1113776637
 21
76.1825591216
  0
LINE
  5
2A1
100
AcDbEntity
  8
SMUSSO
100
AcDbLine
 62
7
  6
CONTINUOUS
 10
102.1113776637
 20
77.1825591216
 11
-51.0886223363
 21
77.1825591216
  0
LINE
  5
2A2
100
AcDbEntity
  8
SMUSSO
100
AcDbLine
 62
7
  6
CONTINUOUS
 10
-93.7219401817
 20
-78.0174408784
 11
-91.2219401817
 21
-78.0174408784
  0
LINE
  5
2A3
100
AcDbEntity
  8
RACCORDO
100
AcDbLine
 62
7
  6
CONTINUOUS
 10
-90.0488566865
 20
-77.7680968672
 11
-87.2219401817
 21
-77.8174408784
  0
LINE
  5
2A4
100
AcDbEntity
  8
SMUSSO
100
AcDbLine
 62
253
  6
CONTINUOUS
 10
-90.7219401817
 20
-77.0174408784
 11
-94.7219401817
 21
-77.0174408784
  0
LINE
  5
2A5
100
AcDbEntity
  8
RACCORDO
100
AcDbLine
 62
253
  6
CONTINUOUS
 10
-90.6219401817
 20
-76.2668973309
 11
-90.5645902719
 21
-76.2668973309
  0
LINE
  5
2A6
100
AcDbEntity
  8
RACCORDO
100
AcDbLine
 62
7
  6
CONTINUOUS
 10
-90.5645902719
 20
-76.2668973267
 11
-90.1880162957
 21
-76.2668972929
  0
LINE
  5
2A7
100
AcDbEntity
  8
SMUSSO
100
AcDbLine
 62
253
  6
CONTINUOUS
 10
-85.8219401817
 20
-76.2174408784
 11
-87.2219401817
 21
-76.2174408784
  0
LINE
  5
2A8
100
AcDbEntity
  8
RACCORDO
100
AcDbLine
 62
7
  6
CONTINUOUS
 10
-90.6219401817
 20
-74.4174408784
 11
-90.6719401817
 21
-74.4174408784
  0
LINE
  5
2A9
100
AcDbEntity
  8
RACCORDO
100
AcDbLine
 62
253
  6
CONTINUOUS
 10
-90.0488566865
 20
-76.2683253245
 11
-87.2219401817
 21
-76.3176693356
  0
LINE
  5
2AA
100
AcDbEntity
  8
SMUSSO
100
AcDbLine
 62
7
  6
CONTINUOUS
 10
-90.6219401817
 20
73.9352440377
 11
-90.6719401817
 21
73.9063765242
  0
LINE
  5
2AB
100
AcDbEntity
  8
DRAFT
100
AcDbLine
 62
7
  6
CONTINUOUS
 10
-90.6219401817
 20
-62.5148226186
 11
-90.6719401817
 21
-62.5139498654
  0
LINE
  5
2AC
100
AcDbEntity
  8
RACCORDO
100
AcDbLine
 62
7
  6
CONTINUOUS
 10
-95.9771759036
 20
-62.222586008
 11
-94.7219401817
 21
-62.244496229
  0
LINE
  5
2AD
100
AcDbEntity
  8
SMUSSO
100
AcDbLine
 62
7
  6
CONTINUOUS
 10
-90.6719401817
 20
-74.741258281
 11
-90.6219401817
 21
-74.7701257944
  0
LINE
  5
2AE
100
AcDbEntity
  8
SMUSSO
100
AcDbLine
 62
7
  6
CONTINUOUS
 10
-94.7219401817
 20
76.1825591216
 11
-93.7219401817
 21
77.1825591216
  0
LWPOLYLINE
  5
2AF
100
AcDbEntity
  8
RACCORDO
100
AcDbPolyline
 62
7
  6
CONTINUOUS
 90
3
 70
0
 10
-90.1678579384
 20
76.8913810009
 10
-90.1808907567
 20
76.8803713555
 10
-90.1880890289
 20
76.8734035024
  0
LINE
  5
2B0
100
AcDbEntity
  8
ASSI
100
AcDbLine
 62
7
  6
CONTINUOUS
 10
-90.6719401817
 20
-61.6674408784
 11
-90.7219401817
 21
-61.6674408784
  0
LINE
  5
2B1
100
AcDbEntity
  8
RACCORDO
100
AcDbLine
 62
253
  6
CONTINUOUS
 10
-95.9777156166
 20
-61.5226926213
 11
-96.2719401817
 21
-61.5226926214
  0
LINE
  5
2B2
100
AcDbEntity
  8
RACCORDO
100
AcDbLine
 62
253
  6
CONTINUOUS
 10
-95.9777156242
 20
-61.5226832005
 11
-94.7219401817
 21
-61.5446028424
  0
LINE
  5
2B3
100
AcDbEntity
  8
RACCORDO
100
AcDbLine
 62
7
  6
CONTINUOUS
 10
-90.7219401817
 20
-61.5130771121
 11
-90.6219401817
 21
-61.5148226186
  0
LINE
  5
2B4
100
AcDbEntity
  8
RACCORDO
100
AcDbLine
 62
253
  6
CONTINUOUS
 10
-90.7219401817
 20
-60.2132751084
 11
-90.6219401817
 21
-60.2150206149
  0
LINE
  5
2B5
100
AcDbEntity
  8
SMUSSO
100
AcDbLine
 62
7
  6
CONTINUOUS
 10
-94.7219401817
 20
-77.0174408784
 11
-93.7219401817
 21
-78.0174408784
  0
LINE
  5
2B6
100
AcDbEntity
  8
RACCORDO
100
AcDbLine
 62
7
  6
CONTINUOUS
 10
-90.5645902719
 20
76.4902229614
 11
-90.1880162957
 21
76.8734274237
  0
LINE
  5
2B7
100
AcDbEntity
  8
SMUSSO
100
AcDbLine
 62
7
  6
CONTINUOUS
 10
-90.1880897535
 20
76.8734032431
 11
-90.5645930994
 21
76.4902422803
  0
LINE
  5
2B8
100
AcDbEntity
  8
DRAFT
100
AcDbLine
 62
7
  6
CONTINUOUS
 10
-90.6219401817
 20
-55.4148226186
 11
-90.6719401817
 21
-55.4139498654
  0
LINE
  5
2B9
100
AcDbEntity
  8
SMUSSO
100
AcDbLine
 62
7
  6
CONTINUOUS
 10
-90.6219401817
 20
-54.3921310342
 11
-90.6719401817
 21
-54.391258281
  0
LWPOLYLINE
  5
2BA
100
AcDbEntity
  8
RACCORDO
100
AcDbPolyline
 62
7
  6
CONTINUOUS
 90
11
 70
0
 10
-90.1880865079
 20
-77.7082869945
 10
-90.1808399737
 20
-77.7152992436
 10
-90.1678006926
 20
-77.7263067592
 10
-90.1538197823
 20
-77.7361959496
 10
-90.1389876819
 20
-77.7448831787
 10
-90.1234229316
 20
-77.7522826794
 10
-90.1072436327
 20
-77.758326502
 10
-90.0905591681
 20
-77.7629623774
 10
-90.0734863652
 20
-77.7661449596
 10
-90.0561494853
 20
-77.7678374822
 10
-90.0488917439
 20
-77.7680960204
  0
LINE
  5
2BB
100
AcDbEntity
  8
RACCORDO
100
AcDbLine
 62
7
  6
CONTINUOUS
 10
-90.5645902719
 20
-77.3251047182
 11
-90.1880162957
 21
-77.7083091804
  0
LINE
  5
2BC
100
AcDbEntity
  8
SMUSSO
100
AcDbLine
 62
7
  6
CONTINUOUS
 10
-90.5645927482
 20
-77.3251242693
 11
-90.1880869499
 21
-77.7082866899
  0
LINE
  5
2BD
100
AcDbEntity
  8
SMUSSO
100
AcDbLine
 62
7
  6
CONTINUOUS
 10
-90.6719401817
 20
-46.4436234758
 11
-90.6219401817
 21
-46.4427507225
  0
LINE
  5
2BE
100
AcDbEntity
  8
DRAFT
100
AcDbLine
 62
7
  6
CONTINUOUS
 10
-90.6219401817
 20
-45.4200591381
 11
-90.6719401817
 21
-45.4209318914
  0
LINE
  5
2BF
100
AcDbEntity
  8
RACCORDO
100
AcDbLine
 62
7
  6
CONTINUOUS
 10
-90.6219401817
 20
-44.6113316057
 11
-90.7219401817
 21
-44.6130771121
  0
LINE
  5
2C0
100
AcDbEntity
  8
RACCORDO
100
AcDbLine
 62
7
  6
CONTINUOUS
 10
-90.6219401817
 20
-43.9235501511
 11
-90.7219401817
 21
-43.9218046446
  0
LINE
  5
2C1
100
AcDbEntity
  8
RACCORDO
100
AcDbLine
 62
7
  6
CONTINUOUS
 10
-90.6219401817
 20
-36.9113316057
 11
-90.7219401817
 21
-36.9130771121
  0
LINE
  5
2C2
100
AcDbEntity
  8
RACCORDO
100
AcDbLine
 62
7
  6
CONTINUOUS
 10
-90.6219401817
 20
-36.2235501511
 11
-90.7219401817
 21
-36.2218046446
  0
LINE
  5
2C3
100
AcDbEntity
  8
DRAFT
100
AcDbLine
 62
7
  6
CONTINUOUS
 10
-90.6219401817
 20
-35.4148226186
 11
-90.6719401817
 21
-35.4139498654
  0
LINE
  5
2C4
100
AcDbEntity
  8
DRAFT
100
AcDbLine
 62
7
  6
CONTINUOUS
 10
-90.6219401817
 20
-25.4200591381
 11
-90.6719401817
 21
-25.4209318914
  0
LINE
  5
2C5
100
AcDbEntity
  8
RACCORDO
100
AcDbLine
 62
7
  6
CONTINUOUS
 10
-90.6219401817
 20
-24.6113316057
 11
-90.7219401817
 21
-24.6130771121
  0
LINE
  5
2C6
100
AcDbEntity
  8
RACCORDO
100
AcDbLine
 62
7
  6
CONTINUOUS
 10
-90.6219401817
 20
-23.9235501511
 11
-90.7219401817
 21
-23.9218046446
  0
LINE
  5
2C7
100
AcDbEntity
  8
RACCORDO
100
AcDbLine
 62
7
  6
CONTINUOUS
 10
-90.6219401817
 20
-16.9113316057
 11
-90.7219401817
 21
-16.9130771121
  0
LINE
  5
2C8
100
AcDbEntity
  8
RACCORDO
100
AcDbLine
 62
7
  6
CONTINUOUS
 10
-90.6219401817
 20
-16.2235501511
 11
-90.7219401817
 21
-16.2218046446
  0
LINE
  5
2C9
100
AcDbEntity
  8
DRAFT
100
AcDbLine
 62
7
  6
CONTINUOUS
 10
-90.6219401817
 20
-15.4148226186
 11
-90.6719401817
 21
-15.4139498654
  0
LINE
  5
2CA
100
AcDbEntity
  8
RACCORDO
100
AcDbLine
 62
7
  6
CONTINUOUS
 10
-96.2719401817
 20
-61.9226316994
 11
-96.2719401817
 21
61.0877499427
  0
LINE
  5
2CB
100
AcDbEntity
  8
RACCORDO
100
AcDbLine
 62
253
  6
CONTINUOUS
 10
-95.9777156242
 20
-61.5226832005
 11
-95.9771759036
 21
60.6878108646
  0
LINE
  5
2CC
100
AcDbEntity
  8
DRAFT
100
AcDbLine
 62
7
  6
CONTINUOUS
 10
-90.6219401817
 20
-5.4200591381
 11
-90.6719401817
 21
-5.4209318914
  0
LINE
  5
2CD
100
AcDbEntity
  8
SMUSSO
100
AcDbLine
 62
7
  6
CONTINUOUS
 10
-94.7219401817
 20
-77.0174408784
 11
-94.7219401817
 21
76.1825591216
  0
LINE
  5
2CE
100
AcDbEntity
  8
SMUSSO
100
AcDbLine
 62
7
  6
CONTINUOUS
 10
-93.7219401817
 20
-78.0174408784
 11
-93.7219401817
 21
77.1825591216
  0
LINE
  5
2CF
100
AcDbEntity
  8
SMUSSO
100
AcDbLine
 62
7
  6
CONTINUOUS
 10
-91.2219401817
 20
77.1825591216
 11
-91.2219401817
 21
-78.0174408784
  0
LINE
  5
2D0
100
AcDbEntity
  8
SMUSSO
100
AcDbLine
 62
7
  6
CONTINUOUS
 10
-90.7219401817
 20
76.6825591216
 11
-90.7219401817
 21
-77.5174408784
  0
LINE
  5
2D1
100
AcDbEntity
  8
SMUSSO
100
AcDbLine
 62
7
  6
CONTINUOUS
 10
-90.6719401817
 20
73.9063765242
 11
-90.6719401817
 21
73.5825591216
  0
LINE
  5
2D2
100
AcDbEntity
  8
DRAFT
100
AcDbLine
 62
7
  6
CONTINUOUS
 10
-90.6719401817
 20
-62.5139498654
 11
-90.6719401817
 21
-61.5139498654
  0
LINE
  5
2D3
100
AcDbEntity
  8
DRAFT
100
AcDbLine
 62
7
  6
CONTINUOUS
 10
-90.6719401817
 20
-55.4139498654
 11
-90.6719401817
 21
-54.391258281
  0
LINE
  5
2D4
100
AcDbEntity
  8
SMUSSO
100
AcDbLine
 62
7
  6
CONTINUOUS
 10
-90.6719401817
 20
-54.391258281
 11
-90.6719401817
 21
-46.4436234758
  0
LINE
  5
2D5
100
AcDbEntity
  8
DRAFT
100
AcDbLine
 62
7
  6
CONTINUOUS
 10
-90.6719401817
 20
-46.4436234758
 11
-90.6719401817
 21
-45.4209318914
  0
LINE
  5
2D6
100
AcDbEntity
  8
DRAFT
100
AcDbLine
 62
7
  6
CONTINUOUS
 10
-90.6719401817
 20
-35.4139498654
 11
-90.6719401817
 21
-25.4209318914
  0
LINE
  5
2D7
100
AcDbEntity
  8
DRAFT
100
AcDbLine
 62
7
  6
CONTINUOUS
 10
-90.6719401817
 20
-15.4139498654
 11
-90.6719401817
 21
-5.4209318914
  0
LINE
  5
2D8
100
AcDbEntity
  8
SMUSSO
100
AcDbLine
 62
7
  6
CONTINUOUS
 10
-90.6719401817
 20
-4.391258281
 11
-90.6719401817
 21
3.5563765242
  0
LINE
  5
2D9
100
AcDbEntity
  8
DRAFT
100
AcDbLine
 62
7
  6
CONTINUOUS
 10
-90.6719401817
 20
4.5860501346
 11
-90.6719401817
 21
14.5790681086
  0
LINE
  5
2DA
100
AcDbEntity
  8
SMUSSO
100
AcDbLine
 62
7
  6
CONTINUOUS
 10
-90.6719401817
 20
-74.4174408784
 11
-90.6719401817
 21
-74.741258281
  0
LINE
  5
2DB
100
AcDbEntity
  8
DRAFT
100
AcDbLine
 62
7
  6
CONTINUOUS
 10
-90.6719401817
 20
24.5860501346
 11
-90.6719401817
 21
34.5790681086
  0
LINE
  5
2DC
100
AcDbEntity
  8
DRAFT
100
AcDbLine
 62
7
  6
CONTINUOUS
 10
-90.6719401817
 20
44.5860501346
 11
-90.6719401817
 21
45.608741719
  0
LINE
  5
2DD
100
AcDbEntity
  8
SMUSSO
100
AcDbLine
 62
7
  6
CONTINUOUS
 10
-90.6719401817
 20
45.608741719
 11
-90.6719401817
 21
53.5563765242
  0
LINE
  5
2DE
100
AcDbEntity
  8
DRAFT
100
AcDbLine
 62
7
  6
CONTINUOUS
 10
-90.6719401817
 20
53.5563765242
 11
-90.6719401817
 21
54.5790681086
  0
LINE
  5
2DF
100
AcDbEntity
  8
DRAFT
100
AcDbLine
 62
7
  6
CONTINUOUS
 10
-90.6719401817
 20
60.6790681086
 11
-90.6719401817
 21
61.6790681086
  0
LINE
  5
2E0
100
AcDbEntity
  8
RACCORDO
100
AcDbLine
 62
7
  6
CONTINUOUS
 10
-90.6219401817
 20
-77.1849228653
 11
-90.6219401817
 21
76.3500411086
  0
LINE
  5
2E1
100
AcDbEntity
  8
RACCORDO
100
AcDbLine
 62
253
  6
CONTINUOUS
 10
-90.5645902719
 20
-76.2668973267
 11
-90.5645902719
 21
75.4320155709
  0
LINE
  5
2E2
100
AcDbEntity
  8
RACCORDO
100
AcDbLine
 62
7
  6
CONTINUOUS
 10
-90.6219401817
 20
-4.6113316057
 11
-90.7219401817
 21
-4.6130771121
  0
LINE
  5
2E3
100
AcDbEntity
  8
SMUSSO
100
AcDbLine
 62
7
  6
CONTINUOUS
 10
-90.6219401817
 20
-4.3921310342
 11
-90.6719401817
 21
-4.391258281
  0
LINE
  5
2E4
100
AcDbEntity
  8
RACCORDO
100
AcDbLine
 62
7
  6
CONTINUOUS
 10
-90.6719401817
 20
-3.9226773979
 11
-90.7219401817
 21
-3.9218046446
  0
LINE
  5
2E5
100
AcDbEntity
  8
RACCORDO
100
AcDbLine
 62
253
  6
CONTINUOUS
 10
-90.1880162957
 20
75.4320155372
 11
-90.1880162957
 21
-76.2668972929
  0
LINE
  5
2E6
100
AcDbEntity
  8
RACCORDO
100
AcDbLine
 62
253
  6
CONTINUOUS
 10
-90.0488566865
 20
75.4334435677
 11
-90.0488566865
 21
-76.2683253245
  0
LINE
  5
2E7
100
AcDbEntity
  8
RACCORDO
100
AcDbLine
 62
7
  6
CONTINUOUS
 10
-87.2219401817
 20
-77.8174408784
 11
-87.2219401817
 21
76.9825591216
  0
LINE
  5
2E8
100
AcDbEntity
  8
SMUSSO
100
AcDbLine
 62
7
  6
CONTINUOUS
 10
-85.8219401817
 20
75.4825591216
 11
-85.8219401817
 21
-76.3174408784
  0
LINE
  5
2E9
100
AcDbEntity
  8
RACCORDO
100
AcDbLine
 62
7
  6
CONTINUOUS
 10
-90.6719401817
 20
3.0877956411
 11
-90.7219401817
 21
3.0869228879
  0
LINE
  5
2EA
100
AcDbEntity
  8
SMUSSO
100
AcDbLine
 62
7
  6
CONTINUOUS
 10
-90.6719401817
 20
3.5563765242
 11
-90.6219401817
 21
3.5572492775
  0
LINE
  5
2EB
100
AcDbEntity
  8
RACCORDO
100
AcDbLine
 62
7
  6
CONTINUOUS
 10
-90.6219401817
 20
3.7764498489
 11
-90.7219401817
 21
3.7781953554
  0
LINE
  5
2EC
100
AcDbEntity
  8
DRAFT
100
AcDbLine
 62
7
  6
CONTINUOUS
 10
-90.6219401817
 20
4.5851773814
 11
-90.6719401817
 21
4.5860501346
  0
LINE
  5
2ED
100
AcDbEntity
  8
DRAFT
100
AcDbLine
 62
7
  6
CONTINUOUS
 10
-90.6219401817
 20
14.5799408619
 11
-90.6719401817
 21
14.5790681086
  0
LINE
  5
2EE
100
AcDbEntity
  8
RACCORDO
100
AcDbLine
 62
7
  6
CONTINUOUS
 10
-90.6219401817
 20
15.3886683943
 11
-90.7219401817
 21
15.3869228879
  0
LINE
  5
2EF
100
AcDbEntity
  8
RACCORDO
100
AcDbLine
 62
7
  6
CONTINUOUS
 10
-90.6219401817
 20
16.0764498489
 11
-90.7219401817
 21
16.0781953554
  0
LINE
  5
2F0
100
AcDbEntity
  8
RACCORDO
100
AcDbLine
 62
7
  6
CONTINUOUS
 10
-90.6219401817
 20
23.0886683943
 11
-90.7219401817
 21
23.0869228879
  0
LINE
  5
2F1
100
AcDbEntity
  8
RACCORDO
100
AcDbLine
 62
7
  6
CONTINUOUS
 10
-90.6219401817
 20
23.7764498489
 11
-90.7219401817
 21
23.7781953554
  0
LINE
  5
2F2
100
AcDbEntity
  8
DRAFT
100
AcDbLine
 62
7
  6
CONTINUOUS
 10
-90.6219401817
 20
24.5851773814
 11
-90.6719401817
 21
24.5860501346
  0
LINE
  5
2F3
100
AcDbEntity
  8
DRAFT
100
AcDbLine
 62
7
  6
CONTINUOUS
 10
-90.6219401817
 20
34.5799408619
 11
-90.6719401817
 21
34.5790681086
  0
LINE
  5
2F4
100
AcDbEntity
  8
RACCORDO
100
AcDbLine
 62
7
  6
CONTINUOUS
 10
-90.6219401817
 20
35.3886683943
 11
-90.7219401817
 21
35.3869228879
  0
LINE
  5
2F5
100
AcDbEntity
  8
RACCORDO
100
AcDbLine
 62
7
  6
CONTINUOUS
 10
-90.6219401817
 20
36.0764498489
 11
-90.7219401817
 21
36.0781953554
  0
LINE
  5
2F6
100
AcDbEntity
  8
RACCORDO
100
AcDbLine
 62
7
  6
CONTINUOUS
 10
-90.6219401817
 20
43.0886683943
 11
-90.7219401817
 21
43.0869228879
  0
LINE
  5
2F7
100
AcDbEntity
  8
RACCORDO
100
AcDbLine
 62
7
  6
CONTINUOUS
 10
-90.6219401817
 20
43.7764498489
 11
-90.7219401817
 21
43.7781953554
  0
LINE
  5
2F8
100
AcDbEntity
  8
DRAFT
100
AcDbLine
 62
7
  6
CONTINUOUS
 10
-90.6219401817
 20
44.5851773814
 11
-90.6719401817
 21
44.5860501346
  0
LINE
  5
2F9
100
AcDbEntity
  8
SMUSSO
100
AcDbLine
 62
7
  6
CONTINUOUS
 10
-90.6219401817
 20
45.6078689658
 11
-90.6719401817
 21
45.608741719
  0
LINE
  5
2FA
100
AcDbEntity
  8
SMUSSO
100
AcDbLine
 62
7
  6
CONTINUOUS
 10
-90.7219401817
 20
-77.5174408784
 11
-91.2219401817
 21
-78.0174408784
  0
LINE
  5
2FB
100
AcDbEntity
  8
SMUSSO
100
AcDbLine
 62
7
  6
CONTINUOUS
 10
-85.8219401817
 20
-76.3174408784
 11
-87.2219401815
 21
-77.7174408782
  0
LINE
  5
2FC
100
AcDbEntity
  8
SMUSSO
100
AcDbLine
 62
7
  6
CONTINUOUS
 10
-90.6719401817
 20
53.5563765242
 11
-90.6219401817
 21
53.5572492775
  0
LINE
  5
2FD
100
AcDbEntity
  8
DRAFT
100
AcDbLine
 62
7
  6
CONTINUOUS
 10
-90.6219401817
 20
54.5799408619
 11
-90.6719401817
 21
54.5790681086
  0
LINE
  5
2FE
100
AcDbEntity
  8
SMUSSO
100
AcDbLine
 62
7
  6
CONTINUOUS
 10
-90.7219401817
 20
76.6825591216
 11
-91.2219401817
 21
77.1825591216
  0
LINE
  5
2FF
100
AcDbEntity
  8
SMUSSO
100
AcDbLine
 62
7
  6
CONTINUOUS
 10
-85.8219401817
 20
75.4825591216
 11
-87.2219401817
 21
76.8825591216
  0
LINE
  5
300
100
AcDbEntity
  8
RACCORDO
100
AcDbLine
 62
253
  6
CONTINUOUS
 10
-90.7219401817
 20
59.3783933517
 11
-90.6219401817
 21
59.3801388582
  0
LINE
  5
301
100
AcDbEntity
  8
RACCORDO
100
AcDbLine
 62
7
  6
CONTINUOUS
 10
-90.7219401817
 20
60.6781953554
 11
-90.6219401817
 21
60.6799408619
  0
LINE
  5
302
100
AcDbEntity
  8
RACCORDO
100
AcDbLine
 62
253
  6
CONTINUOUS
 10
-95.9771759036
 20
60.6878108646
 11
-94.7219401817
 21
60.7097210857
  0
LINE
  5
303
100
AcDbEntity
  8
RACCORDO
100
AcDbLine
 62
7
  6
CONTINUOUS
 10
-95.9771759036
 20
61.3877042512
 11
-94.7219401817
 21
61.4096144723
  0
LINE
  5
304
100
AcDbEntity
  8
DRAFT
100
AcDbLine
 62
7
  6
CONTINUOUS
 10
-90.6219401817
 20
61.6799408619
 11
-90.6719401817
 21
61.6790681086
  0
LINE
  5
305
100
AcDbEntity
  8
RACCORDO
100
AcDbLine
 62
253
  6
CONTINUOUS
 10
-95.9771759036
 20
60.6878108642
 11
-96.2719401817
 21
60.6878108646
  0
LINE
  5
306
100
AcDbEntity
  8
ASSI
100
AcDbLine
 62
7
  6
CONTINUOUS
 10
-90.6719401817
 20
60.8325591216
 11
-90.7219401817
 21
60.8325591216
  0
LWPOLYLINE
  5
307
100
AcDbEntity
  8
RACCORDO
100
AcDbPolyline
 62
7
  6
CONTINUOUS
 90
8
 70
0
 10
-90.056202599
 20
76.932952285
 10
-90.0735456934
 20
76.9312542538
 10
-90.0906226634
 20
76.928065436
 10
-90.1073092908
 20
76.9234230166
 10
-90.1234889212
 20
76.9173726972
 10
-90.1390525408
 20
76.9099669576
 10
-90.1538818774
 20
76.9012741959
 10
-90.1678579384
 20
76.8913810009
  0
LINE
  5
308
100
AcDbEntity
  8
RACCORDO
100
AcDbLine
 62
7
  6
CONTINUOUS
 10
-90.0488920755
 20
76.9332136676
 11
-90.056202599
 21
76.932952285
  0
LINE
  5
309
100
AcDbEntity
  8
RACCORDO
100
AcDbLine
 62
253
  6
CONTINUOUS
 10
-90.0488566865
 20
75.4334435677
 11
-87.2219401817
 21
75.4827875789
  0
LINE
  5
30A
100
AcDbEntity
  8
RACCORDO
100
AcDbLine
 62
7
  6
CONTINUOUS
 10
-90.0488917673
 20
76.9332144981
 11
-87.2219401817
 21
76.9825591216
  0
LINE
  5
30B
100
AcDbEntity
  8
RACCORDO
100
AcDbLine
 62
7
  6
CONTINUOUS
 10
-90.6719401817
 20
73.5825591216
 11
-90.6219401817
 21
73.5825591216
  0
LINE
  5
30C
100
AcDbEntity
  8
SMUSSO
100
AcDbLine
 62
253
  6
CONTINUOUS
 10
-85.8219401817
 20
75.3825591216
 11
-87.2219401817
 21
75.3825591216
  0
LINE
  5
30D
100
AcDbEntity
  8
RACCORDO
100
AcDbLine
 62
253
  6
CONTINUOUS
 10
-90.6219401817
 20
75.4320155742
 11
-90.564580875
 21
75.4320155648
  0
LINE
  5
30E
100
AcDbEntity
  8
RACCORDO
100
AcDbLine
 62
7
  6
CONTINUOUS
 10
-90.5645902719
 20
75.4320155709
 11
-90.1880162957
 21
75.4320155372
  0
LINE
  5
30F
100
AcDbEntity
  8
SMUSSO
100
AcDbLine
 62
253
  6
CONTINUOUS
 10
-90.7219401817
 20
76.1825591216
 11
-94.7219401817
 21
76.1825591216
  0
LINE
  5
310
100
AcDbEntity
  8
SMUSSO
100
AcDbLine
 62
7
  6
CONTINUOUS
 10
-93.7219401817
 20
77.1825591216
 11
-91.2219401817
 21
77.1825591216
  0
ARC
  5
311
100
AcDbEntity
  8
SMUSSO
100
AcDbCircle
 62
7
  6
CONTINUOUS
 10
102.1113776637
 20
-77.0174408784
 40
1.0
100
AcDbArc
 50
270.0
 51
360.0
  0
ARC
  5
312
100
AcDbEntity
  8
SMUSSO
100
AcDbCircle
 62
7
  6
CONTINUOUS
 10
102.1113776637
 20
76.1825591216
 40
1.0
100
AcDbArc
 50
0.0
 51
90.0
  0
ARC
  5
313
100
AcDbEntity
  8
SMUSSO
100
AcDbCircle
 62
7
  6
CONTINUOUS
 10
-51.0886223363
 20
-77.0174408784
 40
1.0
100
AcDbArc
 50
180.0
 51
270.0
  0
ARC
  5
314
100
AcDbEntity
  8
SMUSSO
100
AcDbCircle
 62
7
  6
CONTINUOUS
 10
-51.0886223363
 20
76.1825591216
 40
1.0
100
AcDbArc
 50
90.0
 51
180.0
  0
ARC
  5
315
100
AcDbEntity
  8
RACCORDO
100
AcDbCircle
 62
253
  6
CONTINUOUS
 10
-18.8500484663
 20
-58.1662715965
 40
0.754463375
100
AcDbArc
 50
180.0109000379
 51
182.0368019674
  0
ARC
  5
316
100
AcDbEntity
  8
RACCORDO
100
AcDbCircle
 62
253
  6
CONTINUOUS
 10
69.8728037937
 20
57.3313898398
 40
0.754463375
100
AcDbArc
 50
0.0109000379
 51
2.0368019674
  0
ARC
  5
317
100
AcDbEntity
  8
RACCORDO
100
AcDbCircle
 62
253
  6
CONTINUOUS
 10
70.3102083819
 20
-57.7288670084
 40
0.754463375
100
AcDbArc
 50
270.0109000378
 51
272.0368019674
  0
ARC
  5
318
100
AcDbEntity
  8
RACCORDO
100
AcDbCircle
 62
253
  6
CONTINUOUS
 10
69.8734861215
 20
-58.1662887243
 40
0.7537810442
100
AcDbArc
 50
357.9612053678
 51
359.9903919991
  0
ARC
  5
319
100
AcDbEntity
  8
RACCORDO
100
AcDbCircle
 62
253
  6
CONTINUOUS
 10
-19.2874701822
 20
-57.7295493362
 40
0.7537810442
100
AcDbArc
 50
267.9612053678
 51
269.9903919991
  0
ARC
  5
31A
100
AcDbEntity
  8
RACCORDO
100
AcDbCircle
 62
253
  6
CONTINUOUS
 10
70.3102255097
 20
56.8946675794
 40
0.7537810442
100
AcDbArc
 50
87.9612053678
 51
89.9903919991
  0
ARC
  5
31B
100
AcDbEntity
  8
RACCORDO
100
AcDbCircle
 62
253
  6
CONTINUOUS
 10
-19.2875074426
 20
56.8963383437
 40
0.7521102746
100
AcDbArc
 50
90.0067908474
 51
92.0426958852
  0
ARC
  5
31C
100
AcDbEntity
  8
RACCORDO
100
AcDbCircle
 62
253
  6
CONTINUOUS
 10
-18.8547179588
 20
57.3314732197
 40
0.7497938713
100
AcDbArc
 50
177.9568775342
 51
179.9954035863
  0
ARC
  5
31D
100
AcDbEntity
  8
RACCORDO
100
AcDbCircle
 62
253
  6
CONTINUOUS
 10
-22.6437890334
 20
60.6877258187
 40
0.6999784377
100
AcDbArc
 50
90.0069613172
 51
179.9930386828
  0
ARC
  5
31E
100
AcDbEntity
  8
RACCORDO
100
AcDbCircle
 62
253
  6
CONTINUOUS
 10
73.6665443608
 20
60.6877258187
 40
0.6999784377
100
AcDbArc
 50
0.0069613172
 51
89.9930386828
  0
ARC
  5
31F
100
AcDbEntity
  8
RACCORDO
100
AcDbCircle
 62
253
  6
CONTINUOUS
 10
73.6665443608
 20
-61.5226075755
 40
0.6999784377
100
AcDbArc
 50
270.0069613172
 51
359.9930386828
  0
ARC
  5
320
100
AcDbEntity
  8
RACCORDO
100
AcDbCircle
 62
253
  6
CONTINUOUS
 10
-22.6437890334
 20
-61.5226075755
 40
0.6999784377
100
AcDbArc
 50
180.0069613172
 51
269.9930386828
  0
ARC
  5
321
100
AcDbEntity
  8
RACCORDO
100
AcDbCircle
 62
253
  6
CONTINUOUS
 10
73.6666488223
 20
-61.5227120369
 40
0.399919154
100
AcDbArc
 50
269.9972183584
 51
0.0027817575
  0
ARC
  5
322
100
AcDbEntity
  8
RACCORDO
100
AcDbCircle
 62
253
  6
CONTINUOUS
 10
-22.6438977699
 20
-61.5227163121
 40
0.3999138953
100
AcDbArc
 50
179.9966058371
 51
270.0033942783
  0
ARC
  5
323
100
AcDbEntity
  8
RACCORDO
100
AcDbCircle
 62
253
  6
CONTINUOUS
 10
70.3583389592
 20
57.3316548228
 40
0.2519672908
100
AcDbArc
 50
359.9723823948
 51
2.243143811
  0
ARC
  5
324
100
AcDbEntity
  8
RACCORDO
100
AcDbCircle
 62
253
  6
CONTINUOUS
 10
70.3104733649
 20
-58.2144021739
 40
0.2519672908
100
AcDbArc
 50
269.9723823946
 51
272.2431438111
  0
ARC
  5
325
100
AcDbEntity
  8
RACCORDO
100
AcDbCircle
 62
253
  6
CONTINUOUS
 10
-19.3355836318
 20
-58.1665365796
 40
0.2519672908
100
AcDbArc
 50
179.9723823946
 51
182.243143811
  0
ARC
  5
326
100
AcDbEntity
  8
RACCORDO
100
AcDbCircle
 62
253
  6
CONTINUOUS
 10
70.31047337
 20
57.379520681
 40
0.2519670268
100
AcDbArc
 50
87.7568549994
 51
90.0276187947
  0
ARC
  5
327
100
AcDbEntity
  8
RACCORDO
100
AcDbCircle
 62
253
  6
CONTINUOUS
 10
70.358339223
 20
-58.1665365847
 40
0.2519670269
100
AcDbArc
 50
357.7568549998
 51
0.0276187944
  0
ARC
  5
328
100
AcDbEntity
  8
RACCORDO
100
AcDbCircle
 62
253
  6
CONTINUOUS
 10
-19.2877180426
 20
-58.2144024377
 40
0.251967027
100
AcDbArc
 50
267.7568550001
 51
270.0276187942
  0
ARC
  5
329
100
AcDbEntity
  8
RACCORDO
100
AcDbCircle
 62
253
  6
CONTINUOUS
 10
-19.3360458521
 20
57.3316637606
 40
0.2515050749
100
AcDbArc
 50
177.7547693132
 51
180.0297044812
  0
ARC
  5
32A
100
AcDbEntity
  8
RACCORDO
100
AcDbCircle
 62
253
  6
CONTINUOUS
 10
-19.2877310393
 20
57.3801928106
 40
0.2512949039
100
AcDbArc
 50
89.9693440704
 51
92.2461821353
  0
ARC
  5
32B
100
AcDbEntity
  8
RACCORDO
100
AcDbCircle
 62
7
  6
CONTINUOUS
 10
-95.9719401817
 20
-61.9226316994
 40
0.3
100
AcDbArc
 50
180.0000000167
 51
268.8969051354
  0
ARC
  5
32C
100
AcDbEntity
  8
RACCORDO
100
AcDbCircle
 62
7
  6
CONTINUOUS
 10
-95.9719401817
 20
61.0877499427
 40
0.3
100
AcDbArc
 50
91.0
 51
180.0
  0
ARC
  5
32D
100
AcDbEntity
  8
RACCORDO
100
AcDbCircle
 62
7
  6
CONTINUOUS
 10
-90.0453662052
 20
-77.5681273282
 40
0.2
100
AcDbArc
 50
224.4999997481
 51
269.0
  0
ARC
  5
32E
100
AcDbEntity
  8
RACCORDO
100
AcDbCircle
 62
7
  6
CONTINUOUS
 10
-90.4219401817
 20
76.350041109
 40
0.2
100
AcDbArc
 50
135.5000001834
 51
180.0000001308
  0
ARC
  5
32F
100
AcDbEntity
  8
RACCORDO
100
AcDbCircle
 62
7
  6
CONTINUOUS
 10
-90.4219401817
 20
-77.184944337
 40
0.2
100
AcDbArc
 50
179.9938488065
 51
224.499453158
  0
ARC
  5
330
100
AcDbEntity
  8
RACCORDO
100
AcDbCircle
 62
7
  6
CONTINUOUS
 10
-90.0453662052
 20
76.7332455715
 40
0.2
100
AcDbArc
 50
91.0
 51
135.5071291858
  0
SPLINE
  5
331
100
AcDbEntity
  8
RACCORDO
100
AcDbSpline
 62
253
  6
CONTINUOUS
 70
0
 71
3
 72
11
 73
7
 74
5
 42
0.0000001
 43
0.0000001
 44
0.0000000001
 12
-0.9071733294
 22
-0.0000394998
 32
0.0
 13
-0.0000122996
 23
-0.9071733302
 33
0.0
 40
0.0
 40
0.0
 40
0.0
 40
0.0
 40
0.2500885221
 40
0.5000001758
 40
0.7499117876
 40
1.0
 40
1.0
 40
1.0
 40
1.0
 10
-20.0431125142
 20
58.6666047953
 30
0.0
 10
-20.11873706
 20
58.6666015025
 30
0.0
 10
-20.2716878143
 20
58.6382034977
 30
0.0
 10
-20.4663106772
 20
58.510246775
 30
0.0
 10
-20.594269229
 20
58.3156252089
 30
0.0
 10
-20.6226669846
 20
58.1626737517
 30
0.0
 10
-20.62266801
 20
58.0870492995
 30
0.0
 11
-20.0431125142
 21
58.6666047953
 31
0.0
 11
-20.2659410991
 21
58.6239542484
 31
0.0
 11
-20.4552025973
 21
58.4991385662
 31
0.0
 11
-20.580019649
 21
58.3098780167
 31
0.0
 11
-20.62266801
 21
58.0870492995
 31
0.0
  0
SPLINE
  5
332
100
AcDbEntity
  8
RACCORDO
100
AcDbSpline
 62
253
  6
CONTINUOUS
 70
0
 71
3
 72
11
 73
7
 74
5
 42
0.0000001
 43
0.0000001
 44
0.0000000001
 12
0.0000126196
 22
-0.9071733301
 32
0.0
 13
0.9071733294
 23
-0.0000392266
 33
0.0
 40
0.0
 40
0.0
 40
0.0
 40
0.0
 40
0.2500882116
 40
0.4999998238
 40
0.7499114764
 40
1.0
 40
1.0
 40
1.0
 40
1.0
 10
-20.62266801
 20
-58.9219310563
 30
0.0
 10
-20.622666958
 20
-58.9975555082
 30
0.0
 10
-20.5942692443
 20
-59.1505069652
 30
0.0
 10
-20.4663106739
 20
-59.3451285333
 30
0.0
 10
-20.2716878155
 20
-59.4730852417
 30
0.0
 10
-20.1187370604
 20
-59.501483282
 30
0.0
 10
-20.0431125142
 20
-59.5014865521
 30
0.0
 11
-20.62266801
 21
-58.9219310563
 31
0.0
 11
-20.5800196508
 21
-59.1447597731
 31
0.0
 11
-20.4552025976
 21
-59.334020322
 31
0.0
 11
-20.2659411
 21
-59.4588360034
 31
0.0
 11
-20.0431125142
 21
-59.5014865521
 31
0.0
  0
SPLINE
  5
333
100
AcDbEntity
  8
RACCORDO
100
AcDbSpline
 62
253
  6
CONTINUOUS
 70
0
 71
3
 72
11
 73
7
 74
5
 42
0.0000001
 43
0.0000001
 44
0.0000000001
 12
0.9071733301
 22
0.0000126196
 32
0.0
 13
0.0000392266
 23
0.9071733294
 33
0.0
 40
0.0
 40
0.0
 40
0.0
 40
0.0
 40
0.2500882116
 40
0.4999998238
 40
0.7499114764
 40
1.0
 40
1.0
 40
1.0
 40
1.0
 10
71.0658678416
 20
-59.5014865521
 30
0.0
 10
71.1414922936
 20
-59.5014855001
 30
0.0
 10
71.2944437506
 20
-59.4730877864
 30
0.0
 10
71.4890653186
 20
-59.345129216
 30
0.0
 10
71.6170220271
 20
-59.1505063576
 30
0.0
 10
71.6454200674
 20
-58.9975556025
 30
0.0
 10
71.6454233374
 20
-58.9219310563
 30
0.0
 11
71.0658678416
 21
-59.5014865521
 31
0.0
 11
71.2886965584
 21
-59.4588381929
 31
0.0
 11
71.4779571073
 21
-59.3340211397
 31
0.0
 11
71.6027727888
 21
-59.1447596421
 31
0.0
 11
71.6454233374
 21
-58.9219310563
 31
0.0
  0
SPLINE
  5
334
100
AcDbEntity
  8
RACCORDO
100
AcDbSpline
 62
253
  6
CONTINUOUS
 70
0
 71
3
 72
11
 73
7
 74
5
 42
0.0000001
 43
0.0000001
 44
0.0000000001
 12
-0.0000126196
 22
0.9071733301
 32
0.0
 13
-0.9071733294
 23
0.0000392266
 33
0.0
 40
0.0
 40
0.0
 40
0.0
 40
0.0
 40
0.2500882116
 40
0.4999998238
 40
0.7499114764
 40
1.0
 40
1.0
 40
1.0
 40
1.0
 10
71.6454233374
 20
58.0870492995
 30
0.0
 10
71.6454222854
 20
58.1626737515
 30
0.0
 10
71.6170245718
 20
58.3156252085
 30
0.0
 10
71.4890660013
 20
58.5102467765
 30
0.0
 10
71.294443143
 20
58.638203485
 30
0.0
 10
71.1414923878
 20
58.6666015253
 30
0.0
 10
71.0658678416
 20
58.6666047953
 30
0.0
 11
71.6454233374
 21
58.0870492995
 31
0.0
 11
71.6027749783
 21
58.3098780163
 31
0.0
 11
71.4779579251
 21
58.4991385652
 31
0.0
 11
71.2886964275
 21
58.6239542467
 31
0.0
 11
71.0658678416
 21
58.6666047953
 31
0.0
  0
SPLINE
  5
335
100
AcDbEntity
  8
RACCORDO
100
AcDbSpline
 62
253
  6
CONTINUOUS
 70
0
 71
3
 72
12
 73
8
 74
6
 42
0.0000001
 43
0.0000001
 44
0.0000000001
 12
-0.0000009443
 22
0.6205214071
 32
0.0
 13
0.6205214067
 23
0.0000214267
 33
0.0
 40
0.0
 40
0.0
 40
0.0
 40
0.0
 40
0.1254466776
 40
0.2508924308
 40
0.5005955773
 40
0.7502986155
 40
1.0
 40
1.0
 40
1.0
 40
1.0
 10
-23.0438131573
 20
60.6923177463
 30
0.0
 10
-23.0438131968
 20
60.718265196
 30
0.0
 10
-23.0376687627
 20
60.7702493683
 30
0.0
 10
-23.0068403891
 20
60.8695677263
 30
0.0
 10
-22.9322198033
 20
60.9795844426
 30
0.0
 10
-22.7999453513
 20
61.0672078894
 30
0.0
 10
-22.6955224307
 20
61.0877481593
 30
0.0
 10
-22.6438740793
 20
61.0877499427
 30
0.0
 11
-23.0438131573
 21
60.6923177463
 31
0.0
 11
-23.0353421297
 21
60.7696978017
 31
0.0
 11
-23.0120664161
 21
60.8439782375
 31
0.0
 11
-22.92508392
 21
60.9722059805
 31
0.0
 11
-22.7958850168
 21
61.057739198
 31
0.0
 11
-22.6438740793
 21
61.0877499427
 31
0.0
  0
SPLINE
  5
336
100
AcDbEntity
  8
RACCORDO
100
AcDbSpline
 62
253
  6
CONTINUOUS
 70
0
 71
3
 72
12
 73
8
 74
6
 42
0.0000001
 43
0.0000001
 44
0.0000000001
 12
0.6205213999
 22
0.0000009443
 32
0.0
 13
0.0000214267
 23
-0.6205213995
 33
0.0
 40
0.0
 40
0.0
 40
0.0
 40
0.0
 40
0.1254466776
 40
0.2508924308
 40
0.5005955773
 40
0.7502986154
 40
1.0
 40
1.0
 40
1.0
 40
1.0
 10
73.6711362957
 20
61.0877499427
 30
0.0
 10
73.697083745
 20
61.0877499822
 30
0.0
 10
73.7490679166
 20
61.0816055464
 30
0.0
 10
73.848386273
 20
61.0507771722
 30
0.0
 10
73.9584029871
 20
60.9761565858
 30
0.0
 10
74.046026432
 20
60.8438821348
 30
0.0
 10
74.0665667014
 20
60.7394592155
 30
0.0
 10
74.0665684848
 20
60.6878108646
 30
0.0
 11
73.6711362957
 21
61.0877499427
 31
0.0
 11
73.74851635
 21
61.0792789138
 31
0.0
 11
73.8227967846
 21
61.0560031994
 31
0.0
 11
73.9510245252
 21
60.9690207028
 31
0.0
 11
74.0365577408
 21
60.8398218004
 31
0.0
 11
74.0665684848
 21
60.6878108646
 31
0.0
  0
SPLINE
  5
337
100
AcDbEntity
  8
RACCORDO
100
AcDbSpline
 62
253
  6
CONTINUOUS
 70
0
 71
3
 72
9
 73
5
 74
3
 42
0.0000001
 43
0.0000001
 44
0.0000000001
 12
-0.0024342484
 22
0.0240581003
 32
0.0
 13
-0.0213278312
 23
0.0113947958
 33
0.0
 40
0.0
 40
0.0
 40
0.0
 40
0.0
 40
0.3915199185
 40
1.0
 40
1.0
 40
1.0
 40
1.0
 10
-19.5873578555
 20
57.3415168845
 30
0.0
 10
-19.5876755411
 20
57.3446566264
 30
0.0
 10
-19.5927895013
 20
57.3518231412
 30
0.0
 10
-19.599709506
 20
57.3558833083
 30
0.0
 10
-19.6040353595
 20
57.358194477
 30
0.0
 11
-19.5873578555
 21
57.3415168845
 31
0.0
 11
-19.5919568203
 21
57.3497921276
 31
0.0
 11
-19.6040353595
 21
57.358194477
 31
0.0
  0
SPLINE
  5
338
100
AcDbEntity
  8
RACCORDO
100
AcDbSpline
 62
253
  6
CONTINUOUS
 70
0
 71
3
 72
9
 73
5
 74
3
 42
0.0000001
 43
0.0000001
 44
0.0000000001
 12
-0.0240582391
 22
0.0024341814
 32
0.0
 13
-0.0113946227
 23
0.0213280727
 33
0.0
 40
0.0
 40
0.0
 40
0.0
 40
0.0
 40
0.3915214139
 40
1.0
 40
1.0
 40
1.0
 40
1.0
 10
-19.2975800842
 20
57.6312941892
 30
0.0
 10
-19.3007198561
 20
57.6316118672
 30
0.0
 10
-19.3078864407
 20
57.6367258322
 30
0.0
 10
-19.3119465638
 20
57.6436459307
 30
0.0
 10
-19.3142576918
 20
57.6479718225
 30
0.0
 11
-19.2975800842
 21
57.6312941892
 31
0.0
 11
-19.3058554124
 21
57.6358931813
 31
0.0
 11
-19.3142576918
 21
57.6479718225
 31
0.0
  0
SPLINE
  5
339
100
AcDbEntity
  8
RACCORDO
100
AcDbSpline
 62
253
  6
CONTINUOUS
 70
0
 71
3
 72
9
 73
5
 74
3
 42
0.0000001
 43
0.0000001
 44
0.0000000001
 12
0.0240581959
 22
0.0024342294
 32
0.0
 13
0.0113946189
 23
0.0213280314
 33
0.0
 40
0.0
 40
0.0
 40
0.0
 40
0.0
 40
0.3915218909
 40
1.0
 40
1.0
 40
1.0
 40
1.0
 10
70.3203354263
 20
57.6312946315
 30
0.0
 10
70.3234751964
 20
57.6316123162
 30
0.0
 10
70.3306417681
 20
57.6367262651
 30
0.0
 10
70.3347018938
 20
57.6436463499
 30
0.0
 10
70.3370130191
 20
57.64797223
 30
0.0
 11
70.3203354263
 21
57.6312946315
 31
0.0
 11
70.3286107506
 21
57.6358936236
 31
0.0
 11
70.3370130191
 21
57.64797223
 31
0.0
  0
SPLINE
  5
33A
100
AcDbEntity
  8
RACCORDO
100
AcDbSpline
 62
253
  6
CONTINUOUS
 70
0
 71
3
 72
9
 73
5
 74
3
 42
0.0000001
 43
0.0000001
 44
0.0000000001
 12
0.0024342817
 22
0.0240581444
 32
0.0
 13
0.0213279745
 23
0.0113946277
 33
0.0
 40
0.0
 40
0.0
 40
0.0
 40
0.0
 40
0.3915222167
 40
1.0
 40
1.0
 40
1.0
 40
1.0
 10
70.6101136577
 20
57.3415169004
 30
0.0
 10
70.6104313495
 20
57.3446566664
 30
0.0
 10
70.6155452836
 20
57.3518232199
 30
0.0
 10
70.6224653486
 20
57.3558833511
 30
0.0
 10
70.6267912148
 20
57.358194477
 30
0.0
 11
70.6101136577
 21
57.3415169004
 31
0.0
 11
70.6147126483
 21
57.3497922138
 31
0.0
 11
70.6267912148
 21
57.358194477
 31
0.0
  0
SPLINE
  5
33B
100
AcDbEntity
  8
RACCORDO
100
AcDbSpline
 62
253
  6
CONTINUOUS
 70
0
 71
3
 72
9
 73
5
 74
3
 42
0.0000001
 43
0.0000001
 44
0.0000000001
 12
0.0024342294
 22
-0.0240581959
 32
0.0
 13
0.0213280314
 23
-0.0113946189
 33
0.0
 40
0.0
 40
0.0
 40
0.0
 40
0.0
 40
0.3915218909
 40
1.0
 40
1.0
 40
1.0
 40
1.0
 10
70.6101131736
 20
-58.176398641
 30
0.0
 10
70.6104308583
 20
-58.1795384111
 30
0.0
 10
70.6155448072
 20
-58.1867049827
 30
0.0
 10
70.622464892
 20
-58.1907651084
 30
0.0
 10
70.6267907721
 20
-58.1930762338
 30
0.0
 11
70.6101131736
 21
-58.176398641
 31
0.0
 11
70.6147121657
 21
-58.1846739652
 31
0.0
 11
70.6267907721
 21
-58.1930762338
 31
0.0
  0
SPLINE
  5
33C
100
AcDbEntity
  8
RACCORDO
100
AcDbSpline
 62
253
  6
CONTINUOUS
 70
0
 71
3
 72
9
 73
5
 74
3
 42
0.0000001
 43
0.0000001
 44
0.0000000001
 12
0.0240581444
 22
-0.0024342817
 32
0.0
 13
0.0113946277
 23
-0.0213279745
 33
0.0
 40
0.0
 40
0.0
 40
0.0
 40
0.0
 40
0.3915222167
 40
1.0
 40
1.0
 40
1.0
 40
1.0
 10
70.3203354425
 20
-58.4661768723
 30
0.0
 10
70.3234752085
 20
-58.4664945641
 30
0.0
 10
70.330641762
 20
-58.4716084983
 30
0.0
 10
70.3347018932
 20
-58.4785285632
 30
0.0
 10
70.3370130191
 20
-58.4828544294
 30
0.0
 11
70.3203354425
 21
-58.4661768723
 31
0.0
 11
70.3286107559
 21
-58.4707758629
 31
0.0
 11
70.3370130191
 21
-58.4828544294
 31
0.0
  0
SPLINE
  5
33D
100
AcDbEntity
  8
RACCORDO
100
AcDbSpline
 62
253
  6
CONTINUOUS
 70
0
 71
3
 72
9
 73
5
 74
3
 42
0.0000001
 43
0.0000001
 44
0.0000000001
 12
-0.0240581959
 22
-0.0024342294
 32
0.0
 13
-0.0113946189
 23
-0.0213280314
 33
0.0
 40
0.0
 40
0.0
 40
0.0
 40
0.0
 40
0.3915218909
 40
1.0
 40
1.0
 40
1.0
 40
1.0
 10
-19.2975800989
 20
-58.4661763883
 30
0.0
 10
-19.300719869
 20
-58.466494073
 30
0.0
 10
-19.3078864406
 20
-58.4716080219
 30
0.0
 10
-19.3119465663
 20
-58.4785281067
 30
0.0
 10
-19.3142576917
 20
-58.4828539868
 30
0.0
 11
-19.2975800989
 21
-58.4661763883
 31
0.0
 11
-19.3058554231
 21
-58.4707753804
 31
0.0
 11
-19.3142576917
 21
-58.4828539868
 31
0.0
  0
SPLINE
  5
33E
100
AcDbEntity
  8
RACCORDO
100
AcDbSpline
 62
253
  6
CONTINUOUS
 70
0
 71
3
 72
9
 73
5
 74
3
 42
0.0000001
 43
0.0000001
 44
0.0000000001
 12
-0.0024342817
 22
-0.0240581444
 32
0.0
 13
-0.0213279745
 23
-0.0113946277
 33
0.0
 40
0.0
 40
0.0
 40
0.0
 40
0.0
 40
0.3915222167
 40
1.0
 40
1.0
 40
1.0
 40
1.0
 10
-19.5873583302
 20
-58.1763986571
 30
0.0
 10
-19.587676022
 20
-58.1795384231
 30
0.0
 10
-19.5927899562
 20
-58.1867049767
 30
0.0
 10
-19.5997100211
 20
-58.1907651078
 30
0.0
 10
-19.6040358873
 20
-58.1930762338
 30
0.0
 11
-19.5873583302
 21
-58.1763986571
 31
0.0
 11
-19.5919573208
 21
-58.1846739706
 31
0.0
 11
-19.6040358873
 21
-58.1930762338
 31
0.0
  0
SPLINE
  5
33F
100
AcDbEntity
  8
RACCORDO
100
AcDbSpline
 62
253
  6
CONTINUOUS
 70
0
 71
3
 72
11
 73
7
 74
5
 42
0.0000001
 43
0.0000001
 44
0.0000000001
 12
0.0273503572
 22
-0.4633434684
 32
0.0
 13
-0.4633454892
 23
0.0273161024
 33
0.0
 40
0.0
 40
0.0
 40
0.0
 40
0.0
 40
0.2486357399
 40
0.5000006038
 40
0.7513659212
 40
1.0
 40
1.0
 40
1.0
 40
1.0
 10
71.3556449828
 20
-58.9219175713
 30
0.0
 10
71.3579117415
 20
-58.96031882
 30
0.0
 10
71.3488968724
 20
-59.0394159314
 30
0.0
 10
71.2863599968
 20
-59.142415281
 30
0.0
 10
71.1833635193
 20
-59.2049593052
 30
0.0
 10
71.1042667474
 20
-59.2139726074
 30
0.0
 10
71.0658655877
 20
-59.2117087028
 30
0.0
 11
71.3556449828
 21
-58.9219175713
 31
0.0
 11
71.340884646
 21
-59.036374023
 31
0.0
 11
71.2795922466
 21
-59.1356482075
 31
0.0
 11
71.1803209073
 21
-59.1969456156
 31
0.0
 11
71.0658655877
 21
-59.2117087028
 31
0.0
  0
SPLINE
  5
340
100
AcDbEntity
  8
RACCORDO
100
AcDbSpline
 62
253
  6
CONTINUOUS
 70
0
 71
3
 72
11
 73
7
 74
5
 42
0.0000001
 43
0.0000001
 44
0.0000000001
 12
0.4633434684
 22
0.0273503572
 32
0.0
 13
-0.0273161024
 23
-0.4633454892
 33
0.0
 40
0.0
 40
0.0
 40
0.0
 40
0.0
 40
0.2486357399
 40
0.5000006038
 40
0.7513659212
 40
1.0
 40
1.0
 40
1.0
 40
1.0
 10
71.0658543566
 20
58.3768264407
 30
0.0
 10
71.1042556053
 20
58.3790931994
 30
0.0
 10
71.1833527168
 20
58.3700783303
 30
0.0
 10
71.2863520664
 20
58.3075414547
 30
0.0
 10
71.3488960906
 20
58.2045449772
 30
0.0
 10
71.3579093928
 20
58.1254482053
 30
0.0
 10
71.3556454881
 20
58.0870470456
 30
0.0
 11
71.0658543566
 21
58.3768264407
 31
0.0
 11
71.1803108083
 21
58.3620661039
 31
0.0
 11
71.2795849929
 21
58.3007737045
 31
0.0
 11
71.3408824009
 21
58.2015023652
 31
0.0
 11
71.3556454881
 21
58.0870470456
 31
0.0
  0
SPLINE
  5
341
100
AcDbEntity
  8
RACCORDO
100
AcDbSpline
 62
253
  6
CONTINUOUS
 70
0
 71
3
 72
11
 73
7
 74
5
 42
0.0000001
 43
0.0000001
 44
0.0000000001
 12
-0.4633434684
 22
-0.0273503572
 32
0.0
 13
0.0273161024
 23
0.4633454892
 33
0.0
 40
0.0
 40
0.0
 40
0.0
 40
0.0
 40
0.2486357399
 40
0.5000006038
 40
0.7513659212
 40
1.0
 40
1.0
 40
1.0
 40
1.0
 10
-20.0430990292
 20
-59.2117081974
 30
0.0
 10
-20.0815002779
 20
-59.2139749562
 30
0.0
 10
-20.1605973893
 20
-59.2049600871
 30
0.0
 10
-20.2635967389
 20
-59.1424232114
 30
0.0
 10
-20.3261407631
 20
-59.039426734
 30
0.0
 10
-20.3351540653
 20
-58.960329962
 30
0.0
 10
-20.3328901607
 20
-58.9219288024
 30
0.0
 11
-20.0430990292
 21
-59.2117081974
 31
0.0
 11
-20.1575554809
 21
-59.1969478606
 31
0.0
 11
-20.2568296654
 21
-59.1356554613
 31
0.0
 11
-20.3181270735
 21
-59.036384122
 31
0.0
 11
-20.3328901607
 21
-58.9219288024
 31
0.0
  0
SPLINE
  5
342
100
AcDbEntity
  8
RACCORDO
100
AcDbSpline
 62
253
  6
CONTINUOUS
 70
0
 71
3
 72
11
 73
7
 74
5
 42
0.0000001
 43
0.0000001
 44
0.0000000001
 12
-0.027316087
 22
0.4633454758
 32
0.0
 13
0.4633434515
 23
-0.0273504013
 33
0.0
 40
0.0
 40
0.0
 40
0.0
 40
0.0
 40
0.2486340814
 40
0.4999993991
 40
0.7513642621
 40
1.0
 40
1.0
 40
1.0
 40
1.0
 10
-20.3328901654
 20
58.0870471505
 30
0.0
 10
-20.3351540688
 20
58.1254483094
 30
0.0
 10
-20.3261407243
 20
58.2045450784
 30
0.0
 10
-20.2635966664
 20
58.3075415268
 30
0.0
 10
-20.1605972949
 20
58.3700783636
 30
0.0
 10
-20.0815001857
 20
58.379093199
 30
0.0
 10
-20.0430989387
 20
58.3768264366
 30
0.0
 11
-20.3328901654
 21
58.0870471505
 31
0.0
 11
-20.3181270396
 21
58.2015024627
 31
0.0
 11
-20.2568295946
 21
58.3007737752
 31
0.0
 11
-20.1575553904
 21
58.3620661351
 31
0.0
 11
-20.0430989387
 21
58.3768264366
 31
0.0
  0
SPLINE
  5
343
100
AcDbEntity
  8
RACCORDO
100
AcDbSpline
 62
253
  6
CONTINUOUS
 70
0
 71
3
 72
11
 73
7
 74
5
 42
0.0000001
 43
0.0000001
 44
0.0000000001
 12
-0.4555180674
 22
0.0054800017
 32
0.0
 13
0.0054838821
 23
-0.4555180207
 33
0.0
 40
0.0
 40
0.0
 40
0.0
 40
0.0
 40
0.2500587494
 40
0.4999992321
 40
0.7499395713
 40
1.0
 40
1.0
 40
1.0
 40
1.0
 10
-19.3143174493
 20
57.6479723044
 30
0.0
 10
-19.3522862087
 20
57.6484290785
 30
0.0
 10
-19.429299616
 20
57.6352364936
 30
0.0
 10
-19.5276193601
 20
57.5715214013
 30
0.0
 10
-19.5913176085
 20
57.4731886341
 30
0.0
 10
-19.6044925546
 20
57.3961739091
 30
0.0
 10
-19.604035454
 20
57.3582048986
 30
0.0
 11
-19.3143174493
 21
57.6479723044
 31
0.0
 11
-19.426451044
 21
57.6279080338
 31
0.0
 11
-19.5218500131
 21
57.5657527204
 31
0.0
 11
-19.5839874397
 21
57.470342178
 31
0.0
 11
-19.604035454
 21
57.3582048986
 31
0.0
  0
SPLINE
  5
344
100
AcDbEntity
  8
RACCORDO
100
AcDbSpline
 62
253
  6
CONTINUOUS
 70
0
 71
3
 72
11
 73
7
 74
5
 42
0.0000001
 43
0.0000001
 44
0.0000000001
 12
-0.4473051946
 22
-0.0175270307
 32
0.0
 13
-0.0175584957
 23
-0.4473039606
 33
0.0
 40
0.0
 40
0.0
 40
0.0
 40
0.0
 40
0.2466224059
 40
0.4999986581
 40
0.7533733615
 40
1.0
 40
1.0
 40
1.0
 40
1.0
 10
-19.2975800989
 20
57.6312946321
 30
0.0
 10
-19.3343519267
 20
57.6298537793
 30
0.0
 10
-19.4090463224
 20
57.6128037851
 30
0.0
 10
-19.5040879481
 20
57.5480262278
 30
0.0
 10
-19.5688685908
 20
57.4529842973
 30
0.0
 10
-19.5859143825
 20
57.3782892417
 30
0.0
 10
-19.5873578468
 20
57.3415168843
 30
0.0
 11
-19.2975800989
 21
57.6312946321
 31
0.0
 11
-19.4052110039
 21
57.6067227242
 31
0.0
 11
-19.4989993453
 21
57.5429368773
 31
0.0
 11
-19.5627856079
 21
57.4491496571
 31
0.0
 11
-19.5873578468
 21
57.3415168843
 31
0.0
  0
SPLINE
  5
345
100
AcDbEntity
  8
RACCORDO
100
AcDbSpline
 62
253
  6
CONTINUOUS
 70
0
 71
3
 72
11
 73
7
 74
5
 42
0.0000001
 43
0.0000001
 44
0.0000000001
 12
0.0054839322
 22
0.455547462
 32
0.0
 13
-0.455547242
 23
-0.0055021796
 33
0.0
 40
0.0
 40
0.0
 40
0.0
 40
0.0
 40
0.2500602726
 40
0.5000004489
 40
0.74994087
 40
1.0
 40
1.0
 40
1.0
 40
1.0
 10
70.6267907813
 20
57.358204814
 30
0.0
 10
70.6272478859
 20
57.3961762549
 30
0.0
 10
70.6140712365
 20
57.4731961275
 30
0.0
 10
70.5503646407
 20
57.5715327278
 30
0.0
 10
70.4520339396
 20
57.6352465746
 30
0.0
 10
70.3750142129
 20
57.6484308895
 30
0.0
 10
70.3370429639
 20
57.6479722661
 30
0.0
 11
70.6267907813
 21
57.358204814
 31
0.0
 11
70.6067401023
 21
57.4703490232
 31
0.0
 11
70.5445948811
 21
57.5657631818
 31
0.0
 11
70.4491856858
 21
57.6279162268
 31
0.0
 11
70.3370429639
 21
57.6479722661
 31
0.0
  0
SPLINE
  5
346
100
AcDbEntity
  8
RACCORDO
100
AcDbSpline
 62
253
  6
CONTINUOUS
 70
0
 71
3
 72
11
 73
7
 74
5
 42
0.0000001
 43
0.0000001
 44
0.0000000001
 12
-0.0175586516
 22
0.4473039548
 32
0.0
 13
-0.4473051996
 23
0.0175269134
 33
0.0
 40
0.0
 40
0.0
 40
0.0
 40
0.0
 40
0.2466266199
 40
0.5000013352
 40
0.7533775704
 40
1.0
 40
1.0
 40
1.0
 40
1.0
 10
70.6101131742
 20
57.3415168843
 30
0.0
 10
70.6086696973
 20
57.3782892384
 30
0.0
 10
70.5916239251
 20
57.4529842933
 30
0.0
 10
70.5268432787
 20
57.5480262235
 30
0.0
 10
70.4318016556
 20
57.6128037811
 30
0.0
 10
70.3571072581
 20
57.6298537888
 30
0.0
 10
70.3203354264
 20
57.6312946321
 30
0.0
 11
70.6101131742
 21
57.3415168843
 31
0.0
 11
70.5855409382
 21
57.4491496493
 31
0.0
 11
70.5217546746
 21
57.5429368754
 31
0.0
 11
70.4279663416
 21
57.6067227214
 31
0.0
 11
70.3203354264
 21
57.6312946321
 31
0.0
  0
SPLINE
  5
347
100
AcDbEntity
  8
RACCORDO
100
AcDbSpline
 62
253
  6
CONTINUOUS
 70
0
 71
3
 72
11
 73
7
 74
5
 42
0.0000001
 43
0.0000001
 44
0.0000000001
 12
0.455547462
 22
-0.0054839322
 32
0.0
 13
-0.0055021796
 23
0.455547242
 33
0.0
 40
0.0
 40
0.0
 40
0.0
 40
0.0
 40
0.2500602726
 40
0.5000004489
 40
0.74994087
 40
1.0
 40
1.0
 40
1.0
 40
1.0
 10
70.3370233561
 20
-58.482853996
 30
0.0
 10
70.374994797
 20
-58.4833111005
 30
0.0
 10
70.4520146696
 20
-58.4701344511
 30
0.0
 10
70.5503512699
 20
-58.4064278553
 30
0.0
 10
70.6140651167
 20
-58.3080971543
 30
0.0
 10
70.6272494316
 20
-58.2310774276
 30
0.0
 10
70.6267908082
 20
-58.1931061786
 30
0.0
 11
70.3370233561
 21
-58.482853996
 31
0.0
 11
70.4491675653
 21
-58.4628033169
 31
0.0
 11
70.5445817239
 21
-58.4006580958
 31
0.0
 11
70.6067347689
 21
-58.3052489004
 31
0.0
 11
70.6267908082
 21
-58.1931061786
 31
0.0
  0
SPLINE
  5
348
100
AcDbEntity
  8
RACCORDO
100
AcDbSpline
 62
253
  6
CONTINUOUS
 70
0
 71
3
 72
11
 73
7
 74
5
 42
0.0000001
 43
0.0000001
 44
0.0000000001
 12
0.4473039548
 22
0.0175586516
 32
0.0
 13
0.0175269134
 23
0.4473051996
 33
0.0
 40
0.0
 40
0.0
 40
0.0
 40
0.0
 40
0.2466266199
 40
0.5000013352
 40
0.7533775704
 40
1.0
 40
1.0
 40
1.0
 40
1.0
 10
70.3203354264
 20
-58.4661763889
 30
0.0
 10
70.3571077805
 20
-58.4647329119
 30
0.0
 10
70.4318028354
 20
-58.4476871397
 30
0.0
 10
70.5268447656
 20
-58.3829064933
 30
0.0
 10
70.5916223232
 20
-58.2878648702
 30
0.0
 10
70.6086723309
 20
-58.2131704727
 30
0.0
 10
70.6101131742
 20
-58.176398641
 30
0.0
 11
70.3203354264
 21
-58.4661763889
 31
0.0
 11
70.4279681914
 21
-58.4416041529
 31
0.0
 11
70.5217554175
 21
-58.3778178892
 31
0.0
 11
70.5855412635
 21
-58.2840295563
 31
0.0
 11
70.6101131742
 21
-58.176398641
 31
0.0
  0
SPLINE
  5
349
100
AcDbEntity
  8
RACCORDO
100
AcDbSpline
 62
253
  6
CONTINUOUS
 70
0
 71
3
 72
11
 73
7
 74
5
 42
0.0000001
 43
0.0000001
 44
0.0000000001
 12
-0.0054839322
 22
-0.455547462
 32
0.0
 13
0.455547242
 23
0.0055021796
 33
0.0
 40
0.0
 40
0.0
 40
0.0
 40
0.0
 40
0.2500602726
 40
0.5000004489
 40
0.74994087
 40
1.0
 40
1.0
 40
1.0
 40
1.0
 10
-19.6040354539
 20
-58.1930865708
 30
0.0
 10
-19.6044925584
 20
-58.2310580116
 30
0.0
 10
-19.591315909
 20
-58.3080778843
 30
0.0
 10
-19.5276093132
 20
-58.4064144846
 30
0.0
 10
-19.4292786122
 20
-58.4701283314
 30
0.0
 10
-19.3522588855
 20
-58.4833126463
 30
0.0
 10
-19.3142876365
 20
-58.4828540228
 30
0.0
 11
-19.6040354539
 21
-58.1930865708
 31
0.0
 11
-19.5839847748
 21
-58.30523078
 31
0.0
 11
-19.5218395537
 21
-58.4006449385
 31
0.0
 11
-19.4264303583
 21
-58.4627979835
 31
0.0
 11
-19.3142876365
 21
-58.4828540228
 31
0.0
  0
SPLINE
  5
34A
100
AcDbEntity
  8
RACCORDO
100
AcDbSpline
 62
253
  6
CONTINUOUS
 70
0
 71
3
 72
11
 73
7
 74
5
 42
0.0000001
 43
0.0000001
 44
0.0000000001
 12
0.0175586516
 22
-0.4473039548
 32
0.0
 13
0.4473051996
 23
-0.0175269134
 33
0.0
 40
0.0
 40
0.0
 40
0.0
 40
0.0
 40
0.2466266199
 40
0.5000013352
 40
0.7533775704
 40
1.0
 40
1.0
 40
1.0
 40
1.0
 10
-19.5873578468
 20
-58.176398641
 30
0.0
 10
-19.5859143698
 20
-58.2131709952
 30
0.0
 10
-19.5688685976
 20
-58.2878660501
 30
0.0
 10
-19.5040879512
 20
-58.3829079802
 30
0.0
 10
-19.4090463281
 20
-58.4476855379
 30
0.0
 10
-19.3343519306
 20
-58.4647355456
 30
0.0
 10
-19.2975800989
 20
-58.4661763889
 30
0.0
 11
-19.5873578468
 21
-58.176398641
 31
0.0
 11
-19.5627856108
 21
-58.2840314061
 31
0.0
 11
-19.4989993471
 21
-58.3778186321
 31
0.0
 11
-19.4052110142
 21
-58.4416044781
 31
0.0
 11
-19.2975800989
 21
-58.4661763889
 31
0.0
  0
SPLINE
  5
34B
100
AcDbEntity
  8
RACCORDO
100
AcDbSpline
 62
253
  6
CONTINUOUS
 70
0
 71
3
 72
23
 73
19
 74
17
 42
0.0000001
 43
0.0000001
 44
0.0000000001
 12
-0.0052257321
 22
0.6999443681
 32
0.0
 13
0.699851616
 23
0.0125356414
 33
0.0
 40
0.0
 40
0.0
 40
0.0
 40
0.0
 40
0.1950643086
 40
0.3826304685
 40
0.5554924549
 40
0.6343031525
 40
0.707008751
 40
0.7729014345
 40
0.8313582967
 40
0.8818035836
 40
0.9237654335
 40
0.9568267
 40
0.9699234141
 40
0.9806855133
 40
0.9890831408
 40
0.9951023458
 40
0.998735732
 40
1.0
 40
1.0
 40
1.0
 40
1.0
 10
-95.9771759036
 20
60.6878108646
 30
0.0
 10
-95.9775156882
 20
60.7333222527
 30
0.0
 10
-95.9781195421
 20
60.8225960825
 30
0.0
 10
-95.9788005277
 20
60.9522025643
 30
0.0
 10
-95.9791672646
 20
61.0546857337
 30
0.0
 10
-95.9793166371
 20
61.1303699936
 30
0.0
 10
-95.9793551179
 20
61.1810960518
 30
0.0
 10
-95.979323659
 20
61.2270734994
 30
0.0
 10
-95.9792225062
 20
61.2678558906
 30
0.0
 10
-95.9790557919
 20
61.3030579075
 30
0.0
 10
-95.9788192715
 20
61.3323241622
 30
0.0
 10
-95.978570212
 20
61.3528999566
 30
0.0
 10
-95.9783039369
 20
61.3661520394
 30
0.0
 10
-95.9781432926
 20
61.3737313158
 30
0.0
 10
-95.9778713567
 20
61.3794589777
 30
0.0
 10
-95.9778283675
 20
61.3839926749
 30
0.0
 10
-95.9773382052
 20
61.3859530802
 30
0.0
 10
-95.9774708369
 20
61.3876989684
 30
0.0
 10
-95.9771759036
 20
61.3877042512
 30
0.0
 11
-95.9771759036
 21
60.6878108646
 31
0.0
 11
-95.9780963463
 21
60.8243457315
 31
0.0
 11
-95.9787803909
 21
60.9556334856
 31
0.0
 11
-95.979201333
 21
61.0766298993
 31
0.0
 11
-95.9793078272
 21
61.1317944378
 31
0.0
 11
-95.9793434843
 21
61.1826857178
 31
0.0
 11
-95.9793078402
 21
61.2288082021
 31
0.0
 11
-95.9792013532
 21
61.2697257553
 31
0.0
 11
-95.9790249364
 21
61.3050351932
 31
0.0
 11
-95.9787804013
 21
61.3344059542
 31
0.0
 11
-95.9784699359
 21
61.3575455638
 31
0.0
 11
-95.9782908431
 21
61.366711041
 31
0.0
 11
-95.978096335
 21
61.3742416101
 31
0.0
 11
-95.9778868486
 21
61.3801159118
 31
0.0
 11
-95.977663095
 21
61.3843231922
 31
0.0
 11
-95.9774258536
 21
61.3868553418
 31
0.0
 11
-95.9771759036
 21
61.3877042512
 31
0.0
  0
SPLINE
  5
34C
100
AcDbEntity
  8
RACCORDO
100
AcDbSpline
 62
253
  6
CONTINUOUS
 70
0
 71
3
 72
23
 73
19
 74
17
 42
0.0000001
 43
0.0000001
 44
0.0000000001
 12
-0.6998215042
 22
0.0141165512
 32
0.0
 13
0.0052251321
 23
0.699944364
 33
0.0
 40
0.0
 40
0.0
 40
0.0
 40
0.0
 40
0.0012647456
 40
0.0048981228
 40
0.0109170841
 40
0.0193144987
 40
0.0300766235
 40
0.0431735432
 40
0.0762352275
 40
0.1181972398
 40
0.1686425838
 40
0.227099564
 40
0.2929923806
 40
0.3656980255
 40
0.4445088585
 40
0.6173712155
 40
0.8049357875
 40
1.0
 40
1.0
 40
1.0
 40
1.0
 10
-95.9771759036
 20
-62.222586008
 30
0.0
 10
-95.9774709357
 20
-62.2225800567
 30
0.0
 10
-95.9773381304
 20
-62.2208354972
 30
0.0
 10
-95.9778284316
 20
-62.2188735648
 30
0.0
 10
-95.9778713586
 20
-62.2143408309
 30
0.0
 10
-95.9781433137
 20
-62.2086128954
 30
0.0
 10
-95.978303938
 20
-62.201033757
 30
0.0
 10
-95.9785702089
 20
-62.187781456
 30
0.0
 10
-95.9788192583
 20
-62.1672055218
 30
0.0
 10
-95.9790557725
 20
-62.1379390999
 30
0.0
 10
-95.9792224844
 20
-62.1027370114
 30
0.0
 10
-95.9793236459
 20
-62.0619545465
 30
0.0
 10
-95.9793551186
 20
-62.0159770307
 30
0.0
 10
-95.9793166515
 20
-61.9652508995
 30
0.0
 10
-95.9791672892
 20
-61.8895665117
 30
0.0
 10
-95.978800541
 20
-61.787083596
 30
0.0
 10
-95.9781195314
 20
-61.6574774223
 30
0.0
 10
-95.977515649
 20
-61.5682039868
 30
0.0
 10
-95.9771759036
 20
-61.5226926214
 30
0.0
 11
-95.9771759036
 21
-62.222586008
 31
0.0
 11
-95.9774258735
 21
-62.2217367559
 31
0.0
 11
-95.9776631195
 21
-62.2192046131
 31
0.0
 11
-95.9778868683
 21
-62.2149975034
 31
0.0
 11
-95.9780963463
 21
-62.2091233505
 31
0.0
 11
-95.9782908471
 21
-62.2015927634
 31
0.0
 11
-95.9784699342
 21
-62.1924271423
 31
0.0
 11
-95.9787803909
 21
-62.1692872404
 31
0.0
 11
-95.9790249183
 21
-62.1399163659
 31
0.0
 11
-95.979201333
 21
-62.1046068886
 31
0.0
 11
-95.9793078272
 21
-62.0636892532
 31
0.0
 11
-95.9793434843
 21
-62.0175666763
 31
0.0
 11
-95.9793078402
 21
-61.9666753645
 31
0.0
 11
-95.9792013532
 21
-61.9115107318
 31
0.0
 11
-95.9787804013
 21
-61.7905140603
 31
0.0
 11
-95.978096335
 21
-61.6592274194
 31
0.0
 11
-95.9771759036
 21
-61.5226926214
 31
0.0
  0
LINE
  5
34D
100
AcDbEntity
  8
RACCORDO
100
AcDbLine
 62
253
  6
CONTINUOUS
 10
-90.5645927686
 20
-77.325124243
 11
-90.5645916881
 21
-76.2668973212
  0
LINE
  5
34E
100
AcDbEntity
  8
RACCORDO
100
AcDbLine
 62
253
  6
CONTINUOUS
 10
-90.5645917024
 20
75.4320155662
 11
-90.5645915148
 21
76.490243146
  0
SPLINE
  5
34F
100
AcDbEntity
  8
RACCORDO
100
AcDbSpline
 62
253
  6
CONTINUOUS
 70
0
 71
3
 72
23
 73
19
 74
17
 42
0.0000001
 43
0.0000001
 44
0.0000000001
 12
-0.7939513347
 22
-1.2030524815
 32
0.0
 13
0.0073812676
 23
-1.4414019259
 33
0.0
 40
0.0
 40
0.0
 40
0.0
 40
0.0
 40
0.0015928878
 40
0.0055528125
 40
0.0118815358
 40
0.0205650223
 40
0.0315856687
 40
0.0449163663
 40
0.0783756927
 40
0.120625085
 40
0.1712684566
 40
0.2298202835
 40
0.2957195521
 40
0.3683377364
 40
0.4469734343
 40
0.619235132
 40
0.805944683
 40
1.0
 40
1.0
 40
1.0
 40
1.0
 10
-90.1881081544
 20
76.8733797303
 30
0.0
 10
-90.1885297129
 20
76.8727409544
 30
0.0
 10
-90.1883226693
 20
76.8698525644
 30
0.0
 10
-90.1889798196
 20
76.8643474689
 30
0.0
 10
-90.1890575224
 20
76.8551301056
 30
0.0
 10
-90.1894257484
 20
76.8426705424
 30
0.0
 10
-90.1896613414
 20
76.8267831166
 30
0.0
 10
-90.1900424328
 20
76.7990170556
 30
0.0
 10
-90.1903980846
 20
76.756232139
 30
0.0
 10
-90.1907236635
 20
76.6955263357
 30
0.0
 10
-90.1909592289
 20
76.6227607642
 30
0.0
 10
-90.1910995208
 20
76.5386328456
 30
0.0
 10
-90.1911392038
 20
76.4439461632
 30
0.0
 10
-90.1910805907
 20
76.3396098329
 30
0.0
 10
-90.1908607785
 20
76.1841692679
 30
0.0
 10
-90.1903396461
 20
75.9739112523
 30
0.0
 10
-90.1893350359
 20
75.7081984479
 30
0.0
 10
-90.1885259925
 20
75.5252527348
 30
0.0
 10
-90.1880485345
 20
75.4320154989
 30
0.0
 11
-90.1881081544
 21
76.8733797303
 31
0.0
 11
-90.1884532373
 21
76.871109789
 31
0.0
 11
-90.1887707509
 21
76.8654107091
 31
0.0
 11
-90.1890746891
 21
76.8562934202
 31
0.0
 11
-90.189365853
 21
76.8437802489
 31
0.0
 11
-90.1896421756
 21
76.8278972632
 31
0.0
 11
-90.1898998775
 21
76.8086838462
 31
0.0
 11
-90.1903420124
 21
76.7604569031
 31
0.0
 11
-90.190682409
 21
76.6995587005
 31
0.0
 11
-90.1909292127
 21
76.6265607072
 31
0.0
 11
-90.1910771088
 21
76.5421630141
 31
0.0
 11
-90.1911230755
 21
76.4471744472
 31
0.0
 11
-90.1910679368
 21
76.3425010986
 31
0.0
 11
-90.1909117882
 21
76.2291540735
 31
0.0
 11
-90.1903051287
 21
75.9808532161
 31
0.0
 11
-90.1893201615
 21
75.7117279835
 31
0.0
 11
-90.1880485345
 21
75.4320154989
 31
0.0
  0
SPLINE
  5
350
100
AcDbEntity
  8
RACCORDO
100
AcDbSpline
 62
253
  6
CONTINUOUS
 70
0
 71
3
 72
26
 73
22
 74
20
 42
0.0000001
 43
0.0000001
 44
0.0000000001
 12
-0.0098790147
 22
-1.4998671688
 32
0.0
 13
1.4996646637
 23
-0.0265521207
 33
0.0
 40
0.0
 40
0.0
 40
0.0
 40
0.0
 40
0.195031502
 40
0.382607098
 40
0.5555111804
 40
0.6343468958
 40
0.7070721512
 40
0.772980531
 40
0.8314378577
 40
0.8818803768
 40
0.9238251991
 40
0.9414831562
 40
0.9568739262
 40
0.969961037
 40
0.9807133098
 40
0.9891057672
 40
0.9951190568
 40
0.9972298207
 40
0.9987424664
 40
0.9996594712
 40
1.0
 40
1.0
 40
1.0
 40
1.0
 10
-90.0488917673
 20
-76.2683247122
 30
0.0
 10
-90.049534007
 20
-76.3658318278
 30
0.0
 10
-90.050581212
 20
-76.5571197906
 30
0.0
 10
-90.051906375
 20
-76.8348536968
 30
0.0
 10
-90.0525710443
 20
-77.0544958369
 30
0.0
 10
-90.0528542551
 20
-77.2167172853
 30
0.0
 10
-90.052924418
 20
-77.3254446988
 30
0.0
 10
-90.0528654106
 20
-77.423983586
 30
0.0
 10
-90.0526771074
 20
-77.5113817504
 30
0.0
 10
-90.0523617727
 20
-77.5867982887
 30
0.0
 10
-90.0519810437
 20
-77.6418164343
 30
0.0
 10
-90.0516010741
 20
-77.6793082026
 30
0.0
 10
-90.0513046201
 20
-77.7023741423
 30
0.0
 10
-90.0509746478
 20
-77.7219809967
 30
0.0
 10
-90.0506193903
 20
-77.7381037098
 30
0.0
 10
-90.0502372352
 20
-77.7506462031
 30
0.0
 10
-90.049908673
 20
-77.7589600105
 30
0.0
 10
-90.0495865868
 20
-77.7636843452
 30
0.0
 10
-90.0494126305
 20
-77.7660852224
 30
0.0
 10
-90.0491754638
 20
-77.7672068834
 30
0.0
 10
-90.0490619279
 20
-77.7680932421
 30
0.0
 10
-90.0488917016
 20
-77.768096256
 30
0.0
 11
-90.0488917673
 21
-76.2683247122
 31
0.0
 11
-90.0505666702
 21
-76.5608476091
 31
0.0
 11
-90.0518562116
 21
-76.8421892345
 31
0.0
 11
-90.0526373489
 21
-77.10152684
 31
0.0
 11
-90.0528370257
 21
-77.2197723375
 31
0.0
 11
-90.0529028867
 21
-77.3288529065
 31
0.0
 11
-90.0528360121
 21
-77.4277088433
 31
0.0
 11
-90.0526366779
 21
-77.5153887436
 31
0.0
 11
-90.0523062969
 21
-77.5910467416
 31
0.0
 11
-90.051849583
 21
-77.6539581104
 31
0.0
 11
-90.0515767654
 21
-77.6804418698
 31
0.0
 11
-90.0512733022
 21
-77.7035244865
 31
0.0
 11
-90.0509362523
 21
-77.7231509463
 31
0.0
 11
-90.0505682093
 21
-77.7392740768
 31
0.0
 11
-90.0501781022
 21
-77.751855875
 31
0.0
 11
-90.0497708194
 21
-77.7608660059
 31
0.0
 11
-90.0495605833
 21
-77.7640249518
 31
0.0
 11
-90.0493452643
 21
-77.7662835282
 31
0.0
 11
-90.0491229863
 21
-77.7676408637
 31
0.0
 11
-90.0488917016
 21
-77.768096256
 31
0.0
  0
LINE
  5
351
100
AcDbEntity
  8
RACCORDO
100
AcDbLine
 62
253
  6
CONTINUOUS
 10
-90.0488566865
 20
-76.2683253245
 11
-90.1880337365
 21
-76.266897253
  0
LINE
  5
352
100
AcDbEntity
  8
RACCORDO
100
AcDbLine
 62
253
  6
CONTINUOUS
 10
-90.0488566865
 20
75.4334435677
 11
-90.1880162957
 21
75.4320155742
  0
SPLINE
  5
353
100
AcDbEntity
  8
RACCORDO
100
AcDbSpline
 62
253
  6
CONTINUOUS
 70
0
 71
3
 72
23
 73
19
 74
17
 42
0.0000001
 43
0.0000001
 44
0.0000000001
 12
-0.0076317324
 22
-1.4413901533
 32
0.0
 13
0.7261614413
 23
-1.245131872
 33
0.0
 40
0.0
 40
0.0
 40
0.0
 40
0.0
 40
0.1939958908
 40
0.3806596961
 40
0.5528888063
 40
0.6315061706
 40
0.7041063925
 40
0.7699916857
 40
0.8285348948
 40
0.8791768849
 40
0.9214382008
 40
0.9549213168
 40
0.9682694741
 40
0.9793112774
 40
0.9880217151
 40
0.9943800527
 40
0.998373061
 40
1.0
 40
1.0
 40
1.0
 40
1.0
 10
-90.1880485222
 20
-76.2668972534
 30
0.0
 10
-90.1885420304
 20
-76.3601051756
 30
0.0
 10
-90.1893236335
 20
-76.5429991648
 30
0.0
 10
-90.1903494937
 20
-76.8086437602
 30
0.0
 10
-90.1908598842
 20
-77.0188538381
 30
0.0
 10
-90.1910816359
 20
-77.1742601712
 30
0.0
 10
-90.1911392189
 20
-77.2785715961
 30
0.0
 10
-90.1910988571
 20
-77.3732380889
 30
0.0
 10
-90.1909587742
 20
-77.4573539256
 30
0.0
 10
-90.1907251319
 20
-77.5301197532
 30
0.0
 10
-90.1903917138
 20
-77.5908420009
 30
0.0
 10
-90.190045604
 20
-77.6336511951
 30
0.0
 10
-90.1896736081
 20
-77.6614487406
 30
0.0
 10
-90.1894291911
 20
-77.6773640947
 30
0.0
 10
-90.1890647994
 20
-77.6898696415
 30
0.0
 10
-90.1889605918
 20
-77.6991094774
 30
0.0
 10
-90.1883440741
 20
-77.7046983161
 30
0.0
 10
-90.1885057385
 20
-77.707577257
 30
0.0
 10
-90.1881119317
 20
-77.7082525082
 30
0.0
 11
-90.1880485222
 21
-76.2668972534
 31
0.0
 11
-90.1893191296
 21
-76.5465220528
 31
0.0
 11
-90.1903093966
 21
-76.8155793727
 31
0.0
 11
-90.1909122122
 21
-77.0638314641
 31
0.0
 11
-90.1910685801
 21
-77.1771512393
 31
0.0
 11
-90.1911231083
 21
-77.2817979368
 31
0.0
 11
-90.1910765851
 21
-77.3767656695
 31
0.0
 11
-90.1909291424
 21
-77.4611503286
 31
0.0
 11
-90.1906819655
 21
-77.5341457992
 31
0.0
 11
-90.1903391584
 21
-77.595060733
 31
0.0
 11
-90.1899065059
 21
-77.6433217039
 31
0.0
 11
-90.1896517972
 21
-77.6625601901
 31
0.0
 11
-90.1893714126
 21
-77.6784734898
 31
0.0
 11
-90.189074716
 21
-77.6910252987
 31
0.0
 11
-90.1887679914
 21
-77.7001851384
 31
0.0
 11
-90.188449927
 21
-77.7059319067
 31
0.0
 11
-90.1881119317
 21
-77.7082525082
 31
0.0
  0
SPLINE
  5
354
100
AcDbEntity
  8
RACCORDO
100
AcDbSpline
 62
253
  6
CONTINUOUS
 70
0
 71
3
 72
26
 73
22
 74
20
 42
0.0000001
 43
0.0000001
 44
0.0000000001
 12
-1.499659519
 22
-0.0269713472
 32
0.0
 13
0.0096422257
 23
-1.4998710458
 33
0.0
 40
0.0
 40
0.0
 40
0.0
 40
0.0
 40
0.0003422445
 40
0.0012600172
 40
0.0027731927
 40
0.0048843408
 40
0.0108999058
 40
0.0192947274
 40
0.0300511808
 40
0.0431436425
 40
0.0585403777
 40
0.0762070334
 40
0.11816937
 40
0.1686312687
 40
0.2271046186
 40
0.2930248229
 40
0.3657564606
 40
0.4445904501
 40
0.6174657598
 40
0.805003091
 40
1.0
 40
1.0
 40
1.0
 40
1.0
 10
-90.0488917673
 20
76.9332144981
 30
0.0
 10
-90.0490628507
 20
76.9332114212
 30
0.0
 10
-90.0491846833
 20
76.932327511
 30
0.0
 10
-90.0494192717
 20
76.9312011972
 30
0.0
 10
-90.0495964827
 20
76.9288015072
 30
0.0
 10
-90.0499149709
 20
76.9240742105
 30
0.0
 10
-90.050241574
 20
76.9157586544
 30
0.0
 10
-90.0506166627
 20
76.903211098
 30
0.0
 10
-90.0509675914
 20
76.8870824962
 30
0.0
 10
-90.0513017587
 20
76.8674678847
 30
0.0
 10
-90.0516063933
 20
76.8443920246
 30
0.0
 10
-90.051989171
 20
76.8068841199
 30
0.0
 10
-90.0523614687
 20
76.751843037
 30
0.0
 10
-90.0526779444
 20
76.6763999375
 30
0.0
 10
-90.0528666862
 20
76.588978022
 30
0.0
 10
-90.0529243974
 20
76.4904218668
 30
0.0
 10
-90.0528526372
 20
76.3816860465
 30
0.0
 10
-90.0525723254
 20
76.2194763946
 30
0.0
 10
-90.0518922102
 20
75.9998683497
 30
0.0
 10
-90.0505946532
 20
75.7221846856
 30
0.0
 10
-90.0495184363
 20
75.5309330292
 30
0.0
 10
-90.0488917016
 20
75.4334429566
 30
0.0
 11
-90.0488917673
 21
76.9332144981
 31
0.0
 11
-90.04912791
 21
76.9327587048
 31
0.0
 11
-90.0493531138
 21
76.931400682
 31
0.0
 11
-90.0495693768
 21
76.9291413939
 31
0.0
 11
-90.0497786967
 21
76.9259818045
 31
0.0
 11
-90.0501823251
 21
76.9169680789
 31
0.0
 11
-90.0505666702
 21
76.9043825361
 31
0.0
 11
-90.0509306748
 21
76.8882530166
 31
0.0
 11
-90.0512706185
 21
76.8686185493
 31
0.0
 11
-90.0515806698
 21
76.8455270362
 31
0.0
 11
-90.0518562116
 21
76.8190302159
 31
0.0
 11
-90.0523082547
 21
76.756092445
 31
0.0
 11
-90.0526373489
 21
76.6804052558
 31
0.0
 11
-90.0528370257
 21
76.5927011863
 31
0.0
 11
-90.0529028867
 21
76.4938273594
 31
0.0
 11
-90.0528360121
 21
76.3847370482
 31
0.0
 11
-90.0526366779
 21
76.2664939547
 31
0.0
 11
-90.051849583
 21
76.0071991198
 31
0.0
 11
-90.0505682093
 21
75.7259144129
 31
0.0
 11
-90.0488917016
 21
75.4334429566
 31
0.0
  0
ELLIPSE
  5
355
100
AcDbEntity
  8
RACCORDO
100
AcDbEllipse
 62
7
  6
CONTINUOUS
 10
-19.2789763522
 20
57.3229131375
 30
0.0
 11
0.2121966568
 21
-0.2121966568
 31
0.0
 40
0.9996954599
 41
2.3563467834
 42
3.9268385237
  0
ELLIPSE
  5
356
100
AcDbEntity
  8
RACCORDO
100
AcDbEllipse
 62
7
  6
CONTINUOUS
 10
70.3017316796
 20
57.3229131375
 30
0.0
 11
0.2121966568
 21
0.2121966568
 31
0.0
 40
0.9996954599
 41
-0.7852458701
 42
0.7852458701
  0
ELLIPSE
  5
357
100
AcDbEntity
  8
RACCORDO
100
AcDbEllipse
 62
7
  6
CONTINUOUS
 10
70.3017316796
 20
-58.1577948943
 30
0.0
 11
0.2121966568
 21
-0.2121966568
 31
0.0
 40
0.9996954599
 41
-0.7852458701
 42
0.7852458701
  0
ELLIPSE
  5
358
100
AcDbEntity
  8
RACCORDO
100
AcDbEllipse
 62
7
  6
CONTINUOUS
 10
-19.2789763522
 20
-58.1577948943
 30
0.0
 11
-0.2121966568
 21
-0.2121966568
 31
0.0
 40
0.9996954599
 41
-0.7852458701
 42
0.7852458701
  0
ELLIPSE
  5
359
100
AcDbEntity
  8
RACCORDO
100
AcDbEllipse
 62
7
  6
CONTINUOUS
 10
73.6883263847
 20
60.7095078426
 30
0.0
 11
0.4951255324
 21
0.4951255324
 31
0.0
 40
0.9996954599
 41
-0.7852458701
 42
0.7852458702
  0
ELLIPSE
  5
35A
100
AcDbEntity
  8
RACCORDO
100
AcDbEllipse
 62
7
  6
CONTINUOUS
 10
73.6883263847
 20
-61.5443895994
 30
0.0
 11
0.4951255324
 21
-0.4951255324
 31
0.0
 40
0.9996954599
 41
-0.7852458702
 42
0.7852458701
  0
ELLIPSE
  5
35B
100
AcDbEntity
  8
RACCORDO
100
AcDbEllipse
 62
7
  6
CONTINUOUS
 10
-22.6655710573
 20
-61.5443895994
 30
0.0
 11
0.4951255324
 21
0.4951255324
 31
0.0
 40
0.9996954599
 41
2.3563467835
 42
3.9268385238
  0
ELLIPSE
  5
35C
100
AcDbEntity
  8
RACCORDO
100
AcDbEllipse
 62
7
  6
CONTINUOUS
 10
-22.6655710573
 20
60.7095078426
 30
0.0
 11
0.4951255324
 21
-0.4951255324
 31
0.0
 40
0.9996954599
 41
2.3563467834
 42
3.9268385237
  0
ELLIPSE
  5
35D
100
AcDbEntity
  8
RACCORDO
100
AcDbEllipse
 62
7
  6
CONTINUOUS
 10
-104.7944305894
 20
-46.4174408784
 30
0.0
 11
22.9159846523
 21
0.0
 31
0.0
 40
0.0174550649
 41
0.9067956157
 42
0.909563149
  0
ELLIPSE
  5
35E
100
AcDbEntity
  8
RACCORDO
100
AcDbEllipse
 62
7
  6
CONTINUOUS
 10
-104.7944305894
 20
-46.4174408784
 30
0.0
 11
22.9159846523
 21
0.0
 31
0.0
 40
0.0174550649
 41
-0.909563149
 42
-0.9067956157
  0
ELLIPSE
  5
35F
100
AcDbEntity
  8
RACCORDO
100
AcDbEllipse
 62
7
  6
CONTINUOUS
 10
-104.7944305894
 20
-10.4174408784
 30
0.0
 11
22.9159846523
 21
0.0
 31
0.0
 40
0.0174550649
 41
0.9067956157
 42
0.909563149
  0
ELLIPSE
  5
360
100
AcDbEntity
  8
RACCORDO
100
AcDbEllipse
 62
7
  6
CONTINUOUS
 10
-104.7944305894
 20
-10.4174408784
 30
0.0
 11
22.9159846523
 21
0.0
 31
0.0
 40
0.0174550649
 41
-0.909563149
 42
-0.9067956157
  0
ELLIPSE
  5
361
100
AcDbEntity
  8
RACCORDO
100
AcDbEllipse
 62
7
  6
CONTINUOUS
 10
-104.7944305894
 20
9.5825591216
 30
0.0
 11
22.9159846523
 21
0.0
 31
0.0
 40
0.0174550649
 41
0.9067956157
 42
0.909563149
  0
ELLIPSE
  5
362
100
AcDbEntity
  8
RACCORDO
100
AcDbEllipse
 62
7
  6
CONTINUOUS
 10
-104.7944305894
 20
9.5825591216
 30
0.0
 11
22.9159846523
 21
0.0
 31
0.0
 40
0.0174550649
 41
-0.909563149
 42
-0.9067956157
  0
ELLIPSE
  5
363
100
AcDbEntity
  8
RACCORDO
100
AcDbEllipse
 62
7
  6
CONTINUOUS
 10
-104.7944305894
 20
45.5825591216
 30
0.0
 11
22.9159846523
 21
-0.0
 31
0.0
 40
0.0174550649
 41
0.9067956157
 42
0.909563149
  0
ELLIPSE
  5
364
100
AcDbEntity
  8
RACCORDO
100
AcDbEllipse
 62
7
  6
CONTINUOUS
 10
-104.7944305894
 20
45.5825591216
 30
0.0
 11
22.9159846523
 21
-0.0
 31
0.0
 40
0.0174550649
 41
-0.909563149
 42
-0.9067956157
  0
ENDSEC
  0
SECTION
  2
OBJECTS
  0
DICTIONARY
  5
C
100
AcDbDictionary
280
0
281
1
  3
ACAD_GROUP
350
D
  3
ACAD_MLINESTYLE
350
17
  3
ACAD_LAYOUT
350
1A
  3
ACAD_PLOTSETTINGS
350
19
  3
ACAD_PLOTSTYLENAME
350
E
  0
DICTIONARY
  5
D
102
{ACAD_REACTORS
330
C
102
}
100
AcDbDictionary
280
0
281
1
  0
ACDBDICTIONARYWDFLT
  5
E
102
{ACAD_REACTORS
330
C
102
}
100
AcDbDictionary
281
1
  3
Normal
350
F
100
AcDbDictionaryWithDefault
340
F
  0
DICTIONARY
  5
17
102
{ACAD_REACTORS
330
C
102
}
100
AcDbDictionary
280
0
281
1
  3
Standard
350
18
  0
DICTIONARY
  5
19
102
{ACAD_REACTORS
330
C
102
}
100
AcDbDictionary
281
1
  0
DICTIONARY
  5
1A
102
{ACAD_REACTORS
330
C
102
}
100
AcDbDictionary
281
1
  3
Model
350
365
  3
Layout1
350
366
  0
ACDBPLACEHOLDER
  5
F
102
{ACAD_REACTORS
330
E
102
}
  0
MLINESTYLE
  5
18
102
{ACAD_REACTORS
330
17
102
}
100
AcDbMlineStyle
  2
STANDARD
 70
0
  3

 62
256
 51
90.0
 52
90.0
 71
2
 49
0.5
 62
256
  6
BYLAYER
 49
-0.5
 62
256
  6
BYLAYER
  0
LAYOUT
  5
365
102
{ACAD_REACTORS
330
1A
102
}
100
AcDbPlotSettings
  1

  2
none_device
  4
ISO_A4_(297.00_x_210.00_MM)
  6

 40
0.0
 41
0.0
 42
0.0
 43
0.0
 44
297.0
 45
210.0
 46
0.0
 47
0.0
 48
0.0
 49
0.0
140
0.0
141
0.0
142
1.0
143
1.0
 70
1024
 72
1
 73
0
 74
0
  7

 75
0
147
1.0
148
0.0
149
0.0
100
AcDbLayout
  1
Model
 70
0
 71
0
 10
0.0
 20
0.0
 11
297.0
 21
210.0
 12
0.0
 22
0.0
 32
0.0
 14
0.0
 24
0.0
 34
0.0
 15
0.0
 25
0.0
 35
0.0
146
0.0
 13
0.0
 23
0.0
 33
0.0
 16
1.0
 26
0.0
 36
0.0
 17
0.0
 27
1.0
 37
0.0
 76
0
330
216
345
0
346
0
  0
LAYOUT
  5
366
102
{ACAD_REACTORS
330
1A
102
}
100
AcDbPlotSettings
  1

  2
none_device
  4
ISO_A4_(297.00_x_210.00_MM)
  6

 40
0.0
 41
0.0
 42
0.0
 43
0.0
 44
297.0
 45
210.0
 46
0.0
 47
0.0
 48
0.0
 49
0.0
140
0.0
141
0.0
142
1.0
143
1.0
 70
0
 72
1
 73
0
 74
0
  7

 75
0
147
1.0
148
0.0
149
0.0
100
AcDbLayout
  1
Layout1
 70
0
 71
1
 10
0.0
 20
0.0
 11
297.0
 21
210.0
 12
0.0
 22
0.0
 32
0.0
 14
0.0
 24
0.0
 34
0.0
 15
0.0
 25
0.0
 35
0.0
146
0.0
 13
0.0
 23
0.0
 33
0.0
 16
1.0
 26
0.0
 36
0.0
 17
0.0
 27
1.0
 37
0.0
 76
0
330
217
345
0
346
0
  0
ENDSEC
  0
EOF
