  0
SECTION
  2
HEADER
  9
$ACADVER
  1
AC1015
  9
$DWGCODEPAGE
  3
ANSI_1252
  9
$EXTMAX
 10
297.0
 20
210.0
 30
0.0
  9
$EXTMIN
 10
0.0
 20
0.0
 30
0.0
  9
$LIMMIN
 10
0.0
 20
0.0
  9
$LIMMAX
 10
297.0
 20
210.0
  9
$VIEWCTR
 10
148.5
 20
105.0
  9
$VIEWSIZE
 40
210.0
  9
$CLAYER
  8
0
  9
$LTSCALE
 40
16.335
  9
$CELTYPE
  6
BYLAYER
  9
$DIMSCALE
 40
1.0
  9
$DIMASZ
 40
3.0
  9
$DIMEXO
 40
1.85625
  9
$DIMDLI
 40
11.286
  9
$DIMEXE
 40
5.346
  9
$DIMCEN
 40
2.673
  9
$DIMLFAC
 40
1.0
  9
$DIMBLK
  1
_FILLED
  9
$DIMTXT
 40
3.0
  9
$DIMTOL
 70
1
  9
$DIMLIM
 70
0
  9
$DIMTFAC
 40
1.0
  9
$DIMTP
 40
0.01
  9
$DIMTM
 40
0.01
  9
$PDMODE
 70
3
  9
$PDSIZE
 40
3.0
  9
$HANDSEED
  5
301
  9
$TILEMODE
 70
1
  9
$MEASUREMENT
 70
1
  9
$INSUNITS
 70
4
  0
ENDSEC
  0
SECTION
  2
CLASSES
  0
CLASS
  1
ACDBDICTIONARYWDFLT
  2
AcDbDictionaryWithDefault
  3
AutoCAD 2000
 90
0
280
0
281
0
  0
CLASS
  1
ACDBPLACEHOLDER
  2
AcDbPlaceHolder
  3
AutoCAD 2000
 90
0
280
0
281
0
  0
CLASS
  1
LAYOUT
  2
AcDbLayout
  3
AutoCAD 2000
 90
0
280
0
281
0
  0
ENDSEC
  0
SECTION
  2
TABLES
  0
TABLE
  2
VPORT
  5
8
100
AcDbSymbolTable
 70
2
  0
VPORT
  5
1F4
100
AcDbSymbolTableRecord
100
AcDbViewportTableRecord
  2
*ACTIVE
 70
0
 10
0.0
 20
0.0
 11
1.0
 21
1.0
 12
148.5
 22
105.0
 13
0.0
 23
0.0
 14
1.0
 24
1.0
 15
0.0
 25
0.0
 16
0.0
 26
0.0
 36
1.0
 17
0.0
 27
0.0
 37
0.0
 40
210.0
 41
1.4142857143
 42
50.0
 43
0.0
 44
0.0
 50
0.0
 51
0.0
 71
0
 72
100
 73
1
 74
1
 75
0
 76
0
 77
0
 78
0
  0
ENDTAB
  0
TABLE
  2
LTYPE
  5
5
100
AcDbSymbolTable
 70
6
  0
LTYPE
  5
14
100
AcDbSymbolTableRecord
100
AcDbLinetypeTableRecord
  2
BYBLOCK
 70
0
  3

 72
65
 73
0
 40
0.0
  0
LTYPE
  5
15
100
AcDbSymbolTableRecord
100
AcDbLinetypeTableRecord
  2
BYLAYER
 70
0
  3

 72
65
 73
0
 40
0.0
  0
LTYPE
  5
16
100
AcDbSymbolTableRecord
100
AcDbLinetypeTableRecord
  2
CONTINUOUS
 70
64
  3
Solid line
 72
65
 73
0
 40
0.0
  0
LTYPE
  5
1F5
100
AcDbSymbolTableRecord
100
AcDbLinetypeTableRecord
  2
CENTER
 70
64
  3
____ _ ____ _ ____ _ ____ _ ____ _ ____ _ ____
 72
65
 73
4
 40
0.6
 49
0.375
 74
0
 49
-0.075
 74
0
 49
0.075
 74
0
 49
-0.075
 74
0
  0
LTYPE
  5
1F6
100
AcDbSymbolTableRecord
100
AcDbLinetypeTableRecord
  2
HIDDEN
 70
64
  3
- - - - - - - - - - - - - - - - - - - -
 72
65
 73
2
 40
0.2
 49
0.1
 74
0
 49
-0.1
 74
0
  0
LTYPE
  5
1F7
100
AcDbSymbolTableRecord
100
AcDbLinetypeTableRecord
  2
PHANTOM
 70
64
  3
_____ _ _ _____ _ _ _____ _ _ _____
 72
65
 73
6
 40
0.8
 49
0.45
 74
0
 49
-0.05
 74
0
 49
0.1
 74
0
 49
-0.05
 74
0
 49
0.1
 74
0
 49
-0.05
 74
0
  0
LTYPE
  5
1F8
100
AcDbSymbolTableRecord
100
AcDbLinetypeTableRecord
  2
DOT
 70
64
  3
. . . . . . . . . . . . . . . . . . . .
 72
65
 73
2
 40
0.2
 49
0.1
 74
0
 49
-0.1
 74
0
  0
LTYPE
  5
1F9
100
AcDbSymbolTableRecord
100
AcDbLinetypeTableRecord
  2
DASHED
 70
64
  3
- - - - - - - - - - - - - - - - - - - -
 72
65
 73
2
 40
0.2
 49
0.1
 74
0
 49
-0.1
 74
0
  0
ENDTAB
  0
TABLE
  2
LAYER
  5
2
100
AcDbSymbolTable
 70
36
  0
LAYER
  5
10
100
AcDbSymbolTableRecord
100
AcDbLayerTableRecord
  2
0
 70
0
 62
7
  6
CONTINUOUS
370
-3
390
F
  0
LAYER
  5
1FA
100
AcDbSymbolTableRecord
100
AcDbLayerTableRecord
  2
DEFAULT_1
 70
0
 62
7
  6
CENTER
370
-3
390
F
  0
LAYER
  5
1FB
100
AcDbSymbolTableRecord
100
AcDbLayerTableRecord
  2
DEFAULT_2
 70
0
 62
7
  6
HIDDEN
370
-3
390
F
  0
LAYER
  5
1FC
100
AcDbSymbolTableRecord
100
AcDbLayerTableRecord
  2
DEFAULT_3
 70
0
 62
7
  6
PHANTOM
370
-3
390
F
  0
LAYER
  5
1FD
100
AcDbSymbolTableRecord
100
AcDbLayerTableRecord
  2
ASSI
 70
0
 62
7
  6
CONTINUOUS
370
-3
390
F
  0
LAYER
  5
1FE
100
AcDbSymbolTableRecord
100
AcDbLayerTableRecord
  2
COORDINATE
 70
0
 62
7
  6
CONTINUOUS
370
-3
390
F
  0
LAYER
  5
1FF
100
AcDbSymbolTableRecord
100
AcDbLayerTableRecord
  2
COORD_ORIGINE
 70
0
 62
7
  6
CONTINUOUS
370
-3
390
F
  0
LAYER
  5
200
100
AcDbSymbolTableRecord
100
AcDbLayerTableRecord
  2
COPY_PUBLISH
 70
0
 62
7
  6
CONTINUOUS
370
-3
390
F
  0
LAYER
  5
201
100
AcDbSymbolTableRecord
100
AcDbLayerTableRecord
  2
COSMETIC
 70
0
 62
7
  6
CONTINUOUS
370
-3
390
F
  0
LAYER
  5
202
100
AcDbSymbolTableRecord
100
AcDbLayerTableRecord
  2
COSMETICI
 70
0
 62
7
  6
CONTINUOUS
370
-3
390
F
  0
LAYER
  5
203
100
AcDbSymbolTableRecord
100
AcDbLayerTableRecord
  2
CURVE
 70
0
 62
7
  6
CONTINUOUS
370
-3
390
F
  0
LAYER
  5
204
100
AcDbSymbolTableRecord
100
AcDbLayerTableRecord
  2
CURVE_TASSELLI
 70
0
 62
7
  6
CONTINUOUS
370
-3
390
F
  0
LAYER
  5
205
100
AcDbSymbolTableRecord
100
AcDbLayerTableRecord
  2
DRAFT
 70
0
 62
7
  6
CONTINUOUS
370
-3
390
F
  0
LAYER
  5
206
100
AcDbSymbolTableRecord
100
AcDbLayerTableRecord
  2
IGES
 70
0
 62
7
  6
CONTINUOUS
370
-3
390
F
  0
LAYER
  5
207
100
AcDbSymbolTableRecord
100
AcDbLayerTableRecord
  2
IMPORT_IGES
 70
0
 62
7
  6
CONTINUOUS
370
-3
390
F
  0
LAYER
  5
208
100
AcDbSymbolTableRecord
100
AcDbLayerTableRecord
  2
INTFCLR_2
 70
0
 62
7
  6
CONTINUOUS
370
-3
390
F
  0
LAYER
  5
209
100
AcDbSymbolTableRecord
100
AcDbLayerTableRecord
  2
NOTE
 70
0
 62
7
  6
CONTINUOUS
370
-3
390
F
  0
LAYER
  5
20A
100
AcDbSymbolTableRecord
100
AcDbLayerTableRecord
  2
PIANI
 70
0
 62
7
  6
CONTINUOUS
370
-3
390
F
  0
LAYER
  5
20B
100
AcDbSymbolTableRecord
100
AcDbLayerTableRecord
  2
PIANI_ORIGINE
 70
0
 62
7
  6
CONTINUOUS
370
-3
390
F
  0
LAYER
  5
20C
100
AcDbSymbolTableRecord
100
AcDbLayerTableRecord
  2
PUNTI
 70
0
 62
7
  6
CONTINUOUS
370
-3
390
F
  0
LAYER
  5
20D
100
AcDbSymbolTableRecord
100
AcDbLayerTableRecord
  2
RACCORDO
 70
0
 62
7
  6
CONTINUOUS
370
-3
390
F
  0
LAYER
  5
20E
100
AcDbSymbolTableRecord
100
AcDbLayerTableRecord
  2
SIMBOLI
 70
0
 62
7
  6
CONTINUOUS
370
-3
390
F
  0
LAYER
  5
20F
100
AcDbSymbolTableRecord
100
AcDbLayerTableRecord
  2
SMUSSO
 70
0
 62
7
  6
CONTINUOUS
370
-3
390
F
  0
LAYER
  5
210
100
AcDbSymbolTableRecord
100
AcDbLayerTableRecord
  2
SNAPLINE
 70
0
 62
7
  6
CONTINUOUS
370
-3
390
F
  0
LAYER
  5
211
100
AcDbSymbolTableRecord
100
AcDbLayerTableRecord
  2
SUPERFICI
 70
0
 62
7
  6
CONTINUOUS
370
-3
390
F
  0
LAYER
  5
212
100
AcDbSymbolTableRecord
100
AcDbLayerTableRecord
  2
TRASH
 70
0
 62
7
  6
CONTINUOUS
370
-3
390
F
  0
LAYER
  5
213
100
AcDbSymbolTableRecord
100
AcDbLayerTableRecord
  2
XSEC_DATUMS
 70
0
 62
7
  6
CONTINUOUS
370
-3
390
F
  0
ENDTAB
  0
TABLE
  2
STYLE
  5
3
100
AcDbSymbolTable
 70
1
  0
STYLE
  5
11
100
AcDbSymbolTableRecord
100
AcDbTextStyleTableRecord
  2
STANDARD
 70
0
 40
0.0
 41
0.8
 50
0.0
 71
0
 42
0.2
  3
txt
  4

  0
STYLE
  5
214
100
AcDbSymbolTableRecord
100
AcDbTextStyleTableRecord
  2
TEXTSTYLE_1
 70
0
 40
0.0
 41
0.8
 50
0.0
 71
0
 42
0.2
  3
gdt
  4

  0
ENDTAB
  0
TABLE
  2
VIEW
  5
6
100
AcDbSymbolTable
 70
0
  0
ENDTAB
  0
TABLE
  2
UCS
  5
7
100
AcDbSymbolTable
 70
0
  0
ENDTAB
  0
TABLE
  2
APPID
  5
9
100
AcDbSymbolTable
 70
1
  0
APPID
  5
215
100
AcDbSymbolTableRecord
100
AcDbRegAppTableRecord
  2
ACAD
 70
0
  0
ENDTAB
  0
TABLE
  2
BLOCK_RECORD
  5
1
100
AcDbSymbolTable
 70
0
  0
BLOCK_RECORD
  5
216
100
AcDbSymbolTableRecord
100
AcDbBlockTableRecord
  2
*Model_Space
  0
BLOCK_RECORD
  5
217
100
AcDbSymbolTableRecord
100
AcDbBlockTableRecord
  2
*Paper_Space
  0
BLOCK_RECORD
  5
218
100
AcDbSymbolTableRecord
100
AcDbBlockTableRecord
  2
_FILLED
  0
BLOCK_RECORD
  5
219
100
AcDbSymbolTableRecord
100
AcDbBlockTableRecord
  2
*D0
  0
BLOCK_RECORD
  5
21A
100
AcDbSymbolTableRecord
100
AcDbBlockTableRecord
  2
*D1
  0
BLOCK_RECORD
  5
21B
100
AcDbSymbolTableRecord
100
AcDbBlockTableRecord
  2
*D2
  0
ENDTAB
  0
TABLE
  2
DIMSTYLE
  5
A
100
AcDbSymbolTable
 70
1
100
AcDbDimStyleTable
 71
0
  0
DIMSTYLE
105
21C
100
AcDbSymbolTableRecord
100
AcDbDimStyleTableRecord
  2
STANDARD
 70
0
  3

  4

 40
1.0
 41
3.0
 42
0.0625
 43
0.38
 44
0.18
 45
0.0
 46
0.0
 47
0.01
 48
0.01
140
3.0
141
0.09
142
0.0
143
25.4
144
1.0
145
0.0
146
1.0
147
0.09
 71
1.0
 72
0.0
 73
0
 74
0
 75
0
 76
0
 77
1
 78
8
170
0
171
2
172
0
173
0
174
0
175
0
176
0
177
0
178
0
270
2
271
2
272
2
273
2
274
2
275
0
280
0
281
0
282
0
283
1
284
8
285
0
286
0
287
3
288
0
340
11
341
218
342
218
343
218
344
218
  0
DIMSTYLE
105
21D
100
AcDbSymbolTableRecord
100
AcDbDimStyleTableRecord
  2
DIMSTYLE_1
 70
0
  3

  4

 40
1.0
 41
3.0
 42
0.0625
 43
0.38
 44
0.18
 45
0.0
 46
0.0
 47
0.0
 48
0.0
140
3.0
141
0.09
142
0.0
143
25.4
144
1.0
145
0.0
146
1.0
147
0.09
 71
0.0
 72
0.0
 73
0
 74
0
 75
0
 76
0
 77
1
 78
8
170
0
171
2
172
0
173
0
174
0
175
0
176
0
177
0
178
0
270
2
271
2
272
2
273
2
274
2
275
0
280
0
281
0
282
0
283
1
284
8
285
0
286
0
287
3
288
0
340
11
341
218
342
218
343
218
344
218
  0
DIMSTYLE
105
21E
100
AcDbSymbolTableRecord
100
AcDbDimStyleTableRecord
  2
DIMSTYLE_2
 70
0
  3

  4

 40
1.0
 41
3.0
 42
0.0625
 43
0.38
 44
0.18
 45
0.0
 46
0.0
 47
0.0
 48
0.0
140
3.0
141
0.09
142
0.0
143
25.4
144
1.0
145
0.0
146
1.0
147
0.09
 71
0.0
 72
0.0
 73
0
 74
0
 75
0
 76
0
 77
1
 78
8
170
0
171
2
172
0
173
0
174
0
175
0
176
0
177
0
178
0
270
2
271
1
272
1
273
2
274
2
275
0
280
0
281
0
282
0
283
1
284
8
285
0
286
0
287
3
288
0
340
11
341
218
342
218
343
218
344
218
  0
ENDTAB
  0
ENDSEC
  0
SECTION
  2
BLOCKS
  0
BLOCK
  5
20
100
AcDbEntity
  8
0
100
AcDbBlockBegin
  2
*Model_Space
 70
0
 10
0.0
 20
0.0
 30
0.0
  3
*Model_Space
  1

  0
ENDBLK
  5
21
100
AcDbEntity
  8
0
100
AcDbBlockEnd
  0
BLOCK
  5
1C
100
AcDbEntity
  8
0
100
AcDbBlockBegin
  2
*Paper_Space
 70
0
 10
0.0
 20
0.0
 30
0.0
  3
*Paper_Space
  1

  0
ENDBLK
  5
1D
100
AcDbEntity
  8
0
100
AcDbBlockEnd
  0
BLOCK
  5
21F
100
AcDbEntity
  8
0
100
AcDbBlockBegin
  2
_FILLED
 70
64
 10
0.0
 20
0.0
  3
_FILLED
  1

  0
SOLID
  5
220
100
AcDbEntity
  8
0
  6
BYBLOCK
 62
0
100
AcDbTrace
 10
0.0
 20
0.0
 11
-1.0
 21
0.3166666667
 12
-1.0
 22
-0.3166666667
 13
-1.0
 23
-0.3166666667
  0
ENDBLK
  5
221
100
AcDbEntity
  8
0
  6
BYBLOCK
 62
0
100
AcDbBlockEnd
  0
BLOCK
  5
222
100
AcDbEntity
  8
0
100
AcDbBlockBegin
 62
7
  6
CONTINUOUS
  2
*D0
 70
65
 10
0.0
 20
0.0
  3
*D0
  1

  0
MTEXT
  5
223
100
AcDbEntity
  8
0
100
AcDbMText
 62
7
  6
CONTINUOUS
  7
STANDARD
 71
2
 72
1
 10
32.1081081081
 20
88.5137214137
 30
0.0
 11
1.0
 21
0.0
 31
0.0
 44
0.9
  1
154,7
 40
3.0
 41
10.2857142857
  0
LINE
  5
224
100
AcDbEntity
  8
0
100
AcDbLine
 62
7
  6
CONTINUOUS
 10
109.4581081081
 20
76.2637214139
 11
109.4581081081
 21
86.2637214137
  0
LINE
  5
225
100
AcDbEntity
  8
0
100
AcDbLine
 62
7
  6
CONTINUOUS
 10
-45.2418918919
 20
76.2637214137
 11
-45.2418918919
 21
86.2637214137
  0
LINE
  5
226
100
AcDbEntity
  8
0
100
AcDbLine
 62
7
  6
CONTINUOUS
 10
109.4581081081
 20
84.7637214137
 11
32.1081081081
 21
84.7637214137
  0
LINE
  5
227
100
AcDbEntity
  8
0
100
AcDbLine
 62
7
  6
CONTINUOUS
 10
-45.2418918919
 20
84.7637214137
 11
32.1081081081
 21
84.7637214137
  0
INSERT
  5
228
100
AcDbEntity
  8
0
100
AcDbBlockReference
 62
7
  6
CONTINUOUS
  2
_FILLED
 10
109.4581081081
 20
84.7637214137
 41
3.0
 42
3.0
 43
3.0
 50
0.0
  0
INSERT
  5
229
100
AcDbEntity
  8
0
100
AcDbBlockReference
 62
7
  6
CONTINUOUS
  2
_FILLED
 10
-45.2418918919
 20
84.7637214137
 41
3.0
 42
3.0
 43
3.0
 50
180.0
  0
ENDBLK
  5
22A
100
AcDbEntity
  8
0
  6
BYBLOCK
 62
0
100
AcDbBlockEnd
  0
BLOCK
  5
22B
100
AcDbEntity
  8
0
100
AcDbBlockBegin
 62
7
  6
CONTINUOUS
  2
*D1
 70
65
 10
0.0
 20
0.0
  3
*D1
  1

  0
MTEXT
  5
22C
100
AcDbEntity
  8
0
100
AcDbMText
 62
7
  6
CONTINUOUS
  7
STANDARD
 71
2
 72
1
 10
113.7081081081
 20
-0.5862785863
 30
0.0
 11
0.0
 21
1.0
 31
0.0
 44
0.9
  1
154,7
 40
3.0
 41
10.2857142857
  0
LINE
  5
22D
100
AcDbEntity
  8
0
100
AcDbLine
 62
7
  6
CONTINUOUS
 10
108.9581081081
 20
76.7637214137
 11
118.9581081081
 21
76.7637214137
  0
LINE
  5
22E
100
AcDbEntity
  8
0
100
AcDbLine
 62
7
  6
CONTINUOUS
 10
108.9581081083
 20
-77.9362785863
 11
118.9581081081
 21
-77.9362785863
  0
LINE
  5
22F
100
AcDbEntity
  8
0
100
AcDbLine
 62
7
  6
CONTINUOUS
 10
117.4581081081
 20
76.7637214137
 11
117.4581081081
 21
-0.5862785863
  0
LINE
  5
230
100
AcDbEntity
  8
0
100
AcDbLine
 62
7
  6
CONTINUOUS
 10
117.4581081081
 20
-77.9362785863
 11
117.4581081081
 21
-0.5862785863
  0
INSERT
  5
231
100
AcDbEntity
  8
0
100
AcDbBlockReference
 62
7
  6
CONTINUOUS
  2
_FILLED
 10
117.4581081081
 20
76.7637214137
 41
3.0
 42
3.0
 43
3.0
 50
90.0
  0
INSERT
  5
232
100
AcDbEntity
  8
0
100
AcDbBlockReference
 62
7
  6
CONTINUOUS
  2
_FILLED
 10
117.4581081081
 20
-77.9362785863
 41
3.0
 42
3.0
 43
3.0
 50
270.0
  0
ENDBLK
  5
233
100
AcDbEntity
  8
0
  6
BYBLOCK
 62
0
100
AcDbBlockEnd
  0
BLOCK
  5
234
100
AcDbEntity
  8
0
100
AcDbBlockBegin
 62
7
  6
CONTINUOUS
  2
*D2
 70
65
 10
0.0
 20
0.0
  3
*D2
  1

  0
MTEXT
  5
235
100
AcDbEntity
  8
0
100
AcDbMText
 62
7
  6
CONTINUOUS
  7
STANDARD
 71
2
 72
1
 10
-81.5823804574
 20
88.5137214137
 30
0.0
 11
1.0
 21
0.0
 31
0.0
 44
0.9
  1
10,5
 40
3.0
 41
7.9285714286
  0
LINE
  5
236
100
AcDbEntity
  8
0
100
AcDbLine
 62
7
  6
CONTINUOUS
 10
-86.8073804574
 20
61.0189731567
 11
-86.8073804574
 21
86.2637214137
  0
LINE
  5
237
100
AcDbEntity
  8
0
100
AcDbLine
 62
7
  6
CONTINUOUS
 10
-76.3573804574
 20
72.8908962836
 11
-76.3573804574
 21
86.2637214137
  0
LINE
  5
238
100
AcDbEntity
  8
0
100
AcDbLine
 62
7
  6
CONTINUOUS
 10
-86.8073804574
 20
84.7637214137
 11
-90.8073804574
 21
84.7637214137
  0
LINE
  5
239
100
AcDbEntity
  8
0
100
AcDbLine
 62
7
  6
CONTINUOUS
 10
-90.8073804574
 20
84.7637214137
 11
-81.5823804574
 21
84.7637214137
  0
LINE
  5
23A
100
AcDbEntity
  8
0
100
AcDbLine
 62
7
  6
CONTINUOUS
 10
-76.3573804574
 20
84.7637214137
 11
-72.3573804574
 21
84.7637214137
  0
LINE
  5
23B
100
AcDbEntity
  8
0
100
AcDbLine
 62
7
  6
CONTINUOUS
 10
-72.3573804574
 20
84.7637214137
 11
-81.5823804574
 21
84.7637214137
  0
INSERT
  5
23C
100
AcDbEntity
  8
0
100
AcDbBlockReference
 62
7
  6
CONTINUOUS
  2
_FILLED
 10
-86.8073804574
 20
84.7637214137
 41
3.0
 42
3.0
 43
3.0
  0
INSERT
  5
23D
100
AcDbEntity
  8
0
100
AcDbBlockReference
 62
7
  6
CONTINUOUS
  2
_FILLED
 10
-76.3573804574
 20
84.7637214137
 41
3.0
 42
3.0
 43
3.0
 50
180.0
  0
ENDBLK
  5
23E
100
AcDbEntity
  8
0
  6
BYBLOCK
 62
0
100
AcDbBlockEnd
  0
ENDSEC
  0
SECTION
  2
ENTITIES
  0
DIMENSION
  5
23F
100
AcDbEntity
  8
0
100
AcDbDimension
 62
7
  6
CONTINUOUS
  2
*D0
 10
-45.2418918919
 20
84.7637214137
 11
26.9652509653
 21
87.0137214137
 70
160
 71
2
 42
154.7
  3
DIMSTYLE_1
100
AcDbAlignedDimension
 13
109.4581081081
 23
76.2637214139
 14
-45.2418918919
 24
76.2637214137
 50
180.0
100
AcDbRotatedDimension
  0
DIMENSION
  5
240
100
AcDbEntity
  8
0
100
AcDbDimension
 62
7
  6
CONTINUOUS
  2
*D1
 10
117.4581081081
 20
-77.9362785863
 11
117.5124867053
 21
-5.1839757134
 70
160
 71
2
 42
154.7
  3
DIMSTYLE_1
100
AcDbAlignedDimension
 13
108.9581081081
 23
76.7637214137
 14
108.9581081083
 24
-77.9362785863
 50
270.0
100
AcDbRotatedDimension
  0
DIMENSION
  5
241
100
AcDbEntity
  8
0
100
AcDbDimension
 62
7
  6
CONTINUOUS
  2
*D2
 10
-76.3573804574
 20
84.7637214137
 11
-85.5466661717
 21
87.0137214137
 70
160
 71
2
 42
10.45
  3
DIMSTYLE_2
100
AcDbAlignedDimension
 13
-86.8073804574
 23
61.0189731567
 14
-76.3573804574
 24
72.8908962836
100
AcDbRotatedDimension
  0
LINE
  5
242
100
AcDbEntity
  8
RACCORDO
100
AcDbLine
 62
7
  6
CONTINUOUS
 10
-45.2418918919
 20
75.7637214137
 11
-45.2418918919
 21
-76.9362785863
  0
LINE
  5
243
100
AcDbEntity
  8
RACCORDO
100
AcDbLine
 62
253
  6
CONTINUOUS
 10
-44.7418918919
 20
75.7637214137
 11
-44.7418918919
 21
-76.9362785863
  0
LINE
  5
244
100
AcDbEntity
  8
RACCORDO
100
AcDbLine
 62
253
  6
CONTINUOUS
 10
-44.2418918919
 20
-77.4362785863
 11
-44.2418918919
 21
-77.9362785863
  0
LINE
  5
245
100
AcDbEntity
  8
RACCORDO
100
AcDbLine
 62
253
  6
CONTINUOUS
 10
-44.2418918919
 20
76.2637214137
 11
-44.2418918921
 21
76.7637214137
  0
LINE
  5
246
100
AcDbEntity
  8
RACCORDO
100
AcDbLine
 62
7
  6
CONTINUOUS
 10
-44.2418918919
 20
-77.9362785863
 11
108.4581081081
 21
-77.9362785863
  0
LINE
  5
247
100
AcDbEntity
  8
RACCORDO
100
AcDbLine
 62
253
  6
CONTINUOUS
 10
-44.2418918919
 20
-77.4362785863
 11
108.4581081081
 21
-77.4362785863
  0
LINE
  5
248
100
AcDbEntity
  8
RACCORDO
100
AcDbLine
 62
253
  6
CONTINUOUS
 10
-44.7418918919
 20
-76.9362785863
 11
-45.2418918919
 21
-76.9362785864
  0
LINE
  5
249
100
AcDbEntity
  8
RACCORDO
100
AcDbLine
 62
253
  6
CONTINUOUS
 10
108.9581081081
 20
-76.9362785863
 11
109.4581081081
 21
-76.9362785863
  0
LINE
  5
24A
100
AcDbEntity
  8
RACCORDO
100
AcDbLine
 62
7
  6
CONTINUOUS
 10
-16.0952364533
 20
-62.4395165343
 11
80.3114526695
 21
-62.4395165343
  0
LINE
  5
24B
100
AcDbEntity
  8
RACCORDO
100
AcDbLine
 62
253
  6
CONTINUOUS
 10
-16.047134214
 20
-62.391414295
 11
80.2633598511
 21
-62.3914237159
  0
LINE
  5
24C
100
AcDbEntity
  8
RACCORDO
100
AcDbLine
 62
253
  6
CONTINUOUS
 10
-16.047143634
 20
-62.0914694074
 11
80.2633598511
 21
-62.0914694073
  0
LINE
  5
24D
100
AcDbEntity
  8
RACCORDO
100
AcDbLine
 62
253
  6
CONTINUOUS
 10
80.9632433313
 20
-61.6915303292
 11
80.6632989293
 21
-61.6915303293
  0
LINE
  5
24E
100
AcDbEntity
  8
RACCORDO
100
AcDbLine
 62
253
  6
CONTINUOUS
 10
-16.7470370215
 20
-61.6915303289
 11
-16.447082713
 21
-61.6915303293
  0
LINE
  5
24F
100
AcDbEntity
  8
RACCORDO
100
AcDbLine
 62
253
  6
CONTINUOUS
 10
-13.4463820698
 20
-59.67032426
 11
77.662598286
 21
-59.67032426
  0
LINE
  5
250
100
AcDbEntity
  8
RACCORDO
100
AcDbLine
 62
253
  6
CONTINUOUS
 10
-13.4463820698
 20
-59.3805465121
 11
77.662598286
 21
-59.3805465121
  0
LINE
  5
251
100
AcDbEntity
  8
RACCORDO
100
AcDbLine
 62
253
  6
CONTINUOUS
 10
78.2421537818
 20
-59.0907687642
 11
77.952376032
 21
-59.0907687642
  0
LINE
  5
252
100
AcDbEntity
  8
RACCORDO
100
AcDbLine
 62
253
  6
CONTINUOUS
 10
-13.7361598266
 20
-59.0907687642
 11
-14.0259375656
 21
-59.0907687642
  0
LINE
  5
253
100
AcDbEntity
  8
RACCORDO
100
AcDbLine
 62
253
  6
CONTINUOUS
 10
-12.6908661403
 20
-58.6521680777
 11
76.9070823565
 21
-58.6521680777
  0
LINE
  5
254
100
AcDbEntity
  8
RACCORDO
100
AcDbLine
 62
253
  6
CONTINUOUS
 10
-12.6908661403
 20
-58.6352071432
 11
76.9070823565
 21
-58.6352071432
  0
LINE
  5
255
100
AcDbEntity
  8
RACCORDO
100
AcDbLine
 62
7
  6
CONTINUOUS
 10
76.8985535139
 20
-58.6266783006
 11
-12.6823372976
 21
-58.6266783006
  0
LINE
  5
256
100
AcDbEntity
  8
RACCORDO
100
AcDbLine
 62
253
  6
CONTINUOUS
 10
-12.9908204489
 20
-58.3352528347
 11
-13.0077813833
 21
-58.3352528343
  0
LINE
  5
257
100
AcDbEntity
  8
RACCORDO
100
AcDbLine
 62
253
  6
CONTINUOUS
 10
77.2070366651
 20
-58.3352528347
 11
77.2239975995
 21
-58.3352528347
  0
LINE
  5
258
100
AcDbEntity
  8
RACCORDO
100
AcDbLine
 62
7
  6
CONTINUOUS
 10
-16.7951298399
 20
60.5670659751
 11
-16.7951298399
 21
-61.7396231477
  0
LINE
  5
259
100
AcDbEntity
  8
RACCORDO
100
AcDbLine
 62
253
  6
CONTINUOUS
 10
-16.7470276006
 20
60.5189637359
 11
-16.7470370215
 21
-61.6915303293
  0
LINE
  5
25A
100
AcDbEntity
  8
RACCORDO
100
AcDbLine
 62
253
  6
CONTINUOUS
 10
-16.447082713
 20
60.5234800117
 11
-16.447082713
 21
-61.6915303293
  0
LINE
  5
25B
100
AcDbEntity
  8
RACCORDO
100
AcDbLine
 62
253
  6
CONTINUOUS
 10
-16.0471436345
 20
61.2188665433
 11
-16.0471436349
 21
60.9189122348
  0
LINE
  5
25C
100
AcDbEntity
  8
RACCORDO
100
AcDbLine
 62
253
  6
CONTINUOUS
 10
-16.0471436348
 20
-62.3914138095
 11
-16.0471436349
 21
-62.0914694074
  0
LINE
  5
25D
100
AcDbEntity
  8
RACCORDO
100
AcDbLine
 62
253
  6
CONTINUOUS
 10
-14.0259375656
 20
-59.0907687642
 11
-14.0259375656
 21
57.9182115916
  0
LINE
  5
25E
100
AcDbEntity
  8
RACCORDO
100
AcDbLine
 62
253
  6
CONTINUOUS
 10
-13.7361598177
 20
-59.0907687642
 11
-13.7361598177
 21
57.9182115916
  0
LINE
  5
25F
100
AcDbEntity
  8
RACCORDO
100
AcDbLine
 62
253
  6
CONTINUOUS
 10
-13.4463820698
 20
-59.67032426
 11
-13.4463820698
 21
-59.3805465102
  0
LINE
  5
260
100
AcDbEntity
  8
RACCORDO
100
AcDbLine
 62
253
  6
CONTINUOUS
 10
-13.4463820698
 20
58.2079893374
 11
-13.4463820698
 21
58.4977670874
  0
LINE
  5
261
100
AcDbEntity
  8
RACCORDO
100
AcDbLine
 62
253
  6
CONTINUOUS
 10
-13.0077813833
 20
57.1626956621
 11
-13.0077813833
 21
-58.3352528347
  0
LINE
  5
262
100
AcDbEntity
  8
RACCORDO
100
AcDbLine
 62
253
  6
CONTINUOUS
 10
-12.9908204489
 20
57.1626956621
 11
-12.9908204489
 21
-58.3352528347
  0
LINE
  5
263
100
AcDbEntity
  8
RACCORDO
100
AcDbLine
 62
7
  6
CONTINUOUS
 10
-12.9822916062
 20
-58.326723992
 11
-12.9822916062
 21
57.1541668195
  0
LINE
  5
264
100
AcDbEntity
  8
RACCORDO
100
AcDbLine
 62
253
  6
CONTINUOUS
 10
-12.6908661403
 20
-58.6352071432
 11
-12.6908661403
 21
-58.6521680777
  0
LINE
  5
265
100
AcDbEntity
  8
RACCORDO
100
AcDbLine
 62
253
  6
CONTINUOUS
 10
-12.6908661403
 20
57.4626499707
 11
-12.6908661403
 21
57.4796109051
  0
LINE
  5
266
100
AcDbEntity
  8
RACCORDO
100
AcDbLine
 62
253
  6
CONTINUOUS
 10
80.2633504303
 20
61.2188571225
 11
80.3114526695
 21
61.2669593618
  0
LINE
  5
267
100
AcDbEntity
  8
RACCORDO
100
AcDbLine
 62
253
  6
CONTINUOUS
 10
76.9070823565
 20
57.4626499707
 11
76.8985535139
 21
57.454121128
  0
LINE
  5
268
100
AcDbEntity
  8
RACCORDO
100
AcDbLine
 62
253
  6
CONTINUOUS
 10
77.662598286
 20
58.2079893395
 11
76.9337725968
 21
57.479133748
  0
LINE
  5
269
100
AcDbEntity
  8
RACCORDO
100
AcDbLine
 62
253
  6
CONTINUOUS
 10
77.9523760339
 20
57.9182115916
 11
77.2235209465
 21
57.1893668268
  0
LINE
  5
26A
100
AcDbEntity
  8
RACCORDO
100
AcDbLine
 62
253
  6
CONTINUOUS
 10
77.2070366651
 20
57.1626956621
 11
77.1985078224
 21
57.1541668195
  0
LINE
  5
26B
100
AcDbEntity
  8
RACCORDO
100
AcDbLine
 62
253
  6
CONTINUOUS
 10
80.9632532377
 20
60.5189731567
 11
81.0113460561
 21
60.5670659751
  0
LINE
  5
26C
100
AcDbEntity
  8
RACCORDO
100
AcDbLine
 62
253
  6
CONTINUOUS
 10
80.2633598511
 20
-62.3914237159
 11
80.3114526695
 21
-62.4395165343
  0
LINE
  5
26D
100
AcDbEntity
  8
RACCORDO
100
AcDbLine
 62
253
  6
CONTINUOUS
 10
76.9070823565
 20
-58.6352071432
 11
76.8985535139
 21
-58.6266783006
  0
LINE
  5
26E
100
AcDbEntity
  8
RACCORDO
100
AcDbLine
 62
253
  6
CONTINUOUS
 10
77.662598286
 20
-59.3805465121
 11
76.9337535212
 21
-58.6516914247
  0
LINE
  5
26F
100
AcDbEntity
  8
RACCORDO
100
AcDbLine
 62
253
  6
CONTINUOUS
 10
77.9523760339
 20
-59.0907687642
 11
77.2235204424
 21
-58.361943075
  0
LINE
  5
270
100
AcDbEntity
  8
RACCORDO
100
AcDbLine
 62
253
  6
CONTINUOUS
 10
77.2070366651
 20
-58.3352528347
 11
77.1985078224
 21
-58.326723992
  0
LINE
  5
271
100
AcDbEntity
  8
RACCORDO
100
AcDbLine
 62
253
  6
CONTINUOUS
 10
80.9632438169
 20
-61.6915209084
 11
81.0113460561
 21
-61.7396231477
  0
LINE
  5
272
100
AcDbEntity
  8
RACCORDO
100
AcDbLine
 62
253
  6
CONTINUOUS
 10
-16.7470370215
 20
-61.6915303293
 11
-16.7951298399
 21
-61.7396231477
  0
LINE
  5
273
100
AcDbEntity
  8
RACCORDO
100
AcDbLine
 62
253
  6
CONTINUOUS
 10
-12.9908204489
 20
-58.3352528347
 11
-12.9822916062
 21
-58.326723992
  0
LINE
  5
274
100
AcDbEntity
  8
RACCORDO
100
AcDbLine
 62
253
  6
CONTINUOUS
 10
-13.7361598177
 20
-59.0907687642
 11
-13.0073047303
 21
-58.3619239993
  0
LINE
  5
275
100
AcDbEntity
  8
RACCORDO
100
AcDbLine
 62
253
  6
CONTINUOUS
 10
-13.4463820698
 20
-59.3805465121
 11
-12.7175563806
 21
-58.6516909205
  0
LINE
  5
276
100
AcDbEntity
  8
RACCORDO
100
AcDbLine
 62
253
  6
CONTINUOUS
 10
-12.6908661403
 20
-58.6352071432
 11
-12.6823372976
 21
-58.6266783006
  0
LINE
  5
277
100
AcDbEntity
  8
RACCORDO
100
AcDbLine
 62
253
  6
CONTINUOUS
 10
-16.047134214
 20
-62.391414295
 11
-16.0952364533
 21
-62.4395165343
  0
LINE
  5
278
100
AcDbEntity
  8
RACCORDO
100
AcDbLine
 62
253
  6
CONTINUOUS
 10
-16.7470276006
 20
60.5189637359
 11
-16.7951298399
 21
60.5670659751
  0
LINE
  5
279
100
AcDbEntity
  8
RACCORDO
100
AcDbLine
 62
253
  6
CONTINUOUS
 10
-12.9822916062
 20
57.1541668195
 11
-12.9908204489
 21
57.1626956621
  0
LINE
  5
27A
100
AcDbEntity
  8
RACCORDO
100
AcDbLine
 62
253
  6
CONTINUOUS
 10
-13.0073047249
 20
57.1893669059
 11
-13.7361598177
 21
57.9182115916
  0
LINE
  5
27B
100
AcDbEntity
  8
RACCORDO
100
AcDbLine
 62
253
  6
CONTINUOUS
 10
-12.7175853799
 20
57.4791329767
 11
-13.4463820698
 21
58.2079893395
  0
LINE
  5
27C
100
AcDbEntity
  8
RACCORDO
100
AcDbLine
 62
253
  6
CONTINUOUS
 10
-12.6823372976
 20
57.454121128
 11
-12.6908661403
 21
57.4626499707
  0
LINE
  5
27D
100
AcDbEntity
  8
RACCORDO
100
AcDbLine
 62
253
  6
CONTINUOUS
 10
-16.0471436349
 20
61.2188665433
 11
-16.0952364533
 21
61.2669593618
  0
LINE
  5
27E
100
AcDbEntity
  8
RACCORDO
100
AcDbLine
 62
253
  6
CONTINUOUS
 10
76.9070823565
 20
-58.6352071432
 11
76.9070823562
 21
-58.6521680777
  0
LINE
  5
27F
100
AcDbEntity
  8
RACCORDO
100
AcDbLine
 62
253
  6
CONTINUOUS
 10
76.9070823565
 20
57.4626499707
 11
76.9070823565
 21
57.4796109051
  0
LINE
  5
280
100
AcDbEntity
  8
RACCORDO
100
AcDbLine
 62
7
  6
CONTINUOUS
 10
77.1985078224
 20
57.1541668195
 11
77.1985078224
 21
-58.326723992
  0
LINE
  5
281
100
AcDbEntity
  8
RACCORDO
100
AcDbLine
 62
253
  6
CONTINUOUS
 10
77.2070366651
 20
-58.3352528347
 11
77.2070366651
 21
57.1626956621
  0
LINE
  5
282
100
AcDbEntity
  8
RACCORDO
100
AcDbLine
 62
253
  6
CONTINUOUS
 10
77.2239975995
 20
-58.3352528347
 11
77.2239975995
 21
57.1626956621
  0
LINE
  5
283
100
AcDbEntity
  8
RACCORDO
100
AcDbLine
 62
253
  6
CONTINUOUS
 10
77.662598286
 20
58.4977670874
 11
77.662598286
 21
58.2079893376
  0
LINE
  5
284
100
AcDbEntity
  8
RACCORDO
100
AcDbLine
 62
253
  6
CONTINUOUS
 10
77.662598286
 20
-59.380546521
 11
77.662598286
 21
-59.67032426
  0
LINE
  5
285
100
AcDbEntity
  8
RACCORDO
100
AcDbLine
 62
253
  6
CONTINUOUS
 10
77.9523760339
 20
57.9182115916
 11
77.9523760339
 21
-59.0907687642
  0
LINE
  5
286
100
AcDbEntity
  8
RACCORDO
100
AcDbLine
 62
253
  6
CONTINUOUS
 10
78.2421537818
 20
57.9182115916
 11
78.2421537818
 21
-59.0907687642
  0
LINE
  5
287
100
AcDbEntity
  8
RACCORDO
100
AcDbLine
 62
253
  6
CONTINUOUS
 10
80.263359851
 20
61.2188566369
 11
80.2633598511
 21
60.9189122349
  0
LINE
  5
288
100
AcDbEntity
  8
RACCORDO
100
AcDbLine
 62
253
  6
CONTINUOUS
 10
80.2633598507
 20
-62.3914237159
 11
80.2633598511
 21
-62.0914694073
  0
LINE
  5
289
100
AcDbEntity
  8
RACCORDO
100
AcDbLine
 62
253
  6
CONTINUOUS
 10
80.6632989293
 20
-61.6915303284
 11
80.6632989292
 21
60.5189731567
  0
LINE
  5
28A
100
AcDbEntity
  8
RACCORDO
100
AcDbLine
 62
253
  6
CONTINUOUS
 10
80.9632438169
 20
-61.6915209084
 11
80.9632532377
 21
60.5189731567
  0
LINE
  5
28B
100
AcDbEntity
  8
RACCORDO
100
AcDbLine
 62
7
  6
CONTINUOUS
 10
81.0113460561
 20
-61.7396231477
 11
81.0113460561
 21
60.5670659751
  0
LINE
  5
28C
100
AcDbEntity
  8
RACCORDO
100
AcDbLine
 62
253
  6
CONTINUOUS
 10
-12.9908204489
 20
57.1626956621
 11
-13.0077813833
 21
57.1626956621
  0
LINE
  5
28D
100
AcDbEntity
  8
RACCORDO
100
AcDbLine
 62
253
  6
CONTINUOUS
 10
77.2070366651
 20
57.1626956621
 11
77.2239975995
 21
57.1626956618
  0
LINE
  5
28E
100
AcDbEntity
  8
RACCORDO
100
AcDbLine
 62
7
  6
CONTINUOUS
 10
-12.6823372976
 20
57.454121128
 11
76.8985535139
 21
57.454121128
  0
LINE
  5
28F
100
AcDbEntity
  8
RACCORDO
100
AcDbLine
 62
253
  6
CONTINUOUS
 10
76.9070823565
 20
57.4626499707
 11
-12.6908661403
 21
57.4626499707
  0
LINE
  5
290
100
AcDbEntity
  8
RACCORDO
100
AcDbLine
 62
253
  6
CONTINUOUS
 10
76.9070823565
 20
57.4796109051
 11
-12.6908661403
 21
57.4796109051
  0
LINE
  5
291
100
AcDbEntity
  8
RACCORDO
100
AcDbLine
 62
253
  6
CONTINUOUS
 10
-14.0259375656
 20
57.9182115916
 11
-13.7361598267
 21
57.9182115916
  0
LINE
  5
292
100
AcDbEntity
  8
RACCORDO
100
AcDbLine
 62
253
  6
CONTINUOUS
 10
77.9523760428
 20
57.9182115916
 11
78.2421537818
 21
57.9182115916
  0
LINE
  5
293
100
AcDbEntity
  8
RACCORDO
100
AcDbLine
 62
253
  6
CONTINUOUS
 10
77.662598286
 20
58.2079893395
 11
-13.4463820698
 21
58.2079893395
  0
LINE
  5
294
100
AcDbEntity
  8
RACCORDO
100
AcDbLine
 62
253
  6
CONTINUOUS
 10
77.662598286
 20
58.4977670874
 11
-13.4463820698
 21
58.4977670874
  0
LINE
  5
295
100
AcDbEntity
  8
RACCORDO
100
AcDbLine
 62
253
  6
CONTINUOUS
 10
80.9632532377
 20
60.5189731563
 11
80.6632989292
 21
60.5189731567
  0
LINE
  5
296
100
AcDbEntity
  8
RACCORDO
100
AcDbLine
 62
253
  6
CONTINUOUS
 10
-16.7470271151
 20
60.5189731566
 11
-16.447082713
 21
60.5189731567
  0
LINE
  5
297
100
AcDbEntity
  8
RACCORDO
100
AcDbLine
 62
253
  6
CONTINUOUS
 10
80.2678667051
 20
60.9189122349
 11
-16.0471436349
 21
60.9189122348
  0
LINE
  5
298
100
AcDbEntity
  8
RACCORDO
100
AcDbLine
 62
253
  6
CONTINUOUS
 10
80.2633504303
 20
61.2188571225
 11
-16.0471436349
 21
61.2188665433
  0
LINE
  5
299
100
AcDbEntity
  8
RACCORDO
100
AcDbLine
 62
7
  6
CONTINUOUS
 10
80.3114526695
 20
61.2669593618
 11
-16.0952364533
 21
61.2669593618
  0
LINE
  5
29A
100
AcDbEntity
  8
RACCORDO
100
AcDbLine
 62
253
  6
CONTINUOUS
 10
108.4581081081
 20
-77.4362785863
 11
108.4581081083
 21
-77.9362785863
  0
LINE
  5
29B
100
AcDbEntity
  8
RACCORDO
100
AcDbLine
 62
253
  6
CONTINUOUS
 10
108.4581081081
 20
76.2637214137
 11
108.4581081081
 21
76.7637214137
  0
LINE
  5
29C
100
AcDbEntity
  8
RACCORDO
100
AcDbLine
 62
253
  6
CONTINUOUS
 10
108.9581081081
 20
-76.9362785863
 11
108.9581081081
 21
75.7637214137
  0
LINE
  5
29D
100
AcDbEntity
  8
RACCORDO
100
AcDbLine
 62
7
  6
CONTINUOUS
 10
109.4581081081
 20
-76.9362785863
 11
109.4581081081
 21
75.7637214137
  0
LINE
  5
29E
100
AcDbEntity
  8
RACCORDO
100
AcDbLine
 62
253
  6
CONTINUOUS
 10
-44.7418918919
 20
75.7637214137
 11
-45.2418918919
 21
75.7637214137
  0
LINE
  5
29F
100
AcDbEntity
  8
RACCORDO
100
AcDbLine
 62
253
  6
CONTINUOUS
 10
108.9581081081
 20
75.7637214137
 11
109.4581081081
 21
75.7637214139
  0
LINE
  5
2A0
100
AcDbEntity
  8
RACCORDO
100
AcDbLine
 62
253
  6
CONTINUOUS
 10
108.4581081081
 20
76.2637214137
 11
-44.2418918919
 21
76.2637214137
  0
LINE
  5
2A1
100
AcDbEntity
  8
RACCORDO
100
AcDbLine
 62
7
  6
CONTINUOUS
 10
108.4581081081
 20
76.7637214137
 11
-44.2418918919
 21
76.7637214137
  0
LINE
  5
2A2
100
AcDbEntity
  8
RACCORDO
100
AcDbLine
 62
7
  6
CONTINUOUS
 10
-83.2573804574
 20
-77.9362785863
 11
-77.8573804574
 21
-77.9362785863
  0
LINE
  5
2A3
100
AcDbEntity
  8
RACCORDO
100
AcDbLine
 62
7
  6
CONTINUOUS
 10
-77.3573804574
 20
-75.613120305
 11
-76.3573804574
 21
-75.5607125257
  0
LINE
  5
2A4
100
AcDbEntity
  8
RACCORDO
100
AcDbLine
 62
253
  6
CONTINUOUS
 10
-77.3573804574
 20
-73.6158612355
 11
-76.3573804574
 21
-73.5634534562
  0
LINE
  5
2A5
100
AcDbEntity
  8
RACCORDO
100
AcDbLine
 62
253
  6
CONTINUOUS
 10
-77.3573804574
 20
-76.9362785863
 11
-83.7573804574
 21
-76.9362785863
  0
LINE
  5
2A6
100
AcDbEntity
  8
RACCORDO
100
AcDbLine
 62
7
  6
CONTINUOUS
 10
-86.5126161793
 20
-62.3914237159
 11
-83.7573804574
 21
-62.4395165343
  0
LINE
  5
2A7
100
AcDbEntity
  8
RACCORDO
100
AcDbLine
 62
253
  6
CONTINUOUS
 10
-86.5131558929
 20
-61.6915303292
 11
-86.8073804574
 21
-61.6915303293
  0
LINE
  5
2A8
100
AcDbEntity
  8
RACCORDO
100
AcDbLine
 62
253
  6
CONTINUOUS
 10
-86.5131559004
 20
-61.6915209084
 11
-83.7573804574
 21
-61.7396231477
  0
LINE
  5
2A9
100
AcDbEntity
  8
RACCORDO
100
AcDbLine
 62
7
  6
CONTINUOUS
 10
-86.8073804574
 20
-62.0914694073
 11
-86.8073804574
 21
60.9189122349
  0
LINE
  5
2AA
100
AcDbEntity
  8
RACCORDO
100
AcDbLine
 62
253
  6
CONTINUOUS
 10
-86.5131559004
 20
-61.6915209084
 11
-86.5126161793
 21
60.5189731567
  0
LINE
  5
2AB
100
AcDbEntity
  8
RACCORDO
100
AcDbLine
 62
7
  6
CONTINUOUS
 10
-83.7573804574
 20
-77.4362785863
 11
-83.7573804574
 21
76.2637214137
  0
LINE
  5
2AC
100
AcDbEntity
  8
RACCORDO
100
AcDbLine
 62
253
  6
CONTINUOUS
 10
-83.2573804574
 20
-77.9362785863
 11
-83.2573804574
 21
76.7637214137
  0
LINE
  5
2AD
100
AcDbEntity
  8
RACCORDO
100
AcDbLine
 62
253
  6
CONTINUOUS
 10
-77.8573804574
 20
76.7637214137
 11
-77.8573804574
 21
-77.9362785863
  0
LINE
  5
2AE
100
AcDbEntity
  8
RACCORDO
100
AcDbLine
 62
7
  6
CONTINUOUS
 10
-77.3573804574
 20
76.2637214137
 11
-77.3573804574
 21
-77.4362785863
  0
LINE
  5
2AF
100
AcDbEntity
  8
RACCORDO
100
AcDbLine
 62
7
  6
CONTINUOUS
 10
-76.3573804574
 20
-75.5607125257
 11
-76.3573804574
 21
74.3881553531
  0
LINE
  5
2B0
100
AcDbEntity
  8
RACCORDO
100
AcDbLine
 62
253
  6
CONTINUOUS
 10
-86.5126161793
 20
60.5189731567
 11
-83.7573804574
 21
60.5670659751
  0
LINE
  5
2B1
100
AcDbEntity
  8
RACCORDO
100
AcDbLine
 62
7
  6
CONTINUOUS
 10
-86.5126161793
 20
61.2188665433
 11
-83.7573804574
 21
61.2669593618
  0
LINE
  5
2B2
100
AcDbEntity
  8
RACCORDO
100
AcDbLine
 62
253
  6
CONTINUOUS
 10
-86.5126161793
 20
60.5189731563
 11
-86.8073804574
 21
60.5189731567
  0
LINE
  5
2B3
100
AcDbEntity
  8
RACCORDO
100
AcDbLine
 62
253
  6
CONTINUOUS
 10
-77.3573804574
 20
75.7637214137
 11
-83.7573804574
 21
75.7637214137
  0
LINE
  5
2B4
100
AcDbEntity
  8
RACCORDO
100
AcDbLine
 62
7
  6
CONTINUOUS
 10
-83.2573804574
 20
76.7637214137
 11
-77.8573804574
 21
76.7637214137
  0
LINE
  5
2B5
100
AcDbEntity
  8
RACCORDO
100
AcDbLine
 62
253
  6
CONTINUOUS
 10
-77.3573804574
 20
72.4433040629
 11
-76.3573804574
 21
72.3908962836
  0
LINE
  5
2B6
100
AcDbEntity
  8
RACCORDO
100
AcDbLine
 62
7
  6
CONTINUOUS
 10
-77.3573804574
 20
74.4405631324
 11
-76.3573804574
 21
74.3881553531
  0
ARC
  5
2B7
100
AcDbEntity
  8
RACCORDO
100
AcDbCircle
 62
7
  6
CONTINUOUS
 10
108.4581081081
 20
75.7637214137
 40
1.0
100
AcDbArc
 50
0.0
 51
90.0
  0
ARC
  5
2B8
100
AcDbEntity
  8
RACCORDO
100
AcDbCircle
 62
7
  6
CONTINUOUS
 10
108.4581081081
 20
-76.9362785863
 40
1.0
100
AcDbArc
 50
270.0
 51
360.0
  0
ARC
  5
2B9
100
AcDbEntity
  8
RACCORDO
100
AcDbCircle
 62
7
  6
CONTINUOUS
 10
-44.2418918919
 20
75.7637214137
 40
1.0
100
AcDbArc
 50
90.0
 51
180.0
  0
ARC
  5
2BA
100
AcDbEntity
  8
RACCORDO
100
AcDbCircle
 62
7
  6
CONTINUOUS
 10
-44.2418918919
 20
-76.9362785863
 40
1.0
100
AcDbArc
 50
180.0
 51
270.0
  0
ARC
  5
2BB
100
AcDbEntity
  8
RACCORDO
100
AcDbCircle
 62
253
  6
CONTINUOUS
 10
-12.2533201896
 20
-58.3351093431
 40
0.7544612073
100
AcDbArc
 50
180.0108971281
 51
182.036804879
  0
ARC
  5
2BC
100
AcDbEntity
  8
RACCORDO
100
AcDbCircle
 62
253
  6
CONTINUOUS
 10
76.4695364057
 20
57.1625521706
 40
0.7544612074
100
AcDbArc
 50
0.0108971283
 51
2.0368048789
  0
ARC
  5
2BD
100
AcDbEntity
  8
RACCORDO
100
AcDbCircle
 62
253
  6
CONTINUOUS
 10
76.906938865
 20
-57.897706884
 40
0.7544612073
100
AcDbArc
 50
270.0108971281
 51
272.036804879
  0
ARC
  5
2BE
100
AcDbEntity
  8
RACCORDO
100
AcDbCircle
 62
253
  6
CONTINUOUS
 10
76.4702180659
 20
-58.335126459
 40
0.7537795442
100
AcDbArc
 50
357.9612033455
 51
359.9903940152
  0
ARC
  5
2BF
100
AcDbEntity
  8
RACCORDO
100
AcDbCircle
 62
253
  6
CONTINUOUS
 10
-12.6907397646
 20
-57.8983885441
 40
0.7537795441
100
AcDbArc
 50
267.9612033455
 51
269.9903940152
  0
ARC
  5
2C0
100
AcDbEntity
  8
RACCORDO
100
AcDbCircle
 62
253
  6
CONTINUOUS
 10
76.9069559808
 20
56.7258313716
 40
0.7537795442
100
AcDbArc
 50
87.9612033455
 51
89.9903940152
  0
ARC
  5
2C1
100
AcDbEntity
  8
RACCORDO
100
AcDbCircle
 62
253
  6
CONTINUOUS
 10
-12.6907767326
 20
56.7274857703
 40
0.7521251402
100
AcDbArc
 50
90.0068109456
 51
92.0426757409
  0
ARC
  5
2C2
100
AcDbEntity
  8
RACCORDO
100
AcDbCircle
 62
253
  6
CONTINUOUS
 10
-12.2579780829
 20
57.1626353433
 40
0.7498033028
100
AcDbArc
 50
177.9568903609
 51
179.9953907686
  0
ARC
  5
2C3
100
AcDbEntity
  8
RACCORDO
100
AcDbCircle
 62
253
  6
CONTINUOUS
 10
80.2632748052
 20
60.5188881108
 40
0.6999784377
100
AcDbArc
 50
0.0069613172
 51
89.9930386828
  0
ARC
  5
2C4
100
AcDbEntity
  8
RACCORDO
100
AcDbCircle
 62
253
  6
CONTINUOUS
 10
80.2632748052
 20
-61.6914452834
 40
0.6999784377
100
AcDbArc
 50
270.0069613172
 51
359.9930386828
  0
ARC
  5
2C5
100
AcDbEntity
  8
RACCORDO
100
AcDbCircle
 62
253
  6
CONTINUOUS
 10
-16.047058589
 20
-61.6914452834
 40
0.6999784377
100
AcDbArc
 50
180.0069613172
 51
269.9930386828
  0
ARC
  5
2C6
100
AcDbEntity
  8
RACCORDO
100
AcDbCircle
 62
253
  6
CONTINUOUS
 10
-16.047058589
 20
60.5188881108
 40
0.6999784377
100
AcDbArc
 50
90.0069613172
 51
179.9930386828
  0
ARC
  5
2C7
100
AcDbEntity
  8
RACCORDO
100
AcDbCircle
 62
253
  6
CONTINUOUS
 10
108.4581081081
 20
75.7637214137
 40
0.5
100
AcDbArc
 50
0.0
 51
90.0
  0
ARC
  5
2C8
100
AcDbEntity
  8
RACCORDO
100
AcDbCircle
 62
253
  6
CONTINUOUS
 10
108.4581081081
 20
-76.9362785863
 40
0.5
100
AcDbArc
 50
270.0
 51
360.0
  0
ARC
  5
2C9
100
AcDbEntity
  8
RACCORDO
100
AcDbCircle
 62
253
  6
CONTINUOUS
 10
-44.2418918919
 20
-76.9362785863
 40
0.5
100
AcDbArc
 50
180.0
 51
270.0
  0
ARC
  5
2CA
100
AcDbEntity
  8
RACCORDO
100
AcDbCircle
 62
253
  6
CONTINUOUS
 10
-44.2418918919
 20
75.7637214137
 40
0.5
100
AcDbArc
 50
90.0
 51
180.0
  0
ARC
  5
2CB
100
AcDbEntity
  8
RACCORDO
100
AcDbCircle
 62
253
  6
CONTINUOUS
 10
80.2633792667
 20
-61.6915497448
 40
0.399919154
100
AcDbArc
 50
269.9972183594
 51
0.0027817565
  0
ARC
  5
2CC
100
AcDbEntity
  8
RACCORDO
100
AcDbCircle
 62
253
  6
CONTINUOUS
 10
-16.0471673255
 20
-61.69155402
 40
0.3999138953
100
AcDbArc
 50
179.9966058371
 51
270.0033942783
  0
ARC
  5
2CD
100
AcDbEntity
  8
RACCORDO
100
AcDbCircle
 62
253
  6
CONTINUOUS
 10
76.9550694933
 20
57.1628171167
 40
0.2519672011
100
AcDbArc
 50
359.9723819904
 51
2.2431442155
  0
ARC
  5
2CE
100
AcDbEntity
  8
RACCORDO
100
AcDbCircle
 62
253
  6
CONTINUOUS
 10
76.9072038111
 20
-58.3832399715
 40
0.251967201
100
AcDbArc
 50
269.9723819903
 51
272.2431442155
  0
ARC
  5
2CF
100
AcDbEntity
  8
RACCORDO
100
AcDbCircle
 62
253
  6
CONTINUOUS
 10
-12.7388532771
 20
-58.3353742892
 40
0.251967201
100
AcDbArc
 50
179.9723819903
 51
182.2431442156
  0
ARC
  5
2D0
100
AcDbEntity
  8
RACCORDO
100
AcDbCircle
 62
253
  6
CONTINUOUS
 10
76.9072038161
 20
57.2106830602
 40
0.2519669398
100
AcDbArc
 50
87.7568546072
 51
90.0276191871
  0
ARC
  5
2D1
100
AcDbEntity
  8
RACCORDO
100
AcDbCircle
 62
253
  6
CONTINUOUS
 10
76.9550697546
 20
-58.3353742943
 40
0.2519669397
100
AcDbArc
 50
357.756854607
 51
0.0276191872
  0
ARC
  5
2D2
100
AcDbEntity
  8
RACCORDO
100
AcDbCircle
 62
253
  6
CONTINUOUS
 10
-12.6909875999
 20
-58.3832402328
 40
0.2519669398
100
AcDbArc
 50
267.7568546071
 51
270.0276191871
  0
ARC
  5
2D3
100
AcDbEntity
  8
RACCORDO
100
AcDbCircle
 62
253
  6
CONTINUOUS
 10
-12.7393140975
 20
57.1628260273
 40
0.2515063852
100
AcDbArc
 50
177.7547752398
 51
180.0296985545
  0
ARC
  5
2D4
100
AcDbEntity
  8
RACCORDO
100
AcDbCircle
 62
253
  6
CONTINUOUS
 10
-12.6910005673
 20
57.2113536767
 40
0.25129633
100
AcDbArc
 50
89.9693505315
 51
92.2461756743
  0
ARC
  5
2D5
100
AcDbEntity
  8
RACCORDO
100
AcDbCircle
 62
7
  6
CONTINUOUS
 10
-83.2573804574
 20
-77.4362785863
 40
0.5
100
AcDbArc
 50
180.0
 51
270.0
  0
ARC
  5
2D6
100
AcDbEntity
  8
RACCORDO
100
AcDbCircle
 62
7
  6
CONTINUOUS
 10
-86.5073804574
 20
-62.0914694073
 40
0.3
100
AcDbArc
 50
180.0000000167
 51
268.8969051352
  0
ARC
  5
2D7
100
AcDbEntity
  8
RACCORDO
100
AcDbCircle
 62
7
  6
CONTINUOUS
 10
-83.2573804574
 20
76.2637214137
 40
0.5
100
AcDbArc
 50
90.0
 51
180.0
  0
ARC
  5
2D8
100
AcDbEntity
  8
RACCORDO
100
AcDbCircle
 62
7
  6
CONTINUOUS
 10
-86.5073804574
 20
60.9189122348
 40
0.3
100
AcDbArc
 50
91.0
 51
180.0
  0
ARC
  5
2D9
100
AcDbEntity
  8
RACCORDO
100
AcDbCircle
 62
7
  6
CONTINUOUS
 10
-77.8573804574
 20
-77.4362785863
 40
0.5
100
AcDbArc
 50
270.0
 51
360.0
  0
ARC
  5
2DA
100
AcDbEntity
  8
RACCORDO
100
AcDbCircle
 62
7
  6
CONTINUOUS
 10
-77.8573804574
 20
76.2637214137
 40
0.5
100
AcDbArc
 50
0.0
 51
90.0
  0
SPLINE
  5
2DB
100
AcDbEntity
  8
RACCORDO
100
AcDbSpline
 62
253
  6
CONTINUOUS
 70
0
 71
3
 72
11
 73
7
 74
5
 42
0.0000001
 43
0.0000001
 44
0.0000000001
 12
-0.9071733294
 22
-0.0000394998
 32
0.0
 13
-0.0000122996
 23
-0.9071733302
 33
0.0
 40
0.0
 40
0.0
 40
0.0
 40
0.0
 40
0.2500885221
 40
0.5000001758
 40
0.7499117876
 40
1.0
 40
1.0
 40
1.0
 40
1.0
 10
-13.4463820698
 20
58.4977670874
 30
0.0
 10
-13.5220066156
 20
58.4977637946
 30
0.0
 10
-13.6749573699
 20
58.4693657898
 30
0.0
 10
-13.8695802328
 20
58.3414090671
 30
0.0
 10
-13.9975387846
 20
58.146787501
 30
0.0
 10
-14.0259365403
 20
57.9938360438
 30
0.0
 10
-14.0259375656
 20
57.9182115916
 30
0.0
 11
-13.4463820698
 21
58.4977670874
 31
0.0
 11
-13.6692106547
 21
58.4551165405
 31
0.0
 11
-13.8584721529
 21
58.3303008583
 31
0.0
 11
-13.9832892046
 21
58.1410403088
 31
0.0
 11
-14.0259375656
 21
57.9182115916
 31
0.0
  0
SPLINE
  5
2DC
100
AcDbEntity
  8
RACCORDO
100
AcDbSpline
 62
253
  6
CONTINUOUS
 70
0
 71
3
 72
11
 73
7
 74
5
 42
0.0000001
 43
0.0000001
 44
0.0000000001
 12
0.0000126196
 22
-0.9071733301
 32
0.0
 13
0.9071733294
 23
-0.0000392266
 33
0.0
 40
0.0
 40
0.0
 40
0.0
 40
0.0
 40
0.2500882116
 40
0.4999998238
 40
0.7499114764
 40
1.0
 40
1.0
 40
1.0
 40
1.0
 10
-14.0259375656
 20
-59.0907687642
 30
0.0
 10
-14.0259365136
 20
-59.1663932161
 30
0.0
 10
-13.9975387999
 20
-59.3193446731
 30
0.0
 10
-13.8695802295
 20
-59.5139662412
 30
0.0
 10
-13.6749573711
 20
-59.6419229496
 30
0.0
 10
-13.522006616
 20
-59.6703209899
 30
0.0
 10
-13.4463820698
 20
-59.67032426
 30
0.0
 11
-14.0259375656
 21
-59.0907687642
 31
0.0
 11
-13.9832892064
 21
-59.313597481
 31
0.0
 11
-13.8584721532
 21
-59.5028580299
 31
0.0
 11
-13.6692106557
 21
-59.6276737113
 31
0.0
 11
-13.4463820698
 21
-59.67032426
 31
0.0
  0
SPLINE
  5
2DD
100
AcDbEntity
  8
RACCORDO
100
AcDbSpline
 62
253
  6
CONTINUOUS
 70
0
 71
3
 72
11
 73
7
 74
5
 42
0.0000001
 43
0.0000001
 44
0.0000000001
 12
0.9071733301
 22
0.0000126196
 32
0.0
 13
0.0000392266
 23
0.9071733294
 33
0.0
 40
0.0
 40
0.0
 40
0.0
 40
0.0
 40
0.2500882116
 40
0.4999998238
 40
0.7499114764
 40
1.0
 40
1.0
 40
1.0
 40
1.0
 10
77.662598286
 20
-59.67032426
 30
0.0
 10
77.7382227379
 20
-59.670323208
 30
0.0
 10
77.891174195
 20
-59.6419254943
 30
0.0
 10
78.085795763
 20
-59.5139669239
 30
0.0
 10
78.2137524715
 20
-59.3193440655
 30
0.0
 10
78.2421505118
 20
-59.1663933104
 30
0.0
 10
78.2421537818
 20
-59.0907687642
 30
0.0
 11
77.662598286
 21
-59.67032426
 31
0.0
 11
77.8854270028
 21
-59.6276759008
 31
0.0
 11
78.0746875517
 21
-59.5028588476
 31
0.0
 11
78.1995032331
 21
-59.31359735
 31
0.0
 11
78.2421537818
 21
-59.0907687642
 31
0.0
  0
SPLINE
  5
2DE
100
AcDbEntity
  8
RACCORDO
100
AcDbSpline
 62
253
  6
CONTINUOUS
 70
0
 71
3
 72
11
 73
7
 74
5
 42
0.0000001
 43
0.0000001
 44
0.0000000001
 12
-0.0000126196
 22
0.9071733301
 32
0.0
 13
-0.9071733294
 23
0.0000392266
 33
0.0
 40
0.0
 40
0.0
 40
0.0
 40
0.0
 40
0.2500882116
 40
0.4999998238
 40
0.7499114764
 40
1.0
 40
1.0
 40
1.0
 40
1.0
 10
78.2421537818
 20
57.9182115916
 30
0.0
 10
78.2421527298
 20
57.9938360436
 30
0.0
 10
78.2137550161
 20
58.1467875006
 30
0.0
 10
78.0857964457
 20
58.3414090686
 30
0.0
 10
77.8911735874
 20
58.4693657771
 30
0.0
 10
77.7382228322
 20
58.4977638174
 30
0.0
 10
77.662598286
 20
58.4977670874
 30
0.0
 11
78.2421537818
 21
57.9182115916
 31
0.0
 11
78.1995054227
 21
58.1410403084
 31
0.0
 11
78.0746883695
 21
58.3303008573
 31
0.0
 11
77.8854268719
 21
58.4551165388
 31
0.0
 11
77.662598286
 21
58.4977670874
 31
0.0
  0
SPLINE
  5
2DF
100
AcDbEntity
  8
RACCORDO
100
AcDbSpline
 62
253
  6
CONTINUOUS
 70
0
 71
3
 72
12
 73
8
 74
6
 42
0.0000001
 43
0.0000001
 44
0.0000000001
 12
-0.0000009443
 22
0.6205214333
 32
0.0
 13
0.620521433
 23
0.0000214267
 33
0.0
 40
0.0
 40
0.0
 40
0.0
 40
0.0
 40
0.1254466776
 40
0.2508924308
 40
0.5005955773
 40
0.7502986155
 40
1.0
 40
1.0
 40
1.0
 40
1.0
 10
-16.447082713
 20
60.5234800117
 30
0.0
 10
-16.4470827525
 20
60.5494274624
 30
0.0
 10
-16.4409383242
 20
60.6014116374
 30
0.0
 10
-16.4101099534
 20
60.7007300014
 30
0.0
 10
-16.3354893694
 20
60.8107467257
 30
0.0
 10
-16.2032149136
 20
60.8983701797
 30
0.0
 10
-16.0987919885
 20
60.9189104514
 30
0.0
 10
-16.0471436349
 20
60.9189122348
 30
0.0
 11
-16.447082713
 21
60.5234800117
 31
0.0
 11
-16.4386116901
 21
60.6008600709
 31
0.0
 11
-16.4153359796
 21
60.6751405111
 31
0.0
 11
-16.3283534851
 21
60.8033682632
 31
0.0
 11
-16.1991545786
 21
60.8889014876
 31
0.0
 11
-16.0471436349
 21
60.9189122348
 31
0.0
  0
SPLINE
  5
2E0
100
AcDbEntity
  8
RACCORDO
100
AcDbSpline
 62
253
  6
CONTINUOUS
 70
0
 71
3
 72
12
 73
8
 74
6
 42
0.0000001
 43
0.0000001
 44
0.0000000001
 12
0.6205214343
 22
0.0000009443
 32
0.0
 13
0.0000214267
 23
-0.620521434
 33
0.0
 40
0.0
 40
0.0
 40
0.0
 40
0.0
 40
0.1254466776
 40
0.2508924308
 40
0.5005955773
 40
0.7502986155
 40
1.0
 40
1.0
 40
1.0
 40
1.0
 10
80.2678667051
 20
60.9189122349
 30
0.0
 10
80.2938141559
 20
60.9189122744
 30
0.0
 10
80.345798331
 20
60.9127678463
 30
0.0
 10
80.4451166951
 20
60.8819394755
 30
0.0
 10
80.5551334197
 20
60.8073188917
 30
0.0
 10
80.642756874
 20
60.6750444356
 30
0.0
 10
80.6632971457
 20
60.5706215105
 30
0.0
 10
80.6632989292
 20
60.5189731567
 30
0.0
 11
80.2678667051
 21
60.9189122349
 31
0.0
 11
80.3452467645
 21
60.9104412121
 31
0.0
 11
80.4195272048
 21
60.8871655017
 31
0.0
 11
80.5477549573
 21
60.8001830073
 31
0.0
 11
80.6332881819
 21
60.6709841006
 31
0.0
 11
80.6632989292
 21
60.5189731567
 31
0.0
  0
SPLINE
  5
2E1
100
AcDbEntity
  8
RACCORDO
100
AcDbSpline
 62
253
  6
CONTINUOUS
 70
0
 71
3
 72
9
 73
5
 74
3
 42
0.0000001
 43
0.0000001
 44
0.0000000001
 12
-0.002434248
 22
0.0240581005
 32
0.0
 13
-0.0213278318
 23
0.0113947949
 33
0.0
 40
0.0
 40
0.0
 40
0.0
 40
0.0
 40
0.3915199313
 40
1.0
 40
1.0
 40
1.0
 40
1.0
 10
-12.9906274111
 20
57.1726791766
 30
0.0
 10
-12.9909450967
 20
57.1758189186
 30
0.0
 10
-12.9960590566
 20
57.1829854337
 30
0.0
 10
-13.0029790616
 20
57.1870456006
 30
0.0
 10
-13.0073049152
 20
57.1893567691
 30
0.0
 11
-12.9906274111
 21
57.1726791766
 31
0.0
 11
-12.9952263759
 21
57.1809544202
 31
0.0
 11
-13.0073049152
 21
57.1893567691
 31
0.0
  0
SPLINE
  5
2E2
100
AcDbEntity
  8
RACCORDO
100
AcDbSpline
 62
253
  6
CONTINUOUS
 70
0
 71
3
 72
9
 73
5
 74
3
 42
0.0000001
 43
0.0000001
 44
0.0000000001
 12
-0.0240582391
 22
0.0024341814
 32
0.0
 13
-0.0113946227
 23
0.0213280727
 33
0.0
 40
0.0
 40
0.0
 40
0.0
 40
0.0
 40
0.3915214139
 40
1.0
 40
1.0
 40
1.0
 40
1.0
 10
-12.7008496398
 20
57.4624564813
 30
0.0
 10
-12.7039894118
 20
57.4627741593
 30
0.0
 10
-12.7111559963
 20
57.4678881243
 30
0.0
 10
-12.7152161194
 20
57.4748082228
 30
0.0
 10
-12.7175272474
 20
57.4791341146
 30
0.0
 11
-12.7008496398
 21
57.4624564813
 31
0.0
 11
-12.709124968
 21
57.4670554734
 31
0.0
 11
-12.7175272474
 21
57.4791341146
 31
0.0
  0
SPLINE
  5
2E3
100
AcDbEntity
  8
RACCORDO
100
AcDbSpline
 62
253
  6
CONTINUOUS
 70
0
 71
3
 72
9
 73
5
 74
3
 42
0.0000001
 43
0.0000001
 44
0.0000000001
 12
0.0240581958
 22
0.0024342294
 32
0.0
 13
0.0113946189
 23
0.0213280313
 33
0.0
 40
0.0
 40
0.0
 40
0.0
 40
0.0
 40
0.3915218903
 40
1.0
 40
1.0
 40
1.0
 40
1.0
 10
76.9170658707
 20
57.4624569237
 30
0.0
 10
76.9202056408
 20
57.4627746084
 30
0.0
 10
76.9273722124
 20
57.4678885572
 30
0.0
 10
76.9314323381
 20
57.474808642
 30
0.0
 10
76.9337434635
 20
57.479134522
 30
0.0
 11
76.9170658707
 21
57.4624569237
 31
0.0
 11
76.9253411949
 21
57.4670559157
 31
0.0
 11
76.9337434635
 21
57.479134522
 31
0.0
  0
SPLINE
  5
2E4
100
AcDbEntity
  8
RACCORDO
100
AcDbSpline
 62
253
  6
CONTINUOUS
 70
0
 71
3
 72
9
 73
5
 74
3
 42
0.0000001
 43
0.0000001
 44
0.0000000001
 12
0.0024342817
 22
0.0240581444
 32
0.0
 13
0.0213279745
 23
0.0113946277
 33
0.0
 40
0.0
 40
0.0
 40
0.0
 40
0.0
 40
0.3915222167
 40
1.0
 40
1.0
 40
1.0
 40
1.0
 10
77.2068441021
 20
57.1726791925
 30
0.0
 10
77.2071617939
 20
57.1758189585
 30
0.0
 10
77.212275728
 20
57.182985512
 30
0.0
 10
77.219195793
 20
57.1870456432
 30
0.0
 10
77.2235216592
 20
57.1893567691
 30
0.0
 11
77.2068441021
 21
57.1726791925
 31
0.0
 11
77.2114430927
 21
57.1809545059
 31
0.0
 11
77.2235216592
 21
57.1893567691
 31
0.0
  0
SPLINE
  5
2E5
100
AcDbEntity
  8
RACCORDO
100
AcDbSpline
 62
253
  6
CONTINUOUS
 70
0
 71
3
 72
9
 73
5
 74
3
 42
0.0000001
 43
0.0000001
 44
0.0000000001
 12
0.0024342294
 22
-0.0240581958
 32
0.0
 13
0.0213280313
 23
-0.0113946189
 33
0.0
 40
0.0
 40
0.0
 40
0.0
 40
0.0
 40
0.3915218903
 40
1.0
 40
1.0
 40
1.0
 40
1.0
 10
77.206843618
 20
-58.3452363489
 30
0.0
 10
77.2071613027
 20
-58.348376119
 30
0.0
 10
77.2122752516
 20
-58.3555426906
 30
0.0
 10
77.2191953364
 20
-58.3596028163
 30
0.0
 10
77.2235212164
 20
-58.3619139417
 30
0.0
 11
77.206843618
 21
-58.3452363489
 31
0.0
 11
77.2114426101
 21
-58.3535116731
 31
0.0
 11
77.2235212164
 21
-58.3619139417
 31
0.0
  0
SPLINE
  5
2E6
100
AcDbEntity
  8
RACCORDO
100
AcDbSpline
 62
253
  6
CONTINUOUS
 70
0
 71
3
 72
9
 73
5
 74
3
 42
0.0000001
 43
0.0000001
 44
0.0000000001
 12
0.0240581444
 22
-0.0024342817
 32
0.0
 13
0.0113946277
 23
-0.0213279745
 33
0.0
 40
0.0
 40
0.0
 40
0.0
 40
0.0
 40
0.3915222167
 40
1.0
 40
1.0
 40
1.0
 40
1.0
 10
76.9170658868
 20
-58.6350145802
 30
0.0
 10
76.9202056529
 20
-58.635332272
 30
0.0
 10
76.9273722064
 20
-58.6404462062
 30
0.0
 10
76.9314323375
 20
-58.6473662711
 30
0.0
 10
76.9337434635
 20
-58.6516921373
 30
0.0
 11
76.9170658868
 21
-58.6350145802
 31
0.0
 11
76.9253412003
 21
-58.6396135708
 31
0.0
 11
76.9337434635
 21
-58.6516921373
 31
0.0
  0
SPLINE
  5
2E7
100
AcDbEntity
  8
RACCORDO
100
AcDbSpline
 62
253
  6
CONTINUOUS
 70
0
 71
3
 72
9
 73
5
 74
3
 42
0.0000001
 43
0.0000001
 44
0.0000000001
 12
-0.0240581958
 22
-0.0024342294
 32
0.0
 13
-0.0113946189
 23
-0.0213280313
 33
0.0
 40
0.0
 40
0.0
 40
0.0
 40
0.0
 40
0.3915218903
 40
1.0
 40
1.0
 40
1.0
 40
1.0
 10
-12.7008496545
 20
-58.6350140962
 30
0.0
 10
-12.7039894246
 20
-58.6353317809
 30
0.0
 10
-12.7111559962
 20
-58.6404457298
 30
0.0
 10
-12.7152161219
 20
-58.6473658146
 30
0.0
 10
-12.7175272473
 20
-58.6516916946
 30
0.0
 11
-12.7008496545
 21
-58.6350140962
 31
0.0
 11
-12.7091249787
 21
-58.6396130882
 31
0.0
 11
-12.7175272473
 21
-58.6516916946
 31
0.0
  0
SPLINE
  5
2E8
100
AcDbEntity
  8
RACCORDO
100
AcDbSpline
 62
253
  6
CONTINUOUS
 70
0
 71
3
 72
9
 73
5
 74
3
 42
0.0000001
 43
0.0000001
 44
0.0000000001
 12
-0.0024342817
 22
-0.0240581444
 32
0.0
 13
-0.0213279745
 23
-0.0113946277
 33
0.0
 40
0.0
 40
0.0
 40
0.0
 40
0.0
 40
0.3915222167
 40
1.0
 40
1.0
 40
1.0
 40
1.0
 10
-12.9906278859
 20
-58.345236365
 30
0.0
 10
-12.9909455776
 20
-58.348376131
 30
0.0
 10
-12.9960595118
 20
-58.3555426846
 30
0.0
 10
-13.0029795767
 20
-58.3596028157
 30
0.0
 10
-13.007305443
 20
-58.3619139417
 30
0.0
 11
-12.9906278859
 21
-58.345236365
 31
0.0
 11
-12.9952268764
 21
-58.3535116785
 31
0.0
 11
-13.007305443
 21
-58.3619139417
 31
0.0
  0
SPLINE
  5
2E9
100
AcDbEntity
  8
RACCORDO
100
AcDbSpline
 62
253
  6
CONTINUOUS
 70
0
 71
3
 72
11
 73
7
 74
5
 42
0.0000001
 43
0.0000001
 44
0.0000000001
 12
0.0273503572
 22
-0.4633434684
 32
0.0
 13
-0.4633454892
 23
0.0273161024
 33
0.0
 40
0.0
 40
0.0
 40
0.0
 40
0.0
 40
0.2486357399
 40
0.5000006038
 40
0.7513659212
 40
1.0
 40
1.0
 40
1.0
 40
1.0
 10
77.9523754272
 20
-59.0907552792
 30
0.0
 10
77.9546421859
 20
-59.1291565279
 30
0.0
 10
77.9456273168
 20
-59.2082536393
 30
0.0
 10
77.8830904411
 20
-59.3112529889
 30
0.0
 10
77.7800939637
 20
-59.3737970131
 30
0.0
 10
77.7009971917
 20
-59.3828103153
 30
0.0
 10
77.6625960321
 20
-59.3805464107
 30
0.0
 11
77.9523754272
 21
-59.0907552792
 31
0.0
 11
77.9376150903
 21
-59.2052117309
 31
0.0
 11
77.876322691
 21
-59.3044859154
 31
0.0
 11
77.7770513517
 21
-59.3657833235
 31
0.0
 11
77.6625960321
 21
-59.3805464107
 31
0.0
  0
SPLINE
  5
2EA
100
AcDbEntity
  8
RACCORDO
100
AcDbSpline
 62
253
  6
CONTINUOUS
 70
0
 71
3
 72
11
 73
7
 74
5
 42
0.0000001
 43
0.0000001
 44
0.0000000001
 12
0.4633434684
 22
0.0273503572
 32
0.0
 13
-0.0273161024
 23
-0.4633454892
 33
0.0
 40
0.0
 40
0.0
 40
0.0
 40
0.0
 40
0.2486357399
 40
0.5000006038
 40
0.7513659212
 40
1.0
 40
1.0
 40
1.0
 40
1.0
 10
77.662584801
 20
58.2079887328
 30
0.0
 10
77.7009860497
 20
58.2102554915
 30
0.0
 10
77.7800831611
 20
58.2012406224
 30
0.0
 10
77.8830825107
 20
58.1387037468
 30
0.0
 10
77.945626535
 20
58.0357072693
 30
0.0
 10
77.9546398372
 20
57.9566104974
 30
0.0
 10
77.9523759325
 20
57.9182093377
 30
0.0
 11
77.662584801
 21
58.2079887328
 31
0.0
 11
77.7770412527
 21
58.193228396
 31
0.0
 11
77.8763154372
 21
58.1319359966
 31
0.0
 11
77.9376128453
 21
58.0326646573
 31
0.0
 11
77.9523759325
 21
57.9182093377
 31
0.0
  0
SPLINE
  5
2EB
100
AcDbEntity
  8
RACCORDO
100
AcDbSpline
 62
253
  6
CONTINUOUS
 70
0
 71
3
 72
11
 73
7
 74
5
 42
0.0000001
 43
0.0000001
 44
0.0000000001
 12
-0.4633434684
 22
-0.0273503572
 32
0.0
 13
0.0273161024
 23
0.4633454892
 33
0.0
 40
0.0
 40
0.0
 40
0.0
 40
0.0
 40
0.2486357399
 40
0.5000006038
 40
0.7513659212
 40
1.0
 40
1.0
 40
1.0
 40
1.0
 10
-13.4463685848
 20
-59.3805459053
 30
0.0
 10
-13.4847698335
 20
-59.3828126641
 30
0.0
 10
-13.5638669449
 20
-59.373797795
 30
0.0
 10
-13.6668662945
 20
-59.3112609193
 30
0.0
 10
-13.7294103188
 20
-59.2082644419
 30
0.0
 10
-13.7384236209
 20
-59.1291676699
 30
0.0
 10
-13.7361597163
 20
-59.0907665103
 30
0.0
 11
-13.4463685848
 21
-59.3805459053
 31
0.0
 11
-13.5608250365
 21
-59.3657855685
 31
0.0
 11
-13.660099221
 21
-59.3044931692
 31
0.0
 11
-13.7213966291
 21
-59.2052218299
 31
0.0
 11
-13.7361597163
 21
-59.0907665103
 31
0.0
  0
SPLINE
  5
2EC
100
AcDbEntity
  8
RACCORDO
100
AcDbSpline
 62
253
  6
CONTINUOUS
 70
0
 71
3
 72
11
 73
7
 74
5
 42
0.0000001
 43
0.0000001
 44
0.0000000001
 12
-0.027316087
 22
0.4633454758
 32
0.0
 13
0.4633434515
 23
-0.0273504013
 33
0.0
 40
0.0
 40
0.0
 40
0.0
 40
0.0
 40
0.2486340814
 40
0.4999993991
 40
0.7513642621
 40
1.0
 40
1.0
 40
1.0
 40
1.0
 10
-13.736159721
 20
57.9182094426
 30
0.0
 10
-13.7384236244
 20
57.9566106015
 30
0.0
 10
-13.7294102799
 20
58.0357073705
 30
0.0
 10
-13.666866222
 20
58.1387038189
 30
0.0
 10
-13.5638668506
 20
58.2012406557
 30
0.0
 10
-13.4847697413
 20
58.2102554911
 30
0.0
 10
-13.4463684943
 20
58.2079887287
 30
0.0
 11
-13.736159721
 21
57.9182094426
 31
0.0
 11
-13.7213965952
 21
58.0326647548
 31
0.0
 11
-13.6600991503
 21
58.1319360673
 31
0.0
 11
-13.560824946
 21
58.1932284272
 31
0.0
 11
-13.4463684943
 21
58.2079887287
 31
0.0
  0
SPLINE
  5
2ED
100
AcDbEntity
  8
RACCORDO
100
AcDbSpline
 62
253
  6
CONTINUOUS
 70
0
 71
3
 72
11
 73
7
 74
5
 42
0.0000001
 43
0.0000001
 44
0.0000000001
 12
-0.4555180674
 22
0.0054800017
 32
0.0
 13
0.0054838821
 23
-0.4555180207
 33
0.0
 40
0.0
 40
0.0
 40
0.0
 40
0.0
 40
0.2500587494
 40
0.4999992321
 40
0.7499395713
 40
1.0
 40
1.0
 40
1.0
 40
1.0
 10
-12.7175870049
 20
57.4791345965
 30
0.0
 10
-12.7555557643
 20
57.4795913706
 30
0.0
 10
-12.8325691716
 20
57.4663987857
 30
0.0
 10
-12.9308889157
 20
57.4026836934
 30
0.0
 10
-12.9945871641
 20
57.3043509262
 30
0.0
 10
-13.0077621103
 20
57.2273362012
 30
0.0
 10
-13.0073050096
 20
57.1893671907
 30
0.0
 11
-12.7175870049
 21
57.4791345965
 31
0.0
 11
-12.8297205996
 21
57.4590703259
 31
0.0
 11
-12.9251195687
 21
57.3969150125
 31
0.0
 11
-12.9872569953
 21
57.3015044701
 31
0.0
 11
-13.0073050096
 21
57.1893671907
 31
0.0
  0
SPLINE
  5
2EE
100
AcDbEntity
  8
RACCORDO
100
AcDbSpline
 62
253
  6
CONTINUOUS
 70
0
 71
3
 72
11
 73
7
 74
5
 42
0.0000001
 43
0.0000001
 44
0.0000000001
 12
-0.4473051946
 22
-0.0175270307
 32
0.0
 13
-0.0175584957
 23
-0.4473039606
 33
0.0
 40
0.0
 40
0.0
 40
0.0
 40
0.0
 40
0.2466224059
 40
0.4999986581
 40
0.7533733615
 40
1.0
 40
1.0
 40
1.0
 40
1.0
 10
-12.7008496545
 20
57.4624569242
 30
0.0
 10
-12.7376214823
 20
57.4610160714
 30
0.0
 10
-12.812315878
 20
57.4439660772
 30
0.0
 10
-12.9073575038
 20
57.3791885199
 30
0.0
 10
-12.9721381464
 20
57.2841465894
 30
0.0
 10
-12.9891839382
 20
57.2094515338
 30
0.0
 10
-12.9906274024
 20
57.1726791764
 30
0.0
 11
-12.7008496545
 21
57.4624569242
 31
0.0
 11
-12.8084805595
 21
57.4378850163
 31
0.0
 11
-12.9022689009
 21
57.3740991694
 31
0.0
 11
-12.9660551635
 21
57.2803119492
 31
0.0
 11
-12.9906274024
 21
57.1726791764
 31
0.0
  0
SPLINE
  5
2EF
100
AcDbEntity
  8
RACCORDO
100
AcDbSpline
 62
253
  6
CONTINUOUS
 70
0
 71
3
 72
11
 73
7
 74
5
 42
0.0000001
 43
0.0000001
 44
0.0000000001
 12
0.0054839322
 22
0.455547462
 32
0.0
 13
-0.455547242
 23
-0.0055021796
 33
0.0
 40
0.0
 40
0.0
 40
0.0
 40
0.0
 40
0.2500602726
 40
0.5000004489
 40
0.74994087
 40
1.0
 40
1.0
 40
1.0
 40
1.0
 10
77.2235212257
 20
57.1893671061
 30
0.0
 10
77.2239783302
 20
57.227338547
 30
0.0
 10
77.2108016809
 20
57.3043584196
 30
0.0
 10
77.1470950851
 20
57.4026950199
 30
0.0
 10
77.048764384
 20
57.4664088667
 30
0.0
 10
76.9717446573
 20
57.4795931816
 30
0.0
 10
76.9337734083
 20
57.4791345582
 30
0.0
 11
77.2235212257
 21
57.1893671061
 31
0.0
 11
77.2034705466
 21
57.3015113153
 31
0.0
 11
77.1413253255
 21
57.3969254739
 31
0.0
 11
77.0459161302
 21
57.4590785189
 31
0.0
 11
76.9337734083
 21
57.4791345582
 31
0.0
  0
SPLINE
  5
2F0
100
AcDbEntity
  8
RACCORDO
100
AcDbSpline
 62
253
  6
CONTINUOUS
 70
0
 71
3
 72
11
 73
7
 74
5
 42
0.0000001
 43
0.0000001
 44
0.0000000001
 12
-0.0175586516
 22
0.4473039548
 32
0.0
 13
-0.4473051996
 23
0.0175269134
 33
0.0
 40
0.0
 40
0.0
 40
0.0
 40
0.0
 40
0.2466266199
 40
0.5000013352
 40
0.7533775704
 40
1.0
 40
1.0
 40
1.0
 40
1.0
 10
77.2068436186
 20
57.1726791764
 30
0.0
 10
77.2054001417
 20
57.2094515305
 30
0.0
 10
77.1883543694
 20
57.2841465854
 30
0.0
 10
77.1235737231
 20
57.3791885156
 30
0.0
 10
77.0285321
 20
57.4439660732
 30
0.0
 10
76.9538377024
 20
57.4610160809
 30
0.0
 10
76.9170658707
 20
57.4624569242
 30
0.0
 11
77.2068436186
 21
57.1726791764
 31
0.0
 11
77.1822713826
 21
57.2803119414
 31
0.0
 11
77.118485119
 21
57.3740991675
 31
0.0
 11
77.024696786
 21
57.4378850135
 31
0.0
 11
76.9170658707
 21
57.4624569242
 31
0.0
  0
SPLINE
  5
2F1
100
AcDbEntity
  8
RACCORDO
100
AcDbSpline
 62
253
  6
CONTINUOUS
 70
0
 71
3
 72
11
 73
7
 74
5
 42
0.0000001
 43
0.0000001
 44
0.0000000001
 12
0.455547462
 22
-0.0054839322
 32
0.0
 13
-0.0055021796
 23
0.455547242
 33
0.0
 40
0.0
 40
0.0
 40
0.0
 40
0.0
 40
0.2500602726
 40
0.5000004489
 40
0.74994087
 40
1.0
 40
1.0
 40
1.0
 40
1.0
 10
76.9337538005
 20
-58.6516917039
 30
0.0
 10
76.9717252414
 20
-58.6521488084
 30
0.0
 10
77.048745114
 20
-58.638972159
 30
0.0
 10
77.1470817143
 20
-58.5752655632
 30
0.0
 10
77.2107955611
 20
-58.4769348622
 30
0.0
 10
77.223979876
 20
-58.3999151355
 30
0.0
 10
77.2235212526
 20
-58.3619438865
 30
0.0
 11
76.9337538005
 21
-58.6516917039
 31
0.0
 11
77.0458980097
 21
-58.6316410248
 31
0.0
 11
77.1413121683
 21
-58.5694958037
 31
0.0
 11
77.2034652133
 21
-58.4740866083
 31
0.0
 11
77.2235212526
 21
-58.3619438865
 31
0.0
  0
SPLINE
  5
2F2
100
AcDbEntity
  8
RACCORDO
100
AcDbSpline
 62
253
  6
CONTINUOUS
 70
0
 71
3
 72
11
 73
7
 74
5
 42
0.0000001
 43
0.0000001
 44
0.0000000001
 12
0.4473039548
 22
0.0175586516
 32
0.0
 13
0.0175269134
 23
0.4473051996
 33
0.0
 40
0.0
 40
0.0
 40
0.0
 40
0.0
 40
0.2466266199
 40
0.5000013352
 40
0.7533775704
 40
1.0
 40
1.0
 40
1.0
 40
1.0
 10
76.9170658707
 20
-58.6350140968
 30
0.0
 10
76.9538382249
 20
-58.6335706198
 30
0.0
 10
77.0285332798
 20
-58.6165248476
 30
0.0
 10
77.1235752099
 20
-58.5517442012
 30
0.0
 10
77.1883527676
 20
-58.4567025781
 30
0.0
 10
77.2054027753
 20
-58.3820081806
 30
0.0
 10
77.2068436186
 20
-58.3452363489
 30
0.0
 11
76.9170658707
 21
-58.6350140968
 31
0.0
 11
77.0246986358
 21
-58.6104418608
 31
0.0
 11
77.1184858619
 21
-58.5466555971
 31
0.0
 11
77.1822717078
 21
-58.4528672642
 31
0.0
 11
77.2068436186
 21
-58.3452363489
 31
0.0
  0
SPLINE
  5
2F3
100
AcDbEntity
  8
RACCORDO
100
AcDbSpline
 62
253
  6
CONTINUOUS
 70
0
 71
3
 72
11
 73
7
 74
5
 42
0.0000001
 43
0.0000001
 44
0.0000000001
 12
-0.0054839322
 22
-0.455547462
 32
0.0
 13
0.455547242
 23
0.0055021796
 33
0.0
 40
0.0
 40
0.0
 40
0.0
 40
0.0
 40
0.2500602726
 40
0.5000004489
 40
0.74994087
 40
1.0
 40
1.0
 40
1.0
 40
1.0
 10
-13.0073050095
 20
-58.3619242787
 30
0.0
 10
-13.007762114
 20
-58.3998957195
 30
0.0
 10
-12.9945854647
 20
-58.4769155922
 30
0.0
 10
-12.9308788688
 20
-58.5752521925
 30
0.0
 10
-12.8325481678
 20
-58.6389660393
 30
0.0
 10
-12.7555284411
 20
-58.6521503542
 30
0.0
 10
-12.7175571921
 20
-58.6516917307
 30
0.0
 11
-13.0073050095
 21
-58.3619242787
 31
0.0
 11
-12.9872543304
 21
-58.4740684879
 31
0.0
 11
-12.9251091093
 21
-58.5694826464
 31
0.0
 11
-12.8296999139
 21
-58.6316356914
 31
0.0
 11
-12.7175571921
 21
-58.6516917307
 31
0.0
  0
SPLINE
  5
2F4
100
AcDbEntity
  8
RACCORDO
100
AcDbSpline
 62
253
  6
CONTINUOUS
 70
0
 71
3
 72
11
 73
7
 74
5
 42
0.0000001
 43
0.0000001
 44
0.0000000001
 12
0.0175586516
 22
-0.4473039548
 32
0.0
 13
0.4473051996
 23
-0.0175269134
 33
0.0
 40
0.0
 40
0.0
 40
0.0
 40
0.0
 40
0.2466266199
 40
0.5000013352
 40
0.7533775704
 40
1.0
 40
1.0
 40
1.0
 40
1.0
 10
-12.9906274024
 20
-58.3452363489
 30
0.0
 10
-12.9891839254
 20
-58.3820087031
 30
0.0
 10
-12.9721381532
 20
-58.456703758
 30
0.0
 10
-12.9073575068
 20
-58.5517456881
 30
0.0
 10
-12.8123158838
 20
-58.6165232458
 30
0.0
 10
-12.7376214862
 20
-58.6335732535
 30
0.0
 10
-12.7008496545
 20
-58.6350140968
 30
0.0
 11
-12.9906274024
 21
-58.3452363489
 31
0.0
 11
-12.9660551664
 21
-58.452869114
 31
0.0
 11
-12.9022689027
 21
-58.54665634
 31
0.0
 11
-12.8084805698
 21
-58.610442186
 31
0.0
 11
-12.7008496545
 21
-58.6350140968
 31
0.0
  0
SPLINE
  5
2F5
100
AcDbEntity
  8
RACCORDO
100
AcDbSpline
 62
253
  6
CONTINUOUS
 70
0
 71
3
 72
23
 73
19
 74
17
 42
0.0000001
 43
0.0000001
 44
0.0000000001
 12
-0.0052257321
 22
0.6999443681
 32
0.0
 13
0.699851616
 23
0.0125356413
 33
0.0
 40
0.0
 40
0.0
 40
0.0
 40
0.0
 40
0.1950643086
 40
0.3826304685
 40
0.5554924549
 40
0.6343031525
 40
0.707008751
 40
0.7729014345
 40
0.8313582967
 40
0.8818035836
 40
0.9237654335
 40
0.9568267
 40
0.9699234141
 40
0.9806855133
 40
0.9890831408
 40
0.9951023458
 40
0.998735732
 40
1.0
 40
1.0
 40
1.0
 40
1.0
 10
-86.5126161793
 20
60.5189731567
 30
0.0
 10
-86.5129559639
 20
60.5644845448
 30
0.0
 10
-86.5135598178
 20
60.6537583746
 30
0.0
 10
-86.5142408034
 20
60.7833648564
 30
0.0
 10
-86.5146075403
 20
60.8858480258
 30
0.0
 10
-86.5147569128
 20
60.9615322857
 30
0.0
 10
-86.5147953936
 20
61.0122583439
 30
0.0
 10
-86.5147639347
 20
61.0582357915
 30
0.0
 10
-86.5146627819
 20
61.0990181827
 30
0.0
 10
-86.5144960676
 20
61.1342201996
 30
0.0
 10
-86.5142595472
 20
61.1634864543
 30
0.0
 10
-86.5140104877
 20
61.1840622487
 30
0.0
 10
-86.5137442126
 20
61.1973143315
 30
0.0
 10
-86.5135835683
 20
61.2048936079
 30
0.0
 10
-86.5133116324
 20
61.2106212698
 30
0.0
 10
-86.5132686432
 20
61.215154967
 30
0.0
 10
-86.5127784809
 20
61.2171153723
 30
0.0
 10
-86.5129111126
 20
61.2188612605
 30
0.0
 10
-86.5126161793
 20
61.2188665433
 30
0.0
 11
-86.5126161793
 21
60.5189731567
 31
0.0
 11
-86.513536622
 21
60.6555080236
 31
0.0
 11
-86.5142206666
 21
60.7867957777
 31
0.0
 11
-86.5146416087
 21
60.9077921914
 31
0.0
 11
-86.5147481029
 21
60.9629567299
 31
0.0
 11
-86.51478376
 21
61.0138480099
 31
0.0
 11
-86.5147481159
 21
61.0599704942
 31
0.0
 11
-86.5146416289
 21
61.1008880474
 31
0.0
 11
-86.5144652121
 21
61.1361974853
 31
0.0
 11
-86.514220677
 21
61.1655682463
 31
0.0
 11
-86.5139102116
 21
61.1887078559
 31
0.0
 11
-86.5137311188
 21
61.1978733331
 31
0.0
 11
-86.5135366107
 21
61.2054039022
 31
0.0
 11
-86.5133271243
 21
61.2112782039
 31
0.0
 11
-86.5131033708
 21
61.2154854843
 31
0.0
 11
-86.5128661293
 21
61.2180176339
 31
0.0
 11
-86.5126161793
 21
61.2188665433
 31
0.0
  0
SPLINE
  5
2F6
100
AcDbEntity
  8
RACCORDO
100
AcDbSpline
 62
253
  6
CONTINUOUS
 70
0
 71
3
 72
23
 73
19
 74
17
 42
0.0000001
 43
0.0000001
 44
0.0000000001
 12
-0.6998215041
 22
0.0141165512
 32
0.0
 13
0.0052251321
 23
0.699944364
 33
0.0
 40
0.0
 40
0.0
 40
0.0
 40
0.0
 40
0.0012647456
 40
0.0048981228
 40
0.0109170841
 40
0.0193144987
 40
0.0300766235
 40
0.0431735432
 40
0.0762352275
 40
0.1181972398
 40
0.1686425838
 40
0.227099564
 40
0.2929923806
 40
0.3656980255
 40
0.4445088585
 40
0.6173712155
 40
0.8049357875
 40
1.0
 40
1.0
 40
1.0
 40
1.0
 10
-86.5126161793
 20
-62.3914237159
 30
0.0
 10
-86.5129112114
 20
-62.3914177646
 30
0.0
 10
-86.5127784061
 20
-62.3896732051
 30
0.0
 10
-86.5132687073
 20
-62.3877112727
 30
0.0
 10
-86.5133116343
 20
-62.3831785388
 30
0.0
 10
-86.5135835894
 20
-62.3774506033
 30
0.0
 10
-86.5137442137
 20
-62.3698714649
 30
0.0
 10
-86.5140104846
 20
-62.3566191639
 30
0.0
 10
-86.514259534
 20
-62.3360432297
 30
0.0
 10
-86.5144960482
 20
-62.3067768078
 30
0.0
 10
-86.5146627601
 20
-62.2715747193
 30
0.0
 10
-86.5147639216
 20
-62.2307922544
 30
0.0
 10
-86.5147953943
 20
-62.1848147386
 30
0.0
 10
-86.5147569272
 20
-62.1340886074
 30
0.0
 10
-86.5146075649
 20
-62.0584042196
 30
0.0
 10
-86.5142408167
 20
-61.9559213039
 30
0.0
 10
-86.5135598071
 20
-61.8263151302
 30
0.0
 10
-86.5129559247
 20
-61.7370416947
 30
0.0
 10
-86.5126161793
 20
-61.6915303293
 30
0.0
 11
-86.5126161793
 21
-62.3914237159
 31
0.0
 11
-86.5128661492
 21
-62.3905744638
 31
0.0
 11
-86.5131033952
 21
-62.388042321
 31
0.0
 11
-86.513327144
 21
-62.3838352113
 31
0.0
 11
-86.513536622
 21
-62.3779610584
 31
0.0
 11
-86.5137311229
 21
-62.3704304713
 31
0.0
 11
-86.5139102099
 21
-62.3612648502
 31
0.0
 11
-86.5142206666
 21
-62.3381249483
 31
0.0
 11
-86.5144651941
 21
-62.3087540738
 31
0.0
 11
-86.5146416087
 21
-62.2734445965
 31
0.0
 11
-86.5147481029
 21
-62.2325269611
 31
0.0
 11
-86.51478376
 21
-62.1864043842
 31
0.0
 11
-86.5147481159
 21
-62.1355130724
 31
0.0
 11
-86.5146416289
 21
-62.0803484397
 31
0.0
 11
-86.514220677
 21
-61.9593517682
 31
0.0
 11
-86.5135366107
 21
-61.8280651273
 31
0.0
 11
-86.5126161793
 21
-61.6915303293
 31
0.0
  0
ELLIPSE
  5
2F7
100
AcDbEntity
  8
RACCORDO
100
AcDbEllipse
 62
7
  6
CONTINUOUS
 10
-12.6822459078
 20
57.1540754296
 30
0.0
 11
0.2121966568
 21
-0.2121966568
 31
0.0
 40
0.9996954599
 41
2.3563467834
 42
3.9268385237
  0
ELLIPSE
  5
2F8
100
AcDbEntity
  8
RACCORDO
100
AcDbEllipse
 62
7
  6
CONTINUOUS
 10
76.898462124
 20
57.1540754296
 30
0.0
 11
0.2121966568
 21
0.2121966568
 31
0.0
 40
0.9996954599
 41
-0.7852458701
 42
0.7852458701
  0
ELLIPSE
  5
2F9
100
AcDbEntity
  8
RACCORDO
100
AcDbEllipse
 62
7
  6
CONTINUOUS
 10
76.898462124
 20
-58.3266326022
 30
0.0
 11
0.2121966568
 21
-0.2121966568
 31
0.0
 40
0.9996954599
 41
-0.7852458701
 42
0.7852458701
  0
ELLIPSE
  5
2FA
100
AcDbEntity
  8
RACCORDO
100
AcDbEllipse
 62
7
  6
CONTINUOUS
 10
-12.6822459078
 20
-58.3266326022
 30
0.0
 11
-0.2121966568
 21
-0.2121966568
 31
0.0
 40
0.9996954599
 41
-0.7852458701
 42
0.7852458701
  0
ELLIPSE
  5
2FB
100
AcDbEntity
  8
RACCORDO
100
AcDbEllipse
 62
7
  6
CONTINUOUS
 10
80.3112394265
 20
60.5668527321
 30
0.0
 11
0.4951255324
 21
0.4951255324
 31
0.0
 40
0.9996954599
 41
-0.7852458702
 42
0.7852458701
  0
ELLIPSE
  5
2FC
100
AcDbEntity
  8
RACCORDO
100
AcDbEllipse
 62
7
  6
CONTINUOUS
 10
80.3112394265
 20
-61.7394099047
 30
0.0
 11
-0.4951255324
 21
0.4951255324
 31
0.0
 40
0.9996954599
 41
-3.9268385238
 42
-2.3563467835
  0
ELLIPSE
  5
2FD
100
AcDbEntity
  8
RACCORDO
100
AcDbEllipse
 62
7
  6
CONTINUOUS
 10
-16.0950232103
 20
-61.7394099047
 30
0.0
 11
0.4951255324
 21
0.4951255324
 31
0.0
 40
0.9996954599
 41
-3.9268385237
 42
-2.3563467834
  0
ELLIPSE
  5
2FE
100
AcDbEntity
  8
RACCORDO
100
AcDbEllipse
 62
7
  6
CONTINUOUS
 10
-16.0950232103
 20
60.5668527321
 30
0.0
 11
0.4951255324
 21
-0.4951255324
 31
0.0
 40
0.9996954599
 41
2.3563467834
 42
3.9268385237
  0
ENDSEC
  0
SECTION
  2
OBJECTS
  0
DICTIONARY
  5
C
100
AcDbDictionary
280
0
281
1
  3
ACAD_GROUP
350
D
  3
ACAD_MLINESTYLE
350
17
  3
ACAD_LAYOUT
350
1A
  3
ACAD_PLOTSETTINGS
350
19
  3
ACAD_PLOTSTYLENAME
350
E
  0
DICTIONARY
  5
D
102
{ACAD_REACTORS
330
C
102
}
100
AcDbDictionary
280
0
281
1
  0
ACDBDICTIONARYWDFLT
  5
E
102
{ACAD_REACTORS
330
C
102
}
100
AcDbDictionary
281
1
  3
Normal
350
F
100
AcDbDictionaryWithDefault
340
F
  0
DICTIONARY
  5
17
102
{ACAD_REACTORS
330
C
102
}
100
AcDbDictionary
280
0
281
1
  3
Standard
350
18
  0
DICTIONARY
  5
19
102
{ACAD_REACTORS
330
C
102
}
100
AcDbDictionary
281
1
  0
DICTIONARY
  5
1A
102
{ACAD_REACTORS
330
C
102
}
100
AcDbDictionary
281
1
  3
Model
350
2FF
  3
Layout1
350
300
  0
ACDBPLACEHOLDER
  5
F
102
{ACAD_REACTORS
330
E
102
}
  0
MLINESTYLE
  5
18
102
{ACAD_REACTORS
330
17
102
}
100
AcDbMlineStyle
  2
STANDARD
 70
0
  3

 62
256
 51
90.0
 52
90.0
 71
2
 49
0.5
 62
256
  6
BYLAYER
 49
-0.5
 62
256
  6
BYLAYER
  0
LAYOUT
  5
2FF
102
{ACAD_REACTORS
330
1A
102
}
100
AcDbPlotSettings
  1

  2
none_device
  4
ISO_A4_(297.00_x_210.00_MM)
  6

 40
0.0
 41
0.0
 42
0.0
 43
0.0
 44
297.0
 45
210.0
 46
0.0
 47
0.0
 48
0.0
 49
0.0
140
0.0
141
0.0
142
1.0
143
1.0
 70
1024
 72
1
 73
0
 74
0
  7

 75
0
147
1.0
148
0.0
149
0.0
100
AcDbLayout
  1
Model
 70
0
 71
0
 10
0.0
 20
0.0
 11
297.0
 21
210.0
 12
0.0
 22
0.0
 32
0.0
 14
0.0
 24
0.0
 34
0.0
 15
0.0
 25
0.0
 35
0.0
146
0.0
 13
0.0
 23
0.0
 33
0.0
 16
1.0
 26
0.0
 36
0.0
 17
0.0
 27
1.0
 37
0.0
 76
0
330
216
345
0
346
0
  0
LAYOUT
  5
300
102
{ACAD_REACTORS
330
1A
102
}
100
AcDbPlotSettings
  1

  2
none_device
  4
ISO_A4_(297.00_x_210.00_MM)
  6

 40
0.0
 41
0.0
 42
0.0
 43
0.0
 44
297.0
 45
210.0
 46
0.0
 47
0.0
 48
0.0
 49
0.0
140
0.0
141
0.0
142
1.0
143
1.0
 70
0
 72
1
 73
0
 74
0
  7

 75
0
147
1.0
148
0.0
149
0.0
100
AcDbLayout
  1
Layout1
 70
0
 71
1
 10
0.0
 20
0.0
 11
297.0
 21
210.0
 12
0.0
 22
0.0
 32
0.0
 14
0.0
 24
0.0
 34
0.0
 15
0.0
 25
0.0
 35
0.0
146
0.0
 13
0.0
 23
0.0
 33
0.0
 16
1.0
 26
0.0
 36
0.0
 17
0.0
 27
1.0
 37
0.0
 76
0
330
217
345
0
346
0
  0
ENDSEC
  0
EOF
